  0
SECTION
  2
HEADER
  9
$ACADVER
  1
AC1015
  9
$ACADMAINTVER
 70
     6
  9
$DWGCODEPAGE
  3
DOS932
  9
$INSBASE
 10
0.0
 20
0.0
 30
0.0
  9
$EXTMIN
 10
0.0
 20
0.0
 30
0.0
  9
$EXTMAX
 10
210.0
 20
297.0
 30
0.0
  9
$LIMMIN
 10
0.0
 20
0.0
  9
$LIMMAX
 10
210.0
 20
297.0
  9
$ORTHOMODE
 70
     0
  9
$REGENMODE
 70
     1
  9
$FILLMODE
 70
     1
  9
$QTEXTMODE
 70
     0
  9
$MIRRTEXT
 70
     1
  9
$LTSCALE
 40
1.0
  9
$ATTMODE
 70
     1
  9
$TEXTSIZE
 40
3.5
  9
$TRACEWID
 40
1.0
  9
$TEXTSTYLE
  7
Standard
  9
$CLAYER
  8
0
  9
$CELTYPE
  6
ByLayer
  9
$CECOLOR
 62
   256
  9
$CELTSCALE
 40
1.0
  9
$DISPSILH
 70
     0
  9
$DIMSCALE
 40
1.0
  9
$DIMASZ
 40
3.0
  9
$DIMEXO
 40
1.0
  9
$DIMDLI
 40
3.75
  9
$DIMRND
 40
0.0
  9
$DIMDLE
 40
0.0
  9
$DIMEXE
 40
1.0
  9
$DIMTP
 40
0.0
  9
$DIMTM
 40
0.0
  9
$DIMTXT
 40
3.5
  9
$DIMCEN
 40
2.5
  9
$DIMTSZ
 40
0.0
  9
$DIMTOL
 70
     0
  9
$DIMLIM
 70
     0
  9
$DIMTIH
 70
     1
  9
$DIMTOH
 70
     1
  9
$DIMSE1
 70
     0
  9
$DIMSE2
 70
     0
  9
$DIMTAD
 70
     1
  9
$DIMZIN
 70
     0
  9
$DIMBLK
  1

  9
$DIMASO
 70
     1
  9
$DIMSHO
 70
     1
  9
$DIMPOST
  1

  9
$DIMAPOST
  1

  9
$DIMALT
 70
     0
  9
$DIMALTD
 70
     3
  9
$DIMALTF
 40
0.0393700787
  9
$DIMLFAC
 40
1.0
  9
$DIMTOFL
 70
     1
  9
$DIMTVP
 40
0.0
  9
$DIMTIX
 70
     0
  9
$DIMSOXD
 70
     0
  9
$DIMSAH
 70
     0
  9
$DIMBLK1
  1

  9
$DIMBLK2
  1

  9
$DIMSTYLE
  2
ISO-25
  9
$DIMCLRD
 70
     0
  9
$DIMCLRE
 70
     0
  9
$DIMCLRT
 70
     0
  9
$DIMTFAC
 40
1.0
  9
$DIMGAP
 40
1.524
  9
$DIMJUST
 70
     0
  9
$DIMSD1
 70
     0
  9
$DIMSD2
 70
     0
  9
$DIMTOLJ
 70
     0
  9
$DIMTZIN
 70
     0
  9
$DIMALTZ
 70
     0
  9
$DIMALTTZ
 70
     0
  9
$DIMUPT
 70
     0
  9
$DIMDEC
 70
     1
  9
$DIMTDEC
 70
     3
  9
$DIMALTU
 70
     2
  9
$DIMALTTD
 70
     3
  9
$DIMTXSTY
  7
Standard
  9
$DIMAUNIT
 70
     0
  9
$DIMADEC
 70
     2
  9
$DIMALTRND
 40
0.0
  9
$DIMAZIN
 70
     0
  9
$DIMDSEP
 70
    44
  9
$DIMATFIT
 70
     3
  9
$DIMFRAC
 70
     0
  9
$DIMLDRBLK
  1

  9
$DIMLUNIT
 70
     2
  9
$DIMLWD
 70
    -2
  9
$DIMLWE
 70
    -2
  9
$DIMTMOVE
 70
     0
  9
$LUNITS
 70
     2
  9
$LUPREC
 70
     1
  9
$SKETCHINC
 40
1.0
  9
$FILLETRAD
 40
10.0
  9
$AUNITS
 70
     0
  9
$AUPREC
 70
     2
  9
$MENU
  1
.
  9
$ELEVATION
 40
0.0
  9
$PELEVATION
 40
0.0
  9
$THICKNESS
 40
0.0
  9
$LIMCHECK
 70
     0
  9
$CHAMFERA
 40
0.0
  9
$CHAMFERB
 40
0.0
  9
$CHAMFERC
 40
0.0
  9
$CHAMFERD
 40
0.0
  9
$SKPOLY
 70
     0
  9
$TDCREATE
 40
2460053.392380069
  9
$TDUCREATE
 40
2460053.017380069
  9
$TDUPDATE
 40
2460053.39238169
  9
$TDUUPDATE
 40
2460053.01738169
  9
$TDINDWG
 40
0.0000000116
  9
$TDUSRTIMER
 40
0.0000000116
  9
$USRTIMER
 70
     1
  9
$ANGBASE
 50
0.0
  9
$ANGDIR
 70
     0
  9
$PDMODE
 70
     0
  9
$PDSIZE
 40
-1.0
  9
$PLINEWID
 40
0.0
  9
$SPLFRAME
 70
     0
  9
$SPLINETYPE
 70
     6
  9
$SPLINESEGS
 70
     8
  9
$HANDSEED
  5
31E
  9
$SURFTAB1
 70
     6
  9
$SURFTAB2
 70
     6
  9
$SURFTYPE
 70
     6
  9
$SURFU
 70
     6
  9
$SURFV
 70
     6
  9
$UCSBASE
  2

  9
$UCSNAME
  2

  9
$UCSORG
 10
0.0
 20
0.0
 30
0.0
  9
$UCSXDIR
 10
1.0
 20
0.0
 30
0.0
  9
$UCSYDIR
 10
0.0
 20
1.0
 30
0.0
  9
$UCSORTHOREF
  2

  9
$UCSORTHOVIEW
 70
     0
  9
$UCSORGTOP
 10
0.0
 20
0.0
 30
0.0
  9
$UCSORGBOTTOM
 10
0.0
 20
0.0
 30
0.0
  9
$UCSORGLEFT
 10
0.0
 20
0.0
 30
0.0
  9
$UCSORGRIGHT
 10
0.0
 20
0.0
 30
0.0
  9
$UCSORGFRONT
 10
0.0
 20
0.0
 30
0.0
  9
$UCSORGBACK
 10
0.0
 20
0.0
 30
0.0
  9
$PUCSBASE
  2

  9
$PUCSNAME
  2

  9
$PUCSORG
 10
0.0
 20
0.0
 30
0.0
  9
$PUCSXDIR
 10
1.0
 20
0.0
 30
0.0
  9
$PUCSYDIR
 10
0.0
 20
1.0
 30
0.0
  9
$PUCSORTHOREF
  2

  9
$PUCSORTHOVIEW
 70
     0
  9
$PUCSORGTOP
 10
0.0
 20
0.0
 30
0.0
  9
$PUCSORGBOTTOM
 10
0.0
 20
0.0
 30
0.0
  9
$PUCSORGLEFT
 10
0.0
 20
0.0
 30
0.0
  9
$PUCSORGRIGHT
 10
0.0
 20
0.0
 30
0.0
  9
$PUCSORGFRONT
 10
0.0
 20
0.0
 30
0.0
  9
$PUCSORGBACK
 10
0.0
 20
0.0
 30
0.0
  9
$USERI1
 70
     0
  9
$USERI2
 70
     0
  9
$USERI3
 70
     0
  9
$USERI4
 70
     0
  9
$USERI5
 70
     0
  9
$USERR1
 40
0.0
  9
$USERR2
 40
0.0
  9
$USERR3
 40
0.0
  9
$USERR4
 40
0.0
  9
$USERR5
 40
0.0
  9
$WORLDVIEW
 70
     1
  9
$SHADEDGE
 70
     3
  9
$SHADEDIF
 70
    70
  9
$TILEMODE
 70
     1
  9
$MAXACTVP
 70
    64
  9
$PINSBASE
 10
0.0
 20
0.0
 30
0.0
  9
$PLIMCHECK
 70
     0
  9
$PEXTMIN
 10
1.0000000000E+20
 20
1.0000000000E+20
 30
1.0000000000E+20
  9
$PEXTMAX
 10
-1.0000000000E+20
 20
-1.0000000000E+20
 30
-1.0000000000E+20
  9
$PLIMMIN
 10
0.0
 20
0.0
  9
$PLIMMAX
 10
420.0
 20
297.0
  9
$UNITMODE
 70
     0
  9
$VISRETAIN
 70
     1
  9
$PLINEGEN
 70
     0
  9
$PSLTSCALE
 70
     1
  9
$TREEDEPTH
 70
  3020
  9
$CMLSTYLE
  2
Standard
  9
$CMLJUST
 70
     0
  9
$CMLSCALE
 40
20.0
  9
$PROXYGRAPHICS
 70
     1
  9
$MEASUREMENT
 70
     1
  9
$CELWEIGHT
370
    -1
  9
$ENDCAPS
280
     0
  9
$JOINSTYLE
280
     0
  9
$LWDISPLAY
290
     1
  9
$INSUNITS
 70
     4
  9
$HYPERLINKBASE
  1

  9
$STYLESHEET
  1

  9
$XEDIT
290
     1
  9
$CEPSNTYPE
380
     0
  9
$PSTYLEMODE
290
     1
  9
$FINGERPRINTGUID
  2
{86acbf01-a590-42e6-a08f-160f36430905}
  9
$VERSIONGUID
  2
{FAEB1C32-E019-11D5-929B-00C0DF256EC4}
  9
$EXTNAMES
290
     1
  9
$PSVPSCALE
 40
0.0
  9
$OLESTARTUP
290
     0
  0
ENDSEC
  0
SECTION
  2
CLASSES
  0
CLASS
  1
ACDBDICTIONARYWDFLT
  2
AcDbDictionaryWithDefault
  3
ObjectDBX Classes
 90
        0
280
     0
281
     0
  0
CLASS
  1
VISUALSTYLE
  2
AcDbVisualStyle
  3
ObjectDBX Classes
 90
     4095
280
     0
281
     0
  0
CLASS
  1
MATERIAL
  2
AcDbMaterial
  3
ObjectDBX Classes
 90
     1153
280
     0
281
     0
  0
CLASS
  1
SCALE
  2
AcDbScale
  3
ObjectDBX Classes
 90
     1153
280
     0
281
     0
  0
CLASS
  1
TABLESTYLE
  2
AcDbTableStyle
  3
ObjectDBX Classes
 90
     4095
280
     0
281
     0
  0
CLASS
  1
MLEADERSTYLE
  2
AcDbMLeaderStyle
  3
ACDB_MLEADERSTYLE_CLASS
 90
     4095
280
     0
281
     0
  0
CLASS
  1
SUN
  2
AcDbSun
  3
SCENEOE
 90
     1153
280
     0
281
     0
  0
CLASS
  1
ACDBPLACEHOLDER
  2
AcDbPlaceHolder
  3
ObjectDBX Classes
 90
        0
280
     0
281
     0
  0
CLASS
  1
LAYOUT
  2
AcDbLayout
  3
ObjectDBX Classes
 90
        0
280
     0
281
     0
  0
ENDSEC
  0
SECTION
  2
TABLES
  0
TABLE
  2
VPORT
  5
8
330
0
100
AcDbSymbolTable
 70
     1
  0
VPORT
  5
29
330
8
100
AcDbSymbolTableRecord
100
AcDbViewportTableRecord
  2
*Active
 70
     0
 10
0.0
 20
0.0
 11
1.0
 21
1.0
 12
105.0
 22
148.5
 13
0.0
 23
0.0
 14
10.0
 24
10.0
 15
10.0
 25
10.0
 16
0.0
 26
0.0
 36
1.0
 17
0.0
 27
0.0
 37
0.0
 40
297.0
 41
0.7070707071
 42
50.0
 43
0.0
 44
0.0
 50
0.0
 51
0.0
 71
     0
 72
  2000
 73
     1
 74
     3
 75
     0
 76
     0
 77
     0
 78
     0
281
     0
 65
     1
110
0.0
120
0.0
130
0.0
111
1.0
121
0.0
131
0.0
112
0.0
122
1.0
132
0.0
 79
     0
146
0.0
  0
ENDTAB
  0
TABLE
  2
LTYPE
  5
5
330
0
100
AcDbSymbolTable
 70
     6
  0
LTYPE
  5
14
330
5
100
AcDbSymbolTableRecord
100
AcDbLinetypeTableRecord
  2
ByBlock
 70
     0
  3

 72
    65
 73
     0
 40
0.0
  0
LTYPE
  5
15
330
5
100
AcDbSymbolTableRecord
100
AcDbLinetypeTableRecord
  2
ByLayer
 70
     0
  3

 72
    65
 73
     0
 40
0.0
  0
LTYPE
  5
16
330
5
100
AcDbSymbolTableRecord
100
AcDbLinetypeTableRecord
  2
Continuous
 70
     0
  3
Solid line
 72
    65
 73
     0
 40
0.0
  0
LTYPE
  5
6E
330
5
100
AcDbSymbolTableRecord
100
AcDbLinetypeTableRecord
  2
HIDDEN
 70
     0
  3
Hidden __ __ __ __ __ __ __ __ __ __ __ __ __ __
 72
    65
 73
     2
 40
1.905
 49
1.27
 74
     0
 49
-0.635
 74
     0
  0
LTYPE
  5
6F
330
5
100
AcDbSymbolTableRecord
100
AcDbLinetypeTableRecord
  2
PHANTOM
 70
     0
  3
Phantom ______  __  __  ______  __  __  ______
 72
    65
 73
     6
 40
12.7
 49
6.35
 74
     0
 49
-1.27
 74
     0
 49
1.27
 74
     0
 49
-1.27
 74
     0
 49
1.27
 74
     0
 49
-1.27
 74
     0
  0
LTYPE
  5
70
330
5
100
AcDbSymbolTableRecord
100
AcDbLinetypeTableRecord
  2
CENTER
 70
     0
  3
Center ____ _ ____ _ ____ _ ____ _ ____ _ ____
 72
    65
 73
     4
 40
10.16
 49
6.35
 74
     0
 49
-1.27
 74
     0
 49
1.27
 74
     0
 49
-1.27
 74
     0
  0
LTYPE
  5
71
330
5
100
AcDbSymbolTableRecord
100
AcDbLinetypeTableRecord
  2
CENTERX2
 70
     0
  3
Center (2x) ________  __  ________  __  _____
 72
    65
 73
     4
 40
20.32
 49
12.7
 74
     0
 49
-2.54
 74
     0
 49
2.54
 74
     0
 49
-2.54
 74
     0
  0
LTYPE
  5
72
330
5
100
AcDbSymbolTableRecord
100
AcDbLinetypeTableRecord
  2
DOT2
 70
     0
  3
Dot (.5x) ........................................
 72
    65
 73
     2
 40
0.635
 49
0.0
 74
     0
 49
-0.635
 74
     0
  0
ENDTAB
  0
TABLE
  2
LAYER
  5
2
330
0
100
AcDbSymbolTable
 70
     1
  0
LAYER
  5
10
330
2
100
AcDbSymbolTableRecord
100
AcDbLayerTableRecord
  2
0
 70
     0
 62
     7
  6
Continuous
370
    -3
390
F
  0
ENDTAB
  0
TABLE
  2
STYLE
  5
3
330
0
100
AcDbSymbolTable
 70
     2
  0
STYLE
  5
11
330
3
100
AcDbSymbolTableRecord
100
AcDbTextStyleTableRecord
  2
Standard
 70
     0
 40
0.0
 41
1.0
 50
0.0
 71
     0
 42
3.5
  3
txt
  4
bigfont
  0
STYLE
  5
7B
330
3
100
AcDbSymbolTableRecord
100
AcDbTextStyleTableRecord
  2
SLDTEXTSTYLE0
 70
     0
 40
0.0
 41
0.7
 50
0.0
 71
     0
 42
3.5
  3
TXT
  4
bigfont
  0
ENDTAB
  0
TABLE
  2
VIEW
  5
6
330
0
100
AcDbSymbolTable
 70
     0
  0
ENDTAB
  0
TABLE
  2
UCS
  5
7
330
0
100
AcDbSymbolTable
 70
     0
  0
ENDTAB
  0
TABLE
  2
APPID
  5
9
330
0
100
AcDbSymbolTable
 70
     1
  0
APPID
  5
12
330
9
100
AcDbSymbolTableRecord
100
AcDbRegAppTableRecord
  2
ACAD
 70
     0
  0
ENDTAB
  0
TABLE
  2
DIMSTYLE
  5
A
330
0
100
AcDbSymbolTable
 70
     3
100
AcDbDimStyleTable
  0
DIMSTYLE
105
27
330
A
100
AcDbSymbolTableRecord
100
AcDbDimStyleTableRecord
  2
ISO-25
 70
     0
 41
2.5
 42
0.625
 43
3.75
 44
1.25
 73
     0
 74
     0
 77
     1
 78
     8
140
2.5
141
2.5
143
0.0393700787
147
0.625
171
     3
172
     1
178
     0
271
     2
272
     2
274
     3
278
    44
283
     0
284
     8
340
11
  0
DIMSTYLE
105
2F0
102
{ACAD_REACTORS
330
2EF
330
2FA
330
304
102
}
330
A
100
AcDbSymbolTableRecord
100
AcDbDimStyleTableRecord
  2
SLDDIMSTYLE0
 70
     0
 41
3.0
 44
0.0
 45
0.000000001
 73
     0
 74
     0
 77
     3
 78
    12
 79
     3
140
3.5
147
0.875
173
     1
178
     0
271
     1
272
     3
276
     2
284
    12
340
7B
  0
DIMSTYLE
105
315
330
A
100
AcDbSymbolTableRecord
100
AcDbDimStyleTableRecord
  2
SLDDIMSTYLE1
 70
     0
 41
3.0
 44
0.0
 45
0.000000001
146
3.0
147
0.0
173
     1
178
     0
271
     0
272
     0
276
     2
340
11
341
316
343
316
344
316
  0
ENDTAB
  0
TABLE
  2
BLOCK_RECORD
  5
1
330
0
100
AcDbSymbolTable
 70
     6
  0
BLOCK_RECORD
  5
1F
330
1
100
AcDbSymbolTableRecord
100
AcDbBlockTableRecord
  2
*Model_Space
340
22
  0
BLOCK_RECORD
  5
1B
330
1
100
AcDbSymbolTableRecord
100
AcDbBlockTableRecord
  2
*Paper_Space
340
1E
  0
BLOCK_RECORD
  5
23
330
1
100
AcDbSymbolTableRecord
100
AcDbBlockTableRecord
  2
*Paper_Space0
340
26
  0
BLOCK_RECORD
  5
2F1
330
1
100
AcDbSymbolTableRecord
100
AcDbBlockTableRecord
  2
_D
340
0
  0
BLOCK_RECORD
  5
2FB
330
1
100
AcDbSymbolTableRecord
100
AcDbBlockTableRecord
  2
_D_1
340
0
  0
BLOCK_RECORD
  5
305
330
1
100
AcDbSymbolTableRecord
100
AcDbBlockTableRecord
  2
_D_2
340
0
  0
BLOCK_RECORD
  5
30F
330
1
100
AcDbSymbolTableRecord
100
AcDbBlockTableRecord
  2
SW_NOTE_0
340
0
102
{BLKREFS
331
314
102
}
  0
BLOCK_RECORD
  5
316
330
1
100
AcDbSymbolTableRecord
100
AcDbBlockTableRecord
  2
_Open30
340
0
  0
ENDTAB
  0
ENDSEC
  0
SECTION
  2
BLOCKS
  0
BLOCK
  5
20
330
1F
100
AcDbEntity
  8
0
100
AcDbBlockBegin
  2
*Model_Space
 70
     0
 10
0.0
 20
0.0
 30
0.0
  3
*Model_Space
  1

  0
ENDBLK
  5
21
330
1F
100
AcDbEntity
  8
0
100
AcDbBlockEnd
  0
BLOCK
  5
1C
330
1B
100
AcDbEntity
 67
     1
  8
0
100
AcDbBlockBegin
  2
*Paper_Space
 70
     0
 10
0.0
 20
0.0
 30
0.0
  3
*Paper_Space
  1

  0
ENDBLK
  5
1D
330
1B
100
AcDbEntity
 67
     1
  8
0
100
AcDbBlockEnd
  0
BLOCK
  5
24
330
23
100
AcDbEntity
  8
0
100
AcDbBlockBegin
  2
*Paper_Space0
 70
     0
 10
0.0
 20
0.0
 30
0.0
  3
*Paper_Space0
  1

  0
ENDBLK
  5
25
330
23
100
AcDbEntity
  8
0
100
AcDbBlockEnd
  0
BLOCK
  5
2F2
330
2F1
100
AcDbEntity
  8
0
100
AcDbBlockBegin
  2
_D
 70
     0
 10
0.0
 20
0.0
 30
0.0
  3
_D
  1

  0
SOLID
  5
2F4
330
2F1
100
AcDbEntity
  8
0
  6
Continuous
 62
     7
370
    18
100
AcDbTrace
 10
168.0564500842
 20
178.8723280253
 30
0.0
 11
167.3064500842
 21
175.8723280253
 31
0.0
 12
168.8064500842
 22
175.8723280253
 32
0.0
 13
168.8064500842
 23
175.8723280253
 33
0.0
  0
SOLID
  5
2F5
330
2F1
100
AcDbEntity
  8
0
  6
Continuous
 62
     7
370
    18
100
AcDbTrace
 10
168.0564500842
 20
119.4085978227
 30
0.0
 11
168.8064500842
 21
122.4085978227
 31
0.0
 12
167.3064500842
 22
122.4085978227
 32
0.0
 13
167.3064500842
 23
122.4085978227
 33
0.0
  0
LINE
  5
2F6
330
2F1
100
AcDbEntity
  8
0
  6
Continuous
 62
     7
370
     0
100
AcDbLine
 10
114.7063470057
 20
178.8723280253
 30
0.0
 11
169.0564500842
 21
178.8723280253
 31
0.0
  0
LINE
  5
2F7
330
2F1
100
AcDbEntity
  8
0
  6
Continuous
 62
     7
370
     0
100
AcDbLine
 10
146.1746086585
 20
119.4085978227
 30
0.0
 11
169.0564500842
 21
119.4085978227
 31
0.0
  0
LINE
  5
2F8
330
2F1
100
AcDbEntity
  8
0
  6
Continuous
 62
     7
370
     0
100
AcDbLine
 10
168.0564500842
 20
178.8723280253
 30
0.0
 11
168.0564500842
 21
119.4085978227
 31
0.0
  0
MTEXT
  5
2F9
330
2F1
100
AcDbEntity
  8
0
  6
Continuous
 62
     7
370
    18
100
AcDbMText
 10
163.5447132278
 20
145.0668519291
 30
0.0
 40
3.5
 41
0.0
 71
     1
 72
     1
  1
59.5
  7
SLDTEXTSTYLE0
 11
-7.044195017643634E-15
 21
1.0
 31
0.0
 73
     1
 44
1.0
  0
ENDBLK
  5
2F3
330
2F1
100
AcDbEntity
  8
0
100
AcDbBlockEnd
  0
BLOCK
  5
2FC
330
2FB
100
AcDbEntity
  8
0
100
AcDbBlockBegin
  2
_D_1
 70
     0
 10
0.0
 20
0.0
 30
0.0
  3
_D_1
  1

  0
SOLID
  5
2FE
330
2FB
100
AcDbEntity
  8
0
  6
Continuous
 62
     7
370
    18
100
AcDbTrace
 10
156.0564500842
 20
168.8723280252
 30
0.0
 11
155.3064500842
 21
165.8723280252
 31
0.0
 12
156.8064500842
 22
165.8723280252
 32
0.0
 13
156.8064500842
 23
165.8723280252
 33
0.0
  0
SOLID
  5
2FF
330
2FB
100
AcDbEntity
  8
0
  6
Continuous
 62
     7
370
    18
100
AcDbTrace
 10
156.0564500842
 20
119.4085978227
 30
0.0
 11
156.8064500842
 21
122.4085978227
 31
0.0
 12
155.3064500842
 22
122.4085978227
 32
0.0
 13
155.3064500842
 23
122.4085978227
 33
0.0
  0
LINE
  5
300
330
2FB
100
AcDbEntity
  8
0
  6
Continuous
 62
     7
370
     0
100
AcDbLine
 10
122.3063470048
 20
168.8723280252
 30
0.0
 11
157.0564500842
 21
168.8723280252
 31
0.0
  0
LINE
  5
301
330
2FB
100
AcDbEntity
  8
0
  6
Continuous
 62
     7
370
     0
100
AcDbLine
 10
146.1746086585
 20
119.4085978227
 30
0.0
 11
157.0564500842
 21
119.4085978227
 31
0.0
  0
LINE
  5
302
330
2FB
100
AcDbEntity
  8
0
  6
Continuous
 62
     7
370
     0
100
AcDbLine
 10
156.0564500842
 20
168.8723280252
 30
0.0
 11
156.0564500842
 21
119.4085978227
 31
0.0
  0
MTEXT
  5
303
330
2FB
100
AcDbEntity
  8
0
  6
Continuous
 62
     7
370
    18
100
AcDbMText
 10
151.5447132278
 20
140.066851929
 30
0.0
 40
3.5
 41
0.0
 71
     1
 72
     1
  1
49.5
  7
SLDTEXTSTYLE0
 11
-7.044195017643634E-15
 21
1.0
 31
0.0
 73
     1
 44
1.0
  0
ENDBLK
  5
2FD
330
2FB
100
AcDbEntity
  8
0
100
AcDbBlockEnd
  0
BLOCK
  5
306
330
305
100
AcDbEntity
  8
0
100
AcDbBlockBegin
  2
_D_2
 70
     0
 10
0.0
 20
0.0
 30
0.0
  3
_D_2
  1

  0
SOLID
  5
308
330
305
100
AcDbEntity
  8
0
  6
Continuous
 62
     7
370
    18
100
AcDbTrace
 10
146.0563470052
 20
106.1995969367
 30
0.0
 11
143.0563470052
 21
106.9495969367
 31
0.0
 12
143.0563470052
 22
105.4495969367
 32
0.0
 13
143.0563470052
 23
105.4495969367
 33
0.0
  0
SOLID
  5
309
330
305
100
AcDbEntity
  8
0
  6
Continuous
 62
     7
370
    18
100
AcDbTrace
 10
66.0563470053
 20
106.1995969367
 30
0.0
 11
69.0563470053
 21
105.4495969367
 31
0.0
 12
69.0563470053
 22
106.9495969367
 32
0.0
 13
69.0563470053
 23
106.9495969367
 33
0.0
  0
LINE
  5
30A
330
305
100
AcDbEntity
  8
0
  6
Continuous
 62
     7
370
     0
100
AcDbLine
 10
146.0563470052
 20
119.1660721009
 30
0.0
 11
146.0563470052
 21
105.1995969367
 31
0.0
  0
LINE
  5
30B
330
305
100
AcDbEntity
  8
0
  6
Continuous
 62
     7
370
     0
100
AcDbLine
 10
66.0563470053
 20
119.1660721009
 30
0.0
 11
66.0563470053
 21
105.1995969367
 31
0.0
  0
LINE
  5
30C
330
305
100
AcDbEntity
  8
0
  6
Continuous
 62
     7
370
     0
100
AcDbLine
 10
146.0563470052
 20
106.1995969367
 30
0.0
 11
66.0563470053
 21
106.1995969367
 31
0.0
  0
MTEXT
  5
30D
330
305
100
AcDbEntity
  8
0
  6
Continuous
 62
     7
370
    18
100
AcDbMText
 10
102.0845761338
 20
110.7113342588
 30
0.0
 40
3.5
 41
0.0
 71
     1
 72
     1
  1
%%c
  7
SLDTEXTSTYLE0
 73
     1
 44
1.0
  0
MTEXT
  5
30E
330
305
100
AcDbEntity
  8
0
  6
Continuous
 62
     7
370
    18
100
AcDbMText
 10
105.9545066489
 20
110.7113342588
 30
0.0
 40
3.5
 41
0.0
 71
     1
 72
     1
  1
80
  7
SLDTEXTSTYLE0
 73
     1
 44
1.0
  0
ENDBLK
  5
307
330
305
100
AcDbEntity
  8
0
100
AcDbBlockEnd
  0
BLOCK
  5
310
330
30F
100
AcDbEntity
  8
0
100
AcDbBlockBegin
  2
SW_NOTE_0
 70
     0
 10
0.0
 20
0.0
 30
0.0
  3
SW_NOTE_0
  1

  0
LINE
  5
312
330
30F
100
AcDbEntity
  8
0
  6
Continuous
 62
     0
370
     0
100
AcDbLine
 10
8.0415137447
 20
0.0
 30
0.0
 11
0.0
 21
0.0
 31
0.0
  0
MTEXT
  5
313
330
30F
100
AcDbEntity
  8
0
  6
Continuous
 62
     0
370
     0
100
AcDbMText
 10
0.4615440306
 20
4.590052651
 30
0.0
 40
3.5
 41
0.0
 71
     1
 72
     1
  1
G3/8
  7
SLDTEXTSTYLE0
 73
     1
 44
1.0
  0
ENDBLK
  5
311
330
30F
100
AcDbEntity
  8
0
100
AcDbBlockEnd
  0
BLOCK
  5
317
330
316
100
AcDbEntity
  8
0
100
AcDbBlockBegin
  2
_Open30
 70
     0
 10
0.0
 20
0.0
 30
0.0
  3
_Open30
  1

  0
LINE
  5
319
330
316
100
AcDbEntity
  8
0
  6
ByBlock
 62
     0
370
    -2
100
AcDbLine
 10
-1.0
 20
0.267949
 30
0.0
 11
0.0
 21
0.0
 31
0.0
  0
LINE
  5
31A
330
316
100
AcDbEntity
  8
0
  6
ByBlock
 62
     0
370
    -2
100
AcDbLine
 10
0.0
 20
0.0
 30
0.0
 11
-1.0
 21
-0.267949
 31
0.0
  0
LINE
  5
31B
330
316
100
AcDbEntity
  8
0
  6
ByBlock
 62
     0
370
    -2
100
AcDbLine
 10
0.0
 20
0.0
 30
0.0
 11
-1.0
 21
0.0
 31
0.0
  0
ENDBLK
  5
318
330
316
100
AcDbEntity
  8
0
100
AcDbBlockEnd
  0
ENDSEC
  0
SECTION
  2
ENTITIES
  0
LINE
  5
73
330
1F
100
AcDbEntity
  8
0
  6
Continuous
 62
     7
370
    18
100
AcDbLine
 10
20.2604743903
 20
285.0
 30
0.0
 11
196.7604743903
 21
285.0
 31
0.0
  0
LINE
  5
74
330
1F
100
AcDbEntity
  8
0
  6
Continuous
 62
     7
370
    18
100
AcDbLine
 10
20.2604743903
 20
285.0
 30
0.0
 11
20.2604743903
 21
10.0
 31
0.0
  0
LINE
  5
75
330
1F
100
AcDbEntity
  8
0
  6
Continuous
 62
     7
370
    18
100
AcDbLine
 10
20.2604743903
 20
10.0
 30
0.0
 11
196.7604743903
 21
10.0
 31
0.0
  0
LINE
  5
76
330
1F
100
AcDbEntity
  8
0
  6
Continuous
 62
     7
370
    18
100
AcDbLine
 10
196.7604743903
 20
285.0
 30
0.0
 11
196.7604743903
 21
10.0
 31
0.0
  0
LINE
  5
77
330
1F
100
AcDbEntity
  8
0
  6
Continuous
 62
     7
370
    18
100
AcDbLine
 10
127.0104743903
 20
50.75
 30
0.0
 11
196.7604743903
 21
50.75
 31
0.0
  0
LINE
  5
78
330
1F
100
AcDbEntity
  8
0
  6
Continuous
 62
     7
370
    18
100
AcDbLine
 10
127.0104743903
 20
50.75
 30
0.0
 11
127.0104743903
 21
10.0
 31
0.0
  0
LINE
  5
79
330
1F
100
AcDbEntity
  8
0
  6
Continuous
 62
     7
370
    18
100
AcDbLine
 10
127.0104743903
 20
22.75
 30
0.0
 11
196.7604743903
 21
22.75
 31
0.0
  0
LINE
  5
7A
330
1F
100
AcDbEntity
  8
0
  6
Continuous
 62
     7
370
    18
100
AcDbLine
 10
127.0104743903
 20
36.75
 30
0.0
 11
196.7604743903
 21
36.75
 31
0.0
  0
MTEXT
  5
7C
330
1F
100
AcDbEntity
  8
0
  6
Continuous
 62
     7
370
     0
100
AcDbMText
 10
148.902431505
 20
45.636420375
 30
0.0
 40
3.7041666667
 41
0.0
 71
     1
 72
     1
  1
吸着パッド
  7
SLDTEXTSTYLE0
 73
     1
 44
1.0
  0
MTEXT
  5
7D
330
1F
100
AcDbEntity
  8
0
  6
Continuous
 62
     7
370
     0
100
AcDbMText
 10
154.8482982205
 20
18.0297884471
 30
0.0
 40
3.7041666667
 41
0.0
 71
     1
 72
     1
  1
010750
  7
SLDTEXTSTYLE0
 73
     1
 44
1.0
  0
MTEXT
  5
7E
330
1F
100
AcDbEntity
  8
0
  6
Continuous
 62
     7
370
     0
100
AcDbMText
 10
132.8899448917
 20
31.3886874409
 30
0.0
 40
3.7041666667
 41
0.0
 71
     1
 72
     1
  1
B1.5/60-MU80-N6-G-F2-38M
  7
SLDTEXTSTYLE0
 73
     1
 44
1.0
  0
LINE
  5
7F
330
1F
100
AcDbEntity
  8
0
  6
Continuous
 62
     7
370
    18
100
AcDbLine
 10
66.938085352
 20
119.4085978227
 30
0.0
 11
145.1746086585
 21
119.4085978227
 31
0.0
  0
LINE
  5
80
330
1F
100
AcDbEntity
  8
0
  6
Continuous
 62
     7
370
    18
100
AcDbLine
 10
90.8373099551
 20
125.5992850019
 30
0.0
 11
90.8373099551
 21
125.9251346265
 31
0.0
  0
LINE
  5
81
330
1F
100
AcDbEntity
  8
0
  6
Continuous
 62
     7
370
    18
100
AcDbLine
 10
85.708072352
 20
124.9451272757
 30
0.0
 11
85.708072352
 21
124.6192774339
 31
0.0
  0
LINE
  5
82
330
1F
100
AcDbEntity
  8
0
  6
Continuous
 62
     7
370
    18
100
AcDbLine
 10
88.1442171106
 20
125.5803428482
 30
0.0
 11
88.1442171106
 21
125.906192256
 31
0.0
  0
LINE
  5
83
330
1F
100
AcDbEntity
  8
0
  6
Continuous
 62
     7
370
    18
100
AcDbLine
 10
83.8633607116
 20
124.871934971
 30
0.0
 11
83.8633607116
 21
124.5464790838
 31
0.0
  0
LINE
  5
84
330
1F
100
AcDbEntity
  8
0
  6
Continuous
 62
     7
370
    18
100
AcDbLine
 10
82.3638033014
 20
124.8375592823
 30
0.0
 11
82.3638033014
 21
124.5117100035
 31
0.0
  0
LINE
  5
85
330
1F
100
AcDbEntity
  8
0
  6
Continuous
 62
     7
370
    18
100
AcDbLine
 10
81.440021461
 20
124.8574017199
 30
0.0
 11
81.440021461
 21
124.5319780122
 31
0.0
  0
LINE
  5
86
330
1F
100
AcDbEntity
  8
0
  6
Continuous
 62
     7
370
    18
100
AcDbLine
 10
80.0447371215
 20
124.8482210845
 30
0.0
 11
80.0447371215
 21
124.5234201036
 31
0.0
  0
LINE
  5
87
330
1F
100
AcDbEntity
  8
0
  6
Continuous
 62
     7
370
    18
100
AcDbLine
 10
78.6893307272
 20
124.8522598804
 30
0.0
 11
78.6893307272
 21
124.5264100351
 31
0.0
  0
LINE
  5
88
330
1F
100
AcDbEntity
  8
0
  6
Continuous
 62
     7
370
    18
100
AcDbLine
 10
81.506344252
 20
125.6823926672
 30
0.0
 11
81.506344252
 21
125.9866531671
 31
0.0
  0
LINE
  5
89
330
1F
100
AcDbEntity
  8
0
  6
Continuous
 62
     7
370
    18
100
AcDbLine
 10
81.2219976935
 20
125.8886474233
 30
0.0
 11
81.2219976935
 21
125.9289189377
 31
0.0
  0
LINE
  5
8A
330
1F
100
AcDbEntity
  8
0
  6
Continuous
 62
     7
370
    18
100
AcDbLine
 10
80.3613089176
 20
125.7538590537
 30
0.0
 11
80.3613089176
 21
126.0450952823
 31
0.0
  0
LINE
  5
8B
330
1F
100
AcDbEntity
  8
0
  6
Continuous
 62
     7
370
    18
100
AcDbLine
 10
80.0517373048
 20
125.8863199577
 30
0.0
 11
80.0517373048
 21
125.9192473646
 31
0.0
  0
ARC
  5
8C
330
1F
100
AcDbEntity
  8
0
  6
Continuous
 62
     7
370
    18
100
AcDbCircle
 10
87.1063470052
 20
161.1723280253
 30
0.0
 40
0.3000000000001108
100
AcDbArc
 50
180.0000000952
 51
270.0
  0
LINE
  5
8D
330
1F
100
AcDbEntity
  8
0
  6
Continuous
 62
     7
370
    18
100
AcDbLine
 10
125.3063470052
 20
161.1723280252
 30
0.0
 11
125.3063470052
 21
165.8723280256
 31
0.0
  0
LINE
  5
8E
330
1F
100
AcDbEntity
  8
0
  6
Continuous
 62
     7
370
    18
100
AcDbLine
 10
97.7563470062
 20
171.0223280248
 30
0.0
 11
98.4063470047
 21
170.3723280253
 31
0.0
  0
LINE
  5
8F
330
1F
100
AcDbEntity
  8
0
  6
Continuous
 62
     7
370
    18
100
AcDbLine
 10
113.7063470057
 20
170.3723280253
 30
0.0
 11
114.3563470042
 21
171.0223280248
 31
0.0
  0
LINE
  5
90
330
1F
100
AcDbEntity
  8
0
  6
Continuous
 62
     7
370
    18
100
AcDbLine
 10
114.6813470052
 20
169.5223280253
 30
0.0
 11
97.4313470052
 21
169.5223280253
 31
0.0
  0
LWPOLYLINE
  5
91
330
1F
100
AcDbEntity
  8
0
  6
Continuous
 62
     7
370
    18
100
AcDbPolyline
 90
        3
 70
   128
 43
0.0
 10
103.8497096637
 20
149.8059408081
 10
103.8570881542
 20
149.707651713
 10
103.8644663944
 20
149.6093625917
  0
LWPOLYLINE
  5
92
330
1F
100
AcDbEntity
  8
0
  6
Continuous
 62
     7
370
    18
100
AcDbPolyline
 90
        3
 70
   128
 43
0.0
 10
98.8659136219
 20
149.8818459405
 10
98.890375195
 20
149.7822123298
 10
98.9148328272
 20
149.6825802693
  0
SPLINE
  5
93
330
1F
100
AcDbEntity
  8
0
  6
Continuous
 62
     7
370
    18
100
AcDbSpline
210
0.0
220
0.0
230
1.0
 70
     8
 71
     3
 72
     9
 73
     5
 74
     0
 42
0.00000001
 43
0.00000001
 40
0.0
 40
0.0
 40
0.0
 40
0.0
 40
0.499972826293773
 40
1.0
 40
1.0
 40
1.0
 40
1.0
 10
103.0949810523732
 20
151.0256201456856
 30
0.0
 10
103.0916200897941
 20
151.0563080623968
 30
0.0
 10
103.0848977992969
 20
151.1176872316182
 30
0.0
 10
103.0781932870525
 20
151.1789413661767
 30
0.0
 10
103.0748408487438
 20
151.2095700979578
 30
0.0
  0
LINE
  5
94
330
1F
100
AcDbEntity
  8
0
  6
Continuous
 62
     7
370
    18
100
AcDbLine
 10
82.5563470052
 20
132.4677673483
 30
0.0
 11
129.5563470052
 21
132.4677673483
 31
0.0
  0
LWPOLYLINE
  5
95
330
1F
100
AcDbEntity
  8
0
  6
Continuous
 62
     7
370
    18
100
AcDbPolyline
 90
        3
 70
   128
 43
0.0
 10
112.1178520137
 20
151.3762232195
 10
112.0963673029
 20
151.2803614608
 10
112.074878641
 20
151.1844968741
  0
LWPOLYLINE
  5
96
330
1F
100
AcDbEntity
  8
0
  6
Continuous
 62
     7
370
    18
100
AcDbPolyline
 90
        3
 70
   128
 43
0.0
 10
116.2717788939
 20
149.4071251877
 10
116.3061423783
 20
149.5063634628
 10
116.3405105586
 20
149.6056022994
  0
LWPOLYLINE
  5
97
330
1F
100
AcDbEntity
  8
0
  6
Continuous
 62
     7
370
    18
100
AcDbPolyline
 90
        3
 70
   128
 43
0.0
 10
93.5904594259
 20
149.5058541738
 10
93.6319411375
 20
149.4065644153
 10
93.6734166866
 20
149.3072762693
  0
LWPOLYLINE
  5
98
330
1F
100
AcDbEntity
  8
0
  6
Continuous
 62
     7
370
    18
100
AcDbPolyline
 90
        3
 70
   128
 43
0.0
 10
97.9977442881
 20
151.2760833138
 10
97.9687851254
 20
151.3721085697
 10
97.9398305458
 20
151.4681342525
  0
LWPOLYLINE
  5
99
330
1F
100
AcDbEntity
  8
0
  6
Continuous
 62
     7
370
    18
100
AcDbPolyline
 90
        3
 70
   128
 43
0.0
 10
120.9189626447
 20
149.1478226396
 10
120.9684120348
 20
149.2472271471
 10
121.0178685289
 20
149.3466341677
  0
LWPOLYLINE
  5
9A
330
1F
100
AcDbEntity
  8
0
  6
Continuous
 62
     7
370
    18
100
AcDbPolyline
 90
        3
 70
   128
 43
0.0
 10
116.658162201
 20
151.5791952633
 10
116.6200041743
 20
151.4829128594
 10
116.5818391168
 20
151.3866282012
  0
LWPOLYLINE
  5
9B
330
1F
100
AcDbEntity
  8
0
  6
Continuous
 62
     7
370
    18
100
AcDbPolyline
 90
        3
 70
   128
 43
0.0
 10
93.3206133958
 20
151.5774938118
 10
93.2736409624
 20
151.6743828167
 10
93.2266736891
 20
151.7712701348
  0
LWPOLYLINE
  5
9C
330
1F
100
AcDbEntity
  8
0
  6
Continuous
 62
     7
370
    18
100
AcDbPolyline
 90
        3
 70
   128
 43
0.0
 10
91.1424096434
 20
151.6185037587
 10
91.0873108485
 20
151.7152858913
 10
91.032217706
 20
151.8120648494
  0
LWPOLYLINE
  5
9D
330
1F
100
AcDbEntity
  8
0
  6
Continuous
 62
     7
370
    18
100
AcDbPolyline
 90
        3
 70
   128
 43
0.0
 10
121.533037991
 20
151.7848375488
 10
121.4762202467
 20
151.6875957431
 10
121.4193962516
 20
151.5903528771
  0
LWPOLYLINE
  5
9E
330
1F
100
AcDbEntity
  8
0
  6
Continuous
 62
     7
370
    18
100
AcDbPolyline
 90
        3
 70
   128
 43
0.0
 10
123.4361452586
 20
151.7659371545
 10
123.3723099854
 20
151.6686047194
 10
123.3084692281
 20
151.5712711381
  0
ARC
  5
9F
330
1F
100
AcDbEntity
  8
0
  6
Continuous
 62
     7
370
    18
100
AcDbCircle
 10
132.4664973669
 20
143.9723280256
 30
0.0
 40
0.2999999999999829
100
AcDbArc
 50
270.0
 51
359.9999998469
  0
LINE
  5
A0
330
1F
100
AcDbEntity
  8
0
  6
Continuous
 62
     7
370
    18
100
AcDbLine
 10
132.7664973672
 20
143.9723280248
 30
0.0
 11
132.7664973672
 21
144.1723280248
 31
0.0
  0
LINE
  5
A1
330
1F
100
AcDbEntity
  8
0
  6
Continuous
 62
     7
370
    18
100
AcDbLine
 10
80.7673395845
 20
143.6723280246
 30
0.0
 11
84.3499681293
 21
141.1723280248
 31
0.0
  0
LINE
  5
A2
330
1F
100
AcDbEntity
  8
0
  6
Continuous
 62
     7
370
    18
100
AcDbLine
 10
66.0563470054
 20
120.1660721009
 30
0.0
 11
146.0563470051
 21
120.1660721009
 31
0.0
  0
LINE
  5
A3
330
1F
100
AcDbEntity
  8
0
  6
Continuous
 62
     7
370
    18
100
AcDbLine
 10
146.0563470054
 20
120.166072101
 30
0.0
 11
145.3867406932
 21
119.4964657887
 31
0.0
  0
LINE
  5
A4
330
1F
100
AcDbEntity
  8
0
  6
Continuous
 62
     7
370
    18
100
AcDbLine
 10
66.7259533173
 20
119.4964657887
 30
0.0
 11
145.3867406932
 21
119.4964657887
 31
0.0
  0
LINE
  5
A5
330
1F
100
AcDbEntity
  8
0
  6
Continuous
 62
     7
370
    18
100
AcDbLine
 10
66.7259533173
 20
119.4964657887
 30
0.0
 11
66.056347005
 21
120.166072101
 31
0.0
  0
LINE
  5
A6
330
1F
100
AcDbEntity
  8
0
  6
Continuous
 62
     7
370
    18
100
AcDbLine
 10
66.0563470054
 20
120.1660721009
 30
0.0
 11
71.0563470053
 21
122.2812131178
 31
0.0
  0
LINE
  5
A7
330
1F
100
AcDbEntity
  8
0
  6
Continuous
 62
     7
370
    18
100
AcDbLine
 10
71.0563470053
 20
122.2812131179
 30
0.0
 11
141.0563470052
 21
122.2812131179
 31
0.0
  0
LINE
  5
A8
330
1F
100
AcDbEntity
  8
0
  6
Continuous
 62
     7
370
    18
100
AcDbLine
 10
141.0563470052
 20
122.2812131178
 30
0.0
 11
146.0563470051
 21
120.1660721009
 31
0.0
  0
ARC
  5
A9
330
1F
100
AcDbEntity
  8
0
  6
Continuous
 62
     7
370
    18
100
AcDbCircle
 10
66.938085352
 20
119.7085978227
 30
0.0
 40
0.3000000000000398
100
AcDbArc
 50
224.9999999084
 51
270.0
  0
ARC
  5
AA
330
1F
100
AcDbEntity
  8
0
  6
Continuous
 62
     7
370
    18
100
AcDbCircle
 10
145.1746086585
 20
119.7085978227
 30
0.0
 40
0.3000000000000398
100
AcDbArc
 50
270.0
 51
315.0000000915
  0
LINE
  5
AB
330
1F
100
AcDbEntity
  8
0
  6
Continuous
 62
     7
370
    18
100
AcDbLine
 10
71.0563470053
 20
122.2812131179
 30
0.0
 11
71.7278476962
 21
123.2310039437
 31
0.0
  0
LINE
  5
AC
330
1F
100
AcDbEntity
  8
0
  6
Continuous
 62
     7
370
    18
100
AcDbLine
 10
71.7278476962
 20
123.2310039438
 30
0.0
 11
140.3848463143
 21
123.2310039438
 31
0.0
  0
LINE
  5
AD
330
1F
100
AcDbEntity
  8
0
  6
Continuous
 62
     7
370
    18
100
AcDbLine
 10
140.3848463143
 20
123.2310039437
 30
0.0
 11
141.0563470052
 21
122.2812131179
 31
0.0
  0
ARC
  5
AE
330
1F
100
AcDbEntity
  8
0
  6
Continuous
 62
     7
370
    18
100
AcDbCircle
 10
73.3609242118
 20
122.0764212945
 30
0.0
 40
2.000000000000011
100
AcDbArc
 50
112.9757547199
 51
144.7397465123
  0
LINE
  5
AF
330
1F
100
AcDbEntity
  8
0
  6
Continuous
 62
     7
370
    18
100
AcDbLine
 10
72.5802410665
 20
123.9177615199
 30
0.0
 11
139.532452944
 21
123.9177615199
 31
0.0
  0
ARC
  5
B0
330
1F
100
AcDbEntity
  8
0
  6
Continuous
 62
     7
370
    18
100
AcDbCircle
 10
138.7517697986
 20
122.0764212945
 30
0.0
 40
2.000000000000005
100
AcDbArc
 50
35.2602534877
 51
67.0242452801
  0
LINE
  5
B1
330
1F
100
AcDbEntity
  8
0
  6
Continuous
 62
     7
370
    18
100
AcDbLine
 10
72.5802410665
 20
123.9177615199
 30
0.0
 11
73.9569187509
 21
124.5014391319
 31
0.0
  0
LINE
  5
B2
330
1F
100
AcDbEntity
  8
0
  6
Continuous
 62
     7
370
    18
100
AcDbLine
 10
77.5484984611
 20
126.0241809416
 30
0.0
 11
78.5235306821
 21
126.4375707167
 31
0.0
  0
LINE
  5
B3
330
1F
100
AcDbEntity
  8
0
  6
Continuous
 62
     7
370
    18
100
AcDbLine
 10
78.5235306819
 20
126.4375707165
 30
0.0
 11
133.5891633286
 21
126.4375707165
 31
0.0
  0
LINE
  5
B4
330
1F
100
AcDbEntity
  8
0
  6
Continuous
 62
     7
370
    18
100
AcDbLine
 10
133.5891633286
 20
126.4375707167
 30
0.0
 11
139.532452944
 21
123.9177615199
 31
0.0
  0
SPLINE
  5
B5
330
1F
100
AcDbEntity
  8
0
  6
Continuous
 62
     7
370
    18
100
AcDbSpline
210
0.0
220
0.0
230
1.0
 70
     8
 71
     3
 72
     8
 73
     4
 74
     0
 42
0.00000001
 43
0.00000001
 40
0.0000000000050197
 40
0.0000000000050197
 40
0.0000000000050197
 40
0.0000000000050197
 40
0.0002171311595407
 40
0.0002171311595407
 40
0.0002171311595407
 40
0.0002171311595407
 10
74.33150453502019
 20
124.4841039555221
 30
0.0
 10
74.31891692358373
 20
124.4836791411825
 30
0.0
 10
74.30632938098522
 20
124.483150714543
 30
0.0
 10
74.29374203266825
 20
124.482518689179
 30
0.0
  0
LINE
  5
B6
330
1F
100
AcDbEntity
  8
0
  6
Continuous
 62
     7
370
    18
100
AcDbLine
 10
74.4687259144
 20
124.540859459
 30
0.0
 11
74.3315045101
 21
124.4841039717
 31
0.0
  0
SPLINE
  5
B7
330
1F
100
AcDbEntity
  8
0
  6
Continuous
 62
     7
370
    18
100
AcDbSpline
210
0.0
220
0.0
230
1.0
 70
     8
 71
     3
 72
     8
 73
     4
 74
     0
 42
0.00000001
 43
0.00000001
 40
0.0000000000073577
 40
0.0000000000073577
 40
0.0000000000073577
 40
0.0000000000073577
 40
0.0002201874607718
 40
0.0002201874607718
 40
0.0002201874607718
 40
0.0002201874607718
 10
74.50702027981436
 20
124.4833101254862
 30
0.0
 10
74.4942556208604
 20
124.4838563526773
 30
0.0
 10
74.48149079652899
 20
124.4842960470468
 30
0.0
 10
74.46872591553006
 20
124.4846291504524
 30
0.0
  0
LINE
  5
B8
330
1F
100
AcDbEntity
  8
0
  6
Continuous
 62
     7
370
    18
100
AcDbLine
 10
74.9575779025
 20
124.6672761243
 30
0.0
 11
74.5070202645
 21
124.483310135
 31
0.0
  0
LINE
  5
B9
330
1F
100
AcDbEntity
  8
0
  6
Continuous
 62
     7
370
    18
100
AcDbLine
 10
76.2199444763
 20
124.6693492056
 30
0.0
 11
75.8191777751
 21
124.4891294839
 31
0.0
  0
SPLINE
  5
BA
330
1F
100
AcDbEntity
  8
0
  6
Continuous
 62
     7
370
    18
100
AcDbSpline
210
0.0
220
0.0
230
1.0
 70
     8
 71
     3
 72
     8
 73
     4
 74
     0
 42
0.00000001
 43
0.00000001
 40
0.0000000000000059
 40
0.0000000000000059
 40
0.0000000000000059
 40
0.0000000000000059
 40
0.0004342495708535
 40
0.0004342495708535
 40
0.0004342495708535
 40
0.0004342495708535
 10
75.81917777513445
 20
124.489129483871
 30
0.0
 10
75.77092868109236
 20
124.4894361597421
 30
0.0
 10
75.7226790961201
 20
124.4893280828645
 30
0.0
 10
75.6744302084794
 20
124.4888052908334
 30
0.0
  0
SPLINE
  5
BB
330
1F
100
AcDbEntity
  8
0
  6
Continuous
 62
     7
370
    18
100
AcDbSpline
210
0.0
220
0.0
230
1.0
 70
     8
 71
     3
 72
     8
 73
     4
 74
     0
 42
0.00000001
 43
0.00000001
 40
0.000000000000178
 40
0.000000000000178
 40
0.000000000000178
 40
0.000000000000178
 40
0.0002844291691749
 40
0.0002844291691749
 40
0.0002844291691749
 40
0.0002844291691749
 10
77.99396619484983
 20
124.4804622113771
 30
0.0
 10
77.95072117551483
 20
124.481909299514
 30
0.0
 10
77.90747483338276
 20
124.4831788904681
 30
0.0
 10
77.864227644238
 20
124.4842707791517
 30
0.0
  0
LINE
  5
BC
330
1F
100
AcDbEntity
  8
0
  6
Continuous
 62
     7
370
    18
100
AcDbLine
 10
78.6805484825
 20
124.8073529768
 30
0.0
 11
77.9939661842
 21
124.4804622194
 31
0.0
  0
SPLINE
  5
BD
330
1F
100
AcDbEntity
  8
0
  6
Continuous
 62
     7
370
    18
100
AcDbSpline
210
0.0
220
0.0
230
1.0
 70
     8
 71
     3
 72
     8
 73
     4
 74
     0
 42
0.00000001
 43
0.00000001
 40
0.0000000000006114
 40
0.0000000000006114
 40
0.0000000000006114
 40
0.0000000000006114
 40
0.0002844349930064
 40
0.0002844349930064
 40
0.0002844349930064
 40
0.0002844349930064
 10
77.01743957887768
 20
124.4829229062213
 30
0.0
 10
76.97419227238096
 20
124.4816934544978
 30
0.0
 10
76.93094590384348
 20
124.480286393899
 30
0.0
 10
76.88770100124212
 20
124.4787018787415
 30
0.0
  0
LINE
  5
BE
330
1F
100
AcDbEntity
  8
0
  6
Continuous
 62
     7
370
    18
100
AcDbLine
 10
77.3759645097
 20
124.6536503957
 30
0.0
 11
77.0174395414
 21
124.4829229337
 31
0.0
  0
SPLINE
  5
BF
330
1F
100
AcDbEntity
  8
0
  6
Continuous
 62
     7
370
    18
100
AcDbSpline
210
0.0
220
0.0
230
1.0
 70
     8
 71
     3
 72
     8
 73
     4
 74
     0
 42
0.00000001
 43
0.00000001
 40
0.0000000000000015
 40
0.0000000000000015
 40
0.0000000000000015
 40
0.0000000000000015
 40
0.0002844031276628
 40
0.0002844031276628
 40
0.0002844031276628
 40
0.0002844031276628
 10
77.50570286207176
 20
124.4892494401963
 30
0.0
 10
77.46245679346532
 20
124.4893584749972
 30
0.0
 10
77.41921055555295
 20
124.4892896084665
 30
0.0
 10
77.37596460484085
 20
124.4890428511353
 30
0.0
  0
LINE
  5
C0
330
1F
100
AcDbEntity
  8
0
  6
Continuous
 62
     7
370
    18
100
AcDbLine
 10
77.8642276443
 20
124.6600630409
 30
0.0
 11
77.5057028622
 21
124.4892494401
 31
0.0
  0
SPLINE
  5
C1
330
1F
100
AcDbEntity
  8
0
  6
Continuous
 62
     7
370
    18
100
AcDbSpline
210
0.0
220
0.0
230
1.0
 70
     8
 71
     3
 72
    11
 73
     7
 74
     0
 42
0.00000001
 43
0.00000001
 40
0.0
 40
0.0
 40
0.0
 40
0.0
 40
0.0004546442095648
 40
0.0004546442095648
 40
0.0004546442095648
 40
0.0013520092554185
 40
0.0013520092554185
 40
0.0013520092554185
 40
0.0013520092554185
 10
81.87009074172168
 20
125.4614598010964
 30
0.0
 10
81.75828872217811
 20
125.4023105849499
 30
0.0
 10
81.64655333923251
 20
125.3431619199126
 30
0.0
 10
81.53478469975465
 20
125.2840128440326
 30
0.0
 10
81.31417863422064
 20
125.1672659195747
 30
0.0
 10
81.09357268632498
 20
125.0505186484577
 30
0.0
 10
80.87296684697337
 20
124.93377105761
 30
0.0
  0
SPLINE
  5
C2
330
1F
100
AcDbEntity
  8
0
  6
Continuous
 62
     7
370
    18
100
AcDbSpline
210
0.0
220
0.0
230
1.0
 70
     8
 71
     3
 72
    14
 73
    10
 74
     0
 42
0.00000001
 43
0.00000001
 40
0.0
 40
0.0
 40
0.0
 40
0.0
 40
0.25
 40
0.25
 40
0.5
 40
0.5
 40
0.75
 40
0.75
 40
1.0
 40
1.0
 40
1.0
 40
1.0
 10
81.87009074172168
 20
125.4614598010964
 30
0.0
 10
81.9025202014008
 20
125.4786167104966
 30
0.0
 10
81.9366930514694
 20
125.4956153909284
 30
0.0
 10
82.0115773389061
 20
125.5290139259725
 30
0.0
 10
82.05273319270704
 20
125.5454683250344
 30
0.0
 10
82.13596474337812
 20
125.5726743787448
 30
0.0
 10
82.17728399219726
 20
125.5829896047616
 30
0.0
 10
82.24905258388256
 20
125.5952378613638
 30
0.0
 10
82.2794607899262
 20
125.5975062009865
 30
0.0
 10
82.3058737058539
 20
125.5976215504888
 30
0.0
  0
SPLINE
  5
C3
330
1F
100
AcDbEntity
  8
0
  6
Continuous
 62
     7
370
    18
100
AcDbSpline
210
0.0
220
0.0
230
1.0
 70
     8
 71
     3
 72
     9
 73
     5
 74
     0
 42
0.00000001
 43
0.00000001
 40
0.0
 40
0.0
 40
0.0
 40
0.0
 40
0.7729123422992862
 40
1.0
 40
1.0
 40
1.0
 40
1.0
 10
82.30587370585388
 20
125.5976215504888
 30
0.0
 10
82.39659222974332
 20
125.5978842128377
 30
0.0
 10
82.51396456153914
 20
125.5982240474276
 30
0.0
 10
82.63133285988837
 20
125.5967488777112
 30
0.0
 10
82.65798575184881
 20
125.5964138848755
 30
0.0
  0
SPLINE
  5
C4
330
1F
100
AcDbEntity
  8
0
  6
Continuous
 62
     7
370
    18
100
AcDbSpline
210
0.0
220
0.0
230
1.0
 70
     8
 71
     3
 72
    10
 73
     6
 74
     0
 42
0.00000001
 43
0.00000001
 40
0.0
 40
0.0
 40
0.0
 40
0.0
 40
0.0898518919932565
 40
0.5651458863443467
 40
1.0
 40
1.0
 40
1.0
 40
1.0
 10
80.04816061795933
 20
124.5234201036208
 30
0.0
 10
80.0471338766224
 20
124.5209749261278
 30
0.0
 10
80.04067593088482
 20
124.5055953723877
 30
0.0
 10
80.07221508725107
 20
124.4919756136131
 30
0.0
 10
80.12056575018924
 20
124.4897759273104
 30
0.0
 10
80.14366691855041
 20
124.4887249526075
 30
0.0
  0
SPLINE
  5
C5
330
1F
100
AcDbEntity
  8
0
  6
Continuous
 62
     7
370
    18
100
AcDbSpline
210
0.0
220
0.0
230
1.0
 70
     8
 71
     3
 72
     8
 73
     4
 74
     0
 42
0.00000001
 43
0.00000001
 40
0.0
 40
0.0
 40
0.0
 40
0.0
 40
0.0009724787586377
 40
0.0009724787586377
 40
0.0009724787586377
 40
0.0009724787586377
 10
80.14366691855041
 20
124.4887249526075
 30
0.0
 10
80.33770863250605
 20
124.4899872769128
 30
0.0
 10
80.53175918689006
 20
124.4891692972293
 30
0.0
 10
80.7257946236888
 20
124.4862724387658
 30
0.0
  0
LINE
  5
C6
330
1F
100
AcDbEntity
  8
0
  6
Continuous
 62
     7
370
    18
100
AcDbLine
 10
80.9536148163
 20
124.6068255976
 30
0.0
 11
80.7257946315
 21
124.4862724428
 31
0.0
  0
LINE
  5
C7
330
1F
100
AcDbEntity
  8
0
  6
Continuous
 62
     7
370
    18
100
AcDbLine
 10
83.5405179933
 20
124.6693492056
 30
0.0
 11
83.2371160272
 21
124.4891294837
 31
0.0
  0
SPLINE
  5
C8
330
1F
100
AcDbEntity
  8
0
  6
Continuous
 62
     7
370
    18
100
AcDbSpline
210
0.0
220
0.0
230
1.0
 70
     8
 71
     3
 72
     8
 73
     4
 74
     0
 42
0.00000001
 43
0.00000001
 40
0.0000000000000058
 40
0.0000000000000058
 40
0.0000000000000058
 40
0.0000000000000058
 40
0.000434249570757
 40
0.000434249570757
 40
0.000434249570757
 40
0.000434249570757
 10
83.23711602724971
 20
124.4891294836856
 30
0.0
 10
83.13573464050322
 20
124.4894361595593
 30
0.0
 10
83.03435222221026
 20
124.4893280826845
 30
0.0
 10
82.932971269156
 20
124.4888052906564
 30
0.0
  0
LINE
  5
C9
330
1F
100
AcDbEntity
  8
0
  6
Continuous
 62
     7
370
    18
100
AcDbLine
 10
85.7130545007
 20
124.5850811652
 30
0.0
 11
85.7219277093
 21
124.6192774339
 31
0.0
  0
SPLINE
  5
CA
330
1F
100
AcDbEntity
  8
0
  6
Continuous
 62
     7
370
    18
100
AcDbSpline
210
0.0
220
0.0
230
1.0
 70
     8
 71
     3
 72
    14
 73
    10
 74
     0
 42
0.00000001
 43
0.00000001
 40
0.0
 40
0.0
 40
0.0
 40
0.0
 40
0.25
 40
0.25
 40
0.5
 40
0.5
 40
0.75
 40
0.75
 40
1.0
 40
1.0
 40
1.0
 40
1.0
 10
86.63360332014891
 20
124.5833502740813
 30
0.0
 10
86.52648415741051
 20
124.5508819093449
 30
0.0
 10
86.41580550709841
 20
124.5234874044803
 30
0.0
 10
86.20298519546513
 20
124.4872178806653
 30
0.0
 10
86.10223560216453
 20
124.4788006482399
 30
0.0
 10
85.9276265895355
 20
124.4790210970035
 30
0.0
 10
85.85365596855779
 20
124.4881192396218
 30
0.0
 10
85.7517518465396
 20
124.5251599076918
 30
0.0
 10
85.72341621101222
 20
124.5527142136156
 30
0.0
 10
85.71305450068692
 20
124.5850811651713
 30
0.0
  0
SPLINE
  5
CB
330
1F
100
AcDbEntity
  8
0
  6
Continuous
 62
     7
370
    18
100
AcDbSpline
210
0.0
220
0.0
230
1.0
 70
     8
 71
     3
 72
    10
 73
     6
 74
     0
 42
0.00000001
 43
0.00000001
 40
0.0
 40
0.0
 40
0.0
 40
0.0
 40
0.5
 40
0.5
 40
1.0
 40
1.0
 40
1.0
 40
1.0
 10
87.19313656221456
 20
124.8353017049129
 30
0.0
 10
87.1248849334758
 20
124.7887937849938
 30
0.0
 10
87.04497948399508
 20
124.7436403277761
 30
0.0
 10
86.85367990169361
 20
124.6568981693677
 30
0.0
 10
86.74700372680024
 20
124.6177225158939
 30
0.0
 10
86.63360332014892
 20
124.5833502740813
 30
0.0
  0
LINE
  5
CC
330
1F
100
AcDbEntity
  8
0
  6
Continuous
 62
     7
370
    18
100
AcDbLine
 10
87.9521839334
 20
125.3525241737
 30
0.0
 11
87.1931365622
 21
124.8353017049
 31
0.0
  0
SPLINE
  5
CD
330
1F
100
AcDbEntity
  8
0
  6
Continuous
 62
     7
370
    18
100
AcDbSpline
210
0.0
220
0.0
230
1.0
 70
     8
 71
     3
 72
    10
 73
     6
 74
     0
 42
0.00000001
 43
0.00000001
 40
0.0
 40
0.0
 40
0.0
 40
0.0
 40
0.5
 40
0.5
 40
1.0
 40
1.0
 40
1.0
 40
1.0
 10
88.14004521807615
 20
125.6100570558284
 30
0.0
 10
88.1509291125677
 20
125.5745029272798
 30
0.0
 10
88.1403359113719
 20
125.5339123789346
 30
0.0
 10
88.0746064713463
 20
125.4456088163878
 30
0.0
 10
88.02073321756984
 20
125.3992418555926
 30
0.0
 10
87.95218393344126
 20
125.3525241736876
 30
0.0
  0
LINE
  5
CE
330
1F
100
AcDbEntity
  8
0
  6
Continuous
 62
     7
370
    18
100
AcDbLine
 10
90.2303227883
 20
125.5836106311
 30
0.0
 11
89.9868533512
 21
125.5848353509
 31
0.0
  0
SPLINE
  5
CF
330
1F
100
AcDbEntity
  8
0
  6
Continuous
 62
     7
370
    18
100
AcDbSpline
210
0.0
220
0.0
230
1.0
 70
     8
 71
     3
 72
     8
 73
     4
 74
     0
 42
0.00000001
 43
0.00000001
 40
0.0000000000001987
 40
0.0000000000001987
 40
0.0000000000001987
 40
0.0000000000001987
 40
0.0002844293228489
 40
0.0002844293228489
 40
0.0002844293228489
 40
0.0002844293228489
 10
89.47108795619911
 20
124.4804154684385
 30
0.0
 10
89.39169641672106
 20
124.4818663747505
 30
0.0
 10
89.31230245611478
 20
124.4831397858573
 30
0.0
 10
89.23290692123653
 20
124.4842354963067
 30
0.0
  0
SPLINE
  5
D0
330
1F
100
AcDbEntity
  8
0
  6
Continuous
 62
     7
370
    18
100
AcDbSpline
210
0.0
220
0.0
230
1.0
 70
     8
 71
     3
 72
    11
 73
     7
 74
     0
 42
0.00000001
 43
0.00000001
 40
0.0
 40
0.0
 40
0.0
 40
0.0
 40
0.0009006713032659
 40
0.0009006713032659
 40
0.0009006713032659
 40
0.002474611261589
 40
0.002474611261589
 40
0.002474611261589
 40
0.002474611261589
 10
90.71625597769633
 20
125.4457846983907
 30
0.0
 10
90.56524440505636
 20
125.3286689703376
 30
0.0
 10
90.41412249712833
 20
125.2115529968957
 30
0.0
 10
90.26305642858075
 20
125.0944341898036
 30
0.0
 10
89.99906564663644
 20
124.8897668825659
 30
0.0
 10
89.735076218015
 20
124.6850937305257
 30
0.0
 10
89.47108796748373
 20
124.4804154897448
 30
0.0
  0
SPLINE
  5
D1
330
1F
100
AcDbEntity
  8
0
  6
Continuous
 62
     7
370
    18
100
AcDbSpline
210
0.0
220
0.0
230
1.0
 70
     8
 71
     3
 72
    10
 73
     6
 74
     0
 42
0.00000001
 43
0.00000001
 40
0.0
 40
0.0
 40
0.0
 40
0.0
 40
0.0483967933647171
 40
0.5562866145050495
 40
1.0
 40
1.0
 40
1.0
 40
1.0
 10
90.83437685817664
 20
125.599285001887
 30
0.0
 10
90.83530492389812
 20
125.5972502659936
 30
0.0
 10
90.84597237730462
 20
125.5738624284353
 30
0.0
 10
90.80147262394928
 20
125.518836633018
 30
0.0
 10
90.74335503666451
 20
125.4690153554425
 30
0.0
 10
90.71625597769633
 20
125.4457846983907
 30
0.0
  0
SPLINE
  5
D2
330
1F
100
AcDbEntity
  8
0
  6
Continuous
 62
     7
370
    18
100
AcDbSpline
210
0.0
220
0.0
230
1.0
 70
     8
 71
     3
 72
     8
 73
     4
 74
     0
 42
0.00000001
 43
0.00000001
 40
0.000000000000509
 40
0.000000000000509
 40
0.000000000000509
 40
0.000000000000509
 40
0.0002844348229459
 40
0.0002844348229459
 40
0.0002844348229459
 40
0.0002844348229459
 10
87.67832754215908
 20
124.4829625033113
 30
0.0
 10
87.5989318037097
 20
124.4817368721535
 30
0.0
 10
87.51953782642852
 20
124.4803336303936
 30
0.0
 10
87.44014648925193
 20
124.4787529318365
 30
0.0
  0
LINE
  5
D3
330
1F
100
AcDbEntity
  8
0
  6
Continuous
 62
     7
370
    18
100
AcDbLine
 10
89.090473135
 20
125.5780027336
 30
0.0
 11
87.6783275187
 21
124.4829625308
 31
0.0
  0
LINE
  5
D4
330
1F
100
AcDbEntity
  8
0
  6
Continuous
 62
     7
370
    18
100
AcDbLine
 10
89.3231494183
 20
125.5803430874
 30
0.0
 11
89.090473135
 21
125.5780027336
 31
0.0
  0
SPLINE
  5
D5
330
1F
100
AcDbEntity
  8
0
  6
Continuous
 62
     7
370
    18
100
AcDbSpline
210
0.0
220
0.0
230
1.0
 70
     8
 71
     3
 72
     8
 73
     4
 74
     0
 42
0.00000001
 43
0.00000001
 40
0.0000000000000019
 40
0.0000000000000019
 40
0.0000000000000019
 40
0.0000000000000019
 40
0.0002844031627995
 40
0.0002844031627995
 40
0.0002844031627995
 40
0.0002844031627995
 10
88.57470773424475
 20
124.4892458614196
 30
0.0
 10
88.49531425572002
 20
124.4893587218178
 30
0.0
 10
88.41592046004745
 20
124.4892936811484
 30
0.0
 10
88.33652718593594
 20
124.4890507491167
 30
0.0
  0
LINE
  5
D6
330
1F
100
AcDbEntity
  8
0
  6
Continuous
 62
     7
370
    18
100
AcDbLine
 10
89.9868533512
 20
125.5848353509
 30
0.0
 11
88.5747077342
 21
124.4892458614
 31
0.0
  0
SPLINE
  5
D7
330
1F
100
AcDbEntity
  8
0
  6
Continuous
 62
     7
370
    18
100
AcDbSpline
210
0.0
220
0.0
230
1.0
 70
     8
 71
     3
 72
    11
 73
     7
 74
     0
 42
0.00000001
 43
0.00000001
 40
0.0
 40
0.0
 40
0.0
 40
0.0
 40
0.0004546441978792
 40
0.0004546441978792
 40
0.0004546441978792
 40
0.0013457645275347
 40
0.0013457645275347
 40
0.0013457645275347
 40
0.0013457645275347
 10
85.4374535441347
 20
125.4614387789508
 30
0.0
 10
85.34264403921156
 20
125.4022896240498
 30
0.0
 10
85.24790099940336
 20
125.3431409008689
 30
0.0
 10
85.15312477882017
 20
125.283991826488
 30
0.0
 10
84.96735969631514
 20
125.1680573377011
 30
0.0
 10
84.78159471218626
 20
125.0521225070617
 30
0.0
 10
84.59582981894594
 20
124.9361873609499
 30
0.0
  0
SPLINE
  5
D8
330
1F
100
AcDbEntity
  8
0
  6
Continuous
 62
     7
370
    18
100
AcDbSpline
210
0.0
220
0.0
230
1.0
 70
     8
 71
     3
 72
    14
 73
    10
 74
     0
 42
0.00000001
 43
0.00000001
 40
0.0
 40
0.0
 40
0.0
 40
0.0
 40
0.25
 40
0.25
 40
0.5
 40
0.5
 40
0.75
 40
0.75
 40
1.0
 40
1.0
 40
1.0
 40
1.0
 10
85.4374535441347
 20
125.4614387789508
 30
0.0
 10
85.46495695714466
 20
125.4785974344859
 30
0.0
 10
85.49472855500082
 20
125.4955979797533
 30
0.0
 10
85.56277800201049
 20
125.529000674046
 30
0.0
 10
85.60156568588195
 20
125.5454575208793
 30
0.0
 10
85.68441200588443
 20
125.5726686537483
 30
0.0
 10
85.72785280297902
 20
125.5829863524984
 30
0.0
 10
85.80736590557927
 20
125.5952374260098
 30
0.0
 10
85.84314410341206
 20
125.5975061887267
 30
0.0
 10
85.87553001277973
 20
125.5976215504238
 30
0.0
  0
SPLINE
  5
D9
330
1F
100
AcDbEntity
  8
0
  6
Continuous
 62
     7
370
    18
100
AcDbSpline
210
0.0
220
0.0
230
1.0
 70
     8
 71
     3
 72
    11
 73
     7
 74
     0
 42
0.00000001
 43
0.00000001
 40
0.0
 40
0.0
 40
0.0
 40
0.0
 40
0.0004546466021308
 40
0.0004546466021308
 40
0.0004546466021308
 40
0.0008623950042889
 40
0.0008623950042889
 40
0.0008623950042889
 40
0.0008623950042889
 10
85.87553001277972
 20
125.5976215504238
 30
0.0
 10
85.98675099364813
 20
125.5980177301623
 30
0.0
 10
86.09797334986632
 20
125.5979189016179
 30
0.0
 10
86.20919377378854
 20
125.5973252658656
 30
0.0
 10
86.30894157209401
 20
125.5967928649161
 30
0.0
 10
86.4086886532035
 20
125.5958624322873
 30
0.0
 10
86.50843245463585
 20
125.5945343060366
 30
0.0
  0
LINE
  5
DA
330
1F
100
AcDbEntity
  8
0
  6
Continuous
 62
     7
370
    18
100
AcDbLine
 10
86.6451825277
 20
125.6798669941
 30
0.0
 11
86.5084324879
 21
125.5945343262
 31
0.0
  0
SPLINE
  5
DB
330
1F
100
AcDbEntity
  8
0
  6
Continuous
 62
     7
370
    18
100
AcDbSpline
210
0.0
220
0.0
230
1.0
 70
     8
 71
     3
 72
    10
 73
     6
 74
     0
 42
0.00000001
 43
0.00000001
 40
0.0
 40
0.0
 40
0.0
 40
0.0
 40
0.5
 40
0.5
 40
1.0
 40
1.0
 40
1.0
 40
1.0
 10
83.86411353452196
 20
124.5539073738042
 30
0.0
 10
83.86052933460762
 20
124.5328912375485
 30
0.0
 10
83.87030032127876
 20
124.5152398113602
 30
0.0
 10
83.92319646751918
 20
124.4930236776952
 30
0.0
 10
83.96594376790523
 20
124.4884569980245
 30
0.0
 10
84.016442598049
 20
124.4887249528292
 30
0.0
  0
SPLINE
  5
DC
330
1F
100
AcDbEntity
  8
0
  6
Continuous
 62
     7
370
    18
100
AcDbSpline
210
0.0
220
0.0
230
1.0
 70
     8
 71
     3
 72
     8
 73
     4
 74
     0
 42
0.00000001
 43
0.00000001
 40
0.0
 40
0.0
 40
0.0
 40
0.0
 40
0.000975536881065
 40
0.000975536881065
 40
0.000975536881065
 40
0.000975536881065
 10
84.016442598049
 20
124.4887249528292
 30
0.0
 10
84.25508869127854
 20
124.4899912468627
 30
0.0
 10
84.49374570546203
 20
124.4891641279573
 30
0.0
 10
84.73238399241063
 20
124.4862450475799
 30
0.0
  0
LINE
  5
DD
330
1F
100
AcDbEntity
  8
0
  6
Continuous
 62
     7
370
    18
100
AcDbLine
 10
84.9255682113
 20
124.6067979615
 30
0.0
 11
84.7323839988
 21
124.4862450515
 31
0.0
  0
SPLINE
  5
DE
330
1F
100
AcDbEntity
  8
0
  6
Continuous
 62
     7
370
    18
100
AcDbSpline
210
0.0
220
0.0
230
1.0
 70
     8
 71
     3
 72
     8
 73
     4
 74
     0
 42
0.00000001
 43
0.00000001
 40
0.0000000000000086
 40
0.0000000000000086
 40
0.0000000000000086
 40
0.0000000000000086
 40
0.0001651579793962
 40
0.0001651579793962
 40
0.0001651579793962
 40
0.0001651579793962
 10
82.55370942564969
 20
124.4829229334758
 30
0.0
 10
82.51740569262853
 20
124.4836368179957
 30
0.0
 10
82.48110044489505
 20
124.4842902624017
 30
0.0
 10
82.44479675482086
 20
124.484884886713
 30
0.0
  0
LINE
  5
DF
330
1F
100
AcDbEntity
  8
0
  6
Continuous
 62
     7
370
    18
100
AcDbLine
 10
82.7674989732
 20
124.603446198
 30
0.0
 11
82.5537094257
 21
124.4829229335
 31
0.0
  0
SPLINE
  5
E0
330
1F
100
AcDbEntity
  8
0
  6
Continuous
 62
     7
370
    18
100
AcDbSpline
210
0.0
220
0.0
230
1.0
 70
     8
 71
     3
 72
     9
 73
     5
 74
     0
 42
0.00000001
 43
0.00000001
 40
0.0
 40
0.0
 40
0.0
 40
0.0
 40
0.8395642480221611
 40
1.0
 40
1.0
 40
1.0
 40
1.0
 10
82.88429738517097
 20
124.7922346382191
 30
0.0
 10
82.8467548560926
 20
124.7714371679502
 30
0.0
 10
82.80203817220949
 20
124.7466654243726
 30
0.0
 10
82.77227418129843
 20
124.7230270910399
 30
0.0
 10
82.76749897303476
 20
124.7192346572561
 30
0.0
  0
LWPOLYLINE
  5
E1
330
1F
100
AcDbEntity
  8
0
  6
Continuous
 62
     7
370
    18
100
AcDbPolyline
 90
        3
 70
   128
 43
0.0
 10
84.5166224233
 20
125.7126683014
 10
83.7004588356
 20
125.252454803
 10
83.2436684865
 20
124.9948781561
  0
LINE
  5
E2
330
1F
100
AcDbEntity
  8
0
  6
Continuous
 62
     7
370
    18
100
AcDbLine
 10
83.0999440546
 20
124.913834287
 30
0.0
 11
82.8842973852
 21
124.7922346382
 31
0.0
  0
SPLINE
  5
E3
330
1F
100
AcDbEntity
  8
0
  6
Continuous
 62
     7
370
    18
100
AcDbSpline
210
0.0
220
0.0
230
1.0
 70
     8
 71
     3
 72
    10
 73
     6
 74
     0
 42
0.00000001
 43
0.00000001
 40
0.0
 40
0.0
 40
0.0
 40
0.0
 40
0.1582268281068839
 40
0.502861845184109
 40
1.0
 40
1.0
 40
1.0
 40
1.0
 10
81.44693885950034
 20
124.5319780122236
 30
0.0
 10
81.44514776606576
 20
124.5263356131039
 30
0.0
 10
81.43945547885896
 20
124.5084034629967
 30
0.0
 10
81.48563633503473
 20
124.4911177340952
 30
0.0
 10
81.54851535516646
 20
124.4890001084787
 30
0.0
 10
81.58565072736491
 20
124.4877494716958
 30
0.0
  0
SPLINE
  5
E4
330
1F
100
AcDbEntity
  8
0
  6
Continuous
 62
     7
370
    18
100
AcDbSpline
210
0.0
220
0.0
230
1.0
 70
     8
 71
     3
 72
     8
 73
     4
 74
     0
 42
0.00000001
 43
0.00000001
 40
0.0
 40
0.0
 40
0.0
 40
0.0
 40
0.0004740043248208
 40
0.0004740043248208
 40
0.0004740043248208
 40
0.0004740043248208
 10
81.58565072736491
 20
124.4877494716958
 30
0.0
 10
81.68984927446024
 20
124.4887599726788
 30
0.0
 10
81.79405040996431
 20
124.4892764861107
 30
0.0
 10
81.89825109032394
 20
124.4892988052701
 30
0.0
  0
SPLINE
  5
E5
330
1F
100
AcDbEntity
  8
0
  6
Continuous
 62
     7
370
    18
100
AcDbSpline
210
0.0
220
0.0
230
1.0
 70
     8
 71
     3
 72
    10
 73
     6
 74
     0
 42
0.00000001
 43
0.00000001
 40
0.0
 40
0.0
 40
0.0
 40
0.0
 40
0.5
 40
0.5
 40
1.0
 40
1.0
 40
1.0
 40
1.0
 10
81.89825109032394
 20
124.4892988052701
 30
0.0
 10
81.96099984375397
 20
124.489312245676
 30
0.0
 10
82.03569927815386
 20
124.4958888772527
 30
0.0
 10
82.20288075392001
 20
124.526125306289
 30
0.0
 10
82.29498185308553
 20
124.5498420600259
 30
0.0
 10
82.38588868416561
 20
124.5784983191916
 30
0.0
  0
SPLINE
  5
E6
330
1F
100
AcDbEntity
  8
0
  6
Continuous
 62
     7
370
    18
100
AcDbSpline
210
0.0
220
0.0
230
1.0
 70
     8
 71
     3
 72
     9
 73
     5
 74
     0
 42
0.00000001
 43
0.00000001
 40
0.0
 40
0.0
 40
0.0
 40
0.0
 40
0.5241511235440435
 40
1.0
 40
1.0
 40
1.0
 40
1.0
 10
82.44479675482083
 20
124.484884886713
 30
0.0
 10
82.423216879136
 20
124.4864027113051
 30
0.0
 10
82.38204578416837
 20
124.4892984879694
 30
0.0
 10
82.37053239662191
 20
124.5044839963684
 30
0.0
 10
82.36505376409373
 20
124.5117100034784
 30
0.0
  0
SPLINE
  5
E7
330
1F
100
AcDbEntity
  8
0
  6
Continuous
 62
     7
370
    18
100
AcDbSpline
210
0.0
220
0.0
230
1.0
 70
     8
 71
     3
 72
     9
 73
     5
 74
     0
 42
0.00000001
 43
0.00000001
 40
0.0
 40
0.0
 40
0.0
 40
0.0
 40
0.5431257705167429
 40
1.0
 40
1.0
 40
1.0
 40
1.0
 10
78.79745631584397
 20
124.4887772922819
 30
0.0
 10
78.76413736169383
 20
124.4896093374706
 30
0.0
 10
78.70279069770024
 20
124.4911412942179
 30
0.0
 10
78.69707324084607
 20
124.5153497949605
 30
0.0
 10
78.69446108215121
 20
124.5264100350843
 30
0.0
  0
SPLINE
  5
E8
330
1F
100
AcDbEntity
  8
0
  6
Continuous
 62
     7
370
    18
100
AcDbSpline
210
0.0
220
0.0
230
1.0
 70
     8
 71
     3
 72
     8
 73
     4
 74
     0
 42
0.00000001
 43
0.00000001
 40
0.0
 40
0.0
 40
0.0
 40
0.0
 40
0.0010061192289944
 40
0.0010061192289944
 40
0.0010061192289944
 40
0.0010061192289944
 10
79.33748320283068
 20
124.4858340107852
 30
0.0
 10
79.15748169921139
 20
124.4890406841921
 30
0.0
 10
78.97746480801617
 20
124.4900223884694
 30
0.0
 10
78.79745631584397
 20
124.4887772922819
 30
0.0
  0
LINE
  5
E9
330
1F
100
AcDbEntity
  8
0
  6
Continuous
 62
     7
370
    18
100
AcDbLine
 10
79.5697065113
 20
124.6024945793
 30
0.0
 11
79.337483203
 21
124.4858340108
 31
0.0
  0
LINE
  5
EA
330
1F
100
AcDbEntity
  8
0
  6
Continuous
 62
     7
370
    18
100
AcDbLine
 10
79.7639394443
 20
125.0598544535
 30
0.0
 11
79.5041526624
 21
124.9293382464
 31
0.0
  0
LINE
  5
EB
330
1F
100
AcDbEntity
  8
0
  6
Continuous
 62
     7
370
    18
100
AcDbLine
 10
80.327474549
 20
125.0586384055
 30
0.0
 11
79.7639394443
 21
125.0598544535
 31
0.0
  0
SPLINE
  5
EC
330
1F
100
AcDbEntity
  8
0
  6
Continuous
 62
     7
370
    18
100
AcDbSpline
210
0.0
220
0.0
230
1.0
 70
     8
 71
     3
 72
     8
 73
     4
 74
     0
 42
0.00000001
 43
0.00000001
 40
0.0000000000000998
 40
0.0000000000000998
 40
0.0000000000000998
 40
0.0000000000000998
 40
0.0002140829333113
 40
0.0002140829333113
 40
0.0002140829333113
 40
0.0002140829333113
 10
76.30796677544971
 20
124.4853969061183
 30
0.0
 10
76.28105914634169
 20
124.485438651915
 30
0.0
 10
76.25415146595277
 20
124.4853796249702
 30
0.0
 10
76.22724389970372
 20
124.485219827092
 30
0.0
  0
LINE
  5
ED
330
1F
100
AcDbEntity
  8
0
  6
Continuous
 62
     7
370
    18
100
AcDbLine
 10
76.8877010012
 20
124.7245506065
 30
0.0
 11
76.3079667732
 21
124.4853969077
 31
0.0
  0
SPLINE
  5
EE
330
1F
100
AcDbEntity
  8
0
  6
Continuous
 62
     7
370
    18
100
AcDbSpline
210
0.0
220
0.0
230
1.0
 70
     8
 71
     3
 72
     8
 73
     4
 74
     0
 42
0.00000001
 43
0.00000001
 40
0.0000000000053169
 40
0.0000000000053169
 40
0.0000000000053169
 40
0.0000000000053169
 40
0.0002171311601257
 40
0.0002171311601257
 40
0.0002171311601257
 40
0.0002171311601257
 10
75.01681335932818
 20
124.4841039558302
 30
0.0
 10
74.99706803369249
 20
124.4836791414404
 30
0.0
 10
74.97732283044674
 20
124.483150714622
 30
0.0
 10
74.95757791754865
 20
124.4825186892067
 30
0.0
  0
LINE
  5
EF
330
1F
100
AcDbEntity
  8
0
  6
Continuous
 62
     7
370
    18
100
AcDbLine
 10
75.2320631688
 20
124.573017565
 30
0.0
 11
75.0168133345
 21
124.4841039718
 31
0.0
  0
SPLINE
  5
F0
330
1F
100
AcDbEntity
  8
0
  6
Continuous
 62
     7
370
    18
100
AcDbSpline
210
0.0
220
0.0
230
1.0
 70
     8
 71
     3
 72
     8
 73
     4
 74
     0
 42
0.00000001
 43
0.00000001
 40
0.0000000000074256
 40
0.0000000000074256
 40
0.0000000000074256
 40
0.0000000000074256
 40
0.0002201874608353
 40
0.0002201874608353
 40
0.0002201874608353
 40
0.0002201874608353
 10
75.29213291273994
 20
124.4833101258391
 30
0.0
 10
75.27210986474351
 20
124.4838563529319
 30
0.0
 10
75.25208656586604
 20
124.4842960470381
 30
0.0
 10
75.2320631695629
 20
124.4846291503453
 30
0.0
  0
LINE
  5
F1
330
1F
100
AcDbEntity
  8
0
  6
Continuous
 62
     7
370
    18
100
AcDbLine
 10
76.7476818296
 20
125.0760013159
 30
0.0
 11
76.2199444763
 21
124.8611096911
 31
0.0
  0
LINE
  5
F2
330
1F
100
AcDbEntity
  8
0
  6
Continuous
 62
     7
370
    18
100
AcDbLine
 10
75.6744297918
 20
124.6389792389
 30
0.0
 11
75.2921328973
 21
124.4833101352
 31
0.0
  0
SPLINE
  5
F3
330
1F
100
AcDbEntity
  8
0
  6
Continuous
 62
     7
370
    18
100
AcDbSpline
210
0.0
220
0.0
230
1.0
 70
     8
 71
     3
 72
     8
 73
     4
 74
     0
 42
0.00000001
 43
0.00000001
 40
0.0000000000049746
 40
0.0000000000049746
 40
0.0000000000049746
 40
0.0000000000049746
 40
0.000217131159732
 40
0.000217131159732
 40
0.000217131159732
 40
0.000217131159732
 10
73.97281954409002
 20
124.4841039558815
 30
0.0
 10
73.967519242625
 20
124.4836791415003
 30
0.0
 10
73.96221895615162
 20
124.4831507146678
 30
0.0
 10
73.95691876547907
 20
124.4825186892617
 30
0.0
  0
LINE
  5
F4
330
1F
100
AcDbEntity
  8
0
  6
Continuous
 62
     7
370
    18
100
AcDbLine
 10
74.0305997273
 20
124.508285557
 30
0.0
 11
73.9728195196
 21
124.4841039719
 31
0.0
  0
SPLINE
  5
F5
330
1F
100
AcDbEntity
  8
0
  6
Continuous
 62
     7
370
    18
100
AcDbSpline
210
0.0
220
0.0
230
1.0
 70
     8
 71
     3
 72
     8
 73
     4
 74
     0
 42
0.00000001
 43
0.00000001
 40
0.0000000000074573
 40
0.0000000000074573
 40
0.0000000000074573
 40
0.0000000000074573
 40
0.0002201874606799
 40
0.0002201874606799
 40
0.0002201874606799
 40
0.0002201874606799
 10
74.04672445426951
 20
124.4833101260159
 30
0.0
 10
74.04134960269174
 20
124.4838563530904
 30
0.0
 10
74.03597467343845
 20
124.4842960471732
 30
0.0
 10
74.03059972836358
 20
124.4846291504623
 30
0.0
  0
LINE
  5
F6
330
1F
100
AcDbEntity
  8
0
  6
Continuous
 62
     7
370
    18
100
AcDbLine
 10
74.2937420184
 20
124.5855006689
 30
0.0
 11
74.0467244398
 21
124.4833101353
 31
0.0
  0
SPLINE
  5
F7
330
1F
100
AcDbEntity
  8
0
  6
Continuous
 62
     7
370
    18
100
AcDbSpline
210
0.0
220
0.0
230
1.0
 70
     8
 71
     3
 72
     8
 73
     4
 74
     0
 42
0.00000001
 43
0.00000001
 40
0.0000000000000001
 40
0.0000000000000001
 40
0.0000000000000001
 40
0.0000000000000001
 40
0.0007859606064968
 40
0.0007859606064968
 40
0.0007859606064968
 40
0.0007859606064968
 10
89.74867232324628
 20
125.910472784847
 30
0.0
 10
89.5292656615649
 20
125.9097427114766
 30
0.0
 10
89.3098589717136
 20
125.9075349084725
 30
0.0
 10
89.09047313436128
 20
125.9038523464954
 30
0.0
  0
LINE
  5
F8
330
1F
100
AcDbEntity
  8
0
  6
Continuous
 62
     7
370
    18
100
AcDbLine
 10
89.0904731348
 20
125.9038523465
 30
0.0
 11
87.6783275203
 21
124.8088121463
 31
0.0
  0
SPLINE
  5
F9
330
1F
100
AcDbEntity
  8
0
  6
Continuous
 62
     7
370
    18
100
AcDbSpline
210
0.0
220
0.0
230
1.0
 70
     8
 71
     3
 72
     8
 73
     4
 74
     0
 42
0.00000001
 43
0.00000001
 40
0.0000000000000494
 40
0.0000000000000494
 40
0.0000000000000494
 40
0.0000000000000494
 40
0.0002844348218545
 40
0.0002844348218545
 40
0.0002844348218545
 40
0.0002844348218545
 10
87.67832752023108
 20
124.8088121422069
 30
0.0
 10
87.5989317820863
 20
124.8075865110545
 30
0.0
 10
87.51953782611552
 20
124.8061832442199
 30
0.0
 10
87.44014648924352
 20
124.8046025456702
 30
0.0
  0
LINE
  5
FA
330
1F
100
AcDbEntity
  8
0
  6
Continuous
 62
     7
370
    18
100
AcDbLine
 10
87.4401464893
 20
124.8046025457
 30
0.0
 11
89.0127252139
 21
126.0236299393
 31
0.0
  0
SPLINE
  5
FB
330
1F
100
AcDbEntity
  8
0
  6
Continuous
 62
     7
370
    18
100
AcDbSpline
210
0.0
220
0.0
230
1.0
 70
     8
 71
     3
 72
    11
 73
     7
 74
     0
 42
0.00000001
 43
0.00000001
 40
0.0000000000000245
 40
0.0000000000000245
 40
0.0000000000000245
 40
0.0000000000000245
 40
0.0009006903937091
 40
0.0009006903937091
 40
0.0009006903937091
 40
0.0017615311696788
 40
0.0017615311696788
 40
0.0017615311696788
 40
0.0017615311696788
 10
89.01272521807057
 20
126.0236299424834
 30
0.0
 10
89.26411837109596
 20
126.0291267807773
 30
0.0
 10
89.51554683996459
 20
126.0326701137058
 30
0.0
 10
89.76697864127692
 20
126.034253561613
 30
0.0
 10
90.00728667501762
 20
126.0357669551102
 30
0.0
 10
90.24760748233487
 20
126.0354902996701
 30
0.0
 10
90.48791243443108
 20
126.0334236070278
 30
0.0
  0
SPLINE
  5
FC
330
1F
100
AcDbEntity
  8
0
  6
Continuous
 62
     7
370
    18
100
AcDbSpline
210
0.0
220
0.0
230
1.0
 70
     8
 71
     3
 72
    14
 73
    10
 74
     0
 42
0.00000001
 43
0.00000001
 40
0.0
 40
0.0
 40
0.0
 40
0.0
 40
0.25
 40
0.25
 40
0.5
 40
0.5
 40
0.75
 40
0.75
 40
1.0
 40
1.0
 40
1.0
 40
1.0
 10
90.4879124344312
 20
126.0334236070277
 30
0.0
 10
90.56251393961249
 20
126.0327820123352
 30
0.0
 10
90.63169764360909
 20
126.0287295858531
 30
0.0
 10
90.7499241031815
 20
126.0082894720254
 30
0.0
 10
90.7982758424522
 20
125.9910233423789
 30
0.0
 10
90.84408556108308
 20
125.940942158172
 30
0.0
 10
90.84088838016383
 20
125.9089399317888
 30
0.0
 10
90.79893947436318
 20
125.841948017429
 30
0.0
 10
90.76135681179963
 20
125.8066116826018
 30
0.0
 10
90.71625391175661
 20
125.7716327091601
 30
0.0
  0
SPLINE
  5
FD
330
1F
100
AcDbEntity
  8
0
  6
Continuous
 62
     7
370
    18
100
AcDbSpline
210
0.0
220
0.0
230
1.0
 70
     8
 71
     3
 72
    11
 73
     7
 74
     0
 42
0.00000001
 43
0.00000001
 40
0.0
 40
0.0
 40
0.0
 40
0.0
 40
0.0009006713026311
 40
0.0009006713026311
 40
0.0009006713026311
 40
0.002474607188352
 40
0.002474607188352
 40
0.002474607188352
 40
0.002474607188352
 10
90.71625391175661
 20
125.7716327091601
 30
0.0
 10
90.56524152228224
 20
125.6545169947435
 30
0.0
 10
90.41412043061733
 20
125.5374010079794
 30
0.0
 10
90.26305436216012
 20
125.4202822010394
 30
0.0
 10
89.99906426325627
 20
125.2156154234939
 30
0.0
 10
89.73507551766775
 20
125.0109428011782
 30
0.0
 10
89.47108795016335
 20
124.8062650901482
 30
0.0
  0
SPLINE
  5
FE
330
1F
100
AcDbEntity
  8
0
  6
Continuous
 62
     7
370
    18
100
AcDbSpline
210
0.0
220
0.0
230
1.0
 70
     8
 71
     3
 72
     8
 73
     4
 74
     0
 42
0.00000001
 43
0.00000001
 40
0.0000000000000201
 40
0.0000000000000201
 40
0.0000000000000201
 40
0.0000000000000201
 40
0.0002844293234144
 40
0.0002844293234144
 40
0.0002844293234144
 40
0.0002844293234144
 10
89.47108795025275
 20
124.8062650901553
 30
0.0
 10
89.3916964106184
 20
124.8077159964692
 30
0.0
 10
89.31230245627947
 20
124.8089893996851
 30
0.0
 10
89.23290692124492
 20
124.8100851101356
 30
0.0
  0
LWPOLYLINE
  5
FF
330
1F
100
AcDbEntity
  8
0
  6
Continuous
 62
     7
370
    18
100
AcDbPolyline
 90
        3
 70
   128
 43
0.0
 10
89.2329069212
 20
124.8100851101
 10
89.8112007182
 20
125.2585741626
 10
90.389496882
 20
125.7070529143
  0
SPLINE
  5
100
330
1F
100
AcDbEntity
  8
0
  6
Continuous
 62
     7
370
    18
100
AcDbSpline
210
0.0
220
0.0
230
1.0
 70
     8
 71
     3
 72
    12
 73
     8
 74
     0
 42
0.00000001
 43
0.00000001
 40
0.0
 40
0.0
 40
0.0
 40
0.0
 40
0.4999999999999873
 40
0.4999999999999873
 40
0.7499999999999937
 40
0.7499999999999937
 40
1.0
 40
1.0
 40
1.0
 40
1.0
 10
90.3894968820081
 20
125.7070529143314
 30
0.0
 10
90.43699475544905
 20
125.7438983827431
 30
0.0
 10
90.47877372942145
 20
125.780799315705
 30
0.0
 10
90.51066235371975
 20
125.8340746733529
 30
0.0
 10
90.51544541326267
 20
125.8513784231255
 30
0.0
 10
90.50269083288397
 20
125.8803889060699
 30
0.0
 10
90.48399455542604
 20
125.8919934306491
 30
0.0
 10
90.4540755987492
 20
125.8985253803811
 30
0.0
  0
SPLINE
  5
101
330
1F
100
AcDbEntity
  8
0
  6
Continuous
 62
     7
370
    18
100
AcDbSpline
210
0.0
220
0.0
230
1.0
 70
     8
 71
     3
 72
     8
 73
     4
 74
     0
 42
0.00000001
 43
0.00000001
 40
0.0
 40
0.0
 40
0.0
 40
0.0
 40
1.0
 40
1.0
 40
1.0
 40
1.0
 10
90.4540755987492
 20
125.898525380381
 30
0.0
 10
90.41883574776902
 20
125.9062189954243
 30
0.0
 10
90.37441577483591
 20
125.9085718894398
 30
0.0
 10
90.32747758315108
 20
125.9089715306667
 30
0.0
  0
SPLINE
  5
102
330
1F
100
AcDbEntity
  8
0
  6
Continuous
 62
     7
370
    18
100
AcDbSpline
210
0.0
220
0.0
230
1.0
 70
     8
 71
     3
 72
     8
 73
     4
 74
     0
 42
0.00000001
 43
0.00000001
 40
0.0
 40
0.0
 40
0.0
 40
0.0
 40
0.000406731139346
 40
0.000406731139346
 40
0.000406731139346
 40
0.000406731139346
 10
90.32747758315108
 20
125.9089715306667
 30
0.0
 10
90.21393805116442
 20
125.9099382291319
 30
0.0
 10
90.10039567393144
 20
125.9105094420677
 30
0.0
 10
89.9868533512416
 20
125.9106849637404
 30
0.0
  0
LINE
  5
103
330
1F
100
AcDbEntity
  8
0
  6
Continuous
 62
     7
370
    18
100
AcDbLine
 10
89.9868533512
 20
125.9106849637
 30
0.0
 11
88.5747077342
 21
124.8150954752
 31
0.0
  0
SPLINE
  5
104
330
1F
100
AcDbEntity
  8
0
  6
Continuous
 62
     7
370
    18
100
AcDbSpline
210
0.0
220
0.0
230
1.0
 70
     8
 71
     3
 72
     8
 73
     4
 74
     0
 42
0.00000001
 43
0.00000001
 40
0.0
 40
0.0
 40
0.0
 40
0.0
 40
0.0002844035569982
 40
0.0002844035569982
 40
0.0002844035569982
 40
0.0002844035569982
 10
88.33652685580188
 20
124.8149003619315
 30
0.0
 10
88.41592023995585
 20
124.8151432947927
 30
0.0
 10
88.49531414567332
 20
124.8152083357989
 30
0.0
 10
88.57470773424187
 20
124.8150954752443
 30
0.0
  0
LINE
  5
105
330
1F
100
AcDbEntity
  8
0
  6
Continuous
 62
     7
370
    18
100
AcDbLine
 10
88.3365268432
 20
124.8149003617
 30
0.0
 11
89.7486723232
 21
125.9104727849
 31
0.0
  0
LINE
  5
106
330
1F
100
AcDbEntity
  8
0
  6
Continuous
 62
     7
370
    18
100
AcDbLine
 10
89.4710879499
 20
124.4804154764
 30
0.0
 11
89.4710879502
 21
124.8062650902
 31
0.0
  0
LINE
  5
107
330
1F
100
AcDbEntity
  8
0
  6
Continuous
 62
     7
370
    18
100
AcDbLine
 10
89.2329069213
 20
124.4842354963
 30
0.0
 11
89.2329069212
 21
124.8100851101
 31
0.0
  0
ARC
  5
108
330
1F
100
AcDbEntity
  8
0
  6
Continuous
 62
     7
370
    18
100
AcDbCircle
 10
77.3525059632
 20
129.1995810547
 30
0.0
 40
2.999999999999985
100
AcDbArc
 50
292.9757547307
 51
351.0331507827
  0
LINE
  5
109
330
1F
100
AcDbEntity
  8
0
  6
Continuous
 62
     7
370
    18
100
AcDbLine
 10
80.3158420232
 20
128.7319921388
 30
0.0
 11
131.7968519872
 21
128.7319921388
 31
0.0
  0
ARC
  5
10A
330
1F
100
AcDbEntity
  8
0
  6
Continuous
 62
     7
370
    18
100
AcDbCircle
 10
134.7601880472
 20
129.1995810547
 30
0.0
 40
3.0
100
AcDbArc
 50
188.9668492173
 51
247.0242452693
  0
LINE
  5
10B
330
1F
100
AcDbEntity
  8
0
  6
Continuous
 62
     7
370
    18
100
AcDbLine
 10
89.9868533512
 20
125.5848353509
 30
0.0
 11
89.9868533512
 21
125.9106849637
 31
0.0
  0
LINE
  5
10C
330
1F
100
AcDbEntity
  8
0
  6
Continuous
 62
     7
370
    18
100
AcDbLine
 10
88.3365268432
 20
124.8149003617
 30
0.0
 11
88.3365272073
 21
124.4891090008
 31
0.0
  0
LINE
  5
10D
330
1F
100
AcDbEntity
  8
0
  6
Continuous
 62
     7
370
    18
100
AcDbLine
 10
88.5747077342
 20
124.4892458614
 30
0.0
 11
88.5747077342
 21
124.8150954752
 31
0.0
  0
LINE
  5
10E
330
1F
100
AcDbEntity
  8
0
  6
Continuous
 62
     7
370
    18
100
AcDbLine
 10
87.6783275187
 20
124.4829625308
 30
0.0
 11
87.6783275203
 21
124.8088121463
 31
0.0
  0
LINE
  5
10F
330
1F
100
AcDbEntity
  8
0
  6
Continuous
 62
     7
370
    18
100
AcDbLine
 10
89.090473135
 20
125.5780027336
 30
0.0
 11
89.0904731348
 21
125.9038523465
 31
0.0
  0
LINE
  5
110
330
1F
100
AcDbEntity
  8
0
  6
Continuous
 62
     7
370
    18
100
AcDbLine
 10
87.4401464893
 20
124.4787529319
 30
0.0
 11
87.4401464893
 21
124.8046025457
 31
0.0
  0
LINE
  5
111
330
1F
100
AcDbEntity
  8
0
  6
Continuous
 62
     7
370
    18
100
AcDbLine
 10
80.3158420232
 20
128.7319921388
 30
0.0
 11
80.4429592412
 21
129.5375951427
 31
0.0
  0
LINE
  5
112
330
1F
100
AcDbEntity
  8
0
  6
Continuous
 62
     7
370
    18
100
AcDbLine
 10
80.4429592414
 20
129.5375951426
 30
0.0
 11
131.6697347691
 21
129.5375951426
 31
0.0
  0
LINE
  5
113
330
1F
100
AcDbEntity
  8
0
  6
Continuous
 62
     7
370
    18
100
AcDbLine
 10
131.6697347693
 20
129.5375951427
 30
0.0
 11
131.7968519872
 21
128.7319921388
 31
0.0
  0
ARC
  5
114
330
1F
100
AcDbEntity
  8
0
  6
Continuous
 62
     7
370
    18
100
AcDbCircle
 10
83.4062953016
 20
129.0700062267
 30
0.0
 40
3.000000000000004
100
AcDbArc
 50
120.4165743887
 51
171.0331507829
  0
LINE
  5
115
330
1F
100
AcDbEntity
  8
0
  6
Continuous
 62
     7
370
    18
100
AcDbLine
 10
81.8874443883
 20
131.6571041772
 30
0.0
 11
130.2252496222
 21
131.6571041772
 31
0.0
  0
ARC
  5
116
330
1F
100
AcDbEntity
  8
0
  6
Continuous
 62
     7
370
    18
100
AcDbCircle
 10
128.7063987089
 20
129.0700062267
 30
0.0
 40
2.999999999999993
100
AcDbArc
 50
8.9668492171
 51
59.5834256113
  0
LINE
  5
117
330
1F
100
AcDbEntity
  8
0
  6
Continuous
 62
     7
370
    18
100
AcDbLine
 10
85.8894500539
 20
125.1623448909
 30
0.0
 11
86.6446946425
 21
125.6769216882
 31
0.0
  0
SPLINE
  5
118
330
1F
100
AcDbEntity
  8
0
  6
Continuous
 62
     7
370
    18
100
AcDbSpline
210
0.0
220
0.0
230
1.0
 70
     8
 71
     3
 72
    10
 73
     6
 74
     0
 42
0.00000001
 43
0.00000001
 40
0.0
 40
0.0
 40
0.0
 40
0.0
 40
0.5
 40
0.5
 40
1.0
 40
1.0
 40
1.0
 40
1.0
 10
85.71305542752829
 20
124.9109278831774
 30
0.0
 10
85.70204677900107
 20
124.9453119516771
 30
0.0
 10
85.70867309160074
 20
124.9833868894298
 30
0.0
 10
85.76856643986926
 20
125.0696312133084
 30
0.0
 10
85.8206597507283
 20
125.115467431225
 30
0.0
 10
85.88945005388479
 20
125.1623448908993
 30
0.0
  0
SPLINE
  5
119
330
1F
100
AcDbEntity
  8
0
  6
Continuous
 62
     7
370
    18
100
AcDbSpline
210
0.0
220
0.0
230
1.0
 70
     8
 71
     3
 72
    14
 73
    10
 74
     0
 42
0.00000001
 43
0.00000001
 40
0.0
 40
0.0
 40
0.0
 40
0.0
 40
0.25
 40
0.25
 40
0.5
 40
0.5
 40
0.75
 40
0.75
 40
1.0
 40
1.0
 40
1.0
 40
1.0
 10
86.63348362286733
 20
124.909163608733
 30
0.0
 10
86.52637237430926
 20
124.8767020696852
 30
0.0
 10
86.41570441477828
 20
124.8493152525021
 30
0.0
 10
86.2029107116716
 20
124.8130593401973
 30
0.0
 10
86.10217637432943
 20
124.8046473833066
 30
0.0
 10
85.92759415958284
 20
124.804873705263
 30
0.0
 10
85.85363609727558
 20
124.8139736167025
 30
0.0
 10
85.75174927369983
 20
124.8510129153218
 30
0.0
 10
85.72341711299877
 20
124.8785645188545
 30
0.0
 10
85.71305542752829
 20
124.9109278831774
 30
0.0
  0
SPLINE
  5
11A
330
1F
100
AcDbEntity
  8
0
  6
Continuous
 62
     7
370
    18
100
AcDbSpline
210
0.0
220
0.0
230
1.0
 70
     8
 71
     3
 72
    10
 73
     6
 74
     0
 42
0.00000001
 43
0.00000001
 40
0.0
 40
0.0
 40
0.0
 40
0.0
 40
0.5
 40
0.5
 40
1.0
 40
1.0
 40
1.0
 40
1.0
 10
87.19313656220623
 20
125.1611513179445
 30
0.0
 10
87.12487254760362
 20
125.1146349580686
 30
0.0
 10
87.04495053499166
 20
125.0694735495951
 30
0.0
 10
86.85360470010127
 20
124.9827169497416
 30
0.0
 10
86.74690734316718
 20
124.9435382292795
 30
0.0
 10
86.63348362286735
 20
124.9091636087329
 30
0.0
  0
LINE
  5
11B
330
1F
100
AcDbEntity
  8
0
  6
Continuous
 62
     7
370
    18
100
AcDbLine
 10
87.1931365622
 20
125.161151318
 30
0.0
 11
87.1931365622
 21
124.8353017049
 31
0.0
  0
SPLINE
  5
11C
330
1F
100
AcDbEntity
  8
0
  6
Continuous
 62
     7
370
    18
100
AcDbSpline
210
0.0
220
0.0
230
1.0
 70
     8
 71
     3
 72
     8
 73
     4
 74
     0
 42
0.00000001
 43
0.00000001
 40
0.0
 40
0.0
 40
0.0
 40
0.0
 40
0.0000058061035349
 40
0.0000058061035349
 40
0.0000058061035349
 40
0.0000058061035349
 10
86.64469464246395
 20
125.6769216882143
 30
0.0
 10
86.64580306045451
 20
125.6776768602681
 30
0.0
 10
86.6469151713531
 20
125.6784320850328
 30
0.0
 10
86.64803097714808
 20
125.6791873491976
 30
0.0
  0
SPLINE
  5
11D
330
1F
100
AcDbEntity
  8
0
  6
Continuous
 62
     7
370
    18
100
AcDbSpline
210
0.0
220
0.0
230
1.0
 70
     8
 71
     3
 72
    10
 73
     6
 74
     0
 42
0.00000001
 43
0.00000001
 40
0.0
 40
0.0
 40
0.0
 40
0.0
 40
0.5
 40
0.5
 40
1.0
 40
1.0
 40
1.0
 40
1.0
 10
86.64802975402391
 20
125.6791873363969
 30
0.0
 10
86.71732391257542
 20
125.7259896281883
 30
0.0
 10
86.79850830905289
 20
125.7716758047328
 30
0.0
 10
86.9917760997933
 20
125.8600656105005
 30
0.0
 10
87.0991719976148
 20
125.9004772546762
 30
0.0
 10
87.21287463793921
 20
125.9362327056475
 30
0.0
  0
SPLINE
  5
11E
330
1F
100
AcDbEntity
  8
0
  6
Continuous
 62
     7
370
    18
100
AcDbSpline
210
0.0
220
0.0
230
1.0
 70
     8
 71
     3
 72
    14
 73
    10
 74
     0
 42
0.00000001
 43
0.00000001
 40
0.0
 40
0.0
 40
0.0
 40
0.0
 40
0.25
 40
0.25
 40
0.5
 40
0.5
 40
0.75
 40
0.75
 40
1.0
 40
1.0
 40
1.0
 40
1.0
 10
87.21287463793922
 20
125.9362327056475
 30
0.0
 10
87.32004238044266
 20
125.9699331628387
 30
0.0
 10
87.43085896008438
 20
125.9979567138427
 30
0.0
 10
87.64347207699683
 20
126.0351049434776
 30
0.0
 10
87.7443190451125
 20
126.0439481150623
 30
0.0
 10
87.92061517147012
 20
126.0445761511177
 30
0.0
 10
87.99613109378524
 20
126.0356853449839
 30
0.0
 10
88.10062022691609
 20
125.9979200422892
 30
0.0
 10
88.129761662207
 20
125.9694959770797
 30
0.0
 10
88.14004432875952
 20
125.9359095738333
 30
0.0
  0
SPLINE
  5
11F
330
1F
100
AcDbEntity
  8
0
  6
Continuous
 62
     7
370
    18
100
AcDbSpline
210
0.0
220
0.0
230
1.0
 70
     8
 71
     3
 72
    10
 73
     6
 74
     0
 42
0.00000001
 43
0.00000001
 40
0.0
 40
0.0
 40
0.0
 40
0.0
 40
0.5
 40
0.5
 40
1.0
 40
1.0
 40
1.0
 40
1.0
 10
88.14004432875952
 20
125.9359095738333
 30
0.0
 10
88.15092755977005
 20
125.9003615393351
 30
0.0
 10
88.14034145487464
 20
125.8597792601114
 30
0.0
 10
88.0746384549399
 20
125.7714915823324
 30
0.0
 10
88.02078489022115
 20
125.7251334285275
 30
0.0
 10
87.95225648495736
 20
125.6784232355882
 30
0.0
  0
SPLINE
  5
120
330
1F
100
AcDbEntity
  8
0
  6
Continuous
 62
     7
370
    18
100
AcDbSpline
210
0.0
220
0.0
230
1.0
 70
     8
 71
     3
 72
     8
 73
     4
 74
     0
 42
0.00000001
 43
0.00000001
 40
0.0
 40
0.0
 40
0.0
 40
0.0
 40
0.0013255360239888
 40
0.0013255360239888
 40
0.0013255360239888
 40
0.0013255360239888
 10
87.95225648495736
 20
125.6784232355882
 30
0.0
 10
87.69929512627247
 20
125.5060002261095
 30
0.0
 10
87.4461760656357
 20
125.3335771078275
 30
0.0
 10
87.19313656217625
 20
125.1611513179241
 30
0.0
  0
LINE
  5
121
330
1F
100
AcDbEntity
  8
0
  6
Continuous
 62
     7
370
    18
100
AcDbLine
 10
86.007761065
 20
124.9877692507
 30
0.0
 11
86.0088577898
 21
125.0221387278
 31
0.0
  0
SPLINE
  5
122
330
1F
100
AcDbEntity
  8
0
  6
Continuous
 62
     7
370
    18
100
AcDbSpline
210
0.0
220
0.0
230
1.0
 70
     8
 71
     3
 72
     8
 73
     4
 74
     0
 42
0.00000001
 43
0.00000001
 40
0.0
 40
0.0
 40
0.0
 40
0.0
 40
1.0
 40
1.0
 40
1.0
 40
1.0
 10
86.01009609045462
 20
125.0609449529913
 30
0.0
 10
86.03140597899849
 20
125.1003530371398
 30
0.0
 10
86.0804570047378
 20
125.1436492089211
 30
0.0
 10
86.14455161096124
 20
125.1873296093785
 30
0.0
  0
SPLINE
  5
123
330
1F
100
AcDbEntity
  8
0
  6
Continuous
 62
     7
370
    18
100
AcDbSpline
210
0.0
220
0.0
230
1.0
 70
     8
 71
     3
 72
    14
 73
    10
 74
     0
 42
0.00000001
 43
0.00000001
 40
0.0
 40
0.0
 40
0.0
 40
0.0
 40
0.25
 40
0.25
 40
0.5
 40
0.5
 40
0.75
 40
0.75
 40
1.0
 40
1.0
 40
1.0
 40
1.0
 10
86.63671600843237
 20
125.0087463727636
 30
0.0
 10
86.56835526799757
 20
124.9856072077711
 30
0.0
 10
86.49693519229574
 20
124.9651338623478
 30
0.0
 10
86.35476043138709
 20
124.9355574347529
 30
0.0
 10
86.28553480973852
 20
124.9271802737785
 30
0.0
 10
86.16618297999705
 20
124.9240913818476
 30
0.0
 10
86.11524824604119
 20
124.9289057263309
 30
0.0
 10
86.04222742996424
 20
124.95117794439
 30
0.0
 10
86.02012729436
 20
124.968007707836
 30
0.0
 10
86.00776106502201
 20
124.9877692506926
 30
0.0
  0
SPLINE
  5
124
330
1F
100
AcDbEntity
  8
0
  6
Continuous
 62
     7
370
    18
100
AcDbSpline
210
0.0
220
0.0
230
1.0
 70
     8
 71
     3
 72
    10
 73
     6
 74
     0
 42
0.00000001
 43
0.00000001
 40
0.0
 40
0.0
 40
0.0
 40
0.0
 40
0.5
 40
0.5
 40
1.0
 40
1.0
 40
1.0
 40
1.0
 10
87.00658561433089
 20
125.1882209146172
 30
0.0
 10
86.95965883435234
 20
125.1562382813476
 30
0.0
 10
86.90679756434231
 20
125.1248682832413
 30
0.0
 10
86.78355073413516
 20
125.0639101763402
 30
0.0
 10
86.71294296422481
 20
125.0345481428401
 30
0.0
 10
86.63671600843236
 20
125.0087463727636
 30
0.0
  0
SPLINE
  5
125
330
1F
100
AcDbEntity
  8
0
  6
Continuous
 62
     7
370
    18
100
AcDbSpline
210
0.0
220
0.0
230
1.0
 70
     8
 71
     3
 72
    11
 73
     7
 74
     0
 42
0.00000001
 43
0.00000001
 40
0.0
 40
0.0
 40
0.0
 40
0.0
 40
0.0008969669344824
 40
0.0008969669344824
 40
0.0008969669344824
 40
0.0011992800630516
 40
0.0011992800630516
 40
0.0011992800630516
 40
0.0011992800630516
 10
87.69338015062425
 20
125.6562990337773
 30
0.0
 10
87.52220103817639
 20
125.5396039966229
 30
0.0
 10
87.35093456468383
 20
125.4229092486504
 30
0.0
 10
87.17971189890251
 20
125.3062138455688
 30
0.0
 10
87.1220031275037
 20
125.2668829058886
 30
0.0
 10
87.0642943660471
 20
125.2275519285762
 30
0.0
 10
87.00658561428962
 20
125.1882209146283
 30
0.0
  0
SPLINE
  5
126
330
1F
100
AcDbEntity
  8
0
  6
Continuous
 62
     7
370
    18
100
AcDbSpline
210
0.0
220
0.0
230
1.0
 70
     8
 71
     3
 72
     8
 73
     4
 74
     0
 42
0.00000001
 43
0.00000001
 40
0.0
 40
0.0
 40
0.0
 40
0.0
 40
1.0
 40
1.0
 40
1.0
 40
1.0
 10
87.85420863907184
 20
125.8385768793795
 30
0.0
 10
87.8511982721713
 20
125.7852702535794
 30
0.0
 10
87.78784601913175
 20
125.720697650394
 30
0.0
 10
87.69338015062425
 20
125.6562990337773
 30
0.0
  0
SPLINE
  5
127
330
1F
100
AcDbEntity
  8
0
  6
Continuous
 62
     7
370
    18
100
AcDbSpline
210
0.0
220
0.0
230
1.0
 70
     8
 71
     3
 72
    14
 73
    10
 74
     0
 42
0.00000001
 43
0.00000001
 40
0.0
 40
0.0
 40
0.0
 40
0.0
 40
0.25
 40
0.25
 40
0.5
 40
0.5
 40
0.75
 40
0.75
 40
1.0
 40
1.0
 40
1.0
 40
1.0
 10
87.28947199712637
 20
125.8629017982299
 30
0.0
 10
87.36067783865488
 20
125.8832533949
 30
0.0
 10
87.43296701860623
 20
125.8997306315648
 30
0.0
 10
87.57050840452472
 20
125.9206104562712
 30
0.0
 10
87.63490311969112
 20
125.9249070577495
 30
0.0
 10
87.74517657939916
 20
125.9219580270905
 30
0.0
 10
87.79036734687831
 20
125.9136397128091
 30
0.0
 10
87.84509110545565
 20
125.8836912834015
 30
0.0
 10
87.85555750046464
 20
125.8624620906836
 30
0.0
 10
87.85420863907184
 20
125.8385768793795
 30
0.0
  0
SPLINE
  5
128
330
1F
100
AcDbEntity
  8
0
  6
Continuous
 62
     7
370
    18
100
AcDbSpline
210
0.0
220
0.0
230
1.0
 70
     8
 71
     3
 72
    10
 73
     6
 74
     0
 42
0.00000001
 43
0.00000001
 40
0.0
 40
0.0
 40
0.0
 40
0.0
 40
0.5
 40
0.5
 40
1.0
 40
1.0
 40
1.0
 40
1.0
 10
86.83520406927245
 20
125.6580042036934
 30
0.0
 10
86.89034553587585
 20
125.6955687854537
 30
0.0
 10
86.95386917004983
 20
125.732432820331
 30
0.0
 10
87.10842767126472
 20
125.8038064151314
 30
0.0
 10
87.19647181204115
 20
125.8363210821472
 30
0.0
 10
87.28947199712636
 20
125.8629017982299
 30
0.0
  0
LWPOLYLINE
  5
129
330
1F
100
AcDbEntity
  8
0
  6
Continuous
 62
     7
370
    18
100
AcDbPolyline
 90
        3
 70
   128
 43
0.0
 10
86.144551611
 20
125.1873296094
 10
86.6693350668
 20
125.5449663287
 10
86.8352040693
 20
125.6580042037
  0
LINE
  5
12A
330
1F
100
AcDbEntity
  8
0
  6
Continuous
 62
     7
370
    18
100
AcDbLine
 10
86.8352040693
 20
125.6580042037
 30
0.0
 11
86.8352040691
 21
125.3321545905
 31
0.0
  0
LWPOLYLINE
  5
12B
330
1F
100
AcDbEntity
  8
0
  6
Continuous
 62
     7
370
    18
100
AcDbPolyline
 90
        3
 70
   128
 43
0.0
 10
86.2425730012
 20
124.9282809586
 10
86.6691771953
 20
125.2190091277
 10
86.8352040691
 20
125.3321545905
  0
SPLINE
  5
12C
330
1F
100
AcDbEntity
  8
0
  6
Continuous
 62
     7
370
    18
100
AcDbSpline
210
0.0
220
0.0
230
1.0
 70
     8
 71
     3
 72
    10
 73
     6
 74
     0
 42
0.00000001
 43
0.00000001
 40
0.0
 40
0.0
 40
0.0
 40
0.0
 40
0.5
 40
0.5
 40
1.0
 40
1.0
 40
1.0
 40
1.0
 10
86.83520406932617
 20
125.3321545904897
 30
0.0
 10
86.890333160638
 20
125.3697107416581
 30
0.0
 10
86.95384084603658
 20
125.406566641377
 30
0.0
 10
87.10835193791091
 20
125.4779253123443
 30
0.0
 10
87.19637041349965
 20
125.5104363055983
 30
0.0
 10
87.28934722343024
 20
125.5370165185984
 30
0.0
  0
SPLINE
  5
12D
330
1F
100
AcDbEntity
  8
0
  6
Continuous
 62
     7
370
    18
100
AcDbSpline
210
0.0
220
0.0
230
1.0
 70
     8
 71
     3
 72
     9
 73
     5
 74
     0
 42
0.00000001
 43
0.00000001
 40
0.0
 40
0.0
 40
0.0
 40
0.0
 40
0.5531805878838494
 40
1.0
 40
1.0
 40
1.0
 40
1.0
 10
87.28934722343023
 20
125.5370165185984
 30
0.0
 10
87.34987281586984
 20
125.5530519661103
 30
0.0
 10
87.45928661990652
 20
125.5820396924751
 30
0.0
 10
87.55745394504108
 20
125.5899983071862
 30
0.0
 10
87.60131701154673
 20
125.5935543707327
 30
0.0
  0
LINE
  5
12E
330
1F
100
AcDbEntity
  8
0
  6
Continuous
 62
     7
370
    18
100
AcDbLine
 10
81.8874443883
 20
131.6571041772
 30
0.0
 11
83.2682686558
 21
132.4677673483
 31
0.0
  0
LINE
  5
12F
330
1F
100
AcDbEntity
  8
0
  6
Continuous
 62
     7
370
    18
100
AcDbLine
 10
128.8444253547
 20
132.4677673483
 30
0.0
 11
130.2252496222
 21
131.6571041772
 31
0.0
  0
LINE
  5
130
330
1F
100
AcDbEntity
  8
0
  6
Continuous
 62
     7
370
    18
100
AcDbLine
 10
84.732383999
 20
124.8120946651
 30
0.0
 11
84.7323839988
 21
124.4862450515
 31
0.0
  0
LINE
  5
131
330
1F
100
AcDbEntity
  8
0
  6
Continuous
 62
     7
370
    18
100
AcDbLine
 10
84.732383999
 20
124.8120946651
 30
0.0
 11
84.9255682112
 21
124.932647575
 31
0.0
  0
LINE
  5
132
330
1F
100
AcDbEntity
  8
0
  6
Continuous
 62
     7
370
    18
100
AcDbLine
 10
84.9255682113
 20
124.6067979615
 30
0.0
 11
84.9255682112
 21
124.932647575
 31
0.0
  0
SPLINE
  5
133
330
1F
100
AcDbEntity
  8
0
  6
Continuous
 62
     7
370
    18
100
AcDbSpline
210
0.0
220
0.0
230
1.0
 70
     8
 71
     3
 72
    14
 73
    10
 74
     0
 42
0.00000001
 43
0.00000001
 40
0.0
 40
0.0
 40
0.0
 40
0.0
 40
0.25
 40
0.25
 40
0.5
 40
0.5
 40
0.75
 40
0.75
 40
1.0
 40
1.0
 40
1.0
 40
1.0
 10
85.87552968379902
 20
125.9234711620037
 30
0.0
 10
85.84317358934531
 20
125.9233558916336
 30
0.0
 10
85.80751771583473
 20
125.9211016925746
 30
0.0
 10
85.72801568300262
 20
125.9088697632073
 30
0.0
 10
85.68453375503692
 20
125.8985524641134
 30
0.0
 10
85.60164221519524
 20
125.8713380474249
 30
0.0
 10
85.56309868527171
 20
125.854997241687
 30
0.0
 10
85.49483239750747
 20
125.8215089552947
 30
0.0
 10
85.46503024832867
 20
125.8044902012613
 30
0.0
 10
85.437516712241
 20
125.7873277977826
 30
0.0
  0
SPLINE
  5
134
330
1F
100
AcDbEntity
  8
0
  6
Continuous
 62
     7
370
    18
100
AcDbSpline
210
0.0
220
0.0
230
1.0
 70
     8
 71
     3
 72
    11
 73
     7
 74
     0
 42
0.00000001
 43
0.00000001
 40
0.0
 40
0.0
 40
0.0
 40
0.0
 40
0.0004546442193017
 40
0.0004546442193017
 40
0.0004546442193017
 40
0.0019201868892959
 40
0.0019201868892959
 40
0.0019201868892959
 40
0.0019201868892959
 10
85.437516712241
 20
125.7873277977826
 30
0.0
 10
85.34269283982412
 20
125.728178528396
 30
0.0
 10
85.24796413160365
 20
125.6690299140734
 30
0.0
 10
85.15318790653181
 20
125.6098808369849
 30
0.0
 10
84.84767736433872
 20
125.4192141735064
 30
0.0
 10
84.54216708792916
 20
125.2285465864415
 30
0.0
 10
84.2366570451173
 20
125.037878189242
 30
0.0
  0
SPLINE
  5
135
330
1F
100
AcDbEntity
  8
0
  6
Continuous
 62
     7
370
    18
100
AcDbSpline
210
0.0
220
0.0
230
1.0
 70
     8
 71
     3
 72
    12
 73
     8
 74
     0
 42
0.00000001
 43
0.00000001
 40
0.0
 40
0.0
 40
0.0
 40
0.0
 40
0.2499999999999953
 40
0.2499999999999953
 40
0.4999999999999907
 40
0.4999999999999907
 40
1.0
 40
1.0
 40
1.0
 40
1.0
 10
84.28369175936496
 20
124.9354783698061
 30
0.0
 10
84.25633880319735
 20
124.9350906424585
 30
0.0
 10
84.23183045354821
 20
124.936500695284
 30
0.0
 10
84.19507247007338
 20
124.9449893029112
 30
0.0
 10
84.18336578686015
 20
124.9522613664897
 30
0.0
 10
84.17411961545076
 20
124.9816712646116
 30
0.0
 10
84.20054891491938
 20
125.009786583316
 30
0.0
 10
84.23665704514517
 20
125.0378781892446
 30
0.0
  0
SPLINE
  5
136
330
1F
100
AcDbEntity
  8
0
  6
Continuous
 62
     7
370
    18
100
AcDbSpline
210
0.0
220
0.0
230
1.0
 70
     8
 71
     3
 72
    11
 73
     7
 74
     0
 42
0.00000001
 43
0.00000001
 40
0.0
 40
0.0
 40
0.0
 40
0.0
 40
0.0004373067935515
 40
0.0004373067935515
 40
0.0004373067935515
 40
0.000874666616058
 40
0.000874666616058
 40
0.000874666616058
 40
0.000874666616058
 10
84.92556821124161
 20
124.9326475749995
 30
0.0
 10
84.81859320051208
 20
124.9339678006702
 30
0.0
 10
84.71255448315395
 20
124.9354465751988
 30
0.0
 10
84.60604470271419
 20
124.9362099259395
 30
0.0
 10
84.49952883511612
 20
124.9369733203066
 30
0.0
 10
84.3925200900936
 20
124.9370210081872
 30
0.0
 10
84.28369175936496
 20
124.9354783698061
 30
0.0
  0
SPLINE
  5
137
330
1F
100
AcDbEntity
  8
0
  6
Continuous
 62
     7
370
    18
100
AcDbSpline
210
0.0
220
0.0
230
1.0
 70
     8
 71
     3
 72
     8
 73
     4
 74
     0
 42
0.00000001
 43
0.00000001
 40
0.0000000000000406
 40
0.0000000000000406
 40
0.0000000000000406
 40
0.0000000000000406
 40
0.0009755374126782
 40
0.0009755374126782
 40
0.0009755374126782
 40
0.0009755374126782
 10
84.73238399277086
 20
124.8120946612122
 30
0.0
 10
84.49374557577768
 20
124.8150137431801
 30
0.0
 10
84.25508843152653
 20
124.815840861397
 30
0.0
 10
84.01644220825466
 20
124.8145745643957
 30
0.0
  0
SPLINE
  5
138
330
1F
100
AcDbEntity
  8
0
  6
Continuous
 62
     7
370
    18
100
AcDbSpline
210
0.0
220
0.0
230
1.0
 70
     8
 71
     3
 72
    10
 73
     6
 74
     0
 42
0.00000001
 43
0.00000001
 40
0.0
 40
0.0
 40
0.0
 40
0.0
 40
0.5
 40
0.5
 40
1.0
 40
1.0
 40
1.0
 40
1.0
 10
84.01644220825466
 20
124.8145745643957
 30
0.0
 10
83.96599682611811
 20
124.8143068927131
 30
0.0
 10
83.92330436079234
 20
124.8188560031652
 30
0.0
 10
83.87036723977576
 20
124.8410333854695
 30
0.0
 10
83.86053241566692
 20
124.858696177867
 30
0.0
 10
83.8641087163652
 20
124.8797286937165
 30
0.0
  0
SPLINE
  5
139
330
1F
100
AcDbEntity
  8
0
  6
Continuous
 62
     7
370
    18
100
AcDbSpline
210
0.0
220
0.0
230
1.0
 70
     8
 71
     3
 72
     8
 73
     4
 74
     0
 42
0.00000001
 43
0.00000001
 40
0.0
 40
0.0
 40
0.0
 40
0.0
 40
1.0
 40
1.0
 40
1.0
 40
1.0
 10
83.86410871636518
 20
124.8797286937165
 30
0.0
 10
83.87169458456415
 20
124.9243418027884
 30
0.0
 10
83.94117070753992
 20
124.9813292257098
 30
0.0
 10
84.0319040350864
 20
125.0379636488435
 30
0.0
  0
SPLINE
  5
13A
330
1F
100
AcDbEntity
  8
0
  6
Continuous
 62
     7
370
    18
100
AcDbSpline
210
0.0
220
0.0
230
1.0
 70
     8
 71
     3
 72
    11
 73
     7
 74
     0
 42
0.00000001
 43
0.00000001
 40
0.0
 40
0.0
 40
0.0
 40
0.0
 40
0.0008037155996306
 40
0.0008037155996306
 40
0.0008037155996306
 40
0.0019798777977716
 40
0.0019798777977716
 40
0.0019798777977716
 40
0.0019798777977716
 10
84.0319040350864
 20
125.0379636488435
 30
0.0
 10
84.19939853090138
 20
125.1425112765462
 30
0.0
 10
84.36700171557159
 20
125.2470595954569
 30
0.0
 10
84.53455084912193
 20
125.3516066020635
 30
0.0
 10
84.7797432518797
 20
125.5046013159592
 30
0.0
 10
85.02493606105449
 20
125.6575946182154
 30
0.0
 10
85.27012932261464
 20
125.8105863490529
 30
0.0
  0
LINE
  5
13B
330
1F
100
AcDbEntity
  8
0
  6
Continuous
 62
     7
370
    18
100
AcDbLine
 10
85.2701293171
 20
125.8105863449
 30
0.0
 11
85.3857805264
 21
125.8718040271
 31
0.0
  0
SPLINE
  5
13C
330
1F
100
AcDbEntity
  8
0
  6
Continuous
 62
     7
370
    18
100
AcDbSpline
210
0.0
220
0.0
230
1.0
 70
     8
 71
     3
 72
    10
 73
     6
 74
     0
 42
0.00000001
 43
0.00000001
 40
0.0
 40
0.0
 40
0.0
 40
0.0
 40
0.5
 40
0.5
 40
1.0
 40
1.0
 40
1.0
 40
1.0
 10
85.38578052644851
 20
125.8718040271145
 30
0.0
 10
85.4506405086107
 20
125.9061302991415
 30
0.0
 10
85.52681664348395
 20
125.9396792778166
 30
0.0
 10
85.69355548639487
 20
125.9934947341445
 30
0.0
 10
85.78106420854652
 20
126.0124188190589
 30
0.0
 10
85.86023804228148
 20
126.0235396121758
 30
0.0
  0
SPLINE
  5
13D
330
1F
100
AcDbEntity
  8
0
  6
Continuous
 62
     7
370
    18
100
AcDbSpline
210
0.0
220
0.0
230
1.0
 70
     8
 71
     3
 72
     8
 73
     4
 74
     0
 42
0.00000001
 43
0.00000001
 40
0.0
 40
0.0
 40
0.0
 40
0.0
 40
1.0
 40
1.0
 40
1.0
 40
1.0
 10
85.8602380422815
 20
126.0235396121758
 30
0.0
 10
85.94652075690479
 20
126.0356589219733
 30
0.0
 10
86.01922020268637
 20
126.0374721499962
 30
0.0
 10
86.08974901935558
 20
126.0376660107126
 30
0.0
  0
SPLINE
  5
13E
330
1F
100
AcDbEntity
  8
0
  6
Continuous
 62
     7
370
    18
100
AcDbSpline
210
0.0
220
0.0
230
1.0
 70
     8
 71
     3
 72
     8
 73
     4
 74
     0
 42
0.00000001
 43
0.00000001
 40
0.0
 40
0.0
 40
0.0
 40
0.0
 40
0.0008195781384943
 40
0.0008195781384943
 40
0.0008195781384943
 40
0.0008195781384943
 10
86.08974901935558
 20
126.0376660107126
 30
0.0
 10
86.29024395614373
 20
126.0382171059088
 30
0.0
 10
86.49074482982718
 20
126.0371448055264
 30
0.0
 10
86.69123042624162
 20
126.0344507119632
 30
0.0
  0
LINE
  5
13F
330
1F
100
AcDbEntity
  8
0
  6
Continuous
 62
     7
370
    18
100
AcDbLine
 10
86.691230426
 20
126.0344507118
 30
0.0
 11
86.5084324554
 21
125.9203839188
 31
0.0
  0
SPLINE
  5
140
330
1F
100
AcDbEntity
  8
0
  6
Continuous
 62
     7
370
    18
100
AcDbSpline
210
0.0
220
0.0
230
1.0
 70
     8
 71
     3
 72
     8
 73
     4
 74
     0
 42
0.00000001
 43
0.00000001
 40
0.0000000000000748
 40
0.0000000000000748
 40
0.0000000000000748
 40
0.0000000000000748
 40
0.0008623917575502
 40
0.0008623917575502
 40
0.0008623917575502
 40
0.0008623917575502
 10
86.50843245539254
 20
125.9203839187808
 30
0.0
 10
86.29747358515043
 20
125.9231929155262
 30
0.0
 10
86.08649821702471
 20
125.9242227490333
 30
0.0
 10
85.87552968379903
 20
125.9234711620038
 30
0.0
  0
LINE
  5
141
330
1F
100
AcDbEntity
  8
0
  6
Continuous
 62
     7
370
    18
100
AcDbLine
 10
84.2366570936
 20
124.9381338116
 30
0.0
 11
84.2366570451
 21
125.0378781892
 31
0.0
  0
LINE
  5
142
330
1F
100
AcDbEntity
  8
0
  6
Continuous
 62
     7
370
    18
100
AcDbLine
 10
86.5084324879
 20
125.5945343262
 30
0.0
 11
86.5084324554
 21
125.9203839188
 31
0.0
  0
LINE
  5
143
330
1F
100
AcDbEntity
  8
0
  6
Continuous
 62
     7
370
    18
100
AcDbLine
 10
82.9329703482
 20
124.4889626148
 30
0.0
 11
82.9329704465
 21
124.8146548995
 31
0.0
  0
SPLINE
  5
144
330
1F
100
AcDbEntity
  8
0
  6
Continuous
 62
     7
370
    18
100
AcDbSpline
210
0.0
220
0.0
230
1.0
 70
     8
 71
     3
 72
     8
 73
     4
 74
     0
 42
0.00000001
 43
0.00000001
 40
0.0000000000000525
 40
0.0000000000000525
 40
0.0000000000000525
 40
0.0000000000000525
 40
0.0004342506048712
 40
0.0004342506048712
 40
0.0004342506048712
 40
0.0004342506048712
 10
83.23711603910178
 20
124.8149790856652
 30
0.0
 10
83.13573441092745
 20
124.8152857622697
 30
0.0
 10
83.0343517392892
 20
124.8151776951949
 30
0.0
 10
82.93297054481316
 20
124.8146548999457
 30
0.0
  0
LINE
  5
145
330
1F
100
AcDbEntity
  8
0
  6
Continuous
 62
     7
370
    18
100
AcDbLine
 10
83.2371160272
 20
124.4891294837
 30
0.0
 11
83.2371160272
 21
124.8149790967
 31
0.0
  0
LINE
  5
146
330
1F
100
AcDbEntity
  8
0
  6
Continuous
 62
     7
370
    18
100
AcDbLine
 10
83.5405179933
 20
124.995198819
 30
0.0
 11
83.2371160272
 21
124.8149790967
 31
0.0
  0
LINE
  5
147
330
1F
100
AcDbEntity
  8
0
  6
Continuous
 62
     7
370
    18
100
AcDbLine
 10
83.5405179933
 20
124.6693492056
 30
0.0
 11
83.5405179933
 21
124.995198819
 31
0.0
  0
LINE
  5
148
330
1F
100
AcDbEntity
  8
0
  6
Continuous
 62
     7
370
    18
100
AcDbLine
 10
82.9329704465
 20
124.8146548995
 30
0.0
 11
83.2363723142
 21
124.9948702746
 31
0.0
  0
SPLINE
  5
149
330
1F
100
AcDbEntity
  8
0
  6
Continuous
 62
     7
370
    18
100
AcDbSpline
210
0.0
220
0.0
230
1.0
 70
     8
 71
     3
 72
     8
 73
     4
 74
     0
 42
0.00000001
 43
0.00000001
 40
0.0000000000000003
 40
0.0000000000000003
 40
0.0000000000000003
 40
0.0000000000000003
 40
0.0004342508891055
 40
0.0004342508891055
 40
0.0004342508891055
 40
0.0004342508891055
 10
83.23637231421405
 20
124.9948702746443
 30
0.0
 10
83.33775355716718
 20
124.9954000798268
 30
0.0
 10
83.43913630495501
 20
124.9955096076251
 30
0.0
 10
83.54051799331474
 20
124.9951988189626
 30
0.0
  0
LINE
  5
14A
330
1F
100
AcDbEntity
  8
0
  6
Continuous
 62
     7
370
    18
100
AcDbLine
 10
86.6912304258
 20
125.708601099
 30
0.0
 11
86.691230426
 21
126.0344507118
 31
0.0
  0
LINE
  5
14B
330
1F
100
AcDbEntity
  8
0
  6
Continuous
 62
     7
370
    18
100
AcDbLine
 10
82.5537094257
 20
124.4829229335
 30
0.0
 11
82.5537094256
 21
124.8087725474
 31
0.0
  0
LINE
  5
14C
330
1F
100
AcDbEntity
  8
0
  6
Continuous
 62
     7
370
    18
100
AcDbLine
 10
82.7674989727
 20
124.9292958119
 30
0.0
 11
82.5537094256
 21
124.8087725474
 31
0.0
  0
LINE
  5
14D
330
1F
100
AcDbEntity
  8
0
  6
Continuous
 62
     7
370
    18
100
AcDbLine
 10
82.7674989732
 20
124.603446198
 30
0.0
 11
82.7674989727
 21
124.9292958119
 31
0.0
  0
SPLINE
  5
14E
330
1F
100
AcDbEntity
  8
0
  6
Continuous
 62
     7
370
    18
100
AcDbSpline
210
0.0
220
0.0
230
1.0
 70
     8
 71
     3
 72
    10
 73
     6
 74
     0
 42
0.00000001
 43
0.00000001
 40
0.0
 40
0.0
 40
0.0
 40
0.0
 40
0.5
 40
0.5
 40
1.0
 40
1.0
 40
1.0
 40
1.0
 10
82.44480209444596
 20
124.8107344131875
 30
0.0
 10
82.39737805250238
 20
124.8115104986775
 30
0.0
 10
82.36939384173527
 20
124.8221127535537
 30
0.0
 10
82.35579515480381
 20
124.8574347446216
 30
0.0
 10
82.36714148617297
 20
124.8800871136749
 30
0.0
 10
82.38588871523723
 20
124.9043479428538
 30
0.0
  0
SPLINE
  5
14F
330
1F
100
AcDbEntity
  8
0
  6
Continuous
 62
     7
370
    18
100
AcDbSpline
210
0.0
220
0.0
230
1.0
 70
     8
 71
     3
 72
     8
 73
     4
 74
     0
 42
0.00000001
 43
0.00000001
 40
0.0000000000003506
 40
0.0000000000003506
 40
0.0000000000003506
 40
0.0000000000003506
 40
0.0001651498818844
 40
0.0001651498818844
 40
0.0001651498818844
 40
0.0001651498818844
 10
82.55370942541607
 20
124.8087725473756
 30
0.0
 10
82.51740747232654
 20
124.8094863968941
 30
0.0
 10
82.48110491674417
 20
124.8101403243568
 30
0.0
 10
82.44480209444596
 20
124.8107344131875
 30
0.0
  0
SPLINE
  5
150
330
1F
100
AcDbEntity
  8
0
  6
Continuous
 62
     7
370
    18
100
AcDbSpline
210
0.0
220
0.0
230
1.0
 70
     8
 71
     3
 72
    10
 73
     6
 74
     0
 42
0.00000001
 43
0.00000001
 40
0.0
 40
0.0
 40
0.0
 40
0.0
 40
0.5
 40
0.5
 40
1.0
 40
1.0
 40
1.0
 40
1.0
 10
82.3858887152275
 20
124.904347942855
 30
0.0
 10
82.29505835940397
 20
124.8757157896048
 30
0.0
 10
82.20275576521868
 20
124.8519578065521
 30
0.0
 10
82.03603173656471
 20
124.8217931345521
 30
0.0
 10
81.96102746957246
 20
124.8151618642376
 30
0.0
 10
81.89825106760418
 20
124.815148419159
 30
0.0
  0
SPLINE
  5
151
330
1F
100
AcDbEntity
  8
0
  6
Continuous
 62
     7
370
    18
100
AcDbSpline
210
0.0
220
0.0
230
1.0
 70
     8
 71
     3
 72
     8
 73
     4
 74
     0
 42
0.00000001
 43
0.00000001
 40
0.0
 40
0.0
 40
0.0
 40
0.0
 40
0.0004740086680435
 40
0.0004740086680435
 40
0.0004740086680435
 40
0.0004740086680435
 10
81.89825106760418
 20
124.815148419159
 30
0.0
 10
81.79404943627647
 20
124.8151261018696
 30
0.0
 10
81.6898473377641
 20
124.8146095744613
 30
0.0
 10
81.58564784036983
 20
124.8135990575922
 30
0.0
  0
SPLINE
  5
152
330
1F
100
AcDbEntity
  8
0
  6
Continuous
 62
     7
370
    18
100
AcDbSpline
210
0.0
220
0.0
230
1.0
 70
     8
 71
     3
 72
    14
 73
    10
 74
     0
 42
0.00000001
 43
0.00000001
 40
0.0
 40
0.0
 40
0.0
 40
0.0
 40
0.25
 40
0.25
 40
0.5
 40
0.5
 40
0.75
 40
0.75
 40
1.0
 40
1.0
 40
1.0
 40
1.0
 10
81.58564784036983
 20
124.8135990575922
 30
0.0
 10
81.53727585684153
 20
124.8131299506715
 30
0.0
 10
81.49519047521713
 20
124.8161580034216
 30
0.0
 10
81.44200161626037
 20
124.8355620855646
 30
0.0
 10
81.43339792299481
 20
124.8525672686716
 30
0.0
 10
81.45856469952984
 20
124.8979785283416
 30
0.0
 10
81.4898808934695
 20
124.9249538829241
 30
0.0
 10
81.56817403760382
 20
124.9801552739051
 30
0.0
 10
81.6148273312148
 20
125.0083491782732
 30
0.0
 10
81.66538843365787
 20
125.0368565926897
 30
0.0
  0
SPLINE
  5
153
330
1F
100
AcDbEntity
  8
0
  6
Continuous
 62
     7
370
    18
100
AcDbSpline
210
0.0
220
0.0
230
1.0
 70
     8
 71
     3
 72
    11
 73
     7
 74
     0
 42
0.00000001
 43
0.00000001
 40
0.0
 40
0.0
 40
0.0
 40
0.0
 40
0.0007237221472257
 40
0.0007237221472257
 40
0.0007237221472257
 40
0.0018337497511319
 40
0.0018337497511319
 40
0.0018337497511319
 40
0.0018337497511319
 10
81.66538843365787
 20
125.0368565926897
 30
0.0
 10
81.83233452972345
 20
125.1309843176759
 30
0.0
 10
81.99932798761085
 20
125.2251120386548
 30
0.0
 10
82.16629817076806
 20
125.3192385026705
 30
0.0
 10
82.42239301744661
 20
125.4636074068347
 30
0.0
 10
82.67846576174247
 20
125.607973889721
 30
0.0
 10
82.93458470904227
 20
125.7523389572744
 30
0.0
  0
SPLINE
  5
154
330
1F
100
AcDbEntity
  8
0
  6
Continuous
 62
     7
370
    18
100
AcDbSpline
210
0.0
220
0.0
230
1.0
 70
     8
 71
     3
 72
    14
 73
    10
 74
     0
 42
0.00000001
 43
0.00000001
 40
0.0
 40
0.0
 40
0.0
 40
0.0
 40
0.25
 40
0.25
 40
0.5
 40
0.5
 40
0.75
 40
0.75
 40
1.0
 40
1.0
 40
1.0
 40
1.0
 10
83.86116392899277
 20
126.0408977561599
 30
0.0
 10
83.79984657643195
 20
126.0404503820038
 30
0.0
 10
83.73249533791119
 20
126.0357121174769
 30
0.0
 10
83.57453859074374
 20
126.0101460093188
 30
0.0
 10
83.4840518606527
 20
125.9882682260718
 30
0.0
 10
83.30785211730846
 20
125.9309505916597
 30
0.0
 10
83.22262315070209
 20
125.896256239142
 30
0.0
 10
83.06892388163392
 20
125.8253091336326
 30
0.0
 10
82.99916348023021
 20
125.7887396951478
 30
0.0
 10
82.93458470904227
 20
125.7523389572744
 30
0.0
  0
SPLINE
  5
155
330
1F
100
AcDbEntity
  8
0
  6
Continuous
 62
     7
370
    18
100
AcDbSpline
210
0.0
220
0.0
230
1.0
 70
     8
 71
     3
 72
     8
 73
     4
 74
     0
 42
0.00000001
 43
0.00000001
 40
0.0
 40
0.0
 40
0.0
 40
0.0
 40
0.0009938868554086
 40
0.0009938868554086
 40
0.0009938868554086
 40
0.0009938868554086
 10
84.51662242324163
 20
126.0385179149386
 30
0.0
 10
84.29814569728447
 20
126.041697941237
 30
0.0
 10
84.07964823317865
 20
126.0424918274485
 30
0.0
 10
83.86116392899277
 20
126.0408977561599
 30
0.0
  0
LWPOLYLINE
  5
156
330
1F
100
AcDbEntity
  8
0
  6
Continuous
 62
     7
370
    18
100
AcDbPolyline
 90
        3
 70
   128
 43
0.0
 10
84.5166224232
 20
126.0385179149
 10
83.7005270303
 20
125.5783428702
 10
82.8844337611
 20
125.1181611604
  0
SPLINE
  5
157
330
1F
100
AcDbEntity
  8
0
  6
Continuous
 62
     7
370
    18
100
AcDbSpline
210
0.0
220
0.0
230
1.0
 70
     8
 71
     3
 72
    12
 73
     8
 74
     0
 42
0.00000001
 43
0.00000001
 40
0.0
 40
0.0
 40
0.0
 40
0.0
 40
0.4999999999999932
 40
0.4999999999999932
 40
0.7499999999999966
 40
0.7499999999999966
 40
1.0
 40
1.0
 40
1.0
 40
1.0
 10
82.88443376111665
 20
125.118161160446
 30
0.0
 10
82.8090356614646
 20
125.0756437187554
 30
0.0
 10
82.73799312209279
 20
125.0321683265011
 30
0.0
 10
82.68392325240457
 20
124.9741396141611
 30
0.0
 10
82.6774007234268
 20
124.9568390543815
 30
0.0
 10
82.70122970493537
 20
124.9344100889528
 30
0.0
 10
82.73073560883202
 20
124.9296814310871
 30
0.0
 10
82.76749897216197
 20
124.9292958118601
 30
0.0
  0
SPLINE
  5
158
330
1F
100
AcDbEntity
  8
0
  6
Continuous
 62
     7
370
    18
100
AcDbSpline
210
0.0
220
0.0
230
1.0
 70
     8
 71
     3
 72
    11
 73
     7
 74
     0
 42
0.00000001
 43
0.00000001
 40
0.0
 40
0.0
 40
0.0
 40
0.0
 40
0.0003759733270353
 40
0.0003759733270353
 40
0.0003759733270353
 40
0.0007217160452984
 40
0.0007217160452984
 40
0.0007217160452984
 40
0.0007217160452984
 10
83.65080057538505
 20
125.9267482537854
 30
0.0
 10
83.73345021331158
 20
125.9273678924797
 30
0.0
 10
83.81610088015012
 20
125.9276488402799
 30
0.0
 10
83.89875133137251
 20
125.927591329222
 30
0.0
 10
83.97475621189945
 20
125.9275384423832
 30
0.0
 10
84.05076124022548
 20
125.9271992487525
 30
0.0
 10
84.12676500953864
 20
125.9265738369129
 30
0.0
  0
SPLINE
  5
159
330
1F
100
AcDbEntity
  8
0
  6
Continuous
 62
     7
370
    18
100
AcDbSpline
210
0.0
220
0.0
230
1.0
 70
     8
 71
     3
 72
    14
 73
    10
 74
     0
 42
0.00000001
 43
0.00000001
 40
0.0
 40
0.0
 40
0.0
 40
0.0
 40
0.25
 40
0.25
 40
0.5
 40
0.5
 40
0.75
 40
0.75
 40
1.0
 40
1.0
 40
1.0
 40
1.0
 10
83.1360605641254
 20
125.7635497622517
 30
0.0
 10
83.17174187634728
 20
125.7836627194662
 30
0.0
 10
83.20961269380025
 20
125.8035881061995
 30
0.0
 10
83.29336169881397
 20
125.8427468357096
 30
0.0
 10
83.33975993198925
 20
125.8621275745681
 30
0.0
 10
83.4382962053897
 20
125.8953141797907
 30
0.0
 10
83.48820690392756
 20
125.9080570521536
 30
0.0
 10
83.5774839534233
 20
125.9234901249467
 30
0.0
 10
83.61659677413449
 20
125.9264918219451
 30
0.0
 10
83.65080057538508
 20
125.9267482537854
 30
0.0
  0
SPLINE
  5
15A
330
1F
100
AcDbEntity
  8
0
  6
Continuous
 62
     7
370
    18
100
AcDbSpline
210
0.0
220
0.0
230
1.0
 70
     8
 71
     3
 72
    11
 73
     7
 74
     0
 42
0.00000001
 43
0.00000001
 40
0.0
 40
0.0
 40
0.0
 40
0.0
 40
0.0003759719840773
 40
0.0003759719840773
 40
0.0003759719840773
 40
0.001870520688448
 40
0.001870520688448
 40
0.001870520688448
 40
0.001870520688448
 10
81.8414634495848
 20
125.0335649192561
 30
0.0
 10
81.92816807536872
 20
125.0824737351103
 30
0.0
 10
82.0149378707703
 20
125.1313832301901
 30
0.0
 10
82.10167514767114
 20
125.1802922186731
 30
0.0
 10
82.44646968104551
 20
125.3747132619011
 30
0.0
 10
82.79115294359579
 20
125.5691311217181
 30
0.0
 10
83.1360605641254
 20
125.7635497622517
 30
0.0
  0
SPLINE
  5
15B
330
1F
100
AcDbEntity
  8
0
  6
Continuous
 62
     7
370
    18
100
AcDbSpline
210
0.0
220
0.0
230
1.0
 70
     8
 71
     3
 72
    14
 73
    10
 74
     0
 42
0.00000001
 43
0.00000001
 40
0.0
 40
0.0
 40
0.0
 40
0.0
 40
0.25
 40
0.25
 40
0.5
 40
0.5
 40
0.75
 40
0.75
 40
1.0
 40
1.0
 40
1.0
 40
1.0
 10
81.84146344958481
 20
125.0335649192561
 30
0.0
 10
81.81550903304218
 20
125.0189244111193
 30
0.0
 10
81.79252719303213
 20
125.004564558306
 30
0.0
 10
81.7584682985777
 20
124.9769595001155
 30
0.0
 10
81.74874625938772
 20
124.9640421984234
 30
0.0
 10
81.75208894997343
 20
124.9453685342252
 30
0.0
 10
81.76442389118962
 20
124.9394841999212
 30
0.0
 10
81.79976741648147
 20
124.9328287846285
 30
0.0
 10
81.82245184218661
 20
124.9318404650854
 30
0.0
 10
81.8472768690427
 20
124.9320434888637
 30
0.0
  0
SPLINE
  5
15C
330
1F
100
AcDbEntity
  8
0
  6
Continuous
 62
     7
370
    18
100
AcDbSpline
210
0.0
220
0.0
230
1.0
 70
     8
 71
     3
 72
     8
 73
     4
 74
     0
 42
0.00000001
 43
0.00000001
 40
0.0
 40
0.0
 40
0.0
 40
0.0
 40
0.0002935792720235
 40
0.0002935792720235
 40
0.0002935792720235
 40
0.0002935792720235
 10
81.8472768690427
 20
124.9320434888637
 30
0.0
 10
81.91181365174926
 20
124.9325712829137
 30
0.0
 10
81.97635122614838
 20
124.9329079032303
 30
0.0
 10
82.04088888825531
 20
124.9330533150866
 30
0.0
  0
SPLINE
  5
15D
330
1F
100
AcDbEntity
  8
0
  6
Continuous
 62
     7
370
    18
100
AcDbSpline
210
0.0
220
0.0
230
1.0
 70
     8
 71
     3
 72
    14
 73
    10
 74
     0
 42
0.00000001
 43
0.00000001
 40
0.0
 40
0.0
 40
0.0
 40
0.0
 40
0.25
 40
0.25
 40
0.5
 40
0.5
 40
0.75
 40
0.75
 40
1.0
 40
1.0
 40
1.0
 40
1.0
 10
82.0408888882553
 20
124.9330533150866
 30
0.0
 10
82.08285417864234
 20
124.9331478684152
 30
0.0
 10
82.12803513729996
 20
124.9352192329022
 30
0.0
 10
82.23083458039089
 20
124.9471791280787
 30
0.0
 10
82.28891564885734
 20
124.9574647572705
 30
0.0
 10
82.40903589877716
 20
124.9891264500947
 30
0.0
 10
82.47063374172788
 20
125.0106077997579
 30
0.0
 10
82.58131393895447
 20
125.0576208394135
 30
0.0
 10
82.62978708217145
 20
125.0823228878658
 30
0.0
 10
82.67391585271731
 20
125.1072103130166
 30
0.0
  0
LINE
  5
15E
330
1F
100
AcDbEntity
  8
0
  6
Continuous
 62
     7
370
    18
100
AcDbLine
 10
84.1267649954
 20
125.9265738291
 30
0.0
 11
82.6739158529
 21
125.107210313
 31
0.0
  0
LINE
  5
15F
330
1F
100
AcDbEntity
  8
0
  6
Continuous
 62
     7
370
    18
100
AcDbLine
 10
84.5166224232
 20
126.0385179149
 30
0.0
 11
84.5166224233
 21
125.7126683014
 31
0.0
  0
LINE
  5
160
330
1F
100
AcDbEntity
  8
0
  6
Continuous
 62
     7
370
    18
100
AcDbLine
 10
82.2887447843
 20
124.9599253161
 30
0.0
 11
83.1359837228
 21
125.4376568317
 31
0.0
  0
SPLINE
  5
161
330
1F
100
AcDbEntity
  8
0
  6
Continuous
 62
     7
370
    18
100
AcDbSpline
210
0.0
220
0.0
230
1.0
 70
     8
 71
     3
 72
    11
 73
     7
 74
     0
 42
0.00000001
 43
0.00000001
 40
0.0
 40
0.0
 40
0.0
 40
0.0
 40
0.1499517858505482
 40
0.3715508712521073
 40
0.6395141556006714
 40
0.9999999999999999
 40
0.9999999999999999
 40
0.9999999999999999
 40
0.9999999999999999
 10
83.52432909849045
 20
125.5868179795391
 30
0.0
 10
83.50450089346072
 20
125.5834214833739
 30
0.0
 10
83.45537052257265
 20
125.5750056375589
 30
0.0
 10
83.35946068742071
 20
125.5440375643616
 30
0.0
 10
83.24449449219622
 20
125.4964467600224
 30
0.0
 10
83.17553798814686
 20
125.4590868928456
 30
0.0
 10
83.13598372281025
 20
125.4376568316842
 30
0.0
  0
SPLINE
  5
162
330
1F
100
AcDbEntity
  8
0
  6
Continuous
 62
     7
370
    18
100
AcDbSpline
210
0.0
220
0.0
230
1.0
 70
     8
 71
     3
 72
    14
 73
    10
 74
     0
 42
0.00000001
 43
0.00000001
 40
0.0
 40
0.0
 40
0.0
 40
0.0
 40
0.25
 40
0.25
 40
0.5
 40
0.5
 40
0.75
 40
0.75
 40
1.0
 40
1.0
 40
1.0
 40
1.0
 10
82.30587342663861
 20
125.9234711623994
 30
0.0
 10
82.27947817135127
 20
125.9233558745805
 30
0.0
 10
82.24916898756236
 20
125.9211009660494
 30
0.0
 10
82.17739773929088
 20
125.9088649842061
 30
0.0
 10
82.13603191017681
 20
125.8985442174091
 30
0.0
 10
82.05273971164219
 20
125.8713217969507
 30
0.0
 10
82.01184353187983
 20
125.8549773711899
 30
0.0
 10
81.93672389032982
 20
125.8214836295591
 30
0.0
 10
81.90251163321275
 20
125.8044623254842
 30
0.0
 10
81.87006815282824
 20
125.7872974634113
 30
0.0
  0
SPLINE
  5
163
330
1F
100
AcDbEntity
  8
0
  6
Continuous
 62
     7
370
    18
100
AcDbSpline
210
0.0
220
0.0
230
1.0
 70
     8
 71
     3
 72
    11
 73
     7
 74
     0
 42
0.00000001
 43
0.00000001
 40
0.0
 40
0.0
 40
0.0
 40
0.0
 40
0.0004546442033409
 40
0.0004546442033409
 40
0.0004546442033409
 40
0.0019201091681115
 40
0.0019201091681115
 40
0.0019201091681115
 40
0.0019201091681115
 10
81.87006815282824
 20
125.7872974634113
 30
0.0
 10
81.75826968350833
 20
125.728148282032
 30
0.0
 10
81.646530759758
 20
125.6689995839564
 30
0.0
 10
81.53476212180207
 20
125.60985050891
 30
0.0
 10
81.17449573793292
 20
125.4191939547468
 30
0.0
 10
80.81422966744609
 20
125.2285364771006
 30
0.0
 10
80.45396387204019
 20
125.0378781894034
 30
0.0
  0
SPLINE
  5
164
330
1F
100
AcDbEntity
  8
0
  6
Continuous
 62
     7
370
    18
100
AcDbSpline
210
0.0
220
0.0
230
1.0
 70
     8
 71
     3
 72
    12
 73
     8
 74
     0
 42
0.00000001
 43
0.00000001
 40
0.0
 40
0.0
 40
0.0
 40
0.0
 40
0.2500000000000073
 40
0.2500000000000073
 40
0.5000000000000147
 40
0.5000000000000147
 40
1.0
 40
1.0
 40
1.0
 40
1.0
 10
80.43189818932281
 20
124.9354783676108
 30
0.0
 10
80.40940015692483
 20
124.9350956051368
 30
0.0
 10
80.390131628572
 20
124.9364384645406
 30
0.0
 10
80.36486618402377
 20
124.9447842825914
 30
0.0
 10
80.35946025152454
 20
124.9520087506917
 30
0.0
 10
80.3693836419618
 20
124.9814771029392
 30
0.0
 10
80.40803630490025
 20
125.0097489894135
 30
0.0
 10
80.45396387207332
 20
125.037878189407
 30
0.0
  0
SPLINE
  5
165
330
1F
100
AcDbEntity
  8
0
  6
Continuous
 62
     7
370
    18
100
AcDbSpline
210
0.0
220
0.0
230
1.0
 70
     8
 71
     3
 72
    11
 73
     7
 74
     0
 42
0.00000001
 43
0.00000001
 40
0.0
 40
0.0
 40
0.0
 40
0.0
 40
0.0004357776821304
 40
0.0004357776821304
 40
0.0004357776821304
 40
0.0008716069327503
 40
0.0008716069327503
 40
0.0008716069327503
 40
0.0008716069327503
 10
80.95361481624163
 20
124.9326752114368
 30
0.0
 10
80.86666561402723
 20
124.9339849110201
 30
0.0
 10
80.78079528758516
 20
124.9354433423495
 30
0.0
 10
80.69438324883038
 20
124.9361956898534
 30
0.0
 10
80.60796633603174
 20
124.9369480797932
 30
0.0
 10
80.5209905889917
 20
124.9369941102636
 30
0.0
 10
80.43189818932281
 20
124.9354783676108
 30
0.0
  0
LINE
  5
166
330
1F
100
AcDbEntity
  8
0
  6
Continuous
 62
     7
370
    18
100
AcDbLine
 10
80.7257946314
 20
124.8121220567
 30
0.0
 11
80.9536148162
 21
124.9326752114
 31
0.0
  0
SPLINE
  5
167
330
1F
100
AcDbEntity
  8
0
  6
Continuous
 62
     7
370
    18
100
AcDbSpline
210
0.0
220
0.0
230
1.0
 70
     8
 71
     3
 72
     8
 73
     4
 74
     0
 42
0.00000001
 43
0.00000001
 40
0.0000000000000403
 40
0.0000000000000403
 40
0.0000000000000403
 40
0.0000000000000403
 40
0.0009724791803451
 40
0.0009724791803451
 40
0.0009724791803451
 40
0.0009724791803451
 10
80.72579462380213
 20
124.8121220526898
 30
0.0
 10
80.5317591028615
 20
124.8150189124082
 30
0.0
 10
80.33770846432078
 20
124.8158368915446
 30
0.0
 10
80.14366666622475
 20
124.8145745648899
 30
0.0
  0
SPLINE
  5
168
330
1F
100
AcDbEntity
  8
0
  6
Continuous
 62
     7
370
    18
100
AcDbSpline
210
0.0
220
0.0
230
1.0
 70
     8
 71
     3
 72
    10
 73
     6
 74
     0
 42
0.00000001
 43
0.00000001
 40
0.0
 40
0.0
 40
0.0
 40
0.0
 40
0.5
 40
0.5
 40
1.0
 40
1.0
 40
1.0
 40
1.0
 10
80.14366666622475
 20
124.8145745648899
 30
0.0
 10
80.10248311106938
 20
124.8143066478745
 30
0.0
 10
80.07039309885694
 20
124.8188127807388
 30
0.0
 10
80.03997431173076
 20
124.8407765097198
 30
0.0
 10
80.04219620080107
 20
124.8583920139593
 30
0.0
 10
80.05867239858736
 20
124.8797337857683
 30
0.0
  0
SPLINE
  5
169
330
1F
100
AcDbEntity
  8
0
  6
Continuous
 62
     7
370
    18
100
AcDbSpline
210
0.0
220
0.0
230
1.0
 70
     8
 71
     3
 72
     8
 73
     4
 74
     0
 42
0.00000001
 43
0.00000001
 40
0.0
 40
0.0
 40
0.0
 40
0.0
 40
1.0
 40
1.0
 40
1.0
 40
1.0
 10
80.05867239858736
 20
124.8797337857683
 30
0.0
 10
80.09351102255636
 20
124.9248605785227
 30
0.0
 10
80.1816088833435
 20
124.9814568999401
 30
0.0
 10
80.28860036041883
 20
125.0380693955211
 30
0.0
  0
LWPOLYLINE
  5
16A
330
1F
100
AcDbEntity
  8
0
  6
Continuous
 62
     7
370
    18
100
AcDbPolyline
 90
        3
 70
   128
 43
0.0
 10
80.2886003604
 20
125.0380693955
 10
80.872870148
 20
125.3472167119
 10
81.7486270721
 20
125.8105863459
  0
LINE
  5
16B
330
1F
100
AcDbEntity
  8
0
  6
Continuous
 62
     7
370
    18
100
AcDbLine
 10
81.7486270721
 20
125.8105863459
 30
0.0
 11
81.8766579453
 21
125.8717756392
 31
0.0
  0
SPLINE
  5
16C
330
1F
100
AcDbEntity
  8
0
  6
Continuous
 62
     7
370
    18
100
AcDbSpline
210
0.0
220
0.0
230
1.0
 70
     8
 71
     3
 72
    12
 73
     8
 74
     0
 42
0.00000001
 43
0.00000001
 40
0.0
 40
0.0
 40
0.0
 40
0.0
 40
0.2500000000000047
 40
0.2500000000000047
 40
0.5000000000000093
 40
0.5000000000000093
 40
1.0
 40
1.0
 40
1.0
 40
1.0
 10
81.87665794534428
 20
125.871775639203
 30
0.0
 10
81.91290753175001
 20
125.8890977199926
 30
0.0
 10
81.95072482125519
 20
125.9059214115736
 30
0.0
 10
82.03069222044537
 20
125.9381805273328
 30
0.0
 10
82.07334096938055
 20
125.9537066683049
 30
0.0
 10
82.19923344755115
 20
125.9939558293646
 30
0.0
 10
82.28132580886064
 20
126.0125021641737
 30
0.0
 10
82.3523079324498
 20
126.0235380158595
 30
0.0
  0
SPLINE
  5
16D
330
1F
100
AcDbEntity
  8
0
  6
Continuous
 62
     7
370
    18
100
AcDbSpline
210
0.0
220
0.0
230
1.0
 70
     8
 71
     3
 72
     8
 73
     4
 74
     0
 42
0.00000001
 43
0.00000001
 40
0.0
 40
0.0
 40
0.0
 40
0.0
 40
1.0
 40
1.0
 40
1.0
 40
1.0
 10
82.35230793244982
 20
126.0235380158595
 30
0.0
 10
82.4284866126832
 20
126.0353817953094
 30
0.0
 10
82.48830041216638
 20
126.0374636635077
 30
0.0
 10
82.54524349510471
 20
126.0376597742518
 30
0.0
  0
SPLINE
  5
16E
330
1F
100
AcDbEntity
  8
0
  6
Continuous
 62
     7
370
    18
100
AcDbSpline
210
0.0
220
0.0
230
1.0
 70
     8
 71
     3
 72
     8
 73
     4
 74
     0
 42
0.00000001
 43
0.00000001
 40
0.0
 40
0.0
 40
0.0
 40
0.0
 40
0.0008195780008534
 40
0.0008195780008534
 40
0.0008195780008534
 40
0.0008195780008534
 10
82.54524349510473
 20
126.0376597742518
 30
0.0
 10
82.70877733754374
 20
126.0382229812629
 30
0.0
 10
82.87231606565048
 20
126.0371627964505
 30
0.0
 10
83.0358423742383
 20
126.0344808032462
 30
0.0
  0
LINE
  5
16F
330
1F
100
AcDbEntity
  8
0
  6
Continuous
 62
     7
370
    18
100
AcDbLine
 10
83.0358423742
 20
126.0344808032
 30
0.0
 11
82.8202705802
 21
125.9204137363
 31
0.0
  0
SPLINE
  5
170
330
1F
100
AcDbEntity
  8
0
  6
Continuous
 62
     7
370
    18
100
AcDbSpline
210
0.0
220
0.0
230
1.0
 70
     8
 71
     3
 72
     8
 73
     4
 74
     0
 42
0.00000001
 43
0.00000001
 40
0.0000000000000286
 40
0.0000000000000286
 40
0.0000000000000286
 40
0.0000000000000286
 40
0.000859333572486
 40
0.000859333572486
 40
0.000859333572486
 40
0.000859333572486
 10
82.82027058019953
 20
125.9204137362595
 30
0.0
 10
82.6488118899961
 20
125.9232001998304
 30
0.0
 10
82.47734001214333
 20
125.9242200852054
 30
0.0
 10
82.30587342663863
 20
125.9234711623994
 30
0.0
  0
LINE
  5
171
330
1F
100
AcDbEntity
  8
0
  6
Continuous
 62
     7
370
    18
100
AcDbLine
 10
80.7257946314
 20
124.8121220567
 30
0.0
 11
80.7257946315
 21
124.4862724428
 31
0.0
  0
LINE
  5
172
330
1F
100
AcDbEntity
  8
0
  6
Continuous
 62
     7
370
    18
100
AcDbLine
 10
80.9536148163
 20
124.6068255976
 30
0.0
 11
80.9536148162
 21
124.9326752114
 31
0.0
  0
LINE
  5
173
330
1F
100
AcDbEntity
  8
0
  6
Continuous
 62
     7
370
    18
100
AcDbLine
 10
80.4539639347
 20
124.935538669
 30
0.0
 11
80.4539638721
 21
125.0378781894
 31
0.0
  0
LINE
  5
174
330
1F
100
AcDbEntity
  8
0
  6
Continuous
 62
     7
370
    18
100
AcDbLine
 10
82.8202705802
 20
125.6878975187
 30
0.0
 11
82.8202705802
 21
125.9204137363
 31
0.0
  0
LINE
  5
175
330
1F
100
AcDbEntity
  8
0
  6
Continuous
 62
     7
370
    18
100
AcDbLine
 10
83.0358423742
 20
125.8052277179
 30
0.0
 11
83.0358423742
 21
126.0344808032
 31
0.0
  0
LINE
  5
176
330
1F
100
AcDbEntity
  8
0
  6
Continuous
 62
     7
370
    18
100
AcDbLine
 10
79.337483203
 20
124.4858340108
 30
0.0
 11
79.337483203
 21
124.8116836243
 31
0.0
  0
LINE
  5
177
330
1F
100
AcDbEntity
  8
0
  6
Continuous
 62
     7
370
    18
100
AcDbLine
 10
79.5697065112
 20
124.9283441928
 30
0.0
 11
79.337483203
 21
124.8116836243
 31
0.0
  0
LINE
  5
178
330
1F
100
AcDbEntity
  8
0
  6
Continuous
 62
     7
370
    18
100
AcDbLine
 10
79.5697065112
 20
124.9283441928
 30
0.0
 11
79.5697065113
 21
124.6024945793
 31
0.0
  0
SPLINE
  5
179
330
1F
100
AcDbEntity
  8
0
  6
Continuous
 62
     7
370
    18
100
AcDbSpline
210
0.0
220
0.0
230
1.0
 70
     8
 71
     3
 72
     8
 73
     4
 74
     0
 42
0.00000001
 43
0.00000001
 40
0.0000000000000406
 40
0.0000000000000406
 40
0.0000000000000406
 40
0.0000000000000406
 40
0.0006944867235868
 40
0.0006944867235868
 40
0.0006944867235868
 40
0.0006944867235868
 10
79.76393944416725
 20
125.3857040670182
 30
0.0
 10
79.58410594703005
 20
125.2953565406693
 30
0.0
 10
79.40423645105417
 20
125.2050082347852
 30
0.0
 10
79.22443929931892
 20
125.1146605835612
 30
0.0
  0
SPLINE
  5
17A
330
1F
100
AcDbEntity
  8
0
  6
Continuous
 62
     7
370
    18
100
AcDbSpline
210
0.0
220
0.0
230
1.0
 70
     8
 71
     3
 72
    14
 73
    10
 74
     0
 42
0.00000001
 43
0.00000001
 40
0.0
 40
0.0
 40
0.0
 40
0.0
 40
0.25
 40
0.25
 40
0.5
 40
0.5
 40
0.75
 40
0.75
 40
1.0
 40
1.0
 40
1.0
 40
1.0
 10
79.22443929931882
 20
125.1146605835612
 30
0.0
 10
79.17626652648684
 20
125.0904538770794
 30
0.0
 10
79.1317511747146
 20
125.0666563465828
 30
0.0
 10
79.05607516465147
 20
125.0205387886995
 30
0.0
 10
79.02502513457141
 20
124.9980058129555
 30
0.0
 10
78.99596617786412
 20
124.9615924602055
 30
0.0
 10
78.99932722465356
 20
124.9488729817042
 30
0.0
 10
79.0318708654175
 20
124.9340897201204
 30
0.0
 10
79.06013082127548
 20
124.9315299491989
 30
0.0
 10
79.09369435119515
 20
124.9316648495729
 30
0.0
  0
SPLINE
  5
17B
330
1F
100
AcDbEntity
  8
0
  6
Continuous
 62
     7
370
    18
100
AcDbSpline
210
0.0
220
0.0
230
1.0
 70
     8
 71
     3
 72
    11
 73
     7
 74
     0
 42
0.00000001
 43
0.00000001
 40
0.0
 40
0.0
 40
0.0
 40
0.0
 40
0.0006605161136836
 40
0.0006605161136836
 40
0.0006605161136836
 40
0.0008868573934568
 40
0.0008868573934568
 40
0.0008868573934568
 40
0.0008868573934568
 10
79.09369435119517
 20
124.9316648495729
 30
0.0
 10
79.21187025385579
 20
124.9321398286205
 30
0.0
 10
79.33004842720055
 20
124.9316468713055
 30
0.0
 10
79.44822200919889
 20
124.9301863745029
 30
0.0
 10
79.48871729351201
 20
124.9296858968812
 30
0.0
 10
79.52921221921069
 20
124.9290718166582
 30
0.0
 10
79.56970651124162
 20
124.9283441928303
 30
0.0
  0
SPLINE
  5
17C
330
1F
100
AcDbEntity
  8
0
  6
Continuous
 62
     7
370
    18
100
AcDbSpline
210
0.0
220
0.0
230
1.0
 70
     8
 71
     3
 72
     8
 73
     4
 74
     0
 42
0.00000001
 43
0.00000001
 40
0.0000000000000638
 40
0.0000000000000638
 40
0.0000000000000638
 40
0.0000000000000638
 40
0.0010061203162048
 40
0.0010061203162048
 40
0.0010061203162048
 40
0.0010061203162048
 10
79.33748320300775
 20
124.8116836243005
 30
0.0
 10
79.15748150487921
 20
124.8148903011741
 30
0.0
 10
78.97746441913718
 20
124.8158720041078
 30
0.0
 10
78.79745573245776
 20
124.8146269017652
 30
0.0
  0
SPLINE
  5
17D
330
1F
100
AcDbEntity
  8
0
  6
Continuous
 62
     7
370
    18
100
AcDbSpline
210
0.0
220
0.0
230
1.0
 70
     8
 71
     3
 72
    10
 73
     6
 74
     0
 42
0.00000001
 43
0.00000001
 40
0.0
 40
0.0
 40
0.0
 40
0.0
 40
0.5
 40
0.5
 40
1.0
 40
1.0
 40
1.0
 40
1.0
 10
78.79745573245778
 20
124.8146269017652
 30
0.0
 10
78.74055056022279
 20
124.8142332942979
 30
0.0
 10
78.69943532770682
 20
124.8217580813497
 30
0.0
 10
78.68259883156293
 20
124.8608804654703
 30
0.0
 10
78.7084038584426
 20
124.8926701537188
 30
0.0
 10
78.75482479853588
 20
124.9288699946451
 30
0.0
  0
SPLINE
  5
17E
330
1F
100
AcDbEntity
  8
0
  6
Continuous
 62
     7
370
    18
100
AcDbSpline
210
0.0
220
0.0
230
1.0
 70
     8
 71
     3
 72
     8
 73
     4
 74
     0
 42
0.00000001
 43
0.00000001
 40
0.0
 40
0.0
 40
0.0
 40
0.0
 40
1.0
 40
1.0
 40
1.0
 40
1.0
 10
78.75482479853589
 20
124.9288699946451
 30
0.0
 10
78.82279561985699
 20
124.9818748005474
 30
0.0
 10
78.93018621393033
 20
125.0422402195223
 30
0.0
 10
79.05061118140667
 20
125.1027304087422
 30
0.0
  0
LWPOLYLINE
  5
17F
330
1F
100
AcDbEntity
  8
0
  6
Continuous
 62
     7
370
    18
100
AcDbPolyline
 90
        3
 70
   128
 43
0.0
 10
79.0506111814
 20
125.1027304087
 10
79.8353986406
 20
125.4969153786
 10
80.217128018
 20
125.6886476519
  0
SPLINE
  5
180
330
1F
100
AcDbEntity
  8
0
  6
Continuous
 62
     7
370
    18
100
AcDbSpline
210
0.0
220
0.0
230
1.0
 70
     8
 71
     3
 72
    10
 73
     6
 74
     0
 42
0.00000001
 43
0.00000001
 40
0.0
 40
0.0
 40
0.0
 40
0.0
 40
0.5
 40
0.5
 40
1.0
 40
1.0
 40
1.0
 40
1.0
 10
80.21712801804019
 20
125.68864765186
 30
0.0
 10
80.30901261237841
 20
125.7347926944391
 30
0.0
 10
80.4076126534346
 20
125.7800269891378
 30
0.0
 10
80.62447188552738
 20
125.8677487621152
 30
0.0
 10
80.73582190468836
 20
125.9072282082145
 30
0.0
 10
80.84624963761169
 20
125.941401808739
 30
0.0
  0
SPLINE
  5
181
330
1F
100
AcDbEntity
  8
0
  6
Continuous
 62
     7
370
    18
100
AcDbSpline
210
0.0
220
0.0
230
1.0
 70
     8
 71
     3
 72
    14
 73
    10
 74
     0
 42
0.00000001
 43
0.00000001
 40
0.0
 40
0.0
 40
0.0
 40
0.0
 40
0.2499999999999967
 40
0.2499999999999967
 40
0.4999999999999933
 40
0.4999999999999933
 40
0.7499999999999967
 40
0.7499999999999967
 40
1.0
 40
1.0
 40
1.0
 40
1.0
 10
80.84624963761169
 20
125.941401808739
 30
0.0
 10
80.94998106919903
 20
125.9735031333886
 30
0.0
 10
81.05021015777874
 20
125.9999962127241
 30
0.0
 10
81.22638956362943
 20
126.035115775825
 30
0.0
 10
81.30215458183162
 20
126.043660354125
 30
0.0
 10
81.42250704151405
 20
126.04481777326
 30
0.0
 10
81.46783994862528
 20
126.0372854070715
 30
0.0
 10
81.5118300021369
 20
126.0039897882863
 30
0.0
 10
81.51096390324844
 20
125.9779630731571
 30
0.0
 10
81.49085690932692
 20
125.9462754434062
 30
0.0
  0
SPLINE
  5
182
330
1F
100
AcDbEntity
  8
0
  6
Continuous
 62
     7
370
    18
100
AcDbSpline
210
0.0
220
0.0
230
1.0
 70
     8
 71
     3
 72
    10
 73
     6
 74
     0
 42
0.00000001
 43
0.00000001
 40
0.0
 40
0.0
 40
0.0
 40
0.0
 40
0.5
 40
0.5
 40
1.0
 40
1.0
 40
1.0
 40
1.0
 10
81.49085690932641
 20
125.9462754434004
 30
0.0
 10
81.47016494320619
 20
125.913665926345
 30
0.0
 10
81.42800497243636
 20
125.8750196769419
 30
0.0
 10
81.30529945703314
 20
125.7912799747465
 30
0.0
 10
81.22553935032279
 20
125.7464502163883
 30
0.0
 10
81.13649410027988
 20
125.7017166548755
 30
0.0
  0
LINE
  5
183
330
1F
100
AcDbEntity
  8
0
  6
Continuous
 62
     7
370
    18
100
AcDbLine
 10
81.1364941003
 20
125.7017166549
 30
0.0
 11
80.5042204081
 21
125.3841066204
 31
0.0
  0
SPLINE
  5
184
330
1F
100
AcDbEntity
  8
0
  6
Continuous
 62
     7
370
    18
100
AcDbSpline
210
0.0
220
0.0
230
1.0
 70
     8
 71
     3
 72
     9
 73
     5
 74
     0
 42
0.00000001
 43
0.00000001
 40
0.0
 40
0.0
 40
0.0
 40
0.0
 40
0.5000180499724948
 40
1.0
 40
1.0
 40
1.0
 40
1.0
 10
80.50422040824496
 20
125.384106620396
 30
0.0
 10
80.38083681134998
 20
125.3860102789077
 30
0.0
 10
80.13407852552056
 20
125.3898174584922
 30
0.0
 10
79.88731616863149
 20
125.3870751645106
 30
0.0
 10
79.7639394442407
 20
125.3857040670182
 30
0.0
  0
SPLINE
  5
185
330
1F
100
AcDbEntity
  8
0
  6
Continuous
 62
     7
370
    18
100
AcDbSpline
210
0.0
220
0.0
230
1.0
 70
     8
 71
     3
 72
    14
 73
    10
 74
     0
 42
0.00000001
 43
0.00000001
 40
0.0
 40
0.0
 40
0.0
 40
0.0
 40
0.25
 40
0.25
 40
0.5
 40
0.5
 40
0.75
 40
0.75
 40
1.0
 40
1.0
 40
1.0
 40
1.0
 10
80.83992851263932
 20
125.8732900342259
 30
0.0
 10
80.93976561925186
 20
125.9010441977857
 30
0.0
 10
81.0285918639838
 20
125.9179823082628
 30
0.0
 10
81.16204882381868
 20
125.9268370928572
 30
0.0
 10
81.21080371205204
 20
125.9205231722849
 30
0.0
 10
81.22967537439914
 20
125.8782690130115
 30
0.0
 10
81.19937662816527
 20
125.8429171634834
 30
0.0
 10
81.09468726682164
 20
125.7650627075968
 30
0.0
 10
81.01990932662326
 20
125.7223731992429
 30
0.0
 10
80.93470676303374
 20
125.6795651983915
 30
0.0
  0
SPLINE
  5
186
330
1F
100
AcDbEntity
  8
0
  6
Continuous
 62
     7
370
    18
100
AcDbSpline
210
0.0
220
0.0
230
1.0
 70
     8
 71
     3
 72
    10
 73
     6
 74
     0
 42
0.00000001
 43
0.00000001
 40
0.0
 40
0.0
 40
0.0
 40
0.0
 40
0.5
 40
0.5
 40
1.0
 40
1.0
 40
1.0
 40
1.0
 10
80.34991214682927
 20
125.6800927443897
 30
0.0
 10
80.42146499611468
 20
125.7160327890337
 30
0.0
 10
80.49942826811287
 20
125.7520831383232
 30
0.0
 10
80.66706634064187
 20
125.8194128470171
 30
0.0
 10
80.75598029323766
 20
125.8499528934496
 30
0.0
 10
80.83992851263793
 20
125.8732900342267
 30
0.0
  0
SPLINE
  5
187
330
1F
100
AcDbEntity
  8
0
  6
Continuous
 62
     7
370
    18
100
AcDbSpline
210
0.0
220
0.0
230
1.0
 70
     8
 71
     3
 72
     8
 73
     4
 74
     0
 42
0.00000001
 43
0.00000001
 40
0.0000000000000403
 40
0.0000000000000403
 40
0.0000000000000403
 40
0.0000000000000403
 40
0.0004620161042632
 40
0.0004620161042632
 40
0.0004620161042632
 40
0.0004620161042632
 10
79.99100223317906
 20
125.4997791789852
 30
0.0
 10
80.11063881115882
 20
125.559883842515
 30
0.0
 10
80.23024996966879
 20
125.6199880241403
 30
0.0
 10
80.34991214682927
 20
125.6800927443897
 30
0.0
  0
SPLINE
  5
188
330
1F
100
AcDbEntity
  8
0
  6
Continuous
 62
     7
370
    18
100
AcDbSpline
210
0.0
220
0.0
230
1.0
 70
     8
 71
     3
 72
     9
 73
     5
 74
     0
 42
0.00000001
 43
0.00000001
 40
0.0
 40
0.0
 40
0.0
 40
0.0
 40
0.4999961998528259
 40
1.0
 40
1.0
 40
1.0
 40
1.0
 10
80.57863110227176
 20
125.5006631277251
 30
0.0
 10
80.48069351407372
 20
125.5015569304876
 30
0.0
 10
80.28481684895733
 20
125.503344549599
 30
0.0
 10
80.08894093467617
 20
125.5009676418782
 30
0.0
 10
79.99100223317828
 20
125.4997791789852
 30
0.0
  0
LINE
  5
189
330
1F
100
AcDbEntity
  8
0
  6
Continuous
 62
     7
370
    18
100
AcDbLine
 10
80.9347067631
 20
125.6795651984
 30
0.0
 11
80.5786310638
 21
125.5006631084
 31
0.0
  0
LINE
  5
18A
330
1F
100
AcDbEntity
  8
0
  6
Continuous
 62
     7
370
    18
100
AcDbLine
 10
80.504220408
 20
125.1521577165
 30
0.0
 11
80.5042204081
 21
125.3841066204
 31
0.0
  0
LINE
  5
18B
330
1F
100
AcDbEntity
  8
0
  6
Continuous
 62
     7
370
    18
100
AcDbLine
 10
79.7639394443
 20
125.0598544535
 30
0.0
 11
79.7639394442
 21
125.385704067
 31
0.0
  0
SPLINE
  5
18C
330
1F
100
AcDbEntity
  8
0
  6
Continuous
 62
     7
370
    18
100
AcDbSpline
210
0.0
220
0.0
230
1.0
 70
     8
 71
     3
 72
     8
 73
     4
 74
     0
 42
0.00000001
 43
0.00000001
 40
0.0
 40
0.0
 40
0.0
 40
0.0
 40
0.0007859608966187
 40
0.0007859608966187
 40
0.0007859608966187
 40
0.0007859608966187
 10
79.67552415423745
 20
125.9104641957904
 30
0.0
 10
79.55601208806034
 20
125.9097226256675
 30
0.0
 10
79.43650003616767
 20
125.9075033284058
 30
0.0
 10
79.31699937209483
 20
125.9038092901197
 30
0.0
  0
LINE
  5
18D
330
1F
100
AcDbEntity
  8
0
  6
Continuous
 62
     7
370
    18
100
AcDbLine
 10
79.3169993722
 20
125.9038092901
 30
0.0
 11
77.0174395448
 21
124.8087725488
 31
0.0
  0
SPLINE
  5
18E
330
1F
100
AcDbEntity
  8
0
  6
Continuous
 62
     7
370
    18
100
AcDbSpline
210
0.0
220
0.0
230
1.0
 70
     8
 71
     3
 72
     8
 73
     4
 74
     0
 42
0.00000001
 43
0.00000001
 40
0.0000000000000522
 40
0.0000000000000522
 40
0.0000000000000522
 40
0.0000000000000522
 40
0.0002844349919992
 40
0.0002844349919992
 40
0.0002844349919992
 40
0.0002844349919992
 10
77.01743954438513
 20
124.8087725448085
 30
0.0
 10
76.9741922380412
 20
124.8075430930892
 30
0.0
 10
76.93094590368771
 20
124.8061360072947
 30
0.0
 10
76.88770100123915
 20
124.8045514921429
 30
0.0
  0
LINE
  5
18F
330
1F
100
AcDbEntity
  8
0
  6
Continuous
 62
     7
370
    18
100
AcDbLine
 10
76.8877010012
 20
124.8045514921
 30
0.0
 11
79.4485125938
 21
126.0235738728
 31
0.0
  0
SPLINE
  5
190
330
1F
100
AcDbEntity
  8
0
  6
Continuous
 62
     7
370
    18
100
AcDbSpline
210
0.0
220
0.0
230
1.0
 70
     8
 71
     3
 72
    11
 73
     7
 74
     0
 42
0.00000001
 43
0.00000001
 40
0.0000000000001755
 40
0.0000000000001755
 40
0.0000000000001755
 40
0.0000000000001755
 40
0.0009006903950606
 40
0.0009006903950606
 40
0.0009006903950606
 40
0.0017615315912881
 40
0.0017615315912881
 40
0.0017615315912881
 40
0.0017615315912881
 10
79.44851260037095
 20
126.023573875977
 30
0.0
 10
79.58544774736839
 20
126.0290839782913
 30
0.0
 10
79.72240217023368
 20
126.0326406084021
 30
0.0
 10
79.85935844799546
 20
126.0342373627478
 30
0.0
 10
79.9902556123652
 20
126.0357634747265
 30
0.0
 10
80.12115997482957
 20
126.0354995435469
 30
0.0
 10
80.2520553288925
 20
126.0334455641553
 30
0.0
  0
SPLINE
  5
191
330
1F
100
AcDbEntity
  8
0
  6
Continuous
 62
     7
370
    18
100
AcDbSpline
210
0.0
220
0.0
230
1.0
 70
     8
 71
     3
 72
    14
 73
    10
 74
     0
 42
0.00000001
 43
0.00000001
 40
0.0
 40
0.0
 40
0.0
 40
0.0
 40
0.25
 40
0.25
 40
0.5
 40
0.5
 40
0.75
 40
0.75
 40
1.0
 40
1.0
 40
1.0
 40
1.0
 10
80.25205532889255
 20
126.0334455641552
 30
0.0
 10
80.29269094369137
 20
126.0328079195577
 30
0.0
 10
80.32583924275514
 20
126.028759410341
 30
0.0
 10
80.36428169109224
 20
126.0083268070512
 30
0.0
 10
80.36799984886206
 20
125.9910642197196
 30
0.0
 10
80.32553195276354
 20
125.9409883901379
 30
0.0
 10
80.28005270443951
 20
125.9089878515006
 30
0.0
 10
80.16472514574996
 20
125.8419978990508
 30
0.0
 10
80.09507727648062
 20
125.8066619504697
 30
0.0
 10
80.02161379534262
 20
125.7716830222955
 30
0.0
  0
SPLINE
  5
192
330
1F
100
AcDbEntity
  8
0
  6
Continuous
 62
     7
370
    18
100
AcDbSpline
210
0.0
220
0.0
230
1.0
 70
     8
 71
     3
 72
    11
 73
     7
 74
     0
 42
0.00000001
 43
0.00000001
 40
0.0
 40
0.0
 40
0.0
 40
0.0
 40
0.0009006713044522
 40
0.0009006713044522
 40
0.0009006713044522
 40
0.0024746085961128
 40
0.0024746085961128
 40
0.0024746085961128
 40
0.0024746085961128
 10
80.02161379534262
 20
125.7716830222955
 30
0.0
 10
79.77564408294789
 20
125.6545669154952
 30
0.0
 10
79.52961521281286
 20
125.5374505426241
 30
0.0
 10
79.28361702353718
 20
125.4203313619726
 30
0.0
 10
78.85373131289879
 20
125.215663748963
 30
0.0
 10
78.42384779429287
 20
125.0109903218829
 30
0.0
 10
77.9939661842417
 20
124.8063118328206
 30
0.0
  0
SPLINE
  5
193
330
1F
100
AcDbEntity
  8
0
  6
Continuous
 62
     7
370
    18
100
AcDbSpline
210
0.0
220
0.0
230
1.0
 70
     8
 71
     3
 72
     8
 73
     4
 74
     0
 42
0.00000001
 43
0.00000001
 40
0.0000000000000001
 40
0.0000000000000001
 40
0.0000000000000001
 40
0.0000000000000001
 40
0.0002844291695171
 40
0.0002844291695171
 40
0.0002844291695171
 40
0.0002844291695171
 10
77.99396618424169
 20
124.806311832821
 30
0.0
 10
77.95072116485558
 20
124.8077589209595
 30
0.0
 10
77.9074748334361
 20
124.8090285038677
 30
0.0
 10
77.86422764424022
 20
124.8101203925525
 30
0.0
  0
LWPOLYLINE
  5
194
330
1F
100
AcDbEntity
  8
0
  6
Continuous
 62
     7
370
    18
100
AcDbPolyline
 90
        3
 70
   128
 43
0.0
 10
77.8642276443
 20
124.8101203926
 10
78.8058865527
 20
125.2585898425
 10
79.7475493145
 20
125.7070490642
  0
SPLINE
  5
195
330
1F
100
AcDbEntity
  8
0
  6
Continuous
 62
     7
370
    18
100
AcDbSpline
210
0.0
220
0.0
230
1.0
 70
     8
 71
     3
 72
    12
 73
     8
 74
     0
 42
0.00000001
 43
0.00000001
 40
0.0
 40
0.0
 40
0.0
 40
0.0
 40
0.5000000000000063
 40
0.5000000000000063
 40
0.7500000000000031
 40
0.7500000000000031
 40
1.0
 40
1.0
 40
1.0
 40
1.0
 10
79.74754931451474
 20
125.7070490641594
 30
0.0
 10
79.82463039931694
 20
125.7437599719277
 30
0.0
 10
79.89844701422902
 20
125.7804689261409
 30
0.0
 10
79.98971686458866
 20
125.8336539712582
 30
0.0
 10
80.0163385796959
 20
125.8509441517072
 30
0.0
 10
80.04983553175208
 20
125.8801113418812
 30
0.0
 10
80.05592809233733
 20
125.8918997785319
 30
0.0
 10
80.0484781885082
 20
125.898526629682
 30
0.0
  0
SPLINE
  5
196
330
1F
100
AcDbEntity
  8
0
  6
Continuous
 62
     7
370
    18
100
AcDbSpline
210
0.0
220
0.0
230
1.0
 70
     8
 71
     3
 72
     8
 73
     4
 74
     0
 42
0.00000001
 43
0.00000001
 40
0.0
 40
0.0
 40
0.0
 40
0.0
 40
1.0
 40
1.0
 40
1.0
 40
1.0
 10
80.04847818850827
 20
125.8985266296815
 30
0.0
 10
80.03966853619033
 20
125.9063630066246
 30
0.0
 10
80.01777175357579
 20
125.9085717866489
 30
0.0
 10
79.99219764191508
 20
125.9089715313073
 30
0.0
  0
SPLINE
  5
197
330
1F
100
AcDbEntity
  8
0
  6
Continuous
 62
     7
370
    18
100
AcDbSpline
210
0.0
220
0.0
230
1.0
 70
     8
 71
     3
 72
     8
 73
     4
 74
     0
 42
0.00000001
 43
0.00000001
 40
0.0
 40
0.0
 40
0.0
 40
0.0
 40
0.0004097891971136
 40
0.0004097891971136
 40
0.0004097891971136
 40
0.0004097891971136
 10
79.99219764191508
 20
125.9089715313073
 30
0.0
 10
79.92988702952391
 20
125.9099454980591
 30
0.0
 10
79.86757484190542
 20
125.9105180095533
 30
0.0
 10
79.80526269424179
 20
125.9106888561147
 30
0.0
  0
LINE
  5
198
330
1F
100
AcDbEntity
  8
0
  6
Continuous
 62
     7
370
    18
100
AcDbLine
 10
79.8052626942
 20
125.9106888561
 30
0.0
 11
77.5057028622
 21
124.8150990535
 31
0.0
  0
SPLINE
  5
199
330
1F
100
AcDbEntity
  8
0
  6
Continuous
 62
     7
370
    18
100
AcDbSpline
210
0.0
220
0.0
230
1.0
 70
     8
 71
     3
 72
     8
 73
     4
 74
     0
 42
0.00000001
 43
0.00000001
 40
0.0
 40
0.0
 40
0.0
 40
0.0
 40
0.0002844035513464
 40
0.0002844035513464
 40
0.0002844035513464
 40
0.0002844035513464
 10
77.37596441156487
 20
124.8148924634328
 30
0.0
 10
77.41921042670111
 20
124.8151392216616
 30
0.0
 10
77.46245672921015
 20
124.8152080884327
 30
0.0
 10
77.50570286224152
 20
124.8150990534694
 30
0.0
  0
LINE
  5
19A
330
1F
100
AcDbEntity
  8
0
  6
Continuous
 62
     7
370
    18
100
AcDbLine
 10
77.3759644042
 20
124.8148924632
 30
0.0
 11
79.6755241542
 21
125.9104641958
 31
0.0
  0
LINE
  5
19B
330
1F
100
AcDbEntity
  8
0
  6
Continuous
 62
     7
370
    18
100
AcDbLine
 10
77.9939661842
 20
124.4804622194
 30
0.0
 11
77.9939661842
 21
124.8063118328
 31
0.0
  0
LINE
  5
19C
330
1F
100
AcDbEntity
  8
0
  6
Continuous
 62
     7
370
    18
100
AcDbLine
 10
77.8642276443
 20
124.4842707792
 30
0.0
 11
77.8642276443
 21
124.8101203926
 31
0.0
  0
LINE
  5
19D
330
1F
100
AcDbEntity
  8
0
  6
Continuous
 62
     7
370
    18
100
AcDbLine
 10
79.8052626942
 20
125.7365591163
 30
0.0
 11
79.8052626942
 21
125.9106888561
 31
0.0
  0
LINE
  5
19E
330
1F
100
AcDbEntity
  8
0
  6
Continuous
 62
     7
370
    18
100
AcDbLine
 10
77.3759644042
 20
124.8148924632
 30
0.0
 11
77.3759646173
 21
124.4891045258
 31
0.0
  0
LINE
  5
19F
330
1F
100
AcDbEntity
  8
0
  6
Continuous
 62
     7
370
    18
100
AcDbLine
 10
77.5057028622
 20
124.4892494401
 30
0.0
 11
77.5057028622
 21
124.8150990535
 31
0.0
  0
LINE
  5
1A0
330
1F
100
AcDbEntity
  8
0
  6
Continuous
 62
     7
370
    18
100
AcDbLine
 10
77.0174395414
 20
124.4829229337
 30
0.0
 11
77.0174395448
 21
124.8087725488
 31
0.0
  0
LINE
  5
1A1
330
1F
100
AcDbEntity
  8
0
  6
Continuous
 62
     7
370
    18
100
AcDbLine
 10
79.3169993723
 20
125.7396534062
 30
0.0
 11
79.3169993722
 21
125.9038092901
 31
0.0
  0
LINE
  5
1A2
330
1F
100
AcDbEntity
  8
0
  6
Continuous
 62
     7
370
    18
100
AcDbLine
 10
76.8877010013
 20
124.4787018787
 30
0.0
 11
76.8877010012
 21
124.8045514921
 31
0.0
  0
LINE
  5
1A3
330
1F
100
AcDbEntity
  8
0
  6
Continuous
 62
     7
370
    18
100
AcDbLine
 10
76.2272497816
 20
124.8110694633
 30
0.0
 11
76.2272499799
 21
124.4852727238
 31
0.0
  0
SPLINE
  5
1A4
330
1F
100
AcDbEntity
  8
0
  6
Continuous
 62
     7
370
    18
100
AcDbSpline
210
0.0
220
0.0
230
1.0
 70
     8
 71
     3
 72
     8
 73
     4
 74
     0
 42
0.00000001
 43
0.00000001
 40
0.0
 40
0.0
 40
0.0
 40
0.0
 40
0.0002140671819248
 40
0.0002140671819248
 40
0.0002140671819248
 40
0.0002140671819248
 10
76.22724983715946
 20
124.8110694754867
 30
0.0
 10
76.2541554237289
 20
124.8112292467854
 30
0.0
 10
76.28106112218744
 20
124.8112882635673
 30
0.0
 10
76.30796677159871
 20
124.811246520846
 30
0.0
  0
LINE
  5
1A5
330
1F
100
AcDbEntity
  8
0
  6
Continuous
 62
     7
370
    18
100
AcDbLine
 10
76.3079667732
 20
124.4853969077
 30
0.0
 11
76.3079667715
 21
124.8112465209
 31
0.0
  0
SPLINE
  5
1A6
330
1F
100
AcDbEntity
  8
0
  6
Continuous
 62
     7
370
    18
100
AcDbSpline
210
0.0
220
0.0
230
1.0
 70
     8
 71
     3
 72
     8
 73
     4
 74
     0
 42
0.00000001
 43
0.00000001
 40
0.0
 40
0.0
 40
0.0
 40
0.0
 40
0.0032389922593256
 40
0.0032389922593256
 40
0.0032389922593256
 40
0.0032389922593256
 10
79.27955528712474
 20
126.0370951082627
 30
0.0
 10
78.28849895394076
 20
125.629781275921
 30
0.0
 10
77.29801587444463
 20
125.2210461029253
 30
0.0
 10
76.30796677143111
 20
124.811246520939
 30
0.0
  0
LINE
  5
1A7
330
1F
100
AcDbEntity
  8
0
  6
Continuous
 62
     7
370
    18
100
AcDbLine
 10
79.2795552798
 20
125.9431451749
 30
0.0
 11
79.2795552873
 21
126.0370951087
 31
0.0
  0
SPLINE
  5
1A8
330
1F
100
AcDbEntity
  8
0
  6
Continuous
 62
     7
370
    18
100
AcDbSpline
210
0.0
220
0.0
230
1.0
 70
     8
 71
     3
 72
     8
 73
     4
 74
     0
 42
0.00000001
 43
0.00000001
 40
0.0
 40
0.0
 40
0.0
 40
0.0
 40
0.0024661167950848
 40
0.0024661167950848
 40
0.0024661167950848
 40
0.0024661167950848
 10
76.9140172147485
 20
125.1055595781683
 30
0.0
 10
77.66804407728813
 20
125.417622482514
 30
0.0
 10
78.42232769917257
 20
125.7290554268482
 30
0.0
 10
79.17692939089207
 20
126.0397016763254
 30
0.0
  0
SPLINE
  5
1A9
330
1F
100
AcDbEntity
  8
0
  6
Continuous
 62
     7
370
    18
100
AcDbSpline
210
0.0
220
0.0
230
1.0
 70
     8
 71
     3
 72
     8
 73
     4
 74
     0
 42
0.00000001
 43
0.00000001
 40
0.0000000000013503
 40
0.0000000000013503
 40
0.0000000000013503
 40
0.0000000000013503
 40
0.0002721837330539
 40
0.0002721837330539
 40
0.0002721837330539
 40
0.0002721837330539
 10
79.17692939044174
 20
126.0397016766053
 30
0.0
 10
79.21113860236085
 20
126.0390117369758
 30
0.0
 10
79.24534736756713
 20
126.0381428334223
 30
0.0
 10
79.27955528751751
 20
126.0370951091776
 30
0.0
  0
SPLINE
  5
1AA
330
1F
100
AcDbEntity
  8
0
  6
Continuous
 62
     7
370
    18
100
AcDbSpline
210
0.0
220
0.0
230
1.0
 70
     8
 71
     3
 72
     8
 73
     4
 74
     0
 42
0.00000001
 43
0.00000001
 40
0.0000000000117705
 40
0.0000000000117705
 40
0.0000000000117705
 40
0.0000000000117705
 40
0.0032377748643582
 40
0.0032377748643582
 40
0.0032377748643582
 40
0.0032377748643582
 10
76.2272497954947
 20
124.8110693845913
 30
0.0
 10
77.02865805366724
 20
125.2204470709712
 30
0.0
 10
77.83042515507785
 20
125.6287368348869
 30
0.0
 10
78.63266619590578
 20
126.035574046781
 30
0.0
  0
SPLINE
  5
1AB
330
1F
100
AcDbEntity
  8
0
  6
Continuous
 62
     7
370
    18
100
AcDbSpline
210
0.0
220
0.0
230
1.0
 70
     8
 71
     3
 72
     8
 73
     4
 74
     0
 42
0.00000001
 43
0.00000001
 40
0.0
 40
0.0
 40
0.0
 40
0.0
 40
0.0002721887598861
 40
0.0002721887598861
 40
0.0002721887598861
 40
0.0002721887598861
 10
78.63266621323697
 20
126.0355740527094
 30
0.0
 10
78.66687401192061
 20
126.0367825033618
 30
0.0
 10
78.70108277669104
 20
126.0378122073029
 30
0.0
 10
78.73529210590782
 20
126.0386629974217
 30
0.0
  0
SPLINE
  5
1AC
330
1F
100
AcDbEntity
  8
0
  6
Continuous
 62
     7
370
    18
100
AcDbSpline
210
0.0
220
0.0
230
1.0
 70
     8
 71
     3
 72
     8
 73
     4
 74
     0
 42
0.00000001
 43
0.00000001
 40
0.0
 40
0.0
 40
0.0
 40
0.0
 40
0.0024693524723169
 40
0.0024693524723169
 40
0.0024693524723169
 40
0.0024693524723169
 10
78.73529209583174
 20
126.0386629943842
 30
0.0
 10
78.1279425385799
 20
125.7284230232456
 30
0.0
 10
77.52086856838886
 20
125.4173320312202
 30
0.0
 10
76.91401720796108
 20
125.1055595773665
 30
0.0
  0
LINE
  5
1AD
330
1F
100
AcDbEntity
  8
0
  6
Continuous
 62
     7
370
    18
100
AcDbLine
 10
78.7352920992
 20
125.8573914704
 30
0.0
 11
78.7352921009
 21
126.0386629959
 31
0.0
  0
LINE
  5
1AE
330
1F
100
AcDbEntity
  8
0
  6
Continuous
 62
     7
370
    18
100
AcDbLine
 10
75.6744297702
 20
124.4889626148
 30
0.0
 11
75.674429817
 21
124.8146548996
 31
0.0
  0
SPLINE
  5
1AF
330
1F
100
AcDbEntity
  8
0
  6
Continuous
 62
     7
370
    18
100
AcDbSpline
210
0.0
220
0.0
230
1.0
 70
     8
 71
     3
 72
     8
 73
     4
 74
     0
 42
0.00000001
 43
0.00000001
 40
0.0000000000000148
 40
0.0000000000000148
 40
0.0000000000000148
 40
0.0000000000000148
 40
0.0004342506048451
 40
0.0004342506048451
 40
0.0004342506048451
 40
0.0004342506048451
 10
75.81917779065849
 20
124.8149790860058
 30
0.0
 10
75.77092858173049
 20
124.815285762608
 30
0.0
 10
75.72267886636178
 20
124.8151776953752
 30
0.0
 10
75.67442986383803
 20
124.8146549001237
 30
0.0
  0
LINE
  5
1B0
330
1F
100
AcDbEntity
  8
0
  6
Continuous
 62
     7
370
    18
100
AcDbLine
 10
75.8191777751
 20
124.4891294839
 30
0.0
 11
75.8191777751
 21
124.8149790969
 31
0.0
  0
LINE
  5
1B1
330
1F
100
AcDbEntity
  8
0
  6
Continuous
 62
     7
370
    18
100
AcDbLine
 10
76.2199444762
 20
124.995198819
 30
0.0
 11
75.8191777751
 21
124.8149790969
 31
0.0
  0
LINE
  5
1B2
330
1F
100
AcDbEntity
  8
0
  6
Continuous
 62
     7
370
    18
100
AcDbLine
 10
76.2199444763
 20
124.6693492056
 30
0.0
 11
76.2199444762
 21
124.995198819
 31
0.0
  0
LINE
  5
1B3
330
1F
100
AcDbEntity
  8
0
  6
Continuous
 62
     7
370
    18
100
AcDbLine
 10
75.674429817
 20
124.8146548996
 30
0.0
 11
76.0751964712
 21
124.9948702744
 31
0.0
  0
SPLINE
  5
1B4
330
1F
100
AcDbEntity
  8
0
  6
Continuous
 62
     7
370
    18
100
AcDbSpline
210
0.0
220
0.0
230
1.0
 70
     8
 71
     3
 72
     8
 73
     4
 74
     0
 42
0.00000001
 43
0.00000001
 40
0.0000000000000006
 40
0.0000000000000006
 40
0.0000000000000006
 40
0.0000000000000006
 40
0.0004342508883159
 40
0.0004342508883159
 40
0.0004342508883159
 40
0.0004342508883159
 10
76.07519647115879
 20
124.9948702744364
 30
0.0
 10
76.12344549679051
 20
124.9954000796943
 30
0.0
 10
76.17169523866824
 20
124.9955096075369
 30
0.0
 10
76.21994447627652
 20
124.9951988189529
 30
0.0
  0
LINE
  5
1B5
330
1F
100
AcDbEntity
  8
0
  6
Continuous
 62
     7
370
    18
100
AcDbLine
 10
75.2320631687
 20
124.4846291501
 30
0.0
 11
75.2320631692
 21
124.8104787641
 31
0.0
  0
SPLINE
  5
1B6
330
1F
100
AcDbEntity
  8
0
  6
Continuous
 62
     7
370
    18
100
AcDbSpline
210
0.0
220
0.0
230
1.0
 70
     8
 71
     3
 72
     8
 73
     4
 74
     0
 42
0.00000001
 43
0.00000001
 40
0.0000000000009892
 40
0.0000000000009892
 40
0.0000000000009892
 40
0.0000000000009892
 40
0.0002201874388
 40
0.0002201874388
 40
0.0002201874388
 40
0.0002201874388
 10
75.29213289297894
 20
124.8091597490696
 30
0.0
 10
75.2721098469849
 20
124.8097059760845
 30
0.0
 10
75.25208656353783
 20
124.8101456608813
 30
0.0
 10
75.23206316923716
 20
124.8104787641537
 30
0.0
  0
LINE
  5
1B7
330
1F
100
AcDbEntity
  8
0
  6
Continuous
 62
     7
370
    18
100
AcDbLine
 10
75.2921328973
 20
124.4833101352
 30
0.0
 11
75.2921328928
 21
124.8091597491
 31
0.0
  0
SPLINE
  5
1B8
330
1F
100
AcDbEntity
  8
0
  6
Continuous
 62
     7
370
    18
100
AcDbSpline
210
0.0
220
0.0
230
1.0
 70
     8
 71
     3
 72
     8
 73
     4
 74
     0
 42
0.00000001
 43
0.00000001
 40
0.0
 40
0.0
 40
0.0
 40
0.0
 40
0.0032257078105629
 40
0.0032257078105629
 40
0.0032257078105629
 40
0.0032257078105629
 10
78.27892720647284
 20
126.0253652656276
 30
0.0
 10
77.2827421748078
 20
125.6214086443634
 30
0.0
 10
76.28719523313934
 20
125.2158756015194
 30
0.0
 10
75.2921328926884
 20
124.8091597492112
 30
0.0
  0
LINE
  5
1B9
330
1F
100
AcDbEntity
  8
0
  6
Continuous
 62
     7
370
    18
100
AcDbLine
 10
78.2789271981
 20
125.8554991855
 30
0.0
 11
78.2789272062
 21
126.0253652677
 31
0.0
  0
SPLINE
  5
1BA
330
1F
100
AcDbEntity
  8
0
  6
Continuous
 62
     7
370
    18
100
AcDbSpline
210
0.0
220
0.0
230
1.0
 70
     8
 71
     3
 72
     8
 73
     4
 74
     0
 42
0.00000001
 43
0.00000001
 40
0.0000000000023681
 40
0.0000000000023681
 40
0.0000000000023681
 40
0.0000000000023681
 40
0.0002171311727525
 40
0.0002171311727525
 40
0.0002171311727525
 40
0.0002171311727525
 10
75.01681333465585
 20
124.8099535828968
 30
0.0
 10
74.99706800787193
 20
124.8095287684647
 30
0.0
 10
74.97732282293657
 20
124.8090003282163
 30
0.0
 10
74.95757790889031
 20
124.8083683027346
 30
0.0
  0
SPLINE
  5
1BB
330
1F
100
AcDbEntity
  8
0
  6
Continuous
 62
     7
370
    18
100
AcDbSpline
210
0.0
220
0.0
230
1.0
 70
     8
 71
     3
 72
     8
 73
     4
 74
     0
 42
0.00000001
 43
0.00000001
 40
0.0000000000008267
 40
0.0000000000008267
 40
0.0000000000008267
 40
0.0000000000008267
 40
0.0032294327144707
 40
0.0032294327144707
 40
0.0032294327144707
 40
0.0032294327144707
 10
74.95757790533679
 20
124.8083683016385
 30
0.0
 10
75.81530233769004
 20
125.2146719965974
 30
0.0
 10
76.67347193850945
 20
125.6197103013663
 30
0.0
 10
77.53222717906226
 20
126.0230622078853
 30
0.0
  0
SPLINE
  5
1BC
330
1F
100
AcDbEntity
  8
0
  6
Continuous
 62
     7
370
    18
100
AcDbSpline
210
0.0
220
0.0
230
1.0
 70
     8
 71
     3
 72
     8
 73
     4
 74
     0
 42
0.00000001
 43
0.00000001
 40
0.0000000000001119
 40
0.0000000000001119
 40
0.0000000000001119
 40
0.0000000000001119
 40
0.0002630432027259
 40
0.0002630432027259
 40
0.0002630432027259
 40
0.0002630432027259
 10
77.60397712617574
 20
126.0279953831135
 30
0.0
 10
77.58005966792305
 20
126.0265176107713
 30
0.0
 10
77.55614293328301
 20
126.0248731349932
 30
0.0
 10
77.53222717986495
 20
126.0230622080168
 30
0.0
  0
SPLINE
  5
1BD
330
1F
100
AcDbEntity
  8
0
  6
Continuous
 62
     7
370
    18
100
AcDbSpline
210
0.0
220
0.0
230
1.0
 70
     8
 71
     3
 72
     8
 73
     4
 74
     0
 42
0.00000001
 43
0.00000001
 40
0.000000000000173
 40
0.000000000000173
 40
0.000000000000173
 40
0.000000000000173
 40
0.0024559516925825
 40
0.0024559516925825
 40
0.0024559516925825
 40
0.0024559516925825
 10
77.60397712672594
 20
126.0279953831929
 30
0.0
 10
76.95611074313203
 20
125.721645118317
 30
0.0
 10
76.30859133404566
 20
125.4142860705902
 30
0.0
 10
75.66135326022916
 20
125.1061175706556
 30
0.0
  0
SPLINE
  5
1BE
330
1F
100
AcDbEntity
  8
0
  6
Continuous
 62
     7
370
    18
100
AcDbSpline
210
0.0
220
0.0
230
1.0
 70
     8
 71
     3
 72
     8
 73
     4
 74
     0
 42
0.00000001
 43
0.00000001
 40
0.0
 40
0.0
 40
0.0
 40
0.0
 40
0.0017639183480283
 40
0.0017639183480283
 40
0.0017639183480283
 40
0.0017639183480283
 10
75.6613532715806
 20
125.1061175657299
 30
0.0
 10
76.20428948776576
 20
125.3308678005707
 30
0.0
 10
76.74732680429767
 20
125.5553736686375
 30
0.0
 10
77.2904819941281
 20
125.779593436151
 30
0.0
  0
SPLINE
  5
1BF
330
1F
100
AcDbEntity
  8
0
  6
Continuous
 62
     7
370
    18
100
AcDbSpline
210
0.0
220
0.0
230
1.0
 70
     8
 71
     3
 72
     8
 73
     4
 74
     0
 42
0.00000001
 43
0.00000001
 40
0.0
 40
0.0
 40
0.0
 40
0.0
 40
0.0002385321815451
 40
0.0002385321815451
 40
0.0002385321815451
 40
0.0002385321815451
 10
77.29048198897003
 20
125.7795934286494
 30
0.0
 10
77.31217378105444
 20
125.7797816296664
 30
0.0
 10
77.33386568713469
 20
125.7798351602315
 30
0.0
 10
77.35555752868665
 20
125.779754008209
 30
0.0
  0
SPLINE
  5
1C0
330
1F
100
AcDbEntity
  8
0
  6
Continuous
 62
     7
370
    18
100
AcDbSpline
210
0.0
220
0.0
230
1.0
 70
     8
 71
     3
 72
     8
 73
     4
 74
     0
 42
0.00000001
 43
0.00000001
 40
0.0
 40
0.0
 40
0.0
 40
0.0
 40
0.0017526630821454
 40
0.0017526630821454
 40
0.0017526630821454
 40
0.0017526630821454
 10
77.3555575069466
 20
125.7797539827944
 30
0.0
 10
76.8848844472179
 20
125.5570031993329
 30
0.0
 10
76.41431358099595
 20
125.3339679130214
 30
0.0
 10
75.94383048280336
 20
125.1106893456367
 30
0.0
  0
SPLINE
  5
1C1
330
1F
100
AcDbEntity
  8
0
  6
Continuous
 62
     7
370
    18
100
AcDbSpline
210
0.0
220
0.0
230
1.0
 70
     8
 71
     3
 72
     8
 73
     4
 74
     0
 42
0.00000001
 43
0.00000001
 40
0.0
 40
0.0
 40
0.0
 40
0.0
 40
0.00244151655227
 40
0.00244151655227
 40
0.00244151655227
 40
0.00244151655227
 10
75.94383048723182
 20
125.1106893461159
 30
0.0
 10
76.6973975793019
 20
125.4179093077103
 30
0.0
 10
77.45126680385201
 20
125.7243896543002
 30
0.0
 10
78.2055086389377
 20
126.0299490868326
 30
0.0
  0
SPLINE
  5
1C2
330
1F
100
AcDbEntity
  8
0
  6
Continuous
 62
     7
370
    18
100
AcDbSpline
210
0.0
220
0.0
230
1.0
 70
     8
 71
     3
 72
     8
 73
     4
 74
     0
 42
0.00000001
 43
0.00000001
 40
0.000000000004033
 40
0.000000000004033
 40
0.000000000004033
 40
0.000000000004033
 40
0.0002691521933473
 40
0.0002691521933473
 40
0.0002691521933473
 40
0.0002691521933473
 10
78.20550864754708
 20
126.0299490996687
 30
0.0
 10
78.2299822630194
 20
126.0285957142455
 30
0.0
 10
78.25445521300928
 20
126.0270676853497
 30
0.0
 10
78.27892720660324
 20
126.0253652681607
 30
0.0
  0
SPLINE
  5
1C3
330
1F
100
AcDbEntity
  8
0
  6
Continuous
 62
     7
370
    18
100
AcDbSpline
210
0.0
220
0.0
230
1.0
 70
     8
 71
     3
 72
     8
 73
     4
 74
     0
 42
0.00000001
 43
0.00000001
 40
0.0000000000000327
 40
0.0000000000000327
 40
0.0000000000000327
 40
0.0000000000000327
 40
0.0017953530933689
 40
0.0017953530933689
 40
0.0017953530933689
 40
0.0017953530933689
 10
75.23206316927438
 20
124.8104787640426
 30
0.0
 10
75.71263614328535
 20
125.038781030837
 30
0.0
 10
76.19330628293595
 20
125.2668125362496
 30
0.0
 10
76.67408956441496
 20
125.4945273251659
 30
0.0
  0
SPLINE
  5
1C4
330
1F
100
AcDbEntity
  8
0
  6
Continuous
 62
     7
370
    18
100
AcDbSpline
210
0.0
220
0.0
230
1.0
 70
     8
 71
     3
 72
     8
 73
     4
 74
     0
 42
0.00000001
 43
0.00000001
 40
0.0
 40
0.0
 40
0.0
 40
0.0
 40
0.0017942089688349
 40
0.0017942089688349
 40
0.0017942089688349
 40
0.0017942089688349
 10
76.67408955977588
 20
125.4945273247266
 30
0.0
 10
76.12154718220926
 20
125.2666198693952
 30
0.0
 10
75.56912756281639
 20
125.0384142005439
 30
0.0
 10
75.01681333902272
 20
124.8099535897317
 30
0.0
  0
LINE
  5
1C5
330
1F
100
AcDbEntity
  8
0
  6
Continuous
 62
     7
370
    18
100
AcDbLine
 10
77.3555574765
 20
125.684486201
 30
0.0
 11
77.355557511
 21
125.7797540027
 31
0.0
  0
LINE
  5
1C6
330
1F
100
AcDbEntity
  8
0
  6
Continuous
 62
     7
370
    18
100
AcDbLine
 10
74.9575778964
 20
124.4825186836
 30
0.0
 11
74.9575779071
 21
124.8083683022
 31
0.0
  0
LINE
  5
1C7
330
1F
100
AcDbEntity
  8
0
  6
Continuous
 62
     7
370
    18
100
AcDbLine
 10
75.0168133345
 20
124.4841039718
 30
0.0
 11
75.0168133349
 21
124.8099535876
 31
0.0
  0
LINE
  5
1C8
330
1F
100
AcDbEntity
  8
0
  6
Continuous
 62
     7
370
    18
100
AcDbLine
 10
77.6039771265
 20
126.0279953831
 30
0.0
 11
77.6039771262
 21
125.7854564303
 31
0.0
  0
LINE
  5
1C9
330
1F
100
AcDbEntity
  8
0
  6
Continuous
 62
     7
370
    18
100
AcDbLine
 10
74.5070202645
 20
124.483310135
 30
0.0
 11
74.507020262
 21
124.8091597485
 31
0.0
  0
SPLINE
  5
1CA
330
1F
100
AcDbEntity
  8
0
  6
Continuous
 62
     7
370
    18
100
AcDbSpline
210
0.0
220
0.0
230
1.0
 70
     8
 71
     3
 72
     8
 73
     4
 74
     0
 42
0.00000001
 43
0.00000001
 40
0.0
 40
0.0
 40
0.0
 40
0.0
 40
0.0032257078106351
 40
0.0032257078106351
 40
0.0032257078106351
 40
0.0032257078106351
 10
77.48567239607921
 20
126.0253652661664
 30
0.0
 10
76.4922030244975
 20
125.621408644517
 30
0.0
 10
75.49937000316238
 20
125.2158756014529
 30
0.0
 10
74.50702026227313
 20
124.8091597487584
 30
0.0
  0
LINE
  5
1CB
330
1F
100
AcDbEntity
  8
0
  6
Continuous
 62
     7
370
    18
100
AcDbLine
 10
77.4856723884
 20
126.0010981239
 30
0.0
 11
77.4856723958
 21
126.0253652684
 31
0.0
  0
SPLINE
  5
1CC
330
1F
100
AcDbEntity
  8
0
  6
Continuous
 62
     7
370
    18
100
AcDbSpline
210
0.0
220
0.0
230
1.0
 70
     8
 71
     3
 72
     8
 73
     4
 74
     0
 42
0.00000001
 43
0.00000001
 40
0.0000000000039712
 40
0.0000000000039712
 40
0.0000000000039712
 40
0.0000000000039712
 40
0.0002722106378972
 40
0.0002722106378972
 40
0.0002722106378972
 40
0.0002722106378972
 10
77.43833632163845
 20
126.0299951694234
 30
0.0
 10
77.45411550852693
 20
126.0286304189609
 30
0.0
 10
77.46989426563468
 20
126.0270870310664
 30
0.0
 10
77.48567239631292
 20
126.0253652688137
 30
0.0
  0
SPLINE
  5
1CD
330
1F
100
AcDbEntity
  8
0
  6
Continuous
 62
     7
370
    18
100
AcDbSpline
210
0.0
220
0.0
230
1.0
 70
     8
 71
     3
 72
     8
 73
     4
 74
     0
 42
0.00000001
 43
0.00000001
 40
0.000000000002661
 40
0.000000000002661
 40
0.000000000002661
 40
0.000000000002661
 40
0.0002171311723072
 40
0.0002171311723072
 40
0.0002171311723072
 40
0.0002171311723072
 10
74.33150451159011
 20
124.8099535821766
 30
0.0
 10
74.31891689941355
 20
124.809528767794
 30
0.0
 10
74.30632937619863
 20
124.8090003275784
 30
0.0
 10
74.29374202714159
 20
124.8083683021468
 30
0.0
  0
SPLINE
  5
1CE
330
1F
100
AcDbEntity
  8
0
  6
Continuous
 62
     7
370
    18
100
AcDbSpline
210
0.0
220
0.0
230
1.0
 70
     8
 71
     3
 72
     8
 73
     4
 74
     0
 42
0.00000001
 43
0.00000001
 40
0.0000000000005634
 40
0.0000000000005634
 40
0.0000000000005634
 40
0.0000000000005634
 40
0.003229432714505
 40
0.003229432714505
 40
0.003229432714505
 40
0.003229432714505
 10
74.2937420259796
 20
124.8083682997401
 30
0.0
 10
75.1985264967669
 20
125.2146719950504
 30
0.0
 10
76.10378055933823
 20
125.6197103017244
 30
0.0
 10
77.00965239480956
 20
126.0230622085825
 30
0.0
  0
SPLINE
  5
1CF
330
1F
100
AcDbEntity
  8
0
  6
Continuous
 62
     7
370
    18
100
AcDbSpline
210
0.0
220
0.0
230
1.0
 70
     8
 71
     3
 72
     8
 73
     4
 74
     0
 42
0.00000001
 43
0.00000001
 40
0.0000000000003278
 40
0.0000000000003278
 40
0.0000000000003278
 40
0.0000000000003278
 40
0.0002630432025545
 40
0.0002630432025545
 40
0.0002630432025545
 40
0.0002630432025545
 10
77.0553928652179
 20
126.02799538407
 30
0.0
 10
77.04014552597756
 20
126.0265176116663
 30
0.0
 10
77.02489864803937
 20
126.0248731358587
 30
0.0
 10
77.00965239562827
 20
126.0230622088208
 30
0.0
  0
SPLINE
  5
1D0
330
1F
100
AcDbEntity
  8
0
  6
Continuous
 62
     7
370
    18
100
AcDbSpline
210
0.0
220
0.0
230
1.0
 70
     8
 71
     3
 72
     8
 73
     4
 74
     0
 42
0.00000001
 43
0.00000001
 40
0.0
 40
0.0
 40
0.0
 40
0.0
 40
0.0024559516924454
 40
0.0024559516924454
 40
0.0024559516924454
 40
0.0024559516924454
 10
77.05539286506047
 20
126.0279953841946
 30
0.0
 10
76.37075911014577
 20
125.7216451190257
 30
0.0
 10
75.68649202125839
 20
125.4142860707756
 30
0.0
 10
75.00252223362683
 20
125.1061175705488
 30
0.0
  0
SPLINE
  5
1D1
330
1F
100
AcDbEntity
  8
0
  6
Continuous
 62
     7
370
    18
100
AcDbSpline
210
0.0
220
0.0
230
1.0
 70
     8
 71
     3
 72
     8
 73
     4
 74
     0
 42
0.00000001
 43
0.00000001
 40
0.0
 40
0.0
 40
0.0
 40
0.0
 40
0.0017632500526357
 40
0.0017632500526357
 40
0.0017632500526357
 40
0.0017632500526357
 10
75.00252224276882
 20
125.1061175657214
 30
0.0
 10
75.54456380195903
 20
125.3308609351315
 30
0.0
 10
76.08670464645137
 20
125.5553641270706
 30
0.0
 10
76.62896125409675
 20
125.7795861319914
 30
0.0
  0
SPLINE
  5
1D2
330
1F
100
AcDbEntity
  8
0
  6
Continuous
 62
     7
370
    18
100
AcDbSpline
210
0.0
220
0.0
230
1.0
 70
     8
 71
     3
 72
     8
 73
     4
 74
     0
 42
0.00000001
 43
0.00000001
 40
0.0
 40
0.0
 40
0.0
 40
0.0
 40
0.0002415902902784
 40
0.0002415902902784
 40
0.0002415902902784
 40
0.0002415902902784
 10
76.62896124826563
 20
125.779586124029
 30
0.0
 10
76.64296701594628
 20
125.7797802352016
 30
0.0
 10
76.65697285757066
 20
125.7798362011152
 30
0.0
 10
76.67097865864403
 20
125.779754008629
 30
0.0
  0
SPLINE
  5
1D3
330
1F
100
AcDbEntity
  8
0
  6
Continuous
 62
     7
370
    18
100
AcDbSpline
210
0.0
220
0.0
230
1.0
 70
     8
 71
     3
 72
     8
 73
     4
 74
     0
 42
0.00000001
 43
0.00000001
 40
0.0
 40
0.0
 40
0.0
 40
0.0
 40
0.0017526630809906
 40
0.0017526630809906
 40
0.0017526630809906
 40
0.0017526630809906
 10
76.67097863780094
 20
125.7797539816747
 30
0.0
 10
76.17588622594812
 20
125.5570031981606
 30
0.0
 10
75.68090131077543
 20
125.3339679127309
 30
0.0
 10
75.18600871599992
 20
125.1106893452941
 30
0.0
  0
SPLINE
  5
1D4
330
1F
100
AcDbEntity
  8
0
  6
Continuous
 62
     7
370
    18
100
AcDbSpline
210
0.0
220
0.0
230
1.0
 70
     8
 71
     3
 72
     8
 73
     4
 74
     0
 42
0.00000001
 43
0.00000001
 40
0.0
 40
0.0
 40
0.0
 40
0.0
 40
0.0024407964393335
 40
0.0024407964393335
 40
0.0024407964393335
 40
0.0024407964393335
 10
75.18600871935443
 20
125.1106893457737
 30
0.0
 10
75.93646328408502
 20
125.4179167272305
 30
0.0
 10
76.68721595979162
 20
125.724411823666
 30
0.0
 10
77.4383363115313
 20
126.0299951565947
 30
0.0
  0
SPLINE
  5
1D5
330
1F
100
AcDbEntity
  8
0
  6
Continuous
 62
     7
370
    18
100
AcDbSpline
210
0.0
220
0.0
230
1.0
 70
     8
 71
     3
 72
     8
 73
     4
 74
     0
 42
0.00000001
 43
0.00000001
 40
0.0000000000010961
 40
0.0000000000010961
 40
0.0000000000010961
 40
0.0000000000010961
 40
0.0002201874384988
 40
0.0002201874384988
 40
0.0002201874384988
 40
0.0002201874384988
 10
74.50702026181446
 20
124.809159748265
 30
0.0
 10
74.49425560415168
 20
124.8097059753779
 30
0.0
 10
74.48149079501776
 20
124.810145660333
 30
0.0
 10
74.46872591531003
 20
124.8104787637037
 30
0.0
  0
SPLINE
  5
1D6
330
1F
100
AcDbEntity
  8
0
  6
Continuous
 62
     7
370
    18
100
AcDbSpline
210
0.0
220
0.0
230
1.0
 70
     8
 71
     3
 72
     8
 73
     4
 74
     0
 42
0.00000001
 43
0.00000001
 40
0.0000000000000204
 40
0.0000000000000204
 40
0.0000000000000204
 40
0.0000000000000204
 40
0.0017953530927895
 40
0.0017953530927895
 40
0.0017953530927895
 40
0.0017953530927895
 10
74.4687259153201
 20
124.8104787635492
 30
0.0
 10
74.974590265968
 20
125.0387810304911
 30
0.0
 10
75.48055689581338
 20
125.2668125361021
 30
0.0
 10
75.98664262189563
 20
125.4945273251663
 30
0.0
  0
SPLINE
  5
1D7
330
1F
100
AcDbEntity
  8
0
  6
Continuous
 62
     7
370
    18
100
AcDbSpline
210
0.0
220
0.0
230
1.0
 70
     8
 71
     3
 72
     8
 73
     4
 74
     0
 42
0.00000001
 43
0.00000001
 40
0.0
 40
0.0
 40
0.0
 40
0.0
 40
0.0017942089686833
 40
0.0017942089686833
 40
0.0017942089686833
 40
0.0017942089686833
 10
75.986642618696
 20
125.4945273247399
 30
0.0
 10
75.43481309840776
 20
125.2666198692401
 30
0.0
 10
74.88310617791885
 20
125.0384142002187
 30
0.0
 10
74.33150451705473
 20
124.809953589235
 30
0.0
  0
LINE
  5
1D8
330
1F
100
AcDbEntity
  8
0
  6
Continuous
 62
     7
370
    18
100
AcDbLine
 10
74.4687259142
 20
124.48462915
 30
0.0
 11
74.4687259153
 21
124.8104787637
 31
0.0
  0
LINE
  5
1D9
330
1F
100
AcDbEntity
  8
0
  6
Continuous
 62
     7
370
    18
100
AcDbLine
 10
76.6709786064
 20
125.7167918853
 30
0.0
 11
76.6709786417
 21
125.7797540028
 31
0.0
  0
LINE
  5
1DA
330
1F
100
AcDbEntity
  8
0
  6
Continuous
 62
     7
370
    18
100
AcDbLine
 10
74.3315045101
 20
124.4841039717
 30
0.0
 11
74.3315045124
 21
124.809953587
 31
0.0
  0
LINE
  5
1DB
330
1F
100
AcDbEntity
  8
0
  6
Continuous
 62
     7
370
    18
100
AcDbLine
 10
74.2937420149
 20
124.4825186837
 30
0.0
 11
74.2937420259
 21
124.8083683017
 31
0.0
  0
LINE
  5
1DC
330
1F
100
AcDbEntity
  8
0
  6
Continuous
 62
     7
370
    18
100
AcDbLine
 10
77.0553928653
 20
126.027995384
 30
0.0
 11
77.0553928652
 21
125.8736936777
 31
0.0
  0
LINE
  5
1DD
330
1F
100
AcDbEntity
  8
0
  6
Continuous
 62
     7
370
    18
100
AcDbLine
 10
76.9865676046
 20
126.0127375139
 30
0.0
 11
76.9865676124
 21
126.0253652685
 31
0.0
  0
SPLINE
  5
1DE
330
1F
100
AcDbEntity
  8
0
  6
Continuous
 62
     7
370
    18
100
AcDbSpline
210
0.0
220
0.0
230
1.0
 70
     8
 71
     3
 72
     8
 73
     4
 74
     0
 42
0.00000001
 43
0.00000001
 40
0.0000000000040307
 40
0.0000000000040307
 40
0.0000000000040307
 40
0.0000000000040307
 40
0.0002722106384186
 40
0.0002722106384186
 40
0.0002722106384186
 40
0.0002722106384186
 10
76.96663567282957
 20
126.029995169203
 30
0.0
 10
76.97327986020233
 20
126.0286304188531
 30
0.0
 10
76.9799238707172
 20
126.0270870311143
 30
0.0
 10
76.98656761334853
 20
126.0253652689728
 30
0.0
  0
LINE
  5
1DF
330
1F
100
AcDbEntity
  8
0
  6
Continuous
 62
     7
370
    18
100
AcDbLine
 10
74.0467244398
 20
124.4833101353
 30
0.0
 11
74.0467244388
 21
124.8091597488
 31
0.0
  0
SPLINE
  5
1E0
330
1F
100
AcDbEntity
  8
0
  6
Continuous
 62
     7
370
    18
100
AcDbSpline
210
0.0
220
0.0
230
1.0
 70
     8
 71
     3
 72
     8
 73
     4
 74
     0
 42
0.00000001
 43
0.00000001
 40
0.0
 40
0.0
 40
0.0
 40
0.0
 40
0.0032257078104087
 40
0.0032257078104087
 40
0.0032257078104087
 40
0.0032257078104087
 10
76.98656761258584
 20
126.025365266186
 30
0.0
 10
76.00604218735421
 20
125.6214086445558
 30
0.0
 10
75.026144821113
 20
125.2158756015265
 30
0.0
 10
74.04672443886683
 20
124.8091597488525
 30
0.0
  0
SPLINE
  5
1E1
330
1F
100
AcDbEntity
  8
0
  6
Continuous
 62
     7
370
    18
100
AcDbSpline
210
0.0
220
0.0
230
1.0
 70
     8
 71
     3
 72
     8
 73
     4
 74
     0
 42
0.00000001
 43
0.00000001
 40
0.0000000000026674
 40
0.0000000000026674
 40
0.0000000000026674
 40
0.0000000000026674
 40
0.0002171311727648
 40
0.0002171311727648
 40
0.0002171311727648
 40
0.0002171311727648
 10
73.97281952250565
 20
124.8099535824216
 30
0.0
 10
73.9675192207225
 20
124.8095287679969
 30
0.0
 10
73.96221895412799
 20
124.8090003277024
 30
0.0
 10
73.95691876313734
 20
124.8083683022278
 30
0.0
  0
SPLINE
  5
1E2
330
1F
100
AcDbEntity
  8
0
  6
Continuous
 62
     7
370
    18
100
AcDbSpline
210
0.0
220
0.0
230
1.0
 70
     8
 71
     3
 72
     9
 73
     5
 74
     0
 42
0.00000001
 43
0.00000001
 40
0.0
 40
0.0
 40
0.0
 40
0.0
 40
0.511811189003923
 40
0.9999999999999999
 40
0.9999999999999999
 40
0.9999999999999999
 40
0.9999999999999999
 10
73.95691876003897
 20
124.8083683010011
 30
0.0
 10
74.43933745302631
 20
125.0161541623284
 30
0.0
 10
75.3819090562892
 20
125.4221356371212
 30
0.0
 10
76.32533470999675
 20
125.8258904063457
 30
0.0
 10
76.78590455814346
 20
126.0229989670673
 30
0.0
  0
SPLINE
  5
1E3
330
1F
100
AcDbEntity
  8
0
  6
Continuous
 62
     7
370
    18
100
AcDbSpline
210
0.0
220
0.0
230
1.0
 70
     8
 71
     3
 72
     8
 73
     4
 74
     0
 42
0.00000001
 43
0.00000001
 40
0.0000000000003718
 40
0.0000000000003718
 40
0.0000000000003718
 40
0.0000000000003718
 40
0.0002661019550727
 40
0.0002661019550727
 40
0.0002661019550727
 40
0.0002661019550727
 10
76.80538858227054
 20
126.0279953837516
 30
0.0
 10
76.79889368514445
 20
126.0265004274613
 30
0.0
 10
76.79239898664231
 20
126.0248348681704
 30
0.0
 10
76.7859045584027
 20
126.0229989671591
 30
0.0
  0
SPLINE
  5
1E4
330
1F
100
AcDbEntity
  8
0
  6
Continuous
 62
     7
370
    18
100
AcDbSpline
210
0.0
220
0.0
230
1.0
 70
     8
 71
     3
 72
     8
 73
     4
 74
     0
 42
0.00000001
 43
0.00000001
 40
0.0000000000000156
 40
0.0000000000000156
 40
0.0000000000000156
 40
0.0000000000000156
 40
0.0024559516921116
 40
0.0024559516921116
 40
0.0024559516921116
 40
0.0024559516921116
 10
76.80538858253502
 20
126.0279953838426
 30
0.0
 10
76.09103611862409
 20
125.7216451187127
 30
0.0
 10
75.37706623683306
 20
125.4142860707332
 30
0.0
 10
74.66340656181977
 20
125.1061175705468
 30
0.0
  0
SPLINE
  5
1E5
330
1F
100
AcDbEntity
  8
0
  6
Continuous
 62
     7
370
    18
100
AcDbSpline
210
0.0
220
0.0
230
1.0
 70
     8
 71
     3
 72
     8
 73
     4
 74
     0
 42
0.00000001
 43
0.00000001
 40
0.0
 40
0.0
 40
0.0
 40
0.0
 40
0.001763250052455
 40
0.001763250052455
 40
0.001763250052455
 40
0.001763250052455
 10
74.66340656863073
 20
125.1061175656275
 30
0.0
 10
75.19924917650636
 20
125.3308609350242
 30
0.0
 10
75.73518993350886
 20
125.5553641270387
 30
0.0
 10
76.27124513047987
 20
125.7795861319475
 30
0.0
  0
SPLINE
  5
1E6
330
1F
100
AcDbEntity
  8
0
  6
Continuous
 62
     7
370
    18
100
AcDbSpline
210
0.0
220
0.0
230
1.0
 70
     8
 71
     3
 72
     8
 73
     4
 74
     0
 42
0.00000001
 43
0.00000001
 40
0.0
 40
0.0
 40
0.0
 40
0.0
 40
0.0002415902901975
 40
0.0002415902901975
 40
0.0002415902901975
 40
0.0002415902901975
 10
76.27124512398518
 20
125.7795861240318
 30
0.0
 10
76.2771425724715
 20
125.7797802351343
 30
0.0
 10
76.28304004944043
 20
125.7798362009399
 30
0.0
 10
76.28893751198751
 20
125.7797540083841
 30
0.0
  0
SPLINE
  5
1E7
330
1F
100
AcDbEntity
  8
0
  6
Continuous
 62
     7
370
    18
100
AcDbSpline
210
0.0
220
0.0
230
1.0
 70
     8
 71
     3
 72
     8
 73
     4
 74
     0
 42
0.00000001
 43
0.00000001
 40
0.0
 40
0.0
 40
0.0
 40
0.0
 40
0.0017526630802692
 40
0.0017526630802692
 40
0.0017526630802692
 40
0.0017526630802692
 10
76.288937493507
 20
125.7797539817196
 30
0.0
 10
75.77452296434454
 20
125.5570031982817
 30
0.0
 10
75.26022012929879
 20
125.333967912769
 30
0.0
 10
74.74601321553297
 20
125.11068934541
 30
0.0
  0
SPLINE
  5
1E8
330
1F
100
AcDbEntity
  8
0
  6
Continuous
 62
     7
370
    18
100
AcDbSpline
210
0.0
220
0.0
230
1.0
 70
     8
 71
     3
 72
     8
 73
     4
 74
     0
 42
0.00000001
 43
0.00000001
 40
0.0
 40
0.0
 40
0.0
 40
0.0
 40
0.0024407964389899
 40
0.0024407964389899
 40
0.0024407964389899
 40
0.0024407964389899
 10
74.74601321772937
 20
125.1106893459022
 30
0.0
 10
75.48590392260812
 20
125.4179167272857
 30
0.0
 10
76.2260885420703
 20
125.7244118236459
 30
0.0
 10
76.96663566193259
 20
126.029995156497
 30
0.0
  0
SPLINE
  5
1E9
330
1F
100
AcDbEntity
  8
0
  6
Continuous
 62
     7
370
    18
100
AcDbSpline
210
0.0
220
0.0
230
1.0
 70
     8
 71
     3
 72
     8
 73
     4
 74
     0
 42
0.00000001
 43
0.00000001
 40
0.0000000000009191
 40
0.0000000000009191
 40
0.0000000000009191
 40
0.0000000000009191
 40
0.0002201874394297
 40
0.0002201874394297
 40
0.0002201874394297
 40
0.0002201874394297
 10
74.04672443865205
 20
124.8091597486904
 30
0.0
 10
74.04134958759299
 20
124.8097059756898
 30
0.0
 10
74.0359746727977
 20
124.8101456604601
 30
0.0
 10
74.03059972824158
 20
124.8104787637155
 30
0.0
  0
SPLINE
  5
1EA
330
1F
100
AcDbEntity
  8
0
  6
Continuous
 62
     7
370
    18
100
AcDbSpline
210
0.0
220
0.0
230
1.0
 70
     8
 71
     3
 72
     8
 73
     4
 74
     0
 42
0.00000001
 43
0.00000001
 40
0.000000000000018
 40
0.000000000000018
 40
0.000000000000018
 40
0.000000000000018
 40
0.001796031848868
 40
0.001796031848868
 40
0.001796031848868
 40
0.001796031848868
 10
74.03059972825756
 20
124.81047876375
 30
0.0
 10
74.55647095723162
 20
125.0387849071299
 30
0.0
 10
75.08245014837986
 20
125.2668158856144
 30
0.0
 10
75.60855504737859
 20
125.4945249873158
 30
0.0
  0
SPLINE
  5
1EB
330
1F
100
AcDbEntity
  8
0
  6
Continuous
 62
     7
370
    18
100
AcDbSpline
210
0.0
220
0.0
230
1.0
 70
     8
 71
     3
 72
     8
 73
     4
 74
     0
 42
0.00000001
 43
0.00000001
 40
0.0
 40
0.0
 40
0.0
 40
0.0
 40
0.0017935433819153
 40
0.0017935433819153
 40
0.0017935433819153
 40
0.0017935433819153
 10
75.60855504539546
 20
125.4945249868803
 30
0.0
 10
75.06319624321046
 20
125.2666135912761
 30
0.0
 10
74.51795669456565
 20
125.038408944084
 30
0.0
 10
73.97281952841905
 20
124.8099535893467
 30
0.0
  0
LINE
  5
1EC
330
1F
100
AcDbEntity
  8
0
  6
Continuous
 62
     7
370
    18
100
AcDbLine
 10
74.0305997273
 20
124.48462915
 30
0.0
 11
74.0305997283
 21
124.8104787637
 31
0.0
  0
LINE
  5
1ED
330
1F
100
AcDbEntity
  8
0
  6
Continuous
 62
     7
370
    18
100
AcDbLine
 10
76.2889374633
 20
125.7494378448
 30
0.0
 11
76.288937497
 21
125.7797540027
 31
0.0
  0
LINE
  5
1EE
330
1F
100
AcDbEntity
  8
0
  6
Continuous
 62
     7
370
    18
100
AcDbLine
 10
73.9728195196
 20
124.4841039719
 30
0.0
 11
73.9728195235
 21
124.8099535872
 31
0.0
  0
LINE
  5
1EF
330
1F
100
AcDbEntity
  8
0
  6
Continuous
 62
     7
370
    18
100
AcDbLine
 10
73.9569187502
 20
124.4825186835
 30
0.0
 11
73.9569187616
 21
124.8083683016
 31
0.0
  0
LINE
  5
1F0
330
1F
100
AcDbEntity
  8
0
  6
Continuous
 62
     7
370
    18
100
AcDbLine
 10
76.8053885824
 20
126.0279953838
 30
0.0
 11
76.8053885822
 21
125.963241181
 31
0.0
  0
SPLINE
  5
1F1
330
1F
100
AcDbEntity
  8
0
  6
Continuous
 62
     7
370
    18
100
AcDbSpline
210
0.0
220
0.0
230
1.0
 70
     8
 71
     3
 72
    14
 73
    10
 74
     0
 42
0.00000001
 43
0.00000001
 40
0.0
 40
0.0
 40
0.0
 40
0.0
 40
0.4999999999999987
 40
0.4999999999999987
 40
0.7499999999999993
 40
0.7499999999999993
 40
0.8749999999999997
 40
0.8749999999999997
 40
1.0
 40
1.0
 40
1.0
 40
1.0
 10
100.1316107242397
 20
160.8723280253124
 30
0.0
 10
99.96426348675263
 20
160.8723280253098
 30
0.0
 10
99.79837581665504
 20
160.8843337562461
 30
0.0
 10
99.55371113228372
 20
160.9366167064716
 30
0.0
 10
99.47174433616301
 20
160.9598178830128
 30
0.0
 10
99.3580951880445
 20
161.0141110997545
 30
0.0
 10
99.32162402318887
 20
161.03534171849
 30
0.0
 10
99.25900002713301
 20
161.0920685902344
 30
0.0
 10
99.23267497336526
 20
161.1295678481015
 30
0.0
 10
99.23267497326425
 20
161.1723280250612
 30
0.0
  0
SPLINE
  5
1F2
330
1F
100
AcDbEntity
  8
0
  6
Continuous
 62
     7
370
    18
100
AcDbSpline
210
0.0
220
0.0
230
1.0
 70
    24
 71
     3
 72
    28
 73
    24
 74
     0
 42
0.00000001
 43
0.00000001
 40
0.0
 40
0.0
 40
0.0
 40
0.0
 40
0.01788335214338
 40
0.0357452727636193
 40
0.0535947016622993
 40
0.0714405974139855
 40
0.0892919239125062
 40
0.1071576368772676
 40
0.1250466704209616
 40
0.1875437372063299
 40
0.2500640332848433
 40
0.3125611000702482
 40
0.375081396148723
 40
0.5000026664105274
 40
0.6249239366723317
 40
0.6874210034576523
 40
0.7499412995362107
 40
0.812438366320914
 40
0.8749586624000891
 40
0.9062343034835026
 40
0.9374677232316942
 40
0.9687069536528644
 40
0.9999999999999999
 40
0.9999999999999999
 40
0.9999999999999999
 40
0.9999999999999999
 10
100.1316107242368
 20
160.8723280258103
 30
0.0
 10
99.99751789276831
 20
160.8723280258103
 30
0.0
 10
99.72949292753489
 20
160.8723280258103
 30
0.0
 10
99.33158355988827
 20
160.8723280258103
 30
0.0
 10
98.9371070829808
 20
160.8723280258103
 30
0.0
 10
98.54633188888354
 20
160.8723280258103
 30
0.0
 10
98.15918776203775
 20
160.8723280258103
 30
0.0
 10
97.7756891483797
 20
160.8723280258103
 30
0.0
 10
97.08040883295658
 20
160.8723280258103
 30
0.0
 10
96.09462562968056
 20
160.8723280258103
 30
0.0
 10
94.86268417066842
 20
160.8723280258103
 30
0.0
 10
93.69878174008493
 20
160.8723280258103
 30
0.0
 10
92.24918081586138
 20
160.8723280258103
 30
0.0
 10
90.6411841786142
 20
160.8723280258103
 30
0.0
 10
89.34847044416938
 20
160.8723280258103
 30
0.0
 10
88.52218437248426
 20
160.8723280258103
 30
0.0
 10
88.00993968912434
 20
160.8723280258103
 30
0.0
 10
87.6077616178845
 20
160.8723280258103
 30
0.0
 10
87.36731840100525
 20
160.8723280258103
 30
0.0
 10
87.23193718777539
 20
160.8723280258103
 30
0.0
 10
87.15984591165825
 20
160.8723280258103
 30
0.0
 10
87.11470880129279
 20
160.8723280258103
 30
0.0
 10
87.1091358693
 20
160.8723280258103
 30
0.0
 10
87.10634700524207
 20
160.8723280258103
 30
0.0
  0
LINE
  5
1F3
330
1F
100
AcDbEntity
  8
0
  6
Continuous
 62
     7
370
    18
100
AcDbLine
 10
86.8063470052
 20
161.1723280248
 30
0.0
 11
99.2326749733
 21
161.1723280249
 31
0.0
  0
SPLINE
  5
1F4
330
1F
100
AcDbEntity
  8
0
  6
Continuous
 62
     7
370
    18
100
AcDbSpline
210
0.0
220
0.0
230
1.0
 70
     8
 71
     3
 72
    14
 73
    10
 74
     0
 42
0.00000001
 43
0.00000001
 40
0.0
 40
0.0
 40
0.0
 40
0.0
 40
0.1250000000000001
 40
0.1250000000000001
 40
0.2500000000000001
 40
0.2500000000000001
 40
0.5000000000000001
 40
0.5000000000000001
 40
1.0
 40
1.0
 40
1.0
 40
1.0
 10
112.880019037219
 20
161.1723280255611
 30
0.0
 10
112.8800190373195
 20
161.1293898593606
 30
0.0
 10
112.8532844201836
 20
161.0916029512825
 30
0.0
 10
112.7907852355092
 20
161.0351794829809
 30
0.0
 10
112.7536967703381
 20
161.0136247553384
 30
0.0
 10
112.6405658159195
 20
160.9597469487883
 30
0.0
 10
112.5589238817422
 20
160.9366008254338
 30
0.0
 10
112.3142524845117
 20
160.8843262662674
 30
0.0
 10
112.1483894982394
 20
160.8723280253098
 30
0.0
 10
111.9810832862435
 20
160.8723280253124
 30
0.0
  0
LINE
  5
1F5
330
1F
100
AcDbEntity
  8
0
  6
Continuous
 62
     7
370
    18
100
AcDbLine
 10
112.8800190372
 20
161.1723280252
 30
0.0
 11
125.3063470052
 21
161.1723280248
 31
0.0
  0
ARC
  5
1F6
330
1F
100
AcDbEntity
  8
0
  6
Continuous
 62
     7
370
    18
100
AcDbCircle
 10
125.0063470052
 20
161.1723280253
 30
0.0
 40
0.2999999999999972
100
AcDbArc
 50
270.0
 51
359.9999999047
  0
SPLINE
  5
1F7
330
1F
100
AcDbEntity
  8
0
  6
Continuous
 62
     7
370
    18
100
AcDbSpline
210
0.0
220
0.0
230
1.0
 70
    24
 71
     3
 72
    28
 73
    24
 74
     0
 42
0.00000001
 43
0.00000001
 40
0.0
 40
0.0
 40
0.0
 40
0.0
 40
0.0178833513447799
 40
0.0357452711672624
 40
0.0535946992686297
 40
0.0714405942230467
 40
0.0892919199239425
 40
0.107157632090323
 40
0.1250466648344822
 40
0.1875437288286974
 40
0.2500640221131842
 40
0.3125610861086223
 40
0.3750813793918976
 40
0.5000026440728182
 40
0.6249239087537395
 40
0.6874209727488433
 40
0.7499412660324394
 40
0.8124383300255591
 40
0.8749586233111349
 40
0.9062386352156313
 40
0.9374735087410669
 40
0.9687112870689509
 40
1.0
 40
1.0
 40
1.0
 40
1.0
 10
125.0063470052412
 20
160.8723280258103
 30
0.0
 10
125.0054375667148
 20
160.8723280258103
 30
0.0
 10
125.0036197795391
 20
160.8723280258103
 30
0.0
 10
124.9888889233261
 20
160.8723280258103
 30
0.0
 10
124.9653658055052
 20
160.8723280258103
 30
0.0
 10
124.9321914136377
 20
160.8723280258103
 30
0.0
 10
124.8895967626833
 20
160.8723280258103
 30
0.0
 10
124.837516278556
 20
160.8723280258103
 30
0.0
 10
124.724879506974
 20
160.8723280258103
 30
0.0
 10
124.5049480549451
 20
160.8723280258103
 30
0.0
 10
124.10287483385
 20
160.8723280258103
 30
0.0
 10
123.590578267769
 20
160.8723280258103
 30
0.0
 10
122.7643206882345
 20
160.8723280258103
 30
0.0
 10
121.471509558496
 20
160.8723280258103
 30
0.0
 10
119.8636326155322
 20
160.8723280258103
 30
0.0
 10
118.4140523888754
 20
160.8723280258103
 30
0.0
 10
117.2503069911383
 20
160.8723280258103
 30
0.0
 10
116.0182235464684
 20
160.8723280258103
 30
0.0
 10
114.9400842324967
 20
160.8723280258103
 30
0.0
 10
114.0515375419388
 20
160.8723280258103
 30
0.0
 10
113.3728136533573
 20
160.8723280258103
 30
0.0
 10
112.6834417627274
 20
160.8723280258103
 30
0.0
 10
112.2153298876907
 20
160.8723280258103
 30
0.0
 10
111.9810832862464
 20
160.8723280258103
 30
0.0
  0
SPLINE
  5
1F8
330
1F
100
AcDbEntity
  8
0
  6
Continuous
 62
     7
370
    18
100
AcDbSpline
210
0.0
220
0.0
230
1.0
 70
     8
 71
     3
 72
    16
 73
    12
 74
     0
 42
0.00000001
 43
0.00000001
 40
0.0
 40
0.0
 40
0.0
 40
0.0
 40
0.2500000000000001
 40
0.2500000000000001
 40
0.5000000000000001
 40
0.5000000000000001
 40
0.6250000000000001
 40
0.6250000000000001
 40
0.7500000000000001
 40
0.7500000000000001
 40
1.0
 40
1.0
 40
1.0
 40
1.0
 10
99.23267497324436
 20
165.8723280258052
 30
0.0
 10
100.3519403833363
 20
166.1698929637017
 30
0.0
 10
101.4768503846706
 20
166.4047303546745
 30
0.0
 10
103.7401979117957
 20
166.724075663793
 30
0.0
 10
104.8786618885697
 20
166.8082896359189
 30
0.0
 10
106.5975201418354
 20
166.810565659565
 30
0.0
 10
107.1723231368043
 20
166.7907628346378
 30
0.0
 10
108.3256525250031
 20
166.7097795846695
 30
0.0
 10
108.9045272076742
 20
166.6484044003649
 30
0.0
 10
110.6251366646606
 20
166.4074101521
 30
0.0
 10
111.7582166367911
 20
166.1705674412416
 30
0.0
 10
112.8800190373008
 20
165.8723280257887
 30
0.0
  0
LINE
  5
1F9
330
1F
100
AcDbEntity
  8
0
  6
Continuous
 62
     7
370
    18
100
AcDbLine
 10
112.8800190372
 20
161.1723280252
 30
0.0
 11
112.8800190379
 21
165.8723280256
 31
0.0
  0
LINE
  5
1FA
330
1F
100
AcDbEntity
  8
0
  6
Continuous
 62
     7
370
    18
100
AcDbLine
 10
99.2326749732
 20
165.8723280258
 30
0.0
 11
99.2326749733
 21
161.1723280249
 31
0.0
  0
LINE
  5
1FB
330
1F
100
AcDbEntity
  8
0
  6
Continuous
 62
     7
370
    18
100
AcDbLine
 10
90.8063470057
 20
168.8723280252
 30
0.0
 11
86.8063470052
 21
165.8723280258
 31
0.0
  0
LINE
  5
1FC
330
1F
100
AcDbEntity
  8
0
  6
Continuous
 62
     7
370
    18
100
AcDbLine
 10
90.8063470057
 20
168.8723280252
 30
0.0
 11
121.3063470048
 21
168.8723280252
 31
0.0
  0
LINE
  5
1FD
330
1F
100
AcDbEntity
  8
0
  6
Continuous
 62
     7
370
    18
100
AcDbLine
 10
125.3063470057
 20
165.8723280255
 30
0.0
 11
121.3063470048
 21
168.8723280252
 31
0.0
  0
LINE
  5
1FE
330
1F
100
AcDbEntity
  8
0
  6
Continuous
 62
     7
370
    18
100
AcDbLine
 10
112.8800190379
 20
165.8723280256
 30
0.0
 11
125.3063470057
 21
165.8723280255
 31
0.0
  0
LINE
  5
1FF
330
1F
100
AcDbEntity
  8
0
  6
Continuous
 62
     7
370
    18
100
AcDbLine
 10
86.8063470052
 20
165.8723280258
 30
0.0
 11
99.2326749732
 21
165.8723280258
 31
0.0
  0
LINE
  5
200
330
1F
100
AcDbEntity
  8
0
  6
Continuous
 62
     7
370
    18
100
AcDbLine
 10
86.8063470052
 20
165.8723280258
 30
0.0
 11
86.8063470052
 21
161.1723280248
 31
0.0
  0
LINE
  5
201
330
1F
100
AcDbEntity
  8
0
  6
Continuous
 62
     7
370
    18
100
AcDbLine
 10
106.0563470052
 20
171.0223280253
 30
0.0
 11
106.0563470052
 21
170.3723280253
 31
0.0
  0
LINE
  5
202
330
1F
100
AcDbEntity
  8
0
  6
Continuous
 62
     7
370
    18
100
AcDbLine
 10
98.4063470047
 20
170.3723280253
 30
0.0
 11
106.0563470052
 21
170.3723280253
 31
0.0
  0
LINE
  5
203
330
1F
100
AcDbEntity
  8
0
  6
Continuous
 62
     7
370
    18
100
AcDbLine
 10
97.7563470052
 20
171.0223280248
 30
0.0
 11
106.0563470052
 21
171.0223280248
 31
0.0
  0
LINE
  5
204
330
1F
100
AcDbEntity
  8
0
  6
Continuous
 62
     7
370
    18
100
AcDbLine
 10
106.0563470052
 20
171.0223280248
 30
0.0
 11
114.3563470052
 21
171.0223280248
 31
0.0
  0
LINE
  5
205
330
1F
100
AcDbEntity
  8
0
  6
Continuous
 62
     7
370
    18
100
AcDbLine
 10
97.7563470052
 20
178.2223280248
 30
0.0
 11
97.7563470052
 21
171.0223280248
 31
0.0
  0
LINE
  5
206
330
1F
100
AcDbEntity
  8
0
  6
Continuous
 62
     7
370
    18
100
AcDbLine
 10
97.7563470047
 20
178.2223280253
 30
0.0
 11
114.3563470057
 21
178.2223280253
 31
0.0
  0
LINE
  5
207
330
1F
100
AcDbEntity
  8
0
  6
Continuous
 62
     7
370
    18
100
AcDbLine
 10
114.3563470052
 20
171.0223280248
 30
0.0
 11
114.3563470052
 21
178.2223280248
 31
0.0
  0
LINE
  5
208
330
1F
100
AcDbEntity
  8
0
  6
Continuous
 62
     7
370
    18
100
AcDbLine
 10
106.0563470052
 20
170.3723280253
 30
0.0
 11
113.7063470057
 21
170.3723280253
 31
0.0
  0
LINE
  5
209
330
1F
100
AcDbEntity
  8
0
  6
Continuous
 62
     7
370
    18
100
AcDbLine
 10
114.3563470057
 20
178.2223280253
 30
0.0
 11
113.7063470057
 21
178.8723280253
 31
0.0
  0
LINE
  5
20A
330
1F
100
AcDbEntity
  8
0
  6
Continuous
 62
     7
370
    18
100
AcDbLine
 10
98.4063470047
 20
178.8723280253
 30
0.0
 11
97.7563470047
 21
178.2223280253
 31
0.0
  0
LINE
  5
20B
330
1F
100
AcDbEntity
  8
0
  6
Continuous
 62
     7
370
    18
100
AcDbLine
 10
98.4063470047
 20
178.8723280253
 30
0.0
 11
113.7063470057
 21
178.8723280253
 31
0.0
  0
LINE
  5
20C
330
1F
100
AcDbEntity
  8
0
  6
Continuous
 62
     7
370
    18
100
AcDbLine
 10
98.4063470052
 20
169.5223280253
 30
0.0
 11
98.4063470052
 21
170.3723280258
 31
0.0
  0
LINE
  5
20D
330
1F
100
AcDbEntity
  8
0
  6
Continuous
 62
     7
370
    18
100
AcDbLine
 10
113.7063470052
 20
170.3723280253
 30
0.0
 11
113.7063470052
 21
169.5223280253
 31
0.0
  0
ARC
  5
20E
330
1F
100
AcDbEntity
  8
0
  6
Continuous
 62
     7
370
    18
100
AcDbCircle
 10
114.6813470052
 20
168.5473280253
 30
0.0
 40
0.975000000000005
100
AcDbArc
 50
19.4712206257
 51
89.9999999963
  0
ARC
  5
20F
330
1F
100
AcDbEntity
  8
0
  6
Continuous
 62
     7
370
    18
100
AcDbCircle
 10
97.4313470052
 20
168.5473280253
 30
0.0
 40
0.9750000000004491
100
AcDbArc
 50
90.0000000147
 51
160.5287793743
  0
ARC
  5
210
330
1F
100
AcDbEntity
  8
0
  6
Continuous
 62
     7
370
    18
100
AcDbCircle
 10
78.7563470052
 20
147.4723280253
 30
0.0
 40
0.700000000000017
100
AcDbArc
 50
90.0
 51
180.0
  0
SPLINE
  5
211
330
1F
100
AcDbEntity
  8
0
  6
Continuous
 62
     7
370
    18
100
AcDbSpline
210
0.0
220
0.0
230
1.0
 70
     8
 71
     3
 72
    56
 73
    52
 74
     0
 42
0.00000001
 43
0.00000001
 40
0.0
 40
0.0
 40
0.0
 40
0.0
 40
0.0062528923626801
 40
0.0125055887949667
 40
0.0187580815974759
 40
0.0250103630715245
 40
0.0312624255191309
 40
0.0375142612430177
 40
0.0437658625466136
 40
0.0500172217340594
 40
0.0562683311102117
 40
0.0625191829806529
 40
0.0731172512424691
 40
0.0937750460762713
 40
0.1132527967514397
 40
0.1250307363626969
 40
0.156281031579286
 40
0.1875256642057123
 40
0.2187732116644838
 40
0.2500199914657367
 40
0.2812702866804691
 40
0.3125149193085078
 40
0.3437624667672479
 40
0.3750092465686745
 40
0.4062595417858825
 40
0.43750417441363
 40
0.468751721872655
 40
0.4999985016721463
 40
0.5312487968869706
 40
0.5624934295134325
 40
0.593740976973329
 40
0.6249877567754738
 40
0.6562380519914756
 40
0.6874826846183794
 40
0.7187302320771509
 40
0.7499770118784039
 40
0.7856866725500262
 40
0.8213914936495653
 40
0.8310948430769305
 40
0.8571091814160551
 40
0.8749693116783396
 40
0.8928296938633911
 40
0.9047379907442321
 40
0.9166460546013913
 40
0.9285539333300259
 40
0.940461674824231
 40
0.9523693269770458
 40
0.9642769376804889
 40
0.9761845548255913
 40
0.9880922263024063
 40
1.0
 40
1.0
 40
1.0
 40
1.0
 10
133.3563470052416
 20
148.1723280253096
 30
0.0
 10
133.3553306863884
 20
148.1723280253491
 30
0.0
 10
133.3532980805278
 20
148.1723280254281
 30
0.0
 10
133.336859867082
 20
148.1723280236167
 30
0.0
 10
133.3106278748134
 20
148.1723280124624
 30
0.0
 10
133.273651900686
 20
148.1723279796709
 30
0.0
 10
133.2262051598112
 20
148.1723279087051
 30
0.0
 10
133.1682374359542
 20
148.1723277756303
 30
0.0
 10
133.09979359534
 20
148.1723275610929
 30
0.0
 10
133.020886258372
 20
148.1723272055634
 30
0.0
 10
132.9315865542835
 20
148.1723267763765
 30
0.0
 10
132.8086517360147
 20
148.1723256282919
 30
0.0
 10
132.5822673343419
 20
148.172326184307
 30
0.0
 10
132.2069545005598
 20
148.1723275333217
 30
0.0
 10
131.7334020079113
 20
148.172328044648
 30
0.0
 10
131.0807532048238
 20
148.1723279646271
 30
0.0
 10
130.1713162983548
 20
148.1723286932364
 30
0.0
 10
128.7900271713055
 20
148.1723248441694
 30
0.0
 10
127.1927388991617
 20
148.172327894121
 30
0.0
 10
125.3915230337185
 20
148.1723278995733
 30
0.0
 10
123.4029792116651
 20
148.1723286594975
 30
0.0
 10
121.2464564826882
 20
148.1723248532097
 30
0.0
 10
118.945723689951
 20
148.1723278916994
 30
0.0
 10
116.520421192546
 20
148.1723279002222
 30
0.0
 10
113.9937423238345
 20
148.172328659324
 30
0.0
 10
111.3903379786924
 20
148.1723248532572
 30
0.0
 10
108.7364154033886
 20
148.172327891687
 30
0.0
 10
106.0562595364457
 20
148.1723279002252
 30
0.0
 10
103.3761087780134
 20
148.1723286593241
 30
0.0
 10
100.7221677720668
 20
148.1723248532535
 30
0.0
 10
98.11909089143893
 20
148.1723278917018
 30
0.0
 10
95.5921115541559
 20
148.1723279001694
 30
0.0
 10
93.16651588267213
 20
148.1723286595326
 30
0.0
 10
90.86608293301279
 20
148.1723248524747
 30
0.0
 10
88.71012325643514
 20
148.1723278946048
 30
0.0
 10
86.62650167901995
 20
148.1723278890819
 30
0.0
 10
84.66754246075003
 20
148.1723288406187
 30
0.0
 10
83.32455851817872
 20
148.172325357696
 30
0.0
 10
82.2643231695933
 20
148.1723271615238
 30
0.0
 10
81.54253470391468
 20
148.1723280308379
 30
0.0
 10
80.82114709491377
 20
148.1723280190466
 30
0.0
 10
80.3357995018782
 20
148.1723280267959
 30
0.0
 10
79.96392107724562
 20
148.1723275752754
 30
0.0
 10
79.6814766007581
 20
148.1723271785551
 30
0.0
 10
79.43584529524308
 20
148.1723268730817
 30
0.0
 10
79.22732401751219
 20
148.1723267494536
 30
0.0
 10
79.05627418958176
 20
148.1723268350621
 30
0.0
 10
78.92268171878285
 20
148.1723271122405
 30
0.0
 10
78.82766053319348
 20
148.1723274985445
 30
0.0
 10
78.76787657494687
 20
148.1723279074829
 30
0.0
 10
78.76019020614052
 20
148.1723279860339
 30
0.0
 10
78.75634700524162
 20
148.1723280253096
 30
0.0
  0
ARC
  5
212
330
1F
100
AcDbEntity
  8
0
  6
Continuous
 62
     7
370
    18
100
AcDbCircle
 10
133.3563470052
 20
147.4723280253
 30
0.0
 40
0.700000000000017
100
AcDbArc
 50
0.000000002
 51
90.0
  0
LINE
  5
213
330
1F
100
AcDbEntity
  8
0
  6
Continuous
 62
     7
370
    18
100
AcDbLine
 10
134.0563470052
 20
147.4723280248
 30
0.0
 11
78.0563470052
 21
147.4723280248
 31
0.0
  0
ARC
  5
214
330
1F
100
AcDbEntity
  8
0
  6
Continuous
 62
     7
370
    18
100
AcDbCircle
 10
78.7563470052
 20
144.8723280253
 30
0.0
 40
0.700000000000017
100
AcDbArc
 50
180.0000000408
 51
270.0
  0
LINE
  5
215
330
1F
100
AcDbEntity
  8
0
  6
Continuous
 62
     7
370
    18
100
AcDbLine
 10
134.0563470052
 20
144.8723280248
 30
0.0
 11
78.0563470052
 21
144.8723280248
 31
0.0
  0
ARC
  5
216
330
1F
100
AcDbEntity
  8
0
  6
Continuous
 62
     7
370
    18
100
AcDbCircle
 10
133.3563470052
 20
144.8723280253
 30
0.0
 40
0.700000000000017
100
AcDbArc
 50
270.0
 51
359.9999999423
  0
SPLINE
  5
217
330
1F
100
AcDbEntity
  8
0
  6
Continuous
 62
     7
370
    18
100
AcDbSpline
210
0.0
220
0.0
230
1.0
 70
    24
 71
     3
 72
    51
 73
    47
 74
     0
 42
0.00000001
 43
0.00000001
 40
0.0
 40
0.0
 40
0.0
 40
0.0
 40
0.0063057330878807
 40
0.0126092319372356
 40
0.0189130091219287
 40
0.0252195768831535
 40
0.0315314441299987
 40
0.0378511134598682
 40
0.0441810782163426
 40
0.0505238196015595
 40
0.0568818038594429
 40
0.0632574795451614
 40
0.0941482880684032
 40
0.1250188770500481
 40
0.1561634094406506
 40
0.1875154866998744
 40
0.2187609835633271
 40
0.2500128985143004
 40
0.281157455447177
 40
0.3125095666604432
 40
0.3437550291462033
 40
0.3750069199917117
 40
0.4061515013137238
 40
0.4375036466358869
 40
0.4687490747859057
 40
0.5000009414838262
 40
0.5311455472147604
 40
0.5624977266197649
 40
0.5937431204756343
 40
0.6249949629909248
 40
0.6561395931585122
 40
0.6874918066227633
 40
0.7187371662201978
 40
0.7499889845125071
 40
0.7811336391683035
 40
0.8124858866387652
 40
0.8437312120174645
 40
0.8749830060505306
 40
0.9061276822430419
 40
0.937479966640637
 40
0.9479178121818117
 40
0.9583335068093676
 40
0.9687382961680394
 40
0.9791434612610561
 40
0.9895602818709304
 40
1.0
 40
1.0
 40
1.0
 40
1.0
 10
133.3563470052422
 20
144.1723280248103
 30
0.0
 10
133.3553266580142
 20
144.1723280248103
 30
0.0
 10
133.3532863250862
 20
144.1723280248103
 30
0.0
 10
133.3365500225189
 20
144.1723280248103
 30
0.0
 10
133.3098002185736
 20
144.1723280248103
 30
0.0
 10
133.2720562381715
 20
144.1723280248103
 30
0.0
 10
133.2235808612863
 20
144.1723280248103
 30
0.0
 10
133.1643040943987
 20
144.1723280248103
 30
0.0
 10
133.0942433035841
 20
144.1723280248103
 30
0.0
 10
133.013399614878
 20
144.1723280248103
 30
0.0
 10
132.9217516473028
 20
144.1723280248103
 30
0.0
 10
132.6883054833395
 20
144.1723280248103
 30
0.0
 10
132.2126509718495
 20
144.1723280248103
 30
0.0
 10
131.3153567845364
 20
144.1723280248103
 30
0.0
 10
130.1721416040846
 20
144.1723280248103
 30
0.0
 10
128.791770155872
 20
144.1723280248103
 30
0.0
 10
127.1938489194183
 20
144.1723280248103
 30
0.0
 10
125.3935331201321
 20
144.1723280248103
 30
0.0
 10
123.404903248767
 20
144.1723280248103
 30
0.0
 10
121.2490790345932
 20
144.1723280248103
 30
0.0
 10
118.946457535453
 20
144.1723280248103
 30
0.0
 10
116.5232131351806
 20
144.1723280248103
 30
0.0
 10
113.9964836605634
 20
144.1723280248103
 30
0.0
 10
111.393438959821
 20
144.1723280248103
 30
0.0
 10
108.7366629362885
 20
144.1723280248103
 30
0.0
 10
106.0594091580863
 20
144.1723280248103
 30
0.0
 10
103.3792508354277
 20
144.1723280248103
 30
0.0
 10
100.725275333123
 20
144.1723280248103
 30
0.0
 10
98.1188146027869
 20
144.1723280248103
 30
0.0
 10
95.59513899815079
 20
144.1723280248103
 30
0.0
 10
93.1695815494093
 20
144.1723280248103
 30
0.0
 10
90.86871874988027
 20
144.1723280248103
 30
0.0
 10
88.70938288420163
 20
144.1723280248103
 30
0.0
 10
86.72349196128782
 20
144.1723280248103
 30
0.0
 10
84.92180423744212
 20
144.1723280248103
 30
0.0
 10
83.32434151844959
 20
144.1723280248103
 30
0.0
 10
81.94086236165595
 20
144.1723280248103
 30
0.0
 10
80.7951152329415
 20
144.1723280248103
 30
0.0
 10
79.8914922512832
 20
144.1723280248103
 30
0.0
 10
79.38537788594583
 20
144.1723280248103
 30
0.0
 10
79.11702736236465
 20
144.1723280248103
 30
0.0
 10
78.98543642392012
 20
144.1723280248103
 30
0.0
 10
78.88292901301978
 20
144.1723280248103
 30
0.0
 10
78.81025450467865
 20
144.1723280248103
 30
0.0
 10
78.76475699258694
 20
144.1723280248103
 30
0.0
 10
78.75915238537736
 20
144.1723280248103
 30
0.0
 10
78.75634700524098
 20
144.1723280248103
 30
0.0
  0
LINE
  5
218
330
1F
100
AcDbEntity
  8
0
  6
Continuous
 62
     7
370
    18
100
AcDbLine
 10
78.0563470052
 20
147.4723280248
 30
0.0
 11
78.0563470052
 21
144.8723280248
 31
0.0
  0
LINE
  5
219
330
1F
100
AcDbEntity
  8
0
  6
Continuous
 62
     7
370
    18
100
AcDbLine
 10
134.0563470052
 20
144.8723280248
 30
0.0
 11
134.0563470052
 21
147.4723280248
 31
0.0
  0
SPLINE
  5
21A
330
1F
100
AcDbEntity
  8
0
  6
Continuous
 62
     7
370
    18
100
AcDbSpline
210
0.0
220
0.0
230
1.0
 70
    24
 71
     3
 72
     8
 73
     4
 74
     0
 42
0.00000001
 43
0.00000001
 40
0.0
 40
0.0
 40
0.0
 40
0.0
 40
1.0
 40
1.0
 40
1.0
 40
1.0
 10
107.3063470052362
 20
143.6723280256233
 30
0.0
 10
106.4726597935914
 20
143.6723280256233
 30
0.0
 10
105.6400342168918
 20
143.6723280256233
 30
0.0
 10
104.806347005247
 20
143.6723280256233
 30
0.0
  0
SPLINE
  5
21B
330
1F
100
AcDbEntity
  8
0
  6
Continuous
 62
     7
370
    18
100
AcDbSpline
210
0.0
220
0.0
230
1.0
 70
    24
 71
     3
 72
    10
 73
     6
 74
     0
 42
0.00000001
 43
0.00000001
 40
0.0
 40
0.0
 40
0.0
 40
0.0
 40
0.5
 40
0.5
 40
1.0
 40
1.0
 40
1.0
 40
1.0
 10
104.8063470052416
 20
143.6723280256233
 30
0.0
 10
104.8063470052416
 20
143.6723280256413
 30
0.0
 10
104.8063470052416
 20
143.7047684979244
 30
0.0
 10
104.8063470052416
 20
143.8153532642703
 30
0.0
 10
104.8063470052416
 20
143.8930494393584
 30
0.0
 10
104.8063470052416
 20
143.9723280248103
 30
0.0
  0
LINE
  5
21C
330
1F
100
AcDbEntity
  8
0
  6
Continuous
 62
     7
370
    18
100
AcDbLine
 10
104.8063470052
 20
143.9723280248
 30
0.0
 11
107.3063470052
 21
143.9723280248
 31
0.0
  0
SPLINE
  5
21D
330
1F
100
AcDbEntity
  8
0
  6
Continuous
 62
     7
370
    18
100
AcDbSpline
210
0.0
220
0.0
230
1.0
 70
    24
 71
     3
 72
    10
 73
     6
 74
     0
 42
0.00000001
 43
0.00000001
 40
0.0
 40
0.0
 40
0.0
 40
0.0
 40
0.5
 40
0.5
 40
1.0
 40
1.0
 40
1.0
 40
1.0
 10
107.3063470052416
 20
143.9723280248103
 30
0.0
 10
107.3063470052416
 20
143.8930509701578
 30
0.0
 10
107.3063470052416
 20
143.8155395091646
 30
0.0
 10
107.3063470052416
 20
143.7048855609196
 30
0.0
 10
107.3063470052416
 20
143.6723280256413
 30
0.0
 10
107.3063470052416
 20
143.6723280256233
 30
0.0
  0
LINE
  5
21E
330
1F
100
AcDbEntity
  8
0
  6
Continuous
 62
     7
370
    18
100
AcDbLine
 10
107.3063470052
 20
143.9723280248
 30
0.0
 11
107.3063470053
 21
144.1723280248
 31
0.0
  0
LINE
  5
21F
330
1F
100
AcDbEntity
  8
0
  6
Continuous
 62
     7
370
    18
100
AcDbLine
 10
104.8063470052
 20
144.1723280248
 30
0.0
 11
104.8063470052
 21
143.9723280248
 31
0.0
  0
LINE
  5
220
330
1F
100
AcDbEntity
  8
0
  6
Continuous
 62
     7
370
    18
100
AcDbLine
 10
85.7936019168
 20
152.6130874941
 30
0.0
 11
80.3734581272
 21
148.1723280248
 31
0.0
  0
SPLINE
  5
221
330
1F
100
AcDbEntity
  8
0
  6
Continuous
 62
     7
370
    18
100
AcDbSpline
210
0.0
220
0.0
230
1.0
 70
     8
 71
     3
 72
    38
 73
    34
 74
     0
 42
0.00000001
 43
0.00000001
 40
0.0
 40
0.0
 40
0.0
 40
0.0
 40
0.0625
 40
0.0625
 40
0.125
 40
0.125
 40
0.1875000000000001
 40
0.1875000000000001
 40
0.2500000000000001
 40
0.2500000000000001
 40
0.3125
 40
0.3125
 40
0.3749999999999999
 40
0.3749999999999999
 40
0.4374999999999999
 40
0.4374999999999999
 40
0.4999999999999999
 40
0.4999999999999999
 40
0.5624999999999999
 40
0.5624999999999999
 40
0.6249999999999999
 40
0.6249999999999999
 40
0.6874999999999999
 40
0.6874999999999999
 40
0.7499999999999999
 40
0.7499999999999999
 40
0.8125
 40
0.8125
 40
0.875
 40
0.875
 40
0.9375
 40
0.9375
 40
1.0
 40
1.0
 40
1.0
 40
1.0
 10
85.79360192625663
 20
152.613087501792
 30
0.0
 10
85.79347319638379
 20
152.6129820325602
 30
0.0
 10
85.92395991787238
 20
152.6128765633284
 30
0.0
 10
86.44117232636137
 20
152.6126656248647
 30
0.0
 10
86.82788524921833
 20
152.6125601556329
 30
0.0
 10
87.84271068859204
 20
152.6123492171693
 30
0.0
 10
88.47079813505478
 20
152.6122437479375
 30
0.0
 10
89.94425565581628
 20
152.6120328094739
 30
0.0
 10
90.78958931712798
 20
152.6119273402421
 30
0.0
 10
92.66507117336141
 20
152.6117164017785
 30
0.0
 10
93.69517301128819
 20
152.6116109325467
 30
0.0
 10
95.90061943433462
 20
152.6113999940831
 30
0.0
 10
97.07590949957986
 20
152.6112945248512
 30
0.0
 10
99.52657737854867
 20
152.6110835863877
 30
0.0
 10
100.8018946044156
 20
152.6109781171558
 30
0.0
 10
103.4036136952894
 20
152.6107671786922
 30
0.0
 10
104.7299512326281
 20
152.6106617094604
 30
0.0
 10
107.3827427778551
 20
152.6104507709968
 30
0.0
 10
108.7091311902449
 20
152.610345301765
 30
0.0
 10
111.3110498984448
 20
152.6101343633014
 30
0.0
 10
112.5865158517241
 20
152.6100288940696
 30
0.0
 10
115.0375675980638
 20
152.6098179556059
 30
0.0
 10
116.2130927743037
 20
152.6097124863741
 30
0.0
 10
118.4190774665161
 20
152.6095015479105
 30
0.0
 10
119.4494824210354
 20
152.6093960786787
 30
0.0
 10
121.3256143462108
 20
152.6091851402151
 30
0.0
 10
122.171294907818
 20
152.6090796709833
 30
0.0
 10
123.6454614209249
 20
152.6088687325197
 30
0.0
 10
124.2739108995989
 20
152.6087632632879
 30
0.0
 10
125.2894442079783
 20
152.6085523248242
 30
0.0
 10
125.6765029031168
 20
152.6084468555924
 30
0.0
 10
126.1943584082278
 20
152.6082359171288
 30
0.0
 10
126.3251423882499
 20
152.608130447897
 30
0.0
 10
126.3252711181228
 20
152.6080249786652
 30
0.0
  0
LINE
  5
222
330
1F
100
AcDbEntity
  8
0
  6
Continuous
 62
     7
370
    18
100
AcDbLine
 10
131.7392358832
 20
148.1723280248
 30
0.0
 11
126.3252712078
 21
152.6080249052
 31
0.0
  0
SPLINE
  5
223
330
1F
100
AcDbEntity
  8
0
  6
Continuous
 62
     7
370
    18
100
AcDbSpline
210
0.0
220
0.0
230
1.0
 70
     8
 71
     3
 72
    16
 73
    12
 74
     0
 42
0.00000001
 43
0.00000001
 40
0.0
 40
0.0
 40
0.0
 40
0.0
 40
0.0131780729898762
 40
0.1305776564345884
 40
0.2503019803593421
 40
0.3865874254156345
 40
0.5443625296290519
 40
0.6797427118030772
 40
0.8011698046253338
 40
0.9716951184775435
 40
1.0
 40
1.0
 40
1.0
 40
1.0
 10
120.9093999165438
 20
149.1531242575095
 30
0.0
 10
120.907001464931
 20
149.1406356850604
 30
0.0
 10
120.8832359120381
 20
149.0168900870614
 30
0.0
 10
120.6422101907135
 20
148.8697139644283
 30
0.0
 10
120.1978955698904
 20
148.7322163010406
 30
0.0
 10
119.5469438983013
 20
148.7248674894541
 30
0.0
 10
118.7862955001811
 20
148.8564797269363
 30
0.0
 10
118.049367915425
 20
149.1606970947277
 30
0.0
 10
117.4140423398997
 20
149.5963215803509
 30
0.0
 10
117.0765654554067
 20
149.9742652226724
 30
0.0
 10
116.9191425224504
 20
150.2090662045245
 30
0.0
 10
116.896732256958
 20
150.2424917813598
 30
0.0
  0
SPLINE
  5
224
330
1F
100
AcDbEntity
  8
0
  6
Continuous
 62
     7
370
    18
100
AcDbSpline
210
0.0
220
0.0
230
1.0
 70
     8
 71
     3
 72
    11
 73
     7
 74
     0
 42
0.00000001
 43
0.00000001
 40
0.0
 40
0.0
 40
0.0
 40
0.0
 40
0.2707678002968797
 40
0.5457240419587068
 40
0.8192308110272234
 40
1.0
 40
1.0
 40
1.0
 40
1.0
 10
116.8967322569581
 20
150.2424917813598
 30
0.0
 10
116.8232057358831
 20
150.3505158172484
 30
0.0
 10
116.6750153298295
 20
150.5682348866103
 30
0.0
 10
116.5720461217969
 20
150.8897650970626
 30
0.0
 10
116.5084286069215
 20
151.1772815964684
 30
0.0
 10
116.5806884510529
 20
151.319862193737
 30
0.0
 10
116.6094426767338
 20
151.3765990262179
 30
0.0
  0
LINE
  5
225
330
1F
100
AcDbEntity
  8
0
  6
Continuous
 62
     7
370
    18
100
AcDbLine
 10
110.1416236908
 20
148.9005613605
 30
0.0
 11
110.0154932134
 21
149.4847716206
 31
0.0
  0
SPLINE
  5
226
330
1F
100
AcDbEntity
  8
0
  6
Continuous
 62
     7
370
    18
100
AcDbSpline
210
0.0
220
0.0
230
1.0
 70
     8
 71
     3
 72
     9
 73
     5
 74
     0
 42
0.00000001
 43
0.00000001
 40
0.0
 40
0.0
 40
0.0
 40
0.0
 40
0.4999932038110983
 40
1.0
 40
1.0
 40
1.0
 40
1.0
 10
110.1416239192328
 20
148.9005613618251
 30
0.0
 10
110.2936725020224
 20
148.9011363395536
 30
0.0
 10
110.5977738010613
 20
148.9022863106413
 30
0.0
 10
110.9012386151833
 20
148.8991938131292
 30
0.0
 10
111.0529730846486
 20
148.897647543356
 30
0.0
  0
SPLINE
  5
227
330
1F
100
AcDbEntity
  8
0
  6
Continuous
 62
     7
370
    18
100
AcDbSpline
210
0.0
220
0.0
230
1.0
 70
     8
 71
     3
 72
    16
 73
    12
 74
     0
 42
0.00000001
 43
0.00000001
 40
0.0
 40
0.0
 40
0.0
 40
0.0
 40
0.0919495966865554
 40
0.2105447512832266
 40
0.3283973034450801
 40
0.440594953748077
 40
0.5904254621114868
 40
0.7134833783352953
 40
0.8370448362713014
 40
0.9529996473941731
 40
1.0
 40
1.0
 40
1.0
 40
1.0
 10
102.8895527949982
 20
149.9032518773429
 30
0.0
 10
102.8290995639064
 20
149.7984964674006
 30
0.0
 10
102.6906746989462
 20
149.5586291648058
 30
0.0
 10
102.2965416667056
 20
149.2277877752604
 30
0.0
 10
101.7352680389376
 20
148.9681321671955
 30
0.0
 10
101.0346007355983
 20
148.8237919375808
 30
0.0
 10
100.3248903076644
 20
148.8187259196301
 30
0.0
 10
99.6549652315786
 20
148.9336885589201
 30
0.0
 10
99.20524136874172
 20
149.1853497904892
 30
0.0
 10
98.96137557229282
 20
149.4521594372564
 30
0.0
 10
98.94821383660975
 20
149.6365844507886
 30
0.0
 10
98.94441766222745
 20
149.6897772460766
 30
0.0
  0
SPLINE
  5
228
330
1F
100
AcDbEntity
  8
0
  6
Continuous
 62
     7
370
    18
100
AcDbSpline
210
0.0
220
0.0
230
1.0
 70
     8
 71
     3
 72
    18
 73
    14
 74
     0
 42
0.00000001
 43
0.00000001
 40
0.0
 40
0.0
 40
0.0
 40
0.0
 40
0.1008127232372989
 40
0.1687437776420626
 40
0.2370070146897777
 40
0.3004157264838411
 40
0.3972171994081007
 40
0.490823469279873
 40
0.5716028053510502
 40
0.6752785273228347
 40
0.8751893388106825
 40
0.9995225411356794
 40
1.0
 40
1.0
 40
1.0
 40
1.0
 10
102.312392123872
 20
150.9539377404444
 30
0.0
 10
102.2890066577532
 20
151.059593051651
 30
0.0
 10
102.2498632662439
 20
151.2364425183495
 30
0.0
 10
102.0400409695913
 20
151.439562652553
 30
0.0
 10
101.7706160058849
 20
151.5492083206982
 30
0.0
 10
101.40181855243
 20
151.5887303676614
 30
0.0
 10
100.9668574894005
 20
151.5539477973358
 30
0.0
 10
100.5268634218423
 20
151.4013007395666
 30
0.0
 10
100.1649023080886
 20
151.1611303828358
 30
0.0
 10
99.84902233978033
 20
150.755705253974
 30
0.0
 10
99.73444288907396
 20
150.2970279755849
 30
0.0
 10
99.66454001877682
 20
149.9376360013175
 30
0.0
 10
99.72175679164583
 20
149.8189224698645
 30
0.0
 10
99.72197567242999
 20
149.8184683353589
 30
0.0
  0
SPLINE
  5
229
330
1F
100
AcDbEntity
  8
0
  6
Continuous
 62
     7
370
    18
100
AcDbSpline
210
0.0
220
0.0
230
1.0
 70
     8
 71
     3
 72
     8
 73
     4
 74
     0
 42
0.00000001
 43
0.00000001
 40
0.0000000000000006
 40
0.0000000000000006
 40
0.0000000000000006
 40
0.0000000000000006
 40
0.0007890545115526
 40
0.0007890545115526
 40
0.0007890545115526
 40
0.0007890545115526
 10
103.0976054683596
 20
151.0000460425356
 30
0.0
 10
102.8356055157115
 20
150.9869507732057
 30
0.0
 10
102.5738374092284
 20
150.9715781514221
 30
0.0
 10
102.3123964285506
 20
150.9539510749394
 30
0.0
  0
SPLINE
  5
22A
330
1F
100
AcDbEntity
  8
0
  6
Continuous
 62
     7
370
    18
100
AcDbSpline
210
0.0
220
0.0
230
1.0
 70
     8
 71
     3
 72
    17
 73
    13
 74
     0
 42
0.00000001
 43
0.00000001
 40
0.0
 40
0.0
 40
0.0
 40
0.0
 40
0.0137920534613111
 40
0.0518045120602779
 40
0.1146364811495426
 40
0.1819584419728263
 40
0.2563098584597024
 40
0.3260244802905012
 40
0.410346703836437
 40
0.5774614697550745
 40
0.7455465843288543
 40
0.9999999999999999
 40
0.9999999999999999
 40
0.9999999999999999
 40
0.9999999999999999
 10
90.38977923144542
 20
151.2495558419629
 30
0.0
 10
90.38624143634587
 20
151.2603824433312
 30
0.0
 10
90.37295307798675
 20
151.301048382071
 30
0.0
 10
90.26333831567196
 20
151.3398464198585
 30
0.0
 10
90.05983403522866
 20
151.3471642811395
 30
0.0
 10
89.75874865887708
 20
151.2855160670437
 30
0.0
 10
89.41593559079777
 20
151.1457975910514
 30
0.0
 10
89.05655825667839
 20
150.9176413511318
 30
0.0
 10
88.64986578408369
 20
150.547214965281
 30
0.0
 10
88.23936884877712
 20
150.0641731244747
 30
0.0
 10
87.72055266210508
 20
149.3939415893404
 30
0.0
 10
87.32520441882666
 20
148.9102543103162
 30
0.0
 10
87.08712503983257
 20
148.6189770149816
 30
0.0
  0
SPLINE
  5
22B
330
1F
100
AcDbEntity
  8
0
  6
Continuous
 62
     7
370
    18
100
AcDbSpline
210
0.0
220
0.0
230
1.0
 70
     8
 71
     3
 72
     8
 73
     4
 74
     0
 42
0.00000001
 43
0.00000001
 40
0.0
 40
0.0
 40
0.0
 40
0.0
 40
0.0008164888292024
 40
0.0008164888292024
 40
0.0008164888292024
 40
0.0008164888292024
 10
89.17174098236697
 20
148.734469968922
 30
0.0
 10
88.9682578502918
 20
148.7310327151222
 30
0.0
 10
88.76596925610744
 20
148.7254160327125
 30
0.0
 10
88.56493699691154
 20
148.7176270866495
 30
0.0
  0
SPLINE
  5
22C
330
1F
100
AcDbEntity
  8
0
  6
Continuous
 62
     7
370
    18
100
AcDbSpline
210
0.0
220
0.0
230
1.0
 70
     8
 71
     3
 72
    17
 73
    13
 74
     0
 42
0.00000001
 43
0.00000001
 40
0.0
 40
0.0
 40
0.0
 40
0.0
 40
0.0227617321199142
 40
0.0682387645686485
 40
0.1320090995693749
 40
0.1974332406168209
 40
0.2705258998723361
 40
0.3395352785217503
 40
0.4203317655301502
 40
0.5917154006670209
 40
0.7639288149864689
 40
1.0
 40
1.0
 40
1.0
 40
1.0
 10
92.52769290433807
 20
151.2466141932914
 30
0.0
 10
92.51894826936554
 20
151.2656658014694
 30
0.0
 10
92.49273220268016
 20
151.3227817625159
 30
0.0
 10
92.36028716015254
 20
151.3845290054305
 30
0.0
 10
92.12762717660736
 20
151.4054457137853
 30
0.0
 10
91.81053449530805
 20
151.3617319615378
 30
0.0
 10
91.45716155782104
 20
151.2340445165866
 30
0.0
 10
91.09559264677468
 20
151.0219562064613
 30
0.0
 10
90.69066972478358
 20
150.6515435555611
 30
0.0
 10
90.2881733681063
 20
150.1566521727412
 30
0.0
 10
89.78111474965621
 20
149.4840429897563
 30
0.0
 10
89.3949990891688
 20
149.0090924649555
 30
0.0
 10
89.17174604050506
 20
148.7344748737073
 30
0.0
  0
SPLINE
  5
22D
330
1F
100
AcDbEntity
  8
0
  6
Continuous
 62
     7
370
    18
100
AcDbSpline
210
0.0
220
0.0
230
1.0
 70
     8
 71
     3
 72
     8
 73
     4
 74
     0
 42
0.00000001
 43
0.00000001
 40
0.0000000001210761
 40
0.0000000001210761
 40
0.0000000001210761
 40
0.0000000001210761
 40
0.0008164902528698
 40
0.0008164902528698
 40
0.0008164902528698
 40
0.0008164902528698
 10
91.34415257864879
 20
148.6911646753431
 30
0.0
 10
91.1327677678381
 20
148.7028610219582
 30
0.0
 10
90.9224143960354
 20
148.712394086808
 30
0.0
 10
90.71316392494883
 20
148.7197517635816
 30
0.0
  0
SPLINE
  5
22E
330
1F
100
AcDbEntity
  8
0
  6
Continuous
 62
     7
370
    18
100
AcDbSpline
210
0.0
220
0.0
230
1.0
 70
     8
 71
     3
 72
    11
 73
     7
 74
     0
 42
0.00000001
 43
0.00000001
 40
0.0
 40
0.0
 40
0.0
 40
0.0
 40
0.0516033877338644
 40
0.1347869064539209
 40
0.2777365331982015
 40
1.0
 40
1.0
 40
1.0
 40
1.0
 10
93.30170780070134
 20
151.5697738212785
 30
0.0
 10
93.32205191825324
 20
151.5339855513338
 30
0.0
 10
93.37519030295577
 20
151.4405073824576
 30
0.0
 10
93.301331112207
 20
151.1729354388836
 30
0.0
 10
92.65670146053066
 20
150.2413282049456
 30
0.0
 10
91.94132962269705
 20
149.3964504704394
 30
0.0
 10
91.34415079183998
 20
148.6911625753532
 30
0.0
  0
SPLINE
  5
22F
330
1F
100
AcDbEntity
  8
0
  6
Continuous
 62
     7
370
    18
100
AcDbSpline
210
0.0
220
0.0
230
1.0
 70
     8
 71
     3
 72
     8
 73
     4
 74
     0
 42
0.00000001
 43
0.00000001
 40
0.0000000000000005
 40
0.0000000000000005
 40
0.0000000000000005
 40
0.0000000000000005
 40
0.0008164854051781
 40
0.0008164854051781
 40
0.0008164854051781
 40
0.0008164854051781
 10
87.08711324215717
 20
148.6189639182682
 30
0.0
 10
86.89252549933713
 20
148.6004715679327
 30
0.0
 10
86.69925079285544
 20
148.5798338104685
 30
0.0
 10
86.50733658665082
 20
148.5570761921524
 30
0.0
  0
SPLINE
  5
230
330
1F
100
AcDbEntity
  8
0
  6
Continuous
 62
     7
370
    18
100
AcDbSpline
210
0.0
220
0.0
230
1.0
 70
     8
 71
     3
 72
     8
 73
     4
 74
     0
 42
0.00000001
 43
0.00000001
 40
0.0
 40
0.0
 40
0.0
 40
0.0
 40
1.0
 40
1.0
 40
1.0
 40
1.0
 10
97.75433997946415
 20
150.2142388053027
 30
0.0
 10
96.65880723349728
 20
150.2512624933328
 30
0.0
 10
95.5791037453301
 20
150.243230701149
 30
0.0
 10
94.51516979706668
 20
150.1903134063039
 30
0.0
  0
SPLINE
  5
231
330
1F
100
AcDbEntity
  8
0
  6
Continuous
 62
     7
370
    18
100
AcDbSpline
210
0.0
220
0.0
230
1.0
 70
     8
 71
     3
 72
    15
 73
    11
 74
     0
 42
0.00000001
 43
0.00000001
 40
0.0
 40
0.0
 40
0.0
 40
0.0
 40
0.101638984252512
 40
0.233946558725845
 40
0.3644679586760198
 40
0.4880208381840703
 40
0.6914806207435515
 40
0.8301512155231834
 40
0.9692546419513132
 40
1.0
 40
1.0
 40
1.0
 40
1.0
 10
97.49234928189992
 20
149.73986604993
 30
0.0
 10
97.39154404795649
 20
149.6384189491568
 30
0.0
 10
97.15951656602067
 20
149.404914056392
 30
0.0
 10
96.6537904035443
 20
149.0962058457993
 30
0.0
 10
96.03023441332343
 20
148.8751184814502
 30
0.0
 10
95.28803569131773
 20
148.7643610392245
 30
0.0
 10
94.57082429315525
 20
148.7669482471014
 30
0.0
 10
93.9988934985071
 20
148.9386971725247
 30
0.0
 10
93.72783111036469
 20
149.1326824920479
 30
0.0
 10
93.69655972272389
 20
149.2868791416925
 30
0.0
 10
93.6908990992896
 20
149.3147912119368
 30
0.0
  0
SPLINE
  5
232
330
1F
100
AcDbEntity
  8
0
  6
Continuous
 62
     7
370
    18
100
AcDbSpline
210
0.0
220
0.0
230
1.0
 70
     8
 71
     3
 72
    10
 73
     6
 74
     0
 42
0.00000001
 43
0.00000001
 40
0.0
 40
0.0
 40
0.0
 40
0.0
 40
0.1152236178898523
 40
0.6365055866083732
 40
1.0
 40
1.0
 40
1.0
 40
1.0
 10
97.9751501078591
 20
151.2691966846433
 30
0.0
 10
97.99249200755116
 20
151.2341376505917
 30
0.0
 10
98.08829021488539
 20
151.0404684060079
 30
0.0
 10
97.98057623135905
 20
150.6618387326166
 30
0.0
 10
97.82022091125378
 20
150.3445830011179
 30
0.0
 10
97.75434182113061
 20
150.2142442077821
 30
0.0
  0
SPLINE
  5
233
330
1F
100
AcDbEntity
  8
0
  6
Continuous
 62
     7
370
    18
100
AcDbSpline
210
0.0
220
0.0
230
1.0
 70
     8
 71
     3
 72
    10
 73
     6
 74
     0
 42
0.00000001
 43
0.00000001
 40
0.0
 40
0.0
 40
0.0
 40
0.0
 40
0.4913515345953399
 40
0.9862013522675459
 40
1.0
 40
1.0
 40
1.0
 40
1.0
 10
94.51516505484682
 20
150.1903068053718
 30
0.0
 10
94.47925769189283
 20
150.0851420253768
 30
0.0
 10
94.40718731578066
 20
149.8740637220854
 30
0.0
 10
94.38204147526955
 20
149.6555847690319
 30
0.0
 10
94.44457127603333
 20
149.5760280870244
 30
0.0
 10
94.44626758842234
 20
149.5738698683244
 30
0.0
  0
SPLINE
  5
234
330
1F
100
AcDbEntity
  8
0
  6
Continuous
 62
     7
370
    18
100
AcDbSpline
210
0.0
220
0.0
230
1.0
 70
     8
 71
     3
 72
    10
 73
     6
 74
     0
 42
0.00000001
 43
0.00000001
 40
0.0
 40
0.0
 40
0.0
 40
0.0
 40
0.5
 40
0.5
 40
1.0
 40
1.0
 40
1.0
 40
1.0
 10
107.4444251318471
 20
148.8971693536282
 30
0.0
 10
107.3997644012869
 20
148.9581606188856
 30
0.0
 10
107.3633597447004
 20
149.0211323544051
 30
0.0
 10
107.3100920293877
 20
149.1502450119015
 30
0.0
 10
107.2926826482575
 20
149.2159710042974
 30
0.0
 10
107.2793160129129
 20
149.281853504841
 30
0.0
  0
SPLINE
  5
235
330
1F
100
AcDbEntity
  8
0
  6
Continuous
 62
     7
370
    18
100
AcDbSpline
210
0.0
220
0.0
230
1.0
 70
     8
 71
     3
 72
     8
 73
     4
 74
     0
 42
0.00000001
 43
0.00000001
 40
0.0000000000000002
 40
0.0000000000000002
 40
0.0000000000000002
 40
0.0000000000000002
 40
0.0008384051990232
 40
0.0008384051990232
 40
0.0008384051990232
 40
0.0008384051990232
 10
108.2819179546134
 20
148.8697296467618
 30
0.0
 10
108.0029039897017
 20
148.8811781703115
 30
0.0
 10
107.7237048715581
 20
148.8903246572889
 30
0.0
 10
107.4444155314389
 20
148.8971566394033
 30
0.0
  0
SPLINE
  5
236
330
1F
100
AcDbEntity
  8
0
  6
Continuous
 62
     7
370
    18
100
AcDbSpline
210
0.0
220
0.0
230
1.0
 70
     8
 71
     3
 72
     8
 73
     4
 74
     0
 42
0.00000001
 43
0.00000001
 40
0.0000000000000003
 40
0.0000000000000003
 40
0.0000000000000003
 40
0.0000000000000003
 40
0.0008015067584541
 40
0.0008015067584541
 40
0.0008015067584541
 40
0.0008015067584541
 10
104.7871841217662
 20
150.9941309597216
 30
0.0
 10
104.5223412152184
 20
151.0081412322376
 30
0.0
 10
104.2575910401855
 20
151.0198092522624
 30
0.0
 10
103.9930372320001
 20
151.0291169341548
 30
0.0
  0
LWPOLYLINE
  5
237
330
1F
100
AcDbEntity
  8
0
  6
Continuous
 62
     7
370
    18
100
AcDbPolyline
 90
       12
 70
   128
 43
0.0
 10
107.1964717562
 20
151.0313192743
 10
107.1879704857
 20
151.1503848882
 10
107.1135276435
 20
151.2963027638
 10
106.9948530544
 20
151.3997011517
 10
106.7538952253
 20
151.5036021773
 10
106.3294915657
 20
151.5806019342
 10
105.6139679181
 20
151.5657408202
 10
105.3081040932
 20
151.4994401465
 10
105.0938677046
 20
151.3938799542
 10
104.9025624004
 20
151.2077934042
 10
104.7871856969
 20
150.994122058
 10
104.7871856969
 20
150.994122058
  0
SPLINE
  5
238
330
1F
100
AcDbEntity
  8
0
  6
Continuous
 62
     7
370
    18
100
AcDbSpline
210
0.0
220
0.0
230
1.0
 70
     8
 71
     3
 72
    15
 73
    11
 74
     0
 42
0.00000001
 43
0.00000001
 40
0.0
 40
0.0
 40
0.0
 40
0.0
 40
0.1193436447887733
 40
0.3113218167007037
 40
0.4974957896139278
 40
0.639490080982312
 40
0.7475691428796397
 40
0.8560343165105264
 40
0.9549354726829237
 40
1.0
 40
1.0
 40
1.0
 40
1.0
 10
107.2793160040753
 20
149.2818535454503
 30
0.0
 10
107.1485672513991
 20
149.2155406358253
 30
0.0
 10
106.8074938805754
 20
149.0425556768716
 30
0.0
 10
106.1416520475643
 20
148.863366495309
 30
0.0
 10
105.392085635709
 20
148.8249144798444
 30
0.0
 10
104.7702769960101
 20
148.8752605020761
 30
0.0
 10
104.3109229736815
 20
149.0183034721252
 30
0.0
 10
104.0155918415459
 20
149.2279117415728
 30
0.0
 10
103.8779076971309
 20
149.4403956304479
 30
0.0
 10
103.8781950867888
 20
149.5707081904415
 30
0.0
 10
103.8782850462763
 20
149.6114989801439
 30
0.0
  0
SPLINE
  5
239
330
1F
100
AcDbEntity
  8
0
  6
Continuous
 62
     7
370
    18
100
AcDbSpline
210
0.0
220
0.0
230
1.0
 70
     8
 71
     3
 72
    14
 73
    10
 74
     0
 42
0.00000001
 43
0.00000001
 40
0.0
 40
0.0
 40
0.0
 40
0.0
 40
0.1797540851072106
 40
0.30101421305461
 40
0.4226043808391705
 40
0.538718985858115
 40
0.7059777841527176
 40
0.8705566606978453
 40
1.0
 40
1.0
 40
1.0
 40
1.0
 10
115.077026706995
 20
150.9072110071795
 30
0.0
 10
114.9880339789335
 20
151.0141077783653
 30
0.0
 10
114.8390077357245
 20
151.1931159351891
 30
0.0
 10
114.5062573035771
 20
151.3988442117845
 30
0.0
 10
114.1770529889369
 20
151.514045237719
 30
0.0
 10
113.799139710782
 20
151.560664595977
 30
0.0
 10
113.4086780646139
 20
151.5307799493433
 30
0.0
 10
113.0811464756832
 20
151.3971139303773
 30
0.0
 10
112.9775315599595
 20
151.2529810718529
 30
0.0
 10
112.9319150725994
 20
151.1895265520752
 30
0.0
  0
SPLINE
  5
23A
330
1F
100
AcDbEntity
  8
0
  6
Continuous
 62
     7
370
    18
100
AcDbSpline
210
0.0
220
0.0
230
1.0
 70
     8
 71
     3
 72
     9
 73
     5
 74
     0
 42
0.00000001
 43
0.00000001
 40
0.0
 40
0.0
 40
0.0
 40
0.0
 40
0.7900722556210634
 40
1.0
 40
1.0
 40
1.0
 40
1.0
 10
115.5158132195541
 20
149.6067027969553
 30
0.0
 10
115.5310862317996
 20
149.6945210203619
 30
0.0
 10
115.5504173906106
 20
149.8056731621841
 30
0.0
 10
115.5306636487931
 20
149.9242911966101
 30
0.0
 10
115.5265167903303
 20
149.9491924130198
 30
0.0
  0
SPLINE
  5
23B
330
1F
100
AcDbEntity
  8
0
  6
Continuous
 62
     7
370
    18
100
AcDbSpline
210
0.0
220
0.0
230
1.0
 70
     8
 71
     3
 72
     8
 73
     4
 74
     0
 42
0.00000001
 43
0.00000001
 40
0.0000000000000002
 40
0.0000000000000002
 40
0.0000000000000002
 40
0.0000000000000002
 40
0.0007933964776754
 40
0.0007933964776754
 40
0.0007933964776754
 40
0.0007933964776754
 10
115.7788555696349
 20
150.939863853829
 30
0.0
 10
115.5457158447048
 20
150.9312797942742
 30
0.0
 10
115.311740712223
 20
150.9203934659121
 30
0.0
 10
115.0770226580104
 20
150.9072212552765
 30
0.0
  0
SPLINE
  5
23C
330
1F
100
AcDbEntity
  8
0
  6
Continuous
 62
     7
370
    18
100
AcDbSpline
210
0.0
220
0.0
230
1.0
 70
     8
 71
     3
 72
    18
 73
    14
 74
     0
 42
0.00000001
 43
0.00000001
 40
0.0
 40
0.0
 40
0.0
 40
0.0
 40
0.0600754141985678
 40
0.1511890812029735
 40
0.2366294067728001
 40
0.3520726673157149
 40
0.446786034468008
 40
0.5418593623863239
 40
0.6329586203743771
 40
0.7570818705093215
 40
0.8534914819787227
 40
0.9496937522039833
 40
1.0
 40
1.0
 40
1.0
 40
1.0
 10
116.2483467371274
 20
149.4170455943564
 30
0.0
 10
116.2217211867079
 20
149.3377883434043
 30
0.0
 10
116.1547138666895
 20
149.1383252001205
 30
0.0
 10
115.8154184144487
 20
148.9248534960535
 30
0.0
 10
115.2522006840626
 20
148.7905895015811
 30
0.0
 10
114.5705553984711
 20
148.7962181540376
 30
0.0
 10
113.8409272971141
 20
148.9239231067627
 30
0.0
 10
113.2117268602851
 20
149.1821656241235
 30
0.0
 10
112.6568773949717
 20
149.5758470396083
 30
0.0
 10
112.3092530763024
 20
150.0438376136911
 30
0.0
 10
112.1069519947722
 20
150.5247583817238
 30
0.0
 10
112.0194155213419
 20
150.9013406481318
 30
0.0
 10
112.0790553343707
 20
151.1087913749743
 30
0.0
 10
112.0995337014531
 20
151.1800231900998
 30
0.0
  0
SPLINE
  5
23D
330
1F
100
AcDbEntity
  8
0
  6
Continuous
 62
     7
370
    18
100
AcDbSpline
210
0.0
220
0.0
230
1.0
 70
     8
 71
     3
 72
     8
 73
     4
 74
     0
 42
0.00000001
 43
0.00000001
 40
0.0000000000000001
 40
0.0000000000000001
 40
0.0000000000000001
 40
0.0000000000000001
 40
0.0008202480349412
 40
0.0008202480349412
 40
0.0008202480349412
 40
0.0008202480349412
 10
123.8043980562468
 20
148.6544689403383
 30
0.0
 10
123.6177941918727
 20
148.6469298674012
 30
0.0
 10
123.4299139922738
 20
148.6372024408114
 30
0.0
 10
123.2408227444264
 20
148.6252990468223
 30
0.0
  0
SPLINE
  5
23E
330
1F
100
AcDbEntity
  8
0
  6
Continuous
 62
     7
370
    18
100
AcDbSpline
210
0.0
220
0.0
230
1.0
 70
     8
 71
     3
 72
    24
 73
    20
 74
     0
 42
0.00000001
 43
0.00000001
 40
0.0
 40
0.0
 40
0.0
 40
0.0
 40
0.249999999999999
 40
0.249999999999999
 40
0.499999999999998
 40
0.499999999999998
 40
0.6249999999999976
 40
0.6249999999999976
 40
0.6874999999999979
 40
0.6874999999999979
 40
0.7499999999999983
 40
0.7499999999999983
 40
0.8124999999999988
 40
0.8124999999999988
 40
0.8749999999999991
 40
0.8749999999999991
 40
0.9374999999999996
 40
0.9374999999999996
 40
1.0
 40
1.0
 40
1.0
 40
1.0
 10
125.1644295622457
 20
148.6704762775305
 30
0.0
 10
124.9216363211846
 20
148.9361455149961
 30
0.0
 10
124.678804770919
 20
149.2018159846267
 30
0.0
 10
124.1965163126632
 20
149.7330845650004
 30
0.0
 10
123.9582739086306
 20
149.9986491579465
 30
0.0
 10
123.5952413771438
 20
150.3971282572568
 30
0.0
 10
123.4734900286525
 20
150.530026477703
 30
0.0
 10
123.2869428343275
 20
150.7292141984087
 30
0.0
 10
123.2233408280642
 20
150.7954932959136
 30
0.0
 10
123.0835675287404
 20
150.9269892292837
 30
0.0
 10
123.0066082877296
 20
150.9927359325593
 30
0.0
 10
122.841679694973
 20
151.116610827026
 30
0.0
 10
122.7512965997889
 20
151.1742223514707
 30
0.0
 10
122.5648215967757
 20
151.2653839778275
 30
0.0
 10
122.4741136837014
 20
151.2949257773828
 30
0.0
 10
122.3085362053403
 20
151.3293297768418
 30
0.0
 10
122.2323945307564
 20
151.3349695548803
 30
0.0
 10
122.0953789061164
 20
151.3307865231965
 30
0.0
 10
122.0344937636108
 20
151.3206458445519
 30
0.0
 10
121.9829423716817
 20
151.3008376402547
 30
0.0
  0
SPLINE
  5
23F
330
1F
100
AcDbEntity
  8
0
  6
Continuous
 62
     7
370
    18
100
AcDbSpline
210
0.0
220
0.0
230
1.0
 70
     8
 71
     3
 72
     8
 73
     4
 74
     0
 42
0.00000001
 43
0.00000001
 40
0.0
 40
0.0
 40
0.0
 40
0.0
 40
0.000816490373215
 40
0.000816490373215
 40
0.000816490373215
 40
0.000816490373215
 10
125.697971815263
 20
148.6542604666872
 30
0.0
 10
125.5215078577294
 20
148.6618320644305
 30
0.0
 10
125.3436442820121
 20
148.6672378073947
 30
0.0
 10
125.1644344887784
 20
148.6704708416627
 30
0.0
  0
SPLINE
  5
240
330
1F
100
AcDbEntity
  8
0
  6
Continuous
 62
     7
370
    18
100
AcDbSpline
210
0.0
220
0.0
230
1.0
 70
     8
 71
     3
 72
    16
 73
    12
 74
     0
 42
0.00000001
 43
0.00000001
 40
0.0
 40
0.0
 40
0.0
 40
0.0
 40
0.1026405677868738
 40
0.3079222114910815
 40
0.6653950997507733
 40
0.7283071587972338
 40
0.7772455218316848
 40
0.8264866887120285
 40
0.8836371357437075
 40
0.940375157261949
 40
1.0
 40
1.0
 40
1.0
 40
1.0
 10
126.989732869652
 20
148.5573596156189
 30
0.0
 10
126.8910628632987
 20
148.6645107233348
 30
0.0
 10
126.5950523557648
 20
148.9859645769428
 30
0.0
 10
125.9528429300391
 20
149.6807700807826
 30
0.0
 10
125.3754087049822
 20
150.330128875273
 30
0.0
 10
124.8862512506047
 20
150.8243131299509
 30
0.0
 10
124.6789620593094
 20
150.9918233767552
 30
0.0
 10
124.455969305254
 20
151.1252731680744
 30
0.0
 10
124.2314134946621
 20
151.2208601944914
 30
0.0
 10
124.0220078041933
 20
151.2694167424729
 30
0.0
 10
123.9263931536433
 20
151.2526491939078
 30
0.0
 10
123.8773997867394
 20
151.244057428376
 30
0.0
  0
SPLINE
  5
241
330
1F
100
AcDbEntity
  8
0
  6
Continuous
 62
     7
370
    18
100
AcDbSpline
210
0.0
220
0.0
230
1.0
 70
     8
 71
     3
 72
     8
 73
     4
 74
     0
 42
0.00000001
 43
0.00000001
 40
0.0000000004212543
 40
0.0000000004212543
 40
0.0000000004212543
 40
0.0000000004212543
 40
0.0008164907235196
 40
0.0008164907235196
 40
0.0008164907235196
 40
0.0008164907235196
 10
127.4933805789799
 20
148.496216358401
 30
0.0
 10
127.3269711425688
 20
148.5187155421294
 30
0.0
 10
127.1590801579688
 20
148.5391001851236
 30
0.0
 10
126.9897460768806
 20
148.5573451923456
 30
0.0
  0
LINE
  5
242
330
1F
100
AcDbEntity
  8
0
  6
Continuous
 62
     7
370
    18
100
AcDbLine
 10
123.2870213978
 20
151.5023436531
 30
0.0
 11
123.3249049695
 21
151.5614217513
 31
0.0
  0
SPLINE
  5
243
330
1F
100
AcDbEntity
  8
0
  6
Continuous
 62
     7
370
    18
100
AcDbSpline
210
0.0
220
0.0
230
1.0
 70
     8
 71
     3
 72
     8
 73
     4
 74
     0
 42
0.00000001
 43
0.00000001
 40
0.0
 40
0.0
 40
0.0
 40
0.0
 40
0.0047849072595309
 40
0.0047849072595309
 40
0.0047849072595309
 40
0.0047849072595309
 10
123.2408227462316
 20
148.6252990425744
 30
0.0
 10
122.3187213660458
 20
149.6337066907433
 30
0.0
 10
121.3964279567702
 20
150.6417693556567
 30
0.0
 10
120.4738231826441
 20
151.6492712634412
 30
0.0
  0
SPLINE
  5
244
330
1F
100
AcDbEntity
  8
0
  6
Continuous
 62
     7
370
    18
100
AcDbSpline
210
0.0
220
0.0
230
1.0
 70
     8
 71
     3
 72
     8
 73
     4
 74
     0
 42
0.00000001
 43
0.00000001
 40
0.0000000000000001
 40
0.0000000000000001
 40
0.0000000000000001
 40
0.0000000000000001
 40
0.0007594300695832
 40
0.0007594300695832
 40
0.0007594300695832
 40
0.0007594300695832
 10
84.46271632416193
 20
148.5775702946975
 30
0.0
 10
84.32734406180789
 20
148.5726910972408
 30
0.0
 10
84.19327822471695
 20
148.5659416580134
 30
0.0
 10
84.06055146697238
 20
148.5573293056419
 30
0.0
  0
SPLINE
  5
245
330
1F
100
AcDbEntity
  8
0
  6
Continuous
 62
     7
370
    18
100
AcDbSpline
210
0.0
220
0.0
230
1.0
 70
     8
 71
     3
 72
    20
 73
    16
 74
     0
 42
0.00000001
 43
0.00000001
 40
0.0
 40
0.0
 40
0.0
 40
0.0
 40
0.0005101302227664
 40
0.0005101302227664
 40
0.0005101302227664
 40
0.0015303936245118
 40
0.0015303936245118
 40
0.0015303936245118
 40
0.0033228524449675
 40
0.0033228524449675
 40
0.0033228524449675
 40
0.004219106183337
 40
0.004219106183337
 40
0.004219106183337
 40
0.0051153659562111
 40
0.0051153659562111
 40
0.0051153659562111
 40
0.0051153659562111
 10
88.5482164109863
 20
151.6121544122312
 30
0.0
 10
88.41157252571193
 20
151.5125084454669
 30
0.0
 10
88.27502443093667
 20
151.4127188858257
 30
0.0
 10
88.13856807652405
 20
151.3127929674657
 30
0.0
 10
87.86565497492111
 20
151.1129408431177
 30
0.0
 10
87.5931077929582
 20
150.9125430691786
 30
0.0
 10
87.3208967135142
 20
150.7116520294168
 30
0.0
 10
86.84266168940587
 20
150.358715876194
 30
0.0
 10
86.3654587602441
 20
150.0042571072017
 30
0.0
 10
85.88914825698454
 20
149.6485140676619
 30
0.0
 10
85.65098572244092
 20
149.4706371084867
 30
0.0
 10
85.41304597907589
 20
149.2924376733349
 30
0.0
 10
85.17531381676069
 20
149.1139410736466
 30
0.0
 10
84.93758003276409
 20
148.9354432563501
 30
0.0
 10
84.70005344712325
 20
148.7566479520401
 30
0.0
 10
84.46272015378229
 20
148.577577957696
 30
0.0
  0
SPLINE
  5
246
330
1F
100
AcDbEntity
  8
0
  6
Continuous
 62
     7
370
    18
100
AcDbSpline
210
0.0
220
0.0
230
1.0
 70
     8
 71
     3
 72
    10
 73
     6
 74
     0
 42
0.00000001
 43
0.00000001
 40
0.0
 40
0.0
 40
0.0
 40
0.0
 40
0.1813814115240915
 40
0.9069155774889816
 40
0.9999999999999999
 40
0.9999999999999999
 40
0.9999999999999999
 40
0.9999999999999999
 10
86.66249029329346
 20
151.5351108701271
 30
0.0
 10
86.58753024791653
 20
151.4375524107701
 30
0.0
 10
86.21272650000003
 20
150.9497555314584
 30
0.0
 10
85.817839529021
 20
150.4133044591335
 30
0.0
 10
85.47222415635089
 20
149.959867539366
 30
0.0
 10
85.43292452667131
 20
149.9083076133933
 30
0.0
  0
LINE
  5
247
330
1F
100
AcDbEntity
  8
0
  6
Continuous
 62
     7
370
    18
100
AcDbLine
 10
107.3063470052
 20
141.1723280248
 30
0.0
 11
104.8063470052
 21
141.1723280248
 31
0.0
  0
LINE
  5
248
330
1F
100
AcDbEntity
  8
0
  6
Continuous
 62
     7
370
    18
100
AcDbLine
 10
107.3063470052
 20
143.6723280247
 30
0.0
 11
107.3063470052
 21
141.1723280248
 31
0.0
  0
LINE
  5
249
330
1F
100
AcDbEntity
  8
0
  6
Continuous
 62
     7
370
    18
100
AcDbLine
 10
104.8063470052
 20
141.1723280248
 30
0.0
 11
104.8063470052
 21
143.6723280247
 31
0.0
  0
SPLINE
  5
24A
330
1F
100
AcDbEntity
  8
0
  6
Continuous
 62
     7
370
    18
100
AcDbSpline
210
0.0
220
0.0
230
1.0
 70
     8
 71
     3
 72
     8
 73
     4
 74
     0
 42
0.00000001
 43
0.00000001
 40
0.0
 40
0.0
 40
0.0
 40
0.0
 40
0.0001530011753555
 40
0.0001530011753555
 40
0.0001530011753555
 40
0.0001530011753555
 10
107.2225771600979
 20
151.1164316800623
 30
0.0
 10
107.2220474209411
 20
151.084151016273
 30
0.0
 10
107.2207880342917
 20
151.0518935245991
 30
0.0
 10
107.2192681219088
 20
151.0196499521792
 30
0.0
  0
SPLINE
  5
24B
330
1F
100
AcDbEntity
  8
0
  6
Continuous
 62
     7
370
    18
100
AcDbSpline
210
0.0
220
0.0
230
1.0
 70
     8
 71
     3
 72
    26
 73
    22
 74
     0
 42
0.00000001
 43
0.00000001
 40
0.0
 40
0.0
 40
0.0
 40
0.0
 40
0.1249999999999989
 40
0.1249999999999989
 40
0.1874999999999983
 40
0.1874999999999983
 40
0.2499999999999977
 40
0.2499999999999977
 40
0.3749999999999981
 40
0.3749999999999981
 40
0.4999999999999986
 40
0.4999999999999986
 40
0.624999999999999
 40
0.624999999999999
 40
0.7499999999999994
 40
0.7499999999999994
 40
0.875
 40
0.875
 40
0.9375
 40
0.9375
 40
1.0
 40
1.0
 40
1.0
 40
1.0
 10
107.2225771600979
 20
151.1164316800623
 30
0.0
 10
107.2241119875068
 20
151.2099593095007
 30
0.0
 10
107.216825948781
 20
151.3029724253991
 30
0.0
 10
107.1583258080686
 20
151.4396055096363
 30
0.0
 10
107.1299045719543
 20
151.4848774017217
 30
0.0
 10
107.0495342477325
 20
151.5650338217148
 30
0.0
 10
106.99503890466
 20
151.60030696929
 30
0.0
 10
106.8148192152915
 20
151.6869240817531
 30
0.0
 10
106.6753317913808
 20
151.7259114321858
 30
0.0
 10
106.3867552774967
 20
151.7737311896985
 30
0.0
 10
106.2384389060869
 20
151.7832103577482
 30
0.0
 10
105.943926995541
 20
151.786130188413
 30
0.0
 10
105.7950467863521
 20
151.7805682879959
 30
0.0
 10
105.5031082662711
 20
151.7471199320983
 30
0.0
 10
105.3568967452224
 20
151.7193296323701
 30
0.0
 10
105.1077171998402
 20
151.6140992885547
 30
0.0
 10
105.0084311877281
 20
151.5368002799652
 30
0.0
 10
104.899874265402
 20
151.4116100908442
 30
0.0
 10
104.8697774176775
 20
151.3682587442945
 30
0.0
 10
104.818875423649
 20
151.2791235287076
 30
0.0
 10
104.7984760892492
 20
151.2332065365434
 30
0.0
 10
104.7780943954547
 20
151.1874304950342
 30
0.0
  0
SPLINE
  5
24C
330
1F
100
AcDbEntity
  8
0
  6
Continuous
 62
     7
370
    18
100
AcDbSpline
210
0.0
220
0.0
230
1.0
 70
     8
 71
     3
 72
     9
 73
     5
 74
     0
 42
0.00000001
 43
0.00000001
 40
0.0
 40
0.0
 40
0.0
 40
0.0
 40
0.5002402437094742
 40
1.0
 40
1.0
 40
1.0
 40
1.0
 10
104.7781037851492
 20
151.1874104516292
 30
0.0
 10
104.644691069152
 20
151.1941737666288
 30
0.0
 10
104.3779937818488
 20
151.207693900374
 30
0.0
 10
104.1115148162716
 20
151.217662126765
 30
0.0
 10
103.9783393533782
 20
151.2226438451569
 30
0.0
  0
SPLINE
  5
24D
330
1F
100
AcDbEntity
  8
0
  6
Continuous
 62
     7
370
    18
100
AcDbSpline
210
0.0
220
0.0
230
1.0
 70
     8
 71
     3
 72
     8
 73
     4
 74
     0
 42
0.00000001
 43
0.00000001
 40
0.0
 40
0.0
 40
0.0
 40
0.0
 40
1.0
 40
1.0
 40
1.0
 40
1.0
 10
103.978341004944
 20
151.2226436066677
 30
0.0
 10
104.0065796122396
 20
151.3018241310045
 30
0.0
 10
104.0363352934233
 20
151.3808011765582
 30
0.0
 10
104.0803862807323
 20
151.4578399401161
 30
0.0
  0
SPLINE
  5
24E
330
1F
100
AcDbEntity
  8
0
  6
Continuous
 62
     7
370
    18
100
AcDbSpline
210
0.0
220
0.0
230
1.0
 70
     8
 71
     3
 72
    40
 73
    36
 74
     0
 42
0.00000001
 43
0.00000001
 40
0.0
 40
0.0
 40
0.0
 40
0.0
 40
0.0625000000000004
 40
0.0625000000000004
 40
0.1250000000000008
 40
0.1250000000000008
 40
0.1875000000000012
 40
0.1875000000000012
 40
0.2500000000000016
 40
0.2500000000000016
 40
0.312500000000002
 40
0.312500000000002
 40
0.3750000000000024
 40
0.3750000000000024
 40
0.4375000000000028
 40
0.4375000000000028
 40
0.4687500000000031
 40
0.4687500000000031
 40
0.5000000000000033
 40
0.5000000000000033
 40
0.5312500000000036
 40
0.5312500000000036
 40
0.5625000000000038
 40
0.5625000000000038
 40
0.6250000000000032
 40
0.6250000000000032
 40
0.7500000000000021
 40
0.7500000000000021
 40
0.8750000000000011
 40
0.8750000000000011
 40
0.9375000000000006
 40
0.9375000000000006
 40
0.9687500000000003
 40
0.9687500000000003
 40
1.0
 40
1.0
 40
1.0
 40
1.0
 10
104.0803862807323
 20
151.4578399401161
 30
0.0
 10
104.1438631741361
 20
151.5688517852767
 30
0.0
 10
104.2282042702276
 20
151.6744294784161
 30
0.0
 10
104.4608972039374
 20
151.8613347970028
 30
0.0
 10
104.6042734156572
 20
151.9367366558376
 30
0.0
 10
104.9241265391344
 20
152.0559156330829
 30
0.0
 10
105.0934271930294
 20
152.0989102274373
 30
0.0
 10
105.4433522797575
 20
152.1636994356274
 30
0.0
 10
105.6228518067198
 20
152.1850637314337
 30
0.0
 10
105.9801588062535
 20
152.2081677010045
 30
0.0
 10
106.1594293646729
 20
152.2106002550223
 30
0.0
 10
106.5189474489448
 20
152.2005359353361
 30
0.0
 10
106.7006606918066
 20
152.1878370411602
 30
0.0
 10
107.0543029944219
 20
152.1353364127749
 30
0.0
 10
107.2283666829096
 20
152.0941320327752
 30
0.0
 10
107.4681381682998
 20
152.0090838641313
 30
0.0
 10
107.5449345167466
 20
151.9768793113216
 30
0.0
 10
107.687006459102
 20
151.8987647275268
 30
0.0
 10
107.7491835864568
 20
151.8533013518895
 30
0.0
 10
107.8521080392846
 20
151.7533461912627
 30
0.0
 10
107.893117405976
 20
151.6992476978802
 30
0.0
 10
107.9574058917787
 20
151.5889592793858
 30
0.0
 10
107.980692205042
 20
151.5327413665721
 30
0.0
 10
108.0268219048395
 20
151.3612942432841
 30
0.0
 10
108.0310134115624
 20
151.2446213884456
 30
0.0
 10
108.0398462713577
 20
150.8981123016683
 30
0.0
 10
108.0375398922208
 20
150.6673497102703
 30
0.0
 10
108.0417136342786
 20
150.2054996980978
 30
0.0
 10
108.0471313217733
 20
149.9743807833043
 30
0.0
 10
108.0631474334398
 20
149.6276751691426
 30
0.0
 10
108.0698134140657
 20
149.5121714869354
 30
0.0
 10
108.1236438610327
 20
149.3408884366833
 30
0.0
 10
108.1482122052966
 20
149.2837730462982
 30
0.0
 10
108.2148221237995
 20
149.1717001593921
 30
0.0
 10
108.2555236563899
 20
149.1174097003019
 30
0.0
 10
108.2961669523421
 20
149.0630656188883
 30
0.0
  0
SPLINE
  5
24F
330
1F
100
AcDbEntity
  8
0
  6
Continuous
 62
     7
370
    18
100
AcDbSpline
210
0.0
220
0.0
230
1.0
 70
     8
 71
     3
 72
     9
 73
     5
 74
     0
 42
0.00000001
 43
0.00000001
 40
0.0
 40
0.0
 40
0.0
 40
0.0
 40
0.5001686360637516
 40
0.9999999999999999
 40
0.9999999999999999
 40
0.9999999999999999
 40
0.9999999999999999
 10
108.2961408663659
 20
149.0630460641381
 30
0.0
 10
108.1556672376712
 20
149.0685194877596
 30
0.0
 10
107.8748147040131
 20
149.079462644181
 30
0.0
 10
107.5937542748076
 20
149.0869209339976
 30
0.0
 10
107.4532714571293
 20
149.0906488211692
 30
0.0
  0
SPLINE
  5
250
330
1F
100
AcDbEntity
  8
0
  6
Continuous
 62
     7
370
    18
100
AcDbSpline
210
0.0
220
0.0
230
1.0
 70
     8
 71
     3
 72
    10
 73
     6
 74
     0
 42
0.00000001
 43
0.00000001
 40
0.0
 40
0.0
 40
0.0
 40
0.0
 40
0.5
 40
0.5
 40
1.0
 40
1.0
 40
1.0
 40
1.0
 10
107.4532565793934
 20
149.0906373764062
 30
0.0
 10
107.4083711554902
 20
149.1515852804249
 30
0.0
 10
107.3717711324831
 20
149.2145343486118
 30
0.0
 10
107.3182127260279
 20
149.3436378876154
 30
0.0
 10
107.3007118064771
 20
149.4093740634571
 30
0.0
 10
107.2872818976596
 20
149.4752690340264
 30
0.0
  0
SPLINE
  5
251
330
1F
100
AcDbEntity
  8
0
  6
Continuous
 62
     7
370
    18
100
AcDbSpline
210
0.0
220
0.0
230
1.0
 70
     8
 71
     3
 72
    46
 73
    42
 74
     0
 42
0.00000001
 43
0.00000001
 40
0.0
 40
0.0
 40
0.0
 40
0.0
 40
0.0312499999999997
 40
0.0312499999999997
 40
0.0624999999999994
 40
0.0624999999999994
 40
0.1249999999999994
 40
0.1249999999999994
 40
0.1874999999999993
 40
0.1874999999999993
 40
0.2499999999999993
 40
0.2499999999999993
 40
0.3124999999999992
 40
0.3124999999999992
 40
0.3749999999999992
 40
0.3749999999999992
 40
0.4374999999999991
 40
0.4374999999999991
 40
0.4687499999999991
 40
0.4687499999999991
 40
0.4999999999999991
 40
0.4999999999999991
 40
0.5625
 40
0.5625
 40
0.5937499999999999
 40
0.5937499999999999
 40
0.6249999999999999
 40
0.6249999999999999
 40
0.6874999999999999
 40
0.6874999999999999
 40
0.7499999999999999
 40
0.7499999999999999
 40
0.8124999999999999
 40
0.8124999999999999
 40
0.875
 40
0.875
 40
0.9375000000000001
 40
0.9375000000000001
 40
0.96875
 40
0.96875
 40
1.0
 40
1.0
 40
1.0
 40
1.0
 10
107.2872818944802
 20
149.4752690346081
 30
0.0
 10
107.2191206677491
 20
149.4402224783172
 30
0.0
 10
107.1509670513446
 20
149.4050197084209
 30
0.0
 10
107.0098424025801
 20
149.3383552054643
 30
0.0
 10
106.936664215969
 20
149.3068960095104
 30
0.0
 10
106.7107016072359
 20
149.2184547573125
 30
0.0
 10
106.5533558233353
 20
149.1686393894892
 30
0.0
 10
106.2204276888677
 20
149.0939639199219
 30
0.0
 10
106.0440094713338
 20
149.0678283449313
 30
0.0
 10
105.6913663729655
 20
149.0366898796053
 30
0.0
 10
105.513626941745
 20
149.0312577654119
 30
0.0
 10
105.1555840992019
 20
149.0384790290268
 30
0.0
 10
104.9791965484175
 20
149.051439162649
 30
0.0
 10
104.6370258357342
 20
149.1086684396997
 30
0.0
 10
104.4748474299031
 20
149.1537460158669
 30
0.0
 10
104.1917870511579
 20
149.2845193153943
 30
0.0
 10
104.0748314062494
 20
149.3669235606089
 30
0.0
 10
103.9503121417005
 20
149.5130060837689
 30
0.0
 10
103.9181160533185
 20
149.5641220657972
 30
0.0
 10
103.8719220860135
 20
149.671207369831
 30
0.0
 10
103.858021090534
 20
149.7274228332524
 30
0.0
 10
103.8393413964114
 20
149.8959396079918
 30
0.0
 10
103.8563126069236
 20
150.012115023694
 30
0.0
 10
103.9395563661798
 20
150.1765098098659
 30
0.0
 10
103.9783207171344
 20
150.2303869056227
 30
0.0
 10
104.0687627771873
 20
150.3320985262188
 30
0.0
 10
104.1205430517042
 20
150.3803697281396
 30
0.0
 10
104.2975411637988
 20
150.5164691484843
 30
0.0
 10
104.4422687638812
 20
150.5900782741275
 30
0.0
 10
104.7600788441733
 20
150.7071377557733
 30
0.0
 10
104.9276789676535
 20
150.7491303640536
 30
0.0
 10
105.2762030929995
 20
150.8069320161676
 30
0.0
 10
105.4555653406094
 20
150.8240551242861
 30
0.0
 10
105.8121600366472
 20
150.8565873141812
 30
0.0
 10
105.9906277051501
 20
150.8714417272769
 30
0.0
 10
106.3458954675233
 20
150.9042631086795
 30
0.0
 10
106.5227531950559
 20
150.9220085070344
 30
0.0
 10
106.7863897577043
 20
150.9521756802683
 30
0.0
 10
106.8739061497973
 20
150.963095443805
 30
0.0
 10
107.0473506028599
 20
150.9893758296645
 30
0.0
 10
107.1333124730292
 20
151.0046331384524
 30
0.0
 10
107.2192682852661
 20
151.0196497346378
 30
0.0
  0
SPLINE
  5
252
330
1F
100
AcDbEntity
  8
0
  6
Continuous
 62
     7
370
    18
100
AcDbSpline
210
0.0
220
0.0
230
1.0
 70
     8
 71
     3
 72
    26
 73
    22
 74
     0
 42
0.00000001
 43
0.00000001
 40
0.0
 40
0.0
 40
0.0
 40
0.0
 40
0.0624999999999989
 40
0.0624999999999989
 40
0.1249999999999978
 40
0.1249999999999978
 40
0.2499999999999978
 40
0.2499999999999978
 40
0.3749999999999978
 40
0.3749999999999978
 40
0.4374999999999978
 40
0.4374999999999978
 40
0.4999999999999978
 40
0.4999999999999978
 40
0.6249999999999983
 40
0.6249999999999983
 40
0.7499999999999989
 40
0.7499999999999989
 40
0.8749999999999994
 40
0.8749999999999994
 40
1.0
 40
1.0
 40
1.0
 40
1.0
 10
104.9761546914408
 20
149.5610634639748
 30
0.0
 10
104.9205332177193
 20
149.591599417071
 30
0.0
 10
104.8691269018775
 20
149.6243709455206
 30
0.0
 10
104.7881500234067
 20
149.7019921301745
 30
0.0
 10
104.7587495236868
 20
149.7452353258186
 30
0.0
 10
104.7070086095243
 20
149.8819687757347
 30
0.0
 10
104.7177318559702
 20
149.9813258685194
 30
0.0
 10
104.8323795851303
 20
150.1583929412047
 30
0.0
 10
104.9323211488202
 20
150.2381852982788
 30
0.0
 10
105.1231895510547
 20
150.3146365823683
 30
0.0
 10
105.1941916901391
 20
150.3329455444857
 30
0.0
 10
105.3361807442759
 20
150.3631750574685
 30
0.0
 10
105.4080903151029
 20
150.375655648083
 30
0.0
 10
105.625128200753
 20
150.4090682990268
 30
0.0
 10
105.7721819823004
 20
150.4243024880072
 30
0.0
 10
106.0661601014622
 20
150.4537614062605
 30
0.0
 10
106.21307763645
 20
150.4679693194859
 30
0.0
 10
106.5046611566119
 20
150.5011024097468
 30
0.0
 10
106.649647207031
 20
150.5191569983178
 30
0.0
 10
106.9368323111741
 20
150.5614971927612
 30
0.0
 10
107.0775872893264
 20
150.5897390123467
 30
0.0
 10
107.2175931367445
 20
150.6193687988852
 30
0.0
  0
SPLINE
  5
253
330
1F
100
AcDbEntity
  8
0
  6
Continuous
 62
     7
370
    18
100
AcDbSpline
210
0.0
220
0.0
230
1.0
 70
     8
 71
     3
 72
    26
 73
    22
 74
     0
 42
0.00000001
 43
0.00000001
 40
0.0
 40
0.0
 40
0.0
 40
0.0
 40
0.124999999999999
 40
0.124999999999999
 40
0.249999999999998
 40
0.249999999999998
 40
0.3124999999999974
 40
0.3124999999999974
 40
0.3749999999999968
 40
0.3749999999999968
 40
0.4999999999999973
 40
0.4999999999999973
 40
0.624999999999998
 40
0.624999999999998
 40
0.7499999999999987
 40
0.7499999999999987
 40
0.8749999999999993
 40
0.8749999999999993
 40
0.9374999999999996
 40
0.9374999999999996
 40
1.0
 40
1.0
 40
1.0
 40
1.0
 10
107.2175932366693
 20
150.6193686860683
 30
0.0
 10
107.2210767345963
 20
150.5245791459383
 30
0.0
 10
107.2263366599866
 20
150.4296708131474
 30
0.0
 10
107.2158245810634
 20
150.2406359635912
 30
0.0
 10
107.2017629250273
 20
150.1460590890941
 30
0.0
 10
107.1511010068964
 20
150.0104331734673
 30
0.0
 10
107.1283982276805
 20
149.9663503702025
 30
0.0
 10
107.0673685174122
 20
149.8811488356958
 30
0.0
 10
107.0289833702812
 20
149.8404495177791
 30
0.0
 10
106.8993950920142
 20
149.7284631637956
 30
0.0
 10
106.7884382724825
 20
149.6644659351094
 30
0.0
 10
106.5428295751371
 20
149.5605871572008
 30
0.0
 10
106.4079644323481
 20
149.5193402183377
 30
0.0
 10
106.1230820407842
 20
149.4624435809598
 30
0.0
 10
105.9762886261865
 20
149.4467198783688
 30
0.0
 10
105.6765206704697
 20
149.4340148427953
 30
0.0
 10
105.5279324941353
 20
149.4353735044468
 30
0.0
 10
105.3086589487141
 20
149.4599255564483
 30
0.0
 10
105.2352138594951
 20
149.4722715527455
 30
0.0
 10
105.0981505878386
 20
149.5079344009153
 30
0.0
 10
105.0353749743347
 20
149.5324414645223
 30
0.0
 10
104.9761546936478
 20
149.5610634654175
 30
0.0
  0
SPLINE
  5
254
330
1F
100
AcDbEntity
  8
0
  6
Continuous
 62
     7
370
    18
100
AcDbSpline
210
0.0
220
0.0
230
1.0
 70
     8
 71
     3
 72
     8
 73
     4
 74
     0
 42
0.00000001
 43
0.00000001
 40
0.0
 40
0.0
 40
0.0
 40
0.0
 40
0.0052503683797769
 40
0.0052503683797769
 40
0.0052503683797769
 40
0.0052503683797769
 10
126.8481710589728
 20
141.1723280250393
 30
0.0
 10
128.2846063384892
 20
142.1721197429783
 30
0.0
 10
129.7208718054345
 20
143.1721554475795
 30
0.0
 10
131.1570419232192
 20
144.1723280248285
 30
0.0
  0
LINE
  5
255
330
1F
100
AcDbEntity
  8
0
  6
Continuous
 62
     7
370
    18
100
AcDbLine
 10
126.8857120333
 20
141.1723280251
 30
0.0
 11
124.7872292132
 21
139.7090989258
 31
0.0
  0
LINE
  5
256
330
1F
100
AcDbEntity
  8
0
  6
Continuous
 62
     7
370
    18
100
AcDbLine
 10
87.3254647973
 20
139.7090989258
 30
0.0
 11
124.7872292132
 21
139.7090989258
 31
0.0
  0
LINE
  5
257
330
1F
100
AcDbEntity
  8
0
  6
Continuous
 62
     7
370
    18
100
AcDbLine
 10
87.3254647973
 20
139.7090989258
 30
0.0
 11
85.2269819771
 21
141.1723280251
 31
0.0
  0
LINE
  5
258
330
1F
100
AcDbEntity
  8
0
  6
Continuous
 62
     7
370
    18
100
AcDbLine
 10
80.9556520873
 20
144.1723280248
 30
0.0
 11
85.2645229515
 21
141.1723280252
 31
0.0
  0
LINE
  5
259
330
1F
100
AcDbEntity
  8
0
  6
Continuous
 62
     7
370
    18
100
AcDbLine
 10
107.2793160041
 20
149.2818535455
 30
0.0
 11
107.2872818983
 21
149.4752690336
 31
0.0
  0
LWPOLYLINE
  5
25A
330
1F
100
AcDbEntity
  8
0
  6
Continuous
 62
     7
370
    18
100
AcDbPolyline
 90
        4
 70
   128
 43
0.0
 10
107.4444352004
 20
148.8971652505
 10
107.4466824036
 20
148.946502528
 10
107.4489295632
 20
148.9958398065
 10
107.4532477226
 20
149.0906493833
  0
LWPOLYLINE
  5
25B
330
1F
100
AcDbEntity
  8
0
  6
Continuous
 62
     7
370
    18
100
AcDbPolyline
 90
        4
 70
   128
 43
0.0
 10
108.2819050577
 20
148.8697389667
 10
108.2855457894
 20
148.9190314491
 10
108.2891865763
 20
148.9683239291
 10
108.2961828625
 20
149.0630442935
  0
LINE
  5
25C
330
1F
100
AcDbEntity
  8
0
  6
Continuous
 62
     7
370
    18
100
AcDbLine
 10
111.0529730409
 20
148.8976477463
 30
0.0
 11
111.0849656031
 21
149.0910396069
 31
0.0
  0
LINE
  5
25D
330
1F
100
AcDbEntity
  8
0
  6
Continuous
 62
     7
370
    18
100
AcDbLine
 10
110.1677066834
 20
149.0939723913
 30
0.0
 11
110.1416236908
 21
148.9005613605
 31
0.0
  0
SPLINE
  5
25E
330
1F
100
AcDbEntity
  8
0
  6
Continuous
 62
     7
370
    18
100
AcDbSpline
210
0.0
220
0.0
230
1.0
 70
     8
 71
     3
 72
     9
 73
     5
 74
     0
 42
0.00000001
 43
0.00000001
 40
0.0
 40
0.0
 40
0.0
 40
0.0
 40
0.5000179266307421
 40
1.0
 40
1.0
 40
1.0
 40
1.0
 10
111.0848866264274
 20
149.0910406232074
 30
0.0
 10
110.9321844116483
 20
149.0925965160991
 30
0.0
 10
110.6267909314423
 20
149.095708190319
 30
0.0
 10
110.3207568527794
 20
149.0945511382845
 30
0.0
 10
110.1677452996079
 20
149.0939726330092
 30
0.0
  0
LINE
  5
25F
330
1F
100
AcDbEntity
  8
0
  6
Continuous
 62
     7
370
    18
100
AcDbLine
 10
110.0154932134
 20
149.4847716206
 30
0.0
 11
110.0415764202
 21
149.6781827368
 31
0.0
  0
LINE
  5
260
330
1F
100
AcDbEntity
  8
0
  6
Continuous
 62
     7
370
    18
100
AcDbLine
 10
110.1677060026
 20
149.0939755527
 30
0.0
 11
110.0415764199
 21
149.6781827324
 31
0.0
  0
SPLINE
  5
261
330
1F
100
AcDbEntity
  8
0
  6
Continuous
 62
     7
370
    18
100
AcDbSpline
210
0.0
220
0.0
230
1.0
 70
     8
 71
     3
 72
     9
 73
     5
 74
     0
 42
0.00000001
 43
0.00000001
 40
0.0
 40
0.0
 40
0.0
 40
0.0
 40
0.4999809996365563
 40
0.9999999999999999
 40
0.9999999999999999
 40
0.9999999999999999
 40
0.9999999999999999
 10
110.0416006959471
 20
149.6781828855724
 30
0.0
 10
110.1946362074664
 20
149.6787786221284
 30
0.0
 10
110.5007188618685
 20
149.6799701405189
 30
0.0
 10
110.8061412148527
 20
149.6767661264321
 30
0.0
 10
110.9588581944805
 20
149.6751640585112
 30
0.0
  0
LINE
  5
262
330
1F
100
AcDbEntity
  8
0
  6
Continuous
 62
     7
370
    18
100
AcDbLine
 10
110.9589070855
 20
149.6751634255
 30
0.0
 11
111.084965153
 21
149.0910417407
 31
0.0
  0
SPLINE
  5
263
330
1F
100
AcDbEntity
  8
0
  6
Continuous
 62
     7
370
    18
100
AcDbSpline
210
0.0
220
0.0
230
1.0
 70
     8
 71
     3
 72
    16
 73
    12
 74
     0
 42
0.00000001
 43
0.00000001
 40
0.9370115775426074
 40
0.9370115775426074
 40
0.9370115775426074
 40
0.9370115775426074
 40
0.9682617365665254
 40
0.9682617365665254
 40
0.9838867343915224
 40
0.9838867343915224
 40
0.9916992333040208
 40
0.9916992333040208
 40
0.9995117322165185
 40
0.9995117322165185
 40
1.000000024173704
 40
1.000000024173704
 40
1.000000024173704
 40
1.000000024173704
 10
107.2096252172258
 20
150.4259856354259
 30
0.0
 10
107.2110137362258
 20
150.3883754934259
 30
0.0
 10
107.2121142992258
 20
150.3577952934259
 30
0.0
 10
107.2133403782258
 20
150.3224699064259
 30
0.0
 10
107.2136782452258
 20
150.3124522624259
 30
0.0
 10
107.2140794232258
 20
150.3000620244259
 30
0.0
 10
107.2141955422258
 20
150.2963713174259
 30
0.0
 10
107.2143926492258
 20
150.2898686444259
 30
0.0
 10
107.2143618282258
 20
150.2912373954259
 30
0.0
 10
107.2145480468925
 20
150.2842742711746
 30
0.0
 10
107.2145588909707
 20
150.2838649946187
 30
0.0
 10
107.2145696248468
 20
150.2834560455582
 30
0.0
  0
LINE
  5
264
330
1F
100
AcDbEntity
  8
0
  6
Continuous
 62
     7
370
    18
100
AcDbLine
 10
107.2096251971
 20
150.4259861818
 30
0.0
 11
107.2175932232
 21
150.6193688231
 31
0.0
  0
LWPOLYLINE
  5
265
330
1F
100
AcDbEntity
  8
0
  6
Continuous
 62
     7
370
    18
100
AcDbPolyline
 90
        4
 70
   128
 43
0.0
 10
103.0976108769
 20
151.0000556518
 10
103.0922293049
 20
151.0494127696
 10
103.0868476965
 20
151.0987698855
 10
103.0765066042
 20
151.1936116805
  0
SPLINE
  5
266
330
1F
100
AcDbEntity
  8
0
  6
Continuous
 62
     7
370
    18
100
AcDbSpline
210
0.0
220
0.0
230
1.0
 70
     8
 71
     3
 72
    60
 73
    56
 74
     0
 42
0.00000001
 43
0.00000001
 40
0.0
 40
0.0
 40
0.0
 40
0.0
 40
0.03125
 40
0.03125
 40
0.0625000000000001
 40
0.0625000000000001
 40
0.0937500000000001
 40
0.0937500000000001
 40
0.1250000000000002
 40
0.1250000000000002
 40
0.1562500000000002
 40
0.1562500000000002
 40
0.1875000000000002
 40
0.1875000000000002
 40
0.2187500000000003
 40
0.2187500000000003
 40
0.2500000000000003
 40
0.2500000000000003
 40
0.2812500000000004
 40
0.2812500000000004
 40
0.3125000000000004
 40
0.3125000000000004
 40
0.3437500000000004
 40
0.3437500000000004
 40
0.3750000000000005
 40
0.3750000000000005
 40
0.4375000000000006
 40
0.4375000000000006
 40
0.5000000000000007
 40
0.5000000000000007
 40
0.5625000000000008
 40
0.5625000000000008
 40
0.6250000000000009
 40
0.6250000000000009
 40
0.6562500000000008
 40
0.6562500000000008
 40
0.6875000000000007
 40
0.6875000000000007
 40
0.7187500000000007
 40
0.7187500000000007
 40
0.7500000000000006
 40
0.7500000000000006
 40
0.8125000000000004
 40
0.8125000000000004
 40
0.8437500000000003
 40
0.8437500000000003
 40
0.8750000000000002
 40
0.8750000000000002
 40
0.9062500000000002
 40
0.9062500000000002
 40
0.9375000000000001
 40
0.9375000000000001
 40
0.9687500000000001
 40
0.9687500000000001
 40
1.0
 40
1.0
 40
1.0
 40
1.0
 10
102.8680999857141
 20
150.0963806616939
 30
0.0
 10
102.8203452527969
 20
150.0118354068591
 30
0.0
 10
102.7725915062512
 20
149.9272667073336
 30
0.0
 10
102.6487344700837
 20
149.7639164511049
 30
0.0
 10
102.5735435531538
 20
149.6855719136866
 30
0.0
 10
102.4036454065003
 20
149.5393196740136
 30
0.0
 10
102.3065868112306
 20
149.4704639067042
 30
0.0
 10
102.0932528320928
 20
149.3452661078884
 30
0.0
 10
101.979020752608
 20
149.2898843808249
 30
0.0
 10
101.7355393921388
 20
149.1931604364403
 30
0.0
 10
101.6049549010003
 20
149.1519295706493
 30
0.0
 10
101.3410336902032
 20
149.0879559156635
 30
0.0
 10
101.2061252437281
 20
149.0644733757902
 30
0.0
 10
100.9321301865271
 20
149.0330054843377
 30
0.0
 10
100.7971874751929
 20
149.0254425493792
 30
0.0
 10
100.5303185223351
 20
149.0217861669808
 30
0.0
 10
100.3983250535078
 20
149.025394278127
 30
0.0
 10
100.1376665723283
 20
149.0454365499797
 30
0.0
 10
100.0117842975217
 20
149.0615862635876
 30
0.0
 10
99.77298480218651
 20
149.1100474658932
 30
0.0
 10
99.65864691411142
 20
149.142984283533
 30
0.0
 10
99.45041685370825
 20
149.2239602021534
 30
0.0
 10
99.35726085425334
 20
149.2718773819954
 30
0.0
 10
99.19142869391595
 20
149.381895688369
 30
0.0
 10
99.11849713915086
 20
149.4444260030487
 30
0.0
 10
98.94083785324172
 20
149.6456265850911
 30
0.0
 10
98.8741000720865
 20
149.8028368519248
 30
0.0
 10
98.8246951740469
 20
150.128721741407
 30
0.0
 10
98.83973625711208
 20
150.3013114390068
 30
0.0
 10
98.9165248652673
 20
150.6443942985601
 30
0.0
 10
98.97590024861702
 20
150.8160583343105
 30
0.0
 10
99.15820716372376
 20
151.1597816071839
 30
0.0
 10
99.28062861358238
 20
151.3325213766345
 30
0.0
 10
99.52750575964913
 20
151.5712104840966
 30
0.0
 10
99.62189620176676
 20
151.647754433678
 30
0.0
 10
99.82732460227702
 20
151.7858454444132
 30
0.0
 10
99.93921515498882
 20
151.8484821429062
 30
0.0
 10
100.1823839389718
 20
151.9598262920525
 30
0.0
 10
100.3097556772462
 20
152.0068418894838
 30
0.0
 10
100.5710969332662
 20
152.0857099335585
 30
0.0
 10
100.7066744825401
 20
152.1178447823623
 30
0.0
 10
101.1118394598777
 20
152.1873731864731
 30
0.0
 10
101.3868845860122
 20
152.2009544205503
 30
0.0
 10
101.7810176421298
 20
152.1802004833014
 30
0.0
 10
101.9096511902613
 20
152.1661767786342
 30
0.0
 10
102.1593223905971
 20
152.1192833097856
 30
0.0
 10
102.2787407741257
 20
152.0864820133339
 30
0.0
 10
102.4966056146831
 20
152.0022525215655
 30
0.0
 10
102.5974276640636
 20
151.9497027360422
 30
0.0
 10
102.7700334372717
 20
151.8295957536712
 30
0.0
 10
102.8427025870469
 20
151.7621920806018
 30
0.0
 10
102.9593322856684
 20
151.6124449427451
 30
0.0
 10
103.0024193491606
 20
151.5330783703311
 30
0.0
 10
103.0581576088367
 20
151.3673943080587
 30
0.0
 10
103.0676077820962
 20
151.2802180314924
 30
0.0
 10
103.0765065968695
 20
151.1936117474048
 30
0.0
  0
LWPOLYLINE
  5
267
330
1F
100
AcDbEntity
  8
0
  6
Continuous
 62
     7
370
    18
100
AcDbPolyline
 90
        4
 70
   128
 43
0.0
 10
102.8895635406
 20
149.9032824204
 10
102.8840904465
 20
149.9525227567
 10
102.8786172526
 20
150.0017631059
 10
102.8680999991
 20
150.0963805388
  0
SPLINE
  5
268
330
1F
100
AcDbEntity
  8
0
  6
Continuous
 62
     7
370
    18
100
AcDbSpline
210
0.0
220
0.0
230
1.0
 70
     8
 71
     3
 72
    62
 73
    58
 74
     0
 42
0.00000001
 43
0.00000001
 40
0.0
 40
0.0
 40
0.0
 40
0.0
 40
0.0312500000000001
 40
0.0312500000000001
 40
0.0625000000000002
 40
0.0625000000000002
 40
0.0937500000000003
 40
0.0937500000000003
 40
0.1250000000000004
 40
0.1250000000000004
 40
0.1562500000000006
 40
0.1562500000000006
 40
0.1875000000000007
 40
0.1875000000000007
 40
0.2187500000000008
 40
0.2187500000000008
 40
0.2500000000000009
 40
0.2500000000000009
 40
0.281250000000001
 40
0.281250000000001
 40
0.3125000000000011
 40
0.3125000000000011
 40
0.3437500000000012
 40
0.3437500000000012
 40
0.3750000000000013
 40
0.3750000000000013
 40
0.4375000000000017
 40
0.4375000000000017
 40
0.500000000000002
 40
0.500000000000002
 40
0.5625000000000023
 40
0.5625000000000023
 40
0.6250000000000027
 40
0.6250000000000027
 40
0.6562500000000024
 40
0.6562500000000024
 40
0.6875000000000022
 40
0.6875000000000022
 40
0.718750000000002
 40
0.718750000000002
 40
0.7500000000000018
 40
0.7500000000000018
 40
0.7812500000000016
 40
0.7812500000000016
 40
0.8125000000000013
 40
0.8125000000000013
 40
0.8437500000000011
 40
0.8437500000000011
 40
0.8750000000000009
 40
0.8750000000000009
 40
0.9062500000000007
 40
0.9062500000000007
 40
0.9375000000000004
 40
0.9375000000000004
 40
0.9687500000000002
 40
0.9687500000000002
 40
1.0
 40
1.0
 40
1.0
 40
1.0
 10
102.2857959770803
 20
151.1472184285806
 30
0.0
 10
102.276142280679
 20
151.2027950314389
 30
0.0
 10
102.2663343581481
 20
151.2583269208331
 30
0.0
 10
102.228478051361
 20
151.3652320877299
 30
0.0
 10
102.2015203392121
 20
151.4171355792795
 30
0.0
 10
102.1292305423633
 20
151.5153664628257
 30
0.0
 10
102.0842452326654
 20
151.5602167972938
 30
0.0
 10
101.9730636063247
 20
151.6394881765889
 30
0.0
 10
101.9074814661574
 20
151.6730231925311
 30
0.0
 10
101.7628828558067
 20
151.7251253230181
 30
0.0
 10
101.6817607041842
 20
151.7440200351639
 30
0.0
 10
101.5140558368032
 20
151.7663569112467
 30
0.0
 10
101.4257094210797
 20
151.7701803690267
 30
0.0
 10
101.2486785343378
 20
151.7679216532447
 30
0.0
 10
101.1599421447114
 20
151.7621436117091
 30
0.0
 10
100.9818350750293
 20
151.7383732056194
 30
0.0
 10
100.8914384269265
 20
151.7199303781829
 30
0.0
 10
100.7186015069112
 20
151.6721253263367
 30
0.0
 10
100.6356537630678
 20
151.6423436117416
 30
0.0
 10
100.4762115443593
 20
151.5719358102794
 30
0.0
 10
100.3998073606672
 20
151.5311274766724
 30
0.0
 10
100.2612854890655
 20
151.4427982044288
 30
0.0
 10
100.197748549428
 20
151.3943241641075
 30
0.0
 10
100.0858464903684
 20
151.2912004948988
 30
0.0
 10
100.0378314219305
 20
151.2377501012115
 30
0.0
 10
99.91051817125143
 20
151.0735070167279
 30
0.0
 10
99.84844364174651
 20
150.9583393068262
 30
0.0
 10
99.75387727528063
 20
150.7310013541811
 30
0.0
 10
99.72034380327499
 20
150.6172749081956
 30
0.0
 10
99.6713281850524
 20
150.3897350301806
 30
0.0
 10
99.65689727460483
 20
150.2757441880657
 30
0.0
 10
99.66438054535392
 20
150.0539150241246
 30
0.0
 10
99.68631549712529
 20
149.9441796792098
 30
0.0
 10
99.76795743092279
 20
149.7960530325367
 30
0.0
 10
99.80512188630554
 20
149.7489880718237
 30
0.0
 10
99.89555452540229
 20
149.6643090684441
 30
0.0
 10
99.94849083947696
 20
149.6265390131324
 30
0.0
 10
100.0698595666842
 20
149.5600001791503
 30
0.0
 10
100.13890198653
 20
149.531249789776
 30
0.0
 10
100.2860501695975
 20
149.4862041439248
 30
0.0
 10
100.3652504470607
 20
149.469356601451
 30
0.0
 10
100.5334573700454
 20
149.448061289582
 30
0.0
 10
100.6195931937304
 20
149.4425688915419
 30
0.0
 10
100.7959993920194
 20
149.4420598595645
 30
0.0
 10
100.8867465809463
 20
149.4472289692172
 30
0.0
 10
101.0646953080178
 20
149.4688178190207
 30
0.0
 10
101.1528380184971
 20
149.4851609882387
 30
0.0
 10
101.3271594974427
 20
149.5309324042969
 30
0.0
 10
101.4114529865574
 20
149.5600840360133
 30
0.0
 10
101.5671409711963
 20
149.6293821007707
 30
0.0
 10
101.6408487811037
 20
149.6702343839727
 30
0.0
 10
101.7708376067432
 20
149.7605148646321
 30
0.0
 10
101.8272881935567
 20
149.8096007921071
 30
0.0
 10
101.9274369186093
 20
149.9137448023127
 30
0.0
 10
101.9698982398671
 20
149.96736040901
 30
0.0
 10
102.0415593402276
 20
150.0772059478122
 30
0.0
 10
102.0710785738556
 20
150.1333984972607
 30
0.0
 10
102.1005838581395
 20
150.1895866623177
 30
0.0
  0
SPLINE
  5
269
330
1F
100
AcDbEntity
  8
0
  6
Continuous
 62
     7
370
    18
100
AcDbSpline
210
0.0
220
0.0
230
1.0
 70
     8
 71
     3
 72
     9
 73
     5
 74
     0
 42
0.00000001
 43
0.00000001
 40
0.0
 40
0.0
 40
0.0
 40
0.0
 40
0.4993990337876075
 40
1.0
 40
1.0
 40
1.0
 40
1.0
 10
102.1005951988271
 20
150.1896225097313
 30
0.0
 10
102.2282581334757
 20
150.1749158051543
 30
0.0
 10
102.4838912565124
 20
150.1454670005272
 30
0.0
 10
102.7399278296151
 20
150.1127558797874
 30
0.0
 10
102.868099985496
 20
150.0963806611392
 30
0.0
  0
SPLINE
  5
26A
330
1F
100
AcDbEntity
  8
0
  6
Continuous
 62
     7
370
    18
100
AcDbSpline
210
0.0
220
0.0
230
1.0
 70
     8
 71
     3
 72
     9
 73
     5
 74
     0
 42
0.00000001
 43
0.00000001
 40
0.0
 40
0.0
 40
0.0
 40
0.0
 40
0.4996840840530599
 40
1.0
 40
1.0
 40
1.0
 40
1.0
 10
103.0765065975408
 20
151.1936117475103
 30
0.0
 10
102.9446966595342
 20
151.1867354657399
 30
0.0
 10
102.6809101147688
 20
151.1729742073971
 30
0.0
 10
102.4175457773012
 20
151.1557903237806
 30
0.0
 10
102.2857804075733
 20
151.1471929533095
 30
0.0
  0
SPLINE
  5
26B
330
1F
100
AcDbEntity
  8
0
  6
Continuous
 62
     7
370
    18
100
AcDbSpline
210
0.0
220
0.0
230
1.0
 70
     8
 71
     3
 72
    13
 73
     9
 74
     0
 42
0.00000001
 43
0.00000001
 40
0.0
 40
0.0
 40
0.0
 40
0.0
 40
0.0427493675653167
 40
0.1252824964507693
 40
0.2069334468029551
 40
0.2879492800026489
 40
0.5424200321050381
 40
1.0
 40
1.0
 40
1.0
 40
1.0
 10
104.7396997697977
 20
149.691122567358
 30
0.0
 10
104.7370131996069
 20
149.717794306597
 30
0.0
 10
104.7291398616008
 20
149.7959592542173
 30
0.0
 10
104.8053748586343
 20
149.9222898736837
 30
0.0
 10
104.9498002847726
 20
150.0511160597848
 30
0.0
 10
105.3116454547242
 20
150.1931740409177
 30
0.0
 10
106.1030353239765
 20
150.2510221606717
 30
0.0
 10
106.7767078977443
 20
150.3575371987018
 30
0.0
 10
107.2096251970591
 20
150.4259861817775
 30
0.0
  0
LWPOLYLINE
  5
26C
330
1F
100
AcDbEntity
  8
0
  6
Continuous
 62
     7
370
    18
100
AcDbPolyline
 90
        4
 70
   128
 43
0.0
 10
102.3123886421
 20
150.9539599098
 10
102.3056083618
 20
151.0032356451
 10
102.2988281402
 20
151.0525113843
 10
102.2858001822
 20
151.1471942019
  0
ARC
  5
26D
330
1F
100
AcDbEntity
  8
0
  6
Continuous
 62
     7
370
    18
100
AcDbCircle
 10
83.0563470052
 20
134.0397362185
 30
0.0
 40
1.0
100
AcDbArc
 50
120.3387907122
 51
180.0000000151
  0
LINE
  5
26E
330
1F
100
AcDbEntity
  8
0
  6
Continuous
 62
     7
370
    18
100
AcDbLine
 10
82.5512349562
 20
134.9027899931
 30
0.0
 11
129.5614590542
 21
134.9027899931
 31
0.0
  0
ARC
  5
26F
330
1F
100
AcDbEntity
  8
0
  6
Continuous
 62
     7
370
    18
100
AcDbCircle
 10
129.0563470052
 20
134.0397362185
 30
0.0
 40
1.0
100
AcDbArc
 50
359.9999999855
 51
59.6612092926
  0
LINE
  5
270
330
1F
100
AcDbEntity
  8
0
  6
Continuous
 62
     7
370
    18
100
AcDbLine
 10
82.0563470052
 20
134.0397362183
 30
0.0
 11
130.0563470052
 21
134.0397362183
 31
0.0
  0
LINE
  5
271
330
1F
100
AcDbEntity
  8
0
  6
Continuous
 62
     7
370
    18
100
AcDbLine
 10
82.0563470052
 20
132.9677673488
 30
0.0
 11
130.0563470052
 21
132.9677673488
 31
0.0
  0
LINE
  5
272
330
1F
100
AcDbEntity
  8
0
  6
Continuous
 62
     7
370
    18
100
AcDbLine
 10
82.0563470052
 20
132.9677673488
 30
0.0
 11
82.0563470052
 21
134.0397362183
 31
0.0
  0
LINE
  5
273
330
1F
100
AcDbEntity
  8
0
  6
Continuous
 62
     7
370
    18
100
AcDbLine
 10
130.0563470052
 20
134.0397362183
 30
0.0
 11
130.0563470052
 21
132.9677673488
 31
0.0
  0
ARC
  5
274
330
1F
100
AcDbEntity
  8
0
  6
Continuous
 62
     7
370
    18
100
AcDbCircle
 10
82.5563470052
 20
132.9677673483
 30
0.0
 40
0.5000000000000284
100
AcDbArc
 50
179.9999999434
 51
270.0
  0
ARC
  5
275
330
1F
100
AcDbEntity
  8
0
  6
Continuous
 62
     7
370
    18
100
AcDbCircle
 10
129.5563470052
 20
132.9677673483
 30
0.0
 40
0.5000000000000284
100
AcDbArc
 50
270.0
 51
0.0000000791
  0
LINE
  5
276
330
1F
100
AcDbEntity
  8
0
  6
Continuous
 62
     7
370
    18
100
AcDbLine
 10
115.8478580409
 20
151.1333823268
 30
0.0
 11
115.7788669376
 21
150.9398847307
 31
0.0
  0
SPLINE
  5
277
330
1F
100
AcDbEntity
  8
0
  6
Continuous
 62
     7
370
    18
100
AcDbSpline
210
0.0
220
0.0
230
1.0
 70
     8
 71
     3
 72
    58
 73
    54
 74
     0
 42
0.00000001
 43
0.00000001
 40
0.0
 40
0.0
 40
0.0
 40
0.0
 40
0.0312499999999998
 40
0.0312499999999998
 40
0.0624999999999995
 40
0.0624999999999995
 40
0.1249999999999997
 40
0.1249999999999997
 40
0.1562500000000001
 40
0.1562500000000001
 40
0.1875000000000004
 40
0.1875000000000004
 40
0.2187500000000008
 40
0.2187500000000008
 40
0.2500000000000012
 40
0.2500000000000012
 40
0.2812500000000016
 40
0.2812500000000016
 40
0.3125000000000019
 40
0.3125000000000019
 40
0.3437500000000023
 40
0.3437500000000023
 40
0.3750000000000026
 40
0.3750000000000026
 40
0.4375000000000029
 40
0.4375000000000029
 40
0.5000000000000031
 40
0.5000000000000031
 40
0.5625000000000034
 40
0.5625000000000034
 40
0.6250000000000037
 40
0.6250000000000037
 40
0.6562500000000034
 40
0.6562500000000034
 40
0.6875000000000032
 40
0.6875000000000032
 40
0.718750000000003
 40
0.718750000000003
 40
0.7500000000000027
 40
0.7500000000000027
 40
0.8125000000000021
 40
0.8125000000000021
 40
0.8437500000000018
 40
0.8437500000000018
 40
0.8750000000000014
 40
0.8750000000000014
 40
0.9062500000000011
 40
0.9062500000000011
 40
0.9375000000000007
 40
0.9375000000000007
 40
0.9687500000000003
 40
0.9687500000000003
 40
1.0
 40
1.0
 40
1.0
 40
1.0
 10
116.3617653442393
 20
150.037010114045
 30
0.0
 10
116.3715181631174
 20
149.9531043815317
 30
0.0
 10
116.3812512894564
 20
149.8691679059288
 30
0.0
 10
116.3718132047334
 20
149.7073697324078
 30
0.0
 10
116.3531396742455
 20
149.6299303658162
 30
0.0
 10
116.2594705004636
 20
149.4135745192792
 30
0.0
 10
116.1398924833962
 20
149.2882896627742
 30
0.0
 10
115.8906105026924
 20
149.1488426793157
 30
0.0
 10
115.7940721786801
 20
149.1096642847545
 30
0.0
 10
115.5853553736778
 20
149.0498204155387
 30
0.0
 10
115.4722378640714
 20
149.0284484488003
 30
0.0
 10
115.2309809562438
 20
149.001138809363
 30
0.0
 10
115.1064339761225
 20
148.9955687482523
 30
0.0
 10
114.851534108315
 20
148.9959446568585
 30
0.0
 10
114.7212925601946
 20
149.0016348074267
 30
0.0
 10
114.4543649972048
 20
149.025986197773
 30
0.0
 10
114.3205848806422
 20
149.0444113722874
 30
0.0
 10
114.0540569530011
 20
149.0971600890119
 30
0.0
 10
113.919490402079
 20
149.132120464119
 30
0.0
 10
113.6596180351622
 20
149.2168627660328
 30
0.0
 10
113.535384094548
 20
149.2669101291524
 30
0.0
 10
113.2963211822564
 20
149.3797709153752
 30
0.0
 10
113.180865071125
 20
149.4431488088753
 30
0.0
 10
112.8687206972242
 20
149.6478728460995
 30
0.0
 10
112.6971114002602
 20
149.8073709147617
 30
0.0
 10
112.4298862606026
 20
150.1360627563066
 30
0.0
 10
112.3295131809819
 20
150.3092223833929
 30
0.0
 10
112.1784705436899
 20
150.653108522579
 30
0.0
 10
112.1248931115791
 20
150.8247734915755
 30
0.0
 10
112.0829921628169
 20
151.1671953129411
 30
0.0
 10
112.0934462854257
 20
151.3384408314307
 30
0.0
 10
112.1833456273024
 20
151.5744111651335
 30
0.0
 10
112.2273446740252
 20
151.6498180162679
 30
0.0
 10
112.3416755074514
 20
151.7851240662103
 30
0.0
 10
112.4121674825519
 20
151.8461045119736
 30
0.0
 10
112.5817814815404
 20
151.9532120053023
 30
0.0
 10
112.6780878625187
 20
151.9980313644211
 30
0.0
 10
112.8853120676118
 20
152.0723190749943
 30
0.0
 10
112.997784325085
 20
152.1021238171473
 30
0.0
 10
113.3488344267393
 20
152.1652607536977
 30
0.0
 10
113.6065863977697
 20
152.1740598067769
 30
0.0
 10
113.9981165423107
 20
152.145911187303
 30
0.0
 10
114.1298392472555
 20
152.1295141547598
 30
0.0
 10
114.3967921288811
 20
152.0780924293401
 30
0.0
 10
114.5308728991071
 20
152.0430591668534
 30
0.0
 10
114.7898229552804
 20
151.954690747606
 30
0.0
 10
114.9178066521405
 20
151.9002056285881
 30
0.0
 10
115.1560105283808
 20
151.7765546793218
 30
0.0
 10
115.2667191251978
 20
151.7076481161623
 30
0.0
 10
115.4707295710853
 20
151.5555010519912
 30
0.0
 10
115.5615936694898
 20
151.4750213290639
 30
0.0
 10
115.7193497625244
 20
151.3079303645154
 30
0.0
 10
115.7840331272787
 20
151.2203755666649
 30
0.0
 10
115.847858040868
 20
151.1333823269798
 30
0.0
  0
SPLINE
  5
278
330
1F
100
AcDbEntity
  8
0
  6
Continuous
 62
     7
370
    18
100
AcDbSpline
210
0.0
220
0.0
230
1.0
 70
     8
 71
     3
 72
     9
 73
     5
 74
     0
 42
0.00000001
 43
0.00000001
 40
0.0
 40
0.0
 40
0.0
 40
0.0
 40
0.4997769256624998
 40
1.0
 40
1.0
 40
1.0
 40
1.0
 10
115.8478580408547
 20
151.1333823267193
 30
0.0
 10
115.7304120606322
 20
151.1287720967279
 30
0.0
 10
115.4954152566745
 20
151.1195475212131
 30
0.0
 10
115.2592263802925
 20
151.106857546116
 30
0.0
 10
115.1410792544243
 20
151.1005097277597
 30
0.0
  0
SPLINE
  5
279
330
1F
100
AcDbEntity
  8
0
  6
Continuous
 62
     7
370
    18
100
AcDbSpline
210
0.0
220
0.0
230
1.0
 70
     8
 71
     3
 72
    58
 73
    54
 74
     0
 42
0.00000001
 43
0.00000001
 40
0.0
 40
0.0
 40
0.0
 40
0.0
 40
0.0312499999999998
 40
0.0312499999999998
 40
0.0624999999999995
 40
0.0624999999999995
 40
0.0937499999999993
 40
0.0937499999999993
 40
0.1249999999999991
 40
0.1249999999999991
 40
0.1874999999999986
 40
0.1874999999999986
 40
0.2187499999999983
 40
0.2187499999999983
 40
0.2499999999999981
 40
0.2499999999999981
 40
0.2812499999999979
 40
0.2812499999999979
 40
0.3124999999999977
 40
0.3124999999999977
 40
0.3437499999999974
 40
0.3437499999999974
 40
0.3749999999999972
 40
0.3749999999999972
 40
0.4374999999999974
 40
0.4374999999999974
 40
0.4999999999999978
 40
0.4999999999999978
 40
0.5624999999999981
 40
0.5624999999999981
 40
0.6249999999999983
 40
0.6249999999999983
 40
0.6562499999999986
 40
0.6562499999999986
 40
0.6874999999999988
 40
0.6874999999999988
 40
0.7499999999999992
 40
0.7499999999999992
 40
0.7812499999999993
 40
0.7812499999999993
 40
0.8124999999999994
 40
0.8124999999999994
 40
0.8437499999999996
 40
0.8437499999999996
 40
0.8749999999999996
 40
0.8749999999999996
 40
0.9062499999999997
 40
0.9062499999999997
 40
0.9374999999999998
 40
0.9374999999999998
 40
0.9687499999999999
 40
0.9687499999999999
 40
1.0
 40
1.0
 40
1.0
 40
1.0
 10
115.1410771320112
 20
151.1005285146964
 30
0.0
 10
115.0969581151019
 20
151.1566459388361
 30
0.0
 10
115.0526934507414
 20
151.2127206539841
 30
0.0
 10
114.9487905483169
 20
151.3208683909552
 30
0.0
 10
114.8898805049348
 20
151.3735033639277
 30
0.0
 10
114.7576096597307
 20
151.4732572395786
 30
0.0
 10
114.6855375915069
 20
151.5186913296775
 30
0.0
 10
114.5281108093211
 20
151.5994696697402
 30
0.0
 10
114.4438970778883
 20
151.633978379813
 30
0.0
 10
114.186307273443
 20
151.7162526973406
 30
0.0
 10
114.0041678648203
 20
151.7405791798613
 30
0.0
 10
113.7500802979266
 20
151.7414407373289
 30
0.0
 10
113.668175537049
 20
151.7366371246018
 30
0.0
 10
113.5109523514022
 20
151.7152189274552
 30
0.0
 10
113.4349460438426
 20
151.6982362735299
 30
0.0
 10
113.2980216762828
 20
151.6526938314069
 30
0.0
 10
113.2365460633739
 20
151.6239213906759
 30
0.0
 10
113.1266456612822
 20
151.5553195360702
 30
0.0
 10
113.0786615447073
 20
151.5154741902094
 30
0.0
 10
113.0007477939921
 20
151.4287258572017
 30
0.0
 10
112.9700639339603
 20
151.3807610435472
 30
0.0
 10
112.9276076704961
 20
151.2791435124999
 30
0.0
 10
112.9150918845953
 20
151.226302201487
 30
0.0
 10
112.8969180810051
 20
151.0633669106923
 30
0.0
 10
112.9114120189145
 20
150.9486617555143
 30
0.0
 10
112.9668734605007
 20
150.7217947201775
 30
0.0
 10
113.0084786472874
 20
150.6079740617243
 30
0.0
 10
113.1107489040715
 20
150.379807878831
 30
0.0
 10
113.1720315131588
 20
150.2655966704533
 30
0.0
 10
113.3269927668805
 20
150.042565353671
 30
0.0
 10
113.4218501622572
 20
149.9320005919883
 30
0.0
 10
113.6016498045405
 20
149.7820399834453
 30
0.0
 10
113.6699450294832
 20
149.7342296394242
 30
0.0
 10
113.815420267851
 20
149.6482017920198
 30
0.0
 10
113.8927100790702
 20
149.6096323384193
 30
0.0
 10
114.1383084596492
 20
149.5071559279544
 30
0.0
 10
114.3168585652598
 20
149.4586713342586
 30
0.0
 10
114.5822139962785
 20
149.4234859590778
 30
0.0
 10
114.6688393311189
 20
149.4176074210685
 30
0.0
 10
114.839203712345
 20
149.4148501448052
 30
0.0
 10
114.9231014415955
 20
149.4180086961092
 30
0.0
 10
115.0803845945232
 20
149.4362499849635
 30
0.0
 10
115.1553777234256
 20
149.4515378088979
 30
0.0
 10
115.2906521648809
 20
149.4952891653602
 30
0.0
 10
115.3498624976706
 20
149.523237618523
 30
0.0
 10
115.4523604899435
 20
149.590772386231
 30
0.0
 10
115.4951193573304
 20
149.6307575752056
 30
0.0
 10
115.558154808893
 20
149.7188147029153
 30
0.0
 10
115.5794919967497
 20
149.7678686210062
 30
0.0
 10
115.6058044512405
 20
149.8696403165856
 30
0.0
 10
115.6110956354715
 20
149.9223302696263
 30
0.0
 10
115.6074863508472
 20
150.0310484926966
 30
0.0
 10
115.5988954487106
 20
150.0870432534092
 30
0.0
 10
115.5902974163244
 20
150.1428724690334
 30
0.0
  0
SPLINE
  5
27A
330
1F
100
AcDbEntity
  8
0
  6
Continuous
 62
     7
370
    18
100
AcDbSpline
210
0.0
220
0.0
230
1.0
 70
     8
 71
     3
 72
     9
 73
     5
 74
     0
 42
0.00000001
 43
0.00000001
 40
0.0
 40
0.0
 40
0.0
 40
0.0
 40
0.4993192899816765
 40
1.0
 40
1.0
 40
1.0
 40
1.0
 10
115.5902829271157
 20
150.142913296308
 30
0.0
 10
115.7189637043628
 20
150.1260911705392
 30
0.0
 10
115.9766761136949
 20
150.0924010526002
 30
0.0
 10
116.2332858160891
 20
150.055490510159
 30
0.0
 10
116.3617653440813
 20
150.0370101135623
 30
0.0
  0
LINE
  5
27B
330
1F
100
AcDbEntity
  8
0
  6
Continuous
 62
     7
370
    18
100
AcDbLine
 10
82.5512349562
 20
134.9027899931
 30
0.0
 11
85.7089030299
 21
136.7508511906
 31
0.0
  0
LINE
  5
27C
330
1F
100
AcDbEntity
  8
0
  6
Continuous
 62
     7
370
    18
100
AcDbLine
 10
85.7089030299
 20
136.7508511906
 30
0.0
 11
126.4037909806
 21
136.7508511905
 31
0.0
  0
LINE
  5
27D
330
1F
100
AcDbEntity
  8
0
  6
Continuous
 62
     7
370
    18
100
AcDbLine
 10
126.4037909806
 20
136.7508511905
 30
0.0
 11
129.5614590542
 21
134.9027899931
 31
0.0
  0
LWPOLYLINE
  5
27E
330
1F
100
AcDbEntity
  8
0
  6
Continuous
 62
     7
370
    18
100
AcDbPolyline
 90
        4
 70
   128
 43
0.0
 10
115.5265235558
 20
149.9491789218
 10
115.5427845058
 20
149.9985818979
 10
115.5590455521
 20
150.0479848617
 10
115.5793909538
 20
150.1097960117
  0
LWPOLYLINE
  5
27F
330
1F
100
AcDbEntity
  8
0
  6
Continuous
 62
     7
370
    18
100
AcDbPolyline
 90
        4
 70
   128
 43
0.0
 10
115.07702236
 20
150.9072316625
 10
115.0933603494
 20
150.9565190661
 10
115.109698371
 20
151.0058064714
 10
115.1410913526
 20
151.100510362
  0
LINE
  5
280
330
1F
100
AcDbEntity
  8
0
  6
Continuous
 62
     7
370
    18
100
AcDbLine
 10
97.7543332294
 20
150.2142577952
 30
0.0
 11
97.697525352
 21
150.4075050971
 31
0.0
  0
SPLINE
  5
281
330
1F
100
AcDbEntity
  8
0
  6
Continuous
 62
     7
370
    18
100
AcDbSpline
210
0.0
220
0.0
230
1.0
 70
     8
 71
     3
 72
    58
 73
    54
 74
     0
 42
0.00000001
 43
0.00000001
 40
0.0
 40
0.0
 40
0.0
 40
0.0
 40
0.0312500000000001
 40
0.0312500000000001
 40
0.0625000000000002
 40
0.0625000000000002
 40
0.0937500000000002
 40
0.0937500000000002
 40
0.1250000000000003
 40
0.1250000000000003
 40
0.1875000000000004
 40
0.1875000000000004
 40
0.2500000000000006
 40
0.2500000000000006
 40
0.2812500000000006
 40
0.2812500000000006
 40
0.3125000000000006
 40
0.3125000000000006
 40
0.3750000000000006
 40
0.3750000000000006
 40
0.4062500000000006
 40
0.4062500000000006
 40
0.4375000000000006
 40
0.4375000000000006
 40
0.5000000000000007
 40
0.5000000000000007
 40
0.5312500000000007
 40
0.5312500000000007
 40
0.5625000000000006
 40
0.5625000000000006
 40
0.6250000000000004
 40
0.6250000000000004
 40
0.6562500000000003
 40
0.6562500000000003
 40
0.6875000000000003
 40
0.6875000000000003
 40
0.7187500000000003
 40
0.7187500000000003
 40
0.7500000000000002
 40
0.7500000000000002
 40
0.7812500000000002
 40
0.7812500000000002
 40
0.8125000000000002
 40
0.8125000000000002
 40
0.8437500000000002
 40
0.8437500000000002
 40
0.8750000000000001
 40
0.8750000000000001
 40
0.9062500000000001
 40
0.9062500000000001
 40
0.9375000000000001
 40
0.9375000000000001
 40
1.0
 40
1.0
 40
1.0
 40
1.0
 10
97.29491670401131
 20
149.7925348674046
 30
0.0
 10
97.20304763182733
 20
149.7047497528137
 30
0.0
 10
97.10158849263189
 20
149.6212798881185
 30
0.0
 10
96.87446618383105
 20
149.4649597205852
 30
0.0
 10
96.75151381446732
 20
149.3927748482326
 30
0.0
 10
96.49211656217658
 20
149.2648635125593
 30
0.0
 10
96.35282896721642
 20
149.2079293996164
 30
0.0
 10
96.07148430327672
 20
149.114455438033
 30
0.0
 10
95.92878306961099
 20
149.0774873428879
 30
0.0
 10
95.49541971834698
 20
148.9922856130142
 30
0.0
 10
95.21815734738962
 20
148.9716501232498
 30
0.0
 10
94.68222444864031
 20
148.9694111266421
 30
0.0
 10
94.43474466373591
 20
148.9913378923527
 30
0.0
 10
94.10761969572967
 20
149.0771751289042
 30
0.0
 10
94.01019907332879
 20
149.1145806045023
 30
0.0
 10
93.84011452974312
 20
149.2065805211088
 30
0.0
 10
93.76663557544352
 20
149.2621163155049
 30
0.0
 10
93.59329374663044
 20
149.4489926188635
 30
0.0
 10
93.53804868819783
 20
149.6051018550018
 30
0.0
 10
93.54111409006046
 20
149.8609076435601
 30
0.0
 10
93.5550267437281
 20
149.9505709932338
 30
0.0
 10
93.60307405348378
 20
150.1314349064852
 30
0.0
 10
93.63673304749992
 20
150.2229282665106
 30
0.0
 10
93.76052806005022
 20
150.5000484422362
 30
0.0
 10
93.870032032315
 20
150.6900071277641
 30
0.0
 10
94.08089809645274
 20
150.9693765605634
 30
0.0
 10
94.15927852709682
 20
151.0617438650783
 30
0.0
 10
94.33729963757783
 20
151.244383720068
 30
0.0
 10
94.4367467104752
 20
151.3340740493623
 30
0.0
 10
94.75973038412869
 20
151.5872426503325
 30
0.0
 10
95.01554958396063
 20
151.739631249234
 30
0.0
 10
95.42133194683085
 20
151.9170634256049
 30
0.0
 10
95.56323691662028
 20
151.9684364413211
 30
0.0
 10
95.84438925198357
 20
152.0494580065983
 30
0.0
 10
95.9849805351219
 20
152.0797573616559
 30
0.0
 10
96.26639670649902
 20
152.1226352600108
 30
0.0
 10
96.40358463163054
 20
152.133858385955
 30
0.0
 10
96.67083682639351
 20
152.1415226874672
 30
0.0
 10
96.80122079088561
 20
152.1376510362611
 30
0.0
 10
97.05313050143582
 20
152.1097820508722
 30
0.0
 10
97.17178883005535
 20
152.0864826908663
 30
0.0
 10
97.38858202995608
 20
152.0187206601175
 30
0.0
 10
97.48827213048952
 20
151.9735570522787
 30
0.0
 10
97.65966958806473
 20
151.8660642943012
 30
0.0
 10
97.73252824296029
 20
151.8041081242139
 30
0.0
 10
97.85239503249197
 20
151.6642537417067
 30
0.0
 10
97.89797373076357
 20
151.5871275344181
 30
0.0
 10
97.9569937586563
 20
151.4235858714539
 30
0.0
 10
97.97082555077779
 20
151.3355610935426
 30
0.0
 10
97.97184675906021
 20
151.1554763943322
 30
0.0
 10
97.95915710654765
 20
151.0638881681401
 30
0.0
 10
97.89121946704464
 20
150.785798521089
 30
0.0
 10
97.80372468103319
 20
150.5955806892864
 30
0.0
 10
97.69755155688186
 20
150.4075518032204
 30
0.0
  0
SPLINE
  5
282
330
1F
100
AcDbEntity
  8
0
  6
Continuous
 62
     7
370
    18
100
AcDbSpline
210
0.0
220
0.0
230
1.0
 70
     8
 71
     3
 72
     8
 73
     4
 74
     0
 42
0.00000001
 43
0.00000001
 40
0.000000000000343
 40
0.000000000000343
 40
0.000000000000343
 40
0.000000000000343
 40
0.0002369564930665
 40
0.0002369564930665
 40
0.0002369564930665
 40
0.0002369564930665
 10
97.43500682145967
 20
149.9330267895958
 30
0.0
 10
97.38914285509142
 20
149.885981769836
 30
0.0
 10
97.34338596107432
 20
149.8388494669119
 30
0.0
 10
97.29491670398444
 20
149.7925348673789
 30
0.0
  0
LWPOLYLINE
  5
283
330
1F
100
AcDbEntity
  8
0
  6
Continuous
 62
     7
370
    18
100
AcDbPolyline
 90
        4
 70
   128
 43
0.0
 10
97.4350068218
 20
149.9330267897
 10
97.4496342775
 20
149.8837779959
 10
97.4642616185
 20
149.834529216
 10
97.4923677719
 20
149.7398975969
  0
SPLINE
  5
284
330
1F
100
AcDbEntity
  8
0
  6
Continuous
 62
     7
370
    18
100
AcDbSpline
210
0.0
220
0.0
230
1.0
 70
     8
 71
     3
 72
    28
 73
    24
 74
     0
 42
0.00000001
 43
0.00000001
 40
0.0
 40
0.0
 40
0.0
 40
0.0
 40
0.1249999999999998
 40
0.1249999999999998
 40
0.2499999999999997
 40
0.2499999999999997
 40
0.3749999999999995
 40
0.3749999999999995
 40
0.4999999999999993
 40
0.4999999999999993
 40
0.6249999999999991
 40
0.6249999999999991
 40
0.6874999999999993
 40
0.6874999999999993
 40
0.7499999999999994
 40
0.7499999999999994
 40
0.8124999999999996
 40
0.8124999999999996
 40
0.8749999999999997
 40
0.8749999999999997
 40
0.9374999999999999
 40
0.9374999999999999
 40
1.0
 40
1.0
 40
1.0
 40
1.0
 10
94.39490679421354
 20
150.2764343779674
 30
0.0
 10
94.3570763161379
 20
150.1717666740292
 30
0.0
 10
94.33499989287543
 20
150.070087078207
 30
0.0
 10
94.3300195123726
 20
149.873826066236
 30
0.0
 10
94.34994143210494
 20
149.7833123454317
 30
0.0
 10
94.44835700623241
 20
149.6228468566565
 30
0.0
 10
94.52375582596123
 20
149.5562534028048
 30
0.0
 10
94.72223741699365
 20
149.4520383411482
 30
0.0
 10
94.84308562704084
 20
149.4172972424319
 30
0.0
 10
95.12236221873584
 20
149.3858963106356
 30
0.0
 10
95.27409896852976
 20
149.3868981072013
 30
0.0
 10
95.51188580716567
 20
149.4138420228325
 30
0.0
 10
95.59162785101707
 20
149.4270396663974
 30
0.0
 10
95.75217584349421
 20
149.4633087918062
 30
0.0
 10
95.8338242701446
 20
149.4869212298619
 30
0.0
 10
95.98999895013708
 20
149.5436469437147
 30
0.0
 10
96.06558848035979
 20
149.5763731421036
 30
0.0
 10
96.21148143739755
 20
149.6511163878108
 30
0.0
 10
96.2804814598948
 20
149.6925774371128
 30
0.0
 10
96.40983652385029
 20
149.7789375134623
 30
0.0
 10
96.4706683364337
 20
149.824339481322
 30
0.0
 10
96.58530897429105
 20
149.9192537548452
 30
0.0
 10
96.63869418138636
 20
149.9686722275342
 30
0.0
 10
96.69190904147254
 20
150.0178471658973
 30
0.0
  0
SPLINE
  5
285
330
1F
100
AcDbEntity
  8
0
  6
Continuous
 62
     7
370
    18
100
AcDbSpline
210
0.0
220
0.0
230
1.0
 70
     8
 71
     3
 72
     9
 73
     5
 74
     0
 42
0.00000001
 43
0.00000001
 40
0.0
 40
0.0
 40
0.0
 40
0.0
 40
0.4996863269310988
 40
1.0
 40
1.0
 40
1.0
 40
1.0
 10
96.69190093964261
 20
150.0178855925143
 30
0.0
 10
96.8153920028107
 20
150.0046658868913
 30
0.0
 10
97.062529169694
 20
149.9782098785705
 30
0.0
 10
97.31079568836074
 20
149.9480941171262
 30
0.0
 10
97.43500682221492
 20
149.9330267899008
 30
0.0
  0
SPLINE
  5
286
330
1F
100
AcDbEntity
  8
0
  6
Continuous
 62
     7
370
    18
100
AcDbSpline
210
0.0
220
0.0
230
1.0
 70
     8
 71
     3
 72
     8
 73
     4
 74
     0
 42
0.00000001
 43
0.00000001
 40
0.0
 40
0.0
 40
0.0
 40
0.0
 40
1.0
 40
1.0
 40
1.0
 40
1.0
 10
97.69753162005772
 20
150.4075050627407
 30
0.0
 10
96.59453032620901
 20
150.4447807831148
 30
0.0
 10
95.50746578858929
 20
150.436694932956
 30
0.0
 10
94.43627789031933
 20
150.3834186258847
 30
0.0
  0
SPLINE
  5
287
330
1F
100
AcDbEntity
  8
0
  6
Continuous
 62
     7
370
    18
100
AcDbSpline
210
0.0
220
0.0
230
1.0
 70
     8
 71
     3
 72
    10
 73
     6
 74
     0
 42
0.00000001
 43
0.00000001
 40
0.9634028753176807
 40
0.9634028753176807
 40
0.9634028753176807
 40
0.9634028753176807
 40
0.9687498625884113
 40
0.9687498625884113
 40
0.9999214899902554
 40
0.9999214899902554
 40
0.9999214899902554
 40
0.9999214899902554
 10
94.39490679434222
 20
150.2764343776508
 30
0.0
 10
94.39649252833532
 20
150.2808217166562
 30
0.0
 10
94.39814151456389
 20
150.2853311887218
 30
0.0
 10
94.40983627384242
 20
150.3169639186247
 30
0.0
 10
94.42197114044866
 20
150.3481158534732
 30
0.0
 10
94.43627788116845
 20
150.3834186258857
 30
0.0
  0
SPLINE
  5
288
330
1F
100
AcDbEntity
  8
0
  6
Continuous
 62
     7
370
    18
100
AcDbSpline
210
0.0
220
0.0
230
1.0
 70
     8
 71
     3
 72
    32
 73
    28
 74
     0
 42
0.00000001
 43
0.00000001
 40
0.0
 40
0.0
 40
0.0
 40
0.0
 40
0.0625000000000004
 40
0.0625000000000004
 40
0.1250000000000008
 40
0.1250000000000008
 40
0.2500000000000013
 40
0.2500000000000013
 40
0.3125000000000013
 40
0.3125000000000013
 40
0.3750000000000014
 40
0.3750000000000014
 40
0.5000000000000012
 40
0.5000000000000012
 40
0.6250000000000009
 40
0.6250000000000009
 40
0.6875000000000008
 40
0.6875000000000008
 40
0.7500000000000007
 40
0.7500000000000007
 40
0.8125000000000006
 40
0.8125000000000006
 40
0.8750000000000003
 40
0.8750000000000003
 40
0.9375000000000002
 40
0.9375000000000002
 40
1.0
 40
1.0
 40
1.0
 40
1.0
 10
94.68935248177404
 20
150.8045407415945
 30
0.0
 10
94.72484751389351
 20
150.8613765857068
 30
0.0
 10
94.76169733408126
 20
150.9180768565311
 30
0.0
 10
94.85004877757034
 20
151.0299870457351
 30
0.0
 10
94.89972222589329
 20
151.0856751653866
 30
0.0
 10
95.06815341303724
 20
151.2488109101578
 30
0.0
 10
95.20183300948327
 20
151.3483721227107
 30
0.0
 10
95.43205774105292
 20
151.4782226152355
 30
0.0
 10
95.51146937225076
 20
151.517129058333
 30
0.0
 10
95.67555642327102
 20
151.5862557089968
 30
0.0
 10
95.7613557081527
 20
151.6167343714464
 30
0.0
 10
96.01657642048548
 20
151.6882330042269
 30
0.0
 10
96.18865352175877
 20
151.7117935107722
 30
0.0
 10
96.51109004585136
 20
151.7193411797158
 30
0.0
 10
96.66623765157465
 20
151.7035646904759
 30
0.0
 10
96.86009896258041
 20
151.6423357277542
 30
0.0
 10
96.91914517659966
 20
151.6155230071897
 30
0.0
 10
97.02125787930356
 20
151.5511516181409
 30
0.0
 10
97.06407509366564
 20
151.5140485891673
 30
0.0
 10
97.13544872641484
 20
151.4314713949254
 30
0.0
 10
97.16279886465789
 20
151.3854093257027
 30
0.0
 10
97.19462741195238
 20
151.2873761972602
 30
0.0
 10
97.19984529713363
 20
151.2347899141551
 30
0.0
 10
97.19679728917635
 20
151.1261305992139
 30
0.0
 10
97.18852686362267
 20
151.0709915454046
 30
0.0
 10
97.16048517524973
 20
150.9593790807855
 30
0.0
 10
97.14097168674884
 20
150.9029352723228
 30
0.0
 10
97.12144132542473
 20
150.8464887347048
 30
0.0
  0
SPLINE
  5
289
330
1F
100
AcDbEntity
  8
0
  6
Continuous
 62
     7
370
    18
100
AcDbSpline
210
0.0
220
0.0
230
1.0
 70
     8
 71
     3
 72
     8
 73
     4
 74
     0
 42
0.00000001
 43
0.00000001
 40
0.0
 40
0.0
 40
0.0
 40
0.0
 40
1.0
 40
1.0
 40
1.0
 40
1.0
 10
97.12142879671876
 20
150.8464724931094
 30
0.0
 10
96.30126710151796
 20
150.8584236891322
 30
0.0
 10
95.49059063194461
 20
150.844370868077
 30
0.0
 10
94.68933571353547
 20
150.8044885953043
 30
0.0
  0
LINE
  5
28A
330
1F
100
AcDbEntity
  8
0
  6
Continuous
 62
     7
370
    18
100
AcDbLine
 10
104.7780863018
 20
151.187411309
 30
0.0
 11
104.7871883654
 21
150.9941515698
 31
0.0
  0
LWPOLYLINE
  5
28B
330
1F
100
AcDbEntity
  8
0
  6
Continuous
 62
     7
370
    18
100
AcDbPolyline
 90
        4
 70
   128
 43
0.0
 10
103.9930315489
 20
151.0291262063
 10
103.989285464
 20
151.0784728799
 10
103.9855394037
 20
151.1278195527
 10
103.9783393544
 20
151.2226438319
  0
LWPOLYLINE
  5
28C
330
1F
100
AcDbEntity
  8
0
  6
Continuous
 62
     7
370
    18
100
AcDbPolyline
 90
        3
 70
   128
 43
0.0
 10
94.5151595874
 20
150.1903327653
 10
94.4757186704
 20
150.2868755345
 10
94.4362779917
 20
150.3834183548
  0
SPLINE
  5
28D
330
1F
100
AcDbEntity
  8
0
  6
Continuous
 62
     7
370
    18
100
AcDbSpline
210
0.0
220
0.0
230
1.0
 70
     8
 71
     3
 72
    34
 73
    30
 74
     0
 42
0.00000001
 43
0.00000001
 40
0.0
 40
0.0
 40
0.0
 40
0.0
 40
0.0625
 40
0.0625
 40
0.125
 40
0.125
 40
0.1875000000000001
 40
0.1875000000000001
 40
0.2500000000000001
 40
0.2500000000000001
 40
0.3125000000000001
 40
0.3125000000000001
 40
0.3750000000000001
 40
0.3750000000000001
 40
0.4375000000000001
 40
0.4375000000000001
 40
0.5000000000000001
 40
0.5000000000000001
 40
0.6250000000000001
 40
0.6250000000000001
 40
0.6875000000000001
 40
0.6875000000000001
 40
0.7500000000000002
 40
0.7500000000000002
 40
0.8125000000000002
 40
0.8125000000000002
 40
0.8750000000000002
 40
0.8750000000000002
 40
1.0
 40
1.0
 40
1.0
 40
1.0
 10
120.6316372078956
 20
150.5856347599941
 30
0.0
 10
120.704126046717
 20
150.4827972468363
 30
0.0
 10
120.7690922335551
 20
150.3805810226893
 30
0.0
 10
120.886531049109
 20
150.177127454983
 30
0.0
 10
120.93838566288
 20
150.0766872727197
 30
0.0
 10
121.0215315990745
 20
149.8802261574794
 30
0.0
 10
121.052700129613
 20
149.7841579711527
 30
0.0
 10
121.0803774730176
 20
149.5989320886022
 30
0.0
 10
121.0753841128233
 20
149.5116849044962
 30
0.0
 10
121.0287741244276
 20
149.3541712586713
 30
0.0
 10
120.9867844106487
 20
149.2819097003712
 30
0.0
 10
120.8684263286417
 20
149.1594113671107
 30
0.0
 10
120.7918457238226
 20
149.1080695591287
 30
0.0
 10
120.6099022103009
 20
149.0240897238734
 30
0.0
 10
120.5075890124681
 20
148.9914963755165
 30
0.0
 10
120.2782559359557
 20
148.9465765157573
 30
0.0
 10
120.152006558709
 20
148.9338687079309
 30
0.0
 10
119.7558830564817
 20
148.9222557676814
 30
0.0
 10
119.4621247149319
 20
148.9459116770466
 30
0.0
 10
119.0109434710319
 20
149.0387111870572
 30
0.0
 10
118.8549751501001
 20
149.0813413861835
 30
0.0
 10
118.5482405034188
 20
149.1856085662041
 30
0.0
 10
118.3989973730904
 20
149.2472392704589
 30
0.0
 10
118.1083724346869
 20
149.3886271287735
 30
0.0
 10
117.96751002269
 20
149.4691907166111
 30
0.0
 10
117.7120072044862
 20
149.6416407251439
 30
0.0
 10
117.5940087941771
 20
149.7356569178337
 30
0.0
 10
117.2753962669269
 20
150.0259216095657
 30
0.0
 10
117.1086815405403
 20
150.228839357601
 30
0.0
 10
116.9709170606239
 20
150.4359072331522
 30
0.0
  0
SPLINE
  5
28E
330
1F
100
AcDbEntity
  8
0
  6
Continuous
 62
     7
370
    18
100
AcDbSpline
210
0.0
220
0.0
230
1.0
 70
     8
 71
     3
 72
    40
 73
    36
 74
     0
 42
0.00000001
 43
0.00000001
 40
0.0
 40
0.0
 40
0.0
 40
0.0
 40
0.0312500000000003
 40
0.0312500000000003
 40
0.0468749999999999
 40
0.0468749999999999
 40
0.0624999999999995
 40
0.0624999999999995
 40
0.1249999999999995
 40
0.1249999999999995
 40
0.1874999999999994
 40
0.1874999999999994
 40
0.2499999999999994
 40
0.2499999999999994
 40
0.3124999999999994
 40
0.3124999999999994
 40
0.3749999999999994
 40
0.3749999999999994
 40
0.4374999999999994
 40
0.4374999999999994
 40
0.4999999999999994
 40
0.4999999999999994
 40
0.5624999999999993
 40
0.5624999999999993
 40
0.6249999999999993
 40
0.6249999999999993
 40
0.6874999999999993
 40
0.6874999999999993
 40
0.7499999999999992
 40
0.7499999999999992
 40
0.8124999999999992
 40
0.8124999999999992
 40
0.8749999999999992
 40
0.8749999999999992
 40
1.0
 40
1.0
 40
1.0
 40
1.0
 10
116.9709170606239
 20
150.4359072331523
 30
0.0
 10
116.9384790161912
 20
150.4846634651781
 30
0.0
 10
116.9065517723676
 20
150.5334324598311
 30
0.0
 10
116.8588274397694
 20
150.6065895409821
 30
0.0
 10
116.8429610742511
 20
150.6309761973471
 30
0.0
 10
116.8112969772298
 20
150.6797510679829
 30
0.0
 10
116.7946337824313
 20
150.7041158474035
 30
0.0
 10
116.7388237855469
 20
150.82668491412
 30
0.0
 10
116.6998114320983
 20
150.9243338897954
 30
0.0
 10
116.6387312034268
 20
151.1165184887104
 30
0.0
 10
116.6191362847295
 20
151.2108905697979
 30
0.0
 10
116.6111340332732
 20
151.3944926929294
 30
0.0
 10
116.6230583342079
 20
151.4837097698053
 30
0.0
 10
116.6820399961573
 20
151.6451882582493
 30
0.0
 10
116.7302856564146
 20
151.7192310155581
 30
0.0
 10
116.8562563984392
 20
151.8491772184005
 30
0.0
 10
116.9331152499155
 20
151.9046202541051
 30
0.0
 10
117.1149624670775
 20
151.9955001308314
 30
0.0
 10
117.2186849532175
 20
152.0307652149962
 30
0.0
 10
117.4438197711347
 20
152.0783947690513
 30
0.0
 10
117.5666355371111
 20
152.0918658902154
 30
0.0
 10
117.8222246642658
 20
152.100233591559
 30
0.0
 10
117.9542416825286
 20
152.0960266928591
 30
0.0
 10
118.2278395317676
 20
152.0690790923724
 30
0.0
 10
118.3700113498767
 20
152.0456588616584
 30
0.0
 10
118.6549828749466
 20
151.9776759412231
 30
0.0
 10
118.8002872730651
 20
151.9323574008995
 30
0.0
 10
119.0894903064991
 20
151.8209798948327
 30
0.0
 10
119.2302003499228
 20
151.7562019326255
 30
0.0
 10
119.5046199622398
 20
151.61021315604
 30
0.0
 10
119.6390999370144
 20
151.5287225068674
 30
0.0
 10
119.8872552101219
 20
151.3567308210225
 30
0.0
 10
120.0034179612225
 20
151.2649184378145
 30
0.0
 10
120.3243090847654
 20
150.9789052417201
 30
0.0
 10
120.4921078755684
 20
150.7835803993835
 30
0.0
 10
120.6316372078956
 20
150.5856347599941
 30
0.0
  0
SPLINE
  5
28F
330
1F
100
AcDbEntity
  8
0
  6
Continuous
 62
     7
370
    18
100
AcDbSpline
210
0.0
220
0.0
230
1.0
 70
     8
 71
     3
 72
    32
 73
    28
 74
     0
 42
0.00000001
 43
0.00000001
 40
0.0
 40
0.0
 40
0.0
 40
0.0
 40
0.125000000000001
 40
0.125000000000001
 40
0.1875000000000014
 40
0.1875000000000014
 40
0.2500000000000018
 40
0.2500000000000018
 40
0.3750000000000028
 40
0.3750000000000028
 40
0.4375000000000024
 40
0.4375000000000024
 40
0.5000000000000021
 40
0.5000000000000021
 40
0.5625000000000018
 40
0.5625000000000018
 40
0.6250000000000016
 40
0.6250000000000016
 40
0.6875000000000012
 40
0.6875000000000012
 40
0.7500000000000009
 40
0.7500000000000009
 40
0.8125000000000007
 40
0.8125000000000007
 40
0.8750000000000003
 40
0.8750000000000003
 40
1.0
 40
1.0
 40
1.0
 40
1.0
 10
119.9669434032232
 20
150.5830815903186
 30
0.0
 10
120.0645235234898
 20
150.4429481897722
 30
0.0
 10
120.1487102053756
 20
150.3028519057837
 30
0.0
 10
120.2415012417626
 20
150.0985183060556
 30
0.0
 10
120.266791729349
 20
150.0315604579453
 30
0.0
 10
120.3017699839644
 20
149.9007576227732
 30
0.0
 10
120.3111513645593
 20
149.8362115422203
 30
0.0
 10
120.303347155336
 20
149.6566603760425
 30
0.0
 10
120.2474837277078
 20
149.5542071457694
 30
0.0
 10
120.0995944748561
 20
149.441538296744
 30
0.0
 10
120.0374099965209
 20
149.4107195430008
 30
0.0
 10
119.8943047872322
 20
149.3680580227848
 30
0.0
 10
119.812691849069
 20
149.3555435004042
 30
0.0
 10
119.6343133910056
 20
149.3462835746678
 30
0.0
 10
119.5403968791749
 20
149.3488541048392
 30
0.0
 10
119.3426267340857
 20
149.3692388147167
 30
0.0
 10
119.2398405065569
 20
149.3875611620572
 30
0.0
 10
119.0342821249822
 20
149.4407186824765
 30
0.0
 10
118.9288093338935
 20
149.476502688375
 30
0.0
 10
118.724329763666
 20
149.5610856354133
 30
0.0
 10
118.6252220607133
 20
149.6094991315455
 30
0.0
 10
118.4348588171183
 20
149.7180836350149
 30
0.0
 10
118.346751668921
 20
149.7765411005736
 30
0.0
 10
118.1846232079672
 20
149.9019304673055
 30
0.0
 10
118.109708311273
 20
149.9683934725818
 30
0.0
 10
117.9070502398763
 20
150.1692051277395
 30
0.0
 10
117.7949087188096
 20
150.3081263894254
 30
0.0
 10
117.70122881051
 20
150.4482949837679
 30
0.0
  0
SPLINE
  5
290
330
1F
100
AcDbEntity
  8
0
  6
Continuous
 62
     7
370
    18
100
AcDbSpline
210
0.0
220
0.0
230
1.0
 70
     8
 71
     3
 72
    30
 73
    26
 74
     0
 42
0.00000001
 43
0.00000001
 40
0.0
 40
0.0
 40
0.0
 40
0.0
 40
0.125000000000001
 40
0.125000000000001
 40
0.2500000000000019
 40
0.2500000000000019
 40
0.3125000000000016
 40
0.3125000000000016
 40
0.3750000000000012
 40
0.3750000000000012
 40
0.4375000000000009
 40
0.4375000000000009
 40
0.5000000000000006
 40
0.5000000000000006
 40
0.5625000000000001
 40
0.5625000000000001
 40
0.6249999999999998
 40
0.6249999999999998
 40
0.7500000000000004
 40
0.7500000000000004
 40
0.8125000000000004
 40
0.8125000000000004
 40
0.8750000000000003
 40
0.8750000000000003
 40
1.0
 40
1.0
 40
1.0
 40
1.0
 10
117.70122881051
 20
150.4482949837679
 30
0.0
 10
117.6104391867177
 20
150.5841389889428
 30
0.0
 10
117.5297598168804
 20
150.7209746454551
 30
0.0
 10
117.4185981872623
 20
150.9885744037454
 30
0.0
 10
117.3861038394435
 20
151.1183287270362
 30
0.0
 10
117.4042639967351
 20
151.3004163715664
 30
0.0
 10
117.4220245836051
 20
151.3561350001298
 30
0.0
 10
117.4803726368581
 20
151.457539846874
 30
0.0
 10
117.5215799442594
 20
151.503356571315
 30
0.0
 10
117.6233035422792
 20
151.5794867310585
 30
0.0
 10
117.6851947688458
 20
151.6105383463172
 30
0.0
 10
117.8289137110659
 20
151.6546566814695
 30
0.0
 10
117.9088751126228
 20
151.6673654745993
 30
0.0
 10
118.0820753972788
 20
151.6771112050349
 30
0.0
 10
118.1740608471509
 20
151.6746884383825
 30
0.0
 10
118.3634655766458
 20
151.6545573747807
 30
0.0
 10
118.4634928299481
 20
151.6358976699336
 30
0.0
 10
118.7612819040557
 20
151.5547958991554
 30
0.0
 10
118.963474861994
 20
151.4659221682859
 30
0.0
 10
119.2382345391163
 20
151.3038830108894
 30
0.0
 10
119.3264154784044
 20
151.244332234167
 30
0.0
 10
119.4863076090795
 20
151.1202358924203
 30
0.0
 10
119.5598315274098
 20
151.054918510152
 30
0.0
 10
119.7630969784379
 20
150.8549542525777
 30
0.0
 10
119.8719267789131
 20
150.719533591368
 30
0.0
 10
119.9669434032232
 20
150.5830815903186
 30
0.0
  0
LINE
  5
291
330
1F
100
AcDbEntity
  8
0
  6
Continuous
 62
     7
370
    18
100
AcDbLine
 10
116.9709170606
 20
150.4359072332
 30
0.0
 11
116.8967450002
 21
150.2425250058
 31
0.0
  0
SPLINE
  5
292
330
1F
100
AcDbEntity
  8
0
  6
Continuous
 62
     7
370
    18
100
AcDbSpline
210
0.0
220
0.0
230
1.0
 70
     8
 71
     3
 72
    14
 73
    10
 74
     0
 42
0.00000001
 43
0.00000001
 40
0.0
 40
0.0
 40
0.0
 40
0.0
 40
0.0682261817544212
 40
0.2455813585352181
 40
0.4008722883824629
 40
0.5532794592791542
 40
0.7297004808453422
 40
0.8690260497434111
 40
1.0
 40
1.0
 40
1.0
 40
1.0
 10
94.92289077916116
 20
150.8085203291532
 30
0.0
 10
94.95363286967662
 20
150.8507574259152
 30
0.0
 10
95.06428957299576
 20
151.0027906093158
 30
0.0
 10
95.3776127338915
 20
151.226952669681
 30
0.0
 10
95.80966723164818
 20
151.4304123764871
 30
0.0
 10
96.27139880035915
 20
151.5306424150247
 30
0.0
 10
96.68552417980526
 20
151.5268446427576
 30
0.0
 10
97.01681612644553
 20
151.4297040600656
 30
0.0
 10
97.12810014497478
 20
151.309505986525
 30
0.0
 10
97.18202294717872
 20
151.2512638684698
 30
0.0
  0
SPLINE
  5
293
330
1F
100
AcDbEntity
  8
0
  6
Continuous
 62
     7
370
    18
100
AcDbSpline
210
0.0
220
0.0
230
1.0
 70
     8
 71
     3
 72
    10
 73
     6
 74
     0
 42
0.00000001
 43
0.00000001
 40
0.0
 40
0.0
 40
0.0
 40
0.0
 40
0.3149087702975132
 40
0.741552166003051
 40
1.0
 40
1.0
 40
1.0
 40
1.0
 10
119.8716768748854
 20
150.3896989205131
 30
0.0
 10
119.9409620659241
 20
150.2823559868729
 30
0.0
 10
120.1041159324809
 20
150.0295831445325
 30
0.0
 10
120.2501850206129
 20
149.685081737005
 30
0.0
 10
120.1915293421498
 20
149.5011332008599
 30
0.0
 10
120.1694017299528
 20
149.4317393761071
 30
0.0
  0
LINE
  5
294
330
1F
100
AcDbEntity
  8
0
  6
Continuous
 62
     7
370
    18
100
AcDbLine
 10
119.9669434058
 20
150.5830815813
 30
0.0
 11
119.8716768749
 21
150.3896989205
 31
0.0
  0
SPLINE
  5
295
330
1F
100
AcDbEntity
  8
0
  6
Continuous
 62
     7
370
    18
100
AcDbSpline
210
0.0
220
0.0
230
1.0
 70
     8
 71
     3
 72
    15
 73
    11
 74
     0
 42
0.00000001
 43
0.00000001
 40
0.0
 40
0.0
 40
0.0
 40
0.0
 40
0.0704150539955483
 40
0.196060506671022
 40
0.3142820712803183
 40
0.434987774200379
 40
0.5675703575774905
 40
0.682346304293015
 40
0.8103819452471182
 40
1.0
 40
1.0
 40
1.0
 40
1.0
 10
117.360349979895
 20
151.1495479088742
 30
0.0
 10
117.3744125483849
 20
151.1941903501479
 30
0.0
 10
117.4135677310733
 20
151.3184907540884
 30
0.0
 10
117.6244477555479
 20
151.4442934694623
 30
0.0
 10
117.9590548404156
 20
151.4948645109324
 30
0.0
 10
118.3594883733201
 20
151.4602220944593
 30
0.0
 10
118.7849602365902
 20
151.3182137828074
 30
0.0
 10
119.1856583810161
 20
151.095433939902
 30
0.0
 10
119.5740346390117
 20
150.7816983880358
 30
0.0
 10
119.7604182807936
 20
150.5362282244384
 30
0.0
 10
119.8716768748854
 20
150.3896989205131
 30
0.0
  0
ARC
  5
296
330
1F
100
AcDbEntity
  8
0
  6
Continuous
 62
     7
370
    18
100
AcDbCircle
 10
84.0563470052
 20
154.744870186
 30
0.0
 40
2.750000000000016
100
AcDbArc
 50
309.1776438658
 51
359.9999999957
  0
LINE
  5
297
330
1F
100
AcDbEntity
  8
0
  6
Continuous
 62
     7
370
    18
100
AcDbLine
 10
86.8063470052
 20
154.7448701858
 30
0.0
 11
125.3063470052
 21
154.7448701858
 31
0.0
  0
ARC
  5
298
330
1F
100
AcDbEntity
  8
0
  6
Continuous
 62
     7
370
    18
100
AcDbCircle
 10
128.0563470052
 20
154.744870186
 30
0.0
 40
2.750000000000014
100
AcDbArc
 50
180.0000000043
 51
230.988788102
  0
SPLINE
  5
299
330
1F
100
AcDbEntity
  8
0
  6
Continuous
 62
     7
370
    18
100
AcDbSpline
210
0.0
220
0.0
230
1.0
 70
     8
 71
     3
 72
     8
 73
     4
 74
     0
 42
0.00000001
 43
0.00000001
 40
0.0
 40
0.0
 40
0.0
 40
0.0
 40
0.0006674915506267
 40
0.0006674915506267
 40
0.0006674915506267
 40
0.0006674915506267
 10
89.34684963878496
 20
151.8176791211804
 30
0.0
 10
89.2332836516739
 20
151.6778555839392
 30
0.0
 10
89.11973546851596
 20
151.5380038619919
 30
0.0
 10
89.00620389010092
 20
151.3981258769319
 30
0.0
  0
SPLINE
  5
29A
330
1F
100
AcDbEntity
  8
0
  6
Continuous
 62
     7
370
    18
100
AcDbSpline
210
0.0
220
0.0
230
1.0
 70
     8
 71
     3
 72
    20
 73
    16
 74
     0
 42
0.00000001
 43
0.00000001
 40
0.0
 40
0.0
 40
0.0
 40
0.0
 40
0.1249999999999999
 40
0.1249999999999999
 40
0.2499999999999999
 40
0.2499999999999999
 40
0.3749999999999998
 40
0.3749999999999998
 40
0.4999999999999998
 40
0.4999999999999998
 40
0.7499999999999999
 40
0.7499999999999999
 40
0.8749999999999999
 40
0.8749999999999999
 40
1.0
 40
1.0
 40
1.0
 40
1.0
 10
89.00626443796128
 20
151.3981129305109
 30
0.0
 10
89.0901182241224
 20
151.4552674558496
 30
0.0
 10
89.1743276834533
 20
151.5117579779761
 30
0.0
 10
89.3479969979172
 20
151.6148169738366
 30
0.0
 10
89.43744730163031
 20
151.663226589159
 30
0.0
 10
89.61560327669167
 20
151.7511405827045
 30
0.0
 10
89.70423260842034
 20
151.7907831084332
 30
0.0
 10
89.880539977651
 20
151.8600056759567
 30
0.0
 10
89.9684336770013
 20
151.8893590091637
 30
0.0
 10
90.22031887403875
 20
151.9585659419042
 30
0.0
 10
90.3780401630057
 20
151.9809730406126
 30
0.0
 10
90.593060204746
 20
151.9875373211665
 30
0.0
 10
90.66131780068464
 20
151.985306704589
 30
0.0
 10
90.78770019495961
 20
151.9683123996824
 30
0.0
 10
90.84648289539383
 20
151.9546248086614
 30
0.0
 10
90.89544622507938
 20
151.9322925688539
 30
0.0
  0
SPLINE
  5
29B
330
1F
100
AcDbEntity
  8
0
  6
Continuous
 62
     7
370
    18
100
AcDbSpline
210
0.0
220
0.0
230
1.0
 70
     8
 71
     3
 72
    12
 73
     8
 74
     0
 42
0.00000001
 43
0.00000001
 40
0.0
 40
0.0
 40
0.0
 40
0.0
 40
0.25
 40
0.25
 40
0.5
 40
0.5
 40
1.0
 40
1.0
 40
1.0
 40
1.0
 10
90.8954462250794
 20
151.9322925688539
 30
0.0
 10
90.93576763533612
 20
151.9139019199945
 30
0.0
 10
90.9691946871082
 20
151.8906241431477
 30
0.0
 10
91.02203056934917
 20
151.8343294222323
 30
0.0
 10
91.04135211556289
 20
151.8006924156275
 30
0.0
 10
91.07493567525135
 20
151.6884529303589
 30
0.0
 10
91.06566737621276
 20
151.5976755138419
 30
0.0
 10
91.02993807923194
 20
151.4987199550519
 30
0.0
  0
SPLINE
  5
29C
330
1F
100
AcDbEntity
  8
0
  6
Continuous
 62
     7
370
    18
100
AcDbSpline
210
0.0
220
0.0
230
1.0
 70
     8
 71
     3
 72
     8
 73
     4
 74
     0
 42
0.00000001
 43
0.00000001
 40
0.0000000000003992
 40
0.0000000000003992
 40
0.0000000000003992
 40
0.0000000000003992
 40
0.0001757985922402
 40
0.0001757985922402
 40
0.0001757985922402
 40
0.0001757985922402
 10
91.02993810842946
 20
151.4987199602292
 30
0.0
 10
91.0797619015688
 20
151.5292437112251
 30
0.0
 10
91.12972685984465
 20
151.5596043540999
 30
0.0
 10
91.18007772855668
 20
151.5894307069695
 30
0.0
  0
SPLINE
  5
29D
330
1F
100
AcDbEntity
  8
0
  6
Continuous
 62
     7
370
    18
100
AcDbSpline
210
0.0
220
0.0
230
1.0
 70
     8
 71
     3
 72
    30
 73
    26
 74
     0
 42
0.00000001
 43
0.00000001
 40
0.0
 40
0.0
 40
0.0
 40
0.0
 40
0.0625000000000001
 40
0.0625000000000001
 40
0.1250000000000001
 40
0.1250000000000001
 40
0.1875000000000002
 40
0.1875000000000002
 40
0.2500000000000003
 40
0.2500000000000003
 40
0.3125000000000003
 40
0.3125000000000003
 40
0.3750000000000004
 40
0.3750000000000004
 40
0.4375000000000005
 40
0.4375000000000005
 40
0.5000000000000006
 40
0.5000000000000006
 40
0.5625000000000007
 40
0.5625000000000007
 40
0.6250000000000007
 40
0.6250000000000007
 40
0.7500000000000007
 40
0.7500000000000007
 40
1.0
 40
1.0
 40
1.0
 40
1.0
 10
91.18007772855668
 20
151.5894307069695
 30
0.0
 10
91.31402529605968
 20
151.6687772508635
 30
0.0
 10
91.45117078366309
 20
151.7394804107585
 30
0.0
 10
91.73183447634217
 20
151.8639676351144
 30
0.0
 10
91.87256940219481
 20
151.9149591112026
 30
0.0
 10
92.14850186710011
 20
151.989502864149
 30
0.0
 10
92.28321969874766
 20
152.0135579971698
 30
0.0
 10
92.5340423598766
 20
152.0326830486038
 30
0.0
 10
92.65346955111141
 20
152.0296111849932
 30
0.0
 10
92.87211465533667
 20
152.0026446189351
 30
0.0
 10
92.97311251854059
 20
151.9770725265211
 30
0.0
 10
93.13593050522081
 20
151.8948841851221
 30
0.0
 10
93.19715998307116
 20
151.8363648106782
 30
0.0
 10
93.26239184182378
 20
151.6929814018359
 30
0.0
 10
93.26498520565777
 20
151.6057335576531
 30
0.0
 10
93.21835643026017
 20
151.4208307041869
 30
0.0
 10
93.17145827130891
 20
151.322417279073
 30
0.0
 10
93.05123340064976
 20
151.1280421122205
 30
0.0
 10
92.97609685016681
 20
151.0304289195442
 30
0.0
 10
92.82470176511589
 20
150.8351675753526
 30
0.0
 10
92.74743834223146
 20
150.7375414687057
 30
0.0
 10
92.51339439893607
 20
150.4448964763004
 30
0.0
 10
92.35347643434261
 20
150.2500139964672
 30
0.0
 10
91.87604116353525
 20
149.66516799833
 30
0.0
 10
91.56323182946397
 20
149.2748674530351
 30
0.0
 10
91.25101240280605
 20
148.8844936832699
 30
0.0
  0
SPLINE
  5
29E
330
1F
100
AcDbEntity
  8
0
  6
Continuous
 62
     7
370
    18
100
AcDbSpline
210
0.0
220
0.0
230
1.0
 70
     8
 71
     3
 72
     9
 73
     5
 74
     0
 42
0.00000001
 43
0.00000001
 40
0.0
 40
0.0
 40
0.0
 40
0.0
 40
0.5001742357577866
 40
1.0
 40
1.0
 40
1.0
 40
1.0
 10
91.25100106920559
 20
148.8844797807225
 30
0.0
 10
91.14473287750457
 20
148.890094881122
 30
0.0
 10
90.93227053117835
 20
148.9013211698792
 30
0.0
 10
90.72141907843007
 20
148.9092728116284
 30
0.0
 10
90.6160300899186
 20
148.9132472470427
 30
0.0
  0
SPLINE
  5
29F
330
1F
100
AcDbEntity
  8
0
  6
Continuous
 62
     7
370
    18
100
AcDbSpline
210
0.0
220
0.0
230
1.0
 70
     8
 71
     3
 72
    42
 73
    38
 74
     0
 42
0.00000001
 43
0.00000001
 40
0.0
 40
0.0
 40
0.0
 40
0.0
 40
0.1250000000000002
 40
0.1250000000000002
 40
0.2500000000000005
 40
0.2500000000000005
 40
0.3125000000000005
 40
0.3125000000000005
 40
0.3437500000000005
 40
0.3437500000000005
 40
0.3750000000000005
 40
0.3750000000000005
 40
0.4062500000000006
 40
0.4062500000000006
 40
0.4375000000000006
 40
0.4375000000000006
 40
0.4687500000000006
 40
0.4687500000000006
 40
0.5000000000000006
 40
0.5000000000000006
 40
0.5312500000000007
 40
0.5312500000000007
 40
0.5625000000000007
 40
0.5625000000000007
 40
0.5937500000000008
 40
0.5937500000000008
 40
0.6250000000000008
 40
0.6250000000000008
 40
0.6875000000000003
 40
0.6875000000000003
 40
0.7187500000000002
 40
0.7187500000000002
 40
0.75
 40
0.75
 40
0.8750000000000001
 40
0.8750000000000001
 40
1.0
 40
1.0
 40
1.0
 40
1.0
 10
90.61603001974369
 20
148.9132472497292
 30
0.0
 10
90.81843232362164
 20
149.1663264725027
 30
0.0
 10
91.02083671931202
 20
149.4193992508102
 30
0.0
 10
91.42814683305544
 20
149.9254307052079
 30
0.0
 10
91.63409119698315
 20
150.1783449134113
 30
0.0
 10
91.93905639445055
 20
150.5578580253298
 30
0.0
 10
92.04001497162027
 20
150.6844041279274
 30
0.0
 10
92.18898410006518
 20
150.8742384204144
 30
0.0
 10
92.23848463785296
 20
150.9375170306563
 30
0.0
 10
92.33092312946752
 20
151.0641152505285
 30
0.0
 10
92.37546764781737
 20
151.127944501429
 30
0.0
 10
92.4422203261356
 20
151.2525077124662
 30
0.0
 10
92.46205885297988
 20
151.3139936515316
 30
0.0
 10
92.45651112744422
 20
151.420112589583
 30
0.0
 10
92.43221332412244
 20
151.4651128436978
 30
0.0
 10
92.35243102995499
 20
151.5347973855164
 30
0.0
 10
92.29805254880452
 20
151.55917191597
 30
0.0
 10
92.16780773654081
 20
151.5869550887067
 30
0.0
 10
92.09439632140746
 20
151.5909593914165
 30
0.0
 10
91.93601732414534
 20
151.5848040968028
 30
0.0
 10
91.85297921796574
 20
151.5750132317096
 30
0.0
 10
91.67914334266055
 20
151.5376900957768
 30
0.0
 10
91.58774556845026
 20
151.5097372862744
 30
0.0
 10
91.40768819382669
 20
151.4414409889529
 30
0.0
 10
91.31598834552555
 20
151.3997130441522
 30
0.0
 10
91.14170043031785
 20
151.3042258373048
 30
0.0
 10
91.05912784958765
 20
151.2507228396709
 30
0.0
 10
90.82647035306165
 20
151.0752838125283
 30
0.0
 10
90.6997792090131
 20
150.9494792249925
 30
0.0
 10
90.5333538927436
 20
150.7600037253826
 30
0.0
 10
90.48138224815742
 20
150.6968349870226
 30
0.0
 10
90.3775439676601
 20
150.5704976314574
 30
0.0
 10
90.32629890656803
 20
150.5073270897299
 30
0.0
 10
90.07146872155857
 20
150.1914699201857
 30
0.0
 10
89.87400866317041
 20
149.9388111312272
 30
0.0
 10
89.4716068574637
 20
149.4334168735826
 30
0.0
 10
89.26817013831814
 20
149.1806730295464
 30
0.0
 10
89.06473708637883
 20
148.9279284491299
 30
0.0
  0
SPLINE
  5
2A0
330
1F
100
AcDbEntity
  8
0
  6
Continuous
 62
     7
370
    18
100
AcDbSpline
210
0.0
220
0.0
230
1.0
 70
     8
 71
     3
 72
     9
 73
     5
 74
     0
 42
0.00000001
 43
0.00000001
 40
0.0
 40
0.0
 40
0.0
 40
0.0
 40
0.4998972395888452
 40
0.9999999999999999
 40
0.9999999999999999
 40
0.9999999999999999
 40
0.9999999999999999
 10
89.06473708613396
 20
148.9279284491874
 30
0.0
 10
88.96252120716875
 20
148.9259251502487
 30
0.0
 10
88.75804742561859
 20
148.9219177287627
 30
0.0
 10
88.55542353661566
 20
148.9146257144232
 30
0.0
 10
88.45409077040006
 20
148.9109789579231
 30
0.0
  0
SPLINE
  5
2A1
330
1F
100
AcDbEntity
  8
0
  6
Continuous
 62
     7
370
    18
100
AcDbSpline
210
0.0
220
0.0
230
1.0
 70
     8
 71
     3
 72
    36
 73
    32
 74
     0
 42
0.00000001
 43
0.00000001
 40
0.0
 40
0.0
 40
0.0
 40
0.0
 40
0.250000000000006
 40
0.250000000000006
 40
0.3750000000000083
 40
0.3750000000000083
 40
0.4375000000000089
 40
0.4375000000000089
 40
0.4687500000000085
 40
0.4687500000000085
 40
0.5000000000000077
 40
0.5000000000000077
 40
0.5312500000000069
 40
0.5312500000000069
 40
0.5625000000000059
 40
0.5625000000000059
 40
0.593750000000005
 40
0.593750000000005
 40
0.6250000000000041
 40
0.6250000000000041
 40
0.6875000000000034
 40
0.6875000000000034
 40
0.7187500000000031
 40
0.7187500000000031
 40
0.7500000000000028
 40
0.7500000000000028
 40
0.8125000000000022
 40
0.8125000000000022
 40
0.8750000000000018
 40
0.8750000000000018
 40
1.0
 40
1.0
 40
1.0
 40
1.0
 10
88.45409853321738
 20
148.910988420254
 30
0.0
 10
88.80330830669409
 20
149.3495147377588
 30
0.0
 10
89.15688486626105
 20
149.7881830248425
 30
0.0
 10
89.68977736413407
 20
150.446244552074
 30
0.0
 10
89.86698452751189
 20
150.6657389308413
 30
0.0
 10
90.12183107629217
 20
150.9939625252229
 30
0.0
 10
90.20206828576858
 20
151.1027847693565
 30
0.0
 10
90.27747743372532
 20
151.2599693449991
 30
0.0
 10
90.29558212310104
 20
151.3110574590198
 30
0.0
 10
90.30403317442948
 20
151.4022861155925
 30
0.0
 10
90.29372380347098
 20
151.44188008747
 30
0.0
 10
90.23836378372025
 20
151.499770621427
 30
0.0
 10
90.19451829263025
 20
151.5168258908036
 30
0.0
 10
90.09154103127527
 20
151.5353777658063
 30
0.0
 10
90.03264320538545
 20
151.5364456282893
 30
0.0
 10
89.90546345219096
 20
151.5278541894426
 30
0.0
 10
89.8381755839913
 20
151.5180079344081
 30
0.0
 10
89.69679970274134
 20
151.4859841929189
 30
0.0
 10
89.62179849726688
 20
151.4634611755887
 30
0.0
 10
89.395981597376
 20
151.3803306695301
 30
0.0
 10
89.23725518749875
 20
151.3021232616092
 30
0.0
 10
89.01965424780487
 20
151.1596652979397
 30
0.0
 10
88.94874240879736
 20
151.1075418362643
 30
0.0
 10
88.81781612563807
 20
151.0016085036416
 30
0.0
 10
88.75715638261597
 20
150.9473036444466
 30
0.0
 10
88.58389089288058
 20
150.7820015261858
 30
0.0
 10
88.4825889667622
 20
150.6709322255365
 30
0.0
 10
88.29334599637097
 20
150.4515177497613
 30
0.0
 10
88.20413044993643
 20
150.3422093255579
 30
0.0
 10
87.93639732919343
 20
150.0142340335812
 30
0.0
 10
87.76177868213878
 20
149.7958217608519
 30
0.0
 10
87.58608563659304
 20
149.577263594623
 30
0.0
  0
SPLINE
  5
2A2
330
1F
100
AcDbEntity
  8
0
  6
Continuous
 62
     7
370
    18
100
AcDbSpline
210
0.0
220
0.0
230
1.0
 70
     8
 71
     3
 72
    11
 73
     7
 74
     0
 42
0.00000001
 43
0.00000001
 40
0.0
 40
0.0
 40
0.0
 40
0.0
 40
0.0005100610198542
 40
0.0005100610198542
 40
0.0005100610198542
 40
0.0012140114725442
 40
0.0012140114725442
 40
0.0012140114725442
 40
0.0012140114725442
 10
87.58608563659303
 20
149.577263594623
 30
0.0
 10
87.50006413546559
 20
149.4702547970678
 30
0.0
 10
87.41352638974094
 20
149.3631801522593
 30
0.0
 10
87.32691337578876
 20
149.2560879701165
 30
0.0
 10
87.20737605664029
 20
149.1082867128807
 30
0.0
 10
87.08755329149709
 20
148.9604365380144
 30
0.0
 10
86.96768275174018
 20
148.8125631871872
 30
0.0
  0
SPLINE
  5
2A3
330
1F
100
AcDbEntity
  8
0
  6
Continuous
 62
     7
370
    18
100
AcDbSpline
210
0.0
220
0.0
230
1.0
 70
     8
 71
     3
 72
     9
 73
     5
 74
     0
 42
0.00000001
 43
0.00000001
 40
0.0
 40
0.0
 40
0.0
 40
0.0
 40
0.4997863278069991
 40
1.0
 40
1.0
 40
1.0
 40
1.0
 10
86.96768275220343
 20
148.8125631873351
 30
0.0
 10
86.8699908552343
 20
148.8029934904957
 30
0.0
 10
86.67452352943175
 20
148.7838459142079
 30
0.0
 10
86.48107365023004
 20
148.7614794431372
 30
0.0
 10
86.38430737576927
 20
148.7502914285089
 30
0.0
  0
SPLINE
  5
2A4
330
1F
100
AcDbEntity
  8
0
  6
Continuous
 62
     7
370
    18
100
AcDbSpline
210
0.0
220
0.0
230
1.0
 70
     8
 71
     3
 72
    17
 73
    13
 74
     0
 42
0.00000001
 43
0.00000001
 40
0.0
 40
0.0
 40
0.0
 40
0.0
 40
0.0005100614635723
 40
0.0005100614635723
 40
0.0005100614635723
 40
0.0015301844385309
 40
0.0015301844385309
 40
0.0015301844385309
 40
0.0031578361882951
 40
0.0031578361882951
 40
0.0031578361882951
 40
0.0047854894773866
 40
0.0047854894773866
 40
0.0047854894773866
 40
0.0047854894773866
 10
86.38432898622843
 20
148.7503178676503
 30
0.0
 10
86.47109592384994
 20
148.8571105958967
 30
0.0
 10
86.55787091867742
 20
148.9638883137277
 30
0.0
 10
86.64465435306863
 20
149.070650292122
 30
0.0
 10
86.81822122593707
 20
149.2841742539371
 30
0.0
 10
86.99182185035461
 20
149.4976353214346
 30
0.0
 10
87.16545966799477
 20
149.7110270839067
 30
0.0
 10
87.44250654004283
 20
150.0515031456148
 30
0.0
 10
87.71964795756779
 20
150.3918031862009
 30
0.0
 10
87.99690039833499
 20
150.7318962665409
 30
0.0
 10
88.2741530939382
 20
151.0719896594768
 30
0.0
 10
88.55151682382753
 20
151.4118763181451
 30
0.0
 10
88.82901183168067
 20
151.7515176108385
 30
0.0
  0
SPLINE
  5
2A5
330
1F
100
AcDbEntity
  8
0
  6
Continuous
 62
     7
370
    18
100
AcDbSpline
210
0.0
220
0.0
230
1.0
 70
     8
 71
     3
 72
     9
 73
     5
 74
     0
 42
0.00000001
 43
0.00000001
 40
0.0
 40
0.0
 40
0.0
 40
0.0
 40
0.5004659772700569
 40
1.0
 40
1.0
 40
1.0
 40
1.0
 10
88.82901183157236
 20
151.7515176107061
 30
0.0
 10
88.91490893645896
 20
151.7633138435083
 30
0.0
 10
89.08654319090947
 20
151.786884342479
 30
0.0
 10
89.26011719139704
 20
151.8074318786364
 30
0.0
 10
89.34682331010193
 20
151.8176960720303
 30
0.0
  0
LINE
  5
2A6
330
1F
100
AcDbEntity
  8
0
  6
Continuous
 62
     7
370
    18
100
AcDbLine
 10
90.7131540177
 20
148.7197715425
 30
0.0
 11
90.6160300547
 21
148.9132472483
 31
0.0
  0
LINE
  5
2A7
330
1F
100
AcDbEntity
  8
0
  6
Continuous
 62
     7
370
    18
100
AcDbLine
 10
91.3441507918
 20
148.6911625754
 30
0.0
 11
91.2510010864
 21
148.884479745
 31
0.0
  0
ARC
  5
2A8
330
1F
100
AcDbEntity
  8
0
  6
Continuous
 62
     7
370
    18
100
AcDbCircle
 10
85.4563470052
 20
137.1823780776
 30
0.0
 40
0.4999999999999289
100
AcDbArc
 50
300.3387907359
 51
0.0000000199
  0
LINE
  5
2A9
330
1F
100
AcDbEntity
  8
0
  6
Continuous
 62
     7
370
    18
100
AcDbLine
 10
85.9563470052
 20
137.1823780778
 30
0.0
 11
126.1563470052
 21
137.1823780778
 31
0.0
  0
ARC
  5
2AA
330
1F
100
AcDbEntity
  8
0
  6
Continuous
 62
     7
370
    18
100
AcDbCircle
 10
126.6563470052
 20
137.1823780776
 30
0.0
 40
0.4999999999999432
100
AcDbArc
 50
179.9999999801
 51
239.6612092654
  0
LINE
  5
2AB
330
1F
100
AcDbEntity
  8
0
  6
Continuous
 62
     7
370
    18
100
AcDbLine
 10
85.9563470052
 20
137.1823780778
 30
0.0
 11
85.9563470052
 21
137.4322162101
 31
0.0
  0
LINE
  5
2AC
330
1F
100
AcDbEntity
  8
0
  6
Continuous
 62
     7
370
    18
100
AcDbLine
 10
85.9563470052
 20
137.4322162101
 30
0.0
 11
126.1563470052
 21
137.4322162101
 31
0.0
  0
LINE
  5
2AD
330
1F
100
AcDbEntity
  8
0
  6
Continuous
 62
     7
370
    18
100
AcDbLine
 10
126.1563470052
 20
137.4322162101
 30
0.0
 11
126.1563470052
 21
137.1823780778
 31
0.0
  0
ARC
  5
2AE
330
1F
100
AcDbEntity
  8
0
  6
Continuous
 62
     7
370
    18
100
AcDbCircle
 10
86.9563470052
 20
137.4322162104
 30
0.0
 40
1.000000000000895
100
AcDbArc
 50
124.0571786127
 51
180.0000000227
  0
LINE
  5
2AF
330
1F
100
AcDbEntity
  8
0
  6
Continuous
 62
     7
370
    18
100
AcDbLine
 10
86.3963270381
 20
138.2606953208
 30
0.0
 11
125.7163669723
 21
138.2606953208
 31
0.0
  0
ARC
  5
2B0
330
1F
100
AcDbEntity
  8
0
  6
Continuous
 62
     7
370
    18
100
AcDbCircle
 10
125.1563470052
 20
137.4322162104
 30
0.0
 40
1.000000000000867
100
AcDbArc
 50
359.9999999784
 51
55.9428213901
  0
LINE
  5
2B1
330
1F
100
AcDbEntity
  8
0
  6
Continuous
 62
     7
370
    18
100
AcDbLine
 10
89.1717383048
 20
148.7344768627
 30
0.0
 11
89.0647370864
 21
148.9279284492
 31
0.0
  0
LINE
  5
2B2
330
1F
100
AcDbEntity
  8
0
  6
Continuous
 62
     7
370
    18
100
AcDbLine
 10
86.3963270381
 20
138.2606953208
 30
0.0
 11
87.3194929304
 21
138.8847199051
 31
0.0
  0
LINE
  5
2B3
330
1F
100
AcDbEntity
  8
0
  6
Continuous
 62
     7
370
    18
100
AcDbLine
 10
87.3194929304
 20
138.8847199051
 30
0.0
 11
124.7932010802
 21
138.8847199051
 31
0.0
  0
LINE
  5
2B4
330
1F
100
AcDbEntity
  8
0
  6
Continuous
 62
     7
370
    18
100
AcDbLine
 10
124.7932010802
 20
138.8847199051
 30
0.0
 11
125.7163669723
 21
138.2606953208
 31
0.0
  0
LINE
  5
2B5
330
1F
100
AcDbEntity
  8
0
  6
Continuous
 62
     7
370
    18
100
AcDbLine
 10
86.8063470052
 20
154.7448701858
 30
0.0
 11
86.8063470052
 21
160.8723280248
 31
0.0
  0
LINE
  5
2B6
330
1F
100
AcDbEntity
  8
0
  6
Continuous
 62
     7
370
    18
100
AcDbLine
 10
86.8063470052
 20
160.8723280248
 30
0.0
 11
125.3063470052
 21
160.8723280248
 31
0.0
  0
LINE
  5
2B7
330
1F
100
AcDbEntity
  8
0
  6
Continuous
 62
     7
370
    18
100
AcDbLine
 10
125.3063470052
 20
160.8723280248
 30
0.0
 11
125.3063470052
 21
154.7448701858
 31
0.0
  0
ARC
  5
2B8
330
1F
100
AcDbEntity
  8
0
  6
Continuous
 62
     7
370
    18
100
AcDbCircle
 10
87.0394829464
 20
139.2989594606
 30
0.0
 40
0.5000000004657837
100
AcDbArc
 50
304.057178643
 51
55.112725519
  0
ARC
  5
2B9
330
1F
100
AcDbEntity
  8
0
  6
Continuous
 62
     7
370
    18
100
AcDbCircle
 10
125.0732110641
 20
139.2989594606
 30
0.0
 40
0.5000000003881151
100
AcDbArc
 50
124.8872744796
 51
235.9428213614
  0
LINE
  5
2BA
330
1F
100
AcDbEntity
  8
0
  6
Continuous
 62
     7
370
    18
100
AcDbLine
 10
88.5649369873
 20
148.7176270863
 30
0.0
 11
88.454090896
 21
148.9109789473
 31
0.0
  0
LINE
  5
2BB
330
1F
100
AcDbEntity
  8
0
  6
Continuous
 62
     7
370
    18
100
AcDbLine
 10
120.4738261307
 20
151.6492946165
 30
0.0
 11
120.5813807471
 21
151.8426317042
 31
0.0
  0
SPLINE
  5
2BC
330
1F
100
AcDbEntity
  8
0
  6
Continuous
 62
     7
370
    18
100
AcDbSpline
210
0.0
220
0.0
230
1.0
 70
     8
 71
     3
 72
     8
 73
     4
 74
     0
 42
0.00000001
 43
0.00000001
 40
0.0000000000000004
 40
0.0000000000000004
 40
0.0000000000000004
 40
0.0000000000000004
 40
0.0047850486480962
 40
0.0047850486480962
 40
0.0047850486480962
 40
0.0047850486480962
 10
123.3484618289009
 20
148.8185696829954
 30
0.0
 10
122.4263318251609
 20
149.8270046537166
 30
0.0
 10
121.5040107004355
 20
150.835096275464
 30
0.0
 10
120.5813807471726
 20
151.8426317042333
 30
0.0
  0
LINE
  5
2BD
330
1F
100
AcDbEntity
  8
0
  6
Continuous
 62
     7
370
    18
100
AcDbLine
 10
123.2408227488
 20
148.6252990471
 30
0.0
 11
123.3484681868
 21
148.8185599585
 31
0.0
  0
SPLINE
  5
2BE
330
1F
100
AcDbEntity
  8
0
  6
Continuous
 62
     7
370
    18
100
AcDbSpline
210
0.0
220
0.0
230
1.0
 70
     8
 71
     3
 72
    18
 73
    14
 74
     0
 42
0.00000001
 43
0.00000001
 40
0.0
 40
0.0
 40
0.0
 40
0.0
 40
0.1250000000000004
 40
0.1250000000000004
 40
0.2500000000000009
 40
0.2500000000000009
 40
0.3750000000000013
 40
0.3750000000000013
 40
0.5000000000000018
 40
0.5000000000000018
 40
0.7500000000000009
 40
0.7500000000000009
 40
1.0
 40
1.0
 40
1.0
 40
1.0
 10
121.476987553555
 20
151.4517333201775
 30
0.0
 10
121.4686976949724
 20
151.5065735066963
 30
0.0
 10
121.4618748108306
 20
151.5606597027199
 30
0.0
 10
121.4723410946693
 20
151.6577242667581
 30
0.0
 10
121.4861117171127
 20
151.7026906992438
 30
0.0
 10
121.5283198872477
 20
151.7829537632262
 30
0.0
 10
121.5564782849874
 20
151.8183665151269
 30
0.0
 10
121.6274485450116
 20
151.8791764052714
 30
0.0
 10
121.6708481514878
 20
151.9043385844799
 30
0.0
 10
121.819224196981
 20
151.9607419479308
 30
0.0
 10
121.9459893307879
 20
151.9736980294973
 30
0.0
 10
122.2248545474713
 20
151.9630846152584
 30
0.0
 10
122.3789296401229
 20
151.9402138258595
 30
0.0
 10
122.548947803674
 20
151.8870509821041
 30
0.0
  0
SPLINE
  5
2BF
330
1F
100
AcDbEntity
  8
0
  6
Continuous
 62
     7
370
    18
100
AcDbSpline
210
0.0
220
0.0
230
1.0
 70
     8
 71
     3
 72
    12
 73
     8
 74
     0
 42
0.00000001
 43
0.00000001
 40
0.0
 40
0.0
 40
0.0
 40
0.0
 40
0.2500000000000018
 40
0.2500000000000018
 40
0.5000000000000036
 40
0.5000000000000036
 40
1.0
 40
1.0
 40
1.0
 40
1.0
 10
122.548947803674
 20
151.8870509821041
 30
0.0
 10
122.6188741058343
 20
151.8651857825366
 30
0.0
 10
122.6897275116502
 20
151.8389649329844
 30
0.0
 10
122.8337377476517
 20
151.7765648773771
 30
0.0
 10
122.9078698625173
 20
151.7397825191626
 30
0.0
 10
123.1250183624175
 20
151.619032121841
 30
0.0
 10
123.2652052934164
 20
151.5237696034798
 30
0.0
 10
123.3948135830009
 20
151.4221068745704
 30
0.0
  0
SPLINE
  5
2C0
330
1F
100
AcDbEntity
  8
0
  6
Continuous
 62
     7
370
    18
100
AcDbSpline
210
0.0
220
0.0
230
1.0
 70
     8
 71
     3
 72
     8
 73
     4
 74
     0
 42
0.00000001
 43
0.00000001
 40
0.0000000000002056
 40
0.0000000000002056
 40
0.0000000000002056
 40
0.0000000000002056
 40
0.0001757714931264
 40
0.0001757714931264
 40
0.0001757714931264
 40
0.0001757714931264
 10
123.3948136055461
 20
151.4221068813241
 30
0.0
 10
123.3900127470915
 20
151.4509931643464
 30
0.0
 10
123.3854973398206
 20
151.4796957469639
 30
0.0
 10
123.3820841177476
 20
151.5078078861276
 30
0.0
  0
SPLINE
  5
2C1
330
1F
100
AcDbEntity
  8
0
  6
Continuous
 62
     7
370
    18
100
AcDbSpline
210
0.0
220
0.0
230
1.0
 70
     8
 71
     3
 72
    30
 73
    26
 74
     0
 42
0.00000001
 43
0.00000001
 40
0.0
 40
0.0
 40
0.0
 40
0.0
 40
0.0625000000000002
 40
0.0625000000000002
 40
0.1250000000000005
 40
0.1250000000000005
 40
0.1875000000000007
 40
0.1875000000000007
 40
0.250000000000001
 40
0.250000000000001
 40
0.3125000000000012
 40
0.3125000000000012
 40
0.3750000000000015
 40
0.3750000000000015
 40
0.4375000000000018
 40
0.4375000000000018
 40
0.500000000000002
 40
0.500000000000002
 40
0.5625000000000022
 40
0.5625000000000022
 40
0.6250000000000024
 40
0.6250000000000024
 40
0.7500000000000018
 40
0.7500000000000018
 40
1.0
 40
1.0
 40
1.0
 40
1.0
 10
123.3820841177476
 20
151.5078078861276
 30
0.0
 10
123.3730272691268
 20
151.5824023260351
 30
0.0
 10
123.380003948344
 20
151.6477518616063
 30
0.0
 10
123.4237593702757
 20
151.7604168855495
 30
0.0
 10
123.4625669618137
 20
151.805034294772
 30
0.0
 10
123.5749841224807
 20
151.8660601720383
 30
0.0
 10
123.6473412358374
 20
151.8830915159463
 30
0.0
 10
123.8177780742934
 20
151.8881858563304
 30
0.0
 10
123.9156973066814
 20
151.8779513525634
 30
0.0
 10
124.1234681129437
 20
151.837445530864
 30
0.0
 10
124.2370675138306
 20
151.805437584846
 30
0.0
 10
124.4791149014997
 20
151.7116299989537
 30
0.0
 10
124.6098236245431
 20
151.6480557936906
 30
0.0
 10
124.8684537966015
 20
151.4959798891678
 30
0.0
 10
124.9986523271501
 20
151.4057204919506
 30
0.0
 10
125.2398795223874
 20
151.2176754639294
 30
0.0
 10
125.3522567402973
 20
151.1185207741651
 30
0.0
 10
125.5572918319243
 20
150.923545926436
 30
0.0
 10
125.649817770269
 20
150.8260503759734
 30
0.0
 10
125.8340288726353
 20
150.6313653987762
 30
0.0
 10
125.9249886271104
 20
150.5341843764324
 30
0.0
 10
126.1956912454108
 20
150.2429176128631
 30
0.0
 10
126.3732887612867
 20
150.0490991452418
 30
0.0
 10
126.9072915823856
 20
149.467238496149
 30
0.0
 10
127.2674084416217
 20
149.0784655617911
 30
0.0
 10
127.6278769886122
 20
148.6894593975989
 30
0.0
  0
SPLINE
  5
2C2
330
1F
100
AcDbEntity
  8
0
  6
Continuous
 62
     7
370
    18
100
AcDbSpline
210
0.0
220
0.0
230
1.0
 70
     8
 71
     3
 72
     9
 73
     5
 74
     0
 42
0.00000001
 43
0.00000001
 40
0.0
 40
0.0
 40
0.0
 40
0.0
 40
0.5003693317899439
 40
0.9999999999999999
 40
0.9999999999999999
 40
0.9999999999999999
 40
0.9999999999999999
 10
127.6279009318352
 20
148.6894333269208
 30
0.0
 10
127.5439320323527
 20
148.7004950287639
 30
0.0
 10
127.3761181913604
 20
148.7226021027598
 30
0.0
 10
127.2060973484459
 20
148.7414989251529
 30
0.0
 10
127.1211497210909
 20
148.7509403571522
 30
0.0
  0
SPLINE
  5
2C3
330
1F
100
AcDbEntity
  8
0
  6
Continuous
 62
     7
370
    18
100
AcDbSpline
210
0.0
220
0.0
230
1.0
 70
     8
 71
     3
 72
    11
 73
     7
 74
     0
 42
0.00000001
 43
0.00000001
 40
0.0
 40
0.0
 40
0.0
 40
0.0
 40
0.0005100598675058
 40
0.0005100598675058
 40
0.0005100598675058
 40
0.0012167255946203
 40
0.0012167255946203
 40
0.0012167255946203
 40
0.0012167255946203
 10
127.1211496753973
 20
148.7509403623883
 30
0.0
 10
127.0224788400298
 20
148.8580997912263
 30
0.0
 10
126.9238187547901
 20
148.9652482701051
 30
0.0
 10
126.8252183024402
 20
149.0723797737817
 30
0.0
 10
126.6886117891884
 20
149.2208056767862
 30
0.0
 10
126.5521130192684
 20
149.3692002730458
 30
0.0
 10
126.4159716322214
 20
149.5175311017545
 30
0.0
  0
SPLINE
  5
2C4
330
1F
100
AcDbEntity
  8
0
  6
Continuous
 62
     7
370
    18
100
AcDbSpline
210
0.0
220
0.0
230
1.0
 70
     8
 71
     3
 72
    38
 73
    34
 74
     0
 42
0.00000001
 43
0.00000001
 40
0.0
 40
0.0
 40
0.0
 40
0.0
 40
0.1249999999999984
 40
0.1249999999999984
 40
0.1874999999999976
 40
0.1874999999999976
 40
0.2499999999999969
 40
0.2499999999999969
 40
0.281249999999997
 40
0.281249999999997
 40
0.3124999999999971
 40
0.3124999999999971
 40
0.3437499999999971
 40
0.3437499999999971
 40
0.3749999999999971
 40
0.3749999999999971
 40
0.4374999999999976
 40
0.4374999999999976
 40
0.499999999999998
 40
0.499999999999998
 40
0.5312499999999981
 40
0.5312499999999981
 40
0.5624999999999983
 40
0.5624999999999983
 40
0.6249999999999986
 40
0.6249999999999986
 40
0.6874999999999988
 40
0.6874999999999988
 40
0.749999999999999
 40
0.749999999999999
 40
0.8749999999999994
 40
0.8749999999999994
 40
1.0
 40
1.0
 40
1.0
 40
1.0
 10
126.4159716322214
 20
149.5175311017545
 30
0.0
 10
126.2136503825549
 20
149.737967218055
 30
0.0
 10
126.0127984716181
 20
149.9581811885743
 30
0.0
 10
125.7092977969717
 20
150.2886619262476
 30
0.0
 10
125.6078227696629
 20
150.3988422645807
 30
0.0
 10
125.4033216265491
 20
150.6193543536435
 30
0.0
 10
125.3018787944907
 20
150.7295345192156
 30
0.0
 10
125.1397149495479
 20
150.8958526794089
 30
0.0
 10
125.0843093599228
 20
150.951280255454
 30
0.0
 10
124.9636727546011
 20
151.0620507099553
 30
0.0
 10
124.8979483852437
 20
151.1165779027616
 30
0.0
 10
124.7552517391583
 20
151.2186632265554
 30
0.0
 10
124.6811757182586
 20
151.2637026001286
 30
0.0
 10
124.5323797440307
 20
151.341345888852
 30
0.0
 10
124.4608463232058
 20
151.3727265715166
 30
0.0
 10
124.2547199410474
 20
151.445756807322
 30
0.0
 10
124.1391490017039
 20
151.4593530544635
 30
0.0
 10
123.9489045826704
 20
151.4491870846631
 30
0.0
 10
123.8774219090321
 20
151.4183450014143
 30
0.0
 10
123.8218499306626
 20
151.3371984708891
 30
0.0
 10
123.8115759861293
 20
151.303591889821
 30
0.0
 10
123.8100885972833
 20
151.2271590229958
 30
0.0
 10
123.8184722058079
 20
151.1843236118568
 30
0.0
 10
123.8740758489984
 20
151.0408331141935
 30
0.0
 10
123.9459787506075
 20
150.9339166679063
 30
0.0
 10
124.1177344894593
 20
150.7159848806071
 30
0.0
 10
124.2176592423953
 20
150.6061098143752
 30
0.0
 10
124.4151095828148
 20
150.3865204418527
 30
0.0
 10
124.5151966957435
 20
150.2766380769078
 30
0.0
 10
124.8173184050147
 20
149.9468729475537
 30
0.0
 10
125.0208888087727
 20
149.726903907948
 30
0.0
 10
125.4224009314034
 20
149.2872338688833
 30
0.0
 10
125.6223796474243
 20
149.0674262704715
 30
0.0
 10
125.8220513568286
 20
148.8476235897047
 30
0.0
  0
SPLINE
  5
2C5
330
1F
100
AcDbEntity
  8
0
  6
Continuous
 62
     7
370
    18
100
AcDbSpline
210
0.0
220
0.0
230
1.0
 70
     8
 71
     3
 72
     9
 73
     5
 74
     0
 42
0.00000001
 43
0.00000001
 40
0.0
 40
0.0
 40
0.0
 40
0.0
 40
0.5000985948881139
 40
1.0
 40
1.0
 40
1.0
 40
1.0
 10
125.8220597048348
 20
148.8476145496543
 30
0.0
 10
125.7330761614501
 20
148.8511526214525
 30
0.0
 10
125.555144161052
 20
148.8582273699807
 30
0.0
 10
125.3751396827872
 20
148.8620275088957
 30
0.0
 10
125.2851551911762
 20
148.8639272036789
 30
0.0
  0
SPLINE
  5
2C6
330
1F
100
AcDbEntity
  8
0
  6
Continuous
 62
     7
370
    18
100
AcDbSpline
210
0.0
220
0.0
230
1.0
 70
     8
 71
     3
 72
    38
 73
    34
 74
     0
 42
0.00000001
 43
0.00000001
 40
0.0
 40
0.0
 40
0.0
 40
0.0
 40
0.1250000000000002
 40
0.1250000000000002
 40
0.2500000000000003
 40
0.2500000000000003
 40
0.3125000000000001
 40
0.3125000000000001
 40
0.3749999999999999
 40
0.3749999999999999
 40
0.4062499999999997
 40
0.4062499999999997
 40
0.4374999999999993
 40
0.4374999999999993
 40
0.4687499999999991
 40
0.4687499999999991
 40
0.4999999999999988
 40
0.4999999999999988
 40
0.5312499999999984
 40
0.5312499999999984
 40
0.5624999999999982
 40
0.5624999999999982
 40
0.5937499999999979
 40
0.5937499999999979
 40
0.6249999999999981
 40
0.6249999999999981
 40
0.6874999999999982
 40
0.6874999999999982
 40
0.7499999999999983
 40
0.7499999999999983
 40
0.8749999999999991
 40
0.8749999999999991
 40
1.0
 40
1.0
 40
1.0
 40
1.0
 10
125.2851551483912
 20
148.8639272046457
 30
0.0
 10
125.0538088514942
 20
149.1170993630128
 30
0.0
 10
124.8224558728703
 20
149.3702720859461
 30
0.0
 10
124.3625829840821
 20
149.8765563475973
 30
0.0
 10
124.1352933489098
 20
150.1296363496865
 30
0.0
 10
123.7904607259811
 20
150.5093444280029
 30
0.0
 10
123.6747471571055
 20
150.635932229072
 30
0.0
 10
123.4400328611589
 20
150.8891384518593
 30
0.0
 10
123.3238669897997
 20
151.0159358781184
 30
0.0
 10
123.1065948830839
 20
151.2023438425995
 30
0.0
 10
123.0289523985263
 20
151.263073861612
 30
0.0
 10
122.8608076888496
 20
151.3729336897356
 30
0.0
 10
122.7706534003226
 20
151.4207575115103
 30
0.0
 10
122.5982013504568
 20
151.4873149962238
 30
0.0
 10
122.5153168783203
 20
151.5073257221443
 30
0.0
 10
122.3655917589346
 20
151.5277133451712
 30
0.0
 10
122.296207308785
 20
151.5290978225144
 30
0.0
 10
122.1723685264411
 20
151.518007319913
 30
0.0
 10
122.1171914371099
 20
151.5045549769136
 30
0.0
 10
122.0264597553081
 20
151.4612852538232
 30
0.0
 10
121.9913292072923
 20
151.4322112481998
 30
0.0
 10
121.9407797055299
 20
151.3600033664927
 30
0.0
 10
121.9278377848662
 20
151.3157731574088
 30
0.0
 10
121.9308263948378
 20
151.2158358123996
 30
0.0
 10
121.9458340952823
 20
151.1589807389891
 30
0.0
 10
122.0214488311556
 20
150.9827122523266
 30
0.0
 10
122.1136065570711
 20
150.854759244656
 30
0.0
 10
122.316058396237
 20
150.6038605514853
 30
0.0
 10
122.4291313495431
 20
150.4784598321758
 30
0.0
 10
122.7682366514626
 20
150.1022528772726
 30
0.0
 10
122.9999780707948
 20
149.8514666642511
 30
0.0
 10
123.4596646541499
 20
149.3497944601826
 30
0.0
 10
123.6880373506777
 20
149.0988839997355
 30
0.0
 10
123.9164007361992
 20
148.8479660648366
 30
0.0
  0
SPLINE
  5
2C7
330
1F
100
AcDbEntity
  8
0
  6
Continuous
 62
     7
370
    18
100
AcDbSpline
210
0.0
220
0.0
230
1.0
 70
     8
 71
     3
 72
     9
 73
     5
 74
     0
 42
0.00000001
 43
0.00000001
 40
0.0
 40
0.0
 40
0.0
 40
0.0
 40
0.4998225406248766
 40
1.0
 40
1.0
 40
1.0
 40
1.0
 10
123.916400735997
 20
148.8479660650405
 30
0.0
 10
123.8222798890817
 20
148.8438940980565
 30
0.0
 10
123.6339713610236
 20
148.8357472726275
 30
0.0
 10
123.4437814223399
 20
148.8242992725173
 30
0.0
 10
123.3486527020104
 20
148.8185732409073
 30
0.0
  0
SPLINE
  5
2C8
330
1F
100
AcDbEntity
  8
0
  6
Continuous
 62
     7
370
    18
100
AcDbSpline
210
0.0
220
0.0
230
1.0
 70
     8
 71
     3
 72
     9
 73
     5
 74
     0
 42
0.00000001
 43
0.00000001
 40
0.0
 40
0.0
 40
0.0
 40
0.0
 40
0.5001249325524005
 40
1.0
 40
1.0
 40
1.0
 40
1.0
 10
120.5813807469414
 20
151.8426317042654
 30
0.0
 10
120.666815838894
 20
151.8486491520291
 30
0.0
 10
120.8376433389678
 20
151.8606810412072
 30
0.0
 10
121.0067438327789
 20
151.8696354320737
 30
0.0
 10
121.0912729535281
 20
151.874111508812
 30
0.0
  0
LINE
  5
2C9
330
1F
100
AcDbEntity
  8
0
  6
Continuous
 62
     7
370
    18
100
AcDbLine
 10
121.091232843
 20
151.8741017384
 30
0.0
 11
121.4768105851
 21
151.4517662591
 31
0.0
  0
LINE
  5
2CA
330
1F
100
AcDbEntity
  8
0
  6
Continuous
 62
     7
370
    18
100
AcDbLine
 10
123.8044033127
 20
148.6544758028
 30
0.0
 11
123.9164007361
 21
148.8479660649
 31
0.0
  0
LWPOLYLINE
  5
2CB
330
1F
100
AcDbEntity
  8
0
  6
Continuous
 62
     7
370
    18
100
AcDbPolyline
 90
        4
 70
   128
 43
0.0
 10
87.0871103437
 20
148.618970796
 10
87.0566569547
 20
148.6683358518
 10
87.0262035478
 20
148.7177009059
 10
86.967682752
 20
148.8125631873
  0
LINE
  5
2CC
330
1F
100
AcDbEntity
  8
0
  6
Continuous
 62
     7
370
    18
100
AcDbLine
 10
125.1644468627
 20
148.6704906475
 30
0.0
 11
125.2851551699
 21
148.8639272041
 31
0.0
  0
LINE
  5
2CD
330
1F
100
AcDbEntity
  8
0
  6
Continuous
 62
     7
370
    18
100
AcDbLine
 10
86.5073365503
 20
148.5570761878
 30
0.0
 11
86.3843075345
 21
148.750291299
 31
0.0
  0
LINE
  5
2CE
330
1F
100
AcDbEntity
  8
0
  6
Continuous
 62
     7
370
    18
100
AcDbLine
 10
125.6979734719
 20
148.6542587076
 30
0.0
 11
125.8220596961
 21
148.847614536
 31
0.0
  0
LINE
  5
2CF
330
1F
100
AcDbEntity
  8
0
  6
Continuous
 62
     7
370
    18
100
AcDbLine
 10
126.9897613345
 20
148.5573675998
 30
0.0
 11
127.1211496984
 21
148.7509403596
 31
0.0
  0
LINE
  5
2D0
330
1F
100
AcDbEntity
  8
0
  6
Continuous
 62
     7
370
    18
100
AcDbLine
 10
89.4688936813
 20
151.6240335436
 30
0.0
 11
89.3468677234
 21
151.8177008897
 31
0.0
  0
LINE
  5
2D1
330
1F
100
AcDbEntity
  8
0
  6
Continuous
 62
     7
370
    18
100
AcDbLine
 10
127.4933803214
 20
148.4962163932
 30
0.0
 11
127.6279008195
 21
148.6894331655
 31
0.0
  0
LWPOLYLINE
  5
2D2
330
1F
100
AcDbEntity
  8
0
  6
Continuous
 62
     7
370
    18
100
AcDbPolyline
 90
        4
 70
   128
 43
0.0
 10
84.462703816
 20
148.577578411
 10
84.4280774194
 20
148.6269176843
 10
84.393451036
 20
148.6762569581
 10
84.3269315389
 20
148.7710409132
  0
LWPOLYLINE
  5
2D3
330
1F
100
AcDbEntity
  8
0
  6
Continuous
 62
     7
370
    18
100
AcDbPolyline
 90
        4
 70
   128
 43
0.0
 10
84.0605392038
 20
148.5573403758
 10
84.0252673928
 20
148.606651698
 10
83.9899956027
 20
148.6559630216
 10
83.9222502558
 20
148.7506737163
  0
SPLINE
  5
2D4
330
1F
100
AcDbEntity
  8
0
  6
Continuous
 62
     7
370
    18
100
AcDbSpline
210
0.0
220
0.0
230
1.0
 70
     8
 71
     3
 72
     9
 73
     5
 74
     0
 42
0.00000001
 43
0.00000001
 40
0.0
 40
0.0
 40
0.0
 40
0.0
 40
0.4998774585217107
 40
0.9999999999999999
 40
0.9999999999999999
 40
0.9999999999999999
 40
0.9999999999999999
 10
84.32692428160149
 20
148.7710406596207
 30
0.0
 10
84.25899388571838
 20
148.7683511242306
 30
0.0
 10
84.12309978862504
 20
148.7629707348087
 30
0.0
 10
83.98920232565338
 20
148.7547728411884
 30
0.0
 10
83.9222371861745
 20
148.7506728897961
 30
0.0
  0
SPLINE
  5
2D5
330
1F
100
AcDbEntity
  8
0
  6
Continuous
 62
     7
370
    18
100
AcDbSpline
210
0.0
220
0.0
230
1.0
 70
     8
 71
     3
 72
     8
 73
     4
 74
     0
 42
0.00000001
 43
0.00000001
 40
0.0
 40
0.0
 40
0.0
 40
0.0
 40
1.0
 40
1.0
 40
1.0
 40
1.0
 10
83.9222598440234
 20
148.7506870942495
 30
0.0
 10
84.63312736343093
 20
149.739477027678
 30
0.0
 10
85.3534404326893
 20
150.7142951856356
 30
0.0
 10
86.08971205234856
 20
151.66694160379
 30
0.0
  0
SPLINE
  5
2D6
330
1F
100
AcDbEntity
  8
0
  6
Continuous
 62
     7
370
    18
100
AcDbSpline
210
0.0
220
0.0
230
1.0
 70
     8
 71
     3
 72
     9
 73
     5
 74
     0
 42
0.00000001
 43
0.00000001
 40
0.0
 40
0.0
 40
0.0
 40
0.0
 40
0.5004328161572318
 40
0.9999999999999999
 40
0.9999999999999999
 40
0.9999999999999999
 40
0.9999999999999999
 10
86.08971205222608
 20
151.6669416035932
 30
0.0
 10
86.16075173530358
 20
151.6782892029513
 30
0.0
 10
86.30270821933875
 20
151.7009647729614
 30
0.0
 10
86.44776672736921
 20
151.7194671452542
 30
0.0
 10
86.52023319771844
 20
151.728710323275
 30
0.0
  0
SPLINE
  5
2D7
330
1F
100
AcDbEntity
  8
0
  6
Continuous
 62
     7
370
    18
100
AcDbSpline
210
0.0
220
0.0
230
1.0
 70
     8
 71
     3
 72
    12
 73
     8
 74
     0
 42
0.00000001
 43
0.00000001
 40
0.0
 40
0.0
 40
0.0
 40
0.0
 40
0.4999999999999996
 40
0.4999999999999996
 40
0.7499999999999998
 40
0.7499999999999998
 40
1.0
 40
1.0
 40
1.0
 40
1.0
 10
86.520182336984
 20
151.7286768475005
 30
0.0
 10
86.26972432596071
 20
151.4020529187607
 30
0.0
 10
86.02111394426984
 20
151.0735253208318
 30
0.0
 10
85.65078120112811
 20
150.5783593308795
 30
0.0
 10
85.52789247733573
 20
150.4129483346946
 30
0.0
 10
85.28128666449527
 20
150.0808151831092
 30
0.0
 10
85.15874356593531
 20
149.9144928940258
 30
0.0
 10
85.03142835024013
 20
149.7461177119528
 30
0.0
  0
SPLINE
  5
2D8
330
1F
100
AcDbEntity
  8
0
  6
Continuous
 62
     7
370
    18
100
AcDbSpline
210
0.0
220
0.0
230
1.0
 70
     8
 71
     3
 72
     8
 73
     4
 74
     0
 42
0.00000001
 43
0.00000001
 40
0.0
 40
0.0
 40
0.0
 40
0.0
 40
1.0
 40
1.0
 40
1.0
 40
1.0
 10
85.03142835024013
 20
149.7461177119528
 30
0.0
 10
84.93715909361438
 20
149.6214460208154
 30
0.0
 10
84.83720829210257
 20
149.4947758895583
 30
0.0
 10
84.73706806620424
 20
149.3679005661369
 30
0.0
  0
SPLINE
  5
2D9
330
1F
100
AcDbEntity
  8
0
  6
Continuous
 62
     7
370
    18
100
AcDbSpline
210
0.0
220
0.0
230
1.0
 70
     8
 71
     3
 72
    14
 73
    10
 74
     0
 42
0.00000001
 43
0.00000001
 40
0.0
 40
0.0
 40
0.0
 40
0.0
 40
0.1250000000000006
 40
0.1250000000000006
 40
0.2500000000000012
 40
0.2500000000000012
 40
0.5000000000000007
 40
0.5000000000000007
 40
1.0
 40
1.0
 40
1.0
 40
1.0
 10
84.73706814475706
 20
149.3679005802585
 30
0.0
 10
84.86826289587015
 20
149.4718554472763
 30
0.0
 10
84.9995426747233
 20
149.5757335275905
 30
0.0
 10
85.26513556370847
 20
149.7817611518958
 30
0.0
 10
85.39903453085368
 20
149.8839835290062
 30
0.0
 10
85.80095737346818
 20
150.1903543087249
 30
0.0
 10
86.06957052219477
 20
150.3939668734263
 30
0.0
 10
86.87613169109275
 20
151.0037005075958
 30
0.0
 10
87.41412180024436
 20
151.409238729003
 30
0.0
 10
87.95315877260309
 20
151.8131146594523
 30
0.0
  0
SPLINE
  5
2DA
330
1F
100
AcDbEntity
  8
0
  6
Continuous
 62
     7
370
    18
100
AcDbSpline
210
0.0
220
0.0
230
1.0
 70
     8
 71
     3
 72
     9
 73
     5
 74
     0
 42
0.00000001
 43
0.00000001
 40
0.0
 40
0.0
 40
0.0
 40
0.0
 40
0.4999465325082135
 40
1.0
 40
1.0
 40
1.0
 40
1.0
 10
87.95315827037236
 20
151.8131141275569
 30
0.0
 10
88.03011817077274
 20
151.8128497940475
 30
0.0
 10
88.18405443274513
 20
151.8123210704897
 30
0.0
 10
88.34069615737737
 20
151.8077946945275
 30
0.0
 10
88.41902539493361
 20
151.8055312645324
 30
0.0
  0
SPLINE
  5
2DB
330
1F
100
AcDbEntity
  8
0
  6
Continuous
 62
     7
370
    18
100
AcDbSpline
210
0.0
220
0.0
230
1.0
 70
     8
 71
     3
 72
    17
 73
    13
 74
     0
 42
0.00000001
 43
0.00000001
 40
0.0000000000111625
 40
0.0000000000111625
 40
0.0000000000111625
 40
0.0000000000111625
 40
0.0005101302262637
 40
0.0005101302262637
 40
0.0005101302262637
 40
0.0015303936703514
 40
0.0015303936703514
 40
0.0015303936703514
 40
0.0033249523886795
 40
0.0033249523886795
 40
0.0033249523886795
 40
0.0051195699046358
 40
0.0051195699046358
 40
0.0051195699046358
 40
0.0051195699046358
 10
88.41902548417413
 20
151.8055312474682
 30
0.0
 10
88.282251569316
 20
151.7059920538201
 30
0.0
 10
88.14557596534621
 20
151.6063068466543
 30
0.0
 10
88.00899450183603
 20
151.5064829919528
 30
0.0
 10
87.7358311769764
 20
151.3068349917795
 30
0.0
 10
87.4630433438437
 20
151.1066321965092
 30
0.0
 10
87.190600280591
 20
150.9059279642909
 30
0.0
 10
86.71139699888838
 20
150.5529069492489
 30
0.0
 10
86.2332549373411
 20
150.1983345018368
 30
0.0
 10
85.75602992083485
 20
149.8424540885774
 30
0.0
 10
85.27878885444973
 20
149.4865617064621
 30
0.0
 10
84.80246143612742
 20
149.1293575938627
 30
0.0
 10
84.32692770377763
 20
148.7710380352902
 30
0.0
  0
LINE
  5
2DC
330
1F
100
AcDbEntity
  8
0
  6
Continuous
 62
     7
370
    18
100
AcDbLine
 10
88.5482175537
 20
151.6121562714
 30
0.0
 11
88.4190254488
 21
151.8055312628
 31
0.0
  0
LWPOLYLINE
  5
2DD
330
1F
100
AcDbEntity
  8
0
  6
Continuous
 62
     7
370
    18
100
AcDbPolyline
 90
        4
 70
   128
 43
0.0
 10
86.6624681928
 20
151.5351007771
 10
86.6261908761
 20
151.5844709088
 10
86.5899134903
 20
151.6338410319
 10
86.5202054872
 20
151.7287068049
  0
SPLINE
  5
2DE
330
1F
100
AcDbEntity
  8
0
  6
Continuous
 62
     7
370
    18
100
AcDbSpline
210
0.0
220
0.0
230
1.0
 70
     8
 71
     3
 72
    10
 73
     6
 74
     0
 42
0.00000001
 43
0.00000001
 40
0.0
 40
0.0
 40
0.0
 40
0.0
 40
0.5
 40
0.5
 40
1.0
 40
1.0
 40
1.0
 40
1.0
 10
132.4368993522003
 20
143.6723280256119
 30
0.0
 10
132.516175443812
 20
143.6723280256283
 30
0.0
 10
132.5937081338226
 20
143.7047684979082
 30
0.0
 10
132.704556157553
 20
143.8153532642477
 30
0.0
 10
132.7372321542214
 20
143.8930494393601
 30
0.0
 10
132.7372321544335
 20
143.9723280248103
 30
0.0
  0
LINE
  5
2DF
330
1F
100
AcDbEntity
  8
0
  6
Continuous
 62
     7
370
    18
100
AcDbLine
 10
79.3461966432
 20
143.9723280248
 30
0.0
 11
79.3754618561
 21
143.9723280248
 31
0.0
  0
SPLINE
  5
2E0
330
1F
100
AcDbEntity
  8
0
  6
Continuous
 62
     7
370
    18
100
AcDbSpline
210
0.0
220
0.0
230
1.0
 70
     8
 71
     3
 72
    10
 73
     6
 74
     0
 42
0.00000001
 43
0.00000001
 40
0.0
 40
0.0
 40
0.0
 40
0.0
 40
0.5
 40
0.5
 40
1.0
 40
1.0
 40
1.0
 40
1.0
 10
79.67579051179311
 20
143.6723280256516
 30
0.0
 10
79.59651511973262
 20
143.6723291189307
 30
0.0
 10
79.51898355999413
 20
143.7047700450011
 30
0.0
 10
79.40813723300988
 20
143.8153546468242
 30
0.0
 10
79.37546185627184
 20
143.8930501389245
 30
0.0
 10
79.37546185605683
 20
143.9723280248103
 30
0.0
  0
ARC
  5
2E1
330
1F
100
AcDbEntity
  8
0
  6
Continuous
 62
     7
370
    18
100
AcDbCircle
 10
79.6461966436
 20
143.9723280256
 30
0.0
 40
0.3000000000000114
100
AcDbArc
 50
180.0000001552
 51
270.0000000006
  0
LINE
  5
2E2
330
1F
100
AcDbEntity
  8
0
  6
Continuous
 62
     7
370
    18
100
AcDbLine
 10
85.2645229515
 20
141.1723280252
 30
0.0
 11
84.3859897422
 21
141.1723280248
 31
0.0
  0
LINE
  5
2E3
330
1F
100
AcDbEntity
  8
0
  6
Continuous
 62
     7
370
    18
100
AcDbLine
 10
80.798251346
 20
143.6723280247
 30
0.0
 11
84.3859897422
 21
141.1723280248
 31
0.0
  0
LINE
  5
2E4
330
1F
100
AcDbEntity
  8
0
  6
Continuous
 62
     7
370
    18
100
AcDbLine
 10
79.375461856
 20
144.1723280248
 30
0.0
 11
79.3754618561
 21
143.9723280248
 31
0.0
  0
LINE
  5
2E5
330
1F
100
AcDbEntity
  8
0
  6
Continuous
 62
     7
370
    18
100
AcDbLine
 10
80.798251346
 20
143.6723280247
 30
0.0
 11
79.6757946582
 21
143.6723280248
 31
0.0
  0
LINE
  5
2E6
330
1F
100
AcDbEntity
  8
0
  6
Continuous
 62
     7
370
    18
100
AcDbLine
 10
131.3144426645
 20
143.6723280247
 30
0.0
 11
132.4368993522
 21
143.6723280248
 31
0.0
  0
LINE
  5
2E7
330
1F
100
AcDbEntity
  8
0
  6
Continuous
 62
     7
370
    18
100
AcDbLine
 10
127.7267042683
 20
141.1723280248
 30
0.0
 11
131.3144426645
 21
143.6723280247
 31
0.0
  0
LINE
  5
2E8
330
1F
100
AcDbEntity
  8
0
  6
Continuous
 62
     7
370
    18
100
AcDbLine
 10
127.7267042683
 20
141.1723280248
 30
0.0
 11
126.8481710585
 21
141.1723280249
 31
0.0
  0
LINE
  5
2E9
330
1F
100
AcDbEntity
  8
0
  6
Continuous
 62
     7
370
    18
100
AcDbLine
 10
132.7372321543
 20
143.9723280248
 30
0.0
 11
132.7372321545
 21
144.1723280248
 31
0.0
  0
LINE
  5
2EA
330
1F
100
AcDbEntity
  8
0
  6
Continuous
 62
     7
370
    18
100
AcDbLine
 10
79.3461966432
 20
144.1723280248
 30
0.0
 11
79.3461966432
 21
143.9723280248
 31
0.0
  0
LINE
  5
2EB
330
1F
100
AcDbEntity
  8
0
  6
Continuous
 62
     7
370
    18
100
AcDbLine
 10
84.3499681293
 20
141.1723280248
 30
0.0
 11
84.3859897422
 21
141.1723280248
 31
0.0
  0
LINE
  5
2EC
330
1F
100
AcDbEntity
  8
0
  6
Continuous
 62
     7
370
    18
100
AcDbLine
 10
131.3453544261
 20
143.6723280247
 30
0.0
 11
127.7627258812
 21
141.1723280248
 31
0.0
  0
LINE
  5
2ED
330
1F
100
AcDbEntity
  8
0
  6
Continuous
 62
     7
370
    18
100
AcDbLine
 10
127.7267042683
 20
141.1723280248
 30
0.0
 11
127.7627258812
 21
141.1723280248
 31
0.0
  0
LINE
  5
2EE
330
1F
100
AcDbEntity
  8
0
  6
Continuous
 62
     8
370
    18
100
AcDbLine
 10
132.7664973668
 20
143.9723280248
 30
0.0
 11
132.7372321543
 21
143.9723280248
 31
0.0
  0
DIMENSION
  5
2EF
330
1F
100
AcDbEntity
  8
0
  6
Continuous
 62
     7
370
    18
100
AcDbDimension
  2
_D
 10
168.0564500842
 20
119.4085978227
 30
0.0
 11
168.0564500842
 21
149.140462924
 31
0.0
 70
   160
  1
<>
 71
     2
 42
-1.0
  3
SLDDIMSTYLE0
100
AcDbAlignedDimension
 13
113.7063470057
 23
178.8723280253
 33
0.0
 14
145.1746086585
 24
119.4085978227
 34
0.0
 50
90.0
100
AcDbRotatedDimension
  0
DIMENSION
  5
2FA
330
1F
100
AcDbEntity
  8
0
  6
Continuous
 62
     7
370
    18
100
AcDbDimension
  2
_D_1
 10
156.0564500842
 20
119.4085978227
 30
0.0
 11
156.0564500842
 21
144.140462924
 31
0.0
 70
   160
  1
<>
 71
     2
 42
-1.0
  3
SLDDIMSTYLE0
100
AcDbAlignedDimension
 13
121.3063470048
 23
168.8723280252
 33
0.0
 14
145.1746086585
 24
119.4085978227
 34
0.0
 50
90.0
100
AcDbRotatedDimension
  0
DIMENSION
  5
304
330
1F
100
AcDbEntity
  8
0
  6
Continuous
 62
     7
370
    18
100
AcDbDimension
  2
_D_2
 10
66.0563470053
 20
106.1995969367
 30
0.0
 11
106.0563470052
 21
106.1995969367
 31
0.0
 70
   160
  1
%%c<>
 71
     2
 42
-1.0
  3
SLDDIMSTYLE0
100
AcDbAlignedDimension
 13
146.0563470052
 23
120.1660721009
 33
0.0
 14
66.0563470053
 24
120.1660721009
 34
0.0
100
AcDbRotatedDimension
  0
INSERT
  5
314
330
1F
100
AcDbEntity
  8
0
  6
Continuous
 62
     7
370
     0
100
AcDbBlockReference
  2
SW_NOTE_0
 10
127.5655391121
 20
191.271670384
 30
0.0
  0
LEADER
  5
31C
330
1F
100
AcDbEntity
  8
0
  6
Continuous
 62
     7
370
     0
100
AcDbLeader
  3
SLDDIMSTYLE1
 76
     2
 10
113.7063470057
 20
178.8723280253
 30
0.0
 10
127.5655391121
 20
191.271670384
 30
0.0
  0
ENDSEC
  0
SECTION
  2
OBJECTS
  0
DICTIONARY
  5
C
330
0
100
AcDbDictionary
281
     1
  3
ACAD_GROUP
350
D
  3
ACAD_LAYOUT
350
1A
  3
ACAD_MLINESTYLE
350
17
  3
ACAD_PLOTSETTINGS
350
19
  3
ACAD_PLOTSTYLENAME
350
E
  3
ACAD_SCALELIST
350
47
  3
DWGPROPS
350
31D
  0
DICTIONARY
  5
D
102
{ACAD_REACTORS
330
C
102
}
330
C
100
AcDbDictionary
281
     1
  0
DICTIONARY
  5
1A
102
{ACAD_REACTORS
330
C
102
}
330
C
100
AcDbDictionary
281
     1
  3
Layout1
350
1E
  3
Layout2
350
26
  3
Model
350
22
  0
DICTIONARY
  5
17
102
{ACAD_REACTORS
330
C
102
}
330
C
100
AcDbDictionary
281
     1
  3
Standard
350
18
  0
DICTIONARY
  5
19
102
{ACAD_REACTORS
330
C
102
}
330
C
100
AcDbDictionary
281
     1
  0
ACDBDICTIONARYWDFLT
  5
E
102
{ACAD_REACTORS
330
C
102
}
330
C
100
AcDbDictionary
281
     1
  3
Normal
350
F
100
AcDbDictionaryWithDefault
340
F
  0
DICTIONARY
  5
47
102
{ACAD_REACTORS
330
C
102
}
330
C
100
AcDbDictionary
281
     1
  3
A0
350
48
  3
A1
350
49
  3
A2
350
4A
  3
A3
350
4B
  3
A4
350
4C
  3
A5
350
4D
  3
A6
350
4E
  3
A7
350
4F
  3
A8
350
50
  3
A9
350
51
  3
B0
350
52
  3
B1
350
53
  3
B2
350
54
  3
B3
350
55
  3
B4
350
56
  3
B5
350
57
  3
B6
350
58
  3
B7
350
59
  3
B8
350
5A
  3
B9
350
5B
  3
C0
350
5C
  3
C1
350
5D
  3
C2
350
5E
  3
C3
350
5F
  3
C4
350
60
  3
C5
350
61
  3
C6
350
62
  3
C7
350
63
  3
C8
350
64
  3
C9
350
65
  3
D0
350
66
  3
D1
350
67
  3
D2
350
68
  0
XRECORD
  5
31D
102
{ACAD_REACTORS
330
C
102
}
330
C
100
AcDbXrecord
280
     1
  1
DWGPROPS COOKIE
  2

  3

  4

  6

  7

  8
STAR064C
  9

300
=
301
=
302
=
303
=
304
=
305
=
306
=
307
=
308
=
309
=
 40
0.0
 41
2460053.017380069
 42
2460053.01738169
  1

 90
        0
  0
LAYOUT
  5
1E
102
{ACAD_REACTORS
330
1A
102
}
330
1A
100
AcDbPlotSettings
  1

  2
none_device
  4

  6

 40
0.0
 41
0.0
 42
0.0
 43
0.0
 44
0.0
 45
0.0
 46
0.0
 47
0.0
 48
0.0
 49
0.0
140
0.0
141
0.0
142
1.0
143
1.0
 70
   688
 72
     1
 73
     0
 74
     5
  7

 75
    16
147
1.0
148
0.0
149
0.0
100
AcDbLayout
  1
Layout1
 70
     1
 71
     1
 10
0.0
 20
0.0
 11
420.0
 21
297.0
 12
0.0
 22
0.0
 32
0.0
 14
1.0000000000E+20
 24
1.0000000000E+20
 34
1.0000000000E+20
 15
-1.0000000000E+20
 25
-1.0000000000E+20
 35
-1.0000000000E+20
146
0.0
 13
0.0
 23
0.0
 33
0.0
 16
1.0
 26
0.0
 36
0.0
 17
0.0
 27
1.0
 37
0.0
 76
     0
330
1B
  0
LAYOUT
  5
26
102
{ACAD_REACTORS
330
1A
102
}
330
1A
100
AcDbPlotSettings
  1

  2
none_device
  4

  6

 40
0.0
 41
0.0
 42
0.0
 43
0.0
 44
0.0
 45
0.0
 46
0.0
 47
0.0
 48
0.0
 49
0.0
140
0.0
141
0.0
142
1.0
143
1.0
 70
   688
 72
     1
 73
     0
 74
     5
  7

 75
    16
147
1.0
148
0.0
149
0.0
100
AcDbLayout
  1
Layout2
 70
     1
 71
     2
 10
0.0
 20
0.0
 11
0.0
 21
0.0
 12
0.0
 22
0.0
 32
0.0
 14
0.0
 24
0.0
 34
0.0
 15
0.0
 25
0.0
 35
0.0
146
0.0
 13
0.0
 23
0.0
 33
0.0
 16
1.0
 26
0.0
 36
0.0
 17
0.0
 27
1.0
 37
0.0
 76
     0
330
23
  0
LAYOUT
  5
22
102
{ACAD_REACTORS
330
1A
102
}
330
1A
100
AcDbPlotSettings
  1

  2
none_device
  4
Letter_(8.50_x_11.00_Inches)
  6

 40
6.35
 41
6.35
 42
6.35000508
 43
6.35000508
 44
215.9
 45
279.4
 46
0.0
 47
0.0
 48
0.0
 49
0.0
140
0.0
141
0.0
142
1.0
143
1.0
 70
  1712
 72
     1
 73
     0
 74
     0
  7

 75
     0
147
1.0
148
0.0
149
0.0
100
AcDbLayout
  1
Model
 70
     1
 71
     0
 10
0.0
 20
0.0
 11
210.0
 21
297.0
 12
0.0
 22
0.0
 32
0.0
 14
0.0
 24
0.0
 34
0.0
 15
210.0
 25
297.0
 35
0.0
146
0.0
 13
0.0
 23
0.0
 33
0.0
 16
1.0
 26
0.0
 36
0.0
 17
0.0
 27
1.0
 37
0.0
 76
     0
330
1F
331
29
  0
MLINESTYLE
  5
18
102
{ACAD_REACTORS
330
17
102
}
330
17
100
AcDbMlineStyle
  2
Standard
 70
     0
  3

 62
   256
 51
90.0
 52
90.0
 71
     2
 49
0.5
 62
   256
  6
BYLAYER
 49
-0.5
 62
   256
  6
BYLAYER
  0
ACDBPLACEHOLDER
  5
F
102
{ACAD_REACTORS
330
E
102
}
330
E
  0
SCALE
  5
48
102
{ACAD_REACTORS
330
47
102
}
330
47
100
AcDbScale
 70
     0
300
1:1
140
1.0
141
1.0
290
     1
  0
SCALE
  5
49
102
{ACAD_REACTORS
330
47
102
}
330
47
100
AcDbScale
 70
     0
300
1:2
140
1.0
141
2.0
290
     0
  0
SCALE
  5
4A
102
{ACAD_REACTORS
330
47
102
}
330
47
100
AcDbScale
 70
     0
300
1:4
140
1.0
141
4.0
290
     0
  0
SCALE
  5
4B
102
{ACAD_REACTORS
330
47
102
}
330
47
100
AcDbScale
 70
     0
300
1:5
140
1.0
141
5.0
290
     0
  0
SCALE
  5
4C
102
{ACAD_REACTORS
330
47
102
}
330
47
100
AcDbScale
 70
     0
300
1:8
140
1.0
141
8.0
290
     0
  0
SCALE
  5
4D
102
{ACAD_REACTORS
330
47
102
}
330
47
100
AcDbScale
 70
     0
300
1:10
140
1.0
141
10.0
290
     0
  0
SCALE
  5
4E
102
{ACAD_REACTORS
330
47
102
}
330
47
100
AcDbScale
 70
     0
300
1:16
140
1.0
141
16.0
290
     0
  0
SCALE
  5
4F
102
{ACAD_REACTORS
330
47
102
}
330
47
100
AcDbScale
 70
     0
300
1:20
140
1.0
141
20.0
290
     0
  0
SCALE
  5
50
102
{ACAD_REACTORS
330
47
102
}
330
47
100
AcDbScale
 70
     0
300
1:30
140
1.0
141
30.0
290
     0
  0
SCALE
  5
51
102
{ACAD_REACTORS
330
47
102
}
330
47
100
AcDbScale
 70
     0
300
1:40
140
1.0
141
40.0
290
     0
  0
SCALE
  5
52
102
{ACAD_REACTORS
330
47
102
}
330
47
100
AcDbScale
 70
     0
300
1:50
140
1.0
141
50.0
290
     0
  0
SCALE
  5
53
102
{ACAD_REACTORS
330
47
102
}
330
47
100
AcDbScale
 70
     0
300
1:100
140
1.0
141
100.0
290
     0
  0
SCALE
  5
54
102
{ACAD_REACTORS
330
47
102
}
330
47
100
AcDbScale
 70
     0
300
2:1
140
2.0
141
1.0
290
     0
  0
SCALE
  5
55
102
{ACAD_REACTORS
330
47
102
}
330
47
100
AcDbScale
 70
     0
300
4:1
140
4.0
141
1.0
290
     0
  0
SCALE
  5
56
102
{ACAD_REACTORS
330
47
102
}
330
47
100
AcDbScale
 70
     0
300
8:1
140
8.0
141
1.0
290
     0
  0
SCALE
  5
57
102
{ACAD_REACTORS
330
47
102
}
330
47
100
AcDbScale
 70
     0
300
10:1
140
10.0
141
1.0
290
     0
  0
SCALE
  5
58
102
{ACAD_REACTORS
330
47
102
}
330
47
100
AcDbScale
 70
     0
300
100:1
140
100.0
141
1.0
290
     0
  0
SCALE
  5
59
102
{ACAD_REACTORS
330
47
102
}
330
47
100
AcDbScale
 70
     0
300
1/128" = 1'-0"
140
0.0078125
141
12.0
290
     0
  0
SCALE
  5
5A
102
{ACAD_REACTORS
330
47
102
}
330
47
100
AcDbScale
 70
     0
300
1/64" = 1'-0"
140
0.015625
141
12.0
290
     0
  0
SCALE
  5
5B
102
{ACAD_REACTORS
330
47
102
}
330
47
100
AcDbScale
 70
     0
300
1/32" = 1'-0"
140
0.03125
141
12.0
290
     0
  0
SCALE
  5
5C
102
{ACAD_REACTORS
330
47
102
}
330
47
100
AcDbScale
 70
     0
300
1/16" = 1'-0"
140
0.0625
141
12.0
290
     0
  0
SCALE
  5
5D
102
{ACAD_REACTORS
330
47
102
}
330
47
100
AcDbScale
 70
     0
300
3/32" = 1'-0"
140
0.09375
141
12.0
290
     0
  0
SCALE
  5
5E
102
{ACAD_REACTORS
330
47
102
}
330
47
100
AcDbScale
 70
     0
300
1/8" = 1'-0"
140
0.125
141
12.0
290
     0
  0
SCALE
  5
5F
102
{ACAD_REACTORS
330
47
102
}
330
47
100
AcDbScale
 70
     0
300
3/16" = 1'-0"
140
0.1875
141
12.0
290
     0
  0
SCALE
  5
60
102
{ACAD_REACTORS
330
47
102
}
330
47
100
AcDbScale
 70
     0
300
1/4" = 1'-0"
140
0.25
141
12.0
290
     0
  0
SCALE
  5
61
102
{ACAD_REACTORS
330
47
102
}
330
47
100
AcDbScale
 70
     0
300
3/8" = 1'-0"
140
0.375
141
12.0
290
     0
  0
SCALE
  5
62
102
{ACAD_REACTORS
330
47
102
}
330
47
100
AcDbScale
 70
     0
300
1/2" = 1'-0"
140
0.5
141
12.0
290
     0
  0
SCALE
  5
63
102
{ACAD_REACTORS
330
47
102
}
330
47
100
AcDbScale
 70
     0
300
3/4" = 1'-0"
140
0.75
141
12.0
290
     0
  0
SCALE
  5
64
102
{ACAD_REACTORS
330
47
102
}
330
47
100
AcDbScale
 70
     0
300
1" = 1'-0"
140
1.0
141
12.0
290
     0
  0
SCALE
  5
65
102
{ACAD_REACTORS
330
47
102
}
330
47
100
AcDbScale
 70
     0
300
1-1/2" = 1'-0"
140
1.5
141
12.0
290
     0
  0
SCALE
  5
66
102
{ACAD_REACTORS
330
47
102
}
330
47
100
AcDbScale
 70
     0
300
3" = 1'-0"
140
3.0
141
12.0
290
     0
  0
SCALE
  5
67
102
{ACAD_REACTORS
330
47
102
}
330
47
100
AcDbScale
 70
     0
300
6" = 1'-0"
140
6.0
141
12.0
290
     0
  0
SCALE
  5
68
102
{ACAD_REACTORS
330
47
102
}
330
47
100
AcDbScale
 70
     0
300
1'-0" = 1'-0"
140
12.0
141
12.0
290
     0
  0
ENDSEC
  0
EOF
