  0
SECTION
  2
HEADER
  9
$ACADVER
  1
AC1015
  9
$ACADMAINTVER
 70
     6
  9
$DWGCODEPAGE
  3
DOS932
  9
$INSBASE
 10
0.0
 20
0.0
 30
0.0
  9
$EXTMIN
 10
0.0
 20
0.0
 30
0.0
  9
$EXTMAX
 10
210.0
 20
297.0
 30
0.0
  9
$LIMMIN
 10
0.0
 20
0.0
  9
$LIMMAX
 10
210.0
 20
297.0
  9
$ORTHOMODE
 70
     0
  9
$REGENMODE
 70
     1
  9
$FILLMODE
 70
     1
  9
$QTEXTMODE
 70
     0
  9
$MIRRTEXT
 70
     1
  9
$LTSCALE
 40
1.0
  9
$ATTMODE
 70
     1
  9
$TEXTSIZE
 40
3.5
  9
$TRACEWID
 40
1.0
  9
$TEXTSTYLE
  7
Standard
  9
$CLAYER
  8
0
  9
$CELTYPE
  6
ByLayer
  9
$CECOLOR
 62
   256
  9
$CELTSCALE
 40
1.0
  9
$DISPSILH
 70
     0
  9
$DIMSCALE
 40
1.0
  9
$DIMASZ
 40
3.0
  9
$DIMEXO
 40
1.0
  9
$DIMDLI
 40
3.75
  9
$DIMRND
 40
0.0
  9
$DIMDLE
 40
0.0
  9
$DIMEXE
 40
1.0
  9
$DIMTP
 40
0.0
  9
$DIMTM
 40
0.0
  9
$DIMTXT
 40
3.5
  9
$DIMCEN
 40
2.5
  9
$DIMTSZ
 40
0.0
  9
$DIMTOL
 70
     0
  9
$DIMLIM
 70
     0
  9
$DIMTIH
 70
     1
  9
$DIMTOH
 70
     1
  9
$DIMSE1
 70
     0
  9
$DIMSE2
 70
     0
  9
$DIMTAD
 70
     1
  9
$DIMZIN
 70
     0
  9
$DIMBLK
  1

  9
$DIMASO
 70
     1
  9
$DIMSHO
 70
     1
  9
$DIMPOST
  1

  9
$DIMAPOST
  1

  9
$DIMALT
 70
     0
  9
$DIMALTD
 70
     3
  9
$DIMALTF
 40
0.0393700787
  9
$DIMLFAC
 40
1.0
  9
$DIMTOFL
 70
     1
  9
$DIMTVP
 40
0.0
  9
$DIMTIX
 70
     0
  9
$DIMSOXD
 70
     0
  9
$DIMSAH
 70
     0
  9
$DIMBLK1
  1

  9
$DIMBLK2
  1

  9
$DIMSTYLE
  2
ISO-25
  9
$DIMCLRD
 70
     0
  9
$DIMCLRE
 70
     0
  9
$DIMCLRT
 70
     0
  9
$DIMTFAC
 40
1.0
  9
$DIMGAP
 40
1.524
  9
$DIMJUST
 70
     0
  9
$DIMSD1
 70
     0
  9
$DIMSD2
 70
     0
  9
$DIMTOLJ
 70
     0
  9
$DIMTZIN
 70
     0
  9
$DIMALTZ
 70
     0
  9
$DIMALTTZ
 70
     0
  9
$DIMUPT
 70
     0
  9
$DIMDEC
 70
     1
  9
$DIMTDEC
 70
     3
  9
$DIMALTU
 70
     2
  9
$DIMALTTD
 70
     3
  9
$DIMTXSTY
  7
Standard
  9
$DIMAUNIT
 70
     0
  9
$DIMADEC
 70
     2
  9
$DIMALTRND
 40
0.0
  9
$DIMAZIN
 70
     0
  9
$DIMDSEP
 70
    44
  9
$DIMATFIT
 70
     3
  9
$DIMFRAC
 70
     0
  9
$DIMLDRBLK
  1

  9
$DIMLUNIT
 70
     2
  9
$DIMLWD
 70
    -2
  9
$DIMLWE
 70
    -2
  9
$DIMTMOVE
 70
     0
  9
$LUNITS
 70
     2
  9
$LUPREC
 70
     1
  9
$SKETCHINC
 40
1.0
  9
$FILLETRAD
 40
10.0
  9
$AUNITS
 70
     0
  9
$AUPREC
 70
     2
  9
$MENU
  1
.
  9
$ELEVATION
 40
0.0
  9
$PELEVATION
 40
0.0
  9
$THICKNESS
 40
0.0
  9
$LIMCHECK
 70
     0
  9
$CHAMFERA
 40
0.0
  9
$CHAMFERB
 40
0.0
  9
$CHAMFERC
 40
0.0
  9
$CHAMFERD
 40
0.0
  9
$SKPOLY
 70
     0
  9
$TDCREATE
 40
2457984.669064919
  9
$TDUCREATE
 40
2457984.294064919
  9
$TDUPDATE
 40
2457984.669066886
  9
$TDUUPDATE
 40
2457984.294066886
  9
$TDINDWG
 40
0.0000000116
  9
$TDUSRTIMER
 40
0.0000000116
  9
$USRTIMER
 70
     1
  9
$ANGBASE
 50
0.0
  9
$ANGDIR
 70
     0
  9
$PDMODE
 70
     0
  9
$PDSIZE
 40
-1.0
  9
$PLINEWID
 40
0.0
  9
$SPLFRAME
 70
     0
  9
$SPLINETYPE
 70
     6
  9
$SPLINESEGS
 70
     8
  9
$HANDSEED
  5
373
  9
$SURFTAB1
 70
     6
  9
$SURFTAB2
 70
     6
  9
$SURFTYPE
 70
     6
  9
$SURFU
 70
     6
  9
$SURFV
 70
     6
  9
$UCSBASE
  2

  9
$UCSNAME
  2

  9
$UCSORG
 10
0.0
 20
0.0
 30
0.0
  9
$UCSXDIR
 10
1.0
 20
0.0
 30
0.0
  9
$UCSYDIR
 10
0.0
 20
1.0
 30
0.0
  9
$UCSORTHOREF
  2

  9
$UCSORTHOVIEW
 70
     0
  9
$UCSORGTOP
 10
0.0
 20
0.0
 30
0.0
  9
$UCSORGBOTTOM
 10
0.0
 20
0.0
 30
0.0
  9
$UCSORGLEFT
 10
0.0
 20
0.0
 30
0.0
  9
$UCSORGRIGHT
 10
0.0
 20
0.0
 30
0.0
  9
$UCSORGFRONT
 10
0.0
 20
0.0
 30
0.0
  9
$UCSORGBACK
 10
0.0
 20
0.0
 30
0.0
  9
$PUCSBASE
  2

  9
$PUCSNAME
  2

  9
$PUCSORG
 10
0.0
 20
0.0
 30
0.0
  9
$PUCSXDIR
 10
1.0
 20
0.0
 30
0.0
  9
$PUCSYDIR
 10
0.0
 20
1.0
 30
0.0
  9
$PUCSORTHOREF
  2

  9
$PUCSORTHOVIEW
 70
     0
  9
$PUCSORGTOP
 10
0.0
 20
0.0
 30
0.0
  9
$PUCSORGBOTTOM
 10
0.0
 20
0.0
 30
0.0
  9
$PUCSORGLEFT
 10
0.0
 20
0.0
 30
0.0
  9
$PUCSORGRIGHT
 10
0.0
 20
0.0
 30
0.0
  9
$PUCSORGFRONT
 10
0.0
 20
0.0
 30
0.0
  9
$PUCSORGBACK
 10
0.0
 20
0.0
 30
0.0
  9
$USERI1
 70
     0
  9
$USERI2
 70
     0
  9
$USERI3
 70
     0
  9
$USERI4
 70
     0
  9
$USERI5
 70
     0
  9
$USERR1
 40
0.0
  9
$USERR2
 40
0.0
  9
$USERR3
 40
0.0
  9
$USERR4
 40
0.0
  9
$USERR5
 40
0.0
  9
$WORLDVIEW
 70
     1
  9
$SHADEDGE
 70
     3
  9
$SHADEDIF
 70
    70
  9
$TILEMODE
 70
     1
  9
$MAXACTVP
 70
    64
  9
$PINSBASE
 10
0.0
 20
0.0
 30
0.0
  9
$PLIMCHECK
 70
     0
  9
$PEXTMIN
 10
1.0000000000E+20
 20
1.0000000000E+20
 30
1.0000000000E+20
  9
$PEXTMAX
 10
-1.0000000000E+20
 20
-1.0000000000E+20
 30
-1.0000000000E+20
  9
$PLIMMIN
 10
0.0
 20
0.0
  9
$PLIMMAX
 10
420.0
 20
297.0
  9
$UNITMODE
 70
     0
  9
$VISRETAIN
 70
     1
  9
$PLINEGEN
 70
     0
  9
$PSLTSCALE
 70
     1
  9
$TREEDEPTH
 70
  3020
  9
$CMLSTYLE
  2
Standard
  9
$CMLJUST
 70
     0
  9
$CMLSCALE
 40
20.0
  9
$PROXYGRAPHICS
 70
     1
  9
$MEASUREMENT
 70
     1
  9
$CELWEIGHT
370
    -1
  9
$ENDCAPS
280
     0
  9
$JOINSTYLE
280
     0
  9
$LWDISPLAY
290
     1
  9
$INSUNITS
 70
     4
  9
$HYPERLINKBASE
  1

  9
$STYLESHEET
  1

  9
$XEDIT
290
     1
  9
$CEPSNTYPE
380
     0
  9
$PSTYLEMODE
290
     1
  9
$FINGERPRINTGUID
  2
{BFF2423C-338A-4E20-A349-0DE7E41F5057}
  9
$VERSIONGUID
  2
{FAEB1C32-E019-11D5-929B-00C0DF256EC4}
  9
$EXTNAMES
290
     1
  9
$PSVPSCALE
 40
0.0
  9
$OLESTARTUP
290
     0
  0
ENDSEC
  0
SECTION
  2
CLASSES
  0
CLASS
  1
ACDBDICTIONARYWDFLT
  2
AcDbDictionaryWithDefault
  3
ObjectDBX Classes
 90
        0
280
     0
281
     0
  0
CLASS
  1
VISUALSTYLE
  2
AcDbVisualStyle
  3
ObjectDBX Classes
 90
     4095
280
     0
281
     0
  0
CLASS
  1
MATERIAL
  2
AcDbMaterial
  3
ObjectDBX Classes
 90
     1153
280
     0
281
     0
  0
CLASS
  1
SCALE
  2
AcDbScale
  3
ObjectDBX Classes
 90
     1153
280
     0
281
     0
  0
CLASS
  1
TABLESTYLE
  2
AcDbTableStyle
  3
ObjectDBX Classes
 90
     4095
280
     0
281
     0
  0
CLASS
  1
MLEADERSTYLE
  2
AcDbMLeaderStyle
  3
ACDB_MLEADERSTYLE_CLASS
 90
     4095
280
     0
281
     0
  0
CLASS
  1
SUN
  2
AcDbSun
  3
SCENEOE
 90
     1153
280
     0
281
     0
  0
CLASS
  1
ACDBPLACEHOLDER
  2
AcDbPlaceHolder
  3
ObjectDBX Classes
 90
        0
280
     0
281
     0
  0
CLASS
  1
LAYOUT
  2
AcDbLayout
  3
ObjectDBX Classes
 90
        0
280
     0
281
     0
  0
ENDSEC
  0
SECTION
  2
TABLES
  0
TABLE
  2
VPORT
  5
8
330
0
100
AcDbSymbolTable
 70
     1
  0
VPORT
  5
29
330
8
100
AcDbSymbolTableRecord
100
AcDbViewportTableRecord
  2
*Active
 70
     0
 10
0.0
 20
0.0
 11
1.0
 21
1.0
 12
105.0
 22
148.5
 13
0.0
 23
0.0
 14
10.0
 24
10.0
 15
10.0
 25
10.0
 16
0.0
 26
0.0
 36
1.0
 17
0.0
 27
0.0
 37
0.0
 40
297.0
 41
0.7070707071
 42
50.0
 43
0.0
 44
0.0
 50
0.0
 51
0.0
 71
     0
 72
  2000
 73
     1
 74
     3
 75
     0
 76
     0
 77
     0
 78
     0
281
     0
 65
     1
110
0.0
120
0.0
130
0.0
111
1.0
121
0.0
131
0.0
112
0.0
122
1.0
132
0.0
 79
     0
146
0.0
  0
ENDTAB
  0
TABLE
  2
LTYPE
  5
5
330
0
100
AcDbSymbolTable
 70
     6
  0
LTYPE
  5
14
330
5
100
AcDbSymbolTableRecord
100
AcDbLinetypeTableRecord
  2
ByBlock
 70
     0
  3

 72
    65
 73
     0
 40
0.0
  0
LTYPE
  5
15
330
5
100
AcDbSymbolTableRecord
100
AcDbLinetypeTableRecord
  2
ByLayer
 70
     0
  3

 72
    65
 73
     0
 40
0.0
  0
LTYPE
  5
16
330
5
100
AcDbSymbolTableRecord
100
AcDbLinetypeTableRecord
  2
Continuous
 70
     0
  3
Solid line
 72
    65
 73
     0
 40
0.0
  0
LTYPE
  5
6E
330
5
100
AcDbSymbolTableRecord
100
AcDbLinetypeTableRecord
  2
HIDDEN
 70
     0
  3
Hidden __ __ __ __ __ __ __ __ __ __ __ __ __ __
 72
    65
 73
     2
 40
1.905
 49
1.27
 74
     0
 49
-0.635
 74
     0
  0
LTYPE
  5
6F
330
5
100
AcDbSymbolTableRecord
100
AcDbLinetypeTableRecord
  2
PHANTOM
 70
     0
  3
Phantom ______  __  __  ______  __  __  ______
 72
    65
 73
     6
 40
12.7
 49
6.35
 74
     0
 49
-1.27
 74
     0
 49
1.27
 74
     0
 49
-1.27
 74
     0
 49
1.27
 74
     0
 49
-1.27
 74
     0
  0
LTYPE
  5
70
330
5
100
AcDbSymbolTableRecord
100
AcDbLinetypeTableRecord
  2
CENTER
 70
     0
  3
Center ____ _ ____ _ ____ _ ____ _ ____ _ ____
 72
    65
 73
     4
 40
10.16
 49
6.35
 74
     0
 49
-1.27
 74
     0
 49
1.27
 74
     0
 49
-1.27
 74
     0
  0
LTYPE
  5
71
330
5
100
AcDbSymbolTableRecord
100
AcDbLinetypeTableRecord
  2
CENTERX2
 70
     0
  3
Center (2x) ________  __  ________  __  _____
 72
    65
 73
     4
 40
20.32
 49
12.7
 74
     0
 49
-2.54
 74
     0
 49
2.54
 74
     0
 49
-2.54
 74
     0
  0
LTYPE
  5
72
330
5
100
AcDbSymbolTableRecord
100
AcDbLinetypeTableRecord
  2
DOT2
 70
     0
  3
Dot (.5x) ........................................
 72
    65
 73
     2
 40
0.635
 49
0.0
 74
     0
 49
-0.635
 74
     0
  0
ENDTAB
  0
TABLE
  2
LAYER
  5
2
330
0
100
AcDbSymbolTable
 70
     1
  0
LAYER
  5
10
330
2
100
AcDbSymbolTableRecord
100
AcDbLayerTableRecord
  2
0
 70
     0
 62
     7
  6
Continuous
370
    -3
390
F
  0
ENDTAB
  0
TABLE
  2
STYLE
  5
3
330
0
100
AcDbSymbolTable
 70
     2
  0
STYLE
  5
11
330
3
100
AcDbSymbolTableRecord
100
AcDbTextStyleTableRecord
  2
Standard
 70
     0
 40
0.0
 41
1.0
 50
0.0
 71
     0
 42
3.5
  3
txt
  4
bigfont
  0
STYLE
  5
7B
330
3
100
AcDbSymbolTableRecord
100
AcDbTextStyleTableRecord
  2
SLDTEXTSTYLE0
 70
     0
 40
0.0
 41
0.7
 50
0.0
 71
     0
 42
3.5
  3
TXT
  4
bigfont
  0
ENDTAB
  0
TABLE
  2
VIEW
  5
6
330
0
100
AcDbSymbolTable
 70
     0
  0
ENDTAB
  0
TABLE
  2
UCS
  5
7
330
0
100
AcDbSymbolTable
 70
     0
  0
ENDTAB
  0
TABLE
  2
APPID
  5
9
330
0
100
AcDbSymbolTable
 70
     1
  0
APPID
  5
12
330
9
100
AcDbSymbolTableRecord
100
AcDbRegAppTableRecord
  2
ACAD
 70
     0
  0
ENDTAB
  0
TABLE
  2
DIMSTYLE
  5
A
330
0
100
AcDbSymbolTable
 70
     6
100
AcDbDimStyleTable
  0
DIMSTYLE
105
27
330
A
100
AcDbSymbolTableRecord
100
AcDbDimStyleTableRecord
  2
ISO-25
 70
     0
 41
2.5
 42
0.625
 43
3.75
 44
1.25
 73
     0
 74
     0
 77
     1
 78
     8
140
2.5
141
2.5
143
0.0393700787
147
0.625
171
     3
172
     1
178
     0
271
     2
272
     2
274
     3
278
    44
283
     0
284
     8
340
11
  0
DIMSTYLE
105
157
102
{ACAD_REACTORS
330
156
330
182
330
1BC
330
35B
330
367
102
}
330
A
100
AcDbSymbolTableRecord
100
AcDbDimStyleTableRecord
  2
SLDDIMSTYLE0
 70
     0
 41
3.0
 44
0.0
 45
0.000000001
 73
     0
 74
     0
 77
     3
 78
    12
 79
     3
140
3.5
147
0.875
172
     1
173
     1
178
     0
271
     1
272
     3
276
     2
284
    12
289
     0
340
7B
  0
DIMSTYLE
105
164
102
{ACAD_REACTORS
330
163
330
16E
330
178
330
18F
330
199
330
265
102
}
330
A
100
AcDbSymbolTableRecord
100
AcDbDimStyleTableRecord
  2
SLDDIMSTYLE1
 70
     0
 41
3.0
 44
0.0
 45
0.000000001
 73
     0
 74
     0
 77
     3
 78
    12
 79
     3
140
3.5
147
0.875
173
     1
178
     0
271
     1
272
     3
276
     2
284
    12
340
7B
  0
DIMSTYLE
105
1A4
102
{ACAD_REACTORS
330
1A3
102
}
330
A
100
AcDbSymbolTableRecord
100
AcDbDimStyleTableRecord
  2
SLDDIMSTYLE2
 70
     0
 41
3.0
 44
0.0
 45
0.000000001
 78
    12
 79
     3
140
3.5
141
0.0
147
0.875
173
     1
178
     0
271
     1
272
     3
276
     2
284
    12
340
7B
  0
DIMSTYLE
105
1B0
102
{ACAD_REACTORS
330
1AF
330
271
102
}
330
A
100
AcDbSymbolTableRecord
100
AcDbDimStyleTableRecord
  2
SLDDIMSTYLE3
 70
     0
 41
3.0
 44
0.0
 45
0.000000001
 73
     0
 74
     0
 77
     3
 78
    12
 79
     3
140
3.5
147
0.875
173
     1
178
     0
271
     0
272
     3
276
     2
284
    12
340
7B
  0
DIMSTYLE
105
1D0
330
A
100
AcDbSymbolTableRecord
100
AcDbDimStyleTableRecord
  2
SLDDIMSTYLE4
 70
     0
 41
3.0
 44
0.0
 45
0.000000001
146
3.0
147
0.0
173
     1
178
     0
271
     0
272
     0
276
     2
340
11
  0
ENDTAB
  0
TABLE
  2
BLOCK_RECORD
  5
1
330
0
100
AcDbSymbolTable
 70
    22
  0
BLOCK_RECORD
  5
1F
330
1
100
AcDbSymbolTableRecord
100
AcDbBlockTableRecord
  2
*Model_Space
340
22
  0
BLOCK_RECORD
  5
1B
330
1
100
AcDbSymbolTableRecord
100
AcDbBlockTableRecord
  2
*Paper_Space
340
1E
  0
BLOCK_RECORD
  5
23
330
1
100
AcDbSymbolTableRecord
100
AcDbBlockTableRecord
  2
*Paper_Space0
340
26
  0
BLOCK_RECORD
  5
158
330
1
100
AcDbSymbolTableRecord
100
AcDbBlockTableRecord
  2
_D
340
0
  0
BLOCK_RECORD
  5
165
330
1
100
AcDbSymbolTableRecord
100
AcDbBlockTableRecord
  2
_D_1
340
0
  0
BLOCK_RECORD
  5
16F
330
1
100
AcDbSymbolTableRecord
100
AcDbBlockTableRecord
  2
_D_2
340
0
  0
BLOCK_RECORD
  5
179
330
1
100
AcDbSymbolTableRecord
100
AcDbBlockTableRecord
  2
_D_3
340
0
  0
BLOCK_RECORD
  5
183
330
1
100
AcDbSymbolTableRecord
100
AcDbBlockTableRecord
  2
_D_4
340
0
  0
BLOCK_RECORD
  5
190
330
1
100
AcDbSymbolTableRecord
100
AcDbBlockTableRecord
  2
_D_5
340
0
  0
BLOCK_RECORD
  5
19A
330
1
100
AcDbSymbolTableRecord
100
AcDbBlockTableRecord
  2
_D_6
340
0
  0
BLOCK_RECORD
  5
1A5
330
1
100
AcDbSymbolTableRecord
100
AcDbBlockTableRecord
  2
_D_7
340
0
  0
BLOCK_RECORD
  5
1B1
330
1
100
AcDbSymbolTableRecord
100
AcDbBlockTableRecord
  2
_D_8
340
0
  0
BLOCK_RECORD
  5
1BD
330
1
100
AcDbSymbolTableRecord
100
AcDbBlockTableRecord
  2
_D_9
340
0
  0
BLOCK_RECORD
  5
1CA
330
1
100
AcDbSymbolTableRecord
100
AcDbBlockTableRecord
  2
SW_NOTE_0
340
0
102
{BLKREFS
331
1CF
102
}
  0
BLOCK_RECORD
  5
1D2
330
1
100
AcDbSymbolTableRecord
100
AcDbBlockTableRecord
  2
SW_CENTERMARKSYMBOL_0
340
0
102
{BLKREFS
331
1DD
102
}
  0
BLOCK_RECORD
  5
1DE
330
1
100
AcDbSymbolTableRecord
100
AcDbBlockTableRecord
  2
SW_CENTERMARKSYMBOL_1
340
0
102
{BLKREFS
331
1E9
102
}
  0
BLOCK_RECORD
  5
1EA
330
1
100
AcDbSymbolTableRecord
100
AcDbBlockTableRecord
  2
SW_CENTERMARKSYMBOL_2
340
0
102
{BLKREFS
331
1F5
102
}
  0
BLOCK_RECORD
  5
1F6
330
1
100
AcDbSymbolTableRecord
100
AcDbBlockTableRecord
  2
SW_CENTERMARKSYMBOL_3
340
0
102
{BLKREFS
331
201
102
}
  0
BLOCK_RECORD
  5
202
330
1
100
AcDbSymbolTableRecord
100
AcDbBlockTableRecord
  2
SW_CENTERMARKSYMBOL_4
340
0
102
{BLKREFS
331
20D
102
}
  0
BLOCK_RECORD
  5
266
330
1
100
AcDbSymbolTableRecord
100
AcDbBlockTableRecord
  2
_D_10
340
0
  0
BLOCK_RECORD
  5
272
330
1
100
AcDbSymbolTableRecord
100
AcDbBlockTableRecord
  2
_D_11
340
0
  0
BLOCK_RECORD
  5
27D
330
1
100
AcDbSymbolTableRecord
100
AcDbBlockTableRecord
  2
SW_CENTERMARKSYMBOL_5
340
0
102
{BLKREFS
331
288
102
}
  0
BLOCK_RECORD
  5
35C
330
1
100
AcDbSymbolTableRecord
100
AcDbBlockTableRecord
  2
_D_12
340
0
  0
BLOCK_RECORD
  5
368
330
1
100
AcDbSymbolTableRecord
100
AcDbBlockTableRecord
  2
_D_13
340
0
  0
ENDTAB
  0
ENDSEC
  0
SECTION
  2
BLOCKS
  0
BLOCK
  5
20
330
1F
100
AcDbEntity
  8
0
100
AcDbBlockBegin
  2
*Model_Space
 70
     0
 10
0.0
 20
0.0
 30
0.0
  3
*Model_Space
  1

  0
ENDBLK
  5
21
330
1F
100
AcDbEntity
  8
0
100
AcDbBlockEnd
  0
BLOCK
  5
1C
330
1B
100
AcDbEntity
 67
     1
  8
0
100
AcDbBlockBegin
  2
*Paper_Space
 70
     0
 10
0.0
 20
0.0
 30
0.0
  3
*Paper_Space
  1

  0
ENDBLK
  5
1D
330
1B
100
AcDbEntity
 67
     1
  8
0
100
AcDbBlockEnd
  0
BLOCK
  5
24
330
23
100
AcDbEntity
  8
0
100
AcDbBlockBegin
  2
*Paper_Space0
 70
     0
 10
0.0
 20
0.0
 30
0.0
  3
*Paper_Space0
  1

  0
ENDBLK
  5
25
330
23
100
AcDbEntity
  8
0
100
AcDbBlockEnd
  0
BLOCK
  5
159
330
158
100
AcDbEntity
  8
0
100
AcDbBlockBegin
  2
_D
 70
     0
 10
0.0
 20
0.0
 30
0.0
  3
_D
  1

  0
SOLID
  5
15B
330
158
100
AcDbEntity
  8
0
  6
Continuous
 62
     7
370
     0
100
AcDbTrace
 10
96.0408339388
 20
172.4817788851
 30
0.0
 11
95.2908339388
 21
169.4817788851
 31
0.0
 12
96.7908339388
 22
169.4817788851
 32
0.0
 13
96.7908339388
 23
169.4817788851
 33
0.0
  0
SOLID
  5
15C
330
158
100
AcDbEntity
  8
0
  6
Continuous
 62
     7
370
     0
100
AcDbTrace
 10
96.0408339388
 20
176.4817788851
 30
0.0
 11
96.7908339388
 21
179.4817788851
 31
0.0
 12
95.2908339388
 22
179.4817788851
 32
0.0
 13
95.2908339388
 23
179.4817788851
 33
0.0
  0
LINE
  5
15D
330
158
100
AcDbEntity
  8
0
  6
Continuous
 62
     7
370
     0
100
AcDbLine
 10
88.5023650545
 20
172.4817788851
 30
0.0
 11
97.0408339388
 21
172.4817788851
 31
0.0
  0
LINE
  5
15E
330
158
100
AcDbEntity
  8
0
  6
Continuous
 62
     7
370
     0
100
AcDbLine
 10
83.5023650545
 20
176.4817788851
 30
0.0
 11
97.0408339388
 21
176.4817788851
 31
0.0
  0
LINE
  5
15F
330
158
100
AcDbEntity
  8
0
  6
Continuous
 62
     7
370
     0
100
AcDbLine
 10
96.0408339388
 20
172.4817788851
 30
0.0
 11
96.0408339388
 21
167.4817788851
 31
0.0
  0
LINE
  5
160
330
158
100
AcDbEntity
  8
0
  6
Continuous
 62
     7
370
     0
100
AcDbLine
 10
96.0408339388
 20
172.4817788851
 30
0.0
 11
96.0408339388
 21
176.4817788851
 31
0.0
  0
LINE
  5
161
330
158
100
AcDbEntity
  8
0
  6
Continuous
 62
     7
370
     0
100
AcDbLine
 10
96.0408339388
 20
176.4817788851
 30
0.0
 11
96.0408339388
 21
181.4817788851
 31
0.0
  0
MTEXT
  5
162
330
158
100
AcDbEntity
  8
0
  6
Continuous
 62
     7
370
     0
100
AcDbMText
 10
91.5290970824
 20
173.4633761363
 30
0.0
 40
3.5
 41
0.0
 71
     1
 72
     1
  1
4
  7
SLDTEXTSTYLE0
 11
-1.059690869644414E-14
 21
1.0
 31
0.0
 73
     1
 44
1.0
  0
ENDBLK
  5
15A
330
158
100
AcDbEntity
  8
0
100
AcDbBlockEnd
  0
BLOCK
  5
166
330
165
100
AcDbEntity
  8
0
100
AcDbBlockBegin
  2
_D_1
 70
     0
 10
0.0
 20
0.0
 30
0.0
  3
_D_1
  1

  0
SOLID
  5
168
330
165
100
AcDbEntity
  8
0
  6
Continuous
 62
     7
370
     0
100
AcDbTrace
 10
96.0408339388
 20
176.4817788851
 30
0.0
 11
96.7908339388
 21
179.4817788851
 31
0.0
 12
95.2908339388
 22
179.4817788851
 32
0.0
 13
95.2908339388
 23
179.4817788851
 33
0.0
  0
SOLID
  5
169
330
165
100
AcDbEntity
  8
0
  6
Continuous
 62
     7
370
     0
100
AcDbTrace
 10
96.0408339388
 20
202.4817788851
 30
0.0
 11
95.2908339388
 21
199.4817788851
 31
0.0
 12
96.7908339388
 22
199.4817788851
 32
0.0
 13
96.7908339388
 23
199.4817788851
 33
0.0
  0
LINE
  5
16A
330
165
100
AcDbEntity
  8
0
  6
Continuous
 62
     7
370
     0
100
AcDbLine
 10
83.5023650545
 20
176.4817788851
 30
0.0
 11
97.0408339388
 21
176.4817788851
 31
0.0
  0
LINE
  5
16B
330
165
100
AcDbEntity
  8
0
  6
Continuous
 62
     7
370
     0
100
AcDbLine
 10
75.5023650545
 20
202.4817788851
 30
0.0
 11
97.0408339388
 21
202.4817788851
 31
0.0
  0
LINE
  5
16C
330
165
100
AcDbEntity
  8
0
  6
Continuous
 62
     7
370
     0
100
AcDbLine
 10
96.0408339388
 20
176.4817788851
 30
0.0
 11
96.0408339388
 21
202.4817788851
 31
0.0
  0
MTEXT
  5
16D
330
165
100
AcDbEntity
  8
0
  6
Continuous
 62
     7
370
     0
100
AcDbMText
 10
91.5290970824
 20
187.4449733876
 30
0.0
 40
3.5
 41
0.0
 71
     1
 72
     1
  1
26
  7
SLDTEXTSTYLE0
 11
6.123233995736766E-17
 21
1.0
 31
0.0
 73
     1
 44
1.0
  0
ENDBLK
  5
167
330
165
100
AcDbEntity
  8
0
100
AcDbBlockEnd
  0
BLOCK
  5
170
330
16F
100
AcDbEntity
  8
0
100
AcDbBlockBegin
  2
_D_2
 70
     0
 10
0.0
 20
0.0
 30
0.0
  3
_D_2
  1

  0
SOLID
  5
172
330
16F
100
AcDbEntity
  8
0
  6
Continuous
 62
     7
370
     0
100
AcDbTrace
 10
104.2857162656
 20
172.4817788851
 30
0.0
 11
105.0357162656
 21
175.4817788851
 31
0.0
 12
103.5357162656
 22
175.4817788851
 32
0.0
 13
103.5357162656
 23
175.4817788851
 33
0.0
  0
SOLID
  5
173
330
16F
100
AcDbEntity
  8
0
  6
Continuous
 62
     7
370
     0
100
AcDbTrace
 10
104.2857162656
 20
216.6817788851
 30
0.0
 11
103.5357162656
 21
213.6817788851
 31
0.0
 12
105.0357162656
 22
213.6817788851
 32
0.0
 13
105.0357162656
 23
213.6817788851
 33
0.0
  0
LINE
  5
174
330
16F
100
AcDbEntity
  8
0
  6
Continuous
 62
     7
370
     0
100
AcDbLine
 10
88.5023650545
 20
172.4817788851
 30
0.0
 11
105.2857162656
 21
172.4817788851
 31
0.0
  0
LINE
  5
175
330
16F
100
AcDbEntity
  8
0
  6
Continuous
 62
     7
370
     0
100
AcDbLine
 10
78.5023650545
 20
216.6817788851
 30
0.0
 11
105.2857162656
 21
216.6817788851
 31
0.0
  0
LINE
  5
176
330
16F
100
AcDbEntity
  8
0
  6
Continuous
 62
     7
370
     0
100
AcDbLine
 10
104.2857162656
 20
172.4817788851
 30
0.0
 11
104.2857162656
 21
216.6817788851
 31
0.0
  0
MTEXT
  5
177
330
16F
100
AcDbEntity
  8
0
  6
Continuous
 62
     7
370
     0
100
AcDbMText
 10
99.7739794092
 20
190.5081678901
 30
0.0
 40
3.5
 41
0.0
 71
     1
 72
     1
  1
44.2
  7
SLDTEXTSTYLE0
 11
-1.059690869644414E-14
 21
1.0
 31
0.0
 73
     1
 44
1.0
  0
ENDBLK
  5
171
330
16F
100
AcDbEntity
  8
0
100
AcDbBlockEnd
  0
BLOCK
  5
17A
330
179
100
AcDbEntity
  8
0
100
AcDbBlockBegin
  2
_D_3
 70
     0
 10
0.0
 20
0.0
 30
0.0
  3
_D_3
  1

  0
SOLID
  5
17C
330
179
100
AcDbEntity
  8
0
  6
Continuous
 62
     7
370
     0
100
AcDbTrace
 10
104.2857162656
 20
172.4817788851
 30
0.0
 11
103.5357162656
 21
169.4817788851
 31
0.0
 12
105.0357162656
 22
169.4817788851
 32
0.0
 13
105.0357162656
 23
169.4817788851
 33
0.0
  0
SOLID
  5
17D
330
179
100
AcDbEntity
  8
0
  6
Continuous
 62
     7
370
     0
100
AcDbTrace
 10
104.2857162656
 20
156.4817788851
 30
0.0
 11
105.0357162656
 21
159.4817788851
 31
0.0
 12
103.5357162656
 22
159.4817788851
 32
0.0
 13
103.5357162656
 23
159.4817788851
 33
0.0
  0
LINE
  5
17E
330
179
100
AcDbEntity
  8
0
  6
Continuous
 62
     7
370
     0
100
AcDbLine
 10
88.5023650545
 20
172.4817788851
 30
0.0
 11
105.2857162656
 21
172.4817788851
 31
0.0
  0
LINE
  5
17F
330
179
100
AcDbEntity
  8
0
  6
Continuous
 62
     7
370
     0
100
AcDbLine
 10
81.0023650545
 20
156.4817788851
 30
0.0
 11
105.2857162656
 21
156.4817788851
 31
0.0
  0
LINE
  5
180
330
179
100
AcDbEntity
  8
0
  6
Continuous
 62
     7
370
     0
100
AcDbLine
 10
104.2857162656
 20
172.4817788851
 30
0.0
 11
104.2857162656
 21
156.4817788851
 31
0.0
  0
MTEXT
  5
181
330
179
100
AcDbEntity
  8
0
  6
Continuous
 62
     7
370
     0
100
AcDbMText
 10
99.7739794092
 20
162.4449733876
 30
0.0
 40
3.5
 41
0.0
 71
     1
 72
     1
  1
16
  7
SLDTEXTSTYLE0
 11
-1.770233605404514E-14
 21
1.0
 31
0.0
 73
     1
 44
1.0
  0
ENDBLK
  5
17B
330
179
100
AcDbEntity
  8
0
100
AcDbBlockEnd
  0
BLOCK
  5
184
330
183
100
AcDbEntity
  8
0
100
AcDbBlockBegin
  2
_D_4
 70
     0
 10
0.0
 20
0.0
 30
0.0
  3
_D_4
  1

  0
SOLID
  5
186
330
183
100
AcDbEntity
  8
0
  6
Continuous
 62
     7
370
     0
100
AcDbTrace
 10
80.5023650545
 20
137.7399854684
 30
0.0
 11
83.5023650545
 21
136.9899854684
 31
0.0
 12
83.5023650545
 22
138.4899854684
 32
0.0
 13
83.5023650545
 23
138.4899854684
 33
0.0
  0
SOLID
  5
187
330
183
100
AcDbEntity
  8
0
  6
Continuous
 62
     7
370
     0
100
AcDbTrace
 10
68.5023650545
 20
137.7399854684
 30
0.0
 11
65.5023650545
 21
138.4899854684
 31
0.0
 12
65.5023650545
 22
136.9899854684
 32
0.0
 13
65.5023650545
 23
136.9899854684
 33
0.0
  0
LINE
  5
188
330
183
100
AcDbEntity
  8
0
  6
Continuous
 62
     7
370
     0
100
AcDbLine
 10
80.5023650545
 20
155.9817788851
 30
0.0
 11
80.5023650545
 21
136.7399854684
 31
0.0
  0
LINE
  5
189
330
183
100
AcDbEntity
  8
0
  6
Continuous
 62
     7
370
     0
100
AcDbLine
 10
68.5023650545
 20
155.9817788851
 30
0.0
 11
68.5023650545
 21
136.7399854684
 31
0.0
  0
LINE
  5
18A
330
183
100
AcDbEntity
  8
0
  6
Continuous
 62
     7
370
     0
100
AcDbLine
 10
80.5023650545
 20
137.7399854684
 30
0.0
 11
85.5023650545
 21
137.7399854684
 31
0.0
  0
LINE
  5
18B
330
183
100
AcDbEntity
  8
0
  6
Continuous
 62
     7
370
     0
100
AcDbLine
 10
80.5023650545
 20
137.7399854684
 30
0.0
 11
68.5023650545
 21
137.7399854684
 31
0.0
  0
LINE
  5
18C
330
183
100
AcDbEntity
  8
0
  6
Continuous
 62
     7
370
     0
100
AcDbLine
 10
68.5023650545
 20
137.7399854684
 30
0.0
 11
63.5023650545
 21
137.7399854684
 31
0.0
  0
MTEXT
  5
18D
330
183
100
AcDbEntity
  8
0
  6
Continuous
 62
     7
370
     0
100
AcDbMText
 10
70.5305941831
 20
142.2517227904
 30
0.0
 40
3.5
 41
0.0
 71
     1
 72
     1
  1
%%c
  7
SLDTEXTSTYLE0
 73
     1
 44
1.0
  0
MTEXT
  5
18E
330
183
100
AcDbEntity
  8
0
  6
Continuous
 62
     7
370
     0
100
AcDbMText
 10
74.4005246982
 20
142.2517227904
 30
0.0
 40
3.5
 41
0.0
 71
     1
 72
     1
  1
12
  7
SLDTEXTSTYLE0
 73
     1
 44
1.0
  0
ENDBLK
  5
185
330
183
100
AcDbEntity
  8
0
100
AcDbBlockEnd
  0
BLOCK
  5
191
330
190
100
AcDbEntity
  8
0
100
AcDbBlockBegin
  2
_D_5
 70
     0
 10
0.0
 20
0.0
 30
0.0
  3
_D_5
  1

  0
SOLID
  5
193
330
190
100
AcDbEntity
  8
0
  6
Continuous
 62
     7
370
     0
100
AcDbTrace
 10
66.5023650545
 20
131.6649927135
 30
0.0
 11
69.5023650545
 21
130.9149927135
 31
0.0
 12
69.5023650545
 22
132.4149927135
 32
0.0
 13
69.5023650545
 23
132.4149927135
 33
0.0
  0
SOLID
  5
194
330
190
100
AcDbEntity
  8
0
  6
Continuous
 62
     7
370
     0
100
AcDbTrace
 10
82.5023650545
 20
131.6649927135
 30
0.0
 11
79.5023650545
 21
132.4149927135
 31
0.0
 12
79.5023650545
 22
130.9149927135
 32
0.0
 13
79.5023650545
 23
130.9149927135
 33
0.0
  0
LINE
  5
195
330
190
100
AcDbEntity
  8
0
  6
Continuous
 62
     7
370
     0
100
AcDbLine
 10
66.5023650545
 20
175.4817788851
 30
0.0
 11
66.5023650545
 21
130.6649927135
 31
0.0
  0
LINE
  5
196
330
190
100
AcDbEntity
  8
0
  6
Continuous
 62
     7
370
     0
100
AcDbLine
 10
82.5023650545
 20
175.4817788851
 30
0.0
 11
82.5023650545
 21
130.6649927135
 31
0.0
  0
LINE
  5
197
330
190
100
AcDbEntity
  8
0
  6
Continuous
 62
     7
370
     0
100
AcDbLine
 10
66.5023650545
 20
131.6649927135
 30
0.0
 11
82.5023650545
 21
131.6649927135
 31
0.0
  0
MTEXT
  5
198
330
190
100
AcDbEntity
  8
0
  6
Continuous
 62
     7
370
     0
100
AcDbMText
 10
72.4655595571
 20
136.1767295699
 30
0.0
 40
3.5
 41
0.0
 71
     1
 72
     1
  1
16
  7
SLDTEXTSTYLE0
 73
     1
 44
1.0
  0
ENDBLK
  5
192
330
190
100
AcDbEntity
  8
0
100
AcDbBlockEnd
  0
BLOCK
  5
19B
330
19A
100
AcDbEntity
  8
0
100
AcDbBlockBegin
  2
_D_6
 70
     0
 10
0.0
 20
0.0
 30
0.0
  3
_D_6
  1

  0
SOLID
  5
19D
330
19A
100
AcDbEntity
  8
0
  6
Continuous
 62
     7
370
     0
100
AcDbTrace
 10
61.5023650545
 20
124.4817788851
 30
0.0
 11
64.5023650545
 21
123.7317788851
 31
0.0
 12
64.5023650545
 22
125.2317788851
 32
0.0
 13
64.5023650545
 23
125.2317788851
 33
0.0
  0
SOLID
  5
19E
330
19A
100
AcDbEntity
  8
0
  6
Continuous
 62
     7
370
     0
100
AcDbTrace
 10
87.5023650545
 20
124.4817788851
 30
0.0
 11
84.5023650545
 21
125.2317788851
 31
0.0
 12
84.5023650545
 22
123.7317788851
 32
0.0
 13
84.5023650545
 23
123.7317788851
 33
0.0
  0
LINE
  5
19F
330
19A
100
AcDbEntity
  8
0
  6
Continuous
 62
     7
370
     0
100
AcDbLine
 10
61.5023650545
 20
171.4817788851
 30
0.0
 11
61.5023650545
 21
123.4817788851
 31
0.0
  0
LINE
  5
1A0
330
19A
100
AcDbEntity
  8
0
  6
Continuous
 62
     7
370
     0
100
AcDbLine
 10
87.5023650545
 20
171.4817788851
 30
0.0
 11
87.5023650545
 21
123.4817788851
 31
0.0
  0
LINE
  5
1A1
330
19A
100
AcDbEntity
  8
0
  6
Continuous
 62
     7
370
     0
100
AcDbLine
 10
61.5023650545
 20
124.4817788851
 30
0.0
 11
87.5023650545
 21
124.4817788851
 31
0.0
  0
MTEXT
  5
1A2
330
19A
100
AcDbEntity
  8
0
  6
Continuous
 62
     7
370
     0
100
AcDbMText
 10
72.4655595571
 20
128.9935157415
 30
0.0
 40
3.5
 41
0.0
 71
     1
 72
     1
  1
26
  7
SLDTEXTSTYLE0
 73
     1
 44
1.0
  0
ENDBLK
  5
19C
330
19A
100
AcDbEntity
  8
0
100
AcDbBlockEnd
  0
BLOCK
  5
1A6
330
1A5
100
AcDbEntity
  8
0
100
AcDbBlockBegin
  2
_D_7
 70
     0
 10
0.0
 20
0.0
 30
0.0
  3
_D_7
  1

  0
SOLID
  5
1A8
330
1A5
100
AcDbEntity
  8
0
  6
Continuous
 62
     7
370
     0
100
AcDbTrace
 10
65.0881514922
 20
177.8959924475
 30
0.0
 11
63.4971612345
 21
180.5476428769
 31
0.0
 12
62.4365010627
 22
179.4869827051
 32
0.0
 13
62.4365010627
 23
179.4869827051
 33
0.0
  0
LINE
  5
1A9
330
1A5
100
AcDbEntity
  8
0
  6
Continuous
 62
     7
370
     0
100
AcDbLine
 10
65.0881514922
 20
177.8959924475
 30
0.0
 11
57.9153244255
 21
185.0688195141
 31
0.0
  0
LINE
  5
1AA
330
1A5
100
AcDbEntity
  8
0
  6
Continuous
 62
     7
370
     0
100
AcDbLine
 10
57.9153244255
 20
185.0688195141
 30
0.0
 11
23.7389401911
 21
185.0688195141
 31
0.0
  0
MTEXT
  5
1AB
330
1A5
100
AcDbEntity
  8
0
  6
Continuous
 62
     7
370
     0
100
AcDbMText
 10
29.8493550537
 20
193.6541673655
 30
0.0
 40
3.5
 41
0.0
 71
     1
 72
     1
  1
3-
  7
SLDTEXTSTYLE0
 73
     1
 44
1.0
  0
MTEXT
  5
1AC
330
1A5
100
AcDbEntity
  8
0
  6
Continuous
 62
     7
370
     0
100
AcDbMText
 10
33.9229660487
 20
193.6541673655
 30
0.0
 40
3.5
 41
0.0
 71
     1
 72
     1
  1
M4
  7
SLDTEXTSTYLE0
 73
     1
 44
1.0
  0
MTEXT
  5
1AD
330
1A5
100
AcDbEntity
  8
0
  6
Continuous
 62
     7
370
     0
100
AcDbMText
 10
37.9965770436
 20
193.6541673655
 30
0.0
 40
3.5
 41
0.0
 71
     1
 72
     1
  1
取付穴
  7
SLDTEXTSTYLE0
 73
     1
 44
1.0
  0
MTEXT
  5
1AE
330
1A5
100
AcDbEntity
  8
0
  6
Continuous
 62
     7
370
     0
100
AcDbMText
 10
23.7389401911
 20
189.5805563705
 30
0.0
 40
3.5
 41
0.0
 71
     1
 72
     1
  1
(両側口元面取有)
  7
SLDTEXTSTYLE0
 73
     1
 44
1.0
  0
ENDBLK
  5
1A7
330
1A5
100
AcDbEntity
  8
0
100
AcDbBlockEnd
  0
BLOCK
  5
1B2
330
1B1
100
AcDbEntity
  8
0
100
AcDbBlockBegin
  2
_D_8
 70
     0
 10
0.0
 20
0.0
 30
0.0
  3
_D_8
  1

  0
ARC
  5
1B4
330
1B1
100
AcDbEntity
  8
0
  6
Continuous
 62
     7
370
     0
100
AcDbCircle
 10
109.7720260308
 20
197.6356860363
 30
0.0
 40
4.554435549315953
100
AcDbArc
 50
243.4349488229
 51
296.5650511771
  0
ARC
  5
1B5
330
1B1
100
AcDbEntity
  8
0
  6
Continuous
 62
     7
370
     0
100
AcDbCircle
 10
109.7720260308
 20
193.5620750413
 30
0.0
 40
4.554435549315978
100
AcDbArc
 50
63.4349488229
 51
116.5650511771
  0
SOLID
  5
1B6
330
1B1
100
AcDbEntity
  8
0
  6
Continuous
 62
     7
370
     0
100
AcDbTrace
 10
111.8088315283
 20
244.715982309
 30
0.0
 11
111.0588315283
 21
241.715982309
 31
0.0
 12
112.5588315283
 22
241.715982309
 32
0.0
 13
112.5588315283
 23
241.715982309
 33
0.0
  0
SOLID
  5
1B7
330
1B1
100
AcDbEntity
  8
0
  6
Continuous
 62
     7
370
     0
100
AcDbTrace
 10
111.8088315283
 20
146.4817788851
 30
0.0
 11
112.5588315283
 21
149.4817788851
 31
0.0
 12
111.0588315283
 22
149.4817788851
 32
0.0
 13
111.0588315283
 23
149.4817788851
 33
0.0
  0
LINE
  5
1B8
330
1B1
100
AcDbEntity
  8
0
  6
Continuous
 62
     7
370
     0
100
AcDbLine
 10
82.1555030738
 20
244.715982309
 30
0.0
 11
112.8088315283
 21
244.715982309
 31
0.0
  0
LINE
  5
1B9
330
1B1
100
AcDbEntity
  8
0
  6
Continuous
 62
     7
370
     0
100
AcDbLine
 10
74.0023650545
 20
146.4817788851
 30
0.0
 11
112.8088315283
 21
146.4817788851
 31
0.0
  0
LINE
  5
1BA
330
1B1
100
AcDbEntity
  8
0
  6
Continuous
 62
     7
370
     0
100
AcDbLine
 10
111.8088315283
 20
244.715982309
 30
0.0
 11
111.8088315283
 21
146.4817788851
 31
0.0
  0
MTEXT
  5
1BB
330
1B1
100
AcDbEntity
  8
0
  6
Continuous
 62
     7
370
     0
100
AcDbMText
 10
107.2970946719
 20
193.5620750413
 30
0.0
 40
3.5
 41
0.0
 71
     1
 72
     1
  1
99
  7
SLDTEXTSTYLE0
 11
-7.044195017643634E-15
 21
1.0
 31
0.0
 73
     1
 44
1.0
  0
ENDBLK
  5
1B3
330
1B1
100
AcDbEntity
  8
0
100
AcDbBlockEnd
  0
BLOCK
  5
1BE
330
1BD
100
AcDbEntity
  8
0
100
AcDbBlockBegin
  2
_D_9
 70
     0
 10
0.0
 20
0.0
 30
0.0
  3
_D_9
  1

  0
ARC
  5
1C0
330
1BD
100
AcDbEntity
  8
0
  6
Continuous
 62
     7
370
     0
100
AcDbCircle
 10
74.5023649963
 20
256.7527878064
 30
0.0
 40
4.554435549315991
100
AcDbArc
 50
153.4349488229
 51
206.5650511771
  0
ARC
  5
1C1
330
1BD
100
AcDbEntity
  8
0
  6
Continuous
 62
     7
370
     0
100
AcDbCircle
 10
74.5023649963
 20
256.7527878064
 30
0.0
 40
4.554435549315966
100
AcDbArc
 50
333.4349488229
 51
26.5650511771
  0
SOLID
  5
1C2
330
1BD
100
AcDbEntity
  8
0
  6
Continuous
 62
     7
370
     0
100
AcDbTrace
 10
67.8492270353
 20
254.715982309
 30
0.0
 11
64.8492270353
 21
255.465982309
 31
0.0
 12
64.8492270353
 22
253.965982309
 32
0.0
 13
64.8492270353
 23
253.965982309
 33
0.0
  0
SOLID
  5
1C3
330
1BD
100
AcDbEntity
  8
0
  6
Continuous
 62
     7
370
     0
100
AcDbTrace
 10
81.1555030738
 20
254.715982309
 30
0.0
 11
84.1555030738
 21
253.965982309
 31
0.0
 12
84.1555030738
 22
255.465982309
 32
0.0
 13
84.1555030738
 23
255.465982309
 33
0.0
  0
LINE
  5
1C4
330
1BD
100
AcDbEntity
  8
0
  6
Continuous
 62
     7
370
     0
100
AcDbLine
 10
67.8492270353
 20
245.715982309
 30
0.0
 11
67.8492270353
 21
255.715982309
 31
0.0
  0
LINE
  5
1C5
330
1BD
100
AcDbEntity
  8
0
  6
Continuous
 62
     7
370
     0
100
AcDbLine
 10
81.1555030738
 20
245.715982309
 30
0.0
 11
81.1555030738
 21
255.715982309
 31
0.0
  0
LINE
  5
1C6
330
1BD
100
AcDbEntity
  8
0
  6
Continuous
 62
     7
370
     0
100
AcDbLine
 10
67.8492270353
 20
254.715982309
 30
0.0
 11
62.8492270353
 21
254.7159823089
 31
0.0
  0
LINE
  5
1C7
330
1BD
100
AcDbEntity
  8
0
  6
Continuous
 62
     7
370
     0
100
AcDbLine
 10
67.8492270353
 20
254.715982309
 30
0.0
 11
81.1555030738
 21
254.715982309
 31
0.0
  0
LINE
  5
1C8
330
1BD
100
AcDbEntity
  8
0
  6
Continuous
 62
     7
370
     0
100
AcDbLine
 10
81.1555030738
 20
254.715982309
 30
0.0
 11
86.1555030738
 21
254.715982309
 31
0.0
  0
MTEXT
  5
1C9
330
1BD
100
AcDbEntity
  8
0
  6
Continuous
 62
     7
370
     0
100
AcDbMText
 10
70.4287540014
 20
259.2277191653
 30
0.0
 40
3.5
 41
0.0
 71
     1
 72
     1
  1
13.5
  7
SLDTEXTSTYLE0
 73
     1
 44
1.0
  0
ENDBLK
  5
1BF
330
1BD
100
AcDbEntity
  8
0
100
AcDbBlockEnd
  0
BLOCK
  5
1CB
330
1CA
100
AcDbEntity
  8
0
100
AcDbBlockBegin
  2
SW_NOTE_0
 70
     0
 10
0.0
 20
0.0
 30
0.0
  3
SW_NOTE_0
  1

  0
LINE
  5
1CD
330
1CA
100
AcDbEntity
  8
0
  6
Continuous
 62
     0
370
     0
100
AcDbLine
 10
-8.2682873652
 20
0.0
 30
0.0
 11
0.0
 21
0.0
 31
0.0
  0
MTEXT
  5
1CE
330
1CA
100
AcDbEntity
  8
0
  6
Continuous
 62
     0
370
     0
100
AcDbMText
 10
-8.7203815679
 20
4.5179676148
 30
0.0
 40
3.5
 41
0.0
 71
     1
 72
     1
  1
BF-5
  7
SLDTEXTSTYLE0
 73
     1
 44
1.0
  0
ENDBLK
  5
1CC
330
1CA
100
AcDbEntity
  8
0
100
AcDbBlockEnd
  0
BLOCK
  5
1D3
330
1D2
100
AcDbEntity
  8
0
100
AcDbBlockBegin
  2
SW_CENTERMARKSYMBOL_0
 70
     0
 10
0.0
 20
0.0
 30
0.0
  3
SW_CENTERMARKSYMBOL_0
  1

  0
LINE
  5
1D5
330
1D2
100
AcDbEntity
  8
0
  6
Continuous
 62
     0
370
     0
100
AcDbLine
 10
0.0
 20
0.0
 30
0.0
 11
0.0
 21
2.5
 31
0.0
  0
LINE
  5
1D6
330
1D2
100
AcDbEntity
  8
0
  6
Continuous
 62
     0
370
     0
100
AcDbLine
 10
0.0
 20
0.0
 30
0.0
 11
-2.5
 21
0.0
 31
0.0
  0
LINE
  5
1D7
330
1D2
100
AcDbEntity
  8
0
  6
Continuous
 62
     0
370
     0
100
AcDbLine
 10
0.0
 20
0.0
 30
0.0
 11
0.0
 21
-2.5
 31
0.0
  0
LINE
  5
1D8
330
1D2
100
AcDbEntity
  8
0
  6
Continuous
 62
     0
370
     0
100
AcDbLine
 10
0.0
 20
0.0
 30
0.0
 11
2.5
 21
0.0
 31
0.0
  0
LINE
  5
1D9
330
1D2
100
AcDbEntity
  8
0
  6
Continuous
 62
     0
370
     0
100
AcDbLine
 10
0.0
 20
2.5
 30
0.0
 11
0.0
 21
4.3
 31
0.0
  0
LINE
  5
1DA
330
1D2
100
AcDbEntity
  8
0
  6
Continuous
 62
     0
370
     0
100
AcDbLine
 10
-2.5
 20
0.0
 30
0.0
 11
-4.3
 21
0.0
 31
0.0
  0
LINE
  5
1DB
330
1D2
100
AcDbEntity
  8
0
  6
Continuous
 62
     0
370
     0
100
AcDbLine
 10
0.0
 20
-2.5
 30
0.0
 11
0.0
 21
-4.3
 31
0.0
  0
LINE
  5
1DC
330
1D2
100
AcDbEntity
  8
0
  6
Continuous
 62
     0
370
     0
100
AcDbLine
 10
2.5
 20
0.0
 30
0.0
 11
4.3
 21
0.0
 31
0.0
  0
ENDBLK
  5
1D4
330
1D2
100
AcDbEntity
  8
0
100
AcDbBlockEnd
  0
BLOCK
  5
1DF
330
1DE
100
AcDbEntity
  8
0
100
AcDbBlockBegin
  2
SW_CENTERMARKSYMBOL_1
 70
     0
 10
0.0
 20
0.0
 30
0.0
  3
SW_CENTERMARKSYMBOL_1
  1

  0
LINE
  5
1E1
330
1DE
100
AcDbEntity
  8
0
  6
Continuous
 62
     0
370
     0
100
AcDbLine
 10
0.0
 20
0.0
 30
0.0
 11
0.0
 21
2.5
 31
0.0
  0
LINE
  5
1E2
330
1DE
100
AcDbEntity
  8
0
  6
Continuous
 62
     0
370
     0
100
AcDbLine
 10
0.0
 20
0.0
 30
0.0
 11
-2.5
 21
0.0
 31
0.0
  0
LINE
  5
1E3
330
1DE
100
AcDbEntity
  8
0
  6
Continuous
 62
     0
370
     0
100
AcDbLine
 10
0.0
 20
0.0
 30
0.0
 11
0.0
 21
-2.5
 31
0.0
  0
LINE
  5
1E4
330
1DE
100
AcDbEntity
  8
0
  6
Continuous
 62
     0
370
     0
100
AcDbLine
 10
0.0
 20
0.0
 30
0.0
 11
2.5
 21
0.0
 31
0.0
  0
LINE
  5
1E5
330
1DE
100
AcDbEntity
  8
0
  6
Continuous
 62
     0
370
     0
100
AcDbLine
 10
0.0
 20
2.5
 30
0.0
 11
0.0
 21
4.75
 31
0.0
  0
LINE
  5
1E6
330
1DE
100
AcDbEntity
  8
0
  6
Continuous
 62
     0
370
     0
100
AcDbLine
 10
-2.5
 20
0.0
 30
0.0
 11
-4.75
 21
0.0
 31
0.0
  0
LINE
  5
1E7
330
1DE
100
AcDbEntity
  8
0
  6
Continuous
 62
     0
370
     0
100
AcDbLine
 10
0.0
 20
-2.5
 30
0.0
 11
0.0
 21
-4.75
 31
0.0
  0
LINE
  5
1E8
330
1DE
100
AcDbEntity
  8
0
  6
Continuous
 62
     0
370
     0
100
AcDbLine
 10
2.5
 20
0.0
 30
0.0
 11
4.75
 21
0.0
 31
0.0
  0
ENDBLK
  5
1E0
330
1DE
100
AcDbEntity
  8
0
100
AcDbBlockEnd
  0
BLOCK
  5
1EB
330
1EA
100
AcDbEntity
  8
0
100
AcDbBlockBegin
  2
SW_CENTERMARKSYMBOL_2
 70
     0
 10
0.0
 20
0.0
 30
0.0
  3
SW_CENTERMARKSYMBOL_2
  1

  0
LINE
  5
1ED
330
1EA
100
AcDbEntity
  8
0
  6
Continuous
 62
     0
370
     0
100
AcDbLine
 10
0.0
 20
0.0
 30
0.0
 11
0.0
 21
2.5
 31
0.0
  0
LINE
  5
1EE
330
1EA
100
AcDbEntity
  8
0
  6
Continuous
 62
     0
370
     0
100
AcDbLine
 10
0.0
 20
0.0
 30
0.0
 11
-2.5
 21
0.0
 31
0.0
  0
LINE
  5
1EF
330
1EA
100
AcDbEntity
  8
0
  6
Continuous
 62
     0
370
     0
100
AcDbLine
 10
0.0
 20
0.0
 30
0.0
 11
0.0
 21
-2.5
 31
0.0
  0
LINE
  5
1F0
330
1EA
100
AcDbEntity
  8
0
  6
Continuous
 62
     0
370
     0
100
AcDbLine
 10
0.0
 20
0.0
 30
0.0
 11
2.5
 21
0.0
 31
0.0
  0
LINE
  5
1F1
330
1EA
100
AcDbEntity
  8
0
  6
Continuous
 62
     0
370
     0
100
AcDbLine
 10
0.0
 20
2.5
 30
0.0
 11
0.0
 21
4.3
 31
0.0
  0
LINE
  5
1F2
330
1EA
100
AcDbEntity
  8
0
  6
Continuous
 62
     0
370
     0
100
AcDbLine
 10
-2.5
 20
0.0
 30
0.0
 11
-4.3
 21
0.0
 31
0.0
  0
LINE
  5
1F3
330
1EA
100
AcDbEntity
  8
0
  6
Continuous
 62
     0
370
     0
100
AcDbLine
 10
0.0
 20
-2.5
 30
0.0
 11
0.0
 21
-4.3
 31
0.0
  0
LINE
  5
1F4
330
1EA
100
AcDbEntity
  8
0
  6
Continuous
 62
     0
370
     0
100
AcDbLine
 10
2.5
 20
0.0
 30
0.0
 11
4.3
 21
0.0
 31
0.0
  0
ENDBLK
  5
1EC
330
1EA
100
AcDbEntity
  8
0
100
AcDbBlockEnd
  0
BLOCK
  5
1F7
330
1F6
100
AcDbEntity
  8
0
100
AcDbBlockBegin
  2
SW_CENTERMARKSYMBOL_3
 70
     0
 10
0.0
 20
0.0
 30
0.0
  3
SW_CENTERMARKSYMBOL_3
  1

  0
LINE
  5
1F9
330
1F6
100
AcDbEntity
  8
0
  6
Continuous
 62
     0
370
     0
100
AcDbLine
 10
0.0
 20
0.0
 30
0.0
 11
0.0
 21
2.5
 31
0.0
  0
LINE
  5
1FA
330
1F6
100
AcDbEntity
  8
0
  6
Continuous
 62
     0
370
     0
100
AcDbLine
 10
0.0
 20
0.0
 30
0.0
 11
-2.5
 21
0.0
 31
0.0
  0
LINE
  5
1FB
330
1F6
100
AcDbEntity
  8
0
  6
Continuous
 62
     0
370
     0
100
AcDbLine
 10
0.0
 20
0.0
 30
0.0
 11
0.0
 21
-2.5
 31
0.0
  0
LINE
  5
1FC
330
1F6
100
AcDbEntity
  8
0
  6
Continuous
 62
     0
370
     0
100
AcDbLine
 10
0.0
 20
0.0
 30
0.0
 11
2.5
 21
0.0
 31
0.0
  0
LINE
  5
1FD
330
1F6
100
AcDbEntity
  8
0
  6
Continuous
 62
     0
370
     0
100
AcDbLine
 10
0.0
 20
2.5
 30
0.0
 11
0.0
 21
4.75
 31
0.0
  0
LINE
  5
1FE
330
1F6
100
AcDbEntity
  8
0
  6
Continuous
 62
     0
370
     0
100
AcDbLine
 10
-2.5
 20
0.0
 30
0.0
 11
-4.75
 21
0.0
 31
0.0
  0
LINE
  5
1FF
330
1F6
100
AcDbEntity
  8
0
  6
Continuous
 62
     0
370
     0
100
AcDbLine
 10
0.0
 20
-2.5
 30
0.0
 11
0.0
 21
-4.75
 31
0.0
  0
LINE
  5
200
330
1F6
100
AcDbEntity
  8
0
  6
Continuous
 62
     0
370
     0
100
AcDbLine
 10
2.5
 20
0.0
 30
0.0
 11
4.75
 21
0.0
 31
0.0
  0
ENDBLK
  5
1F8
330
1F6
100
AcDbEntity
  8
0
100
AcDbBlockEnd
  0
BLOCK
  5
203
330
202
100
AcDbEntity
  8
0
100
AcDbBlockBegin
  2
SW_CENTERMARKSYMBOL_4
 70
     0
 10
0.0
 20
0.0
 30
0.0
  3
SW_CENTERMARKSYMBOL_4
  1

  0
LINE
  5
205
330
202
100
AcDbEntity
  8
0
  6
Continuous
 62
     0
370
     0
100
AcDbLine
 10
0.0
 20
0.0
 30
0.0
 11
0.0
 21
2.5
 31
0.0
  0
LINE
  5
206
330
202
100
AcDbEntity
  8
0
  6
Continuous
 62
     0
370
     0
100
AcDbLine
 10
0.0
 20
0.0
 30
0.0
 11
-2.5
 21
0.0
 31
0.0
  0
LINE
  5
207
330
202
100
AcDbEntity
  8
0
  6
Continuous
 62
     0
370
     0
100
AcDbLine
 10
0.0
 20
0.0
 30
0.0
 11
0.0
 21
-2.5
 31
0.0
  0
LINE
  5
208
330
202
100
AcDbEntity
  8
0
  6
Continuous
 62
     0
370
     0
100
AcDbLine
 10
0.0
 20
0.0
 30
0.0
 11
2.5
 21
0.0
 31
0.0
  0
LINE
  5
209
330
202
100
AcDbEntity
  8
0
  6
Continuous
 62
     0
370
     0
100
AcDbLine
 10
0.0
 20
2.5
 30
0.0
 11
0.0
 21
4.75
 31
0.0
  0
LINE
  5
20A
330
202
100
AcDbEntity
  8
0
  6
Continuous
 62
     0
370
     0
100
AcDbLine
 10
-2.5
 20
0.0
 30
0.0
 11
-4.75
 21
0.0
 31
0.0
  0
LINE
  5
20B
330
202
100
AcDbEntity
  8
0
  6
Continuous
 62
     0
370
     0
100
AcDbLine
 10
0.0
 20
-2.5
 30
0.0
 11
0.0
 21
-4.75
 31
0.0
  0
LINE
  5
20C
330
202
100
AcDbEntity
  8
0
  6
Continuous
 62
     0
370
     0
100
AcDbLine
 10
2.5
 20
0.0
 30
0.0
 11
4.75
 21
0.0
 31
0.0
  0
ENDBLK
  5
204
330
202
100
AcDbEntity
  8
0
100
AcDbBlockEnd
  0
BLOCK
  5
267
330
266
100
AcDbEntity
  8
0
100
AcDbBlockBegin
  2
_D_10
 70
     0
 10
0.0
 20
0.0
 30
0.0
  3
_D_10
  1

  0
ARC
  5
269
330
266
100
AcDbEntity
  8
0
  6
Continuous
 62
     7
370
     0
100
AcDbCircle
 10
79.2381437776
 20
62.6941707239
 30
0.0
 40
4.554435549315969
100
AcDbArc
 50
153.4349488229
 51
206.5650511771
  0
ARC
  5
26A
330
266
100
AcDbEntity
  8
0
  6
Continuous
 62
     7
370
     0
100
AcDbCircle
 10
75.1645327827
 20
62.6941707239
 30
0.0
 40
4.554435549315969
100
AcDbArc
 50
333.4349488229
 51
26.5650511771
  0
SOLID
  5
26B
330
266
100
AcDbEntity
  8
0
  6
Continuous
 62
     7
370
     0
100
AcDbTrace
 10
58.6003090591
 20
60.6573652264
 30
0.0
 11
61.6003090591
 21
59.9073652264
 31
0.0
 12
61.6003090591
 22
61.4073652264
 32
0.0
 13
61.6003090591
 23
61.4073652264
 33
0.0
  0
SOLID
  5
26C
330
266
100
AcDbEntity
  8
0
  6
Continuous
 62
     7
370
     0
100
AcDbTrace
 10
95.8023676176
 20
60.6573652264
 30
0.0
 11
92.8023676176
 21
61.4073652264
 31
0.0
 12
92.8023676176
 22
59.9073652264
 32
0.0
 13
92.8023676176
 23
59.9073652264
 33
0.0
  0
LINE
  5
26D
330
266
100
AcDbEntity
  8
0
  6
Continuous
 62
     7
370
     0
100
AcDbLine
 10
58.6003090591
 20
81.1991044776
 30
0.0
 11
58.6003090591
 21
59.6573652264
 31
0.0
  0
LINE
  5
26E
330
266
100
AcDbEntity
  8
0
  6
Continuous
 62
     7
370
     0
100
AcDbLine
 10
95.8023676176
 20
81.1991044776
 30
0.0
 11
95.8023676176
 21
59.6573652264
 31
0.0
  0
LINE
  5
26F
330
266
100
AcDbEntity
  8
0
  6
Continuous
 62
     7
370
     0
100
AcDbLine
 10
58.6003090591
 20
60.6573652264
 30
0.0
 11
95.8023676176
 21
60.6573652264
 31
0.0
  0
MTEXT
  5
270
330
266
100
AcDbEntity
  8
0
  6
Continuous
 62
     7
370
     0
100
AcDbMText
 10
75.1645327827
 20
65.1691020828
 30
0.0
 40
3.5
 41
0.0
 71
     1
 72
     1
  1
38
  7
SLDTEXTSTYLE0
 73
     1
 44
1.0
  0
ENDBLK
  5
268
330
266
100
AcDbEntity
  8
0
100
AcDbBlockEnd
  0
BLOCK
  5
273
330
272
100
AcDbEntity
  8
0
100
AcDbBlockBegin
  2
_D_11
 70
     0
 10
0.0
 20
0.0
 30
0.0
  3
_D_11
  1

  0
ARC
  5
275
330
272
100
AcDbEntity
  8
0
  6
Continuous
 62
     7
370
     0
100
AcDbCircle
 10
68.5881424961
 20
71.6841426367
 30
0.0
 40
4.554435549315966
100
AcDbArc
 50
153.4349488229
 51
206.5650511771
  0
ARC
  5
276
330
272
100
AcDbEntity
  8
0
  6
Continuous
 62
     7
370
     0
100
AcDbCircle
 10
64.5145315011
 20
71.6841426367
 30
0.0
 40
4.554435549315966
100
AcDbArc
 50
333.4349488229
 51
26.5650511771
  0
SOLID
  5
277
330
272
100
AcDbEntity
  8
0
  6
Continuous
 62
     7
370
     0
100
AcDbTrace
 10
58.6003090591
 20
69.6473371392
 30
0.0
 11
61.6003090591
 21
68.8973371392
 31
0.0
 12
61.6003090591
 22
70.3973371392
 32
0.0
 13
61.6003090591
 23
70.3973371392
 33
0.0
  0
SOLID
  5
278
330
272
100
AcDbEntity
  8
0
  6
Continuous
 62
     7
370
     0
100
AcDbTrace
 10
74.5023650545
 20
69.6473371392
 30
0.0
 11
71.5023650545
 21
70.3973371392
 31
0.0
 12
71.5023650545
 22
68.8973371392
 32
0.0
 13
71.5023650545
 23
68.8973371392
 33
0.0
  0
LINE
  5
279
330
272
100
AcDbEntity
  8
0
  6
Continuous
 62
     7
370
     0
100
AcDbLine
 10
58.6003090591
 20
81.1991044776
 30
0.0
 11
58.6003090591
 21
68.6473371392
 31
0.0
  0
LINE
  5
27A
330
272
100
AcDbEntity
  8
0
  6
Continuous
 62
     7
370
     0
100
AcDbLine
 10
74.5023650545
 20
76.1991044776
 30
0.0
 11
74.5023650545
 21
68.6473371392
 31
0.0
  0
LINE
  5
27B
330
272
100
AcDbEntity
  8
0
  6
Continuous
 62
     7
370
     0
100
AcDbLine
 10
58.6003090591
 20
69.6473371392
 30
0.0
 11
74.5023650545
 21
69.6473371392
 31
0.0
  0
MTEXT
  5
27C
330
272
100
AcDbEntity
  8
0
  6
Continuous
 62
     7
370
     0
100
AcDbMText
 10
64.5145315011
 20
74.1590739956
 30
0.0
 40
3.5
 41
0.0
 71
     1
 72
     1
  1
17
  7
SLDTEXTSTYLE0
 73
     1
 44
1.0
  0
ENDBLK
  5
274
330
272
100
AcDbEntity
  8
0
100
AcDbBlockEnd
  0
BLOCK
  5
27E
330
27D
100
AcDbEntity
  8
0
100
AcDbBlockBegin
  2
SW_CENTERMARKSYMBOL_5
 70
     0
 10
0.0
 20
0.0
 30
0.0
  3
SW_CENTERMARKSYMBOL_5
  1

  0
LINE
  5
280
330
27D
100
AcDbEntity
  8
0
  6
Continuous
 62
     0
370
     0
100
AcDbLine
 10
0.0
 20
0.0
 30
0.0
 11
0.0
 21
2.5
 31
0.0
  0
LINE
  5
281
330
27D
100
AcDbEntity
  8
0
  6
Continuous
 62
     0
370
     0
100
AcDbLine
 10
0.0
 20
0.0
 30
0.0
 11
-2.5
 21
0.0
 31
0.0
  0
LINE
  5
282
330
27D
100
AcDbEntity
  8
0
  6
Continuous
 62
     0
370
     0
100
AcDbLine
 10
0.0
 20
0.0
 30
0.0
 11
0.0
 21
-2.5
 31
0.0
  0
LINE
  5
283
330
27D
100
AcDbEntity
  8
0
  6
Continuous
 62
     0
370
     0
100
AcDbLine
 10
0.0
 20
0.0
 30
0.0
 11
2.5
 21
0.0
 31
0.0
  0
LINE
  5
284
330
27D
100
AcDbEntity
  8
0
  6
Continuous
 62
     0
370
     0
100
AcDbLine
 10
0.0
 20
5.0
 30
0.0
 11
0.0
 21
8.0
 31
0.0
  0
LINE
  5
285
330
27D
100
AcDbEntity
  8
0
  6
Continuous
 62
     0
370
     0
100
AcDbLine
 10
-5.0
 20
0.0
 30
0.0
 11
-8.0
 21
0.0
 31
0.0
  0
LINE
  5
286
330
27D
100
AcDbEntity
  8
0
  6
Continuous
 62
     0
370
     0
100
AcDbLine
 10
0.0
 20
-5.0
 30
0.0
 11
0.0
 21
-8.0
 31
0.0
  0
LINE
  5
287
330
27D
100
AcDbEntity
  8
0
  6
Continuous
 62
     0
370
     0
100
AcDbLine
 10
5.0
 20
0.0
 30
0.0
 11
8.0
 21
0.0
 31
0.0
  0
ENDBLK
  5
27F
330
27D
100
AcDbEntity
  8
0
100
AcDbBlockEnd
  0
BLOCK
  5
35D
330
35C
100
AcDbEntity
  8
0
100
AcDbBlockBegin
  2
_D_12
 70
     0
 10
0.0
 20
0.0
 30
0.0
  3
_D_12
  1

  0
SOLID
  5
35F
330
35C
100
AcDbEntity
  8
0
  6
Continuous
 62
     7
370
     0
100
AcDbTrace
 10
155.9682270101
 20
266.715982309
 30
0.0
 11
152.9682270101
 21
267.465982309
 31
0.0
 12
152.9682270101
 22
265.965982309
 32
0.0
 13
152.9682270101
 23
265.965982309
 33
0.0
  0
SOLID
  5
360
330
35C
100
AcDbEntity
  8
0
  6
Continuous
 62
     7
370
     0
100
AcDbTrace
 10
161.9682270101
 20
266.715982309
 30
0.0
 11
164.9682270101
 21
265.965982309
 31
0.0
 12
164.9682270101
 22
267.465982309
 32
0.0
 13
164.9682270101
 23
267.465982309
 33
0.0
  0
LINE
  5
361
330
35C
100
AcDbEntity
  8
0
  6
Continuous
 62
     7
370
     0
100
AcDbLine
 10
155.9682270101
 20
245.715982309
 30
0.0
 11
155.9682270101
 21
267.715982309
 31
0.0
  0
LINE
  5
362
330
35C
100
AcDbEntity
  8
0
  6
Continuous
 62
     7
370
     0
100
AcDbLine
 10
161.9682270101
 20
245.715982309
 30
0.0
 11
161.9682270101
 21
267.715982309
 31
0.0
  0
LINE
  5
363
330
35C
100
AcDbEntity
  8
0
  6
Continuous
 62
     7
370
     0
100
AcDbLine
 10
155.9682270101
 20
266.715982309
 30
0.0
 11
150.9682270101
 21
266.715982309
 31
0.0
  0
LINE
  5
364
330
35C
100
AcDbEntity
  8
0
  6
Continuous
 62
     7
370
     0
100
AcDbLine
 10
155.9682270101
 20
266.715982309
 30
0.0
 11
161.9682270101
 21
266.715982309
 31
0.0
  0
LINE
  5
365
330
35C
100
AcDbEntity
  8
0
  6
Continuous
 62
     7
370
     0
100
AcDbLine
 10
161.9682270101
 20
266.715982309
 30
0.0
 11
166.9682270101
 21
266.715982309
 31
0.0
  0
MTEXT
  5
366
330
35C
100
AcDbEntity
  8
0
  6
Continuous
 62
     7
370
     0
100
AcDbMText
 10
157.9498242614
 20
271.2277191653
 30
0.0
 40
3.5
 41
0.0
 71
     1
 72
     1
  1
6
  7
SLDTEXTSTYLE0
 73
     1
 44
1.0
  0
ENDBLK
  5
35E
330
35C
100
AcDbEntity
  8
0
100
AcDbBlockEnd
  0
BLOCK
  5
369
330
368
100
AcDbEntity
  8
0
100
AcDbBlockBegin
  2
_D_13
 70
     0
 10
0.0
 20
0.0
 30
0.0
  3
_D_13
  1

  0
SOLID
  5
36B
330
368
100
AcDbEntity
  8
0
  6
Continuous
 62
     7
370
     0
100
AcDbTrace
 10
152.4682270101
 20
124.4817788851
 30
0.0
 11
149.4682270101
 21
125.2317788851
 31
0.0
 12
149.4682270101
 22
123.7317788851
 32
0.0
 13
149.4682270101
 23
123.7317788851
 33
0.0
  0
SOLID
  5
36C
330
368
100
AcDbEntity
  8
0
  6
Continuous
 62
     7
370
     0
100
AcDbTrace
 10
165.4682270101
 20
124.4817788851
 30
0.0
 11
168.4682270101
 21
123.7317788851
 31
0.0
 12
168.4682270101
 22
125.2317788851
 32
0.0
 13
168.4682270101
 23
125.2317788851
 33
0.0
  0
LINE
  5
36D
330
368
100
AcDbEntity
  8
0
  6
Continuous
 62
     7
370
     0
100
AcDbLine
 10
152.4682270101
 20
171.4817788851
 30
0.0
 11
152.4682270101
 21
123.4817788851
 31
0.0
  0
LINE
  5
36E
330
368
100
AcDbEntity
  8
0
  6
Continuous
 62
     7
370
     0
100
AcDbLine
 10
165.4682270101
 20
171.4817788851
 30
0.0
 11
165.4682270101
 21
123.4817788851
 31
0.0
  0
LINE
  5
36F
330
368
100
AcDbEntity
  8
0
  6
Continuous
 62
     7
370
     0
100
AcDbLine
 10
152.4682270101
 20
124.4817788851
 30
0.0
 11
147.4682270101
 21
124.4817788851
 31
0.0
  0
LINE
  5
370
330
368
100
AcDbEntity
  8
0
  6
Continuous
 62
     7
370
     0
100
AcDbLine
 10
152.4682270101
 20
124.4817788851
 30
0.0
 11
165.4682270101
 21
124.4817788851
 31
0.0
  0
LINE
  5
371
330
368
100
AcDbEntity
  8
0
  6
Continuous
 62
     7
370
     0
100
AcDbLine
 10
165.4682270101
 20
124.4817788851
 30
0.0
 11
170.4682270101
 21
124.4817788851
 31
0.0
  0
MTEXT
  5
372
330
368
100
AcDbEntity
  8
0
  6
Continuous
 62
     7
370
     0
100
AcDbMText
 10
156.9314215126
 20
128.9935157414
 30
0.0
 40
3.5
 41
0.0
 71
     1
 72
     1
  1
13
  7
SLDTEXTSTYLE0
 73
     1
 44
1.0
  0
ENDBLK
  5
36A
330
368
100
AcDbEntity
  8
0
100
AcDbBlockEnd
  0
ENDSEC
  0
SECTION
  2
ENTITIES
  0
LINE
  5
73
330
1F
100
AcDbEntity
  8
0
  6
Continuous
 62
     7
370
     0
100
AcDbLine
 10
20.2604743903
 20
285.0
 30
0.0
 11
196.7604743903
 21
285.0
 31
0.0
  0
LINE
  5
74
330
1F
100
AcDbEntity
  8
0
  6
Continuous
 62
     7
370
     0
100
AcDbLine
 10
20.2604743903
 20
285.0
 30
0.0
 11
20.2604743903
 21
10.0
 31
0.0
  0
LINE
  5
75
330
1F
100
AcDbEntity
  8
0
  6
Continuous
 62
     7
370
     0
100
AcDbLine
 10
20.2604743903
 20
10.0
 30
0.0
 11
196.7604743903
 21
10.0
 31
0.0
  0
LINE
  5
76
330
1F
100
AcDbEntity
  8
0
  6
Continuous
 62
     7
370
     0
100
AcDbLine
 10
196.7604743903
 20
285.0
 30
0.0
 11
196.7604743903
 21
10.0
 31
0.0
  0
LINE
  5
77
330
1F
100
AcDbEntity
  8
0
  6
Continuous
 62
     7
370
     0
100
AcDbLine
 10
127.0104743903
 20
50.75
 30
0.0
 11
196.7604743903
 21
50.75
 31
0.0
  0
LINE
  5
78
330
1F
100
AcDbEntity
  8
0
  6
Continuous
 62
     7
370
     0
100
AcDbLine
 10
127.0104743903
 20
50.75
 30
0.0
 11
127.0104743903
 21
10.0
 31
0.0
  0
LINE
  5
79
330
1F
100
AcDbEntity
  8
0
  6
Continuous
 62
     7
370
     0
100
AcDbLine
 10
127.0104743903
 20
22.75
 30
0.0
 11
196.7604743903
 21
22.75
 31
0.0
  0
LINE
  5
7A
330
1F
100
AcDbEntity
  8
0
  6
Continuous
 62
     7
370
     0
100
AcDbLine
 10
127.0104743903
 20
36.75
 30
0.0
 11
196.7604743903
 21
36.75
 31
0.0
  0
MTEXT
  5
7C
330
1F
100
AcDbEntity
  8
0
  6
Continuous
 62
     7
370
     0
100
AcDbMText
 10
161.5135844428
 20
30.4171582345
 30
0.0
 40
4.2333333333
 41
0.0
 71
     2
 72
     1
  1
CHK-EM1-12-C
  7
SLDTEXTSTYLE0
 73
     1
 44
1.0
  0
MTEXT
  5
7D
330
1F
100
AcDbEntity
  8
0
  6
Continuous
 62
     7
370
     0
100
AcDbMText
 10
159.8830909926
 20
45.2994323329
 30
0.0
 40
3.175
 41
0.0
 71
     2
 72
     1
  1
ランナーチャックEM(近接センサー付)
  7
SLDTEXTSTYLE0
 73
     1
 44
1.0
  0
MTEXT
  5
7E
330
1F
100
AcDbEntity
  8
0
  6
Continuous
 62
     7
370
     0
100
AcDbMText
 10
162.5236585536
 20
16.8228189052
 30
0.0
 40
4.2333333333
 41
0.0
 71
     2
 72
     1
  1
022999
  7
SLDTEXTSTYLE0
 73
     1
 44
1.0
  0
LINE
  5
7F
330
1F
100
AcDbEntity
  8
0
  6
Continuous
 62
     7
370
     0
100
AcDbLine
 10
68.5023650621
 20
156.9817790579
 30
0.0
 11
69.002365144
 21
156.4817780446
 31
0.0
  0
LINE
  5
80
330
1F
100
AcDbEntity
  8
0
  6
Continuous
 62
     7
370
     0
100
AcDbLine
 10
80.0023650844
 20
156.4817780446
 30
0.0
 11
80.5023651664
 21
156.9817790579
 31
0.0
  0
LINE
  5
81
330
1F
100
AcDbEntity
  8
0
  6
Continuous
 62
     7
370
     0
100
AcDbLine
 10
68.5023650621
 20
172.4817788046
 30
0.0
 11
68.5023650621
 21
156.9817790579
 31
0.0
  0
LINE
  5
82
330
1F
100
AcDbEntity
  8
0
  6
Continuous
 62
     7
370
     0
100
AcDbLine
 10
80.5023651664
 20
156.9817790579
 30
0.0
 11
80.5023651664
 21
172.4817788046
 31
0.0
  0
LINE
  5
83
330
1F
100
AcDbEntity
  8
0
  6
Continuous
 62
     7
370
     0
100
AcDbLine
 10
78.5023650714
 20
153.4817794155
 30
0.0
 11
78.8023650274
 21
153.7817770433
 31
0.0
  0
LINE
  5
84
330
1F
100
AcDbEntity
  8
0
  6
Continuous
 62
     7
370
     0
100
AcDbLine
 10
70.2023649682
 20
153.7817770433
 30
0.0
 11
70.5023649242
 21
153.4817794155
 31
0.0
  0
LINE
  5
85
330
1F
100
AcDbEntity
  8
0
  6
Continuous
 62
     7
370
     0
100
AcDbLine
 10
76.3023650833
 20
148.4817804586
 30
0.0
 11
76.3023650833
 21
148.9817777466
 31
0.0
  0
LINE
  5
86
330
1F
100
AcDbEntity
  8
0
  6
Continuous
 62
     7
370
     0
100
AcDbLine
 10
72.7023651451
 20
148.9817777466
 30
0.0
 11
72.7023651451
 21
148.4817804586
 31
0.0
  0
LINE
  5
87
330
1F
100
AcDbEntity
  8
0
  6
Continuous
 62
     7
370
     0
100
AcDbLine
 10
76.3023650833
 20
150.9817780744
 30
0.0
 11
76.3023650833
 21
151.4817790877
 31
0.0
  0
LINE
  5
88
330
1F
100
AcDbEntity
  8
0
  6
Continuous
 62
     7
370
     0
100
AcDbLine
 10
72.7023651451
 20
151.4817790877
 30
0.0
 11
72.7023651451
 21
150.9817780744
 31
0.0
  0
LINE
  5
89
330
1F
100
AcDbEntity
  8
0
  6
Continuous
 62
     7
370
     0
100
AcDbLine
 10
72.7023651451
 20
150.9817780744
 30
0.0
 11
72.9023650382
 21
148.9817777466
 31
0.0
  0
LINE
  5
8A
330
1F
100
AcDbEntity
  8
0
  6
Continuous
 62
     7
370
     0
100
AcDbLine
 10
76.1023650738
 20
148.9817777466
 30
0.0
 11
76.3023650833
 21
150.9817780744
 31
0.0
  0
LINE
  5
8B
330
1F
100
AcDbEntity
  8
0
  6
Continuous
 62
     7
370
     0
100
AcDbLine
 10
72.7023651451
 20
148.4817804586
 30
0.0
 11
73.0023651012
 21
146.4817801308
 31
0.0
  0
LINE
  5
8C
330
1F
100
AcDbEntity
  8
0
  6
Continuous
 62
     7
370
     0
100
AcDbLine
 10
76.0023650691
 20
146.4817801308
 30
0.0
 11
76.3023650833
 21
148.4817804586
 31
0.0
  0
LINE
  5
8D
330
1F
100
AcDbEntity
  8
0
  6
Continuous
 62
     7
370
     0
100
AcDbLine
 10
76.1023650738
 20
151.4817790877
 30
0.0
 11
76.1023650738
 21
153.4817794155
 31
0.0
  0
LINE
  5
8E
330
1F
100
AcDbEntity
  8
0
  6
Continuous
 62
     7
370
     0
100
AcDbLine
 10
72.9023650382
 20
153.4817794155
 30
0.0
 11
72.9023650382
 21
151.4817790877
 31
0.0
  0
LINE
  5
8F
330
1F
100
AcDbEntity
  8
0
  6
Continuous
 62
     7
370
     0
100
AcDbLine
 10
78.8023650274
 20
153.7817770433
 30
0.0
 11
78.8023650274
 21
156.4817780446
 31
0.0
  0
LINE
  5
90
330
1F
100
AcDbEntity
  8
0
  6
Continuous
 62
     7
370
     0
100
AcDbLine
 10
70.2023649682
 20
156.4817780446
 30
0.0
 11
70.2023649682
 21
153.7817770433
 31
0.0
  0
LINE
  5
91
330
1F
100
AcDbEntity
  8
0
  6
Continuous
 62
     7
370
     0
100
AcDbLine
 10
87.4206134212
 20
222.4267290723
 30
0.0
 11
87.2606457305
 21
221.4396053743
 31
0.0
  0
LINE
  5
92
330
1F
100
AcDbEntity
  8
0
  6
Continuous
 62
     7
370
     0
100
AcDbLine
 10
87.803562088
 20
221.351621468
 30
0.0
 11
87.4836267066
 21
219.3773777973
 31
0.0
  0
LINE
  5
93
330
1F
100
AcDbEntity
  8
0
  6
Continuous
 62
     7
370
     0
100
AcDbLine
 10
90.3462804016
 20
218.9134711217
 30
0.0
 11
90.6662167144
 21
220.8877147924
 31
0.0
  0
LINE
  5
94
330
1F
100
AcDbEntity
  8
0
  6
Continuous
 62
     7
370
     0
100
AcDbLine
 10
62.5023654756
 20
213.4817780744
 30
0.0
 11
62.5023654756
 21
172.4817788046
 31
0.0
  0
LINE
  5
95
330
1F
100
AcDbEntity
  8
0
  6
Continuous
 62
     7
370
     0
100
AcDbLine
 10
61.5023653117
 20
172.4817788046
 30
0.0
 11
61.5023653117
 21
212.4817797732
 31
0.0
  0
LINE
  5
96
330
1F
100
AcDbEntity
  8
0
  6
Continuous
 62
     7
370
     0
100
AcDbLine
 10
61.5023653117
 20
212.4817797732
 30
0.0
 11
62.5023654756
 21
213.4817780744
 31
0.0
  0
LINE
  5
97
330
1F
100
AcDbEntity
  8
0
  6
Continuous
 62
     7
370
     0
100
AcDbLine
 10
62.5023654756
 20
172.4817788046
 30
0.0
 11
61.5023653117
 21
172.4817788046
 31
0.0
  0
LINE
  5
98
330
1F
100
AcDbEntity
  8
0
  6
Continuous
 62
     7
370
     0
100
AcDbLine
 10
86.5023647529
 20
213.4817780744
 30
0.0
 11
62.5023654756
 21
213.4817780744
 31
0.0
  0
LINE
  5
99
330
1F
100
AcDbEntity
  8
0
  6
Continuous
 62
     7
370
     0
100
AcDbLine
 10
62.5023654756
 20
213.4817780744
 30
0.0
 11
64.5023648721
 21
215.4817784023
 31
0.0
  0
LINE
  5
9A
330
1F
100
AcDbEntity
  8
0
  6
Continuous
 62
     7
370
     0
100
AcDbLine
 10
64.5023648721
 20
215.4817784023
 30
0.0
 11
71.5023650881
 21
215.4817784023
 31
0.0
  0
LINE
  5
9B
330
1F
100
AcDbEntity
  8
0
  6
Continuous
 62
     7
370
     0
100
AcDbLine
 10
71.5023650881
 20
216.6817782264
 30
0.0
 11
71.5023650881
 21
215.4817784023
 31
0.0
  0
LINE
  5
9C
330
1F
100
AcDbEntity
  8
0
  6
Continuous
 62
     7
370
     0
100
AcDbLine
 10
77.5023651403
 20
216.6817782264
 30
0.0
 11
71.5023650881
 21
216.6817782264
 31
0.0
  0
LINE
  5
9D
330
1F
100
AcDbEntity
  8
0
  6
Continuous
 62
     7
370
     0
100
AcDbLine
 10
77.5023651403
 20
215.4817784023
 30
0.0
 11
77.5023651403
 21
216.6817782264
 31
0.0
  0
LINE
  5
9E
330
1F
100
AcDbEntity
  8
0
  6
Continuous
 62
     7
370
     0
100
AcDbLine
 10
77.5023651403
 20
215.4817784023
 30
0.0
 11
84.5023653564
 21
215.4817784023
 31
0.0
  0
LINE
  5
9F
330
1F
100
AcDbEntity
  8
0
  6
Continuous
 62
     7
370
     0
100
AcDbLine
 10
84.5023653564
 20
215.4817784023
 30
0.0
 11
86.5023647529
 21
213.4817780744
 31
0.0
  0
LINE
  5
A0
330
1F
100
AcDbEntity
  8
0
  6
Continuous
 62
     7
370
     0
100
AcDbLine
 10
86.5023647529
 20
172.4817788046
 30
0.0
 11
86.5023647529
 21
213.4817780744
 31
0.0
  0
CIRCLE
  5
A1
330
1F
100
AcDbEntity
  8
0
  6
Continuous
 62
     7
370
     0
100
AcDbCircle
 10
64.5023650545
 20
205.9817788851
 30
0.0
 40
1.800000000000011
  0
CIRCLE
  5
A2
330
1F
100
AcDbEntity
  8
0
  6
Continuous
 62
     7
370
     0
100
AcDbCircle
 10
84.5023650545
 20
205.9817788851
 30
0.0
 40
1.800000000000011
  0
CIRCLE
  5
A3
330
1F
100
AcDbEntity
  8
0
  6
Continuous
 62
     7
370
     0
100
AcDbCircle
 10
74.5023650545
 20
202.4817788851
 30
0.0
 40
2.25
  0
CIRCLE
  5
A4
330
1F
100
AcDbEntity
  8
0
  6
Continuous
 62
     7
370
     0
100
AcDbCircle
 10
82.5023650545
 20
176.4817788851
 30
0.0
 40
2.25
  0
CIRCLE
  5
A5
330
1F
100
AcDbEntity
  8
0
  6
Continuous
 62
     7
370
     0
100
AcDbCircle
 10
66.5023650545
 20
176.4817788851
 30
0.0
 40
2.25
  0
LINE
  5
A6
330
1F
100
AcDbEntity
  8
0
  6
Continuous
 62
     7
370
     0
100
AcDbLine
 10
62.5023654756
 20
172.4817788046
 30
0.0
 11
86.5023647529
 21
172.4817788046
 31
0.0
  0
LINE
  5
A7
330
1F
100
AcDbEntity
  8
0
  6
Continuous
 62
     7
370
     0
100
AcDbLine
 10
87.5023649168
 20
212.4817797732
 30
0.0
 11
87.5023649168
 21
172.4817788046
 31
0.0
  0
LINE
  5
A8
330
1F
100
AcDbEntity
  8
0
  6
Continuous
 62
     7
370
     0
100
AcDbLine
 10
86.5023647529
 20
213.4817780744
 30
0.0
 11
87.5023649168
 21
212.4817797732
 31
0.0
  0
LINE
  5
A9
330
1F
100
AcDbEntity
  8
0
  6
Continuous
 62
     7
370
     0
100
AcDbLine
 10
87.5023649168
 20
172.4817788046
 30
0.0
 11
86.5023647529
 21
172.4817788046
 31
0.0
  0
CIRCLE
  5
AA
330
1F
100
AcDbEntity
  8
0
  6
Continuous
 62
     7
370
     0
100
AcDbCircle
 10
82.5023650545
 20
176.4817788851
 30
0.0
 40
1.649999999999977
  0
CIRCLE
  5
AB
330
1F
100
AcDbEntity
  8
0
  6
Continuous
 62
     7
370
     0
100
AcDbCircle
 10
84.5023650545
 20
205.9817788851
 30
0.0
 40
1.5
  0
CIRCLE
  5
AC
330
1F
100
AcDbEntity
  8
0
  6
Continuous
 62
     7
370
     0
100
AcDbCircle
 10
74.5023650545
 20
202.4817788851
 30
0.0
 40
1.650000000000006
  0
CIRCLE
  5
AD
330
1F
100
AcDbEntity
  8
0
  6
Continuous
 62
     7
370
     0
100
AcDbCircle
 10
64.5023650545
 20
205.9817788851
 30
0.0
 40
1.5
  0
CIRCLE
  5
AE
330
1F
100
AcDbEntity
  8
0
  6
Continuous
 62
     7
370
     0
100
AcDbCircle
 10
66.5023650545
 20
176.4817788851
 30
0.0
 40
1.649999999999977
  0
LINE
  5
AF
330
1F
100
AcDbEntity
  8
0
  6
Continuous
 62
     7
370
     0
100
AcDbLine
 10
80.0023650844
 20
156.4817780446
 30
0.0
 11
69.002365144
 21
156.4817780446
 31
0.0
  0
LINE
  5
B0
330
1F
100
AcDbEntity
  8
0
  6
Continuous
 62
     7
370
     0
100
AcDbLine
 10
68.5023650621
 20
156.9817790579
 30
0.0
 11
80.5023651664
 21
156.9817790579
 31
0.0
  0
LINE
  5
B1
330
1F
100
AcDbEntity
  8
0
  6
Continuous
 62
     7
370
     0
100
AcDbLine
 10
60.999831101
 20
183.8362997215
 30
0.0
 11
61.5023653117
 21
183.9177378271
 31
0.0
  0
LINE
  5
B2
330
1F
100
AcDbEntity
  8
0
  6
Continuous
 62
     7
370
     0
100
AcDbLine
 10
60.999831101
 20
183.8362997215
 30
0.0
 11
58.6003082898
 21
198.6431319084
 31
0.0
  0
LINE
  5
B3
330
1F
100
AcDbEntity
  8
0
  6
Continuous
 62
     7
370
     0
100
AcDbLine
 10
58.6003082898
 20
198.6431319084
 30
0.0
 11
63.8427984994
 21
243.5794787299
 31
0.0
  0
LINE
  5
B4
330
1F
100
AcDbEntity
  8
0
  6
Continuous
 62
     7
370
     0
100
AcDbLine
 10
64.6174381581
 20
244.1922554564
 30
0.0
 11
63.8427984994
 21
243.5794787299
 31
0.0
  0
LINE
  5
B5
330
1F
100
AcDbEntity
  8
0
  6
Continuous
 62
     7
370
     0
100
AcDbLine
 10
67.8492271435
 20
244.7159828436
 30
0.0
 11
72.1683666669
 21
218.0636839759
 31
0.0
  0
LINE
  5
B6
330
1F
100
AcDbEntity
  8
0
  6
Continuous
 62
     7
370
     0
100
AcDbLine
 10
72.1683666669
 20
218.0636839759
 30
0.0
 11
67.726316778
 21
217.343827505
 31
0.0
  0
ARC
  5
B7
330
1F
100
AcDbEntity
  8
0
  6
Continuous
 62
     7
370
     0
100
AcDbCircle
 10
68.0462531671
 20
215.3695825178
 30
0.0
 40
2.000000000000003
100
AcDbArc
 50
99.2050467096
 51
176.784122601
  0
LINE
  5
B8
330
1F
100
AcDbEntity
  8
0
  6
Continuous
 62
     7
370
     0
100
AcDbLine
 10
64.6174381581
 20
244.1922554564
 30
0.0
 11
67.8492271435
 21
244.7159828436
 31
0.0
  0
ARC
  5
B9
330
1F
100
AcDbEntity
  8
0
  6
Continuous
 62
     7
370
     0
100
AcDbCircle
 10
80.958476942
 20
215.3695825178
 30
0.0
 40
2.000000000000004
100
AcDbArc
 50
3.215877399
 51
80.7949532904
  0
LINE
  5
BA
330
1F
100
AcDbEntity
  8
0
  6
Continuous
 62
     7
370
     0
100
AcDbLine
 10
76.8363634451
 20
218.0636839759
 30
0.0
 11
81.2784129847
 21
217.343827505
 31
0.0
  0
LINE
  5
BB
330
1F
100
AcDbEntity
  8
0
  6
Continuous
 62
     7
370
     0
100
AcDbLine
 10
81.1555030849
 20
244.7159828436
 30
0.0
 11
76.8363634451
 21
218.0636839759
 31
0.0
  0
LINE
  5
BC
330
1F
100
AcDbEntity
  8
0
  6
Continuous
 62
     7
370
     0
100
AcDbLine
 10
86.0911141243
 20
243.9161406647
 30
0.0
 11
81.1555030849
 21
244.7159828436
 31
0.0
  0
LINE
  5
BD
330
1F
100
AcDbEntity
  8
0
  6
Continuous
 62
     7
370
     0
100
AcDbLine
 10
86.918268269
 20
242.7690530013
 30
0.0
 11
86.0911141243
 21
243.9161406647
 31
0.0
  0
LINE
  5
BE
330
1F
100
AcDbEntity
  8
0
  6
Continuous
 62
     7
370
     0
100
AcDbLine
 10
86.918268269
 20
242.7690530013
 30
0.0
 11
85.7984907088
 21
235.8591945659
 31
0.0
  0
LINE
  5
BF
330
1F
100
AcDbEntity
  8
0
  6
Continuous
 62
     7
370
     0
100
AcDbLine
 10
86.9896737021
 20
223.2056947243
 30
0.0
 11
87.1976324451
 21
224.4889529239
 31
0.0
  0
LINE
  5
C0
330
1F
100
AcDbEntity
  8
0
  6
Continuous
 62
     7
370
     0
100
AcDbLine
 10
86.7922491488
 20
223.2376875173
 30
0.0
 11
86.9896737021
 21
223.2056947243
 31
0.0
  0
LINE
  5
C1
330
1F
100
AcDbEntity
  8
0
  6
Continuous
 62
     7
370
     0
100
AcDbLine
 10
86.3447011542
 20
220.4759808075
 30
0.0
 11
86.7922491488
 21
223.2376875173
 31
0.0
  0
ARC
  5
C2
330
1F
100
AcDbEntity
  8
0
  6
Continuous
 62
     7
370
     0
100
AcDbCircle
 10
96.2159227469
 20
218.8763005326
 30
0.0
 40
10.0
100
AcDbArc
 50
170.7949532904
 51
192.3359292089
  0
LINE
  5
C3
330
1F
100
AcDbEntity
  8
0
  6
Continuous
 62
     7
370
     0
100
AcDbLine
 10
90.4044210073
 20
198.6431319084
 30
0.0
 11
87.5023649168
 21
211.913177539
 31
0.0
  0
LINE
  5
C4
330
1F
100
AcDbEntity
  8
0
  6
Continuous
 62
     7
370
     0
100
AcDbLine
 10
87.3432102707
 20
212.6409334879
 30
0.0
 11
86.446804842
 21
216.7398704033
 31
0.0
  0
LINE
  5
C5
330
1F
100
AcDbEntity
  8
0
  6
Continuous
 62
     7
370
     0
100
AcDbLine
 10
88.0048991275
 20
183.8362997215
 30
0.0
 11
90.4044210073
 21
198.6431319084
 31
0.0
  0
LINE
  5
C6
330
1F
100
AcDbEntity
  8
0
  6
Continuous
 62
     7
370
     0
100
AcDbLine
 10
87.5023649168
 20
183.9177378271
 30
0.0
 11
88.0048991275
 21
183.8362997215
 31
0.0
  0
CIRCLE
  5
C7
330
1F
100
AcDbEntity
  8
0
  6
Continuous
 62
     7
370
     0
100
AcDbCircle
 10
84.2799602869
 20
240.8665970173
 30
0.0
 40
0.999999999999976
  0
CIRCLE
  5
C8
330
1F
100
AcDbEntity
  8
0
  6
Continuous
 62
     7
370
     0
100
AcDbCircle
 10
79.8960509583
 20
221.3161152074
 30
0.0
 40
1.500000000000008
  0
LINE
  5
C9
330
1F
100
AcDbEntity
  8
0
  6
Continuous
 62
     7
370
     0
100
AcDbLine
 10
60.999831101
 20
183.8362997215
 30
0.0
 11
61.5023653117
 21
183.4739276957
 31
0.0
  0
LINE
  5
CA
330
1F
100
AcDbEntity
  8
0
  6
Continuous
 62
     7
370
     0
100
AcDbLine
 10
88.0048991275
 20
183.8362997215
 30
0.0
 11
87.5023649168
 21
183.4739276957
 31
0.0
  0
LINE
  5
CB
330
1F
100
AcDbEntity
  8
0
  6
Continuous
 62
     7
370
     0
100
AcDbLine
 10
76.04556371
 20
153.7817770433
 30
0.0
 11
77.1481615119
 21
153.7817770433
 31
0.0
  0
SPLINE
  5
CC
330
1F
100
AcDbEntity
  8
0
  6
Continuous
 62
     7
370
     0
100
AcDbSpline
210
0.0
220
0.0
230
1.0
 70
     8
 71
     3
 72
     8
 73
     4
 74
     0
 42
0.000000001
 43
0.00000001
 40
0.0
 40
0.0
 40
0.0
 40
0.0
 40
1.0
 40
1.0
 40
1.0
 40
1.0
 10
77.14816140985452
 20
153.7817788849418
 30
0.0
 10
77.40671054789689
 20
153.5948223632589
 30
0.0
 10
77.67239111175085
 20
153.4817788849708
 30
0.0
 10
77.948978561749
 20
153.4817788849606
 30
0.0
  0
LINE
  5
CD
330
1F
100
AcDbEntity
  8
0
  6
Continuous
 62
     7
370
     0
100
AcDbLine
 10
74.4676497742
 20
153.4817794155
 30
0.0
 11
77.9489785527
 21
153.4817794155
 31
0.0
  0
SPLINE
  5
CE
330
1F
100
AcDbEntity
  8
0
  6
Continuous
 62
     7
370
     0
100
AcDbSpline
210
0.0
220
0.0
230
1.0
 70
     8
 71
     3
 72
     8
 73
     4
 74
     0
 42
0.000000001
 43
0.00000001
 40
0.0
 40
0.0
 40
0.0
 40
0.0
 40
1.0
 40
1.0
 40
1.0
 40
1.0
 10
74.46764976662921
 20
153.4817788850799
 30
0.0
 10
75.01263209625996
 20
153.4817788850554
 30
0.0
 10
75.53612371725116
 20
153.5948223632546
 30
0.0
 10
76.04556372105202
 20
153.7817788849231
 30
0.0
  0
LINE
  5
CF
330
1F
100
AcDbEntity
  8
0
  6
Continuous
 62
     7
370
     0
100
AcDbLine
 10
76.04556371
 20
153.7817770433
 30
0.0
 11
76.04556371
 21
156.4817780446
 31
0.0
  0
SPLINE
  5
D0
330
1F
100
AcDbEntity
  8
0
  6
Continuous
 62
     7
370
     0
100
AcDbSpline
210
0.0
220
0.0
230
1.0
 70
     8
 71
     3
 72
     8
 73
     4
 74
     0
 42
0.000000001
 43
0.00000001
 40
0.0
 40
0.0
 40
0.0
 40
0.0
 40
1.0
 40
1.0
 40
1.0
 40
1.0
 10
72.88973581224901
 20
153.7817788850392
 30
0.0
 10
73.39917581597535
 20
153.5948223633656
 30
0.0
 10
73.9226674370666
 20
153.4817788851043
 30
0.0
 10
74.46764976662921
 20
153.4817788850799
 30
0.0
  0
LINE
  5
D1
330
1F
100
AcDbEntity
  8
0
  6
Continuous
 62
     7
370
     0
100
AcDbLine
 10
72.8897358385
 20
156.4817780446
 30
0.0
 11
72.8897358385
 21
153.7817770433
 31
0.0
  0
LINE
  5
D2
330
1F
100
AcDbEntity
  8
0
  6
Continuous
 62
     7
370
     0
100
AcDbLine
 10
71.7981331144
 20
153.7817770433
 30
0.0
 11
72.8897358385
 21
153.7817770433
 31
0.0
  0
LINE
  5
D3
330
1F
100
AcDbEntity
  8
0
  6
Continuous
 62
     7
370
     0
100
AcDbLine
 10
71.0210361612
 20
153.4817794155
 30
0.0
 11
74.4676497742
 21
153.4817794155
 31
0.0
  0
SPLINE
  5
D4
330
1F
100
AcDbEntity
  8
0
  6
Continuous
 62
     7
370
     0
100
AcDbSpline
210
0.0
220
0.0
230
1.0
 70
     8
 71
     3
 72
     8
 73
     4
 74
     0
 42
0.000000001
 43
0.00000001
 40
0.0
 40
0.0
 40
0.0
 40
0.0
 40
1.0
 40
1.0
 40
1.0
 40
1.0
 10
71.02103625946044
 20
153.4817788849757
 30
0.0
 10
71.28943113907157
 20
153.4817788849362
 30
0.0
 10
71.5472421963835
 20
153.5948223631502
 30
0.0
 10
71.7981330621137
 20
153.7817788848255
 30
0.0
  0
LINE
  5
D5
330
1F
100
AcDbEntity
  8
0
  6
Continuous
 62
     7
370
     0
100
AcDbLine
 10
77.1481615119
 20
156.4817780446
 30
0.0
 11
77.1481615119
 21
153.7817770433
 31
0.0
  0
LINE
  5
D6
330
1F
100
AcDbEntity
  8
0
  6
Continuous
 62
     7
370
     0
100
AcDbLine
 10
71.7981331144
 20
153.7817770433
 30
0.0
 11
71.7981331144
 21
156.4817780446
 31
0.0
  0
LINE
  5
D7
330
1F
100
AcDbEntity
  8
0
  6
Continuous
 62
     7
370
     0
100
AcDbLine
 10
78.7497958262
 20
153.7817770433
 30
0.0
 11
78.7497958262
 21
156.4817780446
 31
0.0
  0
SPLINE
  5
D8
330
1F
100
AcDbEntity
  8
0
  6
Continuous
 62
     7
370
     0
100
AcDbSpline
210
0.0
220
0.0
230
1.0
 70
     8
 71
     3
 72
     8
 73
     4
 74
     0
 42
0.000000001
 43
0.00000001
 40
0.0
 40
0.0
 40
0.0
 40
0.0
 40
1.0
 40
1.0
 40
1.0
 40
1.0
 10
77.94897856172035
 20
153.4817788849757
 30
0.0
 10
78.22556601167226
 20
153.4817788849663
 30
0.0
 10
78.49124657536964
 20
153.5948223631046
 30
0.0
 10
78.74979571338217
 20
153.7817788846977
 30
0.0
  0
SPLINE
  5
D9
330
1F
100
AcDbEntity
  8
0
  6
Continuous
 62
     7
370
     0
100
AcDbSpline
210
0.0
220
0.0
230
1.0
 70
     8
 71
     3
 72
     8
 73
     4
 74
     0
 42
0.000000001
 43
0.00000001
 40
0.0
 40
0.0
 40
0.0
 40
0.0
 40
1.0
 40
1.0
 40
1.0
 40
1.0
 10
70.24393945704466
 20
153.7817788848138
 30
0.0
 10
70.49483032270243
 20
153.5948223631957
 30
0.0
 10
70.75264137989303
 20
153.4817788850008
 30
0.0
 10
71.02103625942595
 20
153.4817788849605
 30
0.0
  0
LINE
  5
DA
330
1F
100
AcDbEntity
  8
0
  6
Continuous
 62
     7
370
     0
100
AcDbLine
 10
70.2439396736
 20
156.4817780446
 30
0.0
 11
70.2439396736
 21
153.7817770433
 31
0.0
  0
LINE
  5
DB
330
1F
100
AcDbEntity
  8
0
  6
Continuous
 62
     7
370
     0
100
AcDbLine
 10
78.7497958262
 20
153.7817770433
 30
0.0
 11
78.8023650274
 21
153.7817770433
 31
0.0
  0
LINE
  5
DC
330
1F
100
AcDbEntity
  8
0
  6
Continuous
 62
     7
370
     0
100
AcDbLine
 10
77.9489785527
 20
153.4817794155
 30
0.0
 11
78.5023650714
 21
153.4817794155
 31
0.0
  0
LINE
  5
DD
330
1F
100
AcDbEntity
  8
0
  6
Continuous
 62
     7
370
     0
100
AcDbLine
 10
70.2023649682
 20
153.7817770433
 30
0.0
 11
70.2439396736
 21
153.7817770433
 31
0.0
  0
LINE
  5
DE
330
1F
100
AcDbEntity
  8
0
  6
Continuous
 62
     7
370
     0
100
AcDbLine
 10
70.5023649242
 20
153.4817794155
 30
0.0
 11
71.0210361612
 21
153.4817794155
 31
0.0
  0
LINE
  5
DF
330
1F
100
AcDbEntity
  8
0
  6
Continuous
 62
     7
370
     0
100
AcDbLine
 10
74.4867431676
 20
148.4817804586
 30
0.0
 11
76.3023650833
 21
148.4817804586
 31
0.0
  0
LINE
  5
E0
330
1F
100
AcDbEntity
  8
0
  6
Continuous
 62
     7
370
     0
100
AcDbLine
 10
72.7023651451
 20
148.4817804586
 30
0.0
 11
74.4867431676
 21
148.4817804586
 31
0.0
  0
LINE
  5
E1
330
1F
100
AcDbEntity
  8
0
  6
Continuous
 62
     7
370
     0
100
AcDbLine
 10
72.7023651451
 20
148.9817777466
 30
0.0
 11
76.3022972132
 21
148.9817777466
 31
0.0
  0
LINE
  5
E2
330
1F
100
AcDbEntity
  8
0
  6
Continuous
 62
     7
370
     0
100
AcDbLine
 10
74.4867431676
 20
150.9817780744
 30
0.0
 11
76.3023650833
 21
150.9817780744
 31
0.0
  0
LINE
  5
E3
330
1F
100
AcDbEntity
  8
0
  6
Continuous
 62
     7
370
     0
100
AcDbLine
 10
72.7023651451
 20
150.9817780744
 30
0.0
 11
74.4867431676
 21
150.9817780744
 31
0.0
  0
LINE
  5
E4
330
1F
100
AcDbEntity
  8
0
  6
Continuous
 62
     7
370
     0
100
AcDbLine
 10
72.7023651451
 20
151.4817790877
 30
0.0
 11
76.3022972132
 21
151.4817790877
 31
0.0
  0
LINE
  5
E5
330
1F
100
AcDbEntity
  8
0
  6
Continuous
 62
     7
370
     0
100
AcDbLine
 10
74.4893467962
 20
146.4817801308
 30
0.0
 11
76.0023650691
 21
146.4817801308
 31
0.0
  0
LINE
  5
E6
330
1F
100
AcDbEntity
  8
0
  6
Continuous
 62
     7
370
     0
100
AcDbLine
 10
73.0023651012
 20
146.4817801308
 30
0.0
 11
74.4893467962
 21
146.4817801308
 31
0.0
  0
LINE
  5
E7
330
1F
100
AcDbEntity
  8
0
  6
Continuous
 62
     7
370
     0
100
AcDbLine
 10
88.7598571461
 20
235.3792914938
 30
0.0
 11
89.7196660843
 21
241.3020262312
 31
0.0
  0
LINE
  5
E8
330
1F
100
AcDbEntity
  8
0
  6
Continuous
 62
     7
370
     0
100
AcDbLine
 10
89.7196660843
 20
241.3020262312
 30
0.0
 11
90.706788851
 21
241.1420548152
 31
0.0
  0
LINE
  5
E9
330
1F
100
AcDbEntity
  8
0
  6
Continuous
 62
     7
370
     0
100
AcDbLine
 10
86.680271579
 20
222.5467020463
 30
0.0
 11
86.7762527522
 21
223.1389785003
 31
0.0
  0
LINE
  5
EA
330
1F
100
AcDbEntity
  8
0
  6
Continuous
 62
     7
370
     0
100
AcDbLine
 10
87.0723891166
 20
223.0909855854
 30
0.0
 11
86.7762527522
 21
223.1389785003
 31
0.0
  0
LINE
  5
EB
330
1F
100
AcDbEntity
  8
0
  6
Continuous
 62
     7
370
     0
100
AcDbLine
 10
87.0723891166
 20
223.0909855854
 30
0.0
 11
87.2963451874
 21
224.4729565274
 31
0.0
  0
LINE
  5
EC
330
1F
100
AcDbEntity
  8
0
  6
Continuous
 62
     7
370
     0
100
AcDbLine
 10
92.1094435361
 20
221.6668778848
 30
0.0
 11
92.4293807801
 21
223.6411215555
 31
0.0
  0
LINE
  5
ED
330
1F
100
AcDbEntity
  8
0
  6
Continuous
 62
     7
370
     0
100
AcDbLine
 10
86.680271579
 20
222.5467020463
 30
0.0
 11
92.1094435361
 21
221.6668778848
 31
0.0
  0
LINE
  5
EE
330
1F
100
AcDbEntity
  8
0
  6
Continuous
 62
     7
370
     0
100
AcDbLine
 10
91.9494758454
 20
220.6797579121
 30
0.0
 11
89.2348894012
 21
221.1196699929
 31
0.0
  0
LINE
  5
EF
330
1F
100
AcDbEntity
  8
0
  6
Continuous
 62
     7
370
     0
100
AcDbLine
 10
89.2348894012
 20
221.1196699929
 30
0.0
 11
89.3948580232
 21
222.1067899656
 31
0.0
  0
LINE
  5
F0
330
1F
100
AcDbEntity
  8
0
  6
Continuous
 62
     7
370
     0
100
AcDbLine
 10
91.9494758454
 20
220.6797579121
 30
0.0
 11
92.1094435361
 21
221.6668778848
 31
0.0
  0
LWPOLYLINE
  5
F1
330
1F
100
AcDbEntity
  8
0
  6
Continuous
 62
     7
370
     0
100
AcDbPolyline
 90
        8
 70
   128
 43
0.0
 10
89.2348894012
 20
221.1196699929
 10
88.7624220085
 20
221.1962358844
 10
88.3174127993
 20
221.268350054
 10
87.9257236701
 20
221.3318252754
 10
87.6101180073
 20
221.3829697859
 10
87.3889391404
 20
221.4188145291
 10
87.2750402522
 20
221.4372733425
 10
87.2606457305
 20
221.4396053743
  0
LWPOLYLINE
  5
F2
330
1F
100
AcDbEntity
  8
0
  6
Continuous
 62
     7
370
     0
100
AcDbPolyline
 90
       14
 70
   128
 43
0.0
 10
90.3462804016
 20
218.9134711217
 10
90.3329494503
 20
218.9156317901
 10
90.2277826425
 20
218.9326731306
 10
90.0252497849
 20
218.9654948007
 10
89.7403712478
 20
219.0116604608
 10
89.3942759466
 20
219.0677484315
 10
89.0126302001
 20
219.129595701
 10
88.6237415579
 20
219.192616437
 10
88.2564502862
 20
219.2521391254
 10
87.937996639
 20
219.3037455719
 10
87.6919998881
 20
219.3436099034
 10
87.5367037114
 20
219.368776102
 10
87.4836267066
 20
219.3773777973
 10
87.4836267066
 20
219.3773777973
  0
SPLINE
  5
F3
330
1F
100
AcDbEntity
  8
0
  6
Continuous
 62
     7
370
     0
100
AcDbSpline
210
0.0
220
0.0
230
1.0
 70
     8
 71
     3
 72
    14
 73
    10
 74
     0
 42
0.000000001
 43
0.00000001
 40
0.0
 40
0.0
 40
0.0
 40
0.0
 40
0.1249999999999984
 40
0.1249999999999984
 40
0.2499999999999967
 40
0.2499999999999967
 40
0.4999999999999954
 40
0.4999999999999954
 40
1.0
 40
1.0
 40
1.0
 40
1.0
 10
84.69630147396113
 20
241.7758054730415
 30
0.0
 10
84.6741137699445
 20
241.7859655798577
 30
0.0
 10
84.65411042273736
 20
241.7888178708829
 30
0.0
 10
84.6238666398069
 20
241.7898544770719
 30
0.0
 10
84.6120194244993
 20
241.7882173286209
 30
0.0
 10
84.58047128989092
 20
241.7812501699609
 30
0.0
 10
84.56488096246831
 20
241.773536026272
 30
0.0
 10
84.52574511466592
 20
241.747979574734
 30
0.0
 10
84.50956009749233
 20
241.727034571993
 30
0.0
 10
84.49871978005086
 20
241.7045375188798
 30
0.0
  0
SPLINE
  5
F4
330
1F
100
AcDbEntity
  8
0
  6
Continuous
 62
     7
370
     0
100
AcDbSpline
210
0.0
220
0.0
230
1.0
 70
     8
 71
     3
 72
    14
 73
    10
 74
     0
 42
0.000000001
 43
0.00000001
 40
0.0
 40
0.0
 40
0.0
 40
0.0
 40
0.5000000000000036
 40
0.5000000000000036
 40
0.750000000000002
 40
0.750000000000002
 40
0.875000000000001
 40
0.875000000000001
 40
1.0
 40
1.0
 40
1.0
 40
1.0
 10
84.06120079375468
 20
241.7045375188798
 30
0.0
 10
84.05035473720356
 20
241.7270464824426
 30
0.0
 10
84.03416467131449
 20
241.748053770667
 30
0.0
 10
83.99470581586786
 20
241.7737199903659
 30
0.0
 10
83.97911006157813
 20
241.7813841280492
 30
0.0
 10
83.94747814367975
 20
241.7882803866389
 30
0.0
 10
83.935525410642
 20
241.7898782042135
 30
0.0
 10
83.90549242132396
 20
241.7887639426245
 30
0.0
 10
83.88551712646921
 20
241.7858329319171
 30
0.0
 10
83.86361909984443
 20
241.7758054730415
 30
0.0
  0
ARC
  5
F5
330
1F
100
AcDbEntity
  8
0
  6
Continuous
 62
     7
370
     0
100
AcDbCircle
 10
84.2799602869
 20
240.8665970173
 30
0.0
 40
0.8660254037844181
100
AcDbArc
 50
104.6315212283
 51
75.3684787717
  0
ARC
  5
F6
330
1F
100
AcDbEntity
  8
0
  6
Continuous
 62
     7
370
     0
100
AcDbCircle
 10
83.9514582449
 20
241.5408272513
 30
0.0
 40
0.1499999999999984
100
AcDbArc
 50
295.9765162648
 51
14.439557232
  0
ARC
  5
F7
330
1F
100
AcDbEntity
  8
0
  6
Continuous
 62
     7
370
     0
100
AcDbCircle
 10
84.2799602869
 20
240.8665970173
 30
0.0
 40
0.5999999999999931
100
AcDbArc
 50
115.9765162648
 51
64.0234837352
  0
LINE
  5
F8
330
1F
100
AcDbEntity
  8
0
  6
Continuous
 62
     7
370
     0
100
AcDbLine
 10
84.4632004481
 20
241.5782304298
 30
0.0
 11
84.4885883015
 21
241.6768276882
 31
0.0
  0
LINE
  5
F9
330
1F
100
AcDbEntity
  8
0
  6
Continuous
 62
     7
370
     0
100
AcDbLine
 10
84.0713315737
 20
241.6768276882
 30
0.0
 11
84.0967203584
 21
241.5782304298
 31
0.0
  0
ARC
  5
FA
330
1F
100
AcDbEntity
  8
0
  6
Continuous
 62
     7
370
     0
100
AcDbCircle
 10
84.6084623289
 20
241.5408272513
 30
0.0
 40
0.1500000000000047
100
AcDbArc
 50
165.560442768
 51
244.0234837352
  0
ARC
  5
FB
330
1F
100
AcDbEntity
  8
0
  6
Continuous
 62
     7
370
     0
100
AcDbCircle
 10
83.9260702779
 20
241.6394242047
 30
0.0
 40
0.1499999999999958
100
AcDbArc
 50
14.439557232
 51
25.7273245114
  0
ARC
  5
FC
330
1F
100
AcDbEntity
  8
0
  6
Continuous
 62
     7
370
     0
100
AcDbCircle
 10
84.6338502959
 20
241.6394242047
 30
0.0
 40
0.1499999999999958
100
AcDbArc
 50
154.2726754886
 51
165.560442768
  0
SPLINE
  5
FD
330
1F
100
AcDbEntity
  8
0
  6
Continuous
 62
     7
370
     0
100
AcDbSpline
210
0.0
220
0.0
230
1.0
 70
     8
 71
     3
 72
    14
 73
    10
 74
     0
 42
0.000000001
 43
0.00000001
 40
0.0
 40
0.0
 40
0.0
 40
0.0
 40
0.124999999999998
 40
0.124999999999998
 40
0.249999999999996
 40
0.249999999999996
 40
0.4999999999999962
 40
0.4999999999999962
 40
1.0
 40
1.0
 40
1.0
 40
1.0
 10
80.5124916591006
 20
222.6835949558809
 30
0.0
 10
80.48973529667747
 20
222.6938532050544
 30
0.0
 10
80.46803448946976
 20
222.6984156325538
 30
0.0
 10
80.4340096396461
 20
222.70196010941
 30
0.0
 10
80.41997955386891
 20
222.70138285698
 30
0.0
 10
80.3829983445545
 20
222.697168166561
 30
0.0
 10
80.36417170832176
 20
222.6908624739329
 30
0.0
 10
80.31524979986962
 20
222.6687306213904
 30
0.0
 10
80.29313264402488
 20
222.6493468119062
 30
0.0
 10
80.27581812781858
 20
222.6282898531066
 30
0.0
  0
ARC
  5
FE
330
1F
100
AcDbEntity
  8
0
  6
Continuous
 62
     7
370
     0
100
AcDbCircle
 10
79.8960509583
 20
221.3161152074
 30
0.0
 40
1.366025403784467
100
AcDbArc
 50
106.1414033176
 51
73.8585966824
  0
SPLINE
  5
FF
330
1F
100
AcDbEntity
  8
0
  6
Continuous
 62
     7
370
     0
100
AcDbSpline
210
0.0
220
0.0
230
1.0
 70
     8
 71
     3
 72
    14
 73
    10
 74
     0
 42
0.000000001
 43
0.00000001
 40
0.0
 40
0.0
 40
0.0
 40
0.0
 40
0.4999999999999951
 40
0.4999999999999951
 40
0.7499999999999953
 40
0.7499999999999953
 40
0.8749999999999977
 40
0.8749999999999977
 40
1.0
 40
1.0
 40
1.0
 40
1.0
 10
79.51628378882874
 20
222.6282898531065
 30
0.0
 10
79.49897666409892
 20
222.6493378228005
 30
0.0
 10
79.47686984216395
 20
222.6686647949456
 30
0.0
 10
79.42832454532125
 20
222.6907126245797
 30
0.0
 10
79.40957032888855
 20
222.6970886153084
 30
0.0
 10
79.37219891635957
 20
222.7013871469059
 30
0.0
 10
79.35822156913983
 20
222.7019524012316
 30
0.0
 10
79.3244279525601
 20
222.6984740618242
 30
0.0
 10
79.30251334932237
 20
222.6939193485896
 30
0.0
 10
79.27961025754674
 20
222.6835949558809
 30
0.0
  0
ARC
  5
100
330
1F
100
AcDbEntity
  8
0
  6
Continuous
 62
     7
370
     0
100
AcDbCircle
 10
79.4157247276
 20
222.3057043707
 30
0.0
 40
0.2000000000000004
100
AcDbArc
 50
295.8909827371
 51
15.4153010407
  0
ARC
  5
101
330
1F
100
AcDbEntity
  8
0
  6
Continuous
 62
     7
370
     0
100
AcDbCircle
 10
79.8960509583
 20
221.3161152074
 30
0.0
 40
0.9000000000000169
100
AcDbArc
 50
115.8909827371
 51
64.1090172629
  0
LINE
  5
102
330
1F
100
AcDbEntity
  8
0
  6
Continuous
 62
     7
370
     0
100
AcDbLine
 10
80.1835725178
 20
222.3588654589
 30
0.0
 11
80.2374946979
 21
222.5544282984
 31
0.0
  0
LINE
  5
103
330
1F
100
AcDbEntity
  8
0
  6
Continuous
 62
     7
370
     0
100
AcDbLine
 10
79.5546070766
 20
222.5544282984
 30
0.0
 11
79.6085297224
 21
222.3588654589
 31
0.0
  0
ARC
  5
104
330
1F
100
AcDbEntity
  8
0
  6
Continuous
 62
     7
370
     0
100
AcDbCircle
 10
80.376377189
 20
222.3057043707
 30
0.0
 40
0.2000000000000322
100
AcDbArc
 50
164.5846989593
 51
244.1090172629
  0
ARC
  5
105
330
1F
100
AcDbEntity
  8
0
  6
Continuous
 62
     7
370
     0
100
AcDbCircle
 10
80.4302995657
 20
222.5012643228
 30
0.0
 40
0.2000000000000124
100
AcDbArc
 50
140.5705471975
 51
164.5846989593
  0
ARC
  5
106
330
1F
100
AcDbEntity
  8
0
  6
Continuous
 62
     7
370
     0
100
AcDbCircle
 10
79.361802351
 20
222.5012643228
 30
0.0
 40
0.2000000000000059
100
AcDbArc
 50
15.4153010407
 51
39.4294528025
  0
LINE
  5
107
330
1F
100
AcDbEntity
  8
0
  6
Continuous
 62
     7
370
     0
100
AcDbLine
 10
85.7984907088
 20
235.8591945659
 30
0.0
 11
84.0778554883
 21
234.6184642803
 31
0.0
  0
ARC
  5
108
330
1F
100
AcDbEntity
  8
0
  6
Continuous
 62
     7
370
     0
100
AcDbCircle
 10
88.9198257315
 20
236.3664138371
 30
0.0
 40
1.000000000000032
100
AcDbArc
 50
260.7949532904
 51
350.7949532904
  0
LINE
  5
109
330
1F
100
AcDbEntity
  8
0
  6
Continuous
 62
     7
370
     0
100
AcDbLine
 10
89.9069476035
 20
236.2064475011
 30
0.0
 11
90.866757473
 21
242.1291785132
 31
0.0
  0
LINE
  5
10A
330
1F
100
AcDbEntity
  8
0
  6
Continuous
 62
     7
370
     0
100
AcDbLine
 10
92.9229407665
 20
223.5611395728
 30
0.0
 11
84.0388414544
 21
225.0008525144
 31
0.0
  0
LINE
  5
10B
330
1F
100
AcDbEntity
  8
0
  6
Continuous
 62
     7
370
     0
100
AcDbLine
 10
82.7981107031
 20
226.7214858722
 30
0.0
 11
84.0388414544
 21
225.0008525144
 31
0.0
  0
LINE
  5
10C
330
1F
100
AcDbEntity
  8
0
  6
Continuous
 62
     7
370
     0
100
AcDbLine
 10
82.7981107031
 20
226.7214858722
 30
0.0
 11
84.0778554883
 21
234.6184642803
 31
0.0
  0
CIRCLE
  5
10D
330
1F
100
AcDbEntity
  8
0
  6
Continuous
 62
     7
370
     0
100
AcDbCircle
 10
90.9213834532
 20
229.9637763581
 30
0.0
 40
1.49999999999999
  0
LINE
  5
10E
330
1F
100
AcDbEntity
  8
0
  6
Continuous
 62
     7
370
     0
100
AcDbLine
 10
85.7984907088
 20
235.8591945659
 30
0.0
 11
88.7598571461
 21
235.3792914938
 31
0.0
  0
LINE
  5
10F
330
1F
100
AcDbEntity
  8
0
  6
Continuous
 62
     7
370
     0
100
AcDbLine
 10
95.8023685124
 20
241.3293363344
 30
0.0
 11
90.866757473
 21
242.1291785132
 31
0.0
  0
LINE
  5
110
330
1F
100
AcDbEntity
  8
0
  6
Continuous
 62
     7
370
     0
100
AcDbLine
 10
92.9229407665
 20
223.5611395728
 30
0.0
 11
95.8023685124
 21
241.3293363344
 31
0.0
  0
LINE
  5
111
330
1F
100
AcDbEntity
  8
0
  6
Continuous
 62
     7
370
     0
100
AcDbLine
 10
90.9467413184
 20
242.6227384996
 30
0.0
 11
90.866757473
 21
242.1291785132
 31
0.0
  0
LINE
  5
112
330
1F
100
AcDbEntity
  8
0
  6
Continuous
 62
     7
370
     0
100
AcDbLine
 10
90.9467413184
 20
242.6227384996
 30
0.0
 11
95.3887905088
 21
241.9028820288
 31
0.0
  0
ARC
  5
113
330
1F
100
AcDbEntity
  8
0
  6
Continuous
 62
     7
370
     0
100
AcDbCircle
 10
95.3088065283
 20
241.4093221625
 30
0.0
 40
0.500000000000002
100
AcDbArc
 50
350.7949532904
 51
80.7949532904
  0
SPLINE
  5
114
330
1F
100
AcDbEntity
  8
0
  6
Continuous
 62
     7
370
     0
100
AcDbSpline
210
0.0
220
0.0
230
1.0
 70
    24
 71
     3
 72
     8
 73
     4
 74
     0
 42
0.000000001
 43
0.00000001
 40
0.0
 40
0.0
 40
0.0
 40
0.0
 40
1.0
 40
1.0
 40
1.0
 40
1.0
 10
85.74216756756618
 20
227.6575849122518
 30
0.0
 10
85.75645743255214
 20
227.6957894349464
 30
0.0
 10
85.77120330494131
 20
227.7352131115801
 30
0.0
 10
85.78701143863572
 20
227.7774767860852
 30
0.0
  0
ARC
  5
115
330
1F
100
AcDbEntity
  8
0
  6
Continuous
 62
     7
370
     0
100
AcDbCircle
 10
85.5858522207
 20
228.2958115901
 30
0.0
 40
0.5560000000000246
100
AcDbArc
 50
291.2106065229
 51
297.7741857596
  0
SPLINE
  5
116
330
1F
100
AcDbEntity
  8
0
  6
Continuous
 62
     7
370
     0
100
AcDbSpline
210
0.0
220
0.0
230
1.0
 70
    24
 71
     3
 72
     8
 73
     4
 74
     0
 42
0.000000001
 43
0.00000001
 40
0.0
 40
0.0
 40
0.0
 40
0.0
 40
1.0
 40
1.0
 40
1.0
 40
1.0
 10
85.96483345082257
 20
227.7590239158626
 30
0.0
 10
85.92662892812787
 20
227.7733137808486
 30
0.0
 10
85.88720525149427
 20
227.7880596532377
 30
0.0
 10
85.84494157698914
 20
227.8038677869322
 30
0.0
  0
ARC
  5
117
330
1F
100
AcDbEntity
  8
0
  6
Continuous
 62
     7
370
     0
100
AcDbCircle
 10
85.5858522207
 20
228.2958115901
 30
0.0
 40
0.657090389499541
100
AcDbArc
 50
283.7620500869
 51
305.2227421956
  0
ARC
  5
118
330
1F
100
AcDbEntity
  8
0
  6
Continuous
 62
     7
370
     0
100
AcDbCircle
 10
85.5858522207
 20
228.2958115901
 30
0.0
 40
0.6570903894995159
100
AcDbArc
 50
13.7620500869
 51
35.2227421956
  0
SPLINE
  5
119
330
1F
100
AcDbEntity
  8
0
  6
Continuous
 62
     7
370
     0
100
AcDbSpline
210
0.0
220
0.0
230
1.0
 70
    24
 71
     3
 72
     8
 73
     4
 74
     0
 42
0.000000001
 43
0.00000001
 40
0.0
 40
0.0
 40
0.0
 40
0.0
 40
1.0
 40
1.0
 40
1.0
 40
1.0
 10
86.22407889858272
 20
228.4521269369321
 30
0.0
 10
86.18587437588802
 20
228.4664168019181
 30
0.0
 10
86.1464506992544
 20
228.4811626743072
 30
0.0
 10
86.1041870247493
 20
228.4969708080016
 30
0.0
  0
ARC
  5
11A
330
1F
100
AcDbEntity
  8
0
  6
Continuous
 62
     7
370
     0
100
AcDbCircle
 10
85.5858522207
 20
228.2958115901
 30
0.0
 40
0.5559999999999824
100
AcDbArc
 50
21.2106065229
 51
27.7741857596
  0
SPLINE
  5
11B
330
1F
100
AcDbEntity
  8
0
  6
Continuous
 62
     7
370
     0
100
AcDbSpline
210
0.0
220
0.0
230
1.0
 70
    24
 71
     3
 72
     8
 73
     4
 74
     0
 42
0.000000001
 43
0.00000001
 40
0.0
 40
0.0
 40
0.0
 40
0.0
 40
1.0
 40
1.0
 40
1.0
 40
1.0
 10
86.12263989497185
 20
228.6747928201885
 30
0.0
 10
86.10835002998589
 20
228.6365882974938
 30
0.0
 10
86.09360415759673
 20
228.5971646208602
 30
0.0
 10
86.07779602390232
 20
228.554900946355
 30
0.0
  0
ARC
  5
11C
330
1F
100
AcDbEntity
  8
0
  6
Continuous
 62
     7
370
     0
100
AcDbCircle
 10
82.9125888342
 20
221.1487699497
 30
0.0
 40
8.837666313979698
100
AcDbArc
 50
67.0928511964
 51
71.8917778274
  0
LWPOLYLINE
  5
11D
330
1F
100
AcDbEntity
  8
0
  6
Continuous
 62
     7
370
     0
100
AcDbPolyline
 90
        9
 70
   128
 43
0.0
 10
85.659448905
 20
229.5487167131
 10
85.6312335563
 20
229.4732833099
 10
85.6028431189
 20
229.3973767947
 10
85.5742897001
 20
229.3210418712
 10
85.5455872696
 20
229.2443046164
 10
85.5167470035
 20
229.1671985578
 10
85.4877838027
 20
229.0897646736
 10
85.4587097746
 20
229.0120327663
 10
85.4295370263
 20
228.9340400886
  0
ARC
  5
11E
330
1F
100
AcDbEntity
  8
0
  6
Continuous
 62
     7
370
     0
100
AcDbCircle
 10
85.5858522207
 20
228.2958115901
 30
0.0
 40
0.6570903894994946
100
AcDbArc
 50
103.7620500869
 51
125.2227421956
  0
ARC
  5
11F
330
1F
100
AcDbEntity
  8
0
  6
Continuous
 62
     7
370
     0
100
AcDbCircle
 10
92.7329948575
 20
225.6225126763
 30
0.0
 40
8.837774049344167
100
AcDbArc
 50
157.0929041973
 51
161.8917588562
  0
LWPOLYLINE
  5
120
330
1F
100
AcDbEntity
  8
0
  6
Continuous
 62
     7
370
     0
100
AcDbPolyline
 90
        9
 70
   128
 43
0.0
 10
84.3329466042
 20
228.3694090139
 10
84.4083818701
 20
228.3411936652
 10
84.4842855912
 20
228.3128032278
 10
84.5606233087
 20
228.2842488777
 10
84.6373614949
 20
228.2555455159
 10
84.7144647595
 20
228.2267080437
 10
84.791899575
 20
228.1977439117
 10
84.8696314823
 20
228.1686680209
 10
84.9476250914
 20
228.1394952726
  0
ARC
  5
121
330
1F
100
AcDbEntity
  8
0
  6
Continuous
 62
     7
370
     0
100
AcDbCircle
 10
85.5858522207
 20
228.2958115901
 30
0.0
 40
0.6570903894995227
100
AcDbArc
 50
193.7620500869
 51
215.2227421956
  0
LWPOLYLINE
  5
122
330
1F
100
AcDbEntity
  8
0
  6
Continuous
 62
     7
370
     0
100
AcDbPolyline
 90
        9
 70
   128
 43
0.0
 10
85.0490647462
 20
227.9168309461
 10
85.0198919979
 20
227.8388382685
 10
84.9908179697
 20
227.7611063611
 10
84.9618538377
 20
227.6836687517
 10
84.9330145028
 20
227.6065664183
 10
84.9043120724
 20
227.5298291635
 10
84.8757586536
 20
227.4534905147
 10
84.8473682162
 20
227.3775877249
 10
84.8191528675
 20
227.3021505963
  0
ARC
  5
123
330
1F
100
AcDbEntity
  8
0
  6
Continuous
 62
     7
370
     0
100
AcDbCircle
 10
88.2588490453
 20
235.4422471674
 30
0.0
 40
8.837006392554366
100
AcDbArc
 50
247.0929238673
 51
251.8921949478
  0
LWPOLYLINE
  5
124
330
1F
100
AcDbEntity
  8
0
  6
Continuous
 62
     7
370
     0
100
AcDbPolyline
 90
        9
 70
   128
 43
0.0
 10
85.9648333025
 20
227.7590239238
 10
86.0428269115
 20
227.7298511755
 10
86.1205588189
 20
227.7007752847
 10
86.1979945656
 20
227.6718148779
 10
86.2750978303
 20
227.6429736804
 10
86.3518360165
 20
227.6142703187
 10
86.4281737339
 20
227.5857196938
 10
86.5040774551
 20
227.5573292565
 10
86.579512721
 20
227.5291101825
  0
ARC
  5
125
330
1F
100
AcDbEntity
  8
0
  6
Continuous
 62
     7
370
     0
100
AcDbCircle
 10
78.439153478
 20
230.968916109
 30
0.0
 40
8.837291067831229
100
AcDbArc
 50
337.0929313111
 51
341.8920689182
  0
LWPOLYLINE
  5
126
330
1F
100
AcDbEntity
  8
0
  6
Continuous
 62
     7
370
     0
100
AcDbPolyline
 90
        9
 70
   128
 43
0.0
 10
86.8387575355
 20
228.2222153436
 10
86.7633222696
 20
228.2504306924
 10
86.6874185484
 20
228.2788211297
 10
86.611080831
 20
228.3073754799
 10
86.5343435761
 20
228.3360751163
 10
86.4572393802
 20
228.3649163138
 10
86.3798045647
 20
228.3938804459
 10
86.3020726573
 20
228.4229526114
 10
86.2240790483
 20
228.4521253597
  0
CIRCLE
  5
127
330
1F
100
AcDbEntity
  8
0
  6
Continuous
 62
     7
370
     0
100
AcDbCircle
 10
85.5858522207
 20
228.2958115901
 30
0.0
 40
2.404255319148926
  0
LWPOLYLINE
  5
128
330
1F
100
AcDbEntity
  8
0
  6
Continuous
 62
     7
370
     0
100
AcDbPolyline
 90
        9
 70
   128
 43
0.0
 10
85.5122552347
 20
227.0429076444
 10
85.5404715147
 20
227.1183410477
 10
85.5688619521
 20
227.1942438375
 10
85.5974144396
 20
227.2705824863
 10
85.6261178014
 20
227.3473197412
 10
85.6549571362
 20
227.4244257998
 10
85.6839203369
 20
227.5018596839
 10
85.7129952964
 20
227.5795915913
 10
85.7421671134
 20
227.657584269
  0
LWPOLYLINE
  5
129
330
1F
100
AcDbEntity
  8
0
  6
Continuous
 62
     7
370
     0
100
AcDbPolyline
 90
        9
 70
   128
 43
0.0
 10
85.2068708372
 20
228.8326004338
 10
85.1288772282
 20
228.8617731821
 10
85.0511453208
 20
228.8908453476
 10
84.9737105053
 20
228.9198094796
 10
84.8966063094
 20
228.9486506771
 10
84.8198690545
 20
228.9773503136
 10
84.7435313371
 20
229.0059046637
 10
84.6676276159
 20
229.0342951011
 10
84.59219235
 20
229.0625104498
  0
LWPOLYLINE
  5
12A
330
1F
100
AcDbEntity
  8
0
  6
Continuous
 62
     7
370
     0
100
AcDbPolyline
 90
        9
 70
   128
 43
0.0
 10
86.1226403248
 20
228.6747934114
 10
86.1518121418
 20
228.7527860891
 10
86.1808871013
 20
228.8305179965
 10
86.209850302
 20
228.9079518806
 10
86.2386896369
 20
228.9850579392
 10
86.2673929986
 20
229.0617951941
 10
86.2959454861
 20
229.1381338429
 10
86.3243368548
 20
229.2140366327
 10
86.3525522035
 20
229.289470036
  0
SPLINE
  5
12B
330
1F
100
AcDbEntity
  8
0
  6
Continuous
 62
     7
370
     0
100
AcDbSpline
210
0.0
220
0.0
230
1.0
 70
    24
 71
     3
 72
     8
 73
     4
 74
     0
 42
0.000000001
 43
0.00000001
 40
0.0
 40
0.0
 40
0.0
 40
0.0
 40
1.0
 40
1.0
 40
1.0
 40
1.0
 10
85.42953687390238
 20
228.9340382679486
 30
0.0
 10
85.41524700891641
 20
228.8958337452539
 30
0.0
 10
85.40050113652725
 20
228.8564100686203
 30
0.0
 10
85.38469300283285
 20
228.8141463941152
 30
0.0
  0
ARC
  5
12C
330
1F
100
AcDbEntity
  8
0
  6
Continuous
 62
     7
370
     0
100
AcDbCircle
 10
85.5858522207
 20
228.2958115901
 30
0.0
 40
0.5559999999999897
100
AcDbArc
 50
111.2106065229
 51
117.7741857596
  0
SPLINE
  5
12D
330
1F
100
AcDbEntity
  8
0
  6
Continuous
 62
     7
370
     0
100
AcDbSpline
210
0.0
220
0.0
230
1.0
 70
    24
 71
     3
 72
     8
 73
     4
 74
     0
 42
0.000000001
 43
0.00000001
 40
0.0
 40
0.0
 40
0.0
 40
0.0
 40
1.0
 40
1.0
 40
1.0
 40
1.0
 10
85.20687099064598
 20
228.8325992643378
 30
0.0
 10
85.24507551334068
 20
228.8183093993518
 30
0.0
 10
85.2844991899743
 20
228.8035635269626
 30
0.0
 10
85.3267628644794
 20
228.7877553932682
 30
0.0
  0
SPLINE
  5
12E
330
1F
100
AcDbEntity
  8
0
  6
Continuous
 62
     7
370
     0
100
AcDbSpline
210
0.0
220
0.0
230
1.0
 70
    24
 71
     3
 72
     8
 73
     4
 74
     0
 42
0.000000001
 43
0.00000001
 40
0.0
 40
0.0
 40
0.0
 40
0.0
 40
1.0
 40
1.0
 40
1.0
 40
1.0
 10
85.04906454649671
 20
227.9168303600119
 30
0.0
 10
85.06335441148266
 20
227.9550348827066
 30
0.0
 10
85.07810028387182
 20
227.9944585593402
 30
0.0
 10
85.09390841756624
 20
228.0367222338453
 30
0.0
  0
SPLINE
  5
12F
330
1F
100
AcDbEntity
  8
0
  6
Continuous
 62
     7
370
     0
100
AcDbSpline
210
0.0
220
0.0
230
1.0
 70
    24
 71
     3
 72
     8
 73
     4
 74
     0
 42
0.000000001
 43
0.00000001
 40
0.0
 40
0.0
 40
0.0
 40
0.0
 40
1.0
 40
1.0
 40
1.0
 40
1.0
 10
84.94762554288585
 20
228.1394962432683
 30
0.0
 10
84.98583006558054
 20
228.1252063782823
 30
0.0
 10
85.02525374221415
 20
228.1104605058932
 30
0.0
 10
85.06751741671927
 20
228.0946523721988
 30
0.0
  0
ARC
  5
130
330
1F
100
AcDbEntity
  8
0
  6
Continuous
 62
     7
370
     0
100
AcDbCircle
 10
85.5858522207
 20
228.2958115901
 30
0.0
 40
0.5560000000000089
100
AcDbArc
 50
201.2106065229
 51
207.7741857596
  0
LINE
  5
131
330
1F
100
AcDbEntity
  8
0
  6
Continuous
 62
     7
370
     0
100
AcDbLine
 10
85.7179247868
 20
228.8358973157
 30
0.0
 11
85.4327286687
 21
228.9425710034
 31
0.0
  0
LINE
  5
132
330
1F
100
AcDbEntity
  8
0
  6
Continuous
 62
     7
370
     0
100
AcDbLine
 10
86.1258319673
 20
228.6833243262
 30
0.0
 11
85.8406349179
 21
228.7899980139
 31
0.0
  0
ELLIPSE
  5
133
330
1F
100
AcDbEntity
  8
0
  6
Continuous
 62
     7
370
     0
100
AcDbEllipse
 10
85.6098380203
 20
228.3599385797
 30
0.0
 11
0.171019924449979
 21
0.4572285736297488
 31
0.0
210
0.0
220
0.0
230
1.0
 40
0.9901159119
 41
6.147238359929515
 42
6.419132254429583
  0
LINE
  5
134
330
1F
100
AcDbEntity
  8
0
  6
Continuous
 62
     7
370
     0
100
AcDbLine
 10
86.1259381381
 20
228.1637394618
 30
0.0
 11
86.2326118257
 21
228.4489365112
 31
0.0
  0
LINE
  5
135
330
1F
100
AcDbEntity
  8
0
  6
Continuous
 62
     7
370
     0
100
AcDbLine
 10
85.9733660799
 20
227.75583135
 30
0.0
 11
86.0800397676
 21
228.0410283994
 31
0.0
  0
ELLIPSE
  5
136
330
1F
100
AcDbEntity
  8
0
  6
Continuous
 62
     7
370
     0
100
AcDbEllipse
 10
85.6499792103
 20
228.2718257906
 30
0.0
 11
0.4572285736297345
 21
-0.1710199244500074
 31
0.0
210
0.0
220
0.0
230
1.0
 40
0.9901159119
 41
6.147238359929497
 42
6.419132254429626
  0
LINE
  5
137
330
1F
100
AcDbEntity
  8
0
  6
Continuous
 62
     7
370
     0
100
AcDbLine
 10
85.4537793529
 20
227.7557270419
 30
0.0
 11
85.7389754709
 21
227.6490533542
 31
0.0
  0
LINE
  5
138
330
1F
100
AcDbEntity
  8
0
  6
Continuous
 62
     7
370
     0
100
AcDbLine
 10
85.0458731037
 20
227.9082963061
 30
0.0
 11
85.3310692218
 21
227.8016226184
 31
0.0
  0
ELLIPSE
  5
139
330
1F
100
AcDbEntity
  8
0
  6
Continuous
 62
     7
370
     0
100
AcDbEllipse
 10
85.5618664212
 20
228.2316846005
 30
0.0
 11
0.1710199244500216
 21
0.4572285736297203
 31
0.0
210
0.0
220
0.0
230
1.0
 40
0.9901159119
 41
3.00564570633984
 42
3.277539600839907
  0
LINE
  5
13A
330
1F
100
AcDbEntity
  8
0
  6
Continuous
 62
     7
370
     0
100
AcDbLine
 10
85.0457660016
 20
228.4278848957
 30
0.0
 11
84.9390923139
 21
228.1426878464
 31
0.0
  0
LINE
  5
13B
330
1F
100
AcDbEntity
  8
0
  6
Continuous
 62
     7
370
     0
100
AcDbLine
 10
85.1983380598
 20
228.8357892823
 30
0.0
 11
85.0916643721
 21
228.5505959582
 31
0.0
  0
ELLIPSE
  5
13C
330
1F
100
AcDbEntity
  8
0
  6
Continuous
 62
     7
370
     0
100
AcDbEllipse
 10
85.5217252311
 20
228.3197973896
 30
0.0
 11
0.4572285736297487
 21
-0.1710199244500075
 31
0.0
210
0.0
220
0.0
230
1.0
 40
0.9901159119
 41
3.005645706339793
 42
3.277539600839955
  0
CIRCLE
  5
13D
330
1F
100
AcDbEntity
  8
0
  6
Continuous
 62
     7
370
     0
100
AcDbCircle
 10
85.5858522207
 20
228.2958115901
 30
0.0
 40
2.5
  0
ARC
  5
13E
330
1F
100
AcDbEntity
  8
0
  6
Continuous
 62
     7
370
     0
100
AcDbCircle
 10
85.5858522207
 20
228.2958115901
 30
0.0
 40
0.5559999999999854
100
AcDbArc
 50
62.7262409497
 51
76.2585513328
  0
ARC
  5
13F
330
1F
100
AcDbEntity
  8
0
  6
Continuous
 62
     7
370
     0
100
AcDbCircle
 10
85.5858522207
 20
228.2958115901
 30
0.0
 40
0.5560000000000256
100
AcDbArc
 50
242.7262409497
 51
256.2585513328
  0
ARC
  5
140
330
1F
100
AcDbEntity
  8
0
  6
Continuous
 62
     7
370
     0
100
AcDbCircle
 10
85.5858522207
 20
228.2958115901
 30
0.0
 40
0.5559999999999938
100
AcDbArc
 50
152.7262409497
 51
166.2585513328
  0
ARC
  5
141
330
1F
100
AcDbEntity
  8
0
  6
Continuous
 62
     7
370
     0
100
AcDbCircle
 10
85.5858522207
 20
228.2958115901
 30
0.0
 40
0.5560000000000073
100
AcDbArc
 50
332.7262409497
 51
346.2585513328
  0
ARC
  5
142
330
1F
100
AcDbEntity
  8
0
  6
Continuous
 62
     7
370
     0
100
AcDbCircle
 10
85.5858522207
 20
228.2958115901
 30
0.0
 40
0.5560000000000256
100
AcDbArc
 50
207.7741857596
 51
242.7262409497
  0
ARC
  5
143
330
1F
100
AcDbEntity
  8
0
  6
Continuous
 62
     7
370
     0
100
AcDbCircle
 10
85.5858522207
 20
228.2958115901
 30
0.0
 40
0.5560000000000083
100
AcDbArc
 50
297.7741857596
 51
332.7262409497
  0
ARC
  5
144
330
1F
100
AcDbEntity
  8
0
  6
Continuous
 62
     7
370
     0
100
AcDbCircle
 10
85.5858522207
 20
228.2958115901
 30
0.0
 40
0.5560000000000026
100
AcDbArc
 50
346.2585513328
 51
21.2106065229
  0
ARC
  5
145
330
1F
100
AcDbEntity
  8
0
  6
Continuous
 62
     7
370
     0
100
AcDbCircle
 10
85.5858522207
 20
228.2958115901
 30
0.0
 40
0.5559999999999938
100
AcDbArc
 50
117.7741857596
 51
152.7262409497
  0
ARC
  5
146
330
1F
100
AcDbEntity
  8
0
  6
Continuous
 62
     7
370
     0
100
AcDbCircle
 10
85.5858522207
 20
228.2958115901
 30
0.0
 40
0.5559999999999854
100
AcDbArc
 50
76.2585513328
 51
111.2106065229
  0
ARC
  5
147
330
1F
100
AcDbEntity
  8
0
  6
Continuous
 62
     7
370
     0
100
AcDbCircle
 10
85.5858522207
 20
228.2958115901
 30
0.0
 40
0.5560000000000032
100
AcDbArc
 50
166.2585513328
 51
201.2106065229
  0
ARC
  5
148
330
1F
100
AcDbEntity
  8
0
  6
Continuous
 62
     7
370
     0
100
AcDbCircle
 10
85.5858522207
 20
228.2958115901
 30
0.0
 40
0.5559999999999824
100
AcDbArc
 50
27.7741857596
 51
62.7262409497
  0
ARC
  5
149
330
1F
100
AcDbEntity
  8
0
  6
Continuous
 62
     7
370
     0
100
AcDbCircle
 10
85.5858522207
 20
228.2958115901
 30
0.0
 40
0.5560000000000246
100
AcDbArc
 50
256.2585513328
 51
291.2106065229
  0
CIRCLE
  5
14A
330
1F
100
AcDbEntity
  8
0
  6
Continuous
 62
     7
370
     0
100
AcDbCircle
 10
84.5023650545
 20
205.9817788851
 30
0.0
 40
1.200000000000004
  0
CIRCLE
  5
14B
330
1F
100
AcDbEntity
  8
0
  6
Continuous
 62
     7
370
     0
100
AcDbCircle
 10
64.5023650545
 20
205.9817788851
 30
0.0
 40
1.199999999999996
  0
LINE
  5
14C
330
1F
100
AcDbEntity
  8
0
  6
Continuous
 62
     7
370
     0
100
AcDbLine
 10
77.4035068788
 20
221.8520471644
 30
0.0
 11
77.3989461922
 21
221.5352373015
 31
0.0
  0
LINE
  5
14D
330
1F
100
AcDbEntity
  8
0
  6
Continuous
 62
     7
370
     0
100
AcDbLine
 10
79.825892495
 20
243.4167282473
 30
0.0
 11
77.4035068788
 21
221.8520471644
 31
0.0
  0
ARC
  5
14E
330
1F
100
AcDbEntity
  8
0
  6
Continuous
 62
     7
370
     0
100
AcDbCircle
 10
80.8196423409
 20
243.3050992029
 30
0.0
 40
1.000000000000009
100
AcDbArc
 50
89.1752686587
 51
173.5907663817
  0
LINE
  5
14F
330
1F
100
AcDbEntity
  8
0
  6
Continuous
 62
     7
370
     0
100
AcDbLine
 10
85.7265385893
 20
244.2345673036
 30
0.0
 11
83.9701778349
 21
244.2598508488
 31
0.0
  0
LINE
  5
150
330
1F
100
AcDbEntity
  8
0
  6
Continuous
 62
     7
370
     0
100
AcDbLine
 10
81.0883072299
 20
244.3013356816
 30
0.0
 11
80.8340361436
 21
244.3049939167
 31
0.0
  0
LINE
  5
151
330
1F
100
AcDbEntity
  8
0
  6
Continuous
 62
     7
370
     0
100
AcDbLine
 10
86.7120408547
 20
243.2202750634
 30
0.0
 11
86.2499605027
 21
243.6958530735
 31
0.0
  0
LINE
  5
152
330
1F
100
AcDbEntity
  8
0
  6
Continuous
 62
     7
370
     0
100
AcDbLine
 10
86.025612345
 20
243.9267577421
 30
0.0
 11
85.7265385893
 21
244.2345673036
 31
0.0
  0
LINE
  5
153
330
1F
100
AcDbEntity
  8
0
  6
Continuous
 62
     7
370
     0
100
AcDbLine
 10
86.6443895829
 20
238.5207617473
 30
0.0
 11
86.6848071199
 21
241.3284236383
 31
0.0
  0
LINE
  5
154
330
1F
100
AcDbEntity
  8
0
  6
Continuous
 62
     7
370
     0
100
AcDbLine
 10
86.7097088229
 20
243.0582808148
 30
0.0
 11
86.7120408547
 21
243.2202750634
 31
0.0
  0
ARC
  5
155
330
1F
100
AcDbEntity
  8
0
  6
Continuous
 62
     7
370
     0
100
AcDbCircle
 10
86.1444417823
 20
238.527960318
 30
0.0
 40
0.5000000000000042
100
AcDbArc
 50
270.6318027001
 51
359.1752686587
  0
DIMENSION
  5
156
330
1F
100
AcDbEntity
  8
0
  6
Continuous
 62
     7
370
     0
100
AcDbDimension
  2
_D
 10
96.0408339388
 20
176.4817788851
 30
0.0
 11
96.0408339388
 21
174.4817788851
 31
0.0
 70
   160
  1
<>
 71
     2
 42
-1.0
  3
SLDDIMSTYLE0
100
AcDbAlignedDimension
 13
87.5023650545
 23
172.4817788851
 33
0.0
 14
82.5023650545
 24
176.4817788851
 34
0.0
 50
90.0
100
AcDbRotatedDimension
  0
DIMENSION
  5
163
330
1F
100
AcDbEntity
  8
0
  6
Continuous
 62
     7
370
     0
100
AcDbDimension
  2
_D_1
 10
96.0408339388
 20
202.4817788851
 30
0.0
 11
96.0408339388
 21
189.4817788851
 31
0.0
 70
   160
  1
<>
 71
     2
 42
-1.0
  3
SLDDIMSTYLE1
100
AcDbAlignedDimension
 13
82.5023650545
 23
176.4817788851
 33
0.0
 14
74.5023650545
 24
202.4817788851
 34
0.0
 50
90.0
100
AcDbRotatedDimension
  0
DIMENSION
  5
16E
330
1F
100
AcDbEntity
  8
0
  6
Continuous
 62
     7
370
     0
100
AcDbDimension
  2
_D_2
 10
104.2857162656
 20
216.6817788851
 30
0.0
 11
104.2857162656
 21
194.5817788851
 31
0.0
 70
   160
  1
<>
 71
     2
 42
-1.0
  3
SLDDIMSTYLE1
100
AcDbAlignedDimension
 13
87.5023650545
 23
172.4817788851
 33
0.0
 14
77.5023650545
 24
216.6817788851
 34
0.0
 50
90.0
100
AcDbRotatedDimension
  0
DIMENSION
  5
178
330
1F
100
AcDbEntity
  8
0
  6
Continuous
 62
     7
370
     0
100
AcDbDimension
  2
_D_3
 10
104.2857162656
 20
156.4817788851
 30
0.0
 11
104.2857162656
 21
164.4817788851
 31
0.0
 70
   160
  1
<>
 71
     2
 42
-1.0
  3
SLDDIMSTYLE1
100
AcDbAlignedDimension
 13
87.5023650545
 23
172.4817788851
 33
0.0
 14
80.0023650545
 24
156.4817788851
 34
0.0
 50
90.0
100
AcDbRotatedDimension
  0
DIMENSION
  5
182
330
1F
100
AcDbEntity
  8
0
  6
Continuous
 62
     7
370
     0
100
AcDbDimension
  2
_D_4
 10
68.5023650545
 20
137.7399854684
 30
0.0
 11
74.5023650545
 21
137.7399854684
 31
0.0
 70
   160
  1
%%c<>
 71
     2
 42
-1.0
  3
SLDDIMSTYLE0
100
AcDbAlignedDimension
 13
80.5023650545
 23
156.9817788851
 33
0.0
 14
68.5023650545
 24
156.9817788851
 34
0.0
 50
0.0
100
AcDbRotatedDimension
  0
DIMENSION
  5
18F
330
1F
100
AcDbEntity
  8
0
  6
Continuous
 62
     7
370
     0
100
AcDbDimension
  2
_D_5
 10
82.5023650545
 20
131.6649927135
 30
0.0
 11
74.5023650545
 21
131.6649927135
 31
0.0
 70
   160
  1
<>
 71
     2
 42
-1.0
  3
SLDDIMSTYLE1
100
AcDbAlignedDimension
 13
66.5023650545
 23
176.4817788851
 33
0.0
 14
82.5023650545
 24
176.4817788851
 34
0.0
 50
0.0
100
AcDbRotatedDimension
  0
DIMENSION
  5
199
330
1F
100
AcDbEntity
  8
0
  6
Continuous
 62
     7
370
     0
100
AcDbDimension
  2
_D_6
 10
87.5023650545
 20
124.4817788851
 30
0.0
 11
74.5023650545
 21
124.4817788851
 31
0.0
 70
   160
  1
<>
 71
     2
 42
-1.0
  3
SLDDIMSTYLE1
100
AcDbAlignedDimension
 13
61.5023650545
 23
172.4817788851
 33
0.0
 14
87.5023650545
 24
172.4817788851
 34
0.0
 50
0.0
100
AcDbRotatedDimension
  0
DIMENSION
  5
1A3
330
1F
100
AcDbEntity
  8
0
  6
Continuous
 62
     7
370
     0
100
AcDbDimension
  2
_D_7
 10
67.9165786169
 20
175.0675653227
 30
0.0
 11
40.0333823083
 21
189.1424305091
 31
0.0
 70
   163
  1
3-<>取付穴\P(両側口元面取有)\P
 71
     1
 42
-1.0
  3
SLDDIMSTYLE2
100
AcDbDiametricDimension
 15
65.0881514922
 25
177.8959924475
 35
0.0
 40
0.0
  0
DIMENSION
  5
1AF
330
1F
100
AcDbEntity
  8
0
  6
Continuous
 62
     7
370
     0
100
AcDbDimension
  2
_D_8
 10
111.8088315283
 20
146.4817788851
 30
0.0
 11
111.8088315283
 21
195.598880597
 31
0.0
 70
   160
  1
(<>)
 71
     2
 42
-1.0
  3
SLDDIMSTYLE3
100
AcDbAlignedDimension
 13
81.1555030738
 23
244.715982309
 33
0.0
 14
73.0023650545
 24
146.4817788851
 34
0.0
 50
90.0
100
AcDbRotatedDimension
  0
DIMENSION
  5
1BC
330
1F
100
AcDbEntity
  8
0
  6
Continuous
 62
     7
370
     0
100
AcDbDimension
  2
_D_9
 10
81.1555030738
 20
254.715982309
 30
0.0
 11
74.5023650545
 21
254.715982309
 31
0.0
 70
   160
  1
(<>)
 71
     2
 42
-1.0
  3
SLDDIMSTYLE0
100
AcDbAlignedDimension
 13
67.8492270353
 23
244.715982309
 33
0.0
 14
81.1555030738
 24
244.715982309
 34
0.0
 50
0.0
100
AcDbRotatedDimension
  0
INSERT
  5
1CF
330
1F
100
AcDbEntity
  8
0
  6
Continuous
 62
     7
370
     0
100
AcDbBlockReference
  2
SW_NOTE_0
 10
47.9934689633
 20
163.9019372397
 30
0.0
  0
LEADER
  5
1D1
330
1F
100
AcDbEntity
  8
0
  6
Continuous
 62
     7
370
     0
100
AcDbLeader
  3
SLDDIMSTYLE4
 76
     2
 10
73.6885113027
 20
150.1693953184
 30
0.0
 10
47.9934689633
 20
163.9019372397
 30
0.0
  0
INSERT
  5
1DD
330
1F
100
AcDbEntity
  8
0
  6
Continuous
 62
     7
370
     0
100
AcDbBlockReference
  2
SW_CENTERMARKSYMBOL_0
 10
64.5023650545
 20
205.9817788851
 30
0.0
  0
INSERT
  5
1E9
330
1F
100
AcDbEntity
  8
0
  6
Continuous
 62
     7
370
     0
100
AcDbBlockReference
  2
SW_CENTERMARKSYMBOL_1
 10
74.5023650545
 20
202.4817788851
 30
0.0
  0
INSERT
  5
1F5
330
1F
100
AcDbEntity
  8
0
  6
Continuous
 62
     7
370
     0
100
AcDbBlockReference
  2
SW_CENTERMARKSYMBOL_2
 10
84.5023650545
 20
205.9817788851
 30
0.0
  0
INSERT
  5
201
330
1F
100
AcDbEntity
  8
0
  6
Continuous
 62
     7
370
     0
100
AcDbBlockReference
  2
SW_CENTERMARKSYMBOL_3
 10
82.5023650545
 20
176.4817788851
 30
0.0
  0
INSERT
  5
20D
330
1F
100
AcDbEntity
  8
0
  6
Continuous
 62
     7
370
     0
100
AcDbBlockReference
  2
SW_CENTERMARKSYMBOL_4
 10
66.5023650545
 20
176.4817788851
 30
0.0
  0
CIRCLE
  5
20E
330
1F
100
AcDbEntity
  8
0
  6
Continuous
 62
     7
370
     0
100
AcDbCircle
 10
66.5023650545
 20
176.4817788851
 30
0.0
 40
1.999999752660798
  0
CIRCLE
  5
20F
330
1F
100
AcDbEntity
  8
0
  6
Continuous
 62
     7
370
     0
100
AcDbCircle
 10
82.5023650545
 20
176.4817788851
 30
0.0
 40
1.999999752660798
  0
CIRCLE
  5
210
330
1F
100
AcDbEntity
  8
0
  6
Continuous
 62
     7
370
     0
100
AcDbCircle
 10
74.5023650545
 20
202.4817788851
 30
0.0
 40
2.00000014754157
  0
LINE
  5
211
330
1F
100
AcDbEntity
  8
0
  6
CENTERX2
 62
     7
370
     0
100
AcDbLine
 10
74.5023650545
 20
244.7718794195
 30
0.0
 11
74.5023650545
 21
141.2542131186
 31
0.0
  0
LINE
  5
212
330
1F
100
AcDbEntity
  8
0
  6
Continuous
 62
     7
370
     0
100
AcDbLine
 10
95.8088058141
 20
82.9991044895
 30
0.0
 11
95.8088058141
 21
87.8991045476
 31
0.0
  0
LINE
  5
213
330
1F
100
AcDbEntity
  8
0
  6
Continuous
 62
     7
370
     0
100
AcDbLine
 10
88.0858524796
 20
88.6991045856
 30
0.0
 11
88.0858524796
 21
89.804100194
 31
0.0
  0
ARC
  5
214
330
1F
100
AcDbEntity
  8
0
  6
Continuous
 62
     7
370
     0
100
AcDbCircle
 10
87.8458522207
 20
89.8041003179
 30
0.0
 40
0.2399999999999955
100
AcDbArc
 50
0.0
 51
53.0538731033
  0
ARC
  5
215
330
1F
100
AcDbEntity
  8
0
  6
Continuous
 62
     7
370
     0
100
AcDbCircle
 10
85.5858522207
 20
86.7991044776
 30
0.0
 40
4.000000000000002
100
AcDbArc
 50
53.0538731033
 51
61.3715205959
  0
CIRCLE
  5
216
330
1F
100
AcDbEntity
  8
0
  6
Continuous
 62
     7
370
     0
100
AcDbCircle
 10
74.5023650545
 20
85.1991044776
 30
0.0
 40
5.500000000000014
  0
CIRCLE
  5
217
330
1F
100
AcDbEntity
  8
0
  6
Continuous
 62
     7
370
     0
100
AcDbCircle
 10
74.5023650545
 20
85.1991044776
 30
0.0
 40
6.0
  0
CIRCLE
  5
218
330
1F
100
AcDbEntity
  8
0
  6
Continuous
 62
     7
370
     0
100
AcDbCircle
 10
74.5023650545
 20
85.1991044776
 30
0.0
 40
1.0
  0
LINE
  5
219
330
1F
100
AcDbEntity
  8
0
  6
Continuous
 62
     7
370
     0
100
AcDbLine
 10
86.5023647529
 20
78.6991043435
 30
0.0
 11
87.5023649168
 21
79.6991045074
 31
0.0
  0
LINE
  5
21A
330
1F
100
AcDbEntity
  8
0
  6
Continuous
 62
     7
370
     0
100
AcDbLine
 10
62.5023654756
 20
78.6991043435
 30
0.0
 11
86.5023647529
 21
78.6991043435
 31
0.0
  0
LINE
  5
21B
330
1F
100
AcDbEntity
  8
0
  6
Continuous
 62
     7
370
     0
100
AcDbLine
 10
61.5023653117
 20
79.6991045074
 30
0.0
 11
62.5023654756
 21
78.6991043435
 31
0.0
  0
LINE
  5
21C
330
1F
100
AcDbEntity
  8
0
  6
Continuous
 62
     7
370
     0
100
AcDbLine
 10
61.5023653117
 20
90.6991044478
 30
0.0
 11
61.5023653117
 21
79.6991045074
 31
0.0
  0
LINE
  5
21D
330
1F
100
AcDbEntity
  8
0
  6
Continuous
 62
     7
370
     0
100
AcDbLine
 10
62.5023654756
 20
91.6991046117
 30
0.0
 11
61.5023653117
 21
90.6991044478
 31
0.0
  0
LINE
  5
21E
330
1F
100
AcDbEntity
  8
0
  6
Continuous
 62
     7
370
     0
100
AcDbLine
 10
62.5023654756
 20
91.6991046117
 30
0.0
 11
86.5023647529
 21
91.6991046117
 31
0.0
  0
LINE
  5
21F
330
1F
100
AcDbEntity
  8
0
  6
Continuous
 62
     7
370
     0
100
AcDbLine
 10
87.5023649168
 20
90.6991044478
 30
0.0
 11
86.5023647529
 21
91.6991046117
 31
0.0
  0
LINE
  5
220
330
1F
100
AcDbEntity
  8
0
  6
Continuous
 62
     7
370
     0
100
AcDbLine
 10
87.5023649168
 20
90.6991044478
 30
0.0
 11
87.5023649168
 21
79.6991045074
 31
0.0
  0
LINE
  5
221
330
1F
100
AcDbEntity
  8
0
  6
Continuous
 62
     7
370
     0
100
AcDbLine
 10
61.5023653117
 20
82.1991044515
 30
0.0
 11
60.999831101
 21
82.1991044515
 31
0.0
  0
LINE
  5
222
330
1F
100
AcDbEntity
  8
0
  6
Continuous
 62
     7
370
     0
100
AcDbLine
 10
60.999831101
 20
82.1991044515
 30
0.0
 11
61.5023653117
 21
82.6371990563
 31
0.0
  0
LINE
  5
223
330
1F
100
AcDbEntity
  8
0
  6
Continuous
 62
     7
370
     0
100
AcDbLine
 10
60.999831101
 20
82.1991044515
 30
0.0
 11
60.999831101
 21
88.1991045037
 31
0.0
  0
LINE
  5
224
330
1F
100
AcDbEntity
  8
0
  6
Continuous
 62
     7
370
     0
100
AcDbLine
 10
60.999831101
 20
88.1991045037
 30
0.0
 11
61.5023653117
 21
87.7610098989
 31
0.0
  0
LINE
  5
225
330
1F
100
AcDbEntity
  8
0
  6
Continuous
 62
     7
370
     0
100
AcDbLine
 10
60.999831101
 20
88.1991045037
 30
0.0
 11
61.5023653117
 21
88.1991045037
 31
0.0
  0
LINE
  5
226
330
1F
100
AcDbEntity
  8
0
  6
Continuous
 62
     7
370
     0
100
AcDbLine
 10
88.0048991275
 20
82.1991044515
 30
0.0
 11
87.5023649168
 21
82.6371990563
 31
0.0
  0
LINE
  5
227
330
1F
100
AcDbEntity
  8
0
  6
Continuous
 62
     7
370
     0
100
AcDbLine
 10
88.0048991275
 20
82.1991044515
 30
0.0
 11
87.5023649168
 21
82.1991044515
 31
0.0
  0
LINE
  5
228
330
1F
100
AcDbEntity
  8
0
  6
Continuous
 62
     7
370
     0
100
AcDbLine
 10
87.5023649168
 20
88.1991045037
 30
0.0
 11
88.0048991275
 21
88.1991045037
 31
0.0
  0
LINE
  5
229
330
1F
100
AcDbEntity
  8
0
  6
Continuous
 62
     7
370
     0
100
AcDbLine
 10
88.0048991275
 20
88.1991045037
 30
0.0
 11
87.5023649168
 21
87.7610098989
 31
0.0
  0
LINE
  5
22A
330
1F
100
AcDbEntity
  8
0
  6
Continuous
 62
     7
370
     0
100
AcDbLine
 10
88.0048991275
 20
88.1991045037
 30
0.0
 11
88.0048991275
 21
82.1991044515
 31
0.0
  0
LINE
  5
22B
330
1F
100
AcDbEntity
  8
0
  6
Continuous
 62
     7
370
     0
100
AcDbLine
 10
58.6003082898
 20
82.1991044515
 30
0.0
 11
58.6003082898
 21
88.1991045037
 31
0.0
  0
LINE
  5
22C
330
1F
100
AcDbEntity
  8
0
  6
Continuous
 62
     7
370
     0
100
AcDbLine
 10
60.999831101
 20
88.1991045037
 30
0.0
 11
58.6003082898
 21
88.1991045037
 31
0.0
  0
LINE
  5
22D
330
1F
100
AcDbEntity
  8
0
  6
Continuous
 62
     7
370
     0
100
AcDbLine
 10
60.999831101
 20
82.1991044515
 30
0.0
 11
58.6003082898
 21
82.1991044515
 31
0.0
  0
LINE
  5
22E
330
1F
100
AcDbEntity
  8
0
  6
Continuous
 62
     7
370
     0
100
AcDbLine
 10
90.4044210073
 20
88.1991045037
 30
0.0
 11
90.4044210073
 21
82.1991044515
 31
0.0
  0
LINE
  5
22F
330
1F
100
AcDbEntity
  8
0
  6
Continuous
 62
     7
370
     0
100
AcDbLine
 10
88.0048991275
 20
88.1991045037
 30
0.0
 11
90.4044210073
 21
88.1991045037
 31
0.0
  0
LINE
  5
230
330
1F
100
AcDbEntity
  8
0
  6
Continuous
 62
     7
370
     0
100
AcDbLine
 10
88.0048991275
 20
82.1991044515
 30
0.0
 11
90.4044210073
 21
82.1991044515
 31
0.0
  0
CIRCLE
  5
231
330
1F
100
AcDbEntity
  8
0
  6
Continuous
 62
     7
370
     0
100
AcDbCircle
 10
74.5023650545
 20
85.1991044776
 30
0.0
 40
1.799999999999984
  0
CIRCLE
  5
232
330
1F
100
AcDbEntity
  8
0
  6
Continuous
 62
     7
370
     0
100
AcDbCircle
 10
74.5023650545
 20
85.1991044776
 30
0.0
 40
1.499999999999984
  0
CIRCLE
  5
233
330
1F
100
AcDbEntity
  8
0
  6
Continuous
 62
     7
370
     0
100
AcDbCircle
 10
74.5023650545
 20
85.1991044776
 30
0.0
 40
1.050000000000006
  0
ARC
  5
234
330
1F
100
AcDbEntity
  8
0
  6
Continuous
 62
     7
370
     0
100
AcDbCircle
 10
74.5023650545
 20
85.1991044776
 30
0.0
 40
4.299999999970397
100
AcDbArc
 50
172.0261705189
 51
188.9683617045
  0
SPLINE
  5
235
330
1F
100
AcDbEntity
  8
0
  6
Continuous
 62
     7
370
     0
100
AcDbSpline
210
0.0
220
0.0
230
1.0
 70
    24
 71
     3
 72
     8
 73
     4
 74
     0
 42
0.000000001
 43
0.00000001
 40
0.0
 40
0.0
 40
0.0
 40
0.0
 40
1.0
 40
1.0
 40
1.0
 40
1.0
 10
70.24393945704466
 20
85.79560378878406
 30
0.0
 10
70.49483032270243
 20
86.23900252644476
 30
0.0
 10
70.75264137989303
 20
86.69463129959114
 30
0.0
 10
71.02103625942595
 20
87.16896483288848
 30
0.0
  0
ARC
  5
236
330
1F
100
AcDbEntity
  8
0
  6
Continuous
 62
     7
370
     0
100
AcDbCircle
 10
74.5023650545
 20
85.1991044776
 30
0.0
 40
3.999999999940363
100
AcDbArc
 50
150.4972661119
 51
210.4972661049
  0
SPLINE
  5
237
330
1F
100
AcDbEntity
  8
0
  6
Continuous
 62
     7
370
     0
100
AcDbSpline
210
0.0
220
0.0
230
1.0
 70
    24
 71
     3
 72
     8
 73
     4
 74
     0
 42
0.000000001
 43
0.00000001
 40
0.0
 40
0.0
 40
0.0
 40
0.0
 40
1.0
 40
1.0
 40
1.0
 40
1.0
 10
71.05575154696199
 20
83.16911548058023
 30
0.0
 10
70.77916409701967
 20
83.63871903113396
 30
0.0
 10
70.51348353334058
 20
84.0898043425714
 30
0.0
 10
70.25493439534958
 20
84.52878157461322
 30
0.0
  0
ARC
  5
238
330
1F
100
AcDbEntity
  8
0
  6
Continuous
 62
     7
370
     0
100
AcDbCircle
 10
74.5023650545
 20
85.1991044776
 30
0.0
 40
4.300000000089886
100
AcDbArc
 50
232.0261705205
 51
248.9683617021
  0
ARC
  5
239
330
1F
100
AcDbEntity
  8
0
  6
Continuous
 62
     7
370
     0
100
AcDbCircle
 10
74.5023650545
 20
85.1991044776
 30
0.0
 40
4.00000000000002
100
AcDbArc
 50
210.4972661049
 51
270.497266093
  0
SPLINE
  5
23A
330
1F
100
AcDbEntity
  8
0
  6
Continuous
 62
     7
370
     0
100
AcDbSpline
210
0.0
220
0.0
230
1.0
 70
    24
 71
     3
 72
     8
 73
     4
 74
     0
 42
0.000000001
 43
0.00000001
 40
0.0
 40
0.0
 40
0.0
 40
0.0
 40
1.0
 40
1.0
 40
1.0
 40
1.0
 10
74.53708034146952
 20
81.19925512434199
 30
0.0
 10
73.99209801207701
 20
81.19452514160828
 30
0.0
 10
73.46860639086665
 20
81.18998167992885
 30
0.0
 10
72.95916638731308
 20
81.18556017433
 30
0.0
  0
SPLINE
  5
23B
330
1F
100
AcDbEntity
  8
0
  6
Continuous
 62
     7
370
     0
100
AcDbSpline
210
0.0
220
0.0
230
1.0
 70
    24
 71
     3
 72
     8
 73
     4
 74
     0
 42
0.000000001
 43
0.00000001
 40
0.0
 40
0.0
 40
0.0
 40
0.0
 40
1.0
 40
1.0
 40
1.0
 40
1.0
 10
71.85656869887723
 20
81.80944938588917
 30
0.0
 10
71.59801956081333
 20
82.24842661805475
 30
0.0
 10
71.33233899694108
 20
82.69951192989211
 30
0.0
 10
71.05575154693335
 20
83.16911548055691
 30
0.0
  0
ARC
  5
23C
330
1F
100
AcDbEntity
  8
0
  6
Continuous
 62
     7
370
     0
100
AcDbCircle
 10
74.5023650545
 20
85.1991044776
 30
0.0
 40
4.300000000035592
100
AcDbArc
 50
112.0261705174
 51
128.9683617051
  0
SPLINE
  5
23D
330
1F
100
AcDbEntity
  8
0
  6
Continuous
 62
     7
370
     0
100
AcDbSpline
210
0.0
220
0.0
230
1.0
 70
    24
 71
     3
 72
     8
 73
     4
 74
     0
 42
0.000000001
 43
0.00000001
 40
0.0
 40
0.0
 40
0.0
 40
0.0
 40
1.0
 40
1.0
 40
1.0
 40
1.0
 10
72.88973581224901
 20
89.1852588808593
 30
0.0
 10
73.39917581597535
 20
89.18968038645963
 30
0.0
 10
73.9226674370666
 20
89.19422384813804
 30
0.0
 10
74.46764976662921
 20
89.19895383087321
 30
0.0
  0
ARC
  5
23E
330
1F
100
AcDbEntity
  8
0
  6
Continuous
 62
     7
370
     0
100
AcDbCircle
 10
74.5023650545
 20
85.1991044776
 30
0.0
 40
3.999999999999991
100
AcDbArc
 50
90.4972661158
 51
150.4972661119
  0
SPLINE
  5
23F
330
1F
100
AcDbEntity
  8
0
  6
Continuous
 62
     7
370
     0
100
AcDbSpline
210
0.0
220
0.0
230
1.0
 70
    24
 71
     3
 72
     8
 73
     4
 74
     0
 42
0.000000001
 43
0.00000001
 40
0.0
 40
0.0
 40
0.0
 40
0.0
 40
1.0
 40
1.0
 40
1.0
 40
1.0
 10
71.02103625946044
 20
87.16896483287535
 30
0.0
 10
71.28943113907157
 20
87.64329836631093
 30
0.0
 10
71.5472421963835
 20
88.09892713974584
 30
0.0
 10
71.7981330621137
 20
88.54232587753455
 30
0.0
  0
ARC
  5
240
330
1F
100
AcDbEntity
  8
0
  6
Continuous
 62
     7
370
     0
100
AcDbCircle
 10
74.5023650545
 20
85.1991044776
 30
0.0
 40
4.300000000147962
100
AcDbArc
 50
292.0261705212
 51
308.9683617008
  0
SPLINE
  5
241
330
1F
100
AcDbEntity
  8
0
  6
Continuous
 62
     7
370
     0
100
AcDbSpline
210
0.0
220
0.0
230
1.0
 70
    24
 71
     3
 72
     8
 73
     4
 74
     0
 42
0.000000001
 43
0.00000001
 40
0.0
 40
0.0
 40
0.0
 40
0.0
 40
1.0
 40
1.0
 40
1.0
 40
1.0
 10
76.11499429757215
 20
81.21295007437409
 30
0.0
 10
75.60555429331914
 20
81.2085285687692
 30
0.0
 10
75.08206267162838
 20
81.20398510708235
 30
0.0
 10
74.53708034146952
 20
81.19925512434199
 30
0.0
  0
ARC
  5
242
330
1F
100
AcDbEntity
  8
0
  6
Continuous
 62
     7
370
     0
100
AcDbCircle
 10
74.5023650545
 20
85.1991044776
 30
0.0
 40
4.00000000000002
100
AcDbArc
 50
270.497266093
 51
330.4972661216
  0
SPLINE
  5
243
330
1F
100
AcDbEntity
  8
0
  6
Continuous
 62
     7
370
     0
100
AcDbSpline
210
0.0
220
0.0
230
1.0
 70
    24
 71
     3
 72
     8
 73
     4
 74
     0
 42
0.000000001
 43
0.00000001
 40
0.0
 40
0.0
 40
0.0
 40
0.0
 40
1.0
 40
1.0
 40
1.0
 40
1.0
 10
77.98369384996163
 20
83.22924412287243
 30
0.0
 10
77.71529897012232
 20
82.75491058903356
 30
0.0
 10
77.45748791257043
 20
82.29928181522219
 30
0.0
 10
77.20659704664139
 20
81.85588307708208
 30
0.0
  0
ARC
  5
244
330
1F
100
AcDbEntity
  8
0
  6
Continuous
 62
     7
370
     0
100
AcDbCircle
 10
74.5023650545
 20
85.1991044776
 30
0.0
 40
4.299999999977202
100
AcDbArc
 50
52.0261705205
 51
68.9683617065
  0
SPLINE
  5
245
330
1F
100
AcDbEntity
  8
0
  6
Continuous
 62
     7
370
     0
100
AcDbSpline
210
0.0
220
0.0
230
1.0
 70
    24
 71
     3
 72
     8
 73
     4
 74
     0
 42
0.000000001
 43
0.00000001
 40
0.0
 40
0.0
 40
0.0
 40
0.0
 40
1.0
 40
1.0
 40
1.0
 40
1.0
 10
77.14816140985452
 20
88.58875956995773
 30
0.0
 10
77.40671054789689
 20
88.14978233782871
 30
0.0
 10
77.67239111175085
 20
87.6986970260224
 30
0.0
 10
77.948978561749
 20
87.22909347537389
 30
0.0
  0
ARC
  5
246
330
1F
100
AcDbEntity
  8
0
  6
Continuous
 62
     7
370
     0
100
AcDbCircle
 10
74.5023650545
 20
85.1991044776
 30
0.0
 40
3.999999999999991
100
AcDbArc
 50
30.4972661167
 51
90.4972661158
  0
SPLINE
  5
247
330
1F
100
AcDbEntity
  8
0
  6
Continuous
 62
     7
370
     0
100
AcDbSpline
210
0.0
220
0.0
230
1.0
 70
    24
 71
     3
 72
     8
 73
     4
 74
     0
 42
0.000000001
 43
0.00000001
 40
0.0
 40
0.0
 40
0.0
 40
0.0
 40
1.0
 40
1.0
 40
1.0
 40
1.0
 10
74.46764976662921
 20
89.19895383087321
 30
0.0
 10
75.01263209625996
 20
89.20368381360899
 30
0.0
 10
75.53612371725116
 20
89.20822727528653
 30
0.0
 10
76.04556372105202
 20
89.21264878088752
 30
0.0
  0
ARC
  5
248
330
1F
100
AcDbEntity
  8
0
  6
Continuous
 62
     7
370
     0
100
AcDbCircle
 10
74.5023650545
 20
85.1991044776
 30
0.0
 40
4.299999999970415
100
AcDbArc
 50
352.0261705189
 51
8.9683617089
  0
ARC
  5
249
330
1F
100
AcDbEntity
  8
0
  6
Continuous
 62
     7
370
     0
100
AcDbCircle
 10
74.5023650545
 20
85.1991044776
 30
0.0
 40
3.99999999994035
100
AcDbArc
 50
330.4972661216
 51
30.4972661167
  0
SPLINE
  5
24A
330
1F
100
AcDbEntity
  8
0
  6
Continuous
 62
     7
370
     0
100
AcDbSpline
210
0.0
220
0.0
230
1.0
 70
    24
 71
     3
 72
     8
 73
     4
 74
     0
 42
0.000000001
 43
0.00000001
 40
0.0
 40
0.0
 40
0.0
 40
0.0
 40
1.0
 40
1.0
 40
1.0
 40
1.0
 10
77.94897856172035
 20
87.22909347535057
 30
0.0
 10
78.22556601167226
 20
86.75948992478055
 30
0.0
 10
78.49124657536964
 20
86.30840461331206
 30
0.0
 10
78.74979571338217
 20
85.86942738123368
 30
0.0
  0
SPLINE
  5
24B
330
1F
100
AcDbEntity
  8
0
  6
Continuous
 62
     7
370
     0
100
AcDbSpline
210
0.0
220
0.0
230
1.0
 70
    24
 71
     3
 72
     8
 73
     4
 74
     0
 42
0.000000001
 43
0.00000001
 40
0.0
 40
0.0
 40
0.0
 40
0.0
 40
1.0
 40
1.0
 40
1.0
 40
1.0
 10
78.76079065248223
 20
84.60260516704199
 30
0.0
 10
78.50989978682418
 20
84.1592064293808
 30
0.0
 10
78.25208872951835
 20
83.70357765618537
 30
0.0
 10
77.98369384997396
 20
83.22924412286774
 30
0.0
  0
ARC
  5
24C
330
1F
100
AcDbEntity
  8
0
  6
Continuous
 62
     7
370
     0
100
AcDbCircle
 10
89.201833567
 20
85.4491044604
 30
0.0
 40
1.464579090178033
100
AcDbArc
 50
325.1965370451
 51
34.8034629549
  0
LINE
  5
24D
330
1F
100
AcDbEntity
  8
0
  6
Continuous
 62
     7
370
     0
100
AcDbLine
 10
91.9494758454
 20
83.4491044236
 30
0.0
 11
91.9494758454
 21
87.4491043808
 31
0.0
  0
LINE
  5
24E
330
1F
100
AcDbEntity
  8
0
  6
Continuous
 62
     7
370
     0
100
AcDbLine
 10
92.1094435361
 20
87.4491043808
 30
0.0
 11
92.1094435361
 21
88.1991045037
 31
0.0
  0
LINE
  5
24F
330
1F
100
AcDbEntity
  8
0
  6
Continuous
 62
     7
370
     0
100
AcDbLine
 10
92.1094435361
 20
88.1991045037
 30
0.0
 11
92.4293807801
 21
88.1991045037
 31
0.0
  0
LINE
  5
250
330
1F
100
AcDbEntity
  8
0
  6
Continuous
 62
     7
370
     0
100
AcDbLine
 10
92.4293807801
 20
82.6991045335
 30
0.0
 11
92.1094435361
 21
82.6991045335
 31
0.0
  0
LINE
  5
251
330
1F
100
AcDbEntity
  8
0
  6
Continuous
 62
     7
370
     0
100
AcDbLine
 10
92.1094435361
 20
82.6991045335
 30
0.0
 11
92.1094435361
 21
83.4491044236
 31
0.0
  0
LINE
  5
252
330
1F
100
AcDbEntity
  8
0
  6
Continuous
 62
     7
370
     0
100
AcDbLine
 10
91.9494758454
 20
87.4491043808
 30
0.0
 11
92.1094435361
 21
87.4491043808
 31
0.0
  0
LINE
  5
253
330
1F
100
AcDbEntity
  8
0
  6
Continuous
 62
     7
370
     0
100
AcDbLine
 10
91.9494758454
 20
83.4491044236
 30
0.0
 11
92.1094435361
 21
83.4491044236
 31
0.0
  0
LINE
  5
254
330
1F
100
AcDbEntity
  8
0
  6
Continuous
 62
     7
370
     0
100
AcDbLine
 10
91.9494758454
 20
87.4491043808
 30
0.0
 11
90.4044210073
 21
87.4491043808
 31
0.0
  0
LINE
  5
255
330
1F
100
AcDbEntity
  8
0
  6
Continuous
 62
     7
370
     0
100
AcDbLine
 10
90.4044210073
 20
83.4491044236
 30
0.0
 11
91.9494758454
 21
83.4491044236
 31
0.0
  0
LINE
  5
256
330
1F
100
AcDbEntity
  8
0
  6
Continuous
 62
     7
370
     0
100
AcDbLine
 10
90.4044210073
 20
82.6991045335
 30
0.0
 11
92.1094435361
 21
82.6991045335
 31
0.0
  0
LINE
  5
257
330
1F
100
AcDbEntity
  8
0
  6
Continuous
 62
     7
370
     0
100
AcDbLine
 10
90.4044210073
 20
88.1991045037
 30
0.0
 11
92.1094435361
 21
88.1991045037
 31
0.0
  0
LINE
  5
258
330
1F
100
AcDbEntity
  8
0
  6
Continuous
 62
     7
370
     0
100
AcDbLine
 10
92.9229407665
 20
82.1991044515
 30
0.0
 11
92.9229407665
 21
88.6991045856
 31
0.0
  0
LINE
  5
259
330
1F
100
AcDbEntity
  8
0
  6
Continuous
 62
     7
370
     0
100
AcDbLine
 10
90.4044210073
 20
82.1991044515
 30
0.0
 11
92.9229407665
 21
82.1991044515
 31
0.0
  0
LINE
  5
25A
330
1F
100
AcDbEntity
  8
0
  6
Continuous
 62
     7
370
     0
100
AcDbLine
 10
92.4293807801
 20
88.1991045037
 30
0.0
 11
92.4293807801
 21
82.6991045335
 31
0.0
  0
LINE
  5
25B
330
1F
100
AcDbEntity
  8
0
  6
Continuous
 62
     7
370
     0
100
AcDbLine
 10
92.9229407665
 20
88.6991045856
 30
0.0
 11
87.5023649168
 21
88.6991045856
 31
0.0
  0
LINE
  5
25C
330
1F
100
AcDbEntity
  8
0
  6
Continuous
 62
     7
370
     0
100
AcDbLine
 10
95.8023685124
 20
87.8991045476
 30
0.0
 11
95.8023685124
 21
88.6991045856
 31
0.0
  0
LINE
  5
25D
330
1F
100
AcDbEntity
  8
0
  6
Continuous
 62
     7
370
     0
100
AcDbLine
 10
95.8023685124
 20
82.9991044895
 30
0.0
 11
95.8023685124
 21
87.8991045476
 31
0.0
  0
LINE
  5
25E
330
1F
100
AcDbEntity
  8
0
  6
Continuous
 62
     7
370
     0
100
AcDbLine
 10
95.8023685124
 20
82.1991044515
 30
0.0
 11
95.8023685124
 21
82.9991044895
 31
0.0
  0
LINE
  5
25F
330
1F
100
AcDbEntity
  8
0
  6
Continuous
 62
     7
370
     0
100
AcDbLine
 10
92.9229407665
 20
82.1991044515
 30
0.0
 11
95.8023685124
 21
82.1991044515
 31
0.0
  0
LINE
  5
260
330
1F
100
AcDbEntity
  8
0
  6
Continuous
 62
     7
370
     0
100
AcDbLine
 10
92.9229407665
 20
88.6991045856
 30
0.0
 11
95.8023685124
 21
88.6991045856
 31
0.0
  0
LINE
  5
261
330
1F
100
AcDbEntity
  8
0
  6
Continuous
 62
     7
370
     0
100
AcDbLine
 10
95.8023685124
 20
87.8991045476
 30
0.0
 11
95.8088058141
 21
87.8991045476
 31
0.0
  0
LINE
  5
262
330
1F
100
AcDbEntity
  8
0
  6
Continuous
 62
     7
370
     0
100
AcDbLine
 10
95.8088058141
 20
82.9991044895
 30
0.0
 11
95.8023685124
 21
82.9991044895
 31
0.0
  0
LINE
  5
263
330
1F
100
AcDbEntity
  8
0
  6
Continuous
 62
     8
370
     0
100
AcDbLine
 10
87.5023649168
 20
89.804100194
 30
0.0
 11
88.0858524796
 21
89.804100194
 31
0.0
  0
LINE
  5
264
330
1F
100
AcDbEntity
  8
0
  6
Continuous
 62
     8
370
     0
100
AcDbLine
 10
87.5023649168
 20
89.9959084065
 30
0.0
 11
87.9901078623
 21
89.9959084065
 31
0.0
  0
DIMENSION
  5
265
330
1F
100
AcDbEntity
  8
0
  6
Continuous
 62
     7
370
     0
100
AcDbDimension
  2
_D_10
 10
95.8023676176
 20
60.6573652264
 30
0.0
 11
77.2013383384
 21
60.6573652264
 31
0.0
 70
   160
  1
(<>)
 71
     2
 42
-1.0
  3
SLDDIMSTYLE1
100
AcDbAlignedDimension
 13
58.6003090591
 23
82.1991044776
 33
0.0
 14
95.8023676176
 24
82.1991044776
 34
0.0
100
AcDbRotatedDimension
  0
DIMENSION
  5
271
330
1F
100
AcDbEntity
  8
0
  6
Continuous
 62
     7
370
     0
100
AcDbDimension
  2
_D_11
 10
74.5023650545
 20
69.6473371392
 30
0.0
 11
66.5513370568
 21
69.6473371392
 31
0.0
 70
   160
  1
(<>)
 71
     2
 42
-1.0
  3
SLDDIMSTYLE3
100
AcDbAlignedDimension
 13
58.6003090591
 23
82.1991044776
 33
0.0
 14
74.5023650545
 24
77.1991044776
 34
0.0
100
AcDbRotatedDimension
  0
INSERT
  5
288
330
1F
100
AcDbEntity
  8
0
  6
Continuous
 62
     7
370
     0
100
AcDbBlockReference
  2
SW_CENTERMARKSYMBOL_5
 10
74.5023650545
 20
85.1991044776
 30
0.0
  0
LINE
  5
289
330
1F
100
AcDbEntity
  8
0
  6
CENTERX2
 62
     7
370
     0
100
AcDbLine
 10
95.3088065283
 20
89.8991044776
 30
0.0
 11
95.3088065283
 21
80.9991044776
 31
0.0
  0
LINE
  5
28A
330
1F
100
AcDbEntity
  8
0
  6
CENTERX2
 62
     7
370
     0
100
AcDbLine
 10
84.1086645233
 20
88.5991044776
 30
0.0
 11
84.1086645233
 21
81.7991044776
 31
0.0
  0
LINE
  5
28B
330
1F
100
AcDbEntity
  8
0
  6
CENTERX2
 62
     7
370
     0
100
AcDbLine
 10
70.5023650545
 20
85.6991044776
 30
0.0
 11
61.8023650545
 21
85.6991044776
 31
0.0
  0
LINE
  5
28C
330
1F
100
AcDbEntity
  8
0
  6
CENTERX2
 62
     7
370
     0
100
AcDbLine
 10
84.5023650545
 20
81.6991044776
 30
0.0
 11
84.5023650545
 21
76.6991044776
 31
0.0
  0
LINE
  5
28D
330
1F
100
AcDbEntity
  8
0
  6
CENTERX2
 62
     7
370
     0
100
AcDbLine
 10
64.5023650545
 20
81.6991044776
 30
0.0
 11
64.5023650545
 21
76.6991044776
 31
0.0
  0
LINE
  5
28E
330
1F
100
AcDbEntity
  8
0
  6
CENTERX2
 62
     7
370
     0
100
AcDbLine
 10
79.4157247276
 20
90.1991044776
 30
0.0
 11
79.4157247276
 21
80.1991044776
 31
0.0
  0
LINE
  5
28F
330
1F
100
AcDbEntity
  8
0
  6
CENTERX2
 62
     7
370
     0
100
AcDbLine
 10
79.5876867717
 20
85.1991044776
 30
0.0
 11
69.4170433374
 21
85.1991044776
 31
0.0
  0
LINE
  5
290
330
1F
100
AcDbEntity
  8
0
  6
CENTERX2
 62
     7
370
     0
100
AcDbLine
 10
86.9149534157
 20
85.4491044776
 30
0.0
 11
91.2348896871
 21
85.4491044776
 31
0.0
  0
LINE
  5
291
330
1F
100
AcDbEntity
  8
0
  6
CENTERX2
 62
     7
370
     0
100
AcDbLine
 10
85.5858522207
 20
86.3893665563
 30
0.0
 11
85.5858522207
 21
95.1068842096
 31
0.0
  0
LINE
  5
292
330
1F
100
AcDbEntity
  8
0
  6
Continuous
 62
     7
370
     0
100
AcDbLine
 10
152.968226958
 20
156.9817790579
 30
0.0
 11
153.4682270399
 21
156.4817780446
 31
0.0
  0
LINE
  5
293
330
1F
100
AcDbEntity
  8
0
  6
Continuous
 62
     7
370
     0
100
AcDbLine
 10
164.4682269803
 20
156.4817780446
 30
0.0
 11
164.9682270623
 21
156.9817790579
 31
0.0
  0
LINE
  5
294
330
1F
100
AcDbEntity
  8
0
  6
Continuous
 62
     7
370
     0
100
AcDbLine
 10
152.968226958
 20
172.4817788046
 30
0.0
 11
152.968226958
 21
156.9817790579
 31
0.0
  0
LINE
  5
295
330
1F
100
AcDbEntity
  8
0
  6
Continuous
 62
     7
370
     0
100
AcDbLine
 10
164.9682270623
 20
156.9817790579
 30
0.0
 11
164.9682270623
 21
172.4817788046
 31
0.0
  0
LINE
  5
296
330
1F
100
AcDbEntity
  8
0
  6
Continuous
 62
     7
370
     0
100
AcDbLine
 10
157.168227041
 20
148.4817804586
 30
0.0
 11
157.4682269971
 21
146.4817801308
 31
0.0
  0
LINE
  5
297
330
1F
100
AcDbEntity
  8
0
  6
Continuous
 62
     7
370
     0
100
AcDbLine
 10
160.4682270231
 20
146.4817801308
 30
0.0
 11
160.7682269792
 21
148.4817804586
 31
0.0
  0
LINE
  5
298
330
1F
100
AcDbEntity
  8
0
  6
Continuous
 62
     7
370
     0
100
AcDbLine
 10
160.7682269792
 20
148.4817804586
 30
0.0
 11
160.7682269792
 21
148.9817777466
 31
0.0
  0
LINE
  5
299
330
1F
100
AcDbEntity
  8
0
  6
Continuous
 62
     7
370
     0
100
AcDbLine
 10
157.168227041
 20
148.9817777466
 30
0.0
 11
157.168227041
 21
148.4817804586
 31
0.0
  0
LINE
  5
29A
330
1F
100
AcDbEntity
  8
0
  6
Continuous
 62
     7
370
     0
100
AcDbLine
 10
157.168227041
 20
150.9817780744
 30
0.0
 11
157.3682270505
 21
148.9817777466
 31
0.0
  0
LINE
  5
29B
330
1F
100
AcDbEntity
  8
0
  6
Continuous
 62
     7
370
     0
100
AcDbLine
 10
160.5682269697
 20
148.9817777466
 30
0.0
 11
160.7682269792
 21
150.9817780744
 31
0.0
  0
LINE
  5
29C
330
1F
100
AcDbEntity
  8
0
  6
Continuous
 62
     7
370
     0
100
AcDbLine
 10
160.7682269792
 20
150.9817780744
 30
0.0
 11
160.7682269792
 21
151.4817790877
 31
0.0
  0
LINE
  5
29D
330
1F
100
AcDbEntity
  8
0
  6
Continuous
 62
     7
370
     0
100
AcDbLine
 10
157.168227041
 20
151.4817790877
 30
0.0
 11
157.168227041
 21
150.9817780744
 31
0.0
  0
LINE
  5
29E
330
1F
100
AcDbEntity
  8
0
  6
Continuous
 62
     7
370
     0
100
AcDbLine
 10
160.5682269697
 20
151.4817790877
 30
0.0
 11
160.5682269697
 21
153.4817794155
 31
0.0
  0
LINE
  5
29F
330
1F
100
AcDbEntity
  8
0
  6
Continuous
 62
     7
370
     0
100
AcDbLine
 10
157.3682270505
 20
153.4817794155
 30
0.0
 11
157.3682270505
 21
151.4817790877
 31
0.0
  0
LINE
  5
2A0
330
1F
100
AcDbEntity
  8
0
  6
Continuous
 62
     7
370
     0
100
AcDbLine
 10
157.2682269876
 20
220.6797579121
 30
0.0
 11
157.2682269876
 21
219.1454244595
 31
0.0
  0
LINE
  5
2A1
330
1F
100
AcDbEntity
  8
0
  6
Continuous
 62
     7
370
     0
100
AcDbLine
 10
160.1682270671
 20
219.1454244595
 30
0.0
 11
160.1682270671
 21
220.6797579121
 31
0.0
  0
LINE
  5
2A2
330
1F
100
AcDbEntity
  8
0
  6
Continuous
 62
     7
370
     0
100
AcDbLine
 10
154.3632312937
 20
225.7958108377
 30
0.0
 11
155.4682269021
 21
225.7958108377
 31
0.0
  0
LINE
  5
2A3
330
1F
100
AcDbEntity
  8
0
  6
Continuous
 62
     7
370
     0
100
AcDbLine
 10
155.4682269021
 20
230.7958097946
 30
0.0
 11
154.3632312937
 21
230.7958097946
 31
0.0
  0
ARC
  5
2A4
330
1F
100
AcDbEntity
  8
0
  6
Continuous
 62
     7
370
     0
100
AcDbCircle
 10
154.3632311698
 20
226.0358115901
 30
0.0
 40
0.240000000000004
100
AcDbArc
 50
216.9461268967
 51
270.0
  0
ARC
  5
2A5
330
1F
100
AcDbEntity
  8
0
  6
Continuous
 62
     7
370
     0
100
AcDbCircle
 10
154.3632311698
 20
230.5558115901
 30
0.0
 40
0.2400000000000375
100
AcDbArc
 50
90.0
 51
143.0538731033
  0
ARC
  5
2A6
330
1F
100
AcDbEntity
  8
0
  6
Continuous
 62
     7
370
     0
100
AcDbCircle
 10
157.3682270101
 20
228.2958115901
 30
0.0
 40
4.000000000000019
100
AcDbArc
 50
195.3096496086
 51
216.9461268967
  0
ARC
  5
2A7
330
1F
100
AcDbEntity
  8
0
  6
Continuous
 62
     7
370
     0
100
AcDbCircle
 10
157.3682270101
 20
228.2958115901
 30
0.0
 40
3.999999999999992
100
AcDbArc
 50
143.0538731033
 51
164.6903503914
  0
LINE
  5
2A8
330
1F
100
AcDbEntity
  8
0
  6
Continuous
 62
     7
370
     0
100
AcDbLine
 10
155.968226984
 20
198.6431319084
 30
0.0
 11
161.9682270362
 21
198.6431319084
 31
0.0
  0
LINE
  5
2A9
330
1F
100
AcDbEntity
  8
0
  6
Continuous
 62
     7
370
     0
100
AcDbLine
 10
161.9682270362
 20
183.8362997215
 30
0.0
 11
161.9682270362
 21
198.6431319084
 31
0.0
  0
LINE
  5
2AA
330
1F
100
AcDbEntity
  8
0
  6
Continuous
 62
     7
370
     0
100
AcDbLine
 10
155.968226984
 20
183.8362997215
 30
0.0
 11
161.9682270362
 21
183.8362997215
 31
0.0
  0
LINE
  5
2AB
330
1F
100
AcDbEntity
  8
0
  6
Continuous
 62
     7
370
     0
100
AcDbLine
 10
155.968226984
 20
183.8362997215
 30
0.0
 11
155.968226984
 21
198.6431319084
 31
0.0
  0
LINE
  5
2AC
330
1F
100
AcDbEntity
  8
0
  6
Continuous
 62
     7
370
     0
100
AcDbLine
 10
161.9682270362
 20
216.7398704033
 30
0.0
 11
155.968226984
 21
216.7398704033
 31
0.0
  0
LINE
  5
2AD
330
1F
100
AcDbEntity
  8
0
  6
Continuous
 62
     7
370
     0
100
AcDbLine
 10
155.968226984
 20
198.6431319084
 30
0.0
 11
155.968226984
 21
216.7398704033
 31
0.0
  0
LINE
  5
2AE
330
1F
100
AcDbEntity
  8
0
  6
Continuous
 62
     7
370
     0
100
AcDbLine
 10
161.9682270362
 20
198.6431319084
 30
0.0
 11
161.9682270362
 21
216.7398704033
 31
0.0
  0
LINE
  5
2AF
330
1F
100
AcDbEntity
  8
0
  6
Continuous
 62
     7
370
     0
100
AcDbLine
 10
160.9682271051
 20
183.0091455769
 30
0.0
 11
156.9682269151
 21
183.0091455769
 31
0.0
  0
LINE
  5
2B0
330
1F
100
AcDbEntity
  8
0
  6
Continuous
 62
     7
370
     0
100
AcDbLine
 10
155.968226984
 20
183.8362997215
 30
0.0
 11
156.9682269151
 21
183.0091455769
 31
0.0
  0
LINE
  5
2B1
330
1F
100
AcDbEntity
  8
0
  6
Continuous
 62
     7
370
     0
100
AcDbLine
 10
161.9682270362
 20
183.8362997215
 30
0.0
 11
160.9682271051
 21
183.0091455769
 31
0.0
  0
LINE
  5
2B2
330
1F
100
AcDbEntity
  8
0
  6
Continuous
 62
     7
370
     0
100
AcDbLine
 10
161.9682270362
 20
223.2056947243
 30
0.0
 11
161.4682269542
 21
223.2056947243
 31
0.0
  0
LINE
  5
2B3
330
1F
100
AcDbEntity
  8
0
  6
Continuous
 62
     7
370
     0
100
AcDbLine
 10
161.9682270362
 20
223.2056947243
 30
0.0
 11
161.9682270362
 21
223.5611395728
 31
0.0
  0
ARC
  5
2B4
330
1F
100
AcDbEntity
  8
0
  6
Continuous
 62
     7
370
     0
100
AcDbCircle
 10
158.9682270101
 20
210.9817788851
 30
0.0
 40
3.750000000000023
100
AcDbArc
 50
156.4218215218
 51
216.8698976458
  0
ARC
  5
2B5
330
1F
100
AcDbEntity
  8
0
  6
Continuous
 62
     7
370
     0
100
AcDbCircle
 10
158.9682270101
 20
193.4817788851
 30
0.0
 40
5.000000000000028
100
AcDbArc
 50
126.8698976458
 51
180.0
  0
LINE
  5
2B6
330
1F
100
AcDbEntity
  8
0
  6
Continuous
 62
     7
370
     0
100
AcDbLine
 10
153.9682271219
 20
185.48177884
 30
0.0
 11
153.9682271219
 21
193.4817789871
 31
0.0
  0
ARC
  5
2B7
330
1F
100
AcDbEntity
  8
0
  6
Continuous
 62
     7
370
     0
100
AcDbCircle
 10
158.9682270101
 20
185.4817788851
 30
0.0
 40
5.0
100
AcDbArc
 50
180.0
 51
0.0
  0
LINE
  5
2B8
330
1F
100
AcDbEntity
  8
0
  6
Continuous
 62
     7
370
     0
100
AcDbLine
 10
163.9682268984
 20
193.4817789871
 30
0.0
 11
163.9682268984
 21
185.48177884
 31
0.0
  0
ARC
  5
2B9
330
1F
100
AcDbEntity
  8
0
  6
Continuous
 62
     7
370
     0
100
AcDbCircle
 10
158.9682270101
 20
193.4817788851
 30
0.0
 40
5.0
100
AcDbArc
 50
0.0
 51
53.1301023542
  0
ARC
  5
2BA
330
1F
100
AcDbEntity
  8
0
  6
Continuous
 62
     7
370
     0
100
AcDbCircle
 10
158.9682270101
 20
210.9817788851
 30
0.0
 40
3.75
100
AcDbArc
 50
323.1301023542
 51
23.5781784782
  0
LINE
  5
2BB
330
1F
100
AcDbEntity
  8
0
  6
Continuous
 62
     7
370
     0
100
AcDbLine
 10
164.4682269803
 20
212.4817797732
 30
0.0
 11
162.4051588847
 21
212.4817797732
 31
0.0
  0
LINE
  5
2BC
330
1F
100
AcDbEntity
  8
0
  6
Continuous
 62
     7
370
     0
100
AcDbLine
 10
164.4682269803
 20
172.4817788046
 30
0.0
 11
164.4682269803
 21
212.4817797732
 31
0.0
  0
LINE
  5
2BD
330
1F
100
AcDbEntity
  8
0
  6
Continuous
 62
     7
370
     0
100
AcDbLine
 10
153.4682270399
 20
212.4817797732
 30
0.0
 11
153.4682270399
 21
172.4817788046
 31
0.0
  0
LINE
  5
2BE
330
1F
100
AcDbEntity
  8
0
  6
Continuous
 62
     7
370
     0
100
AcDbLine
 10
155.5312951355
 20
212.4817797732
 30
0.0
 11
153.4682270399
 21
212.4817797732
 31
0.0
  0
LINE
  5
2BF
330
1F
100
AcDbEntity
  8
0
  6
Continuous
 62
     7
370
     0
100
AcDbLine
 10
153.4682270399
 20
172.4817788046
 30
0.0
 11
164.4682269803
 21
172.4817788046
 31
0.0
  0
LINE
  5
2C0
330
1F
100
AcDbEntity
  8
0
  6
Continuous
 62
     7
370
     0
100
AcDbLine
 10
164.4682269803
 20
212.4817797732
 30
0.0
 11
165.4682271442
 21
213.4817780744
 31
0.0
  0
LINE
  5
2C1
330
1F
100
AcDbEntity
  8
0
  6
Continuous
 62
     7
370
     0
100
AcDbLine
 10
165.4682271442
 20
213.4817780744
 30
0.0
 11
165.4682271442
 21
172.4817788046
 31
0.0
  0
LINE
  5
2C2
330
1F
100
AcDbEntity
  8
0
  6
Continuous
 62
     7
370
     0
100
AcDbLine
 10
165.4682271442
 20
172.4817788046
 30
0.0
 11
164.4682269803
 21
172.4817788046
 31
0.0
  0
LINE
  5
2C3
330
1F
100
AcDbEntity
  8
0
  6
Continuous
 62
     7
370
     0
100
AcDbLine
 10
152.468226876
 20
172.4817788046
 30
0.0
 11
152.468226876
 21
213.4817780744
 31
0.0
  0
LINE
  5
2C4
330
1F
100
AcDbEntity
  8
0
  6
Continuous
 62
     7
370
     0
100
AcDbLine
 10
152.468226876
 20
213.4817780744
 30
0.0
 11
153.4682270399
 21
212.4817797732
 31
0.0
  0
LINE
  5
2C5
330
1F
100
AcDbEntity
  8
0
  6
Continuous
 62
     7
370
     0
100
AcDbLine
 10
153.4682270399
 20
172.4817788046
 30
0.0
 11
152.468226876
 21
172.4817788046
 31
0.0
  0
LINE
  5
2C6
330
1F
100
AcDbEntity
  8
0
  6
Continuous
 62
     7
370
     0
100
AcDbLine
 10
161.9682270362
 20
215.4817784023
 30
0.0
 11
163.4682268164
 21
215.4817784023
 31
0.0
  0
LINE
  5
2C7
330
1F
100
AcDbEntity
  8
0
  6
Continuous
 62
     7
370
     0
100
AcDbLine
 10
165.4682271442
 20
213.4817780744
 30
0.0
 11
163.4682268164
 21
215.4817784023
 31
0.0
  0
ARC
  5
2C8
330
1F
100
AcDbEntity
  8
0
  6
Continuous
 62
     7
370
     0
100
AcDbCircle
 10
158.9682270101
 20
210.9817788851
 30
0.0
 40
3.749999999999985
100
AcDbArc
 50
23.5781784782
 51
36.8698976458
  0
LINE
  5
2C9
330
1F
100
AcDbEntity
  8
0
  6
Continuous
 62
     7
370
     0
100
AcDbLine
 10
154.4682272038
 20
215.4817784023
 30
0.0
 11
152.468226876
 21
213.4817780744
 31
0.0
  0
LINE
  5
2CA
330
1F
100
AcDbEntity
  8
0
  6
Continuous
 62
     7
370
     0
100
AcDbLine
 10
154.4682272038
 20
215.4817784023
 30
0.0
 11
155.968226984
 21
215.4817784023
 31
0.0
  0
ARC
  5
2CB
330
1F
100
AcDbEntity
  8
0
  6
Continuous
 62
     7
370
     0
100
AcDbCircle
 10
158.9682270101
 20
210.9817788851
 30
0.0
 40
3.750000000000006
100
AcDbArc
 50
143.1301023542
 51
156.4218215218
  0
LINE
  5
2CC
330
1F
100
AcDbEntity
  8
0
  6
Continuous
 62
     7
370
     0
100
AcDbLine
 10
161.9682270362
 20
242.7690530013
 30
0.0
 11
160.4682270231
 21
242.7690530013
 31
0.0
  0
LINE
  5
2CD
330
1F
100
AcDbEntity
  8
0
  6
Continuous
 62
     7
370
     0
100
AcDbLine
 10
160.4682270231
 20
242.7690530013
 30
0.0
 11
160.4682270231
 21
242.6227384996
 31
0.0
  0
LINE
  5
2CE
330
1F
100
AcDbEntity
  8
0
  6
Continuous
 62
     7
370
     0
100
AcDbLine
 10
161.9682270362
 20
242.7690530013
 30
0.0
 11
161.9682270362
 21
242.1291785132
 31
0.0
  0
LINE
  5
2CF
330
1F
100
AcDbEntity
  8
0
  6
Continuous
 62
     7
370
     0
100
AcDbLine
 10
157.4682269971
 20
242.7690530013
 30
0.0
 11
155.968226984
 21
242.7690530013
 31
0.0
  0
LINE
  5
2D0
330
1F
100
AcDbEntity
  8
0
  6
Continuous
 62
     7
370
     0
100
AcDbLine
 10
157.4682269971
 20
242.7690530013
 30
0.0
 11
157.4682269971
 21
242.6227384996
 31
0.0
  0
LINE
  5
2D1
330
1F
100
AcDbEntity
  8
0
  6
Continuous
 62
     7
370
     0
100
AcDbLine
 10
155.968226984
 20
242.7690530013
 30
0.0
 11
155.968226984
 21
242.1291785132
 31
0.0
  0
LINE
  5
2D2
330
1F
100
AcDbEntity
  8
0
  6
Continuous
 62
     7
370
     0
100
AcDbLine
 10
160.4682270231
 20
243.9161406647
 30
0.0
 11
161.9682270362
 21
243.9161406647
 31
0.0
  0
LINE
  5
2D3
330
1F
100
AcDbEntity
  8
0
  6
Continuous
 62
     7
370
     0
100
AcDbLine
 10
160.4682270231
 20
242.7690530013
 30
0.0
 11
160.4682270231
 21
243.9161406647
 31
0.0
  0
LINE
  5
2D4
330
1F
100
AcDbEntity
  8
0
  6
Continuous
 62
     7
370
     0
100
AcDbLine
 10
161.9682270362
 20
243.9161406647
 30
0.0
 11
161.9682270362
 21
242.7690530013
 31
0.0
  0
LINE
  5
2D5
330
1F
100
AcDbEntity
  8
0
  6
Continuous
 62
     7
370
     0
100
AcDbLine
 10
155.968226984
 20
243.9161406647
 30
0.0
 11
157.4682269971
 21
243.9161406647
 31
0.0
  0
LINE
  5
2D6
330
1F
100
AcDbEntity
  8
0
  6
Continuous
 62
     7
370
     0
100
AcDbLine
 10
157.4682269971
 20
243.9161406647
 30
0.0
 11
157.4682269971
 21
242.7690530013
 31
0.0
  0
LINE
  5
2D7
330
1F
100
AcDbEntity
  8
0
  6
Continuous
 62
     7
370
     0
100
AcDbLine
 10
155.968226984
 20
242.7690530013
 30
0.0
 11
155.968226984
 21
243.9161406647
 31
0.0
  0
LINE
  5
2D8
330
1F
100
AcDbEntity
  8
0
  6
Continuous
 62
     7
370
     0
100
AcDbLine
 10
155.968226984
 20
220.4759808075
 30
0.0
 11
155.968226984
 21
221.6668778848
 31
0.0
  0
LINE
  5
2D9
330
1F
100
AcDbEntity
  8
0
  6
Continuous
 62
     7
370
     0
100
AcDbLine
 10
161.9682270362
 20
220.4759808075
 30
0.0
 11
161.9682270362
 21
223.2056947243
 31
0.0
  0
LINE
  5
2DA
330
1F
100
AcDbEntity
  8
0
  6
Continuous
 62
     7
370
     0
100
AcDbLine
 10
155.968226984
 20
216.7398704033
 30
0.0
 11
155.968226984
 21
220.4759808075
 31
0.0
  0
LINE
  5
2DB
330
1F
100
AcDbEntity
  8
0
  6
Continuous
 62
     7
370
     0
100
AcDbLine
 10
161.9682270362
 20
220.4759808075
 30
0.0
 11
161.9682270362
 21
216.7398704033
 31
0.0
  0
LINE
  5
2DC
330
1F
100
AcDbEntity
  8
0
  6
Continuous
 62
     7
370
     0
100
AcDbLine
 10
160.4682270231
 20
244.7159828436
 30
0.0
 11
161.9682270362
 21
244.7159828436
 31
0.0
  0
LINE
  5
2DD
330
1F
100
AcDbEntity
  8
0
  6
Continuous
 62
     7
370
     0
100
AcDbLine
 10
160.4682270231
 20
243.9161406647
 30
0.0
 11
160.4682270231
 21
244.7159828436
 31
0.0
  0
LINE
  5
2DE
330
1F
100
AcDbEntity
  8
0
  6
Continuous
 62
     7
370
     0
100
AcDbLine
 10
161.9682270362
 20
243.9161406647
 30
0.0
 11
161.9682270362
 21
244.7159828436
 31
0.0
  0
LINE
  5
2DF
330
1F
100
AcDbEntity
  8
0
  6
Continuous
 62
     7
370
     0
100
AcDbLine
 10
155.968226984
 20
244.7159828436
 30
0.0
 11
157.4682269971
 21
244.7159828436
 31
0.0
  0
LINE
  5
2E0
330
1F
100
AcDbEntity
  8
0
  6
Continuous
 62
     7
370
     0
100
AcDbLine
 10
157.4682269971
 20
243.9161406647
 30
0.0
 11
157.4682269971
 21
244.7159828436
 31
0.0
  0
LINE
  5
2E1
330
1F
100
AcDbEntity
  8
0
  6
Continuous
 62
     7
370
     0
100
AcDbLine
 10
155.968226984
 20
243.9161406647
 30
0.0
 11
155.968226984
 21
244.7159828436
 31
0.0
  0
LINE
  5
2E2
330
1F
100
AcDbEntity
  8
0
  6
Continuous
 62
     7
370
     0
100
AcDbLine
 10
158.9682270101
 20
156.4817780446
 30
0.0
 11
153.4682270399
 21
156.4817780446
 31
0.0
  0
LINE
  5
2E3
330
1F
100
AcDbEntity
  8
0
  6
Continuous
 62
     7
370
     0
100
AcDbLine
 10
164.4682269803
 20
156.4817780446
 30
0.0
 11
158.9682270101
 21
156.4817780446
 31
0.0
  0
LINE
  5
2E4
330
1F
100
AcDbEntity
  8
0
  6
Continuous
 62
     7
370
     0
100
AcDbLine
 10
158.9682270101
 20
156.9817790579
 30
0.0
 11
164.9682270623
 21
156.9817790579
 31
0.0
  0
LINE
  5
2E5
330
1F
100
AcDbEntity
  8
0
  6
Continuous
 62
     7
370
     0
100
AcDbLine
 10
152.968226958
 20
156.9817790579
 30
0.0
 11
158.9682270101
 21
156.9817790579
 31
0.0
  0
LINE
  5
2E6
330
1F
100
AcDbEntity
  8
0
  6
Continuous
 62
     7
370
     0
100
AcDbLine
 10
155.668227028
 20
216.6817782264
 30
0.0
 11
155.968226984
 21
216.6817782264
 31
0.0
  0
LINE
  5
2E7
330
1F
100
AcDbEntity
  8
0
  6
Continuous
 62
     7
370
     0
100
AcDbLine
 10
161.9682270362
 20
216.6817782264
 30
0.0
 11
162.2682269922
 21
216.6817782264
 31
0.0
  0
LINE
  5
2E8
330
1F
100
AcDbEntity
  8
0
  6
Continuous
 62
     7
370
     0
100
AcDbLine
 10
154.4682272038
 20
215.4817784023
 30
0.0
 11
155.668227028
 21
216.6817782264
 31
0.0
  0
LINE
  5
2E9
330
1F
100
AcDbEntity
  8
0
  6
Continuous
 62
     7
370
     0
100
AcDbLine
 10
162.2682269922
 20
216.6817782264
 30
0.0
 11
163.4682268164
 21
215.4817784023
 31
0.0
  0
LINE
  5
2EA
330
1F
100
AcDbEntity
  8
0
  6
Continuous
 62
     7
370
     0
100
AcDbLine
 10
160.4682270231
 20
244.7159828436
 30
0.0
 11
157.4682269971
 21
244.7159828436
 31
0.0
  0
ARC
  5
2EB
330
1F
100
AcDbEntity
  8
0
  6
Continuous
 62
     7
370
     0
100
AcDbCircle
 10
158.9682270101
 20
189.4817788828
 30
0.0
 40
4.000000000000004
100
AcDbArc
 50
318.5903778907
 51
41.4096221093
  0
ARC
  5
2EC
330
1F
100
AcDbEntity
  8
0
  6
Continuous
 62
     7
370
     0
100
AcDbCircle
 10
158.9682270101
 20
189.4817788828
 30
0.0
 40
4.000000000000009
100
AcDbArc
 50
138.5903778907
 51
221.4096221093
  0
LINE
  5
2ED
330
1F
100
AcDbEntity
  8
0
  6
Continuous
 62
     7
370
     0
100
AcDbLine
 10
163.8873019515
 20
193.4817789871
 30
0.0
 11
163.8873019515
 21
185.48177884
 31
0.0
  0
SPLINE
  5
2EE
330
1F
100
AcDbEntity
  8
0
  6
Continuous
 62
     7
370
     0
100
AcDbSpline
210
0.0
220
0.0
230
1.0
 70
     8
 71
     3
 72
    10
 73
     6
 74
     0
 42
0.000000001
 43
0.00000001
 40
0.0
 40
0.0
 40
0.0
 40
0.0
 40
0.5
 40
0.5
 40
1.0
 40
1.0
 40
1.0
 40
1.0
 10
163.5873478158798
 20
185.4817820269753
 30
0.0
 10
163.6650149675414
 20
185.4817815029434
 30
0.0
 10
163.7422244641908
 20
185.4817809789116
 30
0.0
 10
163.8530167257522
 20
185.4817799308481
 30
0.0
 10
163.885946645424
 20
185.4817794068164
 30
0.0
 10
163.8873021241245
 20
185.4817788827849
 30
0.0
  0
LINE
  5
2EF
330
1F
100
AcDbEntity
  8
0
  6
Continuous
 62
     7
370
     0
100
AcDbLine
 10
163.5873476303
 20
193.4817789871
 30
0.0
 11
163.5873476303
 21
185.4817820996
 31
0.0
  0
SPLINE
  5
2F0
330
1F
100
AcDbEntity
  8
0
  6
Continuous
 62
     7
370
     0
100
AcDbSpline
210
0.0
220
0.0
230
1.0
 70
    24
 71
     3
 72
     9
 73
     5
 74
     0
 42
0.000000001
 43
0.00000001
 40
0.0
 40
0.0
 40
0.0
 40
0.0
 40
0.499997837543848
 40
1.0
 40
1.0
 40
1.0
 40
1.0
 10
163.5873478156036
 20
193.4817788827851
 30
0.0
 10
163.663077194707
 20
193.4817788827851
 30
0.0
 10
163.8207117380752
 20
193.4817788827851
 30
0.0
 10
163.8859804522271
 20
193.4817788827851
 30
0.0
 10
163.8873021241506
 20
193.4817788827851
 30
0.0
  0
LINE
  5
2F1
330
1F
100
AcDbEntity
  8
0
  6
Continuous
 62
     7
370
     0
100
AcDbLine
 10
154.0491520687
 20
185.48177884
 30
0.0
 11
154.0491520687
 21
193.4817789871
 31
0.0
  0
SPLINE
  5
2F2
330
1F
100
AcDbEntity
  8
0
  6
Continuous
 62
     7
370
     0
100
AcDbSpline
210
0.0
220
0.0
230
1.0
 70
     8
 71
     3
 72
    10
 73
     6
 74
     0
 42
0.000000001
 43
0.00000001
 40
0.0
 40
0.0
 40
0.0
 40
0.0
 40
0.5
 40
0.5
 40
1.0
 40
1.0
 40
1.0
 40
1.0
 10
154.3491062043412
 20
193.4817757378546
 30
0.0
 10
154.2714390526796
 20
193.4817762620098
 30
0.0
 10
154.1942295560303
 20
193.4817767861651
 30
0.0
 10
154.0834372944689
 20
193.4817778344752
 30
0.0
 10
154.0505073747971
 20
193.4817783586302
 30
0.0
 10
154.0491518960966
 20
193.4817788827851
 30
0.0
  0
LINE
  5
2F3
330
1F
100
AcDbEntity
  8
0
  6
Continuous
 62
     7
370
     0
100
AcDbLine
 10
154.3491063899
 20
185.48177884
 30
0.0
 11
154.3491063899
 21
193.4817757275
 31
0.0
  0
SPLINE
  5
2F4
330
1F
100
AcDbEntity
  8
0
  6
Continuous
 62
     7
370
     0
100
AcDbSpline
210
0.0
220
0.0
230
1.0
 70
    24
 71
     3
 72
    10
 73
     6
 74
     0
 42
0.000000001
 43
0.00000001
 40
0.0
 40
0.0
 40
0.0
 40
0.0
 40
0.5
 40
0.5
 40
1.0
 40
1.0
 40
1.0
 40
1.0
 10
154.0491518960708
 20
185.4817788827851
 30
0.0
 10
154.0505073747722
 20
185.4817788827853
 30
0.0
 10
154.0834372944875
 20
185.4817788827854
 30
0.0
 10
154.1942295561755
 20
185.4817788827854
 30
0.0
 10
154.2714390529056
 20
185.4817788827853
 30
0.0
 10
154.3491062046175
 20
185.4817788827851
 30
0.0
  0
SPLINE
  5
2F5
330
1F
100
AcDbEntity
  8
0
  6
Continuous
 62
     7
370
     0
100
AcDbSpline
210
0.0
220
0.0
230
1.0
 70
     8
 71
     3
 72
    17
 73
    13
 74
     0
 42
0.000000001
 43
0.00000001
 40
0.0
 40
0.0
 40
0.0
 40
0.0
 40
0.062550137883576
 40
0.125101793286261
 40
0.250051444152696
 40
0.3750708483523499
 40
0.4376541028667049
 40
0.500238687037138
 40
0.625171040415573
 40
0.750090458566893
 40
0.875053743319954
 40
1.0
 40
1.0
 40
1.0
 40
1.0
 10
163.5873478158799
 20
185.4817820269753
 30
0.0
 10
163.5873478159007
 20
185.3308762649832
 30
0.0
 10
163.571947497298
 20
185.0288266752444
 30
0.0
 10
163.4826344478739
 20
184.4315303741749
 30
0.0
 10
163.264518935021
 20
183.704252196617
 30
0.0
 10
162.9042259674527
 20
183.0358705392964
 30
0.0
 10
162.5442175198021
 20
182.5503656350811
 30
0.0
 10
162.1377951285624
 20
182.103323835461
 30
0.0
 10
161.5531697574283
 20
181.6192892943037
 30
0.0
 10
160.7500015522554
 20
181.1911042235811
 30
0.0
 10
159.8802094817125
 20
180.924766080605
 30
0.0
 10
159.2755924996686
 20
180.8640037133565
 30
0.0
 10
158.9741525634032
 20
180.8640728103545
 30
0.0
  0
SPLINE
  5
2F6
330
1F
100
AcDbEntity
  8
0
  6
Continuous
 62
     7
370
     0
100
AcDbSpline
210
0.0
220
0.0
230
1.0
 70
     8
 71
     3
 72
    16
 73
    12
 74
     0
 42
0.000000001
 43
0.00000001
 40
0.0
 40
0.0
 40
0.0
 40
0.0
 40
0.124960700844018
 40
0.249906817750813
 40
0.374893842031836
 40
0.499865650388283
 40
0.624849774801164
 40
0.749813580946707
 40
0.87483503316308
 40
0.9374184756819526
 40
1.0
 40
1.0
 40
1.0
 40
1.0
 10
158.9741525634032
 20
180.8640728103545
 30
0.0
 10
158.6722291523246
 20
180.864142018176
 30
0.0
 10
158.0666527340018
 20
180.9224236799056
 30
0.0
 10
157.1944430724069
 20
181.1870904125761
 30
0.0
 10
156.3903091384845
 20
181.6165728509012
 30
0.0
 10
155.684712815227
 20
182.1940035458196
 30
0.0
 10
155.1056373861632
 20
182.8980622041647
 30
0.0
 10
154.6733294583074
 20
183.7009927674016
 30
0.0
 10
154.4551179579512
 20
184.4295626770691
 30
0.0
 10
154.3647227557701
 20
185.0279112749203
 30
0.0
 10
154.3491062046175
 20
185.3305727222772
 30
0.0
 10
154.3491062046175
 20
185.4817788827851
 30
0.0
  0
SPLINE
  5
2F7
330
1F
100
AcDbEntity
  8
0
  6
Continuous
 62
     7
370
     0
100
AcDbSpline
210
0.0
220
0.0
230
1.0
 70
     8
 71
     3
 72
     9
 73
     5
 74
     0
 42
0.000000001
 43
0.00000001
 40
0.0
 40
0.0
 40
0.0
 40
0.0
 40
0.499967397181534
 40
1.0
 40
1.0
 40
1.0
 40
1.0
 10
158.9741525634032
 20
180.8640728103545
 30
0.0
 10
158.9756234356072
 20
180.7883587316041
 30
0.0
 10
158.9716528830911
 20
180.6307125274648
 30
0.0
 10
158.9750309465084
 20
180.5652267430264
 30
0.0
 10
158.9752781686666
 20
180.5639926684069
 30
0.0
  0
SPLINE
  5
2F8
330
1F
100
AcDbEntity
  8
0
  6
Continuous
 62
     7
370
     0
100
AcDbSpline
210
0.0
220
0.0
230
1.0
 70
     8
 71
     3
 72
    14
 73
    10
 74
     0
 42
0.000000001
 43
0.00000001
 40
0.0
 40
0.0
 40
0.0
 40
0.0
 40
0.25
 40
0.25
 40
0.5
 40
0.5
 40
0.75
 40
0.75
 40
1.0
 40
1.0
 40
1.0
 40
1.0
 10
163.8873021241506
 20
185.48177888508
 30
0.0
 10
163.8873020882435
 20
184.8384612085214
 30
0.0
 10
163.7595081855986
 20
184.1953957449118
 30
0.0
 10
163.2675602185284
 20
183.0065233139578
 30
0.0
 10
162.9035990115581
 20
182.4611824177887
 30
0.0
 10
161.9944628815653
 20
181.5507419287806
 30
0.0
 10
161.4496443653925
 20
181.1859992539781
 30
0.0
 10
160.2614785113425
 20
180.6923473344545
 30
0.0
 10
159.6185969677284
 20
180.5636316149784
 30
0.0
 10
158.9752800087361
 20
180.562709258244
 30
0.0
  0
SPLINE
  5
2F9
330
1F
100
AcDbEntity
  8
0
  6
Continuous
 62
     7
370
     0
100
AcDbSpline
210
0.0
220
0.0
230
1.0
 70
     8
 71
     3
 72
    14
 73
    10
 74
     0
 42
0.000000001
 43
0.00000001
 40
0.0
 40
0.0
 40
0.0
 40
0.0
 40
0.25
 40
0.25
 40
0.5
 40
0.5
 40
0.75
 40
0.75
 40
1.0
 40
1.0
 40
1.0
 40
1.0
 10
158.9752800087361
 20
180.562709258244
 30
0.0
 10
158.3307875510726
 20
180.5617851442564
 30
0.0
 10
157.6863656728313
 20
180.6891283285379
 30
0.0
 10
156.4949678585137
 20
181.1811210608981
 30
0.0
 10
155.9484623942058
 20
181.5455763258059
 30
0.0
 10
155.0363582040485
 20
182.4563735698302
 30
0.0
 10
154.6711196595944
 20
183.0023558838119
 30
0.0
 10
154.1774190448061
 20
184.1930470482837
 30
0.0
 10
154.0491519322783
 20
184.8372857061412
 30
0.0
 10
154.0491518960705
 20
185.4817788827851
 30
0.0
  0
LINE
  5
2FA
330
1F
100
AcDbEntity
  8
0
  6
Continuous
 62
     7
370
     0
100
AcDbLine
 10
163.8873019515
 20
185.48177884
 30
0.0
 11
163.9080834835
 21
185.48177884
 31
0.0
  0
ARC
  5
2FB
330
1F
100
AcDbEntity
  8
0
  6
Continuous
 62
     7
370
     0
100
AcDbCircle
 10
158.9682270101
 20
185.4817788851
 30
0.0
 40
4.939856468161372
100
AcDbArc
 50
180.0000000266
 51
0.0000343334
  0
LINE
  5
2FC
330
1F
100
AcDbEntity
  8
0
  6
Continuous
 62
     7
370
     0
100
AcDbLine
 10
154.0283705368
 20
185.48177884
 30
0.0
 11
154.0491520687
 21
185.48177884
 31
0.0
  0
LINE
  5
2FD
330
1F
100
AcDbEntity
  8
0
  6
Continuous
 62
     7
370
     0
100
AcDbLine
 10
154.0491520687
 20
193.4817789871
 30
0.0
 11
154.0283705368
 21
193.4817789871
 31
0.0
  0
ARC
  5
2FE
330
1F
100
AcDbEntity
  8
0
  6
Continuous
 62
     7
370
     0
100
AcDbCircle
 10
158.9682270101
 20
193.4817788805
 30
0.0
 40
4.93985646083107
100
AcDbArc
 50
127.3948978734
 51
179.9999656666
  0
ARC
  5
2FF
330
1F
100
AcDbEntity
  8
0
  6
Continuous
 62
     7
370
     0
100
AcDbCircle
 10
158.9682270101
 20
193.4817788805
 30
0.0
 40
4.939856460831049
100
AcDbArc
 50
0.0
 51
52.6051021266
  0
LINE
  5
300
330
1F
100
AcDbEntity
  8
0
  6
Continuous
 62
     7
370
     0
100
AcDbLine
 10
163.8873019515
 20
193.4817789871
 30
0.0
 11
163.9080834835
 21
193.4817789871
 31
0.0
  0
LINE
  5
301
330
1F
100
AcDbEntity
  8
0
  6
Continuous
 62
     7
370
     0
100
AcDbLine
 10
163.9080834835
 20
193.4817789871
 30
0.0
 11
163.9080834835
 21
185.48177884
 31
0.0
  0
LINE
  5
302
330
1F
100
AcDbEntity
  8
0
  6
Continuous
 62
     7
370
     0
100
AcDbLine
 10
154.0283705368
 20
185.48177884
 30
0.0
 11
154.0283705368
 21
193.4817789871
 31
0.0
  0
LINE
  5
303
330
1F
100
AcDbEntity
  8
0
  6
Continuous
 62
     7
370
     0
100
AcDbLine
 10
158.2979040946
 20
153.7817770433
 30
0.0
 11
159.5647263135
 21
153.7817770433
 31
0.0
  0
SPLINE
  5
304
330
1F
100
AcDbEntity
  8
0
  6
Continuous
 62
     7
370
     0
100
AcDbSpline
210
0.0
220
0.0
230
1.0
 70
     8
 71
     3
 72
     8
 73
     4
 74
     0
 42
0.000000001
 43
0.00000001
 40
0.0
 40
0.0
 40
0.0
 40
0.0
 40
1.0
 40
1.0
 40
1.0
 40
1.0
 10
159.5647263206805
 20
153.7817788850467
 30
0.0
 10
160.0081250583417
 20
153.5948223633562
 30
0.0
 10
160.4637538315371
 20
153.4817788850842
 30
0.0
 10
160.9380873648548
 20
153.4817788849606
 30
0.0
  0
LINE
  5
305
330
1F
100
AcDbEntity
  8
0
  6
Continuous
 62
     7
370
     0
100
AcDbLine
 10
156.9382380954
 20
153.4817794155
 30
0.0
 11
160.9380874111
 21
153.4817794155
 31
0.0
  0
SPLINE
  5
306
330
1F
100
AcDbEntity
  8
0
  6
Continuous
 62
     7
370
     0
100
AcDbSpline
210
0.0
220
0.0
230
1.0
 70
     8
 71
     3
 72
     8
 73
     4
 74
     0
 42
0.000000001
 43
0.00000001
 40
0.0
 40
0.0
 40
0.0
 40
0.0
 40
1.0
 40
1.0
 40
1.0
 40
1.0
 10
156.9382380123719
 20
153.4817788849757
 30
0.0
 10
157.4078415629419
 20
153.4817788849663
 30
0.0
 10
157.8589268744105
 20
153.5948223631046
 30
0.0
 10
158.2979041064888
 20
153.7817788846977
 30
0.0
  0
LINE
  5
307
330
1F
100
AcDbEntity
  8
0
  6
Continuous
 62
     7
370
     0
100
AcDbLine
 10
158.2979040946
 20
153.7817770433
 30
0.0
 11
158.2979040946
 21
156.4817780446
 31
0.0
  0
LINE
  5
308
330
1F
100
AcDbEntity
  8
0
  6
Continuous
 62
     7
370
     0
100
AcDbLine
 10
159.5647263135
 20
156.4817780446
 30
0.0
 11
159.5647263135
 21
153.7817770433
 31
0.0
  0
LINE
  5
309
330
1F
100
AcDbEntity
  8
0
  6
Continuous
 62
     7
370
     0
100
AcDbLine
 10
162.3114485088
 20
153.7817770433
 30
0.0
 11
162.3114485088
 21
156.4817780446
 31
0.0
  0
SPLINE
  5
30A
330
1F
100
AcDbEntity
  8
0
  6
Continuous
 62
     7
370
     0
100
AcDbSpline
210
0.0
220
0.0
230
1.0
 70
     8
 71
     3
 72
     8
 73
     4
 74
     0
 42
0.000000001
 43
0.00000001
 40
0.0
 40
0.0
 40
0.0
 40
0.0
 40
1.0
 40
1.0
 40
1.0
 40
1.0
 10
160.93808736485
 20
153.481778884966
 30
0.0
 10
161.4124208986889
 20
153.4817788848428
 30
0.0
 10
161.8680496725003
 20
153.5948223631866
 30
0.0
 10
162.3114484106404
 20
153.7817788850816
 30
0.0
  0
SPLINE
  5
30B
330
1F
100
AcDbEntity
  8
0
  6
Continuous
 62
     7
370
     0
100
AcDbSpline
210
0.0
220
0.0
230
1.0
 70
     8
 71
     3
 72
     8
 73
     4
 74
     0
 42
0.000000001
 43
0.00000001
 40
0.0
 40
0.0
 40
0.0
 40
0.0
 40
1.0
 40
1.0
 40
1.0
 40
1.0
 10
155.5785719177647
 20
153.7817788849418
 30
0.0
 10
156.0175491498938
 20
153.5948223632589
 30
0.0
 10
156.4686344617001
 20
153.4817788849708
 30
0.0
 10
156.9382380123486
 20
153.4817788849606
 30
0.0
  0
LINE
  5
30C
330
1F
100
AcDbEntity
  8
0
  6
Continuous
 62
     7
370
     0
100
AcDbLine
 10
155.5785718634
 20
156.4817780446
 30
0.0
 11
155.5785718634
 21
153.7817770433
 31
0.0
  0
LINE
  5
30D
330
1F
100
AcDbEntity
  8
0
  6
Continuous
 62
     7
370
     0
100
AcDbLine
 10
162.9543812274
 20
153.7817770433
 30
0.0
 11
162.3114485088
 21
153.7817770433
 31
0.0
  0
SPLINE
  5
30E
330
1F
100
AcDbEntity
  8
0
  6
Continuous
 62
     7
370
     0
100
AcDbSpline
210
0.0
220
0.0
230
1.0
 70
     8
 71
     3
 72
     8
 73
     4
 74
     0
 42
0.000000001
 43
0.00000001
 40
0.0
 40
0.0
 40
0.0
 40
0.0
 40
1.0
 40
1.0
 40
1.0
 40
1.0
 10
162.9543814133484
 20
153.781778885306
 30
0.0
 10
162.9588029189533
 20
153.5948223633649
 30
0.0
 10
162.9633463806401
 20
153.4817788849681
 30
0.0
 10
162.9680763633805
 20
153.4817788850799
 30
0.0
  0
LINE
  5
30F
330
1F
100
AcDbEntity
  8
0
  6
Continuous
 62
     7
370
     0
100
AcDbLine
 10
162.9680763258
 20
153.4817794155
 30
0.0
 11
160.9380874111
 21
153.4817794155
 31
0.0
  0
LINE
  5
310
330
1F
100
AcDbEntity
  8
0
  6
Continuous
 62
     7
370
     0
100
AcDbLine
 10
154.9546825959
 20
153.7817770433
 30
0.0
 11
155.5785718634
 21
153.7817770433
 31
0.0
  0
SPLINE
  5
311
330
1F
100
AcDbEntity
  8
0
  6
Continuous
 62
     7
370
     0
100
AcDbSpline
210
0.0
220
0.0
230
1.0
 70
     8
 71
     3
 72
     8
 73
     4
 74
     0
 42
0.000000001
 43
0.00000001
 40
0.0
 40
0.0
 40
0.0
 40
0.0
 40
1.0
 40
1.0
 40
1.0
 40
1.0
 10
154.9683776568493
 20
153.4817788850799
 30
0.0
 10
154.9636476741135
 20
153.4817788850554
 30
0.0
 10
154.9591042124359
 20
153.5948223632546
 30
0.0
 10
154.954682706835
 20
153.7817788849231
 30
0.0
  0
LINE
  5
312
330
1F
100
AcDbEntity
  8
0
  6
Continuous
 62
     7
370
     0
100
AcDbLine
 10
154.9683776944
 20
153.4817794155
 30
0.0
 11
156.9382380954
 21
153.4817794155
 31
0.0
  0
LINE
  5
313
330
1F
100
AcDbEntity
  8
0
  6
Continuous
 62
     7
370
     0
100
AcDbLine
 10
162.9543812274
 20
156.4817780446
 30
0.0
 11
162.9543812274
 21
153.7817770433
 31
0.0
  0
LINE
  5
314
330
1F
100
AcDbEntity
  8
0
  6
Continuous
 62
     7
370
     0
100
AcDbLine
 10
154.9546825959
 20
153.7817770433
 30
0.0
 11
154.9546825959
 21
156.4817780446
 31
0.0
  0
LINE
  5
315
330
1F
100
AcDbEntity
  8
0
  6
Continuous
 62
     7
370
     0
100
AcDbLine
 10
157.1682947947
 20
148.4817804586
 30
0.0
 11
160.7682269792
 21
148.4817804586
 31
0.0
  0
LINE
  5
316
330
1F
100
AcDbEntity
  8
0
  6
Continuous
 62
     7
370
     0
100
AcDbLine
 10
157.4682834585
 20
146.4817801308
 30
0.0
 11
160.4682270231
 21
146.4817801308
 31
0.0
  0
LINE
  5
317
330
1F
100
AcDbEntity
  8
0
  6
Continuous
 62
     7
370
     0
100
AcDbLine
 10
158.9526051308
 20
148.9817777466
 30
0.0
 11
160.7682269792
 21
148.9817777466
 31
0.0
  0
LINE
  5
318
330
1F
100
AcDbEntity
  8
0
  6
Continuous
 62
     7
370
     0
100
AcDbLine
 10
157.168227041
 20
148.9817777466
 30
0.0
 11
158.9526051308
 21
148.9817777466
 31
0.0
  0
LINE
  5
319
330
1F
100
AcDbEntity
  8
0
  6
Continuous
 62
     7
370
     0
100
AcDbLine
 10
157.1682947947
 20
150.9817780744
 30
0.0
 11
160.7682269792
 21
150.9817780744
 31
0.0
  0
LINE
  5
31A
330
1F
100
AcDbEntity
  8
0
  6
Continuous
 62
     7
370
     0
100
AcDbLine
 10
158.9526051308
 20
151.4817790877
 30
0.0
 11
160.7682269792
 21
151.4817790877
 31
0.0
  0
LINE
  5
31B
330
1F
100
AcDbEntity
  8
0
  6
Continuous
 62
     7
370
     0
100
AcDbLine
 10
157.168227041
 20
151.4817790877
 30
0.0
 11
158.9526051308
 21
151.4817790877
 31
0.0
  0
LINE
  5
31C
330
1F
100
AcDbEntity
  8
0
  6
Continuous
 62
     7
370
     0
100
AcDbLine
 10
162.9817714243
 20
153.7817770433
 30
0.0
 11
162.9817714243
 21
156.4817780446
 31
0.0
  0
SPLINE
  5
31D
330
1F
100
AcDbEntity
  8
0
  6
Continuous
 62
     7
370
     0
100
AcDbSpline
210
0.0
220
0.0
230
1.0
 70
     8
 71
     3
 72
     8
 73
     4
 74
     0
 42
0.000000001
 43
0.00000001
 40
0.0
 40
0.0
 40
0.0
 40
0.0
 40
1.0
 40
1.0
 40
1.0
 40
1.0
 10
162.9680763633805
 20
153.4817788850799
 30
0.0
 10
162.9728063461142
 20
153.4817788851917
 30
0.0
 10
162.9773498077937
 20
153.5948223635393
 30
0.0
 10
162.9817713133925
 20
153.7817788851923
 30
0.0
  0
LINE
  5
31E
330
1F
100
AcDbEntity
  8
0
  6
Continuous
 62
     7
370
     0
100
AcDbLine
 10
160.7182270641
 20
220.6797579121
 30
0.0
 11
160.7182270641
 21
221.6668778848
 31
0.0
  0
LINE
  5
31F
330
1F
100
AcDbEntity
  8
0
  6
Continuous
 62
     7
370
     0
100
AcDbLine
 10
160.7182270641
 20
220.6797579121
 30
0.0
 11
156.718227107
 21
220.6797579121
 31
0.0
  0
LINE
  5
320
330
1F
100
AcDbEntity
  8
0
  6
Continuous
 62
     7
370
     0
100
AcDbLine
 10
156.718227107
 20
220.6797579121
 30
0.0
 11
156.718227107
 21
221.6668778848
 31
0.0
  0
LINE
  5
321
330
1F
100
AcDbEntity
  8
0
  6
Continuous
 62
     7
370
     0
100
AcDbLine
 10
156.718227107
 20
221.6668778848
 30
0.0
 11
155.968226984
 21
221.6668778848
 31
0.0
  0
LINE
  5
322
330
1F
100
AcDbEntity
  8
0
  6
Continuous
 62
     7
370
     0
100
AcDbLine
 10
155.968226984
 20
221.6668778848
 30
0.0
 11
155.968226984
 21
223.5611395728
 31
0.0
  0
LINE
  5
323
330
1F
100
AcDbEntity
  8
0
  6
Continuous
 62
     7
370
     0
100
AcDbLine
 10
161.4682269542
 20
223.5611395728
 30
0.0
 11
161.4682269542
 21
221.6668778848
 31
0.0
  0
LINE
  5
324
330
1F
100
AcDbEntity
  8
0
  6
Continuous
 62
     7
370
     0
100
AcDbLine
 10
161.4682269542
 20
221.6668778848
 30
0.0
 11
160.7182270641
 21
221.6668778848
 31
0.0
  0
ARC
  5
325
330
1F
100
AcDbEntity
  8
0
  6
Continuous
 62
     7
370
     0
100
AcDbCircle
 10
158.7182270273
 20
222.3015806629
 30
0.0
 40
3.473301325200899
100
AcDbArc
 50
245.325022271
 51
294.674977729
  0
LINE
  5
326
330
1F
100
AcDbEntity
  8
0
  6
Continuous
 62
     7
370
     0
100
AcDbLine
 10
161.1682269982
 20
241.3293363344
 30
0.0
 11
156.2682269401
 21
241.3293363344
 31
0.0
  0
LINE
  5
327
330
1F
100
AcDbEntity
  8
0
  6
Continuous
 62
     7
370
     0
100
AcDbLine
 10
156.2682269401
 20
241.3293363344
 30
0.0
 11
156.2682269401
 21
241.9028820288
 31
0.0
  0
LINE
  5
328
330
1F
100
AcDbEntity
  8
0
  6
Continuous
 62
     7
370
     0
100
AcDbLine
 10
156.2682269401
 20
241.9028820288
 30
0.0
 11
161.1682269982
 21
241.9028820288
 31
0.0
  0
LINE
  5
329
330
1F
100
AcDbEntity
  8
0
  6
Continuous
 62
     7
370
     0
100
AcDbLine
 10
161.1682269982
 20
241.9028820288
 30
0.0
 11
161.1682269982
 21
241.3293363344
 31
0.0
  0
LINE
  5
32A
330
1F
100
AcDbEntity
  8
0
  6
Continuous
 62
     7
370
     0
100
AcDbLine
 10
161.9682270362
 20
223.5611395728
 30
0.0
 11
161.9682270362
 21
241.3293363344
 31
0.0
  0
LINE
  5
32B
330
1F
100
AcDbEntity
  8
0
  6
Continuous
 62
     7
370
     0
100
AcDbLine
 10
161.9682270362
 20
223.5611395728
 30
0.0
 11
155.4682269021
 21
223.5611395728
 31
0.0
  0
LINE
  5
32C
330
1F
100
AcDbEntity
  8
0
  6
Continuous
 62
     7
370
     0
100
AcDbLine
 10
155.4682269021
 20
223.5611395728
 30
0.0
 11
155.4682269021
 21
241.3293363344
 31
0.0
  0
LINE
  5
32D
330
1F
100
AcDbEntity
  8
0
  6
Continuous
 62
     7
370
     0
100
AcDbLine
 10
156.2682269401
 20
241.3293363344
 30
0.0
 11
155.4682269021
 21
241.3293363344
 31
0.0
  0
LINE
  5
32E
330
1F
100
AcDbEntity
  8
0
  6
Continuous
 62
     7
370
     0
100
AcDbLine
 10
161.9682270362
 20
241.3293363344
 30
0.0
 11
161.1682269982
 21
241.3293363344
 31
0.0
  0
LINE
  5
32F
330
1F
100
AcDbEntity
  8
0
  6
Continuous
 62
     7
370
     0
100
AcDbLine
 10
161.4682269542
 20
241.4093220424
 30
0.0
 11
161.4682269542
 21
242.1291785132
 31
0.0
  0
LINE
  5
330
330
1F
100
AcDbEntity
  8
0
  6
Continuous
 62
     7
370
     0
100
AcDbLine
 10
161.4682269542
 20
242.1291785132
 30
0.0
 11
161.9682270362
 21
242.1291785132
 31
0.0
  0
LINE
  5
331
330
1F
100
AcDbEntity
  8
0
  6
Continuous
 62
     7
370
     0
100
AcDbLine
 10
161.9682270362
 20
242.1291785132
 30
0.0
 11
161.9682270362
 21
241.3293363344
 31
0.0
  0
LINE
  5
332
330
1F
100
AcDbEntity
  8
0
  6
Continuous
 62
     7
370
     0
100
AcDbLine
 10
161.1682269982
 20
241.4093220424
 30
0.0
 11
161.4682269542
 21
241.4093220424
 31
0.0
  0
LINE
  5
333
330
1F
100
AcDbEntity
  8
0
  6
Continuous
 62
     7
370
     0
100
AcDbLine
 10
155.4682269021
 20
241.3293363344
 30
0.0
 11
155.4682269021
 21
242.1291785132
 31
0.0
  0
LINE
  5
334
330
1F
100
AcDbEntity
  8
0
  6
Continuous
 62
     7
370
     0
100
AcDbLine
 10
155.968226984
 20
242.1291785132
 30
0.0
 11
155.4682269021
 21
242.1291785132
 31
0.0
  0
LINE
  5
335
330
1F
100
AcDbEntity
  8
0
  6
Continuous
 62
     7
370
     0
100
AcDbLine
 10
155.968226984
 20
242.1291785132
 30
0.0
 11
155.968226984
 21
241.4093220424
 31
0.0
  0
LINE
  5
336
330
1F
100
AcDbEntity
  8
0
  6
Continuous
 62
     7
370
     0
100
AcDbLine
 10
155.968226984
 20
241.4093220424
 30
0.0
 11
156.2682269401
 21
241.4093220424
 31
0.0
  0
LINE
  5
337
330
1F
100
AcDbEntity
  8
0
  6
Continuous
 62
     7
370
     0
100
AcDbLine
 10
161.1682269982
 20
242.6227384996
 30
0.0
 11
156.2682269401
 21
242.6227384996
 31
0.0
  0
LINE
  5
338
330
1F
100
AcDbEntity
  8
0
  6
Continuous
 62
     7
370
     0
100
AcDbLine
 10
156.2682269401
 20
242.6227384996
 30
0.0
 11
156.2682269401
 21
241.9028820288
 31
0.0
  0
LINE
  5
339
330
1F
100
AcDbEntity
  8
0
  6
Continuous
 62
     7
370
     0
100
AcDbLine
 10
161.1682269982
 20
242.6227384996
 30
0.0
 11
161.1682269982
 21
241.9028820288
 31
0.0
  0
ARC
  5
33A
330
1F
100
AcDbEntity
  8
0
  6
Continuous
 62
     7
370
     0
100
AcDbCircle
 10
156.9151831275
 20
228.1608638685
 30
0.0
 40
3.530225258246646
100
AcDbArc
 50
161.3553341609
 51
171.6291435266
  0
ARC
  5
33B
330
1F
100
AcDbEntity
  8
0
  6
Continuous
 62
     7
370
     0
100
AcDbCircle
 10
154.1028671554
 20
229.4190933745
 30
0.0
 40
0.5481868836135065
100
AcDbArc
 50
166.3223998351
 51
193.6776001649
  0
ARC
  5
33C
330
1F
100
AcDbEntity
  8
0
  6
Continuous
 62
     7
370
     0
100
AcDbCircle
 10
156.9152942267
 20
228.4200838572
 30
0.0
 40
3.53033905923959
100
AcDbArc
 50
161.3555001948
 51
171.6289774927
  0
LINE
  5
33D
330
1F
100
AcDbEntity
  8
0
  6
Continuous
 62
     7
370
     0
100
AcDbLine
 10
153.422567088
 20
228.9340400886
 30
0.0
 11
153.422567088
 21
228.8326004338
 31
0.0
  0
ARC
  5
33E
330
1F
100
AcDbEntity
  8
0
  6
Continuous
 62
     7
370
     0
100
AcDbCircle
 10
154.0747971826
 20
227.876660157
 30
0.0
 40
0.7031972655502338
100
AcDbArc
 50
143.4113337024
 51
158.0515939697
  0
LINE
  5
33F
330
1F
100
AcDbEntity
  8
0
  6
Continuous
 62
     7
370
     0
100
AcDbLine
 10
153.422567088
 20
228.1394952726
 30
0.0
 11
153.422567088
 21
227.9168309461
 31
0.0
  0
ARC
  5
340
330
1F
100
AcDbEntity
  8
0
  6
Continuous
 62
     7
370
     0
100
AcDbCircle
 10
156.903824667
 20
228.4285328075
 30
0.0
 40
3.51866354259611
100
AcDbArc
 50
188.361894315
 51
190.9847571687
  0
ARC
  5
341
330
1F
100
AcDbEntity
  8
0
  6
Continuous
 62
     7
370
     0
100
AcDbCircle
 10
156.907368184
 20
228.1699695748
 30
0.0
 40
3.522268783054728
100
AcDbArc
 50
188.3645110269
 51
195.314634479
  0
LINE
  5
342
330
1F
100
AcDbEntity
  8
0
  6
Continuous
 62
     7
370
     0
100
AcDbLine
 10
153.422567088
 20
227.657584269
 30
0.0
 11
153.422567088
 21
227.7590239238
 31
0.0
  0
ARC
  5
343
330
1F
100
AcDbEntity
  8
0
  6
Continuous
 62
     7
370
     0
100
AcDbCircle
 10
154.1307200158
 20
228.0514523939
 30
0.0
 40
0.7661559757946522
100
AcDbArc
 50
202.4379510588
 51
222.9821176935
  0
ARC
  5
344
330
1F
100
AcDbEntity
  8
0
  6
Continuous
 62
     7
370
     0
100
AcDbCircle
 10
157.4271377886
 20
227.8756627631
 30
0.0
 40
3.872449817798768
100
AcDbArc
 50
174.8656274707
 51
185.1343725293
  0
ARC
  5
345
330
1F
100
AcDbEntity
  8
0
  6
Continuous
 62
     7
370
     0
100
AcDbCircle
 10
154.1306742888
 20
228.7445329254
 30
0.0
 40
0.766105731780999
100
AcDbArc
 50
202.4378113105
 51
222.9831016879
  0
LINE
  5
346
330
1F
100
AcDbEntity
  8
0
  6
Continuous
 62
     7
370
     0
100
AcDbLine
 10
153.422567088
 20
228.4521253597
 30
0.0
 11
153.422567088
 21
228.6747934114
 31
0.0
  0
SPLINE
  5
347
330
1F
100
AcDbEntity
  8
0
  6
Continuous
 62
     7
370
     0
100
AcDbSpline
210
0.0
220
0.0
230
1.0
 70
     8
 71
     3
 72
     8
 73
     4
 74
     0
 42
0.000000001
 43
0.00000001
 40
0.0
 40
0.0
 40
0.0
 40
0.0
 40
1.0
 40
1.0
 40
1.0
 40
1.0
 10
153.4225670881168
 20
227.7590239158626
 30
0.0
 10
153.4717881520249
 20
227.7604830176853
 30
0.0
 10
153.5210079637233
 20
227.7619474017807
 30
0.0
 10
153.5702264324633
 20
227.7634174509602
 30
0.0
  0
SPLINE
  5
348
330
1F
100
AcDbEntity
  8
0
  6
Continuous
 62
     7
370
     0
100
AcDbSpline
210
0.0
220
0.0
230
1.0
 70
     8
 71
     3
 72
     8
 73
     4
 74
     0
 42
0.000000001
 43
0.00000001
 40
0.0
 40
0.0
 40
0.0
 40
0.0
 40
1.0
 40
1.0
 40
1.0
 40
1.0
 10
153.4225670881168
 20
227.9168303600119
 30
0.0
 10
153.4717881082154
 20
227.9207313233268
 30
0.0
 10
153.5210078761065
 20
227.9246464089827
 30
0.0
 10
153.5702263010417
 20
227.9285766404384
 30
0.0
  0
SPLINE
  5
349
330
1F
100
AcDbEntity
  8
0
  6
Continuous
 62
     7
370
     0
100
AcDbSpline
210
0.0
220
0.0
230
1.0
 70
     8
 71
     3
 72
     8
 73
     4
 74
     0
 42
0.000000001
 43
0.00000001
 40
0.0
 40
0.0
 40
0.0
 40
0.0
 40
1.0
 40
1.0
 40
1.0
 40
1.0
 10
153.4225670881168
 20
228.1394962432683
 30
0.0
 10
153.4717881458514
 20
228.1380371416286
 30
0.0
 10
153.5210079513766
 20
228.1365727577175
 30
0.0
 10
153.5702264139439
 20
228.1351027087238
 30
0.0
  0
LINE
  5
34A
330
1F
100
AcDbEntity
  8
0
  6
Continuous
 62
     7
370
     0
100
AcDbLine
 10
160.3682269602
 20
243.2202750634
 30
0.0
 11
157.56822706
 21
243.2202750634
 31
0.0
  0
LINE
  5
34B
330
1F
100
AcDbEntity
  8
0
  6
Continuous
 62
     7
370
     0
100
AcDbLine
 10
157.56822706
 20
242.6227384996
 30
0.0
 11
157.56822706
 21
243.2202750634
 31
0.0
  0
LINE
  5
34C
330
1F
100
AcDbEntity
  8
0
  6
Continuous
 62
     7
370
     0
100
AcDbLine
 10
160.3682269602
 20
242.6227384996
 30
0.0
 11
160.3682269602
 21
243.2202750634
 31
0.0
  0
LINE
  5
34D
330
1F
100
AcDbEntity
  8
0
  6
Continuous
 62
     7
370
     0
100
AcDbLine
 10
157.56822706
 20
244.2345673036
 30
0.0
 11
160.3682269602
 21
244.2345673036
 31
0.0
  0
LINE
  5
34E
330
1F
100
AcDbEntity
  8
0
  6
Continuous
 62
     7
370
     0
100
AcDbLine
 10
157.56822706
 20
243.2202750634
 30
0.0
 11
157.56822706
 21
244.2345673036
 31
0.0
  0
LINE
  5
34F
330
1F
100
AcDbEntity
  8
0
  6
Continuous
 62
     7
370
     0
100
AcDbLine
 10
160.3682269602
 20
244.2345673036
 30
0.0
 11
160.3682269602
 21
243.2202750634
 31
0.0
  0
LINE
  5
350
330
1F
100
AcDbEntity
  8
0
  6
Continuous
 62
     7
370
     0
100
AcDbLine
 10
160.3682269602
 20
244.3049939167
 30
0.0
 11
157.56822706
 21
244.3049939167
 31
0.0
  0
LINE
  5
351
330
1F
100
AcDbEntity
  8
0
  6
Continuous
 62
     7
370
     0
100
AcDbLine
 10
157.56822706
 20
244.2345673036
 30
0.0
 11
157.56822706
 21
244.3049939167
 31
0.0
  0
LINE
  5
352
330
1F
100
AcDbEntity
  8
0
  6
Continuous
 62
     7
370
     0
100
AcDbLine
 10
160.3682269602
 20
244.2345673036
 30
0.0
 11
160.3682269602
 21
244.3049939167
 31
0.0
  0
LINE
  5
353
330
1F
100
AcDbEntity
  8
0
  6
Continuous
 62
     8
370
     0
100
AcDbLine
 10
155.968226984
 20
220.4759808075
 30
0.0
 11
157.2682269876
 21
220.4759808075
 31
0.0
  0
LINE
  5
354
330
1F
100
AcDbEntity
  8
0
  6
Continuous
 62
     8
370
     0
100
AcDbLine
 10
160.1682270671
 20
220.4759808075
 30
0.0
 11
161.9682270362
 21
220.4759808075
 31
0.0
  0
SPLINE
  5
355
330
1F
100
AcDbEntity
  8
0
  6
Continuous
 62
     8
370
     0
100
AcDbSpline
210
0.0
220
0.0
230
1.0
 70
     8
 71
     3
 72
    12
 73
     8
 74
     0
 42
0.000000001
 43
0.00000001
 40
0.0
 40
0.0
 40
0.0
 40
0.0
 40
0.2278124087133358
 40
0.4564793607393285
 40
0.6848157379115896
 40
0.9129708018593137
 40
1.0
 40
1.0
 40
1.0
 40
1.0
 10
154.3491063899195
 20
193.4817757275038
 30
0.0
 10
154.3665908430092
 20
193.7829829672346
 30
0.0
 10
154.401625334828
 20
194.3865273001307
 30
0.0
 10
154.6729919086358
 20
195.2599938847855
 30
0.0
 10
155.107148146287
 20
196.0555767034174
 30
0.0
 10
155.5493784065372
 20
196.6340101012055
 30
0.0
 10
155.8775983516125
 20
196.8911285057406
 30
0.0
 10
155.9682269840335
 20
196.9621244635516
 30
0.0
  0
SPLINE
  5
356
330
1F
100
AcDbEntity
  8
0
  6
Continuous
 62
     8
370
     0
100
AcDbSpline
210
0.0
220
0.0
230
1.0
 70
     8
 71
     3
 72
    12
 73
     8
 74
     0
 42
0.000000001
 43
0.00000001
 40
0.0
 40
0.0
 40
0.0
 40
0.0
 40
0.0857125663213065
 40
0.3141881766324446
 40
0.5428631294726144
 40
0.7718702855399451
 40
1.0
 40
1.0
 40
1.0
 40
1.0
 10
161.9682270361876
 20
196.9633538093501
 30
0.0
 10
162.0576076678961
 20
196.8935429143012
 30
0.0
 10
162.3852415132939
 20
196.637643939788
 30
0.0
 10
162.8271265439351
 20
196.0596369944911
 30
0.0
 10
163.2622088248105
 20
195.2628746169445
 30
0.0
 10
163.5345311888447
 20
194.3880458530171
 30
0.0
 10
163.5697646925481
 20
193.7834811361477
 30
0.0
 10
163.5873476303017
 20
193.4817789871328
 30
0.0
  0
SPLINE
  5
357
330
1F
100
AcDbEntity
  8
0
  6
Continuous
 62
     8
370
     0
100
AcDbSpline
210
0.0
220
0.0
230
1.0
 70
     8
 71
     3
 72
    12
 73
     8
 74
     0
 42
0.000000001
 43
0.00000001
 40
0.0
 40
0.0
 40
0.0
 40
0.0
 40
0.1374320595095889
 40
0.3530740965146303
 40
0.5687160866095644
 40
0.7843580702639741
 40
1.0
 40
1.0
 40
1.0
 40
1.0
 10
161.9682270361876
 20
197.3524333726697
 30
0.0
 10
162.1313725129389
 20
197.2274515448198
 30
0.0
 10
162.5505064618148
 20
196.906363102237
 30
0.0
 10
163.0808184990795
 20
196.2307264854631
 30
0.0
 10
163.5400522949299
 20
195.3790398229762
 30
0.0
 10
163.8320781009528
 20
194.4482571946839
 30
0.0
 10
163.8688940028765
 20
193.8039383627993
 30
0.0
 10
163.8873019515371
 20
193.4817789871328
 30
0.0
  0
SPLINE
  5
358
330
1F
100
AcDbEntity
  8
0
  6
Continuous
 62
     8
370
     0
100
AcDbSpline
210
0.0
220
0.0
230
1.0
 70
     8
 71
     3
 72
    12
 73
     8
 74
     0
 42
0.000000001
 43
0.00000001
 40
0.0
 40
0.0
 40
0.0
 40
0.0
 40
0.2152375161137876
 40
0.4304750535830926
 40
0.6457126314537405
 40
0.8609502965698462
 40
1.0
 40
1.0
 40
1.0
 40
1.0
 10
154.049152068684
 20
193.4817789871328
 30
0.0
 10
154.0674917098801
 20
193.8033519536244
 30
0.0
 10
154.1041709940918
 20
194.4464979185135
 30
0.0
 10
154.3951566379043
 20
195.3756942582491
 30
0.0
 10
154.8527184410216
 20
196.2263077864862
 30
0.0
 10
155.3831832502378
 20
196.9033242002553
 30
0.0
 10
155.8033292654168
 20
197.2261351282556
 30
0.0
 10
155.9682269840335
 20
197.3528310474091
 30
0.0
  0
LINE
  5
359
330
1F
100
AcDbEntity
  8
0
  6
Continuous
 62
     8
370
     0
100
AcDbLine
 10
154.3632312937
 20
225.7958108377
 30
0.0
 11
154.3632312937
 21
230.7958097946
 31
0.0
  0
LINE
  5
35A
330
1F
100
AcDbEntity
  8
0
  6
Continuous
 62
     8
370
     0
100
AcDbLine
 10
154.1714230812
 20
225.8915545236
 30
0.0
 11
154.1714230812
 21
230.7000661086
 31
0.0
  0
DIMENSION
  5
35B
330
1F
100
AcDbEntity
  8
0
  6
Continuous
 62
     7
370
     0
100
AcDbDimension
  2
_D_12
 10
161.9682270101
 20
266.715982309
 30
0.0
 11
158.9682270101
 21
266.715982309
 31
0.0
 70
   160
  1
<>
 71
     2
 42
-1.0
  3
SLDDIMSTYLE0
100
AcDbAlignedDimension
 13
155.9682270101
 23
244.715982309
 33
0.0
 14
161.9682270101
 24
244.715982309
 34
0.0
 50
0.0
100
AcDbRotatedDimension
  0
DIMENSION
  5
367
330
1F
100
AcDbEntity
  8
0
  6
Continuous
 62
     7
370
     0
100
AcDbDimension
  2
_D_13
 10
165.4682270101
 20
124.4817788851
 30
0.0
 11
158.9682270101
 21
124.4817788851
 31
0.0
 70
   160
  1
<>
 71
     2
 42
-1.0
  3
SLDDIMSTYLE0
100
AcDbAlignedDimension
 13
152.4682270101
 23
172.4817788851
 33
0.0
 14
165.4682270101
 24
172.4817788851
 34
0.0
100
AcDbRotatedDimension
  0
ENDSEC
  0
SECTION
  2
OBJECTS
  0
DICTIONARY
  5
C
330
0
100
AcDbDictionary
281
     1
  3
ACAD_GROUP
350
D
  3
ACAD_LAYOUT
350
1A
  3
ACAD_MLINESTYLE
350
17
  3
ACAD_PLOTSETTINGS
350
19
  3
ACAD_PLOTSTYLENAME
350
E
  3
ACAD_SCALELIST
350
47
  0
DICTIONARY
  5
D
102
{ACAD_REACTORS
330
C
102
}
330
C
100
AcDbDictionary
281
     1
  0
DICTIONARY
  5
1A
102
{ACAD_REACTORS
330
C
102
}
330
C
100
AcDbDictionary
281
     1
  3
Layout1
350
1E
  3
Layout2
350
26
  3
Model
350
22
  0
DICTIONARY
  5
17
102
{ACAD_REACTORS
330
C
102
}
330
C
100
AcDbDictionary
281
     1
  3
Standard
350
18
  0
DICTIONARY
  5
19
102
{ACAD_REACTORS
330
C
102
}
330
C
100
AcDbDictionary
281
     1
  0
ACDBDICTIONARYWDFLT
  5
E
102
{ACAD_REACTORS
330
C
102
}
330
C
100
AcDbDictionary
281
     1
  3
Normal
350
F
100
AcDbDictionaryWithDefault
340
F
  0
DICTIONARY
  5
47
102
{ACAD_REACTORS
330
C
102
}
330
C
100
AcDbDictionary
281
     1
  3
A0
350
48
  3
A1
350
49
  3
A2
350
4A
  3
A3
350
4B
  3
A4
350
4C
  3
A5
350
4D
  3
A6
350
4E
  3
A7
350
4F
  3
A8
350
50
  3
A9
350
51
  3
B0
350
52
  3
B1
350
53
  3
B2
350
54
  3
B3
350
55
  3
B4
350
56
  3
B5
350
57
  3
B6
350
58
  3
B7
350
59
  3
B8
350
5A
  3
B9
350
5B
  3
C0
350
5C
  3
C1
350
5D
  3
C2
350
5E
  3
C3
350
5F
  3
C4
350
60
  3
C5
350
61
  3
C6
350
62
  3
C7
350
63
  3
C8
350
64
  3
C9
350
65
  3
D0
350
66
  3
D1
350
67
  3
D2
350
68
  0
LAYOUT
  5
1E
102
{ACAD_REACTORS
330
1A
102
}
330
1A
100
AcDbPlotSettings
  1

  2
none_device
  4

  6

 40
0.0
 41
0.0
 42
0.0
 43
0.0
 44
0.0
 45
0.0
 46
0.0
 47
0.0
 48
0.0
 49
0.0
140
0.0
141
0.0
142
1.0
143
1.0
 70
   688
 72
     1
 73
     0
 74
     5
  7

 75
    16
147
1.0
148
0.0
149
0.0
100
AcDbLayout
  1
Layout1
 70
     1
 71
     1
 10
0.0
 20
0.0
 11
420.0
 21
297.0
 12
0.0
 22
0.0
 32
0.0
 14
1.0000000000E+20
 24
1.0000000000E+20
 34
1.0000000000E+20
 15
-1.0000000000E+20
 25
-1.0000000000E+20
 35
-1.0000000000E+20
146
0.0
 13
0.0
 23
0.0
 33
0.0
 16
1.0
 26
0.0
 36
0.0
 17
0.0
 27
1.0
 37
0.0
 76
     0
330
1B
  0
LAYOUT
  5
26
102
{ACAD_REACTORS
330
1A
102
}
330
1A
100
AcDbPlotSettings
  1

  2
none_device
  4

  6

 40
0.0
 41
0.0
 42
0.0
 43
0.0
 44
0.0
 45
0.0
 46
0.0
 47
0.0
 48
0.0
 49
0.0
140
0.0
141
0.0
142
1.0
143
1.0
 70
   688
 72
     1
 73
     0
 74
     5
  7

 75
    16
147
1.0
148
0.0
149
0.0
100
AcDbLayout
  1
Layout2
 70
     1
 71
     2
 10
0.0
 20
0.0
 11
0.0
 21
0.0
 12
0.0
 22
0.0
 32
0.0
 14
0.0
 24
0.0
 34
0.0
 15
0.0
 25
0.0
 35
0.0
146
0.0
 13
0.0
 23
0.0
 33
0.0
 16
1.0
 26
0.0
 36
0.0
 17
0.0
 27
1.0
 37
0.0
 76
     0
330
23
  0
LAYOUT
  5
22
102
{ACAD_REACTORS
330
1A
102
}
330
1A
100
AcDbPlotSettings
  1

  2
none_device
  4
Letter_(8.50_x_11.00_Inches)
  6

 40
6.35
 41
6.35
 42
6.35000508
 43
6.35000508
 44
215.9
 45
279.4
 46
0.0
 47
0.0
 48
0.0
 49
0.0
140
0.0
141
0.0
142
1.0
143
1.0
 70
  1712
 72
     1
 73
     0
 74
     0
  7

 75
     0
147
1.0
148
0.0
149
0.0
100
AcDbLayout
  1
Model
 70
     1
 71
     0
 10
0.0
 20
0.0
 11
210.0
 21
297.0
 12
0.0
 22
0.0
 32
0.0
 14
0.0
 24
0.0
 34
0.0
 15
210.0
 25
297.0
 35
0.0
146
0.0
 13
0.0
 23
0.0
 33
0.0
 16
1.0
 26
0.0
 36
0.0
 17
0.0
 27
1.0
 37
0.0
 76
     0
330
1F
331
29
  0
MLINESTYLE
  5
18
102
{ACAD_REACTORS
330
17
102
}
330
17
100
AcDbMlineStyle
  2
Standard
 70
     0
  3

 62
   256
 51
90.0
 52
90.0
 71
     2
 49
0.5
 62
   256
  6
BYLAYER
 49
-0.5
 62
   256
  6
BYLAYER
  0
ACDBPLACEHOLDER
  5
F
102
{ACAD_REACTORS
330
E
102
}
330
E
  0
SCALE
  5
48
102
{ACAD_REACTORS
330
47
102
}
330
47
100
AcDbScale
 70
     0
300
1:1
140
1.0
141
1.0
290
     1
  0
SCALE
  5
49
102
{ACAD_REACTORS
330
47
102
}
330
47
100
AcDbScale
 70
     0
300
1:2
140
1.0
141
2.0
290
     0
  0
SCALE
  5
4A
102
{ACAD_REACTORS
330
47
102
}
330
47
100
AcDbScale
 70
     0
300
1:4
140
1.0
141
4.0
290
     0
  0
SCALE
  5
4B
102
{ACAD_REACTORS
330
47
102
}
330
47
100
AcDbScale
 70
     0
300
1:5
140
1.0
141
5.0
290
     0
  0
SCALE
  5
4C
102
{ACAD_REACTORS
330
47
102
}
330
47
100
AcDbScale
 70
     0
300
1:8
140
1.0
141
8.0
290
     0
  0
SCALE
  5
4D
102
{ACAD_REACTORS
330
47
102
}
330
47
100
AcDbScale
 70
     0
300
1:10
140
1.0
141
10.0
290
     0
  0
SCALE
  5
4E
102
{ACAD_REACTORS
330
47
102
}
330
47
100
AcDbScale
 70
     0
300
1:16
140
1.0
141
16.0
290
     0
  0
SCALE
  5
4F
102
{ACAD_REACTORS
330
47
102
}
330
47
100
AcDbScale
 70
     0
300
1:20
140
1.0
141
20.0
290
     0
  0
SCALE
  5
50
102
{ACAD_REACTORS
330
47
102
}
330
47
100
AcDbScale
 70
     0
300
1:30
140
1.0
141
30.0
290
     0
  0
SCALE
  5
51
102
{ACAD_REACTORS
330
47
102
}
330
47
100
AcDbScale
 70
     0
300
1:40
140
1.0
141
40.0
290
     0
  0
SCALE
  5
52
102
{ACAD_REACTORS
330
47
102
}
330
47
100
AcDbScale
 70
     0
300
1:50
140
1.0
141
50.0
290
     0
  0
SCALE
  5
53
102
{ACAD_REACTORS
330
47
102
}
330
47
100
AcDbScale
 70
     0
300
1:100
140
1.0
141
100.0
290
     0
  0
SCALE
  5
54
102
{ACAD_REACTORS
330
47
102
}
330
47
100
AcDbScale
 70
     0
300
2:1
140
2.0
141
1.0
290
     0
  0
SCALE
  5
55
102
{ACAD_REACTORS
330
47
102
}
330
47
100
AcDbScale
 70
     0
300
4:1
140
4.0
141
1.0
290
     0
  0
SCALE
  5
56
102
{ACAD_REACTORS
330
47
102
}
330
47
100
AcDbScale
 70
     0
300
8:1
140
8.0
141
1.0
290
     0
  0
SCALE
  5
57
102
{ACAD_REACTORS
330
47
102
}
330
47
100
AcDbScale
 70
     0
300
10:1
140
10.0
141
1.0
290
     0
  0
SCALE
  5
58
102
{ACAD_REACTORS
330
47
102
}
330
47
100
AcDbScale
 70
     0
300
100:1
140
100.0
141
1.0
290
     0
  0
SCALE
  5
59
102
{ACAD_REACTORS
330
47
102
}
330
47
100
AcDbScale
 70
     0
300
1/128" = 1'-0"
140
0.0078125
141
12.0
290
     0
  0
SCALE
  5
5A
102
{ACAD_REACTORS
330
47
102
}
330
47
100
AcDbScale
 70
     0
300
1/64" = 1'-0"
140
0.015625
141
12.0
290
     0
  0
SCALE
  5
5B
102
{ACAD_REACTORS
330
47
102
}
330
47
100
AcDbScale
 70
     0
300
1/32" = 1'-0"
140
0.03125
141
12.0
290
     0
  0
SCALE
  5
5C
102
{ACAD_REACTORS
330
47
102
}
330
47
100
AcDbScale
 70
     0
300
1/16" = 1'-0"
140
0.0625
141
12.0
290
     0
  0
SCALE
  5
5D
102
{ACAD_REACTORS
330
47
102
}
330
47
100
AcDbScale
 70
     0
300
3/32" = 1'-0"
140
0.09375
141
12.0
290
     0
  0
SCALE
  5
5E
102
{ACAD_REACTORS
330
47
102
}
330
47
100
AcDbScale
 70
     0
300
1/8" = 1'-0"
140
0.125
141
12.0
290
     0
  0
SCALE
  5
5F
102
{ACAD_REACTORS
330
47
102
}
330
47
100
AcDbScale
 70
     0
300
3/16" = 1'-0"
140
0.1875
141
12.0
290
     0
  0
SCALE
  5
60
102
{ACAD_REACTORS
330
47
102
}
330
47
100
AcDbScale
 70
     0
300
1/4" = 1'-0"
140
0.25
141
12.0
290
     0
  0
SCALE
  5
61
102
{ACAD_REACTORS
330
47
102
}
330
47
100
AcDbScale
 70
     0
300
3/8" = 1'-0"
140
0.375
141
12.0
290
     0
  0
SCALE
  5
62
102
{ACAD_REACTORS
330
47
102
}
330
47
100
AcDbScale
 70
     0
300
1/2" = 1'-0"
140
0.5
141
12.0
290
     0
  0
SCALE
  5
63
102
{ACAD_REACTORS
330
47
102
}
330
47
100
AcDbScale
 70
     0
300
3/4" = 1'-0"
140
0.75
141
12.0
290
     0
  0
SCALE
  5
64
102
{ACAD_REACTORS
330
47
102
}
330
47
100
AcDbScale
 70
     0
300
1" = 1'-0"
140
1.0
141
12.0
290
     0
  0
SCALE
  5
65
102
{ACAD_REACTORS
330
47
102
}
330
47
100
AcDbScale
 70
     0
300
1-1/2" = 1'-0"
140
1.5
141
12.0
290
     0
  0
SCALE
  5
66
102
{ACAD_REACTORS
330
47
102
}
330
47
100
AcDbScale
 70
     0
300
3" = 1'-0"
140
3.0
141
12.0
290
     0
  0
SCALE
  5
67
102
{ACAD_REACTORS
330
47
102
}
330
47
100
AcDbScale
 70
     0
300
6" = 1'-0"
140
6.0
141
12.0
290
     0
  0
SCALE
  5
68
102
{ACAD_REACTORS
330
47
102
}
330
47
100
AcDbScale
 70
     0
300
1'-0" = 1'-0"
140
12.0
141
12.0
290
     0
  0
ENDSEC
  0
EOF
