  0
SECTION
  2
HEADER
  9
$ACADVER
  1
AC1015
  9
$ACADMAINTVER
 70
     6
  9
$DWGCODEPAGE
  3
DOS932
  9
$INSBASE
 10
0.0
 20
0.0
 30
0.0
  9
$EXTMIN
 10
0.0
 20
0.0
 30
0.0
  9
$EXTMAX
 10
210.0
 20
297.0
 30
0.0
  9
$LIMMIN
 10
0.0
 20
0.0
  9
$LIMMAX
 10
0.0
 20
0.0
  9
$ORTHOMODE
 70
     0
  9
$REGENMODE
 70
     1
  9
$FILLMODE
 70
     1
  9
$QTEXTMODE
 70
     0
  9
$MIRRTEXT
 70
     1
  9
$LTSCALE
 40
1.0
  9
$ATTMODE
 70
     1
  9
$TEXTSIZE
 40
3.5
  9
$TRACEWID
 40
1.0
  9
$TEXTSTYLE
  7
Standard
  9
$CLAYER
  8
0
  9
$CELTYPE
  6
ByLayer
  9
$CECOLOR
 62
   256
  9
$CELTSCALE
 40
1.0
  9
$DISPSILH
 70
     0
  9
$DIMSCALE
 40
1.0
  9
$DIMASZ
 40
3.0
  9
$DIMEXO
 40
1.0
  9
$DIMDLI
 40
3.75
  9
$DIMRND
 40
0.0
  9
$DIMDLE
 40
0.0
  9
$DIMEXE
 40
1.0
  9
$DIMTP
 40
0.0
  9
$DIMTM
 40
0.0
  9
$DIMTXT
 40
1.1
  9
$DIMCEN
 40
2.5
  9
$DIMTSZ
 40
0.0
  9
$DIMTOL
 70
     0
  9
$DIMLIM
 70
     0
  9
$DIMTIH
 70
     1
  9
$DIMTOH
 70
     1
  9
$DIMSE1
 70
     0
  9
$DIMSE2
 70
     0
  9
$DIMTAD
 70
     1
  9
$DIMZIN
 70
     1
  9
$DIMBLK
  1

  9
$DIMASO
 70
     1
  9
$DIMSHO
 70
     1
  9
$DIMPOST
  1

  9
$DIMAPOST
  1

  9
$DIMALT
 70
     0
  9
$DIMALTD
 70
     3
  9
$DIMALTF
 40
0.0393700787
  9
$DIMLFAC
 40
1.0
  9
$DIMTOFL
 70
     1
  9
$DIMTVP
 40
0.0
  9
$DIMTIX
 70
     0
  9
$DIMSOXD
 70
     0
  9
$DIMSAH
 70
     0
  9
$DIMBLK1
  1

  9
$DIMBLK2
  1

  9
$DIMSTYLE
  2
ISO-25
  9
$DIMCLRD
 70
     0
  9
$DIMCLRE
 70
     0
  9
$DIMCLRT
 70
     0
  9
$DIMTFAC
 40
1.0
  9
$DIMGAP
 40
1.524
  9
$DIMJUST
 70
     0
  9
$DIMSD1
 70
     0
  9
$DIMSD2
 70
     0
  9
$DIMTOLJ
 70
     0
  9
$DIMTZIN
 70
     1
  9
$DIMALTZ
 70
     0
  9
$DIMALTTZ
 70
     0
  9
$DIMUPT
 70
     0
  9
$DIMDEC
 70
     2
  9
$DIMTDEC
 70
     2
  9
$DIMALTU
 70
     2
  9
$DIMALTTD
 70
     3
  9
$DIMTXSTY
  7
Standard
  9
$DIMAUNIT
 70
     0
  9
$DIMADEC
 70
     0
  9
$DIMALTRND
 40
0.0
  9
$DIMAZIN
 70
     0
  9
$DIMDSEP
 70
    44
  9
$DIMATFIT
 70
     3
  9
$DIMFRAC
 70
     0
  9
$DIMLDRBLK
  1

  9
$DIMLUNIT
 70
     2
  9
$DIMLWD
 70
    -2
  9
$DIMLWE
 70
    -2
  9
$DIMTMOVE
 70
     0
  9
$LUNITS
 70
     2
  9
$LUPREC
 70
     2
  9
$SKETCHINC
 40
1.0
  9
$FILLETRAD
 40
10.0
  9
$AUNITS
 70
     0
  9
$AUPREC
 70
     0
  9
$MENU
  1
.
  9
$ELEVATION
 40
0.0
  9
$PELEVATION
 40
0.0
  9
$THICKNESS
 40
0.0
  9
$LIMCHECK
 70
     0
  9
$CHAMFERA
 40
10.0
  9
$CHAMFERB
 40
10.0
  9
$CHAMFERC
 40
20.0
  9
$CHAMFERD
 40
0.0
  9
$SKPOLY
 70
     0
  9
$TDCREATE
 40
2454389.496050706
  9
$TDUCREATE
 40
2454389.121050706
  9
$TDUPDATE
 40
2454389.496050718
  9
$TDUUPDATE
 40
2454389.121050718
  9
$TDINDWG
 40
0.0000000116
  9
$TDUSRTIMER
 40
0.0000000116
  9
$USRTIMER
 70
     1
  9
$ANGBASE
 50
0.0
  9
$ANGDIR
 70
     0
  9
$PDMODE
 70
     0
  9
$PDSIZE
 40
-1.0
  9
$PLINEWID
 40
0.0
  9
$SPLFRAME
 70
     0
  9
$SPLINETYPE
 70
     6
  9
$SPLINESEGS
 70
     8
  9
$HANDSEED
  5
16E
  9
$SURFTAB1
 70
     6
  9
$SURFTAB2
 70
     6
  9
$SURFTYPE
 70
     6
  9
$SURFU
 70
     6
  9
$SURFV
 70
     6
  9
$UCSBASE
  2

  9
$UCSNAME
  2

  9
$UCSORG
 10
0.0
 20
0.0
 30
0.0
  9
$UCSXDIR
 10
1.0
 20
0.0
 30
0.0
  9
$UCSYDIR
 10
0.0
 20
1.0
 30
0.0
  9
$UCSORTHOREF
  2

  9
$UCSORTHOVIEW
 70
     0
  9
$UCSORGTOP
 10
0.0
 20
0.0
 30
0.0
  9
$UCSORGBOTTOM
 10
0.0
 20
0.0
 30
0.0
  9
$UCSORGLEFT
 10
0.0
 20
0.0
 30
0.0
  9
$UCSORGRIGHT
 10
0.0
 20
0.0
 30
0.0
  9
$UCSORGFRONT
 10
0.0
 20
0.0
 30
0.0
  9
$UCSORGBACK
 10
0.0
 20
0.0
 30
0.0
  9
$PUCSBASE
  2

  9
$PUCSNAME
  2

  9
$PUCSORG
 10
0.0
 20
0.0
 30
0.0
  9
$PUCSXDIR
 10
1.0
 20
0.0
 30
0.0
  9
$PUCSYDIR
 10
0.0
 20
1.0
 30
0.0
  9
$PUCSORTHOREF
  2

  9
$PUCSORTHOVIEW
 70
     0
  9
$PUCSORGTOP
 10
0.0
 20
0.0
 30
0.0
  9
$PUCSORGBOTTOM
 10
0.0
 20
0.0
 30
0.0
  9
$PUCSORGLEFT
 10
0.0
 20
0.0
 30
0.0
  9
$PUCSORGRIGHT
 10
0.0
 20
0.0
 30
0.0
  9
$PUCSORGFRONT
 10
0.0
 20
0.0
 30
0.0
  9
$PUCSORGBACK
 10
0.0
 20
0.0
 30
0.0
  9
$USERI1
 70
     0
  9
$USERI2
 70
     0
  9
$USERI3
 70
     0
  9
$USERI4
 70
     0
  9
$USERI5
 70
     0
  9
$USERR1
 40
0.0
  9
$USERR2
 40
0.0
  9
$USERR3
 40
0.0
  9
$USERR4
 40
0.0
  9
$USERR5
 40
0.0
  9
$WORLDVIEW
 70
     1
  9
$SHADEDGE
 70
     3
  9
$SHADEDIF
 70
    70
  9
$TILEMODE
 70
     1
  9
$MAXACTVP
 70
    64
  9
$PINSBASE
 10
0.0
 20
0.0
 30
0.0
  9
$PLIMCHECK
 70
     0
  9
$PEXTMIN
 10
1.0000000000E+20
 20
1.0000000000E+20
 30
1.0000000000E+20
  9
$PEXTMAX
 10
-1.0000000000E+20
 20
-1.0000000000E+20
 30
-1.0000000000E+20
  9
$PLIMMIN
 10
0.0
 20
0.0
  9
$PLIMMAX
 10
420.0
 20
297.0
  9
$UNITMODE
 70
     0
  9
$VISRETAIN
 70
     1
  9
$PLINEGEN
 70
     0
  9
$PSLTSCALE
 70
     1
  9
$TREEDEPTH
 70
  3020
  9
$CMLSTYLE
  2
Standard
  9
$CMLJUST
 70
     0
  9
$CMLSCALE
 40
20.0
  9
$PROXYGRAPHICS
 70
     1
  9
$MEASUREMENT
 70
     1
  9
$CELWEIGHT
370
    -1
  9
$ENDCAPS
280
     0
  9
$JOINSTYLE
280
     0
  9
$LWDISPLAY
290
     1
  9
$INSUNITS
 70
     4
  9
$HYPERLINKBASE
  1

  9
$STYLESHEET
  1

  9
$XEDIT
290
     1
  9
$CEPSNTYPE
380
     0
  9
$PSTYLEMODE
290
     1
  9
$FINGERPRINTGUID
  2
{F12640F4-D8A8-40BC-9BAB-12E0D9800D2B}
  9
$VERSIONGUID
  2
{FAEB1C32-E019-11D5-929B-00C0DF256EC4}
  9
$EXTNAMES
290
     1
  9
$PSVPSCALE
 40
0.0
  9
$OLESTARTUP
290
     0
  0
ENDSEC
  0
SECTION
  2
CLASSES
  0
CLASS
  1
ACDBDICTIONARYWDFLT
  2
AcDbDictionaryWithDefault
  3
ObjectDBX Classes
 90
        0
280
     0
281
     0
  0
CLASS
  1
ACDBPLACEHOLDER
  2
AcDbPlaceHolder
  3
ObjectDBX Classes
 90
        0
280
     0
281
     0
  0
CLASS
  1
LAYOUT
  2
AcDbLayout
  3
ObjectDBX Classes
 90
        0
280
     0
281
     0
  0
ENDSEC
  0
SECTION
  2
TABLES
  0
TABLE
  2
VPORT
  5
8
330
0
100
AcDbSymbolTable
 70
     1
  0
VPORT
  5
29
330
8
100
AcDbSymbolTableRecord
100
AcDbViewportTableRecord
  2
*Active
 70
     0
 10
0.0
 20
0.0
 11
1.0
 21
1.0
 12
105.0
 22
148.5
 13
0.0
 23
0.0
 14
10.0
 24
10.0
 15
10.0
 25
10.0
 16
0.0
 26
0.0
 36
1.0
 17
0.0
 27
0.0
 37
0.0
 40
297.0
 41
1.9729729729
 42
50.0
 43
0.0
 44
0.0
 50
0.0
 51
0.0
 71
     0
 72
  2000
 73
     1
 74
     3
 75
     0
 76
     0
 77
     0
 78
     0
281
     0
 65
     1
110
0.0
120
0.0
130
0.0
111
1.0
121
0.0
131
0.0
112
0.0
122
1.0
132
0.0
 79
     0
146
0.0
  0
ENDTAB
  0
TABLE
  2
LTYPE
  5
5
330
0
100
AcDbSymbolTable
 70
     6
  0
LTYPE
  5
14
330
5
100
AcDbSymbolTableRecord
100
AcDbLinetypeTableRecord
  2
ByBlock
 70
     0
  3

 72
    65
 73
     0
 40
0.0
  0
LTYPE
  5
15
330
5
100
AcDbSymbolTableRecord
100
AcDbLinetypeTableRecord
  2
ByLayer
 70
     0
  3

 72
    65
 73
     0
 40
0.0
  0
LTYPE
  5
16
330
5
100
AcDbSymbolTableRecord
100
AcDbLinetypeTableRecord
  2
Continuous
 70
     0
  3
Solid line
 72
    65
 73
     0
 40
0.0
  0
LTYPE
  5
2A
330
5
100
AcDbSymbolTableRecord
100
AcDbLinetypeTableRecord
  2
HIDDEN
 70
     0
  3
Hidden __ __ __ __ __ __ __ __ __ __ __ __ __ __
 72
    65
 73
     2
 40
1.905
 49
1.27
 74
     0
 49
-0.635
 74
     0
  0
LTYPE
  5
2B
330
5
100
AcDbSymbolTableRecord
100
AcDbLinetypeTableRecord
  2
PHANTOM
 70
     0
  3
Phantom ______  __  __  ______  __  __  ______
 72
    65
 73
     6
 40
12.7
 49
6.35
 74
     0
 49
-1.27
 74
     0
 49
1.27
 74
     0
 49
-1.27
 74
     0
 49
1.27
 74
     0
 49
-1.27
 74
     0
  0
LTYPE
  5
2C
330
5
100
AcDbSymbolTableRecord
100
AcDbLinetypeTableRecord
  2
CENTER
 70
     0
  3
Center ____ _ ____ _ ____ _ ____ _ ____ _ ____
 72
    65
 73
     4
 40
10.16
 49
6.35
 74
     0
 49
-1.27
 74
     0
 49
1.27
 74
     0
 49
-1.27
 74
     0
  0
LTYPE
  5
2D
330
5
100
AcDbSymbolTableRecord
100
AcDbLinetypeTableRecord
  2
CENTERX2
 70
     0
  3
Center (2x) ________  __  ________  __  _____
 72
    65
 73
     4
 40
20.32
 49
12.7
 74
     0
 49
-2.54
 74
     0
 49
2.54
 74
     0
 49
-2.54
 74
     0
  0
LTYPE
  5
2E
330
5
100
AcDbSymbolTableRecord
100
AcDbLinetypeTableRecord
  2
DOT2
 70
     0
  3
Dot (.5x) ........................................
 72
    65
 73
     2
 40
0.635
 49
0.0
 74
     0
 49
-0.635
 74
     0
  0
ENDTAB
  0
TABLE
  2
LAYER
  5
2
330
0
100
AcDbSymbolTable
 70
    14
  0
LAYER
  5
10
330
2
100
AcDbSymbolTableRecord
100
AcDbLayerTableRecord
  2
0
 70
     0
 62
     7
  6
Continuous
370
    -3
390
F
  0
LAYER
  5
2F
330
2
100
AcDbSymbolTableRecord
100
AcDbLayerTableRecord
  2
SLD-0_0
 70
     0
 62
     7
  6
Continuous
370
     0
390
F
  0
LAYER
  5
30
330
2
100
AcDbSymbolTableRecord
100
AcDbLayerTableRecord
  2
SLD-0
 70
     0
 62
     7
  6
Continuous
370
     0
390
F
  0
LAYER
  5
31
330
2
100
AcDbSymbolTableRecord
100
AcDbLayerTableRecord
  2
Z_OM_GAIKEI
 70
     0
 62
     7
  6
Continuous
370
     0
390
F
  0
LAYER
  5
32
330
2
100
AcDbSymbolTableRecord
100
AcDbLayerTableRecord
  2
Z_OM_MOUNT
 70
     0
 62
     7
  6
Continuous
370
     0
390
F
  0
LAYER
  5
33
330
2
100
AcDbSymbolTableRecord
100
AcDbLayerTableRecord
  2
Z_OM_NOTE
 70
     0
 62
     4
  6
Continuous
370
     0
390
F
  0
LAYER
  5
34
330
2
100
AcDbSymbolTableRecord
100
AcDbLayerTableRecord
  2
Z_OM_CENTER
 70
     0
 62
     2
  6
CENTER
370
     0
390
F
  0
LAYER
  5
35
330
2
100
AcDbSymbolTableRecord
100
AcDbLayerTableRecord
  2
Z_OM_DIM
 70
     0
 62
     4
  6
Continuous
370
     0
390
F
  0
LAYER
  5
36
330
2
100
AcDbSymbolTableRecord
100
AcDbLayerTableRecord
  2
Z_OM_PHANTOM
 70
     0
 62
     3
  6
PHANTOM
370
     0
390
F
  0
LAYER
  5
37
330
2
100
AcDbSymbolTableRecord
100
AcDbLayerTableRecord
  2
Z_OM_DASHED
 70
     0
 62
     2
  6
HIDDEN
370
     0
390
F
  0
LAYER
  5
38
330
2
100
AcDbSymbolTableRecord
100
AcDbLayerTableRecord
  2
Z_OM_BRACKET
 70
     0
 62
     3
  6
Continuous
370
     0
390
F
  0
LAYER
  5
39
330
2
100
AcDbSymbolTableRecord
100
AcDbLayerTableRecord
  2
SLD-DEFPOINTS
 70
     0
 62
     7
  6
Continuous
370
     0
390
F
  0
LAYER
  5
3A
330
2
100
AcDbSymbolTableRecord
100
AcDbLayerTableRecord
  2
SLD-DEFPOINTS_0
 70
     0
 62
     7
  6
Continuous
370
     0
390
F
  0
LAYER
  5
7F
330
2
100
AcDbSymbolTableRecord
100
AcDbLayerTableRecord
  2
Defpoints
 70
     0
 62
     7
  6
Continuous
290
     0
370
    -3
390
F
  0
ENDTAB
  0
TABLE
  2
STYLE
  5
3
330
0
100
AcDbSymbolTable
 70
     6
  0
STYLE
  5
11
330
3
100
AcDbSymbolTableRecord
100
AcDbTextStyleTableRecord
  2
Standard
 70
     0
 40
0.0
 41
1.0
 50
0.0
 71
     0
 42
2.5
  3
txt
  4
bigfont
  0
STYLE
  5
3E
330
3
100
AcDbSymbolTableRecord
100
AcDbTextStyleTableRecord
  2
SLDTEXTSTYLE0
 70
     0
 40
0.0
 41
0.7
 50
0.0
 71
     0
 42
0.2
  3
TXT
  4
bigfont
  0
STYLE
  5
8C
330
3
100
AcDbSymbolTableRecord
100
AcDbTextStyleTableRecord
  2
SLDTEXTSTYLE1
 70
     0
 40
0.0
 41
1.08
 50
0.0
 71
     0
 42
0.2
  3
TXT
  4
bigfont
  0
STYLE
  5
9A
330
3
100
AcDbSymbolTableRecord
100
AcDbTextStyleTableRecord
  2
SLDTEXTSTYLE2
 70
     0
 40
0.0
 41
0.96
 50
0.0
 71
     0
 42
0.2
  3
TXT
  4
bigfont
  0
STYLE
  5
163
330
3
100
AcDbSymbolTableRecord
100
AcDbTextStyleTableRecord
  2
SLDTEXTSTYLE3
 70
     0
 40
0.0
 41
0.7994686387
 50
0.0
 71
     0
 42
0.2
  3
TXT
  4
bigfont
  0
STYLE
  5
166
330
3
100
AcDbSymbolTableRecord
100
AcDbTextStyleTableRecord
  2
SLDTEXTSTYLE4
 70
     0
 40
0.0
 41
0.8490269922
 50
0.0
 71
     0
 42
0.2
  3
TXT
  4
bigfont
  0
ENDTAB
  0
TABLE
  2
VIEW
  5
6
330
0
100
AcDbSymbolTable
 70
     0
  0
ENDTAB
  0
TABLE
  2
UCS
  5
7
330
0
100
AcDbSymbolTable
 70
     0
  0
ENDTAB
  0
TABLE
  2
APPID
  5
9
330
0
100
AcDbSymbolTable
 70
     1
  0
APPID
  5
12
330
9
100
AcDbSymbolTableRecord
100
AcDbRegAppTableRecord
  2
ACAD
 70
     0
  0
ENDTAB
  0
TABLE
  2
DIMSTYLE
  5
A
330
0
100
AcDbSymbolTable
 70
     4
100
AcDbDimStyleTable
  0
DIMSTYLE
105
27
330
A
100
AcDbSymbolTableRecord
100
AcDbDimStyleTableRecord
  2
ISO-25
 70
     0
 41
2.5
 42
0.625
 43
3.75
 44
1.25
 73
     0
 74
     0
 77
     1
 78
     8
140
2.5
141
2.5
143
0.0393700787
147
0.625
171
     3
172
     1
271
     2
272
     2
274
     3
278
    44
283
     0
284
     8
340
11
  0
DIMSTYLE
105
8D
102
{ACAD_REACTORS
330
7E
330
9C
330
B3
330
CA
330
E1
330
118
102
}
330
A
100
AcDbSymbolTableRecord
100
AcDbDimStyleTableRecord
  2
SLDDIMSTYLE0
 70
     0
 41
3.0
 44
0.0
 73
     0
 74
     0
 77
     3
 78
    12
140
1.1
147
0.275
173
     1
271
     0
272
     2
284
    12
340
8C
341
8E
343
8E
344
8E
  0
DIMSTYLE
105
10B
102
{ACAD_REACTORS
330
FC
330
133
102
}
330
A
100
AcDbSymbolTableRecord
100
AcDbDimStyleTableRecord
  2
SLDDIMSTYLE1
 70
     0
 41
3.0
 44
0.0
 73
     0
 74
     0
 77
     3
 78
    12
140
1.1
147
0.275
173
     1
271
     1
272
     2
284
    12
340
8C
341
8E
343
8E
344
8E
  0
DIMSTYLE
105
158
102
{ACAD_REACTORS
330
14E
102
}
330
A
100
AcDbSymbolTableRecord
100
AcDbDimStyleTableRecord
  2
SLDDIMSTYLE2
 70
     0
 41
3.0
 44
0.0
 78
    12
140
1.1
147
0.275
172
     1
173
     1
271
     0
272
     2
284
    12
340
8C
341
8E
343
8E
344
8E
  0
ENDTAB
  0
TABLE
  2
BLOCK_RECORD
  5
1
330
0
100
AcDbSymbolTable
 70
    13
  0
BLOCK_RECORD
  5
1F
330
1
100
AcDbSymbolTableRecord
100
AcDbBlockTableRecord
  2
*Model_Space
340
22
  0
BLOCK_RECORD
  5
1B
330
1
100
AcDbSymbolTableRecord
100
AcDbBlockTableRecord
  2
*Paper_Space
340
1E
  0
BLOCK_RECORD
  5
23
330
1
100
AcDbSymbolTableRecord
100
AcDbBlockTableRecord
  2
*Paper_Space0
340
26
  0
BLOCK_RECORD
  5
3B
330
1
100
AcDbSymbolTableRecord
100
AcDbBlockTableRecord
  2
注記
340
0
  0
BLOCK_RECORD
  5
41
330
1
100
AcDbSymbolTableRecord
100
AcDbBlockTableRecord
  2
_OPEN30
340
0
102
{BLKREFS
331
16C
331
16D
102
}
  0
BLOCK_RECORD
  5
80
330
1
100
AcDbSymbolTableRecord
100
AcDbBlockTableRecord
  2
*D3
340
0
  0
BLOCK_RECORD
  5
8E
330
1
100
AcDbSymbolTableRecord
100
AcDbBlockTableRecord
  2
_None
340
0
102
{BLKREFS
331
85
331
84
331
A2
331
A1
331
B9
331
B8
331
D0
331
CF
331
E8
331
E7
331
103
331
102
331
120
331
11F
331
13A
331
139
331
153
102
}
  0
BLOCK_RECORD
  5
9D
330
1
100
AcDbSymbolTableRecord
100
AcDbBlockTableRecord
  2
*D5
340
0
  0
BLOCK_RECORD
  5
B4
330
1
100
AcDbSymbolTableRecord
100
AcDbBlockTableRecord
  2
*D6
340
0
  0
BLOCK_RECORD
  5
CB
330
1
100
AcDbSymbolTableRecord
100
AcDbBlockTableRecord
  2
*D7
340
0
  0
BLOCK_RECORD
  5
E2
330
1
100
AcDbSymbolTableRecord
100
AcDbBlockTableRecord
  2
*D8
340
0
  0
BLOCK_RECORD
  5
FD
330
1
100
AcDbSymbolTableRecord
100
AcDbBlockTableRecord
  2
*D9
340
0
  0
BLOCK_RECORD
  5
119
330
1
100
AcDbSymbolTableRecord
100
AcDbBlockTableRecord
  2
*D10
340
0
  0
BLOCK_RECORD
  5
134
330
1
100
AcDbSymbolTableRecord
100
AcDbBlockTableRecord
  2
*D11
340
0
  0
BLOCK_RECORD
  5
14F
330
1
100
AcDbSymbolTableRecord
100
AcDbBlockTableRecord
  2
*D12
340
0
  0
ENDTAB
  0
ENDSEC
  0
SECTION
  2
BLOCKS
  0
BLOCK
  5
20
330
1F
100
AcDbEntity
  8
0
100
AcDbBlockBegin
  2
*Model_Space
 70
     0
 71
     0
 10
0.0
 20
0.0
 30
0.0
  3
*Model_Space
  1

  0
ENDBLK
  5
21
330
1F
100
AcDbEntity
  8
0
100
AcDbBlockEnd
  0
BLOCK
  5
1C
330
1B
100
AcDbEntity
 67
     1
  8
0
100
AcDbBlockBegin
  2
*Paper_Space
 70
     0
 71
     0
 10
0.0
 20
0.0
 30
0.0
  3
*Paper_Space
  1

  0
ENDBLK
  5
1D
330
1B
100
AcDbEntity
 67
     1
  8
0
100
AcDbBlockEnd
  0
BLOCK
  5
24
330
23
100
AcDbEntity
  8
0
100
AcDbBlockBegin
  2
*Paper_Space0
 70
     0
 71
     0
 10
0.0
 20
0.0
 30
0.0
  3
*Paper_Space0
  1

  0
ENDBLK
  5
25
330
23
100
AcDbEntity
  8
0
100
AcDbBlockEnd
  0
BLOCK
  5
3C
330
3B
100
AcDbEntity
  8
0
100
AcDbBlockBegin
  2
注記
 70
     0
 71
     0
 10
0.0
 20
0.0
 30
0.0
  3
注記
  1

  0
MTEXT
  5
3F
330
3B
100
AcDbEntity
  8
0
  6
Continuous
 62
     7
370
     0
100
AcDbMText
 10
0.2636785918
 20
9.0739778448
 30
0.0
 40
3.5
 41
0.0
 71
     1
 72
     1
  1
１．特記ナキ角部ハ、バリ　カエリノ無キコト。
  7
SLDTEXTSTYLE0
 73
     1
 44
1.0
  0
MTEXT
  5
40
330
3B
100
AcDbEntity
  8
0
  6
Continuous
 62
     7
370
     0
100
AcDbMText
 10
0.2636785918
 20
3.5759549983
 30
0.0
 40
3.5
 41
0.0
 71
     1
 72
     1
  1
２．特記ナキ隅部ハ、Ｒ０．４ＭＡＸトスル。
  7
SLDTEXTSTYLE0
 73
     1
 44
1.0
  0
ENDBLK
  5
3D
330
3B
100
AcDbEntity
  8
0
100
AcDbBlockEnd
  0
BLOCK
  5
42
330
41
100
AcDbEntity
  8
0
100
AcDbBlockBegin
  2
_OPEN30
 70
     0
 71
     0
 10
0.0
 20
0.0
 30
0.0
  3
_OPEN30
  1

  0
LINE
  5
44
330
41
100
AcDbEntity
  8
Z_OM_NOTE
  6
Continuous
 62
     4
370
     0
100
AcDbLine
 10
-1.0
 20
0.26794919
 30
0.0
 11
0.0
 21
0.0
 31
0.0
  0
LINE
  5
45
330
41
100
AcDbEntity
  8
Z_OM_NOTE
  6
Continuous
 62
     4
370
     0
100
AcDbLine
 10
0.0
 20
0.0
 30
0.0
 11
-1.0
 21
-0.26794919
 31
0.0
  0
LINE
  5
46
330
41
100
AcDbEntity
  8
Z_OM_NOTE
  6
Continuous
 62
     4
370
     0
100
AcDbLine
 10
0.0
 20
0.0
 30
0.0
 11
-1.0
 21
0.0
 31
0.0
  0
ENDBLK
  5
43
330
41
100
AcDbEntity
  8
0
100
AcDbBlockEnd
  0
BLOCK
  5
8A
330
80
100
AcDbEntity
  8
0
100
AcDbBlockBegin
  2
*D3
 70
     1
 71
     0
 10
0.0
 20
0.0
 30
0.0
  3
*D3
  1

  0
LINE
  5
91
330
80
100
AcDbEntity
  8
Z_OM_DIM
100
AcDbLine
 10
124.125
 20
160.025
 30
0.0
 11
124.125
 21
165.5300065085
 31
0.0
  0
LINE
  5
92
330
80
100
AcDbEntity
  8
Z_OM_DIM
100
AcDbLine
 10
110.1841405782
 20
159.725
 30
0.0
 11
110.1841405782
 21
165.5300065085
 31
0.0
  0
LINE
  5
93
330
80
100
AcDbEntity
  8
Z_OM_DIM
100
AcDbLine
 10
122.625
 20
164.7800065085
 30
0.0
 11
111.6841405782
 21
164.7800065085
 31
0.0
  0
LINE
  5
94
330
80
100
AcDbEntity
  8
Z_OM_DIM
100
AcDbLine
 10
122.625
 20
165.1819302935
 30
0.0
 11
124.125
 21
164.7800065085
 31
0.0
  0
LINE
  5
95
330
80
100
AcDbEntity
  8
Z_OM_DIM
100
AcDbLine
 10
124.125
 20
164.7800065085
 30
0.0
 11
122.625
 21
164.3780827235
 31
0.0
  0
LINE
  5
96
330
80
100
AcDbEntity
  8
Z_OM_DIM
100
AcDbLine
 10
124.125
 20
164.7800065085
 30
0.0
 11
122.625
 21
164.7800065085
 31
0.0
  0
LINE
  5
97
330
80
100
AcDbEntity
  8
Z_OM_DIM
100
AcDbLine
 10
111.6841405782
 20
164.3780827235
 30
0.0
 11
110.1841405782
 21
164.7800065085
 31
0.0
  0
LINE
  5
98
330
80
100
AcDbEntity
  8
Z_OM_DIM
100
AcDbLine
 10
110.1841405782
 20
164.7800065085
 30
0.0
 11
111.6841405782
 21
165.1819302935
 31
0.0
  0
LINE
  5
99
330
80
100
AcDbEntity
  8
Z_OM_DIM
100
AcDbLine
 10
110.1841405782
 20
164.7800065085
 30
0.0
 11
111.6841405782
 21
164.7800065085
 31
0.0
  0
MTEXT
  5
9B
330
80
100
AcDbEntity
  8
Z_OM_DIM
100
AcDbMText
 10
115.1745702891
 20
166.2800065085
 30
0.2
 40
1.1
 41
0.0
 71
     1
 72
     1
  1
(100)
  7
SLDTEXTSTYLE2
 73
     1
 44
1.0
  0
ENDBLK
  5
8B
330
80
100
AcDbEntity
  8
0
100
AcDbBlockEnd
  0
BLOCK
  5
8F
330
8E
100
AcDbEntity
  8
0
100
AcDbBlockBegin
  2
_None
 70
     0
 71
     0
 10
0.0
 20
0.0
 30
0.0
  3
_None
  1

  0
ENDBLK
  5
90
330
8E
100
AcDbEntity
  8
0
100
AcDbBlockEnd
  0
BLOCK
  5
A7
330
9D
100
AcDbEntity
  8
0
100
AcDbBlockBegin
  2
*D5
 70
     1
 71
     0
 10
0.0
 20
0.0
 30
0.0
  3
*D5
  1

  0
LINE
  5
A9
330
9D
100
AcDbEntity
  8
Z_OM_DIM
100
AcDbLine
 10
49.8744438795
 20
159.725
 30
0.0
 11
49.8744438795
 21
168.8436325766
 31
0.0
  0
LINE
  5
AA
330
9D
100
AcDbEntity
  8
Z_OM_DIM
100
AcDbLine
 10
124.1195554453
 20
159.725
 30
0.0
 11
124.1195554453
 21
168.8436325766
 31
0.0
  0
LINE
  5
AB
330
9D
100
AcDbEntity
  8
Z_OM_DIM
100
AcDbLine
 10
51.3744438795
 20
168.0936325766
 30
0.0
 11
122.6195554453
 21
168.0936325766
 31
0.0
  0
LINE
  5
AC
330
9D
100
AcDbEntity
  8
Z_OM_DIM
100
AcDbLine
 10
51.3744438795
 20
167.6917087916
 30
0.0
 11
49.8744438795
 21
168.0936325766
 31
0.0
  0
LINE
  5
AD
330
9D
100
AcDbEntity
  8
Z_OM_DIM
100
AcDbLine
 10
49.8744438795
 20
168.0936325766
 30
0.0
 11
51.3744438795
 21
168.4955563616
 31
0.0
  0
LINE
  5
AE
330
9D
100
AcDbEntity
  8
Z_OM_DIM
100
AcDbLine
 10
49.8744438795
 20
168.0936325766
 30
0.0
 11
51.3744438795
 21
168.0936325766
 31
0.0
  0
LINE
  5
AF
330
9D
100
AcDbEntity
  8
Z_OM_DIM
100
AcDbLine
 10
122.6195554453
 20
168.4955563616
 30
0.0
 11
124.1195554453
 21
168.0936325766
 31
0.0
  0
LINE
  5
B0
330
9D
100
AcDbEntity
  8
Z_OM_DIM
100
AcDbLine
 10
124.1195554453
 20
168.0936325766
 30
0.0
 11
122.6195554453
 21
167.6917087916
 31
0.0
  0
LINE
  5
B1
330
9D
100
AcDbEntity
  8
Z_OM_DIM
100
AcDbLine
 10
124.1195554453
 20
168.0936325766
 30
0.0
 11
122.6195554453
 21
168.0936325766
 31
0.0
  0
MTEXT
  5
B2
330
9D
100
AcDbEntity
  8
Z_OM_DIM
100
AcDbMText
 10
75.6515996624
 20
169.5936325766
 30
0.2
 40
1.1
 41
0.0
 71
     1
 72
     1
  1
2000(STANDARD LENGTH)
  7
SLDTEXTSTYLE2
 73
     1
 44
1.0
  0
ENDBLK
  5
A8
330
9D
100
AcDbEntity
  8
0
100
AcDbBlockEnd
  0
BLOCK
  5
BE
330
B4
100
AcDbEntity
  8
0
100
AcDbBlockBegin
  2
*D6
 70
     1
 71
     0
 10
0.0
 20
0.0
 30
0.0
  3
*D6
  1

  0
LINE
  5
C0
330
B4
100
AcDbEntity
  8
Z_OM_DIM
100
AcDbLine
 10
138.125
 20
159.725
 30
0.0
 11
138.125
 21
168.8549155332
 31
0.0
  0
LINE
  5
C1
330
B4
100
AcDbEntity
  8
Z_OM_DIM
100
AcDbLine
 10
124.125
 20
159.725
 30
0.0
 11
124.125
 21
168.8549155332
 31
0.0
  0
LINE
  5
C2
330
B4
100
AcDbEntity
  8
Z_OM_DIM
100
AcDbLine
 10
136.625
 20
168.1049155332
 30
0.0
 11
125.625
 21
168.1049155332
 31
0.0
  0
LINE
  5
C3
330
B4
100
AcDbEntity
  8
Z_OM_DIM
100
AcDbLine
 10
136.625
 20
168.5068393182
 30
0.0
 11
138.125
 21
168.1049155332
 31
0.0
  0
LINE
  5
C4
330
B4
100
AcDbEntity
  8
Z_OM_DIM
100
AcDbLine
 10
138.125
 20
168.1049155332
 30
0.0
 11
136.625
 21
167.7029917482
 31
0.0
  0
LINE
  5
C5
330
B4
100
AcDbEntity
  8
Z_OM_DIM
100
AcDbLine
 10
138.125
 20
168.1049155332
 30
0.0
 11
136.625
 21
168.1049155332
 31
0.0
  0
LINE
  5
C6
330
B4
100
AcDbEntity
  8
Z_OM_DIM
100
AcDbLine
 10
125.625
 20
167.7029917482
 30
0.0
 11
124.125
 21
168.1049155332
 31
0.0
  0
LINE
  5
C7
330
B4
100
AcDbEntity
  8
Z_OM_DIM
100
AcDbLine
 10
124.125
 20
168.1049155332
 30
0.0
 11
125.625
 21
168.5068393182
 31
0.0
  0
LINE
  5
C8
330
B4
100
AcDbEntity
  8
Z_OM_DIM
100
AcDbLine
 10
124.125
 20
168.1049155332
 30
0.0
 11
125.625
 21
168.1049155332
 31
0.0
  0
MTEXT
  5
C9
330
B4
100
AcDbEntity
  8
Z_OM_DIM
100
AcDbMText
 10
129.541
 20
169.6049155332
 30
0.2
 40
1.1
 41
0.0
 71
     1
 72
     1
  1
(14)
  7
SLDTEXTSTYLE2
 73
     1
 44
1.0
  0
ENDBLK
  5
BF
330
B4
100
AcDbEntity
  8
0
100
AcDbBlockEnd
  0
BLOCK
  5
D5
330
CB
100
AcDbEntity
  8
0
100
AcDbBlockBegin
  2
*D7
 70
     1
 71
     0
 10
0.0
 20
0.0
 30
0.0
  3
*D7
  1

  0
LINE
  5
D7
330
CB
100
AcDbEntity
  8
Z_OM_DIM
100
AcDbLine
 10
135.125
 20
160.125
 30
0.0
 11
135.125
 21
165.4953728476
 31
0.0
  0
LINE
  5
D8
330
CB
100
AcDbEntity
  8
Z_OM_DIM
100
AcDbLine
 10
124.125
 20
160.125
 30
0.0
 11
124.125
 21
165.4953728476
 31
0.0
  0
LINE
  5
D9
330
CB
100
AcDbEntity
  8
Z_OM_DIM
100
AcDbLine
 10
133.625
 20
164.7453728476
 30
0.0
 11
125.625
 21
164.7453728476
 31
0.0
  0
LINE
  5
DA
330
CB
100
AcDbEntity
  8
Z_OM_DIM
100
AcDbLine
 10
133.625
 20
165.1472966326
 30
0.0
 11
135.125
 21
164.7453728476
 31
0.0
  0
LINE
  5
DB
330
CB
100
AcDbEntity
  8
Z_OM_DIM
100
AcDbLine
 10
135.125
 20
164.7453728476
 30
0.0
 11
133.625
 21
164.3434490626
 31
0.0
  0
LINE
  5
DC
330
CB
100
AcDbEntity
  8
Z_OM_DIM
100
AcDbLine
 10
135.125
 20
164.7453728476
 30
0.0
 11
133.625
 21
164.7453728476
 31
0.0
  0
LINE
  5
DD
330
CB
100
AcDbEntity
  8
Z_OM_DIM
100
AcDbLine
 10
125.625
 20
164.3434490626
 30
0.0
 11
124.125
 21
164.7453728476
 31
0.0
  0
LINE
  5
DE
330
CB
100
AcDbEntity
  8
Z_OM_DIM
100
AcDbLine
 10
124.125
 20
164.7453728476
 30
0.0
 11
125.625
 21
165.1472966326
 31
0.0
  0
LINE
  5
DF
330
CB
100
AcDbEntity
  8
Z_OM_DIM
100
AcDbLine
 10
124.125
 20
164.7453728476
 30
0.0
 11
125.625
 21
164.7453728476
 31
0.0
  0
MTEXT
  5
E0
330
CB
100
AcDbEntity
  8
Z_OM_DIM
100
AcDbMText
 10
129.031
 20
166.2453728476
 30
0.2
 40
1.1
 41
0.0
 71
     1
 72
     1
  1
11
  7
SLDTEXTSTYLE2
 73
     1
 44
1.0
  0
ENDBLK
  5
D6
330
CB
100
AcDbEntity
  8
0
100
AcDbBlockEnd
  0
BLOCK
  5
EE
330
E2
100
AcDbEntity
  8
0
100
AcDbBlockBegin
  2
*D8
 70
     1
 71
     0
 10
0.0
 20
0.0
 30
0.0
  3
*D8
  1

  0
LINE
  5
F0
330
E2
100
AcDbEntity
  8
Z_OM_DIM
100
AcDbLine
 10
126.5978125367
 20
159.875
 30
0.0
 11
128.6168038721
 21
159.875
 31
0.0
  0
LINE
  5
F1
330
E2
100
AcDbEntity
  8
Z_OM_DIM
100
AcDbLine
 10
126.5978125367
 20
156.875
 30
0.0
 11
128.6168038721
 21
156.875
 31
0.0
  0
LINE
  5
F2
330
E2
100
AcDbEntity
  8
Z_OM_DIM
100
AcDbLine
 10
127.8668038721
 20
161.375
 30
0.0
 11
127.8668038721
 21
162.875
 31
0.0
  0
LINE
  5
F3
330
E2
100
AcDbEntity
  8
Z_OM_DIM
100
AcDbLine
 10
127.8668038721
 20
155.375
 30
0.0
 11
127.8668038721
 21
149.115
 31
0.0
  0
LINE
  5
F4
330
E2
100
AcDbEntity
  8
Z_OM_DIM
100
AcDbLine
 10
127.8668038721
 20
159.875
 30
0.0
 11
127.8668038721
 21
156.875
 31
0.0
  0
LINE
  5
F5
330
E2
100
AcDbEntity
  8
Z_OM_DIM
100
AcDbLine
 10
128.2687276571
 20
161.375
 30
0.0
 11
127.8668038721
 21
159.875
 31
0.0
  0
LINE
  5
F6
330
E2
100
AcDbEntity
  8
Z_OM_DIM
100
AcDbLine
 10
127.8668038721
 20
159.875
 30
0.0
 11
127.4648800871
 21
161.375
 31
0.0
  0
LINE
  5
F7
330
E2
100
AcDbEntity
  8
Z_OM_DIM
100
AcDbLine
 10
127.8668038721
 20
159.875
 30
0.0
 11
127.8668038721
 21
161.375
 31
0.0
  0
LINE
  5
F8
330
E2
100
AcDbEntity
  8
Z_OM_DIM
100
AcDbLine
 10
127.4648800871
 20
155.375
 30
0.0
 11
127.8668038721
 21
156.875
 31
0.0
  0
LINE
  5
F9
330
E2
100
AcDbEntity
  8
Z_OM_DIM
100
AcDbLine
 10
127.8668038721
 20
156.875
 30
0.0
 11
128.2687276571
 21
155.375
 31
0.0
  0
LINE
  5
FA
330
E2
100
AcDbEntity
  8
Z_OM_DIM
100
AcDbLine
 10
127.8668038721
 20
156.875
 30
0.0
 11
127.8668038721
 21
155.375
 31
0.0
  0
MTEXT
  5
FB
330
E2
100
AcDbEntity
  8
Z_OM_DIM
100
AcDbMText
 10
126.3668038721
 20
149.515
 30
0.2
 40
1.1
 41
0.0
 71
     1
 72
     1
  1
3Dia.
  7
SLDTEXTSTYLE2
 11
6.123031769111886E-17
 21
1.0
 31
0.0
 73
     1
 44
1.0
  0
ENDBLK
  5
EF
330
E2
100
AcDbEntity
  8
0
100
AcDbBlockEnd
  0
BLOCK
  5
109
330
FD
100
AcDbEntity
  8
0
100
AcDbBlockBegin
  2
*D9
 70
     1
 71
     0
 10
0.0
 20
0.0
 30
0.0
  3
*D9
  1

  0
LINE
  5
10C
330
FD
100
AcDbEntity
  8
Z_OM_DIM
100
AcDbLine
 10
138.238756829
 20
159.575
 30
0.0
 11
144.1216983409
 21
159.575
 31
0.0
  0
LINE
  5
10D
330
FD
100
AcDbEntity
  8
Z_OM_DIM
100
AcDbLine
 10
138.238756829
 20
157.175
 30
0.0
 11
144.1216983409
 21
157.175
 31
0.0
  0
LINE
  5
10E
330
FD
100
AcDbEntity
  8
Z_OM_DIM
100
AcDbLine
 10
143.3716983409
 20
161.075
 30
0.0
 11
143.3716983409
 21
162.575
 31
0.0
  0
LINE
  5
10F
330
FD
100
AcDbEntity
  8
Z_OM_DIM
100
AcDbLine
 10
143.3716983409
 20
155.675
 30
0.0
 11
143.3716983409
 21
147.831
 31
0.0
  0
LINE
  5
110
330
FD
100
AcDbEntity
  8
Z_OM_DIM
100
AcDbLine
 10
143.3716983409
 20
159.575
 30
0.0
 11
143.3716983409
 21
157.175
 31
0.0
  0
LINE
  5
111
330
FD
100
AcDbEntity
  8
Z_OM_DIM
100
AcDbLine
 10
143.7736221259
 20
161.075
 30
0.0
 11
143.3716983409
 21
159.575
 31
0.0
  0
LINE
  5
112
330
FD
100
AcDbEntity
  8
Z_OM_DIM
100
AcDbLine
 10
143.3716983409
 20
159.575
 30
0.0
 11
142.9697745559
 21
161.075
 31
0.0
  0
LINE
  5
113
330
FD
100
AcDbEntity
  8
Z_OM_DIM
100
AcDbLine
 10
143.3716983409
 20
159.575
 30
0.0
 11
143.3716983409
 21
161.075
 31
0.0
  0
LINE
  5
114
330
FD
100
AcDbEntity
  8
Z_OM_DIM
100
AcDbLine
 10
142.9697745559
 20
155.675
 30
0.0
 11
143.3716983409
 21
157.175
 31
0.0
  0
LINE
  5
115
330
FD
100
AcDbEntity
  8
Z_OM_DIM
100
AcDbLine
 10
143.3716983409
 20
157.175
 30
0.0
 11
143.7736221259
 21
155.675
 31
0.0
  0
LINE
  5
116
330
FD
100
AcDbEntity
  8
Z_OM_DIM
100
AcDbLine
 10
143.3716983409
 20
157.175
 30
0.0
 11
143.3716983409
 21
155.675
 31
0.0
  0
MTEXT
  5
117
330
FD
100
AcDbEntity
  8
Z_OM_DIM
100
AcDbMText
 10
141.8716983409
 20
148.231
 30
0.2
 40
1.1
 41
0.0
 71
     1
 72
     1
  1
2.4Dia.
  7
SLDTEXTSTYLE2
 11
6.123031769111886E-17
 21
1.0
 31
0.0
 73
     1
 44
1.0
  0
ENDBLK
  5
10A
330
FD
100
AcDbEntity
  8
0
100
AcDbBlockEnd
  0
BLOCK
  5
124
330
119
100
AcDbEntity
  8
0
100
AcDbBlockBegin
  2
*D10
 70
     1
 71
     0
 10
0.0
 20
0.0
 30
0.0
  3
*D10
  1

  0
LINE
  5
127
330
119
100
AcDbEntity
  8
Z_OM_DIM
100
AcDbLine
 10
138.125
 20
159.725
 30
0.0
 11
138.125
 21
165.4740789262
 31
0.0
  0
LINE
  5
128
330
119
100
AcDbEntity
  8
Z_OM_DIM
100
AcDbLine
 10
135.125
 20
159.725
 30
0.0
 11
135.125
 21
165.4740789262
 31
0.0
  0
LINE
  5
129
330
119
100
AcDbEntity
  8
Z_OM_DIM
100
AcDbLine
 10
139.625
 20
164.7240789262
 30
0.0
 11
141.125
 21
164.7240789262
 31
0.0
  0
LINE
  5
12A
330
119
100
AcDbEntity
  8
Z_OM_DIM
100
AcDbLine
 10
133.625
 20
164.7240789262
 30
0.0
 11
132.125
 21
164.7240789262
 31
0.0
  0
LINE
  5
12B
330
119
100
AcDbEntity
  8
Z_OM_DIM
100
AcDbLine
 10
138.125
 20
164.7240789262
 30
0.0
 11
135.125
 21
164.7240789262
 31
0.0
  0
LINE
  5
12C
330
119
100
AcDbEntity
  8
Z_OM_DIM
100
AcDbLine
 10
139.625
 20
164.3221551412
 30
0.0
 11
138.125
 21
164.7240789262
 31
0.0
  0
LINE
  5
12D
330
119
100
AcDbEntity
  8
Z_OM_DIM
100
AcDbLine
 10
138.125
 20
164.7240789262
 30
0.0
 11
139.625
 21
165.1260027112
 31
0.0
  0
LINE
  5
12E
330
119
100
AcDbEntity
  8
Z_OM_DIM
100
AcDbLine
 10
138.125
 20
164.7240789262
 30
0.0
 11
139.625
 21
164.7240789262
 31
0.0
  0
LINE
  5
12F
330
119
100
AcDbEntity
  8
Z_OM_DIM
100
AcDbLine
 10
133.625
 20
165.1260027112
 30
0.0
 11
135.125
 21
164.7240789262
 31
0.0
  0
LINE
  5
130
330
119
100
AcDbEntity
  8
Z_OM_DIM
100
AcDbLine
 10
135.125
 20
164.7240789262
 30
0.0
 11
133.625
 21
164.3221551412
 31
0.0
  0
LINE
  5
131
330
119
100
AcDbEntity
  8
Z_OM_DIM
100
AcDbLine
 10
135.125
 20
164.7240789262
 30
0.0
 11
133.625
 21
164.7240789262
 31
0.0
  0
MTEXT
  5
132
330
119
100
AcDbEntity
  8
Z_OM_DIM
100
AcDbMText
 10
136.229
 20
166.2240789262
 30
0.2
 40
1.1
 41
0.0
 71
     1
 72
     1
  1
3
  7
SLDTEXTSTYLE2
 73
     1
 44
1.0
  0
ENDBLK
  5
125
330
119
100
AcDbEntity
  8
0
100
AcDbBlockEnd
  0
BLOCK
  5
140
330
134
100
AcDbEntity
  8
0
100
AcDbBlockBegin
  2
*D11
 70
     1
 71
     0
 10
0.0
 20
0.0
 30
0.0
  3
*D11
  1

  0
LINE
  5
142
330
134
100
AcDbEntity
  8
Z_OM_DIM
100
AcDbLine
 10
138.238756829
 20
159.575
 30
0.0
 11
144.1216983409
 21
159.575
 31
0.0
  0
LINE
  5
143
330
134
100
AcDbEntity
  8
Z_OM_DIM
100
AcDbLine
 10
138.238756829
 20
157.175
 30
0.0
 11
144.1216983409
 21
157.175
 31
0.0
  0
LINE
  5
144
330
134
100
AcDbEntity
  8
Z_OM_DIM
100
AcDbLine
 10
143.3716983409
 20
161.075
 30
0.0
 11
143.3716983409
 21
162.575
 31
0.0
  0
LINE
  5
145
330
134
100
AcDbEntity
  8
Z_OM_DIM
100
AcDbLine
 10
143.3716983409
 20
155.675
 30
0.0
 11
143.3716983409
 21
147.831
 31
0.0
  0
LINE
  5
146
330
134
100
AcDbEntity
  8
Z_OM_DIM
100
AcDbLine
 10
143.3716983409
 20
159.575
 30
0.0
 11
143.3716983409
 21
157.175
 31
0.0
  0
LINE
  5
147
330
134
100
AcDbEntity
  8
Z_OM_DIM
100
AcDbLine
 10
143.7736221259
 20
161.075
 30
0.0
 11
143.3716983409
 21
159.575
 31
0.0
  0
LINE
  5
148
330
134
100
AcDbEntity
  8
Z_OM_DIM
100
AcDbLine
 10
143.3716983409
 20
159.575
 30
0.0
 11
142.9697745559
 21
161.075
 31
0.0
  0
LINE
  5
149
330
134
100
AcDbEntity
  8
Z_OM_DIM
100
AcDbLine
 10
143.3716983409
 20
159.575
 30
0.0
 11
143.3716983409
 21
161.075
 31
0.0
  0
LINE
  5
14A
330
134
100
AcDbEntity
  8
Z_OM_DIM
100
AcDbLine
 10
142.9697745559
 20
155.675
 30
0.0
 11
143.3716983409
 21
157.175
 31
0.0
  0
LINE
  5
14B
330
134
100
AcDbEntity
  8
Z_OM_DIM
100
AcDbLine
 10
143.3716983409
 20
157.175
 30
0.0
 11
143.7736221259
 21
155.675
 31
0.0
  0
LINE
  5
14C
330
134
100
AcDbEntity
  8
Z_OM_DIM
100
AcDbLine
 10
143.3716983409
 20
157.175
 30
0.0
 11
143.3716983409
 21
155.675
 31
0.0
  0
MTEXT
  5
14D
330
134
100
AcDbEntity
  8
Z_OM_DIM
100
AcDbMText
 10
141.8716983409
 20
148.231
 30
0.2
 40
1.1
 41
0.0
 71
     1
 72
     1
  1
2.4Dia.
  7
SLDTEXTSTYLE2
 11
6.123031769111886E-17
 21
1.0
 31
0.0
 73
     1
 44
1.0
  0
ENDBLK
  5
141
330
134
100
AcDbEntity
  8
0
100
AcDbBlockEnd
  0
BLOCK
  5
156
330
14F
100
AcDbEntity
  8
0
100
AcDbBlockBegin
  2
*D12
 70
     1
 71
     0
 10
0.0
 20
0.0
 30
0.0
  3
*D12
  1

  0
LINE
  5
159
330
14F
100
AcDbEntity
  8
Z_OM_DIM
100
AcDbLine
 10
148.4438539992
 20
157.2221541292
 30
0.0
 11
147.2181267257
 21
156.3575197261
 31
0.0
  0
LINE
  5
15A
330
14F
100
AcDbEntity
  8
Z_OM_DIM
100
AcDbLine
 10
151.7124600619
 20
159.5278458708
 30
0.0
 11
157.4102941503
 21
163.5471277147
 31
0.0
  0
LINE
  5
15B
330
14F
100
AcDbEntity
  8
Z_OM_DIM
100
AcDbLine
 10
149.6695812727
 20
158.0867885323
 30
0.0
 11
150.4867327884
 21
158.6632114677
 31
0.0
  0
LINE
  5
15C
330
14F
100
AcDbEntity
  8
Z_OM_DIM
100
AcDbLine
 10
148.2121759112
 20
157.5505867593
 30
0.0
 11
149.6695812727
 21
158.0867885323
 31
0.0
  0
LINE
  5
15D
330
14F
100
AcDbEntity
  8
Z_OM_DIM
100
AcDbLine
 10
149.6695812727
 20
158.0867885323
 30
0.0
 11
148.6755320872
 21
156.8937214991
 31
0.0
  0
LINE
  5
15E
330
14F
100
AcDbEntity
  8
Z_OM_DIM
100
AcDbLine
 10
149.6695812727
 20
158.0867885323
 30
0.0
 11
148.4438539992
 21
157.2221541292
 31
0.0
  0
LINE
  5
15F
330
14F
100
AcDbEntity
  8
Z_OM_DIM
100
AcDbLine
 10
151.9441381498
 20
159.1994132407
 30
0.0
 11
150.4867327884
 21
158.6632114677
 31
0.0
  0
LINE
  5
160
330
14F
100
AcDbEntity
  8
Z_OM_DIM
100
AcDbLine
 10
150.4867327884
 20
158.6632114677
 30
0.0
 11
151.4807819739
 21
159.8562785009
 31
0.0
  0
LINE
  5
161
330
14F
100
AcDbEntity
  8
Z_OM_DIM
100
AcDbLine
 10
150.4867327884
 20
158.6632114677
 30
0.0
 11
151.7124600619
 21
159.5278458708
 31
0.0
  0
MTEXT
  5
162
330
14F
100
AcDbEntity
  8
Z_OM_DIM
100
AcDbMText
 10
152.4004135385
 20
161.8487767215
 30
0.2
 40
1.1
 41
0.0
 71
     1
 72
     1
  1
1 DIA.
  7
SLDTEXTSTYLE2
 11
0.8171515156649744
 21
0.5764229353924384
 31
0.0
 73
     1
 44
1.0
  0
ENDBLK
  5
157
330
14F
100
AcDbEntity
  8
0
100
AcDbBlockEnd
  0
ENDSEC
  0
SECTION
  2
ENTITIES
  0
LINE
  5
47
330
1F
100
AcDbEntity
  8
Z_OM_GAIKEI
100
AcDbLine
 10
116.1821948813
 20
157.275
 30
0.0
 11
104.5455052108
 21
157.275
 31
0.0
  0
LINE
  5
48
330
1F
100
AcDbEntity
  8
Z_OM_GAIKEI
100
AcDbLine
 10
116.1821948813
 20
159.475
 30
0.0
 11
74.1016858483
 21
159.475
 31
0.0
  0
LINE
  5
49
330
1F
100
AcDbEntity
  8
Z_OM_GAIKEI
100
AcDbLine
 10
116.1821948813
 20
157.275
 30
0.0
 11
104.5455052108
 21
157.275
 31
0.0
  0
LINE
  5
4A
330
1F
100
AcDbEntity
  8
Z_OM_CENTER
100
AcDbLine
 10
46.3453197324
 20
158.375
 30
0.0
 11
139.7245960201
 21
158.375
 31
0.0
  0
LINE
  5
4B
330
1F
100
AcDbEntity
  8
Z_OM_GAIKEI
100
AcDbLine
 10
73.0016858483
 20
159.475
 30
0.0
 11
49.8744438795
 21
159.475
 31
0.0
  0
LINE
  5
4C
330
1F
100
AcDbEntity
  8
Z_OM_GAIKEI
100
AcDbLine
 10
73.0016858483
 20
157.275
 30
0.0
 11
49.8744438795
 21
157.275
 31
0.0
  0
LINE
  5
4D
330
1F
100
AcDbEntity
  8
Z_OM_GAIKEI
100
AcDbLine
 10
49.8744438795
 20
159.475
 30
0.0
 11
49.8744438795
 21
157.275
 31
0.0
  0
LINE
  5
4E
330
1F
100
AcDbEntity
  8
Z_OM_GAIKEI
100
AcDbLine
 10
104.5455052108
 20
157.275
 30
0.0
 11
74.1016858483
 21
157.275
 31
0.0
  0
LINE
  5
4F
330
1F
100
AcDbEntity
  8
Z_OM_GAIKEI
100
AcDbLine
 10
110.1841405782
 20
159.475
 30
0.0
 11
104.1841405782
 21
159.475
 31
0.0
  0
LINE
  5
50
330
1F
100
AcDbEntity
  8
Z_OM_GAIKEI
100
AcDbLine
 10
124.2751783187
 20
159.875
 30
0.0
 11
135.125
 21
159.875
 31
0.0
  0
LINE
  5
51
330
1F
100
AcDbEntity
  8
Z_OM_GAIKEI
100
AcDbLine
 10
135.125
 20
156.875
 30
0.0
 11
124.2751783187
 21
156.875
 31
0.0
  0
LINE
  5
52
330
1F
100
AcDbEntity
  8
Z_OM_GAIKEI
100
AcDbLine
 10
124.125
 20
157.275
 30
0.0
 11
117.2821948813
 21
157.275
 31
0.0
  0
LINE
  5
53
330
1F
100
AcDbEntity
  8
Z_OM_GAIKEI
100
AcDbLine
 10
124.125
 20
159.475
 30
0.0
 11
117.2821948813
 21
159.475
 31
0.0
  0
LINE
  5
54
330
1F
100
AcDbEntity
  8
Z_OM_GAIKEI
100
AcDbLine
 10
124.125
 20
156.975
 30
0.0
 11
124.2751783187
 21
156.875
 31
0.0
  0
LINE
  5
55
330
1F
100
AcDbEntity
  8
Z_OM_GAIKEI
100
AcDbLine
 10
124.2751783187
 20
159.875
 30
0.0
 11
124.2751783187
 21
156.875
 31
0.0
  0
LINE
  5
56
330
1F
100
AcDbEntity
  8
Z_OM_GAIKEI
100
AcDbLine
 10
124.125
 20
156.975
 30
0.0
 11
124.125
 21
159.775
 31
0.0
  0
LINE
  5
57
330
1F
100
AcDbEntity
  8
Z_OM_GAIKEI
100
AcDbLine
 10
124.2751783187
 20
159.875
 30
0.0
 11
124.125
 21
159.775
 31
0.0
  0
LINE
  5
58
330
1F
100
AcDbEntity
  8
Z_OM_CENTER
100
AcDbLine
 10
150.0781570305
 20
162.7017743924
 30
0.0
 11
150.0781570305
 21
153.429717043
 31
0.0
  0
LINE
  5
59
330
1F
100
AcDbEntity
  8
Z_OM_GAIKEI
100
AcDbLine
 10
135.125
 20
159.875
 30
0.0
 11
135.125
 21
156.875
 31
0.0
  0
LINE
  5
5A
330
1F
100
AcDbEntity
  8
Z_OM_GAIKEI
100
AcDbLine
 10
137.988756829
 20
157.175
 30
0.0
 11
135.125
 21
157.175
 31
0.0
  0
LINE
  5
5B
330
1F
100
AcDbEntity
  8
Z_OM_GAIKEI
100
AcDbLine
 10
137.988756829
 20
159.575
 30
0.0
 11
135.125
 21
159.575
 31
0.0
  0
LINE
  5
5C
330
1F
100
AcDbEntity
  8
Z_OM_GAIKEI
100
AcDbLine
 10
137.988756829
 20
159.575
 30
0.0
 11
137.988756829
 21
157.175
 31
0.0
  0
LINE
  5
5D
330
1F
100
AcDbEntity
  8
Z_OM_GAIKEI
100
AcDbLine
 10
138.125
 20
159.475
 30
0.0
 11
138.125
 21
157.275
 31
0.0
  0
LINE
  5
5E
330
1F
100
AcDbEntity
  8
Z_OM_GAIKEI
100
AcDbLine
 10
138.125
 20
157.275
 30
0.0
 11
137.988756829
 21
157.175
 31
0.0
  0
LINE
  5
5F
330
1F
100
AcDbEntity
  8
Z_OM_GAIKEI
100
AcDbLine
 10
138.125
 20
159.475
 30
0.0
 11
137.988756829
 21
159.575
 31
0.0
  0
LINE
  5
60
330
1F
100
AcDbEntity
  8
Z_OM_CENTER
100
AcDbLine
 10
145.505254312
 20
158.375
 30
0.0
 11
155.043023153
 21
158.375
 31
0.0
  0
LINE
  5
61
330
1F
100
AcDbEntity
  8
Z_OM_NOTE
  6
Continuous
100
AcDbLine
 10
78.9574540629
 20
156.0029849579
 30
0.0
 11
73.3547546034
 21
147.0382245829
 31
0.0
  0
LINE
  5
62
330
1F
100
AcDbEntity
  8
Z_OM_NOTE
  6
Continuous
100
AcDbLine
 10
73.3547546034
 20
147.0382245829
 30
0.0
 11
49.5123546034
 21
147.0382245829
 31
0.0
  0
LINE
  5
63
330
1F
100
AcDbEntity
  8
Z_OM_NOTE
  6
Continuous
100
AcDbLine
 10
132.8017858542
 20
155.4961385073
 30
0.0
 11
138.5326258492
 21
142.1151735846
 31
0.0
  0
LINE
  5
64
330
1F
100
AcDbEntity
  8
Z_OM_NOTE
  6
Continuous
100
AcDbLine
 10
138.5326258492
 20
142.1151735846
 30
0.0
 11
163.6382258492
 21
142.1151735846
 31
0.0
  0
LINE
  5
65
330
1F
100
AcDbEntity
  8
SLD-0_0
  6
Continuous
 62
     7
370
     0
100
AcDbLine
 10
20.2604743903
 20
285.0
 30
0.0
 11
196.7604743903
 21
285.0
 31
0.0
  0
LINE
  5
66
330
1F
100
AcDbEntity
  8
SLD-0_0
  6
Continuous
 62
     7
370
     0
100
AcDbLine
 10
20.2604743903
 20
285.0
 30
0.0
 11
20.2604743903
 21
10.0
 31
0.0
  0
LINE
  5
67
330
1F
100
AcDbEntity
  8
SLD-0_0
  6
Continuous
 62
     7
370
     0
100
AcDbLine
 10
20.2604743903
 20
10.0
 30
0.0
 11
196.7604743903
 21
10.0
 31
0.0
  0
LINE
  5
68
330
1F
100
AcDbEntity
  8
SLD-0_0
  6
Continuous
 62
     7
370
     0
100
AcDbLine
 10
196.7604743903
 20
285.0
 30
0.0
 11
196.7604743903
 21
10.0
 31
0.0
  0
LINE
  5
69
330
1F
100
AcDbEntity
  8
SLD-0_0
  6
Continuous
 62
     7
370
     0
100
AcDbLine
 10
127.0104743903
 20
50.75
 30
0.0
 11
196.7604743903
 21
50.75
 31
0.0
  0
LINE
  5
6A
330
1F
100
AcDbEntity
  8
SLD-0_0
  6
Continuous
 62
     7
370
     0
100
AcDbLine
 10
127.0104743903
 20
50.75
 30
0.0
 11
127.0104743903
 21
10.0
 31
0.0
  0
LINE
  5
6B
330
1F
100
AcDbEntity
  8
SLD-0_0
  6
Continuous
 62
     7
370
     0
100
AcDbLine
 10
127.0104743903
 20
22.75
 30
0.0
 11
196.7604743903
 21
22.75
 31
0.0
  0
LINE
  5
6C
330
1F
100
AcDbEntity
  8
SLD-0_0
  6
Continuous
 62
     7
370
     0
100
AcDbLine
 10
127.0104743903
 20
36.75
 30
0.0
 11
196.7604743903
 21
36.75
 31
0.0
  0
ARC
  5
6D
330
1F
100
AcDbEntity
  8
Z_OM_GAIKEI
100
AcDbCircle
 10
73.0016858483
 20
158.925
 30
0.0
 40
0.5500000000000114
100
AcDbArc
 50
90.0
 51
270.0
  0
ARC
  5
6E
330
1F
100
AcDbEntity
  8
Z_OM_GAIKEI
100
AcDbCircle
 10
74.2824266799
 20
158.925
 30
0.0
 40
0.578936307556749
100
AcDbArc
 50
108.1915415997
 51
251.8084584005
  0
ARC
  5
6F
330
1F
100
AcDbEntity
  8
Z_OM_GAIKEI
100
AcDbCircle
 10
72.536210872
 20
158.925
 30
0.0
 40
0.7205324097925777
100
AcDbArc
 50
310.2418435297
 51
49.7581564703
  0
ARC
  5
70
330
1F
100
AcDbEntity
  8
Z_OM_GAIKEI
100
AcDbCircle
 10
74.1016858483
 20
157.825
 30
0.0
 40
0.549999999999983
100
AcDbArc
 50
270.0
 51
89.9999999998
  0
ARC
  5
71
330
1F
100
AcDbEntity
  8
Z_OM_GAIKEI
100
AcDbCircle
 10
74.4231091425
 20
157.825
 30
0.0
 40
0.6370344841956066
100
AcDbArc
 50
120.3022709282
 51
239.6977290716
  0
ARC
  5
72
330
1F
100
AcDbEntity
  8
Z_OM_GAIKEI
100
AcDbCircle
 10
72.827178318
 20
157.825
 30
0.0
 40
0.5770206912506861
100
AcDbArc
 50
287.6035259401
 51
72.3964740599
  0
ARC
  5
73
330
1F
100
AcDbEntity
  8
Z_OM_GAIKEI
100
AcDbCircle
 10
115.716719905
 20
158.925
 30
0.0
 40
0.7205324097925561
100
AcDbArc
 50
310.2418435295
 51
49.7581564703
  0
ARC
  5
74
330
1F
100
AcDbEntity
  8
Z_OM_GAIKEI
100
AcDbCircle
 10
116.0076873511
 20
157.825
 30
0.0
 40
0.5770206912204157
100
AcDbArc
 50
287.6035259307
 51
72.3964740696
  0
ARC
  5
75
330
1F
100
AcDbEntity
  8
Z_OM_GAIKEI
100
AcDbCircle
 10
116.1821948813
 20
158.925
 30
0.0
 40
0.5500000000002103
100
AcDbArc
 50
90.0
 51
269.9999999998
  0
ARC
  5
76
330
1F
100
AcDbEntity
  8
Z_OM_GAIKEI
100
AcDbCircle
 10
117.4629357129
 20
158.925
 30
0.0
 40
0.578936307556749
100
AcDbArc
 50
108.1915415997
 51
251.8084584005
  0
ARC
  5
77
330
1F
100
AcDbEntity
  8
Z_OM_GAIKEI
100
AcDbCircle
 10
117.2821948813
 20
157.825
 30
0.0
 40
0.5500000000000114
100
AcDbArc
 50
270.0
 51
89.9999999998
  0
ARC
  5
78
330
1F
100
AcDbEntity
  8
Z_OM_GAIKEI
100
AcDbCircle
 10
117.6036181755
 20
157.825
 30
0.0
 40
0.6370344841956137
100
AcDbArc
 50
120.3022709282
 51
239.6977290716
  0
CIRCLE
  5
79
330
1F
100
AcDbEntity
  8
Z_OM_GAIKEI
100
AcDbCircle
 10
150.0781570305
 20
158.375
 30
0.0
 40
1.5
  0
CIRCLE
  5
7A
330
1F
100
AcDbEntity
  8
Z_OM_GAIKEI
100
AcDbCircle
 10
150.0781570305
 20
158.375
 30
0.0
 40
1.199999999999989
  0
CIRCLE
  5
7B
330
1F
100
AcDbEntity
  8
Z_OM_GAIKEI
100
AcDbCircle
 10
150.0781570305
 20
158.375
 30
0.0
 40
0.5
  0
POINT
  5
7C
330
1F
100
AcDbEntity
  8
Z_OM_GAIKEI
100
AcDbPoint
 10
149.670578679
 20
158.0853797532
 30
0.0
  0
POINT
  5
7D
330
1F
100
AcDbEntity
  8
Z_OM_GAIKEI
100
AcDbPoint
 10
150.4857353821
 20
158.6646202468
 30
0.0
  0
DIMENSION
  5
7E
330
1F
100
AcDbEntity
  8
Z_OM_DIM
100
AcDbDimension
  2
*D3
 10
110.1841405782
 20
165.7300065085
 30
0.0
 11
117.1545702891
 21
165.7300065085
 31
0.0
 70
   160
  1
(<>)
 71
     1
 42
13.9408594218
  3
SLDDIMSTYLE0
100
AcDbAlignedDimension
 13
124.125
 23
159.775
 33
0.0
 14
110.1841405782
 24
159.475
 34
0.0
100
AcDbRotatedDimension
1001
ACAD
1000
DSTYLE
1002
{
1070
    77
1070
     3
1070
   143
1040
0.0393700787
1070
    41
1040
3.0
1070
    44
1040
1.0
1070
    42
1040
1.0
1070
   147
1040
1.524
1070
    73
1070
     0
1070
    74
1070
     0
1070
   140
1040
1.1
1070
   284
1070
    12
1070
    78
1070
    12
1002
}
  0
DIMENSION
  5
9C
330
1F
100
AcDbEntity
  8
Z_OM_DIM
100
AcDbDimension
  2
*D5
 10
124.1195554453
 20
169.0436325766
 30
0.0
 11
86.9969996624
 21
169.0436325766
 31
0.0
 70
   160
  1
<>(STANDARD LENGTH)
 71
     1
 42
74.2451115658
  3
SLDDIMSTYLE0
100
AcDbAlignedDimension
 13
49.8744438795
 23
159.475
 33
0.0
 14
124.1195554453
 24
159.475
 34
0.0
100
AcDbRotatedDimension
1001
ACAD
1000
DSTYLE
1002
{
1070
    77
1070
     3
1070
   143
1040
0.0393700787
1070
    41
1040
3.0
1070
    44
1040
1.0
1070
    42
1040
1.0
1070
   147
1040
1.524
1070
    73
1070
     0
1070
    74
1070
     0
1070
   140
1040
1.1
1070
   284
1070
    12
1070
    78
1070
    12
1002
}
  0
DIMENSION
  5
B3
330
1F
100
AcDbEntity
  8
Z_OM_DIM
100
AcDbDimension
  2
*D6
 10
124.125
 20
169.0549155332
 30
0.0
 11
131.125
 21
169.0549155332
 31
0.0
 70
   160
  1
(<>)
 71
     1
 42
14.0
  3
SLDDIMSTYLE0
100
AcDbAlignedDimension
 13
138.125
 23
159.475
 33
0.0
 14
124.125
 24
159.475
 34
0.0
100
AcDbRotatedDimension
1001
ACAD
1000
DSTYLE
1002
{
1070
    77
1070
     3
1070
   143
1040
0.0393700787
1070
    41
1040
3.0
1070
    44
1040
1.0
1070
    42
1040
1.0
1070
   147
1040
1.524
1070
    73
1070
     0
1070
    74
1070
     0
1070
   140
1040
1.1
1070
   284
1070
    12
1070
    78
1070
    12
1002
}
  0
DIMENSION
  5
CA
330
1F
100
AcDbEntity
  8
Z_OM_DIM
100
AcDbDimension
  2
*D7
 10
124.125
 20
165.6953728476
 30
0.0
 11
129.625
 21
165.6953728476
 31
0.0
 70
   160
 71
     1
 42
11.0
  3
SLDDIMSTYLE0
100
AcDbAlignedDimension
 13
135.125
 23
159.875
 33
0.0
 14
124.125
 24
159.875
 34
0.0
100
AcDbRotatedDimension
1001
ACAD
1000
DSTYLE
1002
{
1070
    77
1070
     3
1070
   143
1040
0.0393700787
1070
    41
1040
3.0
1070
    44
1040
1.0
1070
    42
1040
1.0
1070
   147
1040
1.524
1070
    73
1070
     0
1070
    74
1070
     0
1070
   140
1040
1.1
1070
   284
1070
    12
1070
    78
1070
    12
1002
}
  0
DIMENSION
  5
E1
330
1F
100
AcDbEntity
  8
Z_OM_DIM
100
AcDbDimension
  2
*D8
 10
127.8668038721
 20
156.875
 30
0.0
 11
127.8668038721
 21
151.495
 31
0.0
 70
   160
  1
<>Dia.
 71
     1
 42
3.0
  3
SLDDIMSTYLE0
100
AcDbAlignedDimension
 13
126.3478125367
 23
159.875
 33
0.0
 14
126.3478125367
 24
156.875
 34
0.0
 50
90.0
100
AcDbRotatedDimension
1001
ACAD
1000
DSTYLE
1002
{
1070
    77
1070
     3
1070
   143
1040
0.0393700787
1070
    41
1040
3.0
1070
    44
1040
1.0
1070
    42
1040
1.0
1070
   147
1040
1.524
1070
    73
1070
     0
1070
    74
1070
     0
1070
   140
1040
1.1
1070
   284
1070
    12
1070
    78
1070
    12
1002
}
  0
DIMENSION
  5
FC
330
1F
100
AcDbEntity
  8
Z_OM_DIM
100
AcDbDimension
  2
*D9
 10
143.3716983409
 20
157.175
 30
0.0
 11
143.3716983409
 21
151.003
 31
0.0
 70
   160
  1
<>Dia.
 71
     1
 42
2.4
  3
SLDDIMSTYLE1
100
AcDbAlignedDimension
 13
137.988756829
 23
159.575
 33
0.0
 14
137.988756829
 24
157.175
 34
0.0
 50
90.0
100
AcDbRotatedDimension
1001
ACAD
1000
DSTYLE
1002
{
1070
    77
1070
     3
1070
   143
1040
0.0393700787
1070
    41
1040
3.0
1070
    44
1040
1.0
1070
    42
1040
1.0
1070
   147
1040
1.524
1070
    73
1070
     0
1070
    74
1070
     0
1070
   140
1040
1.1
1070
   284
1070
    12
1070
    78
1070
    12
1002
}
  0
DIMENSION
  5
118
330
1F
100
AcDbEntity
  8
Z_OM_DIM
100
AcDbDimension
  2
*D10
 10
135.125
 20
165.6740789262
 30
0.0
 11
136.625
 21
165.6740789262
 31
0.0
 70
   160
 71
     1
 42
3.0
  3
SLDDIMSTYLE0
100
AcDbAlignedDimension
 13
138.125
 23
159.475
 33
0.0
 14
135.125
 24
159.475
 34
0.0
100
AcDbRotatedDimension
1001
ACAD
1000
DSTYLE
1002
{
1070
    77
1070
     3
1070
   143
1040
0.0393700787
1070
    41
1040
3.0
1070
    44
1040
1.0
1070
    42
1040
1.0
1070
   147
1040
1.524
1070
    73
1070
     0
1070
    74
1070
     0
1070
   140
1040
1.1
1070
   284
1070
    12
1070
    78
1070
    12
1002
}
  0
DIMENSION
  5
133
330
1F
100
AcDbEntity
  8
Z_OM_DIM
100
AcDbDimension
  2
*D11
 10
143.3716983409
 20
157.175
 30
0.0
 11
143.3716983409
 21
151.003
 31
0.0
 70
   160
  1
<>Dia.
 71
     1
 42
2.4
  3
SLDDIMSTYLE1
100
AcDbAlignedDimension
 13
137.988756829
 23
159.575
 33
0.0
 14
137.988756829
 24
157.175
 34
0.0
 50
90.0
100
AcDbRotatedDimension
1001
ACAD
1000
DSTYLE
1002
{
1070
    77
1070
     3
1070
   143
1040
0.0393700787
1070
    41
1040
3.0
1070
    44
1040
1.0
1070
    42
1040
1.0
1070
   147
1040
1.524
1070
    73
1070
     0
1070
    74
1070
     0
1070
   140
1040
1.1
1070
   284
1070
    12
1070
    78
1070
    12
1002
}
  0
DIMENSION
  5
14E
330
1F
100
AcDbEntity
  8
Z_OM_DIM
100
AcDbDimension
  2
*D12
 10
0.6744806529
 20
0.7117682914
 30
0.0
 11
68.8082666896
 21
-4.3551849634
 31
0.0
 70
   163
  1
<> DIA.
 71
     1
 42
0.9805805687
  3
SLDDIMSTYLE2
100
AcDbDiametricDimension
 15
0.0
 25
0.0
 35
0.0
 40
0.0
1001
ACAD
1000
DSTYLE
1002
{
1070
    77
1070
     0
1070
   143
1040
0.0393700787
1070
    41
1040
3.0
1070
    44
1040
1.0
1070
    42
1040
1.0
1070
   147
1040
1.524
1070
    73
1070
     1
1070
    74
1070
     1
1070
   140
1040
1.1
1070
   284
1070
    12
1070
    78
1070
    12
1002
}
  0
MTEXT
  5
164
330
1F
100
AcDbEntity
  8
Z_OM_NOTE
100
AcDbMText
 10
49.5123546034
 20
148.9385323323
 30
0.0
 40
1.1
 41
0.0
 71
     1
 72
     1
  1
OPTICAL FIBER 2.2 DIA.
  7
SLDTEXTSTYLE3
 73
     1
 44
1.0
  0
MTEXT
  5
165
330
1F
100
AcDbEntity
  8
Z_OM_NOTE
100
AcDbMText
 10
140.4326258492
 20
145.4488146673
 30
0.0
 40
1.1
 41
0.0
 71
     1
 72
     1
  1
DETECTING HEAD
  7
SLDTEXTSTYLE1
 73
     1
 44
1.0
  0
MTEXT
  5
167
330
1F
100
AcDbEntity
  8
Z_OM_NOTE
100
AcDbMText
 10
140.4326258492
 20
143.615481334
 30
0.0
 40
1.1
 41
0.0
 71
     1
 72
     1
  1
(BRASS NICKEL PLATING)
  7
SLDTEXTSTYLE4
 73
     1
 44
1.0
  0
MTEXT
  5
168
330
1F
100
AcDbEntity
  8
Z_OM_NOTE
100
AcDbMText
 10
51.7984080702
 20
178.9365010567
 30
0.0
 40
1.6
 41
0.0
 71
     1
 72
     1
  1
LAYERED DRAWINGS
  7
SLDTEXTSTYLE1
 73
     1
 44
1.0
  0
MTEXT
  5
169
330
1F
100
AcDbEntity
  8
SLD-0_0
 62
     7
100
AcDbMText
 10
152.7269673068
 20
29.8867574891
 30
0.0
 40
4.2333333333
 41
0.0
 71
     1
 72
     1
  1
E32-T12R
  7
SLDTEXTSTYLE0
 73
     1
 44
1.0
  0
MTEXT
  5
16A
330
1F
100
AcDbEntity
  8
SLD-0_0
 62
     7
100
AcDbMText
 10
137.8476158165
 20
43.285389187
 30
0.0
 40
4.2333333333
 41
0.0
 71
     1
 72
     1
  1
光ファイバー透過　φ3
  7
SLDTEXTSTYLE0
 73
     1
 44
1.0
  0
MTEXT
  5
16B
330
1F
100
AcDbEntity
  8
SLD-0_0
 62
     7
100
AcDbMText
 10
155.4808425002
 20
16.2924181598
 30
0.0
 40
4.2333333333
 41
0.0
 71
     1
 72
     1
  1
041413
  7
SLDTEXTSTYLE0
 73
     1
 44
1.0
  0
INSERT
  5
16C
330
1F
100
AcDbEntity
  8
0
  6
Continuous
 62
     7
370
     0
100
AcDbBlockReference
  2
_OPEN30
 10
79.7524243344
 20
157.275
 30
0.0
 41
1.5
 42
1.5
 43
1.5
 50
57.9958842529
  0
INSERT
  5
16D
330
1F
100
AcDbEntity
  8
0
  6
Continuous
 62
     7
370
     0
100
AcDbBlockReference
  2
_OPEN30
 10
132.2112428974
 20
156.875
 30
0.0
 41
1.5
 42
1.5
 43
1.5
 50
113.1846283604
  0
ENDSEC
  0
SECTION
  2
OBJECTS
  0
DICTIONARY
  5
C
330
0
100
AcDbDictionary
281
     1
  3
ACAD_GROUP
350
D
  3
ACAD_LAYOUT
350
1A
  3
ACAD_MLINESTYLE
350
17
  3
ACAD_PLOTSETTINGS
350
19
  3
ACAD_PLOTSTYLENAME
350
E
  0
DICTIONARY
  5
D
102
{ACAD_REACTORS
330
C
102
}
330
C
100
AcDbDictionary
281
     1
  0
DICTIONARY
  5
1A
102
{ACAD_REACTORS
330
C
102
}
330
C
100
AcDbDictionary
281
     1
  3
Layout1
350
1E
  3
Layout2
350
26
  3
Model
350
22
  0
DICTIONARY
  5
17
102
{ACAD_REACTORS
330
C
102
}
330
C
100
AcDbDictionary
281
     1
  3
Standard
350
18
  0
DICTIONARY
  5
19
102
{ACAD_REACTORS
330
C
102
}
330
C
100
AcDbDictionary
281
     1
  0
ACDBDICTIONARYWDFLT
  5
E
102
{ACAD_REACTORS
330
C
102
}
330
C
100
AcDbDictionary
281
     1
  3
Normal
350
F
100
AcDbDictionaryWithDefault
340
F
  0
LAYOUT
  5
1E
102
{ACAD_REACTORS
330
1A
102
}
330
1A
100
AcDbPlotSettings
  1

  2

  4

  6

 40
0.0
 41
0.0
 42
0.0
 43
0.0
 44
0.0
 45
0.0
 46
0.0
 47
0.0
 48
0.0
 49
0.0
140
0.0
141
0.0
142
1.0
143
1.0
 70
   688
 72
     0
 73
     0
 74
     5
  7

 75
    16
147
1.0
148
0.0
149
0.0
100
AcDbLayout
  1
Layout1
 70
     1
 71
     1
 10
0.0
 20
0.0
 11
0.0
 21
0.0
 12
0.0
 22
0.0
 32
0.0
 14
0.0
 24
0.0
 34
0.0
 15
0.0
 25
0.0
 35
0.0
146
0.0
 13
0.0
 23
0.0
 33
0.0
 16
1.0
 26
0.0
 36
0.0
 17
0.0
 27
1.0
 37
0.0
 76
     0
330
1B
  0
LAYOUT
  5
26
102
{ACAD_REACTORS
330
1A
102
}
330
1A
100
AcDbPlotSettings
  1

  2

  4

  6

 40
0.0
 41
0.0
 42
0.0
 43
0.0
 44
0.0
 45
0.0
 46
0.0
 47
0.0
 48
0.0
 49
0.0
140
0.0
141
0.0
142
1.0
143
1.0
 70
   688
 72
     0
 73
     0
 74
     5
  7

 75
    16
147
1.0
148
0.0
149
0.0
100
AcDbLayout
  1
Layout2
 70
     1
 71
     2
 10
0.0
 20
0.0
 11
0.0
 21
0.0
 12
0.0
 22
0.0
 32
0.0
 14
0.0
 24
0.0
 34
0.0
 15
0.0
 25
0.0
 35
0.0
146
0.0
 13
0.0
 23
0.0
 33
0.0
 16
1.0
 26
0.0
 36
0.0
 17
0.0
 27
1.0
 37
0.0
 76
     0
330
23
  0
LAYOUT
  5
22
102
{ACAD_REACTORS
330
1A
102
}
330
1A
100
AcDbPlotSettings
  1

  2

  4

  6

 40
0.0
 41
0.0
 42
0.0
 43
0.0
 44
0.0
 45
0.0
 46
0.0
 47
0.0
 48
0.0
 49
0.0
140
0.0
141
0.0
142
1.0
143
1.0
 70
  1712
 72
     0
 73
     0
 74
     0
  7

 75
     0
147
1.0
148
0.0
149
0.0
100
AcDbLayout
  1
Model
 70
     1
 71
     0
 10
0.0
 20
0.0
 11
0.0
 21
0.0
 12
0.0
 22
0.0
 32
0.0
 14
0.0
 24
0.0
 34
0.0
 15
210.0
 25
297.0
 35
0.0
146
0.0
 13
0.0
 23
0.0
 33
0.0
 16
1.0
 26
0.0
 36
0.0
 17
0.0
 27
1.0
 37
0.0
 76
     0
330
1F
  0
MLINESTYLE
  5
18
102
{ACAD_REACTORS
330
17
102
}
330
17
100
AcDbMlineStyle
  2
Standard
 70
     0
  3

 62
   256
 51
90.0
 52
90.0
 71
     2
 49
0.5
 62
   256
  6
BYLAYER
 49
-0.5
 62
   256
  6
BYLAYER
  0
ACDBPLACEHOLDER
  5
F
102
{ACAD_REACTORS
330
E
102
}
330
E
  0
ENDSEC
  0
EOF
