  0
SECTION
  2
HEADER
  9
$ACADVER
  1
AC1015
  9
$ACADMAINTVER
 70
     6
  9
$DWGCODEPAGE
  3
DOS932
  9
$INSBASE
 10
0.0
 20
0.0
 30
0.0
  9
$EXTMIN
 10
0.0
 20
0.0
 30
0.0
  9
$EXTMAX
 10
210.0
 20
297.0
 30
0.0
  9
$LIMMIN
 10
0.0
 20
0.0
  9
$LIMMAX
 10
0.0
 20
0.0
  9
$ORTHOMODE
 70
     0
  9
$REGENMODE
 70
     1
  9
$FILLMODE
 70
     1
  9
$QTEXTMODE
 70
     0
  9
$MIRRTEXT
 70
     1
  9
$LTSCALE
 40
1.0
  9
$ATTMODE
 70
     1
  9
$TEXTSIZE
 40
3.5
  9
$TRACEWID
 40
1.0
  9
$TEXTSTYLE
  7
Standard
  9
$CLAYER
  8
0
  9
$CELTYPE
  6
ByLayer
  9
$CECOLOR
 62
   256
  9
$CELTSCALE
 40
1.0
  9
$DISPSILH
 70
     0
  9
$DIMSCALE
 40
1.0
  9
$DIMASZ
 40
3.0
  9
$DIMEXO
 40
1.0
  9
$DIMDLI
 40
3.75
  9
$DIMRND
 40
0.0
  9
$DIMDLE
 40
0.0
  9
$DIMEXE
 40
1.0
  9
$DIMTP
 40
0.0
  9
$DIMTM
 40
0.0
  9
$DIMTXT
 40
1.1
  9
$DIMCEN
 40
2.5
  9
$DIMTSZ
 40
0.0
  9
$DIMTOL
 70
     0
  9
$DIMLIM
 70
     0
  9
$DIMTIH
 70
     1
  9
$DIMTOH
 70
     1
  9
$DIMSE1
 70
     0
  9
$DIMSE2
 70
     0
  9
$DIMTAD
 70
     1
  9
$DIMZIN
 70
     1
  9
$DIMBLK
  1

  9
$DIMASO
 70
     1
  9
$DIMSHO
 70
     1
  9
$DIMPOST
  1

  9
$DIMAPOST
  1

  9
$DIMALT
 70
     0
  9
$DIMALTD
 70
     3
  9
$DIMALTF
 40
0.0393700787
  9
$DIMLFAC
 40
1.0
  9
$DIMTOFL
 70
     1
  9
$DIMTVP
 40
0.0
  9
$DIMTIX
 70
     0
  9
$DIMSOXD
 70
     0
  9
$DIMSAH
 70
     0
  9
$DIMBLK1
  1

  9
$DIMBLK2
  1

  9
$DIMSTYLE
  2
ISO-25
  9
$DIMCLRD
 70
     0
  9
$DIMCLRE
 70
     0
  9
$DIMCLRT
 70
     0
  9
$DIMTFAC
 40
1.0
  9
$DIMGAP
 40
1.524
  9
$DIMJUST
 70
     0
  9
$DIMSD1
 70
     0
  9
$DIMSD2
 70
     0
  9
$DIMTOLJ
 70
     0
  9
$DIMTZIN
 70
     1
  9
$DIMALTZ
 70
     0
  9
$DIMALTTZ
 70
     0
  9
$DIMUPT
 70
     0
  9
$DIMDEC
 70
     2
  9
$DIMTDEC
 70
     2
  9
$DIMALTU
 70
     2
  9
$DIMALTTD
 70
     3
  9
$DIMTXSTY
  7
Standard
  9
$DIMAUNIT
 70
     0
  9
$DIMADEC
 70
     0
  9
$DIMALTRND
 40
0.0
  9
$DIMAZIN
 70
     0
  9
$DIMDSEP
 70
    44
  9
$DIMATFIT
 70
     3
  9
$DIMFRAC
 70
     0
  9
$DIMLDRBLK
  1

  9
$DIMLUNIT
 70
     2
  9
$DIMLWD
 70
    -2
  9
$DIMLWE
 70
    -2
  9
$DIMTMOVE
 70
     0
  9
$LUNITS
 70
     2
  9
$LUPREC
 70
     2
  9
$SKETCHINC
 40
1.0
  9
$FILLETRAD
 40
10.0
  9
$AUNITS
 70
     0
  9
$AUPREC
 70
     0
  9
$MENU
  1
.
  9
$ELEVATION
 40
0.0
  9
$PELEVATION
 40
0.0
  9
$THICKNESS
 40
0.0
  9
$LIMCHECK
 70
     0
  9
$CHAMFERA
 40
10.0
  9
$CHAMFERB
 40
10.0
  9
$CHAMFERC
 40
20.0
  9
$CHAMFERD
 40
0.0
  9
$SKPOLY
 70
     0
  9
$TDCREATE
 40
2454389.592119317
  9
$TDUCREATE
 40
2454389.217119317
  9
$TDUPDATE
 40
2454389.592119329
  9
$TDUUPDATE
 40
2454389.217119329
  9
$TDINDWG
 40
0.0000000116
  9
$TDUSRTIMER
 40
0.0000000116
  9
$USRTIMER
 70
     1
  9
$ANGBASE
 50
0.0
  9
$ANGDIR
 70
     0
  9
$PDMODE
 70
     0
  9
$PDSIZE
 40
-1.0
  9
$PLINEWID
 40
0.0
  9
$SPLFRAME
 70
     0
  9
$SPLINETYPE
 70
     6
  9
$SPLINESEGS
 70
     8
  9
$HANDSEED
  5
2CF
  9
$SURFTAB1
 70
     6
  9
$SURFTAB2
 70
     6
  9
$SURFTYPE
 70
     6
  9
$SURFU
 70
     6
  9
$SURFV
 70
     6
  9
$UCSBASE
  2

  9
$UCSNAME
  2

  9
$UCSORG
 10
0.0
 20
0.0
 30
0.0
  9
$UCSXDIR
 10
1.0
 20
0.0
 30
0.0
  9
$UCSYDIR
 10
0.0
 20
1.0
 30
0.0
  9
$UCSORTHOREF
  2

  9
$UCSORTHOVIEW
 70
     0
  9
$UCSORGTOP
 10
0.0
 20
0.0
 30
0.0
  9
$UCSORGBOTTOM
 10
0.0
 20
0.0
 30
0.0
  9
$UCSORGLEFT
 10
0.0
 20
0.0
 30
0.0
  9
$UCSORGRIGHT
 10
0.0
 20
0.0
 30
0.0
  9
$UCSORGFRONT
 10
0.0
 20
0.0
 30
0.0
  9
$UCSORGBACK
 10
0.0
 20
0.0
 30
0.0
  9
$PUCSBASE
  2

  9
$PUCSNAME
  2

  9
$PUCSORG
 10
0.0
 20
0.0
 30
0.0
  9
$PUCSXDIR
 10
1.0
 20
0.0
 30
0.0
  9
$PUCSYDIR
 10
0.0
 20
1.0
 30
0.0
  9
$PUCSORTHOREF
  2

  9
$PUCSORTHOVIEW
 70
     0
  9
$PUCSORGTOP
 10
0.0
 20
0.0
 30
0.0
  9
$PUCSORGBOTTOM
 10
0.0
 20
0.0
 30
0.0
  9
$PUCSORGLEFT
 10
0.0
 20
0.0
 30
0.0
  9
$PUCSORGRIGHT
 10
0.0
 20
0.0
 30
0.0
  9
$PUCSORGFRONT
 10
0.0
 20
0.0
 30
0.0
  9
$PUCSORGBACK
 10
0.0
 20
0.0
 30
0.0
  9
$USERI1
 70
     0
  9
$USERI2
 70
     0
  9
$USERI3
 70
     0
  9
$USERI4
 70
     0
  9
$USERI5
 70
     0
  9
$USERR1
 40
0.0
  9
$USERR2
 40
0.0
  9
$USERR3
 40
0.0
  9
$USERR4
 40
0.0
  9
$USERR5
 40
0.0
  9
$WORLDVIEW
 70
     1
  9
$SHADEDGE
 70
     3
  9
$SHADEDIF
 70
    70
  9
$TILEMODE
 70
     1
  9
$MAXACTVP
 70
    64
  9
$PINSBASE
 10
0.0
 20
0.0
 30
0.0
  9
$PLIMCHECK
 70
     0
  9
$PEXTMIN
 10
1.0000000000E+20
 20
1.0000000000E+20
 30
1.0000000000E+20
  9
$PEXTMAX
 10
-1.0000000000E+20
 20
-1.0000000000E+20
 30
-1.0000000000E+20
  9
$PLIMMIN
 10
0.0
 20
0.0
  9
$PLIMMAX
 10
420.0
 20
297.0
  9
$UNITMODE
 70
     0
  9
$VISRETAIN
 70
     1
  9
$PLINEGEN
 70
     0
  9
$PSLTSCALE
 70
     1
  9
$TREEDEPTH
 70
  3020
  9
$CMLSTYLE
  2
Standard
  9
$CMLJUST
 70
     0
  9
$CMLSCALE
 40
20.0
  9
$PROXYGRAPHICS
 70
     1
  9
$MEASUREMENT
 70
     1
  9
$CELWEIGHT
370
    -1
  9
$ENDCAPS
280
     0
  9
$JOINSTYLE
280
     0
  9
$LWDISPLAY
290
     1
  9
$INSUNITS
 70
     4
  9
$HYPERLINKBASE
  1

  9
$STYLESHEET
  1

  9
$XEDIT
290
     1
  9
$CEPSNTYPE
380
     0
  9
$PSTYLEMODE
290
     1
  9
$FINGERPRINTGUID
  2
{C3EA11A4-2E61-44F5-B08B-1F960930CC99}
  9
$VERSIONGUID
  2
{FAEB1C32-E019-11D5-929B-00C0DF256EC4}
  9
$EXTNAMES
290
     1
  9
$PSVPSCALE
 40
0.0
  9
$OLESTARTUP
290
     0
  0
ENDSEC
  0
SECTION
  2
CLASSES
  0
CLASS
  1
ACDBDICTIONARYWDFLT
  2
AcDbDictionaryWithDefault
  3
ObjectDBX Classes
 90
        0
280
     0
281
     0
  0
CLASS
  1
ACDBPLACEHOLDER
  2
AcDbPlaceHolder
  3
ObjectDBX Classes
 90
        0
280
     0
281
     0
  0
CLASS
  1
LAYOUT
  2
AcDbLayout
  3
ObjectDBX Classes
 90
        0
280
     0
281
     0
  0
ENDSEC
  0
SECTION
  2
TABLES
  0
TABLE
  2
VPORT
  5
8
330
0
100
AcDbSymbolTable
 70
     1
  0
VPORT
  5
29
330
8
100
AcDbSymbolTableRecord
100
AcDbViewportTableRecord
  2
*Active
 70
     0
 10
0.0
 20
0.0
 11
1.0
 21
1.0
 12
105.0
 22
148.5
 13
0.0
 23
0.0
 14
10.0
 24
10.0
 15
10.0
 25
10.0
 16
0.0
 26
0.0
 36
1.0
 17
0.0
 27
0.0
 37
0.0
 40
297.0
 41
1.9729729729
 42
50.0
 43
0.0
 44
0.0
 50
0.0
 51
0.0
 71
     0
 72
  2000
 73
     1
 74
     3
 75
     0
 76
     0
 77
     0
 78
     0
281
     0
 65
     1
110
0.0
120
0.0
130
0.0
111
1.0
121
0.0
131
0.0
112
0.0
122
1.0
132
0.0
 79
     0
146
0.0
  0
ENDTAB
  0
TABLE
  2
LTYPE
  5
5
330
0
100
AcDbSymbolTable
 70
     6
  0
LTYPE
  5
14
330
5
100
AcDbSymbolTableRecord
100
AcDbLinetypeTableRecord
  2
ByBlock
 70
     0
  3

 72
    65
 73
     0
 40
0.0
  0
LTYPE
  5
15
330
5
100
AcDbSymbolTableRecord
100
AcDbLinetypeTableRecord
  2
ByLayer
 70
     0
  3

 72
    65
 73
     0
 40
0.0
  0
LTYPE
  5
16
330
5
100
AcDbSymbolTableRecord
100
AcDbLinetypeTableRecord
  2
Continuous
 70
     0
  3
Solid line
 72
    65
 73
     0
 40
0.0
  0
LTYPE
  5
2A
330
5
100
AcDbSymbolTableRecord
100
AcDbLinetypeTableRecord
  2
HIDDEN
 70
     0
  3
Hidden __ __ __ __ __ __ __ __ __ __ __ __ __ __
 72
    65
 73
     2
 40
1.905
 49
1.27
 74
     0
 49
-0.635
 74
     0
  0
LTYPE
  5
2B
330
5
100
AcDbSymbolTableRecord
100
AcDbLinetypeTableRecord
  2
PHANTOM
 70
     0
  3
Phantom ______  __  __  ______  __  __  ______
 72
    65
 73
     6
 40
12.7
 49
6.35
 74
     0
 49
-1.27
 74
     0
 49
1.27
 74
     0
 49
-1.27
 74
     0
 49
1.27
 74
     0
 49
-1.27
 74
     0
  0
LTYPE
  5
2C
330
5
100
AcDbSymbolTableRecord
100
AcDbLinetypeTableRecord
  2
CENTER
 70
     0
  3
Center ____ _ ____ _ ____ _ ____ _ ____ _ ____
 72
    65
 73
     4
 40
10.16
 49
6.35
 74
     0
 49
-1.27
 74
     0
 49
1.27
 74
     0
 49
-1.27
 74
     0
  0
LTYPE
  5
2D
330
5
100
AcDbSymbolTableRecord
100
AcDbLinetypeTableRecord
  2
CENTERX2
 70
     0
  3
Center (2x) ________  __  ________  __  _____
 72
    65
 73
     4
 40
20.32
 49
12.7
 74
     0
 49
-2.54
 74
     0
 49
2.54
 74
     0
 49
-2.54
 74
     0
  0
LTYPE
  5
2E
330
5
100
AcDbSymbolTableRecord
100
AcDbLinetypeTableRecord
  2
DOT2
 70
     0
  3
Dot (.5x) ........................................
 72
    65
 73
     2
 40
0.635
 49
0.0
 74
     0
 49
-0.635
 74
     0
  0
ENDTAB
  0
TABLE
  2
LAYER
  5
2
330
0
100
AcDbSymbolTable
 70
     9
  0
LAYER
  5
10
330
2
100
AcDbSymbolTableRecord
100
AcDbLayerTableRecord
  2
0
 70
     0
 62
     7
  6
Continuous
370
    -3
390
F
  0
LAYER
  5
2F
330
2
100
AcDbSymbolTableRecord
100
AcDbLayerTableRecord
  2
SLD-0
 70
     0
 62
     7
  6
Continuous
370
     0
390
F
  0
LAYER
  5
30
330
2
100
AcDbSymbolTableRecord
100
AcDbLayerTableRecord
  2
Z_OM_OUTLINE
 70
     0
 62
     7
  6
Continuous
370
     0
390
F
  0
LAYER
  5
31
330
2
100
AcDbSymbolTableRecord
100
AcDbLayerTableRecord
  2
Z_OM_NOTE
 70
     0
 62
     4
  6
Continuous
370
     0
390
F
  0
LAYER
  5
32
330
2
100
AcDbSymbolTableRecord
100
AcDbLayerTableRecord
  2
Z_OM_CENTER
 70
     0
 62
     2
  6
CENTER
370
     0
390
F
  0
LAYER
  5
33
330
2
100
AcDbSymbolTableRecord
100
AcDbLayerTableRecord
  2
Z_OM_DIM
 70
     0
 62
     4
  6
Continuous
370
     0
390
F
  0
LAYER
  5
34
330
2
100
AcDbSymbolTableRecord
100
AcDbLayerTableRecord
  2
SLD-DEFPOINTS
 70
     0
 62
     7
  6
Continuous
370
     0
390
F
  0
LAYER
  5
35
330
2
100
AcDbSymbolTableRecord
100
AcDbLayerTableRecord
  2
Z_OM_THIN_LINE
 70
     0
 62
     2
  6
Continuous
370
     0
390
F
  0
LAYER
  5
102
330
2
100
AcDbSymbolTableRecord
100
AcDbLayerTableRecord
  2
Defpoints
 70
     0
 62
     7
  6
Continuous
290
     0
370
    -3
390
F
  0
ENDTAB
  0
TABLE
  2
STYLE
  5
3
330
0
100
AcDbSymbolTable
 70
    10
  0
STYLE
  5
11
330
3
100
AcDbSymbolTableRecord
100
AcDbTextStyleTableRecord
  2
Standard
 70
     0
 40
0.0
 41
1.0
 50
0.0
 71
     0
 42
2.5
  3
txt
  4
bigfont
  0
STYLE
  5
39
330
3
100
AcDbSymbolTableRecord
100
AcDbTextStyleTableRecord
  2
SLDTEXTSTYLE0
 70
     0
 40
0.0
 41
0.7
 50
0.0
 71
     0
 42
0.2
  3
TXT
  4
bigfont
  0
STYLE
  5
10F
330
3
100
AcDbSymbolTableRecord
100
AcDbTextStyleTableRecord
  2
SLDTEXTSTYLE1
 70
     0
 40
0.0
 41
1.08
 50
0.0
 71
     0
 42
0.2
  3
TXT
  4
bigfont
  0
STYLE
  5
11D
330
3
100
AcDbSymbolTableRecord
100
AcDbTextStyleTableRecord
  2
SLDTEXTSTYLE2
 70
     0
 40
0.0
 41
0.96
 50
0.0
 71
     0
 42
0.2
  3
TXT
  4
bigfont
  0
STYLE
  5
2AF
330
3
100
AcDbSymbolTableRecord
100
AcDbTextStyleTableRecord
  2
SLDTEXTSTYLE3
 70
     0
 40
0.0
 41
1.02
 50
0.0
 71
     0
 42
0.2
  3
TXT
  4
bigfont
  0
STYLE
  5
2B1
330
3
100
AcDbSymbolTableRecord
100
AcDbTextStyleTableRecord
  2
SLDTEXTSTYLE4
 70
     0
 40
0.0
 41
1.0
 50
0.0
 71
     0
 42
0.2
  3
TXT
  4
bigfont
  0
STYLE
  5
2B3
330
3
100
AcDbSymbolTableRecord
100
AcDbTextStyleTableRecord
  2
SLDTEXTSTYLE5
 70
     0
 40
0.0
 41
0.9642857143
 50
0.0
 71
     0
 42
0.2
  3
TXT
  4
bigfont
  0
STYLE
  5
2B5
330
3
100
AcDbSymbolTableRecord
100
AcDbTextStyleTableRecord
  2
SLDTEXTSTYLE6
 70
     0
 40
0.0
 41
0.9805263158
 50
0.0
 71
     0
 42
0.2
  3
TXT
  4
bigfont
  0
STYLE
  5
2BA
330
3
100
AcDbSymbolTableRecord
100
AcDbTextStyleTableRecord
  2
SLDTEXTSTYLE7
 70
     0
 40
0.0
 41
1.0125
 50
0.0
 71
     0
 42
0.2
  3
TXT
  4
bigfont
  0
STYLE
  5
2BF
330
3
100
AcDbSymbolTableRecord
100
AcDbTextStyleTableRecord
  2
SLDTEXTSTYLE8
 70
     0
 40
0.0
 41
1.0028571429
 50
0.0
 71
     0
 42
0.2
  3
TXT
  4
bigfont
  0
ENDTAB
  0
TABLE
  2
VIEW
  5
6
330
0
100
AcDbSymbolTable
 70
     0
  0
ENDTAB
  0
TABLE
  2
UCS
  5
7
330
0
100
AcDbSymbolTable
 70
     0
  0
ENDTAB
  0
TABLE
  2
APPID
  5
9
330
0
100
AcDbSymbolTable
 70
     1
  0
APPID
  5
12
330
9
100
AcDbSymbolTableRecord
100
AcDbRegAppTableRecord
  2
ACAD
 70
     0
  0
ENDTAB
  0
TABLE
  2
DIMSTYLE
  5
A
330
0
100
AcDbSymbolTable
 70
     4
100
AcDbDimStyleTable
  0
DIMSTYLE
105
27
330
A
100
AcDbSymbolTableRecord
100
AcDbDimStyleTableRecord
  2
ISO-25
 70
     0
 41
2.5
 42
0.625
 43
3.75
 44
1.25
 73
     0
 74
     0
 77
     1
 78
     8
140
2.5
141
2.5
143
0.0393700787
147
0.625
171
     3
172
     1
271
     2
272
     2
274
     3
278
    44
283
     0
284
     8
340
11
  0
DIMSTYLE
105
110
102
{ACAD_REACTORS
330
101
330
11F
330
137
330
14E
330
166
330
1C6
330
1FD
330
215
330
248
330
293
102
}
330
A
100
AcDbSymbolTableRecord
100
AcDbDimStyleTableRecord
  2
SLDDIMSTYLE0
 70
     0
 41
3.0
 44
0.0
 73
     0
 74
     0
 77
     3
 78
    12
140
1.1
147
0.275
173
     1
271
     1
284
    12
340
10F
341
111
343
111
344
111
  0
DIMSTYLE
105
188
102
{ACAD_REACTORS
330
17E
102
}
330
A
100
AcDbSymbolTableRecord
100
AcDbDimStyleTableRecord
  2
SLDDIMSTYLE1
 70
     0
 41
3.0
 44
0.0
 78
    12
140
1.1
147
0.275
173
     1
271
     1
284
    12
340
10F
341
111
343
111
344
111
  0
DIMSTYLE
105
19D
102
{ACAD_REACTORS
330
18F
330
1AB
330
1E2
330
22D
330
260
330
277
102
}
330
A
100
AcDbSymbolTableRecord
100
AcDbDimStyleTableRecord
  2
SLDDIMSTYLE2
 70
     0
 41
3.0
 44
0.0
 73
     0
 74
     0
 77
     3
 78
    12
140
1.1
147
0.275
173
     1
271
     0
284
    12
340
10F
341
111
343
111
344
111
  0
ENDTAB
  0
TABLE
  2
BLOCK_RECORD
  5
1
330
0
100
AcDbSymbolTable
 70
    22
  0
BLOCK_RECORD
  5
1F
330
1
100
AcDbSymbolTableRecord
100
AcDbBlockTableRecord
  2
*Model_Space
340
22
  0
BLOCK_RECORD
  5
1B
330
1
100
AcDbSymbolTableRecord
100
AcDbBlockTableRecord
  2
*Paper_Space
340
1E
  0
BLOCK_RECORD
  5
23
330
1
100
AcDbSymbolTableRecord
100
AcDbBlockTableRecord
  2
*Paper_Space0
340
26
  0
BLOCK_RECORD
  5
36
330
1
100
AcDbSymbolTableRecord
100
AcDbBlockTableRecord
  2
注記
340
0
  0
BLOCK_RECORD
  5
103
330
1
100
AcDbSymbolTableRecord
100
AcDbBlockTableRecord
  2
*D2
340
0
  0
BLOCK_RECORD
  5
111
330
1
100
AcDbSymbolTableRecord
100
AcDbBlockTableRecord
  2
_None
340
0
102
{BLKREFS
331
108
331
107
331
125
331
124
331
13D
331
13C
331
154
331
153
331
16C
331
16B
331
183
331
197
331
196
331
1B3
331
1B2
331
1CD
331
1CC
331
1EA
331
1E9
331
203
331
202
331
21B
331
21A
331
235
331
234
331
24E
331
24D
331
266
331
265
331
27E
331
27D
331
29A
331
299
102
}
  0
BLOCK_RECORD
  5
120
330
1
100
AcDbSymbolTableRecord
100
AcDbBlockTableRecord
  2
*D4
340
0
  0
BLOCK_RECORD
  5
138
330
1
100
AcDbSymbolTableRecord
100
AcDbBlockTableRecord
  2
*D5
340
0
  0
BLOCK_RECORD
  5
14F
330
1
100
AcDbSymbolTableRecord
100
AcDbBlockTableRecord
  2
*D6
340
0
  0
BLOCK_RECORD
  5
167
330
1
100
AcDbSymbolTableRecord
100
AcDbBlockTableRecord
  2
*D7
340
0
  0
BLOCK_RECORD
  5
17F
330
1
100
AcDbSymbolTableRecord
100
AcDbBlockTableRecord
  2
*D8
340
0
  0
BLOCK_RECORD
  5
190
330
1
100
AcDbSymbolTableRecord
100
AcDbBlockTableRecord
  2
*D9
340
0
  0
BLOCK_RECORD
  5
1AC
330
1
100
AcDbSymbolTableRecord
100
AcDbBlockTableRecord
  2
*D10
340
0
  0
BLOCK_RECORD
  5
1C7
330
1
100
AcDbSymbolTableRecord
100
AcDbBlockTableRecord
  2
*D11
340
0
  0
BLOCK_RECORD
  5
1E3
330
1
100
AcDbSymbolTableRecord
100
AcDbBlockTableRecord
  2
*D12
340
0
  0
BLOCK_RECORD
  5
1FE
330
1
100
AcDbSymbolTableRecord
100
AcDbBlockTableRecord
  2
*D13
340
0
  0
BLOCK_RECORD
  5
216
330
1
100
AcDbSymbolTableRecord
100
AcDbBlockTableRecord
  2
*D14
340
0
  0
BLOCK_RECORD
  5
22E
330
1
100
AcDbSymbolTableRecord
100
AcDbBlockTableRecord
  2
*D15
340
0
  0
BLOCK_RECORD
  5
249
330
1
100
AcDbSymbolTableRecord
100
AcDbBlockTableRecord
  2
*D16
340
0
  0
BLOCK_RECORD
  5
261
330
1
100
AcDbSymbolTableRecord
100
AcDbBlockTableRecord
  2
*D17
340
0
  0
BLOCK_RECORD
  5
278
330
1
100
AcDbSymbolTableRecord
100
AcDbBlockTableRecord
  2
*D18
340
0
  0
BLOCK_RECORD
  5
294
330
1
100
AcDbSymbolTableRecord
100
AcDbBlockTableRecord
  2
*D19
340
0
  0
BLOCK_RECORD
  5
2B7
330
1
100
AcDbSymbolTableRecord
100
AcDbBlockTableRecord
  2
SW_NOTE_0
340
0
102
{BLKREFS
331
2C2
102
}
  0
BLOCK_RECORD
  5
2C8
330
1
100
AcDbSymbolTableRecord
100
AcDbBlockTableRecord
  2
SW_NOTE_1
340
0
102
{BLKREFS
331
2CD
102
}
  0
ENDTAB
  0
ENDSEC
  0
SECTION
  2
BLOCKS
  0
BLOCK
  5
20
330
1F
100
AcDbEntity
  8
0
100
AcDbBlockBegin
  2
*Model_Space
 70
     0
 71
     0
 10
0.0
 20
0.0
 30
0.0
  3
*Model_Space
  1

  0
ENDBLK
  5
21
330
1F
100
AcDbEntity
  8
0
100
AcDbBlockEnd
  0
BLOCK
  5
1C
330
1B
100
AcDbEntity
 67
     1
  8
0
100
AcDbBlockBegin
  2
*Paper_Space
 70
     0
 71
     0
 10
0.0
 20
0.0
 30
0.0
  3
*Paper_Space
  1

  0
ENDBLK
  5
1D
330
1B
100
AcDbEntity
 67
     1
  8
0
100
AcDbBlockEnd
  0
BLOCK
  5
24
330
23
100
AcDbEntity
  8
0
100
AcDbBlockBegin
  2
*Paper_Space0
 70
     0
 71
     0
 10
0.0
 20
0.0
 30
0.0
  3
*Paper_Space0
  1

  0
ENDBLK
  5
25
330
23
100
AcDbEntity
  8
0
100
AcDbBlockEnd
  0
BLOCK
  5
37
330
36
100
AcDbEntity
  8
0
100
AcDbBlockBegin
  2
注記
 70
     0
 71
     0
 10
0.0
 20
0.0
 30
0.0
  3
注記
  1

  0
MTEXT
  5
3A
330
36
100
AcDbEntity
  8
0
  6
Continuous
 62
     7
370
     0
100
AcDbMText
 10
0.2636785918
 20
9.0739778448
 30
0.0
 40
3.5
 41
0.0
 71
     1
 72
     1
  1
１．特記ナキ角部ハ、バリ　カエリノ無キコト。
  7
SLDTEXTSTYLE0
 73
     1
 44
1.0
  0
MTEXT
  5
3B
330
36
100
AcDbEntity
  8
0
  6
Continuous
 62
     7
370
     0
100
AcDbMText
 10
0.2636785918
 20
3.5759549983
 30
0.0
 40
3.5
 41
0.0
 71
     1
 72
     1
  1
２．特記ナキ隅部ハ、Ｒ０．４ＭＡＸトスル。
  7
SLDTEXTSTYLE0
 73
     1
 44
1.0
  0
ENDBLK
  5
38
330
36
100
AcDbEntity
  8
0
100
AcDbBlockEnd
  0
BLOCK
  5
10D
330
103
100
AcDbEntity
  8
0
100
AcDbBlockBegin
  2
*D2
 70
     1
 71
     0
 10
0.0
 20
0.0
 30
0.0
  3
*D2
  1

  0
LINE
  5
114
330
103
100
AcDbEntity
  8
Z_OM_DIM
100
AcDbLine
 10
73.0742127139
 20
155.3243241124
 30
0.0
 11
73.0742127139
 21
146.7099630013
 31
0.0
  0
LINE
  5
115
330
103
100
AcDbEntity
  8
Z_OM_DIM
100
AcDbLine
 10
95.3742127139
 20
157.9743241124
 30
0.0
 11
95.3742127139
 21
146.7099630013
 31
0.0
  0
LINE
  5
116
330
103
100
AcDbEntity
  8
Z_OM_DIM
100
AcDbLine
 10
74.5742127139
 20
147.4599630013
 30
0.0
 11
93.8742127139
 21
147.4599630013
 31
0.0
  0
LINE
  5
117
330
103
100
AcDbEntity
  8
Z_OM_DIM
100
AcDbLine
 10
74.5742127139
 20
147.0580392163
 30
0.0
 11
73.0742127139
 21
147.4599630013
 31
0.0
  0
LINE
  5
118
330
103
100
AcDbEntity
  8
Z_OM_DIM
100
AcDbLine
 10
73.0742127139
 20
147.4599630013
 30
0.0
 11
74.5742127139
 21
147.8618867863
 31
0.0
  0
LINE
  5
119
330
103
100
AcDbEntity
  8
Z_OM_DIM
100
AcDbLine
 10
73.0742127139
 20
147.4599630013
 30
0.0
 11
74.5742127139
 21
147.4599630013
 31
0.0
  0
LINE
  5
11A
330
103
100
AcDbEntity
  8
Z_OM_DIM
100
AcDbLine
 10
93.8742127139
 20
147.8618867863
 30
0.0
 11
95.3742127139
 21
147.4599630013
 31
0.0
  0
LINE
  5
11B
330
103
100
AcDbEntity
  8
Z_OM_DIM
100
AcDbLine
 10
95.3742127139
 20
147.4599630013
 30
0.0
 11
93.8742127139
 21
147.0580392163
 31
0.0
  0
LINE
  5
11C
330
103
100
AcDbEntity
  8
Z_OM_DIM
100
AcDbLine
 10
95.3742127139
 20
147.4599630013
 30
0.0
 11
93.8742127139
 21
147.4599630013
 31
0.0
  0
MTEXT
  5
11E
330
103
100
AcDbEntity
  8
Z_OM_DIM
100
AcDbMText
 10
82.163565053
 20
149.1601788287
 30
0.1
 40
1.1
 41
0.0
 71
     1
 72
     1
  1
22.3
  7
SLDTEXTSTYLE2
 73
     1
 44
1.0
  0
ENDBLK
  5
10E
330
103
100
AcDbEntity
  8
0
100
AcDbBlockEnd
  0
BLOCK
  5
112
330
111
100
AcDbEntity
  8
0
100
AcDbBlockBegin
  2
_None
 70
     0
 71
     0
 10
0.0
 20
0.0
 30
0.0
  3
_None
  1

  0
ENDBLK
  5
113
330
111
100
AcDbEntity
  8
0
100
AcDbBlockEnd
  0
BLOCK
  5
12B
330
120
100
AcDbEntity
  8
0
100
AcDbBlockBegin
  2
*D4
 70
     1
 71
     0
 10
0.0
 20
0.0
 30
0.0
  3
*D4
  1

  0
LINE
  5
12D
330
120
100
AcDbEntity
  8
Z_OM_DIM
100
AcDbLine
 10
89.0242127139
 20
163.9743241124
 30
0.0
 11
106.6380465984
 21
163.9743241124
 31
0.0
  0
LINE
  5
12E
330
120
100
AcDbEntity
  8
Z_OM_DIM
100
AcDbLine
 10
89.0242127139
 20
157.5743241124
 30
0.0
 11
106.6380465984
 21
157.5743241124
 31
0.0
  0
LINE
  5
12F
330
120
100
AcDbEntity
  8
Z_OM_DIM
100
AcDbLine
 10
105.8880465984
 20
162.4743241124
 30
0.0
 11
105.8880465984
 21
159.0743241124
 31
0.0
  0
LINE
  5
130
330
120
100
AcDbEntity
  8
Z_OM_DIM
100
AcDbLine
 10
105.4861228134
 20
162.4743241124
 30
0.0
 11
105.8880465984
 21
163.9743241124
 31
0.0
  0
LINE
  5
131
330
120
100
AcDbEntity
  8
Z_OM_DIM
100
AcDbLine
 10
105.8880465984
 20
163.9743241124
 30
0.0
 11
106.2899703834
 21
162.4743241124
 31
0.0
  0
LINE
  5
132
330
120
100
AcDbEntity
  8
Z_OM_DIM
100
AcDbLine
 10
105.8880465984
 20
163.9743241124
 30
0.0
 11
105.8880465984
 21
162.4743241124
 31
0.0
  0
LINE
  5
133
330
120
100
AcDbEntity
  8
Z_OM_DIM
100
AcDbLine
 10
106.2899703834
 20
159.0743241124
 30
0.0
 11
105.8880465984
 21
157.5743241124
 31
0.0
  0
LINE
  5
134
330
120
100
AcDbEntity
  8
Z_OM_DIM
100
AcDbLine
 10
105.8880465984
 20
157.5743241124
 30
0.0
 11
105.4861228134
 21
159.0743241124
 31
0.0
  0
LINE
  5
135
330
120
100
AcDbEntity
  8
Z_OM_DIM
100
AcDbLine
 10
105.8880465984
 20
157.5743241124
 30
0.0
 11
105.8880465984
 21
159.0743241124
 31
0.0
  0
MTEXT
  5
136
330
120
100
AcDbEntity
  8
Z_OM_DIM
100
AcDbMText
 10
104.1878307711
 20
159.3318238849
 30
0.1
 40
1.1
 41
0.0
 71
     1
 72
     1
  1
6.4
  7
SLDTEXTSTYLE2
 11
6.123031769111886E-17
 21
1.0
 31
0.0
 73
     1
 44
1.0
  0
ENDBLK
  5
12C
330
120
100
AcDbEntity
  8
0
100
AcDbBlockEnd
  0
BLOCK
  5
142
330
138
100
AcDbEntity
  8
0
100
AcDbBlockBegin
  2
*D5
 70
     1
 71
     0
 10
0.0
 20
0.0
 30
0.0
  3
*D5
  1

  0
LINE
  5
144
330
138
100
AcDbEntity
  8
Z_OM_DIM
100
AcDbLine
 10
95.3742127139
 20
157.9743241124
 30
0.0
 11
95.3742127139
 21
141.8506630256
 31
0.0
  0
LINE
  5
145
330
138
100
AcDbEntity
  8
Z_OM_DIM
100
AcDbLine
 10
70.2742127139
 20
155.4243241124
 30
0.0
 11
70.2742127139
 21
141.8506630256
 31
0.0
  0
LINE
  5
146
330
138
100
AcDbEntity
  8
Z_OM_DIM
100
AcDbLine
 10
93.8742127139
 20
142.6006630256
 30
0.0
 11
71.7742127139
 21
142.6006630256
 31
0.0
  0
LINE
  5
147
330
138
100
AcDbEntity
  8
Z_OM_DIM
100
AcDbLine
 10
93.8742127139
 20
143.0025868106
 30
0.0
 11
95.3742127139
 21
142.6006630256
 31
0.0
  0
LINE
  5
148
330
138
100
AcDbEntity
  8
Z_OM_DIM
100
AcDbLine
 10
95.3742127139
 20
142.6006630256
 30
0.0
 11
93.8742127139
 21
142.1987392406
 31
0.0
  0
LINE
  5
149
330
138
100
AcDbEntity
  8
Z_OM_DIM
100
AcDbLine
 10
95.3742127139
 20
142.6006630256
 30
0.0
 11
93.8742127139
 21
142.6006630256
 31
0.0
  0
LINE
  5
14A
330
138
100
AcDbEntity
  8
Z_OM_DIM
100
AcDbLine
 10
71.7742127139
 20
142.1987392406
 30
0.0
 11
70.2742127139
 21
142.6006630256
 31
0.0
  0
LINE
  5
14B
330
138
100
AcDbEntity
  8
Z_OM_DIM
100
AcDbLine
 10
70.2742127139
 20
142.6006630256
 30
0.0
 11
71.7742127139
 21
143.0025868106
 31
0.0
  0
LINE
  5
14C
330
138
100
AcDbEntity
  8
Z_OM_DIM
100
AcDbLine
 10
70.2742127139
 20
142.6006630256
 30
0.0
 11
71.7742127139
 21
142.6006630256
 31
0.0
  0
MTEXT
  5
14D
330
138
100
AcDbEntity
  8
Z_OM_DIM
100
AcDbMText
 10
80.9702390622
 20
144.3008788529
 30
0.1
 40
1.1
 41
0.0
 71
     1
 72
     1
  1
25.1
  7
SLDTEXTSTYLE2
 73
     1
 44
1.0
  0
ENDBLK
  5
143
330
138
100
AcDbEntity
  8
0
100
AcDbBlockEnd
  0
BLOCK
  5
15A
330
14F
100
AcDbEntity
  8
0
100
AcDbBlockBegin
  2
*D6
 70
     1
 71
     0
 10
0.0
 20
0.0
 30
0.0
  3
*D6
  1

  0
LINE
  5
15C
330
14F
100
AcDbEntity
  8
Z_OM_DIM
100
AcDbLine
 10
75.9242127139
 20
163.5743241124
 30
0.0
 11
64.3309087139
 21
163.5743241124
 31
0.0
  0
LINE
  5
15D
330
14F
100
AcDbEntity
  8
Z_OM_DIM
100
AcDbLine
 10
69.4242127139
 20
157.6743241124
 30
0.0
 11
64.3309087139
 21
157.6743241124
 31
0.0
  0
LINE
  5
15E
330
14F
100
AcDbEntity
  8
Z_OM_DIM
100
AcDbLine
 10
65.0809087139
 20
162.0743241124
 30
0.0
 11
65.0809087139
 21
159.1743241124
 31
0.0
  0
LINE
  5
15F
330
14F
100
AcDbEntity
  8
Z_OM_DIM
100
AcDbLine
 10
64.6789849289
 20
162.0743241124
 30
0.0
 11
65.0809087139
 21
163.5743241124
 31
0.0
  0
LINE
  5
160
330
14F
100
AcDbEntity
  8
Z_OM_DIM
100
AcDbLine
 10
65.0809087139
 20
163.5743241124
 30
0.0
 11
65.4828324989
 21
162.0743241124
 31
0.0
  0
LINE
  5
161
330
14F
100
AcDbEntity
  8
Z_OM_DIM
100
AcDbLine
 10
65.0809087139
 20
163.5743241124
 30
0.0
 11
65.0809087139
 21
162.0743241124
 31
0.0
  0
LINE
  5
162
330
14F
100
AcDbEntity
  8
Z_OM_DIM
100
AcDbLine
 10
65.4828324989
 20
159.1743241124
 30
0.0
 11
65.0809087139
 21
157.6743241124
 31
0.0
  0
LINE
  5
163
330
14F
100
AcDbEntity
  8
Z_OM_DIM
100
AcDbLine
 10
65.0809087139
 20
157.6743241124
 30
0.0
 11
64.6789849289
 21
159.1743241124
 31
0.0
  0
LINE
  5
164
330
14F
100
AcDbEntity
  8
Z_OM_DIM
100
AcDbLine
 10
65.0809087139
 20
157.6743241124
 30
0.0
 11
65.0809087139
 21
159.1743241124
 31
0.0
  0
MTEXT
  5
165
330
14F
100
AcDbEntity
  8
Z_OM_DIM
100
AcDbMText
 10
63.3806928866
 20
159.1818238849
 30
0.1
 40
1.1
 41
0.0
 71
     1
 72
     1
  1
5.9
  7
SLDTEXTSTYLE2
 11
6.123031769111886E-17
 21
1.0
 31
0.0
 73
     1
 44
1.0
  0
ENDBLK
  5
15B
330
14F
100
AcDbEntity
  8
0
100
AcDbBlockEnd
  0
BLOCK
  5
172
330
167
100
AcDbEntity
  8
0
100
AcDbBlockBegin
  2
*D7
 70
     1
 71
     0
 10
0.0
 20
0.0
 30
0.0
  3
*D7
  1

  0
LINE
  5
174
330
167
100
AcDbEntity
  8
Z_OM_DIM
100
AcDbLine
 10
76.1242127139
 20
163.5743241124
 30
0.0
 11
60.4024003006
 21
163.5743241124
 31
0.0
  0
LINE
  5
175
330
167
100
AcDbEntity
  8
Z_OM_DIM
100
AcDbLine
 10
70.5242127139
 20
155.1743241124
 30
0.0
 11
60.4024003006
 21
155.1743241124
 31
0.0
  0
LINE
  5
176
330
167
100
AcDbEntity
  8
Z_OM_DIM
100
AcDbLine
 10
61.1524003006
 20
162.0743241124
 30
0.0
 11
61.1524003006
 21
156.6743241124
 31
0.0
  0
LINE
  5
177
330
167
100
AcDbEntity
  8
Z_OM_DIM
100
AcDbLine
 10
60.7504765156
 20
162.0743241124
 30
0.0
 11
61.1524003006
 21
163.5743241124
 31
0.0
  0
LINE
  5
178
330
167
100
AcDbEntity
  8
Z_OM_DIM
100
AcDbLine
 10
61.1524003006
 20
163.5743241124
 30
0.0
 11
61.5543240856
 21
162.0743241124
 31
0.0
  0
LINE
  5
179
330
167
100
AcDbEntity
  8
Z_OM_DIM
100
AcDbLine
 10
61.1524003006
 20
163.5743241124
 30
0.0
 11
61.1524003006
 21
162.0743241124
 31
0.0
  0
LINE
  5
17A
330
167
100
AcDbEntity
  8
Z_OM_DIM
100
AcDbLine
 10
61.5543240856
 20
156.6743241124
 30
0.0
 11
61.1524003006
 21
155.1743241124
 31
0.0
  0
LINE
  5
17B
330
167
100
AcDbEntity
  8
Z_OM_DIM
100
AcDbLine
 10
61.1524003006
 20
155.1743241124
 30
0.0
 11
60.7504765156
 21
156.6743241124
 31
0.0
  0
LINE
  5
17C
330
167
100
AcDbEntity
  8
Z_OM_DIM
100
AcDbLine
 10
61.1524003006
 20
155.1743241124
 30
0.0
 11
61.1524003006
 21
156.6743241124
 31
0.0
  0
MTEXT
  5
17D
330
167
100
AcDbEntity
  8
Z_OM_DIM
100
AcDbMText
 10
59.4521844733
 20
157.9318238849
 30
0.1
 40
1.1
 41
0.0
 71
     1
 72
     1
  1
8.4
  7
SLDTEXTSTYLE2
 11
6.123031769111886E-17
 21
1.0
 31
0.0
 73
     1
 44
1.0
  0
ENDBLK
  5
173
330
167
100
AcDbEntity
  8
0
100
AcDbBlockEnd
  0
BLOCK
  5
186
330
17F
100
AcDbEntity
  8
0
100
AcDbBlockBegin
  2
*D8
 70
     1
 71
     0
 10
0.0
 20
0.0
 30
0.0
  3
*D8
  1

  0
LINE
  5
189
330
17F
100
AcDbEntity
  8
Z_OM_DIM
100
AcDbLine
 10
74.1346295293
 20
154.8679890183
 30
0.0
 11
76.4187672884
 21
148.8231433877
 31
0.0
  0
LINE
  5
18A
330
17F
100
AcDbEntity
  8
Z_OM_DIM
100
AcDbLine
 10
73.0742127139
 20
157.6743241124
 30
0.0
 11
73.6044211358
 21
156.2711565277
 31
0.0
  0
LINE
  5
18B
330
17F
100
AcDbEntity
  8
Z_OM_DIM
100
AcDbLine
 10
73.7586519317
 20
154.7259201087
 30
0.0
 11
73.6044211358
 21
156.2711565277
 31
0.0
  0
LINE
  5
18C
330
17F
100
AcDbEntity
  8
Z_OM_DIM
100
AcDbLine
 10
73.6044211358
 20
156.2711565277
 30
0.0
 11
74.5106071269
 21
155.0100579279
 31
0.0
  0
LINE
  5
18D
330
17F
100
AcDbEntity
  8
Z_OM_DIM
100
AcDbLine
 10
73.6044211358
 20
156.2711565277
 30
0.0
 11
74.1346295293
 21
154.8679890183
 31
0.0
  0
MTEXT
  5
18E
330
17F
100
AcDbEntity
  8
Z_OM_DIM
100
AcDbMText
 10
76.6527741186
 20
153.0138974145
 30
0.1
 40
1.1
 41
0.0
 71
     1
 72
     1
  1
R1.5
  7
SLDTEXTSTYLE2
 11
0.353472262320623
 21
-0.9354450062777292
 31
0.0
 73
     1
 44
1.0
  0
ENDBLK
  5
187
330
17F
100
AcDbEntity
  8
0
100
AcDbBlockEnd
  0
BLOCK
  5
19B
330
190
100
AcDbEntity
  8
0
100
AcDbBlockBegin
  2
*D9
 70
     1
 71
     0
 10
0.0
 20
0.0
 30
0.0
  3
*D9
  1

  0
LINE
  5
19F
330
190
100
AcDbEntity
  8
Z_OM_DIM
100
AcDbLine
 10
76.9742127139
 20
157.3243241124
 30
0.0
 11
76.9742127139
 21
154.1189141009
 31
0.0
  0
LINE
  5
1A0
330
190
100
AcDbEntity
  8
Z_OM_DIM
100
AcDbLine
 10
78.9742127139
 20
157.3243241124
 30
0.0
 11
78.9742127139
 21
154.1189141009
 31
0.0
  0
LINE
  5
1A1
330
190
100
AcDbEntity
  8
Z_OM_DIM
100
AcDbLine
 10
75.4742127139
 20
154.8689141009
 30
0.0
 11
73.9742127139
 21
154.8689141009
 31
0.0
  0
LINE
  5
1A2
330
190
100
AcDbEntity
  8
Z_OM_DIM
100
AcDbLine
 10
80.4742127139
 20
154.8689141009
 30
0.0
 11
81.9742127139
 21
154.8689141009
 31
0.0
  0
LINE
  5
1A3
330
190
100
AcDbEntity
  8
Z_OM_DIM
100
AcDbLine
 10
76.9742127139
 20
154.8689141009
 30
0.0
 11
78.9742127139
 21
154.8689141009
 31
0.0
  0
LINE
  5
1A4
330
190
100
AcDbEntity
  8
Z_OM_DIM
100
AcDbLine
 10
75.4742127139
 20
155.2708378859
 30
0.0
 11
76.9742127139
 21
154.8689141009
 31
0.0
  0
LINE
  5
1A5
330
190
100
AcDbEntity
  8
Z_OM_DIM
100
AcDbLine
 10
76.9742127139
 20
154.8689141009
 30
0.0
 11
75.4742127139
 21
154.4669903159
 31
0.0
  0
LINE
  5
1A6
330
190
100
AcDbEntity
  8
Z_OM_DIM
100
AcDbLine
 10
76.9742127139
 20
154.8689141009
 30
0.0
 11
75.4742127139
 21
154.8689141009
 31
0.0
  0
LINE
  5
1A7
330
190
100
AcDbEntity
  8
Z_OM_DIM
100
AcDbLine
 10
80.4742127139
 20
154.4669903159
 30
0.0
 11
78.9742127139
 21
154.8689141009
 31
0.0
  0
LINE
  5
1A8
330
190
100
AcDbEntity
  8
Z_OM_DIM
100
AcDbLine
 10
78.9742127139
 20
154.8689141009
 30
0.0
 11
80.4742127139
 21
155.2708378859
 31
0.0
  0
LINE
  5
1A9
330
190
100
AcDbEntity
  8
Z_OM_DIM
100
AcDbLine
 10
78.9742127139
 20
154.8689141009
 30
0.0
 11
80.4742127139
 21
154.8689141009
 31
0.0
  0
MTEXT
  5
1AA
330
190
100
AcDbEntity
  8
Z_OM_DIM
100
AcDbMText
 10
77.3560652805
 20
156.5691299282
 30
0.1
 40
1.1
 41
0.0
 71
     1
 72
     1
  1
2
  7
SLDTEXTSTYLE2
 73
     1
 44
1.0
  0
ENDBLK
  5
19C
330
190
100
AcDbEntity
  8
0
100
AcDbBlockEnd
  0
BLOCK
  5
1B7
330
1AC
100
AcDbEntity
  8
0
100
AcDbBlockBegin
  2
*D10
 70
     1
 71
     0
 10
0.0
 20
0.0
 30
0.0
  3
*D10
  1

  0
LINE
  5
1BA
330
1AC
100
AcDbEntity
  8
Z_OM_DIM
100
AcDbLine
 10
86.7742127139
 20
157.3243241124
 30
0.0
 11
86.7742127139
 21
154.1769141286
 31
0.0
  0
LINE
  5
1BB
330
1AC
100
AcDbEntity
  8
Z_OM_DIM
100
AcDbLine
 10
88.7742127139
 20
157.3243241124
 30
0.0
 11
88.7742127139
 21
154.1769141286
 31
0.0
  0
LINE
  5
1BC
330
1AC
100
AcDbEntity
  8
Z_OM_DIM
100
AcDbLine
 10
85.2742127139
 20
154.9269141286
 30
0.0
 11
83.7742127139
 21
154.9269141286
 31
0.0
  0
LINE
  5
1BD
330
1AC
100
AcDbEntity
  8
Z_OM_DIM
100
AcDbLine
 10
90.2742127139
 20
154.9269141286
 30
0.0
 11
91.7742127139
 21
154.9269141286
 31
0.0
  0
LINE
  5
1BE
330
1AC
100
AcDbEntity
  8
Z_OM_DIM
100
AcDbLine
 10
86.7742127139
 20
154.9269141286
 30
0.0
 11
88.7742127139
 21
154.9269141286
 31
0.0
  0
LINE
  5
1BF
330
1AC
100
AcDbEntity
  8
Z_OM_DIM
100
AcDbLine
 10
85.2742127139
 20
155.3288379136
 30
0.0
 11
86.7742127139
 21
154.9269141286
 31
0.0
  0
LINE
  5
1C0
330
1AC
100
AcDbEntity
  8
Z_OM_DIM
100
AcDbLine
 10
86.7742127139
 20
154.9269141286
 30
0.0
 11
85.2742127139
 21
154.5249903436
 31
0.0
  0
LINE
  5
1C1
330
1AC
100
AcDbEntity
  8
Z_OM_DIM
100
AcDbLine
 10
86.7742127139
 20
154.9269141286
 30
0.0
 11
85.2742127139
 21
154.9269141286
 31
0.0
  0
LINE
  5
1C2
330
1AC
100
AcDbEntity
  8
Z_OM_DIM
100
AcDbLine
 10
90.2742127139
 20
154.5249903436
 30
0.0
 11
88.7742127139
 21
154.9269141286
 31
0.0
  0
LINE
  5
1C3
330
1AC
100
AcDbEntity
  8
Z_OM_DIM
100
AcDbLine
 10
88.7742127139
 20
154.9269141286
 30
0.0
 11
90.2742127139
 21
155.3288379136
 31
0.0
  0
LINE
  5
1C4
330
1AC
100
AcDbEntity
  8
Z_OM_DIM
100
AcDbLine
 10
88.7742127139
 20
154.9269141286
 30
0.0
 11
90.2742127139
 21
154.9269141286
 31
0.0
  0
MTEXT
  5
1C5
330
1AC
100
AcDbEntity
  8
Z_OM_DIM
100
AcDbMText
 10
87.1560652805
 20
156.627129956
 30
0.1
 40
1.1
 41
0.0
 71
     1
 72
     1
  1
2
  7
SLDTEXTSTYLE2
 73
     1
 44
1.0
  0
ENDBLK
  5
1B8
330
1AC
100
AcDbEntity
  8
0
100
AcDbBlockEnd
  0
BLOCK
  5
1D4
330
1C7
100
AcDbEntity
  8
0
100
AcDbBlockBegin
  2
*D11
 70
     1
 71
     0
 10
0.0
 20
0.0
 30
0.0
  3
*D11
  1

  0
LINE
  5
1D6
330
1C7
100
AcDbEntity
  8
Z_OM_DIM
100
AcDbLine
 10
125.2601467139
 20
160.4335657759
 30
0.0
 11
131.5684038692
 21
160.4335657759
 31
0.0
  0
LINE
  5
1D7
330
1C7
100
AcDbEntity
  8
Z_OM_DIM
100
AcDbLine
 10
125.3138347139
 20
158.1356277759
 30
0.0
 11
131.5684038692
 21
158.1356277759
 31
0.0
  0
LINE
  5
1D8
330
1C7
100
AcDbEntity
  8
Z_OM_DIM
100
AcDbLine
 10
130.8184038692
 20
161.9335657759
 30
0.0
 11
130.8184038692
 21
163.4335657759
 31
0.0
  0
LINE
  5
1D9
330
1C7
100
AcDbEntity
  8
Z_OM_DIM
100
AcDbLine
 10
130.8184038692
 20
156.6356277759
 30
0.0
 11
130.8184038692
 21
151.9596277759
 31
0.0
  0
LINE
  5
1DA
330
1C7
100
AcDbEntity
  8
Z_OM_DIM
100
AcDbLine
 10
130.8184038692
 20
160.4335657759
 30
0.0
 11
130.8184038692
 21
158.1356277759
 31
0.0
  0
LINE
  5
1DB
330
1C7
100
AcDbEntity
  8
Z_OM_DIM
100
AcDbLine
 10
131.2203276542
 20
161.9335657759
 30
0.0
 11
130.8184038692
 21
160.4335657759
 31
0.0
  0
LINE
  5
1DC
330
1C7
100
AcDbEntity
  8
Z_OM_DIM
100
AcDbLine
 10
130.8184038692
 20
160.4335657759
 30
0.0
 11
130.4164800842
 21
161.9335657759
 31
0.0
  0
LINE
  5
1DD
330
1C7
100
AcDbEntity
  8
Z_OM_DIM
100
AcDbLine
 10
130.8184038692
 20
160.4335657759
 30
0.0
 11
130.8184038692
 21
161.9335657759
 31
0.0
  0
LINE
  5
1DE
330
1C7
100
AcDbEntity
  8
Z_OM_DIM
100
AcDbLine
 10
130.4164800842
 20
156.6356277759
 30
0.0
 11
130.8184038692
 21
158.1356277759
 31
0.0
  0
LINE
  5
1DF
330
1C7
100
AcDbEntity
  8
Z_OM_DIM
100
AcDbLine
 10
130.8184038692
 20
158.1356277759
 30
0.0
 11
131.2203276542
 21
156.6356277759
 31
0.0
  0
LINE
  5
1E0
330
1C7
100
AcDbEntity
  8
Z_OM_DIM
100
AcDbLine
 10
130.8184038692
 20
158.1356277759
 30
0.0
 11
130.8184038692
 21
156.6356277759
 31
0.0
  0
MTEXT
  5
1E1
330
1C7
100
AcDbEntity
  8
Z_OM_DIM
100
AcDbMText
 10
129.1181880419
 20
152.1051275484
 30
0.1
 40
1.1
 41
0.0
 71
     1
 72
     1
  1
2.3
  7
SLDTEXTSTYLE2
 11
6.123031769111886E-17
 21
1.0
 31
0.0
 73
     1
 44
1.0
  0
ENDBLK
  5
1D5
330
1C7
100
AcDbEntity
  8
0
100
AcDbBlockEnd
  0
BLOCK
  5
1EE
330
1E3
100
AcDbEntity
  8
0
100
AcDbBlockBegin
  2
*D12
 70
     1
 71
     0
 10
0.0
 20
0.0
 30
0.0
  3
*D12
  1

  0
LINE
  5
1F1
330
1E3
100
AcDbEntity
  8
Z_OM_DIM
100
AcDbLine
 10
123.7101467139
 20
162.3335657759
 30
0.0
 11
123.7101467139
 21
165.2335657759
 31
0.0
  0
LINE
  5
1F2
330
1E3
100
AcDbEntity
  8
Z_OM_DIM
100
AcDbLine
 10
125.7101467139
 20
159.9835657759
 30
0.0
 11
125.7101467139
 21
165.2335657759
 31
0.0
  0
LINE
  5
1F3
330
1E3
100
AcDbEntity
  8
Z_OM_DIM
100
AcDbLine
 10
122.2101467139
 20
164.4835657759
 30
0.0
 11
120.7101467139
 21
164.4835657759
 31
0.0
  0
LINE
  5
1F4
330
1E3
100
AcDbEntity
  8
Z_OM_DIM
100
AcDbLine
 10
127.2101467139
 20
164.4835657759
 30
0.0
 11
128.7101467139
 21
164.4835657759
 31
0.0
  0
LINE
  5
1F5
330
1E3
100
AcDbEntity
  8
Z_OM_DIM
100
AcDbLine
 10
123.7101467139
 20
164.4835657759
 30
0.0
 11
125.7101467139
 21
164.4835657759
 31
0.0
  0
LINE
  5
1F6
330
1E3
100
AcDbEntity
  8
Z_OM_DIM
100
AcDbLine
 10
122.2101467139
 20
164.8854895609
 30
0.0
 11
123.7101467139
 21
164.4835657759
 31
0.0
  0
LINE
  5
1F7
330
1E3
100
AcDbEntity
  8
Z_OM_DIM
100
AcDbLine
 10
123.7101467139
 20
164.4835657759
 30
0.0
 11
122.2101467139
 21
164.0816419909
 31
0.0
  0
LINE
  5
1F8
330
1E3
100
AcDbEntity
  8
Z_OM_DIM
100
AcDbLine
 10
123.7101467139
 20
164.4835657759
 30
0.0
 11
122.2101467139
 21
164.4835657759
 31
0.0
  0
LINE
  5
1F9
330
1E3
100
AcDbEntity
  8
Z_OM_DIM
100
AcDbLine
 10
127.2101467139
 20
164.0816419909
 30
0.0
 11
125.7101467139
 21
164.4835657759
 31
0.0
  0
LINE
  5
1FA
330
1E3
100
AcDbEntity
  8
Z_OM_DIM
100
AcDbLine
 10
125.7101467139
 20
164.4835657759
 30
0.0
 11
127.2101467139
 21
164.8854895609
 31
0.0
  0
LINE
  5
1FB
330
1E3
100
AcDbEntity
  8
Z_OM_DIM
100
AcDbLine
 10
125.7101467139
 20
164.4835657759
 30
0.0
 11
127.2101467139
 21
164.4835657759
 31
0.0
  0
MTEXT
  5
1FC
330
1E3
100
AcDbEntity
  8
Z_OM_DIM
100
AcDbMText
 10
124.0919992805
 20
166.1837816032
 30
0.1
 40
1.1
 41
0.0
 71
     1
 72
     1
  1
2
  7
SLDTEXTSTYLE2
 73
     1
 44
1.0
  0
ENDBLK
  5
1EF
330
1E3
100
AcDbEntity
  8
0
100
AcDbBlockEnd
  0
BLOCK
  5
209
330
1FE
100
AcDbEntity
  8
0
100
AcDbBlockBegin
  2
*D13
 70
     1
 71
     0
 10
0.0
 20
0.0
 30
0.0
  3
*D13
  1

  0
LINE
  5
20B
330
1FE
100
AcDbEntity
  8
Z_OM_DIM
100
AcDbLine
 10
123.7101467139
 20
162.3335657759
 30
0.0
 11
123.7101467139
 21
165.2335657759
 31
0.0
  0
LINE
  5
20C
330
1FE
100
AcDbEntity
  8
Z_OM_DIM
100
AcDbLine
 10
117.8101467139
 20
162.3335657759
 30
0.0
 11
117.8101467139
 21
165.2335657759
 31
0.0
  0
LINE
  5
20D
330
1FE
100
AcDbEntity
  8
Z_OM_DIM
100
AcDbLine
 10
122.2101467139
 20
164.4835657759
 30
0.0
 11
119.3101467139
 21
164.4835657759
 31
0.0
  0
LINE
  5
20E
330
1FE
100
AcDbEntity
  8
Z_OM_DIM
100
AcDbLine
 10
122.2101467139
 20
164.8854895609
 30
0.0
 11
123.7101467139
 21
164.4835657759
 31
0.0
  0
LINE
  5
20F
330
1FE
100
AcDbEntity
  8
Z_OM_DIM
100
AcDbLine
 10
123.7101467139
 20
164.4835657759
 30
0.0
 11
122.2101467139
 21
164.0816419909
 31
0.0
  0
LINE
  5
210
330
1FE
100
AcDbEntity
  8
Z_OM_DIM
100
AcDbLine
 10
123.7101467139
 20
164.4835657759
 30
0.0
 11
122.2101467139
 21
164.4835657759
 31
0.0
  0
LINE
  5
211
330
1FE
100
AcDbEntity
  8
Z_OM_DIM
100
AcDbLine
 10
119.3101467139
 20
164.0816419909
 30
0.0
 11
117.8101467139
 21
164.4835657759
 31
0.0
  0
LINE
  5
212
330
1FE
100
AcDbEntity
  8
Z_OM_DIM
100
AcDbLine
 10
117.8101467139
 20
164.4835657759
 30
0.0
 11
119.3101467139
 21
164.8854895609
 31
0.0
  0
LINE
  5
213
330
1FE
100
AcDbEntity
  8
Z_OM_DIM
100
AcDbLine
 10
117.8101467139
 20
164.4835657759
 30
0.0
 11
119.3101467139
 21
164.4835657759
 31
0.0
  0
MTEXT
  5
214
330
1FE
100
AcDbEntity
  8
Z_OM_DIM
100
AcDbMText
 10
119.3176464864
 20
166.1837816032
 30
0.1
 40
1.1
 41
0.0
 71
     1
 72
     1
  1
5.9
  7
SLDTEXTSTYLE2
 73
     1
 44
1.0
  0
ENDBLK
  5
20A
330
1FE
100
AcDbEntity
  8
0
100
AcDbBlockEnd
  0
BLOCK
  5
221
330
216
100
AcDbEntity
  8
0
100
AcDbBlockBegin
  2
*D14
 70
     1
 71
     0
 10
0.0
 20
0.0
 30
0.0
  3
*D14
  1

  0
LINE
  5
223
330
216
100
AcDbEntity
  8
Z_OM_DIM
100
AcDbLine
 10
143.4890977139
 20
166.4581697759
 30
0.0
 11
149.1890977139
 21
166.4581697759
 31
0.0
  0
LINE
  5
224
330
216
100
AcDbEntity
  8
Z_OM_DIM
100
AcDbLine
 10
146.7890977139
 20
148.9581697759
 30
0.0
 11
149.1890977139
 21
148.9581697759
 31
0.0
  0
LINE
  5
225
330
216
100
AcDbEntity
  8
Z_OM_DIM
100
AcDbLine
 10
148.4390977139
 20
164.9581697759
 30
0.0
 11
148.4390977139
 21
150.4581697759
 31
0.0
  0
LINE
  5
226
330
216
100
AcDbEntity
  8
Z_OM_DIM
100
AcDbLine
 10
148.0371739289
 20
164.9581697759
 30
0.0
 11
148.4390977139
 21
166.4581697759
 31
0.0
  0
LINE
  5
227
330
216
100
AcDbEntity
  8
Z_OM_DIM
100
AcDbLine
 10
148.4390977139
 20
166.4581697759
 30
0.0
 11
148.8410214989
 21
164.9581697759
 31
0.0
  0
LINE
  5
228
330
216
100
AcDbEntity
  8
Z_OM_DIM
100
AcDbLine
 10
148.4390977139
 20
166.4581697759
 30
0.0
 11
148.4390977139
 21
164.9581697759
 31
0.0
  0
LINE
  5
229
330
216
100
AcDbEntity
  8
Z_OM_DIM
100
AcDbLine
 10
148.8410214989
 20
150.4581697759
 30
0.0
 11
148.4390977139
 21
148.9581697759
 31
0.0
  0
LINE
  5
22A
330
216
100
AcDbEntity
  8
Z_OM_DIM
100
AcDbLine
 10
148.4390977139
 20
148.9581697759
 30
0.0
 11
148.0371739289
 21
150.4581697759
 31
0.0
  0
LINE
  5
22B
330
216
100
AcDbEntity
  8
Z_OM_DIM
100
AcDbLine
 10
148.4390977139
 20
148.9581697759
 30
0.0
 11
148.4390977139
 21
150.4581697759
 31
0.0
  0
MTEXT
  5
22C
330
216
100
AcDbEntity
  8
Z_OM_DIM
100
AcDbMText
 10
146.7388818866
 20
156.3537274756
 30
0.1
 40
1.1
 41
0.0
 71
     1
 72
     1
  1
17.5
  7
SLDTEXTSTYLE2
 11
6.123031769111886E-17
 21
1.0
 31
0.0
 73
     1
 44
1.0
  0
ENDBLK
  5
222
330
216
100
AcDbEntity
  8
0
100
AcDbBlockEnd
  0
BLOCK
  5
239
330
22E
100
AcDbEntity
  8
0
100
AcDbBlockBegin
  2
*D15
 70
     1
 71
     0
 10
0.0
 20
0.0
 30
0.0
  3
*D15
  1

  0
LINE
  5
23C
330
22E
100
AcDbEntity
  8
Z_OM_DIM
100
AcDbLine
 10
141.4390977139
 20
164.4081697759
 30
0.0
 11
141.4390977139
 21
144.7081697759
 31
0.0
  0
LINE
  5
23D
330
22E
100
AcDbEntity
  8
Z_OM_DIM
100
AcDbLine
 10
144.4390977139
 20
146.7081697759
 30
0.0
 11
144.4390977139
 21
144.7081697759
 31
0.0
  0
LINE
  5
23E
330
22E
100
AcDbEntity
  8
Z_OM_DIM
100
AcDbLine
 10
139.9390977139
 20
145.4581697759
 30
0.0
 11
138.4390977139
 21
145.4581697759
 31
0.0
  0
LINE
  5
23F
330
22E
100
AcDbEntity
  8
Z_OM_DIM
100
AcDbLine
 10
145.9390977139
 20
145.4581697759
 30
0.0
 11
147.4390977139
 21
145.4581697759
 31
0.0
  0
LINE
  5
240
330
22E
100
AcDbEntity
  8
Z_OM_DIM
100
AcDbLine
 10
141.4390977139
 20
145.4581697759
 30
0.0
 11
144.4390977139
 21
145.4581697759
 31
0.0
  0
LINE
  5
241
330
22E
100
AcDbEntity
  8
Z_OM_DIM
100
AcDbLine
 10
139.9390977139
 20
145.8600935609
 30
0.0
 11
141.4390977139
 21
145.4581697759
 31
0.0
  0
LINE
  5
242
330
22E
100
AcDbEntity
  8
Z_OM_DIM
100
AcDbLine
 10
141.4390977139
 20
145.4581697759
 30
0.0
 11
139.9390977139
 21
145.0562459909
 31
0.0
  0
LINE
  5
243
330
22E
100
AcDbEntity
  8
Z_OM_DIM
100
AcDbLine
 10
141.4390977139
 20
145.4581697759
 30
0.0
 11
139.9390977139
 21
145.4581697759
 31
0.0
  0
LINE
  5
244
330
22E
100
AcDbEntity
  8
Z_OM_DIM
100
AcDbLine
 10
145.9390977139
 20
145.0562459909
 30
0.0
 11
144.4390977139
 21
145.4581697759
 31
0.0
  0
LINE
  5
245
330
22E
100
AcDbEntity
  8
Z_OM_DIM
100
AcDbLine
 10
144.4390977139
 20
145.4581697759
 30
0.0
 11
145.9390977139
 21
145.8600935609
 31
0.0
  0
LINE
  5
246
330
22E
100
AcDbEntity
  8
Z_OM_DIM
100
AcDbLine
 10
144.4390977139
 20
145.4581697759
 30
0.0
 11
145.9390977139
 21
145.4581697759
 31
0.0
  0
MTEXT
  5
247
330
22E
100
AcDbEntity
  8
Z_OM_DIM
100
AcDbMText
 10
142.3209502805
 20
147.1583856032
 30
0.1
 40
1.1
 41
0.0
 71
     1
 72
     1
  1
3
  7
SLDTEXTSTYLE2
 73
     1
 44
1.0
  0
ENDBLK
  5
23A
330
22E
100
AcDbEntity
  8
0
100
AcDbBlockEnd
  0
BLOCK
  5
254
330
249
100
AcDbEntity
  8
0
100
AcDbBlockBegin
  2
*D16
 70
     1
 71
     0
 10
0.0
 20
0.0
 30
0.0
  3
*D16
  1

  0
LINE
  5
256
330
249
100
AcDbEntity
  8
Z_OM_DIM
100
AcDbLine
 10
95.4242127139
 20
163.5243241124
 30
0.0
 11
101.63063282
 21
163.5243241124
 31
0.0
  0
LINE
  5
257
330
249
100
AcDbEntity
  8
Z_OM_DIM
100
AcDbLine
 10
95.4242127139
 20
158.0243241124
 30
0.0
 11
101.63063282
 21
158.0243241124
 31
0.0
  0
LINE
  5
258
330
249
100
AcDbEntity
  8
Z_OM_DIM
100
AcDbLine
 10
100.88063282
 20
162.0243241124
 30
0.0
 11
100.88063282
 21
159.5243241124
 31
0.0
  0
LINE
  5
259
330
249
100
AcDbEntity
  8
Z_OM_DIM
100
AcDbLine
 10
100.478709035
 20
162.0243241124
 30
0.0
 11
100.88063282
 21
163.5243241124
 31
0.0
  0
LINE
  5
25A
330
249
100
AcDbEntity
  8
Z_OM_DIM
100
AcDbLine
 10
100.88063282
 20
163.5243241124
 30
0.0
 11
101.282556605
 21
162.0243241124
 31
0.0
  0
LINE
  5
25B
330
249
100
AcDbEntity
  8
Z_OM_DIM
100
AcDbLine
 10
100.88063282
 20
163.5243241124
 30
0.0
 11
100.88063282
 21
162.0243241124
 31
0.0
  0
LINE
  5
25C
330
249
100
AcDbEntity
  8
Z_OM_DIM
100
AcDbLine
 10
101.282556605
 20
159.5243241124
 30
0.0
 11
100.88063282
 21
158.0243241124
 31
0.0
  0
LINE
  5
25D
330
249
100
AcDbEntity
  8
Z_OM_DIM
100
AcDbLine
 10
100.88063282
 20
158.0243241124
 30
0.0
 11
100.478709035
 21
159.5243241124
 31
0.0
  0
LINE
  5
25E
330
249
100
AcDbEntity
  8
Z_OM_DIM
100
AcDbLine
 10
100.88063282
 20
158.0243241124
 30
0.0
 11
100.88063282
 21
159.5243241124
 31
0.0
  0
MTEXT
  5
25F
330
249
100
AcDbEntity
  8
Z_OM_DIM
100
AcDbMText
 10
99.1804169927
 20
159.3318238849
 30
0.1
 40
1.1
 41
0.0
 71
     1
 72
     1
  1
5.5
  7
SLDTEXTSTYLE2
 11
6.123031769111886E-17
 21
1.0
 31
0.0
 73
     1
 44
1.0
  0
ENDBLK
  5
255
330
249
100
AcDbEntity
  8
0
100
AcDbBlockEnd
  0
BLOCK
  5
26B
330
261
100
AcDbEntity
  8
0
100
AcDbBlockBegin
  2
*D17
 70
     1
 71
     0
 10
0.0
 20
0.0
 30
0.0
  3
*D17
  1

  0
LINE
  5
26D
330
261
100
AcDbEntity
  8
Z_OM_DIM
100
AcDbLine
 10
95.3742127139
 20
127.6555060389
 30
0.0
 11
95.3742127139
 21
120.3109227375
 31
0.0
  0
LINE
  5
26E
330
261
100
AcDbEntity
  8
Z_OM_DIM
100
AcDbLine
 10
76.3742127139
 20
127.6555060389
 30
0.0
 11
76.3742127139
 21
120.3109227375
 31
0.0
  0
LINE
  5
26F
330
261
100
AcDbEntity
  8
Z_OM_DIM
100
AcDbLine
 10
93.8742127139
 20
121.0609227375
 30
0.0
 11
77.8742127139
 21
121.0609227375
 31
0.0
  0
LINE
  5
270
330
261
100
AcDbEntity
  8
Z_OM_DIM
100
AcDbLine
 10
93.8742127139
 20
121.4628465225
 30
0.0
 11
95.3742127139
 21
121.0609227375
 31
0.0
  0
LINE
  5
271
330
261
100
AcDbEntity
  8
Z_OM_DIM
100
AcDbLine
 10
95.3742127139
 20
121.0609227375
 30
0.0
 11
93.8742127139
 21
120.6589989525
 31
0.0
  0
LINE
  5
272
330
261
100
AcDbEntity
  8
Z_OM_DIM
100
AcDbLine
 10
95.3742127139
 20
121.0609227375
 30
0.0
 11
93.8742127139
 21
121.0609227375
 31
0.0
  0
LINE
  5
273
330
261
100
AcDbEntity
  8
Z_OM_DIM
100
AcDbLine
 10
77.8742127139
 20
120.6589989525
 30
0.0
 11
76.3742127139
 21
121.0609227375
 31
0.0
  0
LINE
  5
274
330
261
100
AcDbEntity
  8
Z_OM_DIM
100
AcDbLine
 10
76.3742127139
 20
121.0609227375
 30
0.0
 11
77.8742127139
 21
121.4628465225
 31
0.0
  0
LINE
  5
275
330
261
100
AcDbEntity
  8
Z_OM_DIM
100
AcDbLine
 10
76.3742127139
 20
121.0609227375
 30
0.0
 11
77.8742127139
 21
121.0609227375
 31
0.0
  0
MTEXT
  5
276
330
261
100
AcDbEntity
  8
Z_OM_DIM
100
AcDbMText
 10
84.8445918563
 20
122.7611385648
 30
0.1
 40
1.1
 41
0.0
 71
     1
 72
     1
  1
19
  7
SLDTEXTSTYLE2
 73
     1
 44
1.0
  0
ENDBLK
  5
26C
330
261
100
AcDbEntity
  8
0
100
AcDbBlockEnd
  0
BLOCK
  5
285
330
278
100
AcDbEntity
  8
0
100
AcDbBlockBegin
  2
*D18
 70
     1
 71
     0
 10
0.0
 20
0.0
 30
0.0
  3
*D18
  1

  0
LINE
  5
287
330
278
100
AcDbEntity
  8
Z_OM_DIM
100
AcDbLine
 10
76.3742127139
 20
127.6555060389
 30
0.0
 11
76.3742127139
 21
120.3109227375
 31
0.0
  0
LINE
  5
288
330
278
100
AcDbEntity
  8
Z_OM_DIM
100
AcDbLine
 10
75.3742127139
 20
127.6555060389
 30
0.0
 11
75.3742127139
 21
120.3109227375
 31
0.0
  0
LINE
  5
289
330
278
100
AcDbEntity
  8
Z_OM_DIM
100
AcDbLine
 10
77.8742127139
 20
121.0609227375
 30
0.0
 11
79.3742127139
 21
121.0609227375
 31
0.0
  0
LINE
  5
28A
330
278
100
AcDbEntity
  8
Z_OM_DIM
100
AcDbLine
 10
73.8742127139
 20
121.0609227375
 30
0.0
 11
71.1782127139
 21
121.0609227375
 31
0.0
  0
LINE
  5
28B
330
278
100
AcDbEntity
  8
Z_OM_DIM
100
AcDbLine
 10
76.3742127139
 20
121.0609227375
 30
0.0
 11
75.3742127139
 21
121.0609227375
 31
0.0
  0
LINE
  5
28C
330
278
100
AcDbEntity
  8
Z_OM_DIM
100
AcDbLine
 10
77.8742127139
 20
120.6589989525
 30
0.0
 11
76.3742127139
 21
121.0609227375
 31
0.0
  0
LINE
  5
28D
330
278
100
AcDbEntity
  8
Z_OM_DIM
100
AcDbLine
 10
76.3742127139
 20
121.0609227375
 30
0.0
 11
77.8742127139
 21
121.4628465225
 31
0.0
  0
LINE
  5
28E
330
278
100
AcDbEntity
  8
Z_OM_DIM
100
AcDbLine
 10
76.3742127139
 20
121.0609227375
 30
0.0
 11
77.8742127139
 21
121.0609227375
 31
0.0
  0
LINE
  5
28F
330
278
100
AcDbEntity
  8
Z_OM_DIM
100
AcDbLine
 10
73.8742127139
 20
121.4628465225
 30
0.0
 11
75.3742127139
 21
121.0609227375
 31
0.0
  0
LINE
  5
290
330
278
100
AcDbEntity
  8
Z_OM_DIM
100
AcDbLine
 10
75.3742127139
 20
121.0609227375
 30
0.0
 11
73.8742127139
 21
120.6589989525
 31
0.0
  0
LINE
  5
291
330
278
100
AcDbEntity
  8
Z_OM_DIM
100
AcDbLine
 10
75.3742127139
 20
121.0609227375
 30
0.0
 11
73.8742127139
 21
121.0609227375
 31
0.0
  0
MTEXT
  5
292
330
278
100
AcDbEntity
  8
Z_OM_DIM
100
AcDbMText
 10
71.3647392897
 20
122.7611385648
 30
0.1
 40
1.1
 41
0.0
 71
     1
 72
     1
  1
1
  7
SLDTEXTSTYLE2
 73
     1
 44
1.0
  0
ENDBLK
  5
286
330
278
100
AcDbEntity
  8
0
100
AcDbBlockEnd
  0
BLOCK
  5
2A1
330
294
100
AcDbEntity
  8
0
100
AcDbBlockBegin
  2
*D19
 70
     1
 71
     0
 10
0.0
 20
0.0
 30
0.0
  3
*D19
  1

  0
LINE
  5
2A3
330
294
100
AcDbEntity
  8
Z_OM_DIM
100
AcDbLine
 10
92.7742127139
 20
164.3743241124
 30
0.0
 11
92.7742127139
 21
168.0283904117
 31
0.0
  0
LINE
  5
2A4
330
294
100
AcDbEntity
  8
Z_OM_DIM
100
AcDbLine
 10
95.3742127139
 20
163.5743241124
 30
0.0
 11
95.3742127139
 21
168.0283904117
 31
0.0
  0
LINE
  5
2A5
330
294
100
AcDbEntity
  8
Z_OM_DIM
100
AcDbLine
 10
91.2742127139
 20
167.2783904117
 30
0.0
 11
89.7742127139
 21
167.2783904117
 31
0.0
  0
LINE
  5
2A6
330
294
100
AcDbEntity
  8
Z_OM_DIM
100
AcDbLine
 10
96.8742127139
 20
167.2783904117
 30
0.0
 11
101.5502127139
 21
167.2783904117
 31
0.0
  0
LINE
  5
2A7
330
294
100
AcDbEntity
  8
Z_OM_DIM
100
AcDbLine
 10
92.7742127139
 20
167.2783904117
 30
0.0
 11
95.3742127139
 21
167.2783904117
 31
0.0
  0
LINE
  5
2A8
330
294
100
AcDbEntity
  8
Z_OM_DIM
100
AcDbLine
 10
91.2742127139
 20
167.6803141967
 30
0.0
 11
92.7742127139
 21
167.2783904117
 31
0.0
  0
LINE
  5
2A9
330
294
100
AcDbEntity
  8
Z_OM_DIM
100
AcDbLine
 10
92.7742127139
 20
167.2783904117
 30
0.0
 11
91.2742127139
 21
166.8764666267
 31
0.0
  0
LINE
  5
2AA
330
294
100
AcDbEntity
  8
Z_OM_DIM
100
AcDbLine
 10
92.7742127139
 20
167.2783904117
 30
0.0
 11
91.2742127139
 21
167.2783904117
 31
0.0
  0
LINE
  5
2AB
330
294
100
AcDbEntity
  8
Z_OM_DIM
100
AcDbLine
 10
96.8742127139
 20
166.8764666267
 30
0.0
 11
95.3742127139
 21
167.2783904117
 31
0.0
  0
LINE
  5
2AC
330
294
100
AcDbEntity
  8
Z_OM_DIM
100
AcDbLine
 10
95.3742127139
 20
167.2783904117
 30
0.0
 11
96.8742127139
 21
167.6803141967
 31
0.0
  0
LINE
  5
2AD
330
294
100
AcDbEntity
  8
Z_OM_DIM
100
AcDbLine
 10
95.3742127139
 20
167.2783904117
 30
0.0
 11
96.8742127139
 21
167.2783904117
 31
0.0
  0
MTEXT
  5
2AE
330
294
100
AcDbEntity
  8
Z_OM_DIM
100
AcDbMText
 10
98.5197124864
 20
168.978606239
 30
0.1
 40
1.1
 41
0.0
 71
     1
 72
     1
  1
2.6
  7
SLDTEXTSTYLE2
 73
     1
 44
1.0
  0
ENDBLK
  5
2A2
330
294
100
AcDbEntity
  8
0
100
AcDbBlockEnd
  0
BLOCK
  5
2B8
330
2B7
100
AcDbEntity
  8
0
100
AcDbBlockBegin
  2
SW_NOTE_0
 70
     0
 71
     0
 10
0.0
 20
0.0
 30
0.0
  3
SW_NOTE_0
  1

  0
MTEXT
  5
2BB
330
2B7
100
AcDbEntity
  8
Z_OM_NOTE
100
AcDbMText
 10
0.0
 20
2.0460431655
 30
0.0
 40
1.5
 41
0.0
 71
     1
 72
     1
  1
VINYL INSULATED ROUND CORD
  7
SLDTEXTSTYLE7
 73
     1
 44
1.0
  0
MTEXT
  5
2BC
330
2B7
100
AcDbEntity
  8
Z_OM_NOTE
100
AcDbMText
 10
0.0
 20
-0.4439569353
 30
0.0
 40
1.5
 41
0.0
 71
     1
 72
     1
  1
O2.9 2CORE/3CORE
  7
SLDTEXTSTYLE1
 73
     1
 44
1.0
  0
MTEXT
  5
2BD
330
2B7
100
AcDbEntity
  8
Z_OM_NOTE
100
AcDbMText
 10
0.0
 20
-4.1793736206
 30
0.0
 40
1.5
 41
0.0
 71
     1
 72
     1
  1
(CONDUCTOR 0.14mm
  7
SLDTEXTSTYLE1
 73
     1
 44
1.0
  0
MTEXT
  5
2BE
330
2B7
100
AcDbEntity
  8
Z_OM_NOTE
100
AcDbMText
 10
26.1229164898
 20
-3.1523742738
 30
0.0
 40
0.9
 41
0.0
 71
     1
 72
     1
  1
2
  7
SLDTEXTSTYLE1
 73
     1
 44
1.0
  0
MTEXT
  5
2C0
330
2B7
100
AcDbEntity
  8
Z_OM_NOTE
100
AcDbMText
 10
27.1341670305
 20
-4.1793736206
 30
0.0
 40
1.5
 41
0.0
 71
     1
 72
     1
  1
 INSULATOR O0.9)
  7
SLDTEXTSTYLE8
 73
     1
 44
1.0
  0
MTEXT
  5
2C1
330
2B7
100
AcDbEntity
  8
Z_OM_NOTE
100
AcDbMText
 10
0.0
 20
-7.368957046
 30
0.0
 40
1.5
 41
0.0
 71
     1
 72
     1
  1
STANDARD LENGTH 1m
  7
SLDTEXTSTYLE7
 73
     1
 44
1.0
  0
ENDBLK
  5
2B9
330
2B7
100
AcDbEntity
  8
0
100
AcDbBlockEnd
  0
BLOCK
  5
2C9
330
2C8
100
AcDbEntity
  8
0
100
AcDbBlockBegin
  2
SW_NOTE_1
 70
     0
 71
     0
 10
0.0
 20
0.0
 30
0.0
  3
SW_NOTE_1
  1

  0
MTEXT
  5
2CB
330
2C8
100
AcDbEntity
  8
0
  6
Continuous
 62
     7
370
     0
100
AcDbMText
 10
0.0
 20
4.9260606061
 30
0.0
 40
4.2333333333
 41
0.0
 71
     1
 72
     1
  1
近接SWランナーチャック
  7
SLDTEXTSTYLE0
 73
     1
 44
1.0
  0
MTEXT
  5
2CC
330
2C8
100
AcDbEntity
  8
0
  6
Continuous
 62
     7
370
     0
100
AcDbMText
 10
16.2713862956
 20
-0.7183837702
 30
0.0
 40
4.2333333333
 41
0.0
 71
     1
 72
     1
  1
確認用NO
  7
SLDTEXTSTYLE0
 73
     1
 44
1.0
  0
ENDBLK
  5
2CA
330
2C8
100
AcDbEntity
  8
0
100
AcDbBlockEnd
  0
ENDSEC
  0
SECTION
  2
ENTITIES
  0
LINE
  5
3C
330
1F
100
AcDbEntity
  8
Z_OM_OUTLINE
100
AcDbLine
 10
88.7742127139
 20
127.9055060389
 30
0.0
 11
95.3742127139
 21
127.9055060389
 31
0.0
  0
LINE
  5
3D
330
1F
100
AcDbEntity
  8
Z_OM_OUTLINE
100
AcDbLine
 10
82.2742127139
 20
163.5243241124
 30
0.0
 11
95.1742127139
 21
163.5243241124
 31
0.0
  0
LINE
  5
3E
330
1F
100
AcDbEntity
  8
Z_OM_OUTLINE
100
AcDbLine
 10
95.1742127139
 20
158.0243241124
 30
0.0
 11
76.5742127139
 21
158.0243241124
 31
0.0
  0
LINE
  5
3F
330
1F
100
AcDbEntity
  8
Z_OM_CENTER
100
AcDbLine
 10
67.7742127139
 20
160.7743241124
 30
0.0
 11
95.9742127139
 21
160.7743241124
 31
0.0
  0
LINE
  5
40
330
1F
100
AcDbEntity
  8
Z_OM_OUTLINE
100
AcDbLine
 10
82.2742127139
 20
133.4055060389
 30
0.0
 11
95.0742127139
 21
133.4055060389
 31
0.0
  0
LINE
  5
41
330
1F
100
AcDbEntity
  8
Z_OM_CENTER
100
AcDbLine
 10
67.7742127139
 20
130.6555060389
 30
0.0
 11
95.9742127139
 21
130.6555060389
 31
0.0
  0
LINE
  5
42
330
1F
100
AcDbEntity
  8
Z_OM_OUTLINE
100
AcDbLine
 10
75.2742127139
 20
127.5055060389
 30
0.0
 11
90.2242127139
 21
127.5055060389
 31
0.0
  0
LINE
  5
43
330
1F
100
AcDbEntity
  8
Z_OM_OUTLINE
100
AcDbLine
 10
90.2742127139
 20
127.9055060389
 30
0.0
 11
88.7742127139
 21
127.9055060389
 31
0.0
  0
LINE
  5
44
330
1F
100
AcDbEntity
  8
Z_OM_OUTLINE
100
AcDbLine
 10
75.3742127484
 20
132.1055060045
 30
0.0
 11
68.3742127484
 21
132.1055060045
 31
0.0
  0
LINE
  5
45
330
1F
100
AcDbEntity
  8
Z_OM_OUTLINE
100
AcDbLine
 10
68.3742127484
 20
129.2055060045
 30
0.0
 11
75.3742127484
 21
129.2055060045
 31
0.0
  0
LINE
  5
46
330
1F
100
AcDbEntity
  8
Z_OM_OUTLINE
100
AcDbLine
 10
78.9742127139
 20
127.9055060389
 30
0.0
 11
86.7742127139
 21
127.9055060389
 31
0.0
  0
LINE
  5
47
330
1F
100
AcDbEntity
  8
Z_OM_OUTLINE
100
AcDbLine
 10
76.9742127139
 20
133.1055060389
 30
0.0
 11
82.2742127139
 21
133.1055060389
 31
0.0
  0
LINE
  5
48
330
1F
100
AcDbEntity
  8
Z_OM_OUTLINE
100
AcDbLine
 10
76.9742127139
 20
133.5055060389
 30
0.0
 11
82.2742127139
 21
133.5055060389
 31
0.0
  0
LINE
  5
49
330
1F
100
AcDbEntity
  8
Z_OM_OUTLINE
100
AcDbLine
 10
86.7742127139
 20
127.9055060389
 30
0.0
 11
78.9742127139
 21
127.9055060389
 31
0.0
  0
LINE
  5
4A
330
1F
100
AcDbEntity
  8
Z_OM_OUTLINE
100
AcDbLine
 10
75.3742127139
 20
127.9055060389
 30
0.0
 11
75.3742127139
 21
132.6555060389
 31
0.0
  0
LINE
  5
4B
330
1F
100
AcDbEntity
  8
Z_OM_OUTLINE
100
AcDbLine
 10
76.3742127139
 20
127.9055060389
 30
0.0
 11
76.3742127139
 21
133.4055060389
 31
0.0
  0
LINE
  5
4C
330
1F
100
AcDbEntity
  8
Z_OM_OUTLINE
100
AcDbLine
 10
76.9742127139
 20
127.9055060389
 30
0.0
 11
76.9742127139
 21
133.5055060389
 31
0.0
  0
LINE
  5
4D
330
1F
100
AcDbEntity
  8
Z_OM_CENTER
100
AcDbLine
 10
77.9742127139
 20
129.3055060389
 30
0.0
 11
77.9742127139
 21
126.9055060389
 31
0.0
  0
LINE
  5
4E
330
1F
100
AcDbEntity
  8
Z_OM_OUTLINE
100
AcDbLine
 10
70.3675387139
 20
126.6387850389
 30
0.0
 11
75.2915767139
 21
127.5070260389
 31
0.0
  0
LINE
  5
4F
330
1F
100
AcDbEntity
  8
Z_OM_OUTLINE
100
AcDbLine
 10
75.2742127139
 20
127.9055060389
 30
0.0
 11
70.2988707139
 21
127.0282200389
 31
0.0
  0
LINE
  5
50
330
1F
100
AcDbEntity
  8
Z_OM_OUTLINE
100
AcDbLine
 10
70.2988707139
 20
127.0282200389
 30
0.0
 11
70.3675387139
 21
126.6387850389
 31
0.0
  0
LINE
  5
51
330
1F
100
AcDbEntity
  8
Z_OM_CENTER
100
AcDbLine
 10
72.9521437139
 20
128.1053190389
 30
0.0
 11
73.2291887139
 21
126.5341150389
 31
0.0
  0
LINE
  5
52
330
1F
100
AcDbEntity
  8
Z_OM_OUTLINE
100
AcDbLine
 10
75.3742127139
 20
127.9055060389
 30
0.0
 11
76.9742127139
 21
127.9055060389
 31
0.0
  0
LINE
  5
53
330
1F
100
AcDbEntity
  8
Z_OM_OUTLINE
100
AcDbLine
 10
76.9742127139
 20
127.9055060389
 30
0.0
 11
75.2742127139
 21
127.9055060389
 31
0.0
  0
LINE
  5
54
330
1F
100
AcDbEntity
  8
Z_OM_OUTLINE
100
AcDbLine
 10
77.4742127139
 20
128.8055060389
 30
0.0
 11
78.4742127139
 21
128.8055060389
 31
0.0
  0
LINE
  5
55
330
1F
100
AcDbEntity
  8
Z_OM_OUTLINE
100
AcDbLine
 10
76.9742127139
 20
127.5055060389
 30
0.0
 11
76.9742127139
 21
128.1055060389
 31
0.0
  0
LINE
  5
56
330
1F
100
AcDbEntity
  8
Z_OM_OUTLINE
100
AcDbLine
 10
78.9742127139
 20
127.5055060389
 30
0.0
 11
78.9742127139
 21
128.3055060389
 31
0.0
  0
LINE
  5
57
330
1F
100
AcDbEntity
  8
Z_OM_OUTLINE
100
AcDbLine
 10
75.3742127139
 20
132.6555060389
 30
0.0
 11
76.3742127139
 21
132.6555060389
 31
0.0
  0
LINE
  5
58
330
1F
100
AcDbEntity
  8
Z_OM_OUTLINE
100
AcDbLine
 10
76.3742127139
 20
133.4055060389
 30
0.0
 11
76.9742127139
 21
133.4055060389
 31
0.0
  0
LINE
  5
59
330
1F
100
AcDbEntity
  8
Z_OM_OUTLINE
100
AcDbLine
 10
76.9742127139
 20
133.4055060389
 30
0.0
 11
76.9742127139
 21
133.1055060389
 31
0.0
  0
LINE
  5
5A
330
1F
100
AcDbEntity
  8
Z_OM_OUTLINE
100
AcDbLine
 10
86.7742127139
 20
127.5055060389
 30
0.0
 11
86.7742127139
 21
128.1055060389
 31
0.0
  0
LINE
  5
5B
330
1F
100
AcDbEntity
  8
Z_OM_OUTLINE
100
AcDbLine
 10
87.2742127139
 20
128.6055060389
 30
0.0
 11
88.2742127139
 21
128.6055060389
 31
0.0
  0
LINE
  5
5C
330
1F
100
AcDbEntity
  8
Z_OM_OUTLINE
100
AcDbLine
 10
88.7742127139
 20
128.1055060389
 30
0.0
 11
88.7742127139
 21
127.5055060389
 31
0.0
  0
LINE
  5
5D
330
1F
100
AcDbEntity
  8
Z_OM_CENTER
100
AcDbLine
 10
87.7742127139
 20
129.2055060389
 30
0.0
 11
87.7742127139
 21
126.9055060389
 31
0.0
  0
LINE
  5
5E
330
1F
100
AcDbEntity
  8
Z_OM_OUTLINE
100
AcDbLine
 10
82.2742127139
 20
133.5055060389
 30
0.0
 11
82.2742127139
 21
133.1055060389
 31
0.0
  0
LINE
  5
5F
330
1F
100
AcDbEntity
  8
Z_OM_OUTLINE
100
AcDbLine
 10
75.3742124291
 20
159.324323828
 30
0.0
 11
68.3742124291
 21
159.324323828
 31
0.0
  0
LINE
  5
60
330
1F
100
AcDbEntity
  8
Z_OM_OUTLINE
100
AcDbLine
 10
68.3742124291
 20
162.224323828
 30
0.0
 11
75.3742124291
 21
162.224323828
 31
0.0
  0
LINE
  5
61
330
1F
100
AcDbEntity
  8
Z_OM_OUTLINE
100
AcDbLine
 10
88.9742127139
 20
158.5243241124
 30
0.0
 11
88.9742127139
 21
163.0243241124
 31
0.0
  0
LINE
  5
62
330
1F
100
AcDbEntity
  8
Z_OM_OUTLINE
100
AcDbLine
 10
75.3742127139
 20
158.7743241124
 30
0.0
 11
75.3742127139
 21
162.7743241124
 31
0.0
  0
LINE
  5
63
330
1F
100
AcDbEntity
  8
Z_OM_OUTLINE
100
AcDbLine
 10
76.9742127139
 20
158.0243241124
 30
0.0
 11
76.9742127139
 21
163.5243241124
 31
0.0
  0
LINE
  5
64
330
1F
100
AcDbEntity
  8
Z_OM_OUTLINE
100
AcDbLine
 10
82.2742127139
 20
158.0243241124
 30
0.0
 11
82.2742127139
 21
163.5243241124
 31
0.0
  0
LINE
  5
65
330
1F
100
AcDbEntity
  8
Z_OM_OUTLINE
100
AcDbLine
 10
84.9742127139
 20
163.0243241124
 30
0.0
 11
84.9742127139
 21
158.5243241124
 31
0.0
  0
LINE
  5
66
330
1F
100
AcDbEntity
  8
Z_OM_OUTLINE
100
AcDbLine
 10
76.3742127139
 20
158.2243241124
 30
0.0
 11
76.3742127139
 21
163.3243241124
 31
0.0
  0
LINE
  5
67
330
1F
100
AcDbEntity
  8
Z_OM_CENTER
100
AcDbLine
 10
73.0742127139
 20
159.7743241124
 30
0.0
 11
73.0742127139
 21
155.5743241124
 31
0.0
  0
LINE
  5
68
330
1F
100
AcDbEntity
  8
Z_OM_OUTLINE
100
AcDbLine
 10
76.7675157139
 20
157.9743241124
 30
0.0
 11
89.5742127139
 21
157.9743241124
 31
0.0
  0
LINE
  5
69
330
1F
100
AcDbEntity
  8
Z_OM_OUTLINE
100
AcDbLine
 10
70.7742127139
 20
155.1743241124
 30
0.0
 11
74.7809087139
 21
155.1743241124
 31
0.0
  0
LINE
  5
6A
330
1F
100
AcDbEntity
  8
Z_OM_CENTER
100
AcDbLine
 10
75.1742127139
 20
157.6743241124
 30
0.0
 11
69.6742127139
 21
157.6743241124
 31
0.0
  0
LINE
  5
6B
330
1F
100
AcDbEntity
  8
Z_OM_OUTLINE
100
AcDbLine
 10
73.0742127139
 20
156.1743241124
 30
0.0
 11
70.7742127139
 21
156.1743241124
 31
0.0
  0
LINE
  5
6C
330
1F
100
AcDbEntity
  8
Z_OM_OUTLINE
100
AcDbLine
 10
76.3742127139
 20
158.7743241124
 30
0.0
 11
75.3742127139
 21
158.7743241124
 31
0.0
  0
LINE
  5
6D
330
1F
100
AcDbEntity
  8
Z_OM_OUTLINE
100
AcDbLine
 10
76.1082963755
 20
157.5097595897
 30
0.0
 11
75.4401280523
 21
155.6388886352
 31
0.0
  0
LINE
  5
6E
330
1F
100
AcDbEntity
  8
Z_OM_OUTLINE
100
AcDbLine
 10
78.9742127139
 20
157.9743241124
 30
0.0
 11
78.9742127139
 21
157.5743241124
 31
0.0
  0
LINE
  5
6F
330
1F
100
AcDbEntity
  8
Z_OM_OUTLINE
100
AcDbLine
 10
76.9742127139
 20
157.9743241124
 30
0.0
 11
76.9742127139
 21
157.5743241124
 31
0.0
  0
LINE
  5
70
330
1F
100
AcDbEntity
  8
Z_OM_OUTLINE
100
AcDbLine
 10
76.9742127139
 20
157.5743241124
 30
0.0
 11
78.9742127139
 21
157.5743241124
 31
0.0
  0
LINE
  5
71
330
1F
100
AcDbEntity
  8
Z_OM_OUTLINE
100
AcDbLine
 10
84.9742127139
 20
158.5243241124
 30
0.0
 11
88.9742127139
 21
158.5243241124
 31
0.0
  0
LINE
  5
72
330
1F
100
AcDbEntity
  8
Z_OM_OUTLINE
100
AcDbLine
 10
86.7742127139
 20
157.5743241124
 30
0.0
 11
88.7742127139
 21
157.5743241124
 31
0.0
  0
LINE
  5
73
330
1F
100
AcDbEntity
  8
Z_OM_OUTLINE
100
AcDbLine
 10
86.7742127139
 20
157.9743241124
 30
0.0
 11
86.7742127139
 21
157.5743241124
 31
0.0
  0
LINE
  5
74
330
1F
100
AcDbEntity
  8
Z_OM_OUTLINE
100
AcDbLine
 10
88.7742127139
 20
157.5743241124
 30
0.0
 11
88.7742127139
 21
157.9743241124
 31
0.0
  0
LINE
  5
75
330
1F
100
AcDbEntity
  8
Z_OM_OUTLINE
100
AcDbLine
 10
82.2742126866
 20
163.9743241124
 30
0.0
 11
76.9742127139
 21
163.9743241124
 31
0.0
  0
LINE
  5
76
330
1F
100
AcDbEntity
  8
Z_OM_OUTLINE
100
AcDbLine
 10
73.0742127139
 20
159.1743241124
 30
0.0
 11
70.7742127139
 21
159.1743241124
 31
0.0
  0
LINE
  5
77
330
1F
100
AcDbEntity
  8
Z_OM_OUTLINE
100
AcDbLine
 10
76.9742127139
 20
163.9743241124
 30
0.0
 11
76.9742127139
 21
161.1703941124
 31
0.0
  0
LINE
  5
78
330
1F
100
AcDbEntity
  8
Z_OM_OUTLINE
100
AcDbLine
 10
77.4742127139
 20
160.6703941124
 30
0.0
 11
77.9863677139
 21
160.6703941124
 31
0.0
  0
LINE
  5
79
330
1F
100
AcDbEntity
  8
Z_OM_OUTLINE
100
AcDbLine
 10
76.5742127139
 20
163.5243241124
 30
0.0
 11
76.9742127139
 21
163.5243241124
 31
0.0
  0
LINE
  5
7A
330
1F
100
AcDbEntity
  8
Z_OM_OUTLINE
100
AcDbLine
 10
76.7408786074
 20
163.5743242722
 30
0.0
 11
76.9702256074
 21
163.5743242722
 31
0.0
  0
LINE
  5
7B
330
1F
100
AcDbEntity
  8
Z_OM_OUTLINE
100
AcDbLine
 10
75.3742127139
 20
162.7743241124
 30
0.0
 11
76.3742127139
 21
162.7743241124
 31
0.0
  0
LINE
  5
7C
330
1F
100
AcDbEntity
  8
Z_OM_OUTLINE
100
AcDbLine
 10
76.0947247139
 20
163.1435551124
 30
0.0
 11
75.9408787139
 21
162.7743241124
 31
0.0
  0
LINE
  5
7D
330
1F
100
AcDbEntity
  8
Z_OM_OUTLINE
100
AcDbLine
 10
76.9702256074
 20
163.5743242722
 30
0.0
 11
76.9742126074
 21
163.5743242722
 31
0.0
  0
LINE
  5
7E
330
1F
100
AcDbEntity
  8
Z_OM_OUTLINE
100
AcDbLine
 10
89.5742127139
 20
163.5743241124
 30
0.0
 11
82.2742127139
 21
163.5743241124
 31
0.0
  0
LINE
  5
7F
330
1F
100
AcDbEntity
  8
Z_OM_CENTER
100
AcDbLine
 10
79.6242127139
 20
162.5149121124
 30
0.0
 11
79.6242127139
 21
160.1149121124
 31
0.0
  0
LINE
  5
80
330
1F
100
AcDbEntity
  8
Z_OM_OUTLINE
100
AcDbLine
 10
82.2742126866
 20
161.1703941124
 30
0.0
 11
82.2742126866
 21
163.9743241124
 31
0.0
  0
LINE
  5
81
330
1F
100
AcDbEntity
  8
Z_OM_OUTLINE
100
AcDbLine
 10
81.2620576866
 20
160.6703941124
 30
0.0
 11
81.7742126866
 21
160.6703941124
 31
0.0
  0
LINE
  5
82
330
1F
100
AcDbEntity
  8
Z_OM_OUTLINE
100
AcDbLine
 10
84.2742126866
 20
163.9743241124
 30
0.0
 11
84.2742126866
 21
163.5743241124
 31
0.0
  0
LINE
  5
83
330
1F
100
AcDbEntity
  8
Z_OM_OUTLINE
100
AcDbLine
 10
82.2742126866
 20
163.9743241124
 30
0.0
 11
84.2742126866
 21
163.9743241124
 31
0.0
  0
LINE
  5
84
330
1F
100
AcDbEntity
  8
Z_OM_OUTLINE
100
AcDbLine
 10
88.9742127139
 20
163.0243241124
 30
0.0
 11
84.9742127139
 21
163.0243241124
 31
0.0
  0
LINE
  5
85
330
1F
100
AcDbEntity
  8
Z_OM_OUTLINE
100
AcDbLine
 10
86.7742127139
 20
163.9743241124
 30
0.0
 11
88.7742127139
 21
163.9743241124
 31
0.0
  0
LINE
  5
86
330
1F
100
AcDbEntity
  8
Z_OM_OUTLINE
100
AcDbLine
 10
86.7742127139
 20
163.5743241124
 30
0.0
 11
86.7742127139
 21
163.9743241124
 31
0.0
  0
LINE
  5
87
330
1F
100
AcDbEntity
  8
Z_OM_OUTLINE
100
AcDbLine
 10
88.7742127139
 20
163.9743241124
 30
0.0
 11
88.7742127139
 21
163.5743241124
 31
0.0
  0
LINE
  5
88
330
1F
100
AcDbEntity
  8
Z_OM_OUTLINE
100
AcDbLine
 10
95.3742127139
 20
127.9055060389
 30
0.0
 11
95.3742127139
 21
133.1055060389
 31
0.0
  0
LINE
  5
89
330
1F
100
AcDbEntity
  8
Z_OM_OUTLINE
100
AcDbLine
 10
90.2742127139
 20
125.9055060389
 30
0.0
 11
90.6742127139
 21
125.9055060389
 31
0.0
  0
LINE
  5
8A
330
1F
100
AcDbEntity
  8
Z_OM_OUTLINE
100
AcDbLine
 10
90.6742127139
 20
125.9055060389
 30
0.0
 11
90.6742127139
 21
127.5055060389
 31
0.0
  0
LINE
  5
8B
330
1F
100
AcDbEntity
  8
Z_OM_OUTLINE
100
AcDbLine
 10
90.2742127139
 20
125.9055060389
 30
0.0
 11
90.2742127139
 21
127.4555060389
 31
0.0
  0
LINE
  5
8C
330
1F
100
AcDbEntity
  8
Z_OM_CENTER
100
AcDbLine
 10
123.1101467139
 20
159.2835657759
 30
0.0
 11
126.3101467139
 21
159.2835657759
 31
0.0
  0
LINE
  5
8D
330
1F
100
AcDbEntity
  8
Z_OM_OUTLINE
100
AcDbLine
 10
123.7101467139
 20
162.0335657759
 30
0.0
 11
123.7101467139
 21
156.5335657759
 31
0.0
  0
LINE
  5
8E
330
1F
100
AcDbEntity
  8
Z_OM_CENTER
100
AcDbLine
 10
92.7742127139
 20
157.4243241124
 30
0.0
 11
92.7742127139
 21
164.1243241124
 31
0.0
  0
LINE
  5
8F
330
1F
100
AcDbEntity
  8
Z_OM_OUTLINE
100
AcDbLine
 10
118.2101467139
 20
156.8335657759
 30
0.0
 11
118.2101467139
 21
161.7335657759
 31
0.0
  0
LINE
  5
90
330
1F
100
AcDbEntity
  8
Z_OM_OUTLINE
100
AcDbLine
 10
95.3742127139
 20
163.3243241124
 30
0.0
 11
95.3742127139
 21
158.2243241124
 31
0.0
  0
LINE
  5
91
330
1F
100
AcDbEntity
  8
Z_OM_OUTLINE
100
AcDbLine
 10
124.1101467139
 20
158.1335657759
 30
0.0
 11
124.1101467139
 21
156.3835657759
 31
0.0
  0
LINE
  5
92
330
1F
100
AcDbEntity
  8
Z_OM_OUTLINE
100
AcDbLine
 10
123.7101467139
 20
162.0835657759
 30
0.0
 11
123.7101467139
 21
156.4835657759
 31
0.0
  0
LINE
  5
93
330
1F
100
AcDbEntity
  8
Z_OM_OUTLINE
100
AcDbLine
 10
123.7101467139
 20
156.5335657759
 30
0.0
 11
118.5101467139
 21
156.5335657759
 31
0.0
  0
LINE
  5
94
330
1F
100
AcDbEntity
  8
Z_OM_OUTLINE
100
AcDbLine
 10
124.1101467139
 20
156.3835657759
 30
0.0
 11
124.1101467139
 21
153.6835657759
 31
0.0
  0
LINE
  5
95
330
1F
100
AcDbEntity
  8
Z_OM_OUTLINE
100
AcDbLine
 10
123.7101467139
 20
156.0835657759
 30
0.0
 11
123.7101467139
 21
153.6835657759
 31
0.0
  0
LINE
  5
96
330
1F
100
AcDbEntity
  8
Z_OM_OUTLINE
100
AcDbLine
 10
123.7101467139
 20
153.6835657759
 30
0.0
 11
124.1101467139
 21
153.6835657759
 31
0.0
  0
LINE
  5
97
330
1F
100
AcDbEntity
  8
Z_OM_OUTLINE
100
AcDbLine
 10
123.1101467139
 20
156.4835657759
 30
0.0
 11
123.0101467139
 21
156.4835657759
 31
0.0
  0
LINE
  5
98
330
1F
100
AcDbEntity
  8
Z_OM_OUTLINE
100
AcDbLine
 10
123.1101467139
 20
156.0835657759
 30
0.0
 11
122.8101467139
 21
156.0835657759
 31
0.0
  0
LINE
  5
99
330
1F
100
AcDbEntity
  8
Z_OM_OUTLINE
100
AcDbLine
 10
123.0101467139
 20
156.0835657759
 30
0.0
 11
123.7101467139
 21
156.0835657759
 31
0.0
  0
LINE
  5
9A
330
1F
100
AcDbEntity
  8
Z_OM_OUTLINE
100
AcDbLine
 10
123.6601467139
 20
156.4835657759
 30
0.0
 11
123.0101467139
 21
156.4835657759
 31
0.0
  0
LINE
  5
9B
330
1F
100
AcDbEntity
  8
Z_OM_OUTLINE
100
AcDbLine
 10
122.8101467139
 20
156.0835657759
 30
0.0
 11
122.8101467139
 21
156.2835657759
 31
0.0
  0
LINE
  5
9C
330
1F
100
AcDbEntity
  8
Z_OM_OUTLINE
100
AcDbLine
 10
123.0101467139
 20
156.4835657759
 30
0.0
 11
123.0101467139
 21
156.0835657759
 31
0.0
  0
LINE
  5
9D
330
1F
100
AcDbEntity
  8
Z_OM_OUTLINE
100
AcDbLine
 10
123.7101467139
 20
156.4835657759
 30
0.0
 11
124.1101467139
 21
156.4835657759
 31
0.0
  0
LINE
  5
9E
330
1F
100
AcDbEntity
  8
Z_OM_OUTLINE
100
AcDbLine
 10
118.2601467139
 20
162.0835657759
 30
0.0
 11
123.0101467139
 21
162.0835657759
 31
0.0
  0
LINE
  5
9F
330
1F
100
AcDbEntity
  8
Z_OM_OUTLINE
100
AcDbLine
 10
123.7101467139
 20
162.4835657759
 30
0.0
 11
118.2101467139
 21
162.4835657759
 31
0.0
  0
LINE
  5
A0
330
1F
100
AcDbEntity
  8
Z_OM_OUTLINE
100
AcDbLine
 10
118.5101467139
 20
162.0335657759
 30
0.0
 11
123.7101467139
 21
162.0335657759
 31
0.0
  0
LINE
  5
A1
330
1F
100
AcDbEntity
  8
Z_OM_CENTER
100
AcDbLine
 10
117.6101467139
 20
159.2835657759
 30
0.0
 11
124.3101467139
 21
159.2835657759
 31
0.0
  0
LINE
  5
A2
330
1F
100
AcDbEntity
  8
Z_OM_OUTLINE
100
AcDbLine
 10
118.2101467139
 20
159.3796357759
 30
0.0
 11
118.2101467139
 21
162.0335657759
 31
0.0
  0
LINE
  5
A3
330
1F
100
AcDbEntity
  8
Z_OM_OUTLINE
100
AcDbLine
 10
117.8101467139
 20
162.0835657759
 30
0.0
 11
117.8101467139
 21
159.1796357759
 31
0.0
  0
LINE
  5
A4
330
1F
100
AcDbEntity
  8
Z_OM_OUTLINE
100
AcDbLine
 10
117.8101467139
 20
159.1796357759
 30
0.0
 11
118.0101467139
 21
159.1796357759
 31
0.0
  0
LINE
  5
A5
330
1F
100
AcDbEntity
  8
Z_OM_OUTLINE
100
AcDbLine
 10
124.1101467139
 20
162.0835657759
 30
0.0
 11
124.1101467139
 21
160.4335657759
 31
0.0
  0
LINE
  5
A6
330
1F
100
AcDbEntity
  8
Z_OM_OUTLINE
100
AcDbLine
 10
125.0101467139
 20
158.1335657759
 30
0.0
 11
123.7101467139
 21
158.1335657759
 31
0.0
  0
LINE
  5
A7
330
1F
100
AcDbEntity
  8
Z_OM_OUTLINE
100
AcDbLine
 10
123.7101467139
 20
160.4335657759
 30
0.0
 11
125.0101467139
 21
160.4335657759
 31
0.0
  0
LINE
  5
A8
330
1F
100
AcDbEntity
  8
Z_OM_OUTLINE
100
AcDbLine
 10
123.0101467139
 20
162.0835657759
 30
0.0
 11
123.6601467139
 21
162.0835657759
 31
0.0
  0
LINE
  5
A9
330
1F
100
AcDbEntity
  8
Z_OM_OUTLINE
100
AcDbLine
 10
123.0101467139
 20
162.4835657759
 30
0.0
 11
123.0101467139
 21
162.0835657759
 31
0.0
  0
LINE
  5
AA
330
1F
100
AcDbEntity
  8
Z_OM_OUTLINE
100
AcDbLine
 10
123.7101467139
 20
162.0835657759
 30
0.0
 11
124.1101467139
 21
162.0835657759
 31
0.0
  0
LINE
  5
AB
330
1F
100
AcDbEntity
  8
Z_OM_CENTER
100
AcDbLine
 10
142.3390977139
 20
148.9581697759
 30
0.0
 11
146.5390977139
 21
148.9581697759
 31
0.0
  0
LINE
  5
AC
330
1F
100
AcDbEntity
  8
Z_OM_CENTER
100
AcDbLine
 10
144.4390977139
 20
146.8581697759
 30
0.0
 11
144.4390977139
 21
151.0581697759
 31
0.0
  0
LINE
  5
AD
330
1F
100
AcDbEntity
  8
Z_OM_NOTE
100
AcDbLine
 10
145.6264307139
 20
147.4680167759
 30
0.0
 11
145.3644677139
 21
147.7776237759
 31
0.0
  0
LINE
  5
AE
330
1F
100
AcDbEntity
  8
Z_OM_NOTE
100
AcDbLine
 10
145.3644677139
 20
147.7776237759
 30
0.0
 11
145.5113597139
 21
147.3995977759
 31
0.0
  0
LINE
  5
AF
330
1F
100
AcDbEntity
  8
Z_OM_NOTE
100
AcDbLine
 10
145.5113597139
 20
147.3995977759
 30
0.0
 11
145.3644677139
 21
147.7776237759
 31
0.0
  0
LINE
  5
B0
330
1F
100
AcDbEntity
  8
Z_OM_NOTE
100
AcDbLine
 10
145.3644677139
 20
147.7776237759
 30
0.0
 11
148.3443859358
 21
145.4581697759
 31
0.0
  0
LINE
  5
B1
330
1F
100
AcDbEntity
  8
Z_OM_NOTE
100
AcDbLine
 10
148.3443859358
 20
145.4581697759
 30
0.0
 11
149.5019191296
 21
145.4581697759
 31
0.0
  0
LINE
  5
B2
330
1F
100
AcDbEntity
  8
Z_OM_CENTER
100
AcDbLine
 10
139.6390977139
 20
166.4581697759
 30
0.0
 11
143.2390977139
 21
166.4581697759
 31
0.0
  0
LINE
  5
B3
330
1F
100
AcDbEntity
  8
Z_OM_OUTLINE
100
AcDbLine
 10
125.7101467139
 20
159.7335657759
 30
0.0
 11
125.7101467139
 21
158.8335657759
 31
0.0
  0
LINE
  5
B4
330
1F
100
AcDbEntity
  8
Z_OM_CENTER
100
AcDbLine
 10
141.4390977139
 20
168.2581697759
 30
0.0
 11
141.4390977139
 21
164.6581697759
 31
0.0
  0
LINE
  5
B5
330
1F
100
AcDbEntity
  8
Z_OM_DIM
  6
Continuous
 62
     4
100
AcDbLine
 10
143.2375871719
 20
168.5423773309
 30
0.0
 11
142.220367018
 21
167.3690036106
 31
0.0
  0
LINE
  5
B6
330
1F
100
AcDbEntity
  8
Z_OM_DIM
  6
Continuous
 62
     4
100
AcDbLine
 10
142.220367018
 20
167.3690036106
 30
0.0
 11
142.5146186593
 21
168.8937851361
 31
0.0
  0
LINE
  5
B7
330
1F
100
AcDbEntity
  8
Z_OM_DIM
  6
Continuous
 62
     4
100
AcDbLine
 10
142.220367018
 20
167.3690036106
 30
0.0
 11
142.8761029156
 21
168.7180812335
 31
0.0
  0
LINE
  5
B8
330
1F
100
AcDbEntity
  8
Z_OM_DIM
  6
Continuous
100
AcDbLine
 10
142.8761029156
 20
168.7180812335
 30
0.0
 11
143.6876933005
 21
170.3878059369
 31
0.0
  0
LINE
  5
B9
330
1F
100
AcDbEntity
  8
Z_OM_DIM
  6
Continuous
100
AcDbLine
 10
143.6876933005
 20
170.3878059369
 30
0.0
 11
161.5860933005
 21
170.3878059369
 31
0.0
  0
LINE
  5
BA
330
1F
100
AcDbEntity
  8
Z_OM_NOTE
  6
Continuous
 62
     4
100
AcDbLine
 10
91.0153650446
 20
163.8268943923
 30
0.0
 11
91.3400099085
 21
162.3082935753
 31
0.0
  0
LINE
  5
BB
330
1F
100
AcDbEntity
  8
Z_OM_NOTE
  6
Continuous
 62
     4
100
AcDbLine
 10
91.3400099085
 20
162.3082935753
 30
0.0
 11
90.2995588059
 21
163.4611180337
 31
0.0
  0
LINE
  5
BC
330
1F
100
AcDbEntity
  8
Z_OM_NOTE
  6
Continuous
 62
     4
100
AcDbLine
 10
91.3400099085
 20
162.3082935753
 30
0.0
 11
90.6574619252
 21
163.644006213
 31
0.0
  0
LINE
  5
BD
330
1F
100
AcDbEntity
  8
Z_OM_NOTE
  6
Continuous
100
AcDbLine
 10
90.6574619252
 20
163.644006213
 30
0.0
 11
84.082434523
 21
176.5110095725
 31
0.0
  0
LINE
  5
BE
330
1F
100
AcDbEntity
  8
Z_OM_NOTE
  6
Continuous
100
AcDbLine
 10
84.082434523
 20
176.5110095725
 30
0.0
 11
65.629634523
 21
176.5110095725
 31
0.0
  0
LINE
  5
BF
330
1F
100
AcDbEntity
  8
Z_OM_NOTE
  6
Continuous
 62
     4
100
AcDbLine
 10
71.8656155279
 20
163.7772145842
 30
0.0
 11
71.8742127139
 21
162.2243241124
 31
0.0
  0
LINE
  5
C0
330
1F
100
AcDbEntity
  8
Z_OM_NOTE
  6
Continuous
 62
     4
100
AcDbLine
 10
71.8742127139
 20
162.2243241124
 30
0.0
 11
71.0903221026
 21
163.5648681208
 31
0.0
  0
LINE
  5
C1
330
1F
100
AcDbEntity
  8
Z_OM_NOTE
  6
Continuous
 62
     4
100
AcDbLine
 10
71.8742127139
 20
162.2243241124
 30
0.0
 11
71.4779688153
 21
163.6710413525
 31
0.0
  0
LINE
  5
C2
330
1F
100
AcDbEntity
  8
Z_OM_NOTE
  6
Continuous
100
AcDbLine
 10
71.4779688153
 20
163.6710413525
 30
0.0
 11
70.6503718046
 21
166.6926622967
 31
0.0
  0
LINE
  5
C3
330
1F
100
AcDbEntity
  8
Z_OM_NOTE
  6
Continuous
100
AcDbLine
 10
70.6503718046
 20
166.6926622967
 30
0.0
 11
62.4935718046
 21
166.6926622967
 31
0.0
  0
LINE
  5
C4
330
1F
100
AcDbEntity
  8
Z_OM_NOTE
  6
Continuous
 62
     4
100
AcDbLine
 10
83.913167241
 20
163.0260450817
 30
0.0
 11
84.1711732405
 21
161.4947137547
 31
0.0
  0
LINE
  5
C5
330
1F
100
AcDbEntity
  8
Z_OM_NOTE
  6
Continuous
 62
     4
100
AcDbLine
 10
84.1711732405
 20
161.4947137547
 30
0.0
 11
83.1820678325
 21
162.6918825902
 31
0.0
  0
LINE
  5
C6
330
1F
100
AcDbEntity
  8
Z_OM_NOTE
  6
Continuous
 62
     4
100
AcDbLine
 10
84.1711732405
 20
161.4947137547
 30
0.0
 11
83.5476175367
 21
162.8589638359
 31
0.0
  0
LINE
  5
C7
330
1F
100
AcDbEntity
  8
Z_OM_NOTE
  6
Continuous
100
AcDbLine
 10
83.5476175367
 20
162.8589638359
 30
0.0
 11
79.7495112401
 21
171.1686734451
 31
0.0
  0
LINE
  5
C8
330
1F
100
AcDbEntity
  8
Z_OM_NOTE
  6
Continuous
100
AcDbLine
 10
79.7495112401
 20
171.1686734451
 30
0.0
 11
68.3455112401
 21
171.1686734451
 31
0.0
  0
LINE
  5
C9
330
1F
100
AcDbEntity
  8
Z_OM_CENTER
100
AcDbLine
 10
121.1101467139
 20
155.1922427298
 30
0.0
 11
121.1101467139
 21
163.2213038156
 31
0.0
  0
LINE
  5
CA
330
1F
100
AcDbEntity
  8
0
  6
Continuous
 62
     7
370
     0
100
AcDbLine
 10
20.2604743903
 20
285.0
 30
0.0
 11
196.7604743903
 21
285.0
 31
0.0
  0
LINE
  5
CB
330
1F
100
AcDbEntity
  8
0
  6
Continuous
 62
     7
370
     0
100
AcDbLine
 10
20.2604743903
 20
285.0
 30
0.0
 11
20.2604743903
 21
10.0
 31
0.0
  0
LINE
  5
CC
330
1F
100
AcDbEntity
  8
0
  6
Continuous
 62
     7
370
     0
100
AcDbLine
 10
20.2604743903
 20
10.0
 30
0.0
 11
196.7604743903
 21
10.0
 31
0.0
  0
LINE
  5
CD
330
1F
100
AcDbEntity
  8
0
  6
Continuous
 62
     7
370
     0
100
AcDbLine
 10
196.7604743903
 20
285.0
 30
0.0
 11
196.7604743903
 21
10.0
 31
0.0
  0
LINE
  5
CE
330
1F
100
AcDbEntity
  8
0
  6
Continuous
 62
     7
370
     0
100
AcDbLine
 10
127.0104743903
 20
50.75
 30
0.0
 11
196.7604743903
 21
50.75
 31
0.0
  0
LINE
  5
CF
330
1F
100
AcDbEntity
  8
0
  6
Continuous
 62
     7
370
     0
100
AcDbLine
 10
127.0104743903
 20
50.75
 30
0.0
 11
127.0104743903
 21
10.0
 31
0.0
  0
LINE
  5
D0
330
1F
100
AcDbEntity
  8
0
  6
Continuous
 62
     7
370
     0
100
AcDbLine
 10
127.0104743903
 20
22.75
 30
0.0
 11
196.7604743903
 21
22.75
 31
0.0
  0
LINE
  5
D1
330
1F
100
AcDbEntity
  8
0
  6
Continuous
 62
     7
370
     0
100
AcDbLine
 10
127.0104743903
 20
36.75
 30
0.0
 11
196.7604743903
 21
36.75
 31
0.0
  0
ARC
  5
D2
330
1F
100
AcDbEntity
  8
Z_OM_OUTLINE
100
AcDbCircle
 10
89.5742127139
 20
158.6743241124
 30
0.0
 40
0.7000000000000171
100
AcDbArc
 50
270.0
 51
291.786789
  0
ARC
  5
D3
330
1F
100
AcDbEntity
  8
Z_OM_OUTLINE
100
AcDbCircle
 10
89.5742127139
 20
162.8743241124
 30
0.0
 40
0.6999999999999977
100
AcDbArc
 50
68.213211
 51
90.0
  0
ARC
  5
D4
330
1F
100
AcDbEntity
  8
Z_OM_OUTLINE
100
AcDbCircle
 10
67.6481707139
 20
129.9305060389
 30
0.0
 40
1.026041951269053
100
AcDbArc
 50
315.0411443583
 51
44.958869
  0
ARC
  5
D5
330
1F
100
AcDbEntity
  8
Z_OM_OUTLINE
100
AcDbCircle
 10
69.1002537139
 20
129.9305062082
 30
0.0
 40
1.026041314463065
100
AcDbArc
 50
135.0411088491
 51
224.9589045092
  0
ARC
  5
D6
330
1F
100
AcDbEntity
  8
Z_OM_OUTLINE
100
AcDbCircle
 10
69.1002537139
 20
131.3805060389
 30
0.0
 40
1.026041146192999
100
AcDbArc
 50
135.0411049007
 51
224.958881741
  0
ARC
  5
D7
330
1F
100
AcDbEntity
  8
Z_OM_OUTLINE
100
AcDbCircle
 10
78.4742127139
 20
128.3055060389
 30
0.0
 40
0.5
100
AcDbArc
 50
0.0
 51
90.0
  0
ARC
  5
D8
330
1F
100
AcDbEntity
  8
Z_OM_OUTLINE
100
AcDbCircle
 10
77.4742127139
 20
128.3055060389
 30
0.0
 40
0.5
100
AcDbArc
 50
90.0
 51
180.0
  0
ARC
  5
D9
330
1F
100
AcDbEntity
  8
Z_OM_OUTLINE
100
AcDbCircle
 10
87.2742127139
 20
128.1055060389
 30
0.0
 40
0.5
100
AcDbArc
 50
90.0
 51
180.0
  0
ARC
  5
DA
330
1F
100
AcDbEntity
  8
Z_OM_OUTLINE
100
AcDbCircle
 10
88.2742127139
 20
128.1055060389
 30
0.0
 40
0.5
100
AcDbArc
 50
0.0
 51
90.0
  0
ARC
  5
DB
330
1F
100
AcDbEntity
  8
Z_OM_OUTLINE
100
AcDbCircle
 10
69.1002537139
 20
160.0493241124
 30
0.0
 40
1.026041597462086
100
AcDbArc
 50
135.041131
 51
224.9588950993
  0
ARC
  5
DC
330
1F
100
AcDbEntity
  8
Z_OM_OUTLINE
100
AcDbCircle
 10
67.6481707139
 20
161.4993241124
 30
0.0
 40
1.026041500000033
100
AcDbArc
 50
315.041118259
 51
44.9588556417
  0
ARC
  5
DD
330
1F
100
AcDbEntity
  8
Z_OM_OUTLINE
100
AcDbCircle
 10
69.1002537139
 20
161.4993237817
 30
0.0
 40
1.026041429191975
100
AcDbArc
 50
135.0411143107
 51
224.95885959
  0
ARC
  5
DE
330
1F
100
AcDbEntity
  8
Z_OM_OUTLINE
100
AcDbCircle
 10
73.0742127139
 20
157.6743241124
 30
0.0
 40
1.5
100
AcDbArc
 50
270.0
 51
90.0
  0
ARC
  5
DF
330
1F
100
AcDbEntity
  8
Z_OM_OUTLINE
100
AcDbCircle
 10
70.7742127139
 20
155.6743241124
 30
0.0
 40
0.5
100
AcDbArc
 50
180.0
 51
270.0
  0
ARC
  5
E0
330
1F
100
AcDbEntity
  8
Z_OM_OUTLINE
100
AcDbCircle
 10
70.7742127139
 20
155.6743241124
 30
0.0
 40
0.5
100
AcDbArc
 50
90.0
 51
180.0
  0
ARC
  5
E1
330
1F
100
AcDbEntity
  8
Z_OM_OUTLINE
100
AcDbCircle
 10
74.7809087139
 20
155.8743241124
 30
0.0
 40
0.7000000000000064
100
AcDbArc
 50
270.0
 51
340.346176
  0
ARC
  5
E2
330
1F
100
AcDbEntity
  8
Z_OM_OUTLINE
100
AcDbCircle
 10
76.5742127139
 20
158.2243241124
 30
0.0
 40
0.2000000000000171
100
AcDbArc
 50
180.0
 51
270.0
  0
ARC
  5
E3
330
1F
100
AcDbEntity
  8
Z_OM_OUTLINE
100
AcDbCircle
 10
76.7675157139
 20
157.2743241124
 30
0.0
 40
0.7000000000000026
100
AcDbArc
 50
90.0
 51
160.346176
  0
ARC
  5
E4
330
1F
100
AcDbEntity
  8
Z_OM_OUTLINE
100
AcDbCircle
 10
79.6242127003
 20
160.7149121304
 30
0.0
 40
1.199999999999996
100
AcDbArc
 50
15.541166
 51
164.458834
  0
ARC
  5
E5
330
1F
100
AcDbEntity
  8
Z_OM_OUTLINE
100
AcDbCircle
 10
70.7742127139
 20
159.6743241124
 30
0.0
 40
0.5000000000000013
100
AcDbArc
 50
224.427004
 51
270.0
  0
ARC
  5
E6
330
1F
100
AcDbEntity
  8
Z_OM_OUTLINE
100
AcDbCircle
 10
77.9863677139
 20
161.1703941266
 30
0.0
 40
0.500000014169018
100
AcDbArc
 50
270.0
 51
344.458849092
  0
ARC
  5
E7
330
1F
100
AcDbEntity
  8
Z_OM_OUTLINE
100
AcDbCircle
 10
77.4742127139
 20
161.1703941124
 30
0.0
 40
0.5
100
AcDbArc
 50
180.0
 51
270.0
  0
ARC
  5
E8
330
1F
100
AcDbEntity
  8
Z_OM_OUTLINE
100
AcDbCircle
 10
76.5742127139
 20
163.3243241124
 30
0.0
 40
0.2000000000000455
100
AcDbArc
 50
90.0
 51
180.0
  0
ARC
  5
E9
330
1F
100
AcDbEntity
  8
Z_OM_OUTLINE
100
AcDbCircle
 10
76.7408786074
 20
162.8743241568
 30
0.0
 40
0.7000001153845972
100
AcDbArc
 50
90.0
 51
157.3801224595
  0
ARC
  5
EA
330
1F
100
AcDbEntity
  8
Z_OM_OUTLINE
100
AcDbCircle
 10
81.7742126866
 20
161.1703941124
 30
0.0
 40
0.5
100
AcDbArc
 50
270.0
 51
0.0
  0
ARC
  5
EB
330
1F
100
AcDbEntity
  8
Z_OM_OUTLINE
100
AcDbCircle
 10
81.2620576866
 20
161.1703941266
 30
0.0
 40
0.500000014169018
100
AcDbArc
 50
195.541150908
 51
270.0
  0
ARC
  5
EC
330
1F
100
AcDbEntity
  8
Z_OM_OUTLINE
100
AcDbCircle
 10
90.2242127139
 20
127.4555060389
 30
0.0
 40
0.0499999999999972
100
AcDbArc
 50
0.0
 51
90.0
  0
ARC
  5
ED
330
1F
100
AcDbEntity
  8
Z_OM_OUTLINE
100
AcDbCircle
 10
90.2742127139
 20
127.5055060389
 30
0.0
 40
0.4000000000000199
100
AcDbArc
 50
0.0
 51
90.0
  0
ARC
  5
EE
330
1F
100
AcDbEntity
  8
Z_OM_OUTLINE
100
AcDbCircle
 10
95.0742127139
 20
133.1055060389
 30
0.0
 40
0.2999999999999972
100
AcDbArc
 50
0.0
 51
90.0
  0
ARC
  5
EF
330
1F
100
AcDbEntity
  8
Z_OM_OUTLINE
100
AcDbCircle
 10
125.0101467139
 20
159.7335657759
 30
0.0
 40
0.7000000000000171
100
AcDbArc
 50
0.0
 51
90.0
  0
ARC
  5
F0
330
1F
100
AcDbEntity
  8
Z_OM_OUTLINE
100
AcDbCircle
 10
125.0101467139
 20
158.8335657759
 30
0.0
 40
0.7000000000000028
100
AcDbArc
 50
270.0
 51
0.0
  0
CIRCLE
  5
F1
330
1F
100
AcDbEntity
  8
Z_OM_OUTLINE
100
AcDbCircle
 10
92.7742127139
 20
160.7743241124
 30
0.0
 40
2.100000000000009
  0
ARC
  5
F2
330
1F
100
AcDbEntity
  8
Z_OM_OUTLINE
100
AcDbCircle
 10
95.1742127139
 20
158.2243241124
 30
0.0
 40
0.1999999999999886
100
AcDbArc
 50
270.0
 51
0.0
  0
ARC
  5
F3
330
1F
100
AcDbEntity
  8
Z_OM_OUTLINE
100
AcDbCircle
 10
118.5101467139
 20
156.8335657759
 30
0.0
 40
0.3000000000000114
100
AcDbArc
 50
180.0
 51
270.0
  0
ARC
  5
F4
330
1F
100
AcDbEntity
  8
Z_OM_OUTLINE
100
AcDbCircle
 10
123.0101467139
 20
156.2835657759
 30
0.0
 40
0.1999999999999886
100
AcDbArc
 50
90.0
 51
180.0
  0
ARC
  5
F5
330
1F
100
AcDbEntity
  8
Z_OM_OUTLINE
100
AcDbCircle
 10
123.7101467139
 20
156.4835657759
 30
0.0
 40
0.4000000000000057
100
AcDbArc
 50
270.0
 51
0.0
  0
ARC
  5
F6
330
1F
100
AcDbEntity
  8
Z_OM_OUTLINE
100
AcDbCircle
 10
123.6601467139
 20
156.5335657759
 30
0.0
 40
0.0500000000000114
100
AcDbArc
 50
270.0
 51
0.0
  0
ARC
  5
F7
330
1F
100
AcDbEntity
  8
Z_OM_OUTLINE
100
AcDbCircle
 10
95.1742127139
 20
163.3243241124
 30
0.0
 40
0.2000000000000455
100
AcDbArc
 50
0.0
 51
90.0
  0
ARC
  5
F8
330
1F
100
AcDbEntity
  8
Z_OM_OUTLINE
100
AcDbCircle
 10
118.0101467139
 20
159.3796357759
 30
0.0
 40
0.2000000000000171
100
AcDbArc
 50
270.0
 51
0.0
  0
ARC
  5
F9
330
1F
100
AcDbEntity
  8
Z_OM_OUTLINE
100
AcDbCircle
 10
118.2101467139
 20
162.0835657759
 30
0.0
 40
0.4000000000000057
100
AcDbArc
 50
90.0
 51
180.0
  0
ARC
  5
FA
330
1F
100
AcDbEntity
  8
Z_OM_OUTLINE
100
AcDbCircle
 10
118.2601467139
 20
162.0335657759
 30
0.0
 40
0.0500000000000114
100
AcDbArc
 50
90.0
 51
180.0
  0
ARC
  5
FB
330
1F
100
AcDbEntity
  8
Z_OM_OUTLINE
100
AcDbCircle
 10
118.5101467139
 20
161.7335657759
 30
0.0
 40
0.3000000000000398
100
AcDbArc
 50
90.0
 51
180.0
  0
ARC
  5
FC
330
1F
100
AcDbEntity
  8
Z_OM_OUTLINE
100
AcDbCircle
 10
123.7101467139
 20
162.0835657759
 30
0.0
 40
0.4000000000000057
100
AcDbArc
 50
0.0
 51
90.0
  0
ARC
  5
FD
330
1F
100
AcDbEntity
  8
Z_OM_OUTLINE
100
AcDbCircle
 10
123.6601467139
 20
162.0335657759
 30
0.0
 40
0.0500000000000114
100
AcDbArc
 50
0.0
 51
90.0
  0
CIRCLE
  5
FE
330
1F
100
AcDbEntity
  8
Z_OM_THIN_LINE
100
AcDbCircle
 10
144.4390977139
 20
148.9581697759
 30
0.0
 40
1.5
  0
CIRCLE
  5
FF
330
1F
100
AcDbEntity
  8
Z_OM_OUTLINE
100
AcDbCircle
 10
144.4390977139
 20
148.9581697759
 30
0.0
 40
1.400000000000006
  0
CIRCLE
  5
100
330
1F
100
AcDbEntity
  8
Z_OM_OUTLINE
100
AcDbCircle
 10
141.4390977139
 20
166.4581697759
 30
0.0
 40
1.200000000000017
  0
DIMENSION
  5
101
330
1F
100
AcDbEntity
  8
Z_OM_DIM
100
AcDbDimension
  2
*D2
 10
73.0742127139
 20
147.4599630013
 30
0.0
 11
84.2242127139
 21
147.4599630013
 31
0.0
 70
   160
 71
     1
 42
22.3
  3
SLDDIMSTYLE0
100
AcDbAlignedDimension
 13
95.3742127139
 23
158.2243241124
 33
0.0
 14
73.0742127139
 24
155.5743241124
 34
0.0
100
AcDbRotatedDimension
1001
ACAD
1000
DSTYLE
1002
{
1070
    77
1070
     3
1070
   143
1040
0.0393700787
1070
    41
1040
3.0
1070
    44
1040
1.0
1070
    42
1040
1.0
1070
   147
1040
1.524
1070
    73
1070
     0
1070
    74
1070
     0
1070
   140
1040
1.1
1070
   284
1070
    12
1070
    78
1070
    12
1002
}
  0
DIMENSION
  5
11F
330
1F
100
AcDbEntity
  8
Z_OM_DIM
100
AcDbDimension
  2
*D4
 10
105.8880465984
 20
163.9743241124
 30
0.0
 11
105.8880465984
 21
160.7743241124
 31
0.0
 70
   160
 71
     1
 42
6.4
  3
SLDDIMSTYLE0
100
AcDbAlignedDimension
 13
88.7742127139
 23
157.5743241124
 33
0.0
 14
88.7742127139
 24
163.9743241124
 34
0.0
 50
90.0
100
AcDbRotatedDimension
1001
ACAD
1000
DSTYLE
1002
{
1070
    77
1070
     3
1070
   143
1040
0.0393700787
1070
    41
1040
3.0
1070
    44
1040
1.0
1070
    42
1040
1.0
1070
   147
1040
1.524
1070
    73
1070
     0
1070
    74
1070
     0
1070
   140
1040
1.1
1070
   284
1070
    12
1070
    78
1070
    12
1002
}
  0
DIMENSION
  5
137
330
1F
100
AcDbEntity
  8
Z_OM_DIM
100
AcDbDimension
  2
*D5
 10
95.3742127139
 20
142.6006630256
 30
0.0
 11
82.8242127139
 21
142.6006630256
 31
0.0
 70
   160
 71
     1
 42
25.1
  3
SLDDIMSTYLE0
100
AcDbAlignedDimension
 13
70.2742127139
 23
155.6743241124
 33
0.0
 14
95.3742127139
 24
158.2243241124
 34
0.0
100
AcDbRotatedDimension
1001
ACAD
1000
DSTYLE
1002
{
1070
    77
1070
     3
1070
   143
1040
0.0393700787
1070
    41
1040
3.0
1070
    44
1040
1.0
1070
    42
1040
1.0
1070
   147
1040
1.524
1070
    73
1070
     0
1070
    74
1070
     0
1070
   140
1040
1.1
1070
   284
1070
    12
1070
    78
1070
    12
1002
}
  0
DIMENSION
  5
14E
330
1F
100
AcDbEntity
  8
Z_OM_DIM
100
AcDbDimension
  2
*D6
 10
65.0809087139
 20
163.5743241124
 30
0.0
 11
65.0809087139
 21
160.6243241124
 31
0.0
 70
   160
 71
     1
 42
5.9
  3
SLDDIMSTYLE0
100
AcDbAlignedDimension
 13
69.6742127139
 23
157.6743241124
 33
0.0
 14
76.1742127139
 24
163.5743241124
 34
0.0
 50
90.0
100
AcDbRotatedDimension
1001
ACAD
1000
DSTYLE
1002
{
1070
    77
1070
     3
1070
   143
1040
0.0393700787
1070
    41
1040
3.0
1070
    44
1040
1.0
1070
    42
1040
1.0
1070
   147
1040
1.524
1070
    73
1070
     0
1070
    74
1070
     0
1070
   140
1040
1.1
1070
   284
1070
    12
1070
    78
1070
    12
1002
}
  0
DIMENSION
  5
166
330
1F
100
AcDbEntity
  8
Z_OM_DIM
100
AcDbDimension
  2
*D7
 10
61.1524003006
 20
163.5743241124
 30
0.0
 11
61.1524003006
 21
159.3743241124
 31
0.0
 70
   160
 71
     1
 42
8.4
  3
SLDDIMSTYLE0
100
AcDbAlignedDimension
 13
70.7742127139
 23
155.1743241124
 33
0.0
 14
76.3742127139
 24
163.5743241124
 34
0.0
 50
90.0
100
AcDbRotatedDimension
1001
ACAD
1000
DSTYLE
1002
{
1070
    77
1070
     3
1070
   143
1040
0.0393700787
1070
    41
1040
3.0
1070
    44
1040
1.0
1070
    42
1040
1.0
1070
   147
1040
1.524
1070
    73
1070
     0
1070
    74
1070
     0
1070
   140
1040
1.1
1070
   284
1070
    12
1070
    78
1070
    12
1002
}
  0
DIMENSION
  5
17E
330
1F
100
AcDbEntity
  8
Z_OM_DIM
100
AcDbDimension
  2
*D8
 10
73.0742127139
 20
157.6743241124
 30
0.0
 11
75.71747832
 21
150.6790662802
 31
0.0
 70
   164
  1
<>
 71
     1
 42
173.7844442062
  3
SLDDIMSTYLE1
100
AcDbRadialDimension
 15
0.0
 25
0.0
 35
0.0
 40
0.0
1001
ACAD
1000
DSTYLE
1002
{
1070
    77
1070
     0
1070
   143
1040
0.0393700787
1070
    41
1040
3.0
1070
    44
1040
1.0
1070
    42
1040
1.0
1070
   147
1040
1.524
1070
    73
1070
     1
1070
    74
1070
     1
1070
   140
1040
1.1
1070
   284
1070
    12
1070
    78
1070
    12
1002
}
  0
DIMENSION
  5
18F
330
1F
100
AcDbEntity
  8
Z_OM_DIM
100
AcDbDimension
  2
*D9
 10
76.9742127139
 20
154.8689141009
 30
0.0
 11
77.9742127139
 21
154.8689141009
 31
0.0
 70
   160
 71
     1
 42
2.0
  3
SLDDIMSTYLE2
100
AcDbAlignedDimension
 13
78.9742127139
 23
157.5743241124
 33
0.0
 14
76.9742127139
 24
157.5743241124
 34
0.0
100
AcDbRotatedDimension
1001
ACAD
1000
DSTYLE
1002
{
1070
    77
1070
     3
1070
   143
1040
0.0393700787
1070
    41
1040
3.0
1070
    44
1040
1.0
1070
    42
1040
1.0
1070
   147
1040
1.524
1070
    73
1070
     0
1070
    74
1070
     0
1070
   140
1040
1.1
1070
   284
1070
    12
1070
    78
1070
    12
1002
}
  0
DIMENSION
  5
1AB
330
1F
100
AcDbEntity
  8
Z_OM_DIM
100
AcDbDimension
  2
*D10
 10
86.7742127139
 20
154.9269141286
 30
0.0
 11
87.7742127139
 21
154.9269141286
 31
0.0
 70
   160
 71
     1
 42
2.0
  3
SLDDIMSTYLE2
100
AcDbAlignedDimension
 13
88.7742127139
 23
157.5743241124
 33
0.0
 14
86.7742127139
 24
157.5743241124
 34
0.0
100
AcDbRotatedDimension
1001
ACAD
1000
DSTYLE
1002
{
1070
    77
1070
     3
1070
   143
1040
0.0393700787
1070
    41
1040
3.0
1070
    44
1040
1.0
1070
    42
1040
1.0
1070
   147
1040
1.524
1070
    73
1070
     0
1070
    74
1070
     0
1070
   140
1040
1.1
1070
   284
1070
    12
1070
    78
1070
    12
1002
}
  0
DIMENSION
  5
1C6
330
1F
100
AcDbEntity
  8
Z_OM_DIM
100
AcDbDimension
  2
*D11
 10
130.8184038692
 20
160.4335657759
 30
0.0
 11
130.8184038692
 21
153.5476277759
 31
0.0
 70
   160
 71
     1
 42
2.297938
  3
SLDDIMSTYLE0
100
AcDbAlignedDimension
 13
125.0638347139
 23
158.1356277759
 33
0.0
 14
125.0101467139
 24
160.4335657759
 34
0.0
 50
90.0
100
AcDbRotatedDimension
1001
ACAD
1000
DSTYLE
1002
{
1070
    77
1070
     3
1070
   143
1040
0.0393700787
1070
    41
1040
3.0
1070
    44
1040
1.0
1070
    42
1040
1.0
1070
   147
1040
1.524
1070
    73
1070
     0
1070
    74
1070
     0
1070
   140
1040
1.1
1070
   284
1070
    12
1070
    78
1070
    12
1002
}
  0
DIMENSION
  5
1E2
330
1F
100
AcDbEntity
  8
Z_OM_DIM
100
AcDbDimension
  2
*D12
 10
123.7101467139
 20
164.4835657759
 30
0.0
 11
124.7101467139
 21
164.4835657759
 31
0.0
 70
   160
 71
     1
 42
2.0
  3
SLDDIMSTYLE2
100
AcDbAlignedDimension
 13
125.7101467139
 23
159.7335657759
 33
0.0
 14
123.7101467139
 24
162.0835657759
 34
0.0
100
AcDbRotatedDimension
1001
ACAD
1000
DSTYLE
1002
{
1070
    77
1070
     3
1070
   143
1040
0.0393700787
1070
    41
1040
3.0
1070
    44
1040
1.0
1070
    42
1040
1.0
1070
   147
1040
1.524
1070
    73
1070
     0
1070
    74
1070
     0
1070
   140
1040
1.1
1070
   284
1070
    12
1070
    78
1070
    12
1002
}
  0
DIMENSION
  5
1FD
330
1F
100
AcDbEntity
  8
Z_OM_DIM
100
AcDbDimension
  2
*D13
 10
123.7101467139
 20
164.4835657759
 30
0.0
 11
120.7601467139
 21
164.4835657759
 31
0.0
 70
   160
 71
     1
 42
5.9
  3
SLDDIMSTYLE0
100
AcDbAlignedDimension
 13
117.8101467139
 23
162.0835657759
 33
0.0
 14
123.7101467139
 24
162.0835657759
 34
0.0
100
AcDbRotatedDimension
1001
ACAD
1000
DSTYLE
1002
{
1070
    77
1070
     3
1070
   143
1040
0.0393700787
1070
    41
1040
3.0
1070
    44
1040
1.0
1070
    42
1040
1.0
1070
   147
1040
1.524
1070
    73
1070
     0
1070
    74
1070
     0
1070
   140
1040
1.1
1070
   284
1070
    12
1070
    78
1070
    12
1002
}
  0
DIMENSION
  5
215
330
1F
100
AcDbEntity
  8
Z_OM_DIM
100
AcDbDimension
  2
*D14
 10
148.4390977139
 20
166.4581697759
 30
0.0
 11
148.4390977139
 21
157.7081697759
 31
0.0
 70
   160
 71
     1
 42
17.5
  3
SLDDIMSTYLE0
100
AcDbAlignedDimension
 13
146.5390977139
 23
148.9581697759
 33
0.0
 14
143.2390977139
 24
166.4581697759
 34
0.0
 50
90.0
100
AcDbRotatedDimension
1001
ACAD
1000
DSTYLE
1002
{
1070
    77
1070
     3
1070
   143
1040
0.0393700787
1070
    41
1040
3.0
1070
    44
1040
1.0
1070
    42
1040
1.0
1070
   147
1040
1.524
1070
    73
1070
     0
1070
    74
1070
     0
1070
   140
1040
1.1
1070
   284
1070
    12
1070
    78
1070
    12
1002
}
  0
DIMENSION
  5
22D
330
1F
100
AcDbEntity
  8
Z_OM_DIM
100
AcDbDimension
  2
*D15
 10
141.4390977139
 20
145.4581697759
 30
0.0
 11
142.9390977139
 21
145.4581697759
 31
0.0
 70
   160
 71
     1
 42
3.0
  3
SLDDIMSTYLE2
100
AcDbAlignedDimension
 13
144.4390977139
 23
146.9581697759
 33
0.0
 14
141.4390977139
 24
164.6581697759
 34
0.0
100
AcDbRotatedDimension
1001
ACAD
1000
DSTYLE
1002
{
1070
    77
1070
     3
1070
   143
1040
0.0393700787
1070
    41
1040
3.0
1070
    44
1040
1.0
1070
    42
1040
1.0
1070
   147
1040
1.524
1070
    73
1070
     0
1070
    74
1070
     0
1070
   140
1040
1.1
1070
   284
1070
    12
1070
    78
1070
    12
1002
}
  0
DIMENSION
  5
248
330
1F
100
AcDbEntity
  8
Z_OM_DIM
100
AcDbDimension
  2
*D16
 10
99.93063282
 20
163.5243241124
 30
0.0
 11
99.93063282
 21
160.7743241124
 31
0.0
 70
   160
 71
     1
 42
5.5
  3
SLDDIMSTYLE0
100
AcDbAlignedDimension
 13
95.1742127139
 23
158.0243241124
 33
0.0
 14
95.1742127139
 24
163.5243241124
 34
0.0
 50
90.0
100
AcDbRotatedDimension
1001
ACAD
1000
DSTYLE
1002
{
1070
    77
1070
     3
1070
   143
1040
0.0393700787
1070
    41
1040
3.0
1070
    44
1040
1.0
1070
    42
1040
1.0
1070
   147
1040
1.524
1070
    73
1070
     0
1070
    74
1070
     0
1070
   140
1040
1.1
1070
   284
1070
    12
1070
    78
1070
    12
1002
}
  0
DIMENSION
  5
260
330
1F
100
AcDbEntity
  8
Z_OM_DIM
100
AcDbDimension
  2
*D17
 10
95.3742127139
 20
122.0109227375
 30
0.0
 11
85.8742127139
 21
122.0109227375
 31
0.0
 70
   160
 71
     1
 42
19.0
  3
SLDDIMSTYLE2
100
AcDbAlignedDimension
 13
76.3742127139
 23
127.9055060389
 33
0.0
 14
95.3742127139
 24
127.9055060389
 34
0.0
100
AcDbRotatedDimension
1001
ACAD
1000
DSTYLE
1002
{
1070
    77
1070
     3
1070
   143
1040
0.0393700787
1070
    41
1040
3.0
1070
    44
1040
1.0
1070
    42
1040
1.0
1070
   147
1040
1.524
1070
    73
1070
     0
1070
    74
1070
     0
1070
   140
1040
1.1
1070
   284
1070
    12
1070
    78
1070
    12
1002
}
  0
DIMENSION
  5
277
330
1F
100
AcDbEntity
  8
Z_OM_DIM
100
AcDbDimension
  2
*D18
 10
76.3742127139
 20
122.0109227375
 30
0.0
 11
71.7762127139
 21
122.0109227375
 31
0.0
 70
   160
 71
     1
 42
1.0
  3
SLDDIMSTYLE2
100
AcDbAlignedDimension
 13
75.3742127139
 23
127.9055060389
 33
0.0
 14
76.3742127139
 24
127.9055060389
 34
0.0
100
AcDbRotatedDimension
1001
ACAD
1000
DSTYLE
1002
{
1070
    77
1070
     3
1070
   143
1040
0.0393700787
1070
    41
1040
3.0
1070
    44
1040
1.0
1070
    42
1040
1.0
1070
   147
1040
1.524
1070
    73
1070
     0
1070
    74
1070
     0
1070
   140
1040
1.1
1070
   284
1070
    12
1070
    78
1070
    12
1002
}
  0
DIMENSION
  5
293
330
1F
100
AcDbEntity
  8
Z_OM_DIM
100
AcDbDimension
  2
*D19
 10
92.7742127139
 20
168.2283904117
 30
0.0
 11
99.9622127139
 21
168.2283904117
 31
0.0
 70
   160
 71
     1
 42
2.6
  3
SLDDIMSTYLE0
100
AcDbAlignedDimension
 13
95.3742127139
 23
163.3243241124
 33
0.0
 14
92.7742127139
 24
164.1243241124
 34
0.0
100
AcDbRotatedDimension
1001
ACAD
1000
DSTYLE
1002
{
1070
    77
1070
     3
1070
   143
1040
0.0393700787
1070
    41
1040
3.0
1070
    44
1040
1.0
1070
    42
1040
1.0
1070
   147
1040
1.524
1070
    73
1070
     0
1070
    74
1070
     0
1070
   140
1040
1.1
1070
   284
1070
    12
1070
    78
1070
    12
1002
}
  0
MTEXT
  5
2B0
330
1F
100
AcDbEntity
  8
Z_OM_NOTE
100
AcDbMText
 10
129.5181202203
 20
141.7410535447
 30
0.0
 40
1.5
 41
0.0
 71
     1
 72
     1
  1
ＭＯＵＮＴＩＮＧ ＳＣＲＥＷ ＨＯＬＥＳ
  7
SLDTEXTSTYLE3
 73
     1
 44
1.0
  0
MTEXT
  5
2B2
330
1F
100
AcDbEntity
  8
Z_OM_NOTE
100
AcDbMText
 10
148.3666462501
 20
146.1982593143
 30
0.0
 40
0.64
 41
0.0
 71
     1
 72
     1
  1
M3
  7
SLDTEXTSTYLE4
 73
     1
 44
1.0
  0
MTEXT
  5
2B4
330
1F
100
AcDbEntity
  8
Z_OM_DIM
100
AcDbMText
 10
145.5876933005
 20
171.8879598116
 30
0.0
 40
1.1
 41
0.0
 71
     1
 72
     1
  1
O2.4 DEPTH 2 MIN
  7
SLDTEXTSTYLE5
 73
     1
 44
1.0
  0
MTEXT
  5
2B6
330
1F
100
AcDbEntity
  8
Z_OM_NOTE
100
AcDbMText
 10
117.5731565407
 20
133.8690064063
 30
0.0
 40
1.5
 41
0.0
 71
     1
 72
     1
  1
NOTE 1  ATTACHED THE FIXTURE AT DRAWINGS
  7
SLDTEXTSTYLE6
 73
     1
 44
1.0
  0
INSERT
  5
2C2
330
1F
100
AcDbEntity
  8
Z_OM_NOTE
100
AcDbBlockReference
  2
SW_NOTE_0
 10
127.8494278553
 20
128.9215881098
 30
0.0
  0
MTEXT
  5
2C3
330
1F
100
AcDbEntity
  8
Z_OM_NOTE
100
AcDbMText
 10
64.9242818847
 20
178.5452246376
 30
0.0
 40
1.1
 41
0.0
 71
     1
 72
     1
  1
SENSING SURFACE
  7
SLDTEXTSTYLE1
 73
     1
 44
1.0
  0
MTEXT
  5
2C4
330
1F
100
AcDbEntity
  8
Z_OM_NOTE
100
AcDbMText
 10
124.7899174065
 20
130.509483778
 30
0.0
 40
1.5
 41
0.0
 71
     1
 72
     1
  1
2
  7
SLDTEXTSTYLE1
 73
     1
 44
1.0
  0
MTEXT
  5
2C5
330
1F
100
AcDbEntity
  8
Z_OM_NOTE
100
AcDbMText
 10
61.3345383873
 20
168.1928161714
 30
0.0
 40
1.1
 41
0.0
 71
     1
 72
     1
  1
NOTE 2
  7
SLDTEXTSTYLE1
 73
     1
 44
1.0
  0
MTEXT
  5
2C6
330
1F
100
AcDbEntity
  8
Z_OM_NOTE
100
AcDbMText
 10
67.5507608769
 20
172.6688273198
 30
0.0
 40
1.1
 41
0.0
 71
     1
 72
     1
  1
INDICATOR
  7
SLDTEXTSTYLE1
 73
     1
 44
1.0
  0
MTEXT
  5
2C7
330
1F
100
AcDbEntity
  8
0
  6
Continuous
 62
     7
370
     0
100
AcDbMText
 10
154.0783023927
 20
29.8861652342
 30
0.0
 40
4.2333333333
 41
0.0
 71
     1
 72
     1
  1
E2S-W13
  7
SLDTEXTSTYLE0
 73
     1
 44
1.0
  0
INSERT
  5
2CD
330
1F
100
AcDbEntity
  8
0
  6
Continuous
 62
     7
370
     0
100
AcDbBlockReference
  2
SW_NOTE_1
 10
135.2812262833
 20
43.8478476494
 30
0.0
  0
MTEXT
  5
2CE
330
1F
100
AcDbEntity
  8
0
  6
Continuous
 62
     7
370
     0
100
AcDbMText
 10
155.4906418764
 20
16.2918259049
 30
0.0
 40
4.2333333333
 41
0.0
 71
     1
 72
     1
  1
041417
  7
SLDTEXTSTYLE0
 73
     1
 44
1.0
  0
ENDSEC
  0
SECTION
  2
OBJECTS
  0
DICTIONARY
  5
C
330
0
100
AcDbDictionary
281
     1
  3
ACAD_GROUP
350
D
  3
ACAD_LAYOUT
350
1A
  3
ACAD_MLINESTYLE
350
17
  3
ACAD_PLOTSETTINGS
350
19
  3
ACAD_PLOTSTYLENAME
350
E
  0
DICTIONARY
  5
D
102
{ACAD_REACTORS
330
C
102
}
330
C
100
AcDbDictionary
281
     1
  0
DICTIONARY
  5
1A
102
{ACAD_REACTORS
330
C
102
}
330
C
100
AcDbDictionary
281
     1
  3
Layout1
350
1E
  3
Layout2
350
26
  3
Model
350
22
  0
DICTIONARY
  5
17
102
{ACAD_REACTORS
330
C
102
}
330
C
100
AcDbDictionary
281
     1
  3
Standard
350
18
  0
DICTIONARY
  5
19
102
{ACAD_REACTORS
330
C
102
}
330
C
100
AcDbDictionary
281
     1
  0
ACDBDICTIONARYWDFLT
  5
E
102
{ACAD_REACTORS
330
C
102
}
330
C
100
AcDbDictionary
281
     1
  3
Normal
350
F
100
AcDbDictionaryWithDefault
340
F
  0
LAYOUT
  5
1E
102
{ACAD_REACTORS
330
1A
102
}
330
1A
100
AcDbPlotSettings
  1

  2

  4

  6

 40
0.0
 41
0.0
 42
0.0
 43
0.0
 44
0.0
 45
0.0
 46
0.0
 47
0.0
 48
0.0
 49
0.0
140
0.0
141
0.0
142
1.0
143
1.0
 70
   688
 72
     0
 73
     0
 74
     5
  7

 75
    16
147
1.0
148
0.0
149
0.0
100
AcDbLayout
  1
Layout1
 70
     1
 71
     1
 10
0.0
 20
0.0
 11
0.0
 21
0.0
 12
0.0
 22
0.0
 32
0.0
 14
0.0
 24
0.0
 34
0.0
 15
0.0
 25
0.0
 35
0.0
146
0.0
 13
0.0
 23
0.0
 33
0.0
 16
1.0
 26
0.0
 36
0.0
 17
0.0
 27
1.0
 37
0.0
 76
     0
330
1B
  0
LAYOUT
  5
26
102
{ACAD_REACTORS
330
1A
102
}
330
1A
100
AcDbPlotSettings
  1

  2

  4

  6

 40
0.0
 41
0.0
 42
0.0
 43
0.0
 44
0.0
 45
0.0
 46
0.0
 47
0.0
 48
0.0
 49
0.0
140
0.0
141
0.0
142
1.0
143
1.0
 70
   688
 72
     0
 73
     0
 74
     5
  7

 75
    16
147
1.0
148
0.0
149
0.0
100
AcDbLayout
  1
Layout2
 70
     1
 71
     2
 10
0.0
 20
0.0
 11
0.0
 21
0.0
 12
0.0
 22
0.0
 32
0.0
 14
0.0
 24
0.0
 34
0.0
 15
0.0
 25
0.0
 35
0.0
146
0.0
 13
0.0
 23
0.0
 33
0.0
 16
1.0
 26
0.0
 36
0.0
 17
0.0
 27
1.0
 37
0.0
 76
     0
330
23
  0
LAYOUT
  5
22
102
{ACAD_REACTORS
330
1A
102
}
330
1A
100
AcDbPlotSettings
  1

  2

  4

  6

 40
0.0
 41
0.0
 42
0.0
 43
0.0
 44
0.0
 45
0.0
 46
0.0
 47
0.0
 48
0.0
 49
0.0
140
0.0
141
0.0
142
1.0
143
1.0
 70
  1712
 72
     0
 73
     0
 74
     0
  7

 75
     0
147
1.0
148
0.0
149
0.0
100
AcDbLayout
  1
Model
 70
     1
 71
     0
 10
0.0
 20
0.0
 11
0.0
 21
0.0
 12
0.0
 22
0.0
 32
0.0
 14
0.0
 24
0.0
 34
0.0
 15
210.0
 25
297.0
 35
0.0
146
0.0
 13
0.0
 23
0.0
 33
0.0
 16
1.0
 26
0.0
 36
0.0
 17
0.0
 27
1.0
 37
0.0
 76
     0
330
1F
  0
MLINESTYLE
  5
18
102
{ACAD_REACTORS
330
17
102
}
330
17
100
AcDbMlineStyle
  2
Standard
 70
     0
  3

 62
   256
 51
90.0
 52
90.0
 71
     2
 49
0.5
 62
   256
  6
BYLAYER
 49
-0.5
 62
   256
  6
BYLAYER
  0
ACDBPLACEHOLDER
  5
F
102
{ACAD_REACTORS
330
E
102
}
330
E
  0
ENDSEC
  0
EOF
