  0
SECTION
  2
HEADER
  9
$ACADVER
  1
AC1015
  9
$ACADMAINTVER
 70
     6
  9
$DWGCODEPAGE
  3
DOS932
  9
$INSBASE
 10
0.0
 20
0.0
 30
0.0
  9
$EXTMIN
 10
0.0
 20
0.0
 30
0.0
  9
$EXTMAX
 10
210.0
 20
297.0
 30
0.0
  9
$LIMMIN
 10
0.0
 20
0.0
  9
$LIMMAX
 10
0.0
 20
0.0
  9
$ORTHOMODE
 70
     0
  9
$REGENMODE
 70
     1
  9
$FILLMODE
 70
     1
  9
$QTEXTMODE
 70
     0
  9
$MIRRTEXT
 70
     1
  9
$LTSCALE
 40
1.0
  9
$ATTMODE
 70
     1
  9
$TEXTSIZE
 40
3.5
  9
$TRACEWID
 40
1.0
  9
$TEXTSTYLE
  7
Standard
  9
$CLAYER
  8
0
  9
$CELTYPE
  6
ByLayer
  9
$CECOLOR
 62
   256
  9
$CELTSCALE
 40
1.0
  9
$DISPSILH
 70
     0
  9
$DIMSCALE
 40
1.0
  9
$DIMASZ
 40
3.0
  9
$DIMEXO
 40
1.0
  9
$DIMDLI
 40
3.75
  9
$DIMRND
 40
0.0
  9
$DIMDLE
 40
0.0
  9
$DIMEXE
 40
1.0
  9
$DIMTP
 40
0.0
  9
$DIMTM
 40
0.0
  9
$DIMTXT
 40
2.2
  9
$DIMCEN
 40
2.5
  9
$DIMTSZ
 40
0.0
  9
$DIMTOL
 70
     0
  9
$DIMLIM
 70
     0
  9
$DIMTIH
 70
     1
  9
$DIMTOH
 70
     1
  9
$DIMSE1
 70
     0
  9
$DIMSE2
 70
     0
  9
$DIMTAD
 70
     1
  9
$DIMZIN
 70
     1
  9
$DIMBLK
  1

  9
$DIMASO
 70
     1
  9
$DIMSHO
 70
     1
  9
$DIMPOST
  1

  9
$DIMAPOST
  1

  9
$DIMALT
 70
     0
  9
$DIMALTD
 70
     3
  9
$DIMALTF
 40
0.0393700787
  9
$DIMLFAC
 40
1.0
  9
$DIMTOFL
 70
     1
  9
$DIMTVP
 40
0.0
  9
$DIMTIX
 70
     0
  9
$DIMSOXD
 70
     0
  9
$DIMSAH
 70
     0
  9
$DIMBLK1
  1

  9
$DIMBLK2
  1

  9
$DIMSTYLE
  2
ISO-25
  9
$DIMCLRD
 70
     0
  9
$DIMCLRE
 70
     0
  9
$DIMCLRT
 70
     0
  9
$DIMTFAC
 40
1.0
  9
$DIMGAP
 40
1.524
  9
$DIMJUST
 70
     0
  9
$DIMSD1
 70
     0
  9
$DIMSD2
 70
     0
  9
$DIMTOLJ
 70
     0
  9
$DIMTZIN
 70
     1
  9
$DIMALTZ
 70
     0
  9
$DIMALTTZ
 70
     0
  9
$DIMUPT
 70
     0
  9
$DIMDEC
 70
     2
  9
$DIMTDEC
 70
     2
  9
$DIMALTU
 70
     2
  9
$DIMALTTD
 70
     3
  9
$DIMTXSTY
  7
Standard
  9
$DIMAUNIT
 70
     0
  9
$DIMADEC
 70
     0
  9
$DIMALTRND
 40
0.0
  9
$DIMAZIN
 70
     0
  9
$DIMDSEP
 70
    44
  9
$DIMATFIT
 70
     3
  9
$DIMFRAC
 70
     0
  9
$DIMLDRBLK
  1

  9
$DIMLUNIT
 70
     2
  9
$DIMLWD
 70
    -2
  9
$DIMLWE
 70
    -2
  9
$DIMTMOVE
 70
     0
  9
$LUNITS
 70
     2
  9
$LUPREC
 70
     2
  9
$SKETCHINC
 40
1.0
  9
$FILLETRAD
 40
10.0
  9
$AUNITS
 70
     0
  9
$AUPREC
 70
     0
  9
$MENU
  1
.
  9
$ELEVATION
 40
0.0
  9
$PELEVATION
 40
0.0
  9
$THICKNESS
 40
0.0
  9
$LIMCHECK
 70
     0
  9
$CHAMFERA
 40
10.0
  9
$CHAMFERB
 40
10.0
  9
$CHAMFERC
 40
20.0
  9
$CHAMFERD
 40
0.0
  9
$SKPOLY
 70
     0
  9
$TDCREATE
 40
2454797.709859294
  9
$TDUCREATE
 40
2454797.334859294
  9
$TDUPDATE
 40
2454797.709859306
  9
$TDUUPDATE
 40
2454797.334859306
  9
$TDINDWG
 40
0.0000000116
  9
$TDUSRTIMER
 40
0.0000000116
  9
$USRTIMER
 70
     1
  9
$ANGBASE
 50
0.0
  9
$ANGDIR
 70
     0
  9
$PDMODE
 70
     0
  9
$PDSIZE
 40
-1.0
  9
$PLINEWID
 40
0.0
  9
$SPLFRAME
 70
     0
  9
$SPLINETYPE
 70
     6
  9
$SPLINESEGS
 70
     8
  9
$HANDSEED
  5
289
  9
$SURFTAB1
 70
     6
  9
$SURFTAB2
 70
     6
  9
$SURFTYPE
 70
     6
  9
$SURFU
 70
     6
  9
$SURFV
 70
     6
  9
$UCSBASE
  2

  9
$UCSNAME
  2

  9
$UCSORG
 10
0.0
 20
0.0
 30
0.0
  9
$UCSXDIR
 10
1.0
 20
0.0
 30
0.0
  9
$UCSYDIR
 10
0.0
 20
1.0
 30
0.0
  9
$UCSORTHOREF
  2

  9
$UCSORTHOVIEW
 70
     0
  9
$UCSORGTOP
 10
0.0
 20
0.0
 30
0.0
  9
$UCSORGBOTTOM
 10
0.0
 20
0.0
 30
0.0
  9
$UCSORGLEFT
 10
0.0
 20
0.0
 30
0.0
  9
$UCSORGRIGHT
 10
0.0
 20
0.0
 30
0.0
  9
$UCSORGFRONT
 10
0.0
 20
0.0
 30
0.0
  9
$UCSORGBACK
 10
0.0
 20
0.0
 30
0.0
  9
$PUCSBASE
  2

  9
$PUCSNAME
  2

  9
$PUCSORG
 10
0.0
 20
0.0
 30
0.0
  9
$PUCSXDIR
 10
1.0
 20
0.0
 30
0.0
  9
$PUCSYDIR
 10
0.0
 20
1.0
 30
0.0
  9
$PUCSORTHOREF
  2

  9
$PUCSORTHOVIEW
 70
     0
  9
$PUCSORGTOP
 10
0.0
 20
0.0
 30
0.0
  9
$PUCSORGBOTTOM
 10
0.0
 20
0.0
 30
0.0
  9
$PUCSORGLEFT
 10
0.0
 20
0.0
 30
0.0
  9
$PUCSORGRIGHT
 10
0.0
 20
0.0
 30
0.0
  9
$PUCSORGFRONT
 10
0.0
 20
0.0
 30
0.0
  9
$PUCSORGBACK
 10
0.0
 20
0.0
 30
0.0
  9
$USERI1
 70
     0
  9
$USERI2
 70
     0
  9
$USERI3
 70
     0
  9
$USERI4
 70
     0
  9
$USERI5
 70
     0
  9
$USERR1
 40
0.0
  9
$USERR2
 40
0.0
  9
$USERR3
 40
0.0
  9
$USERR4
 40
0.0
  9
$USERR5
 40
0.0
  9
$WORLDVIEW
 70
     1
  9
$SHADEDGE
 70
     3
  9
$SHADEDIF
 70
    70
  9
$TILEMODE
 70
     1
  9
$MAXACTVP
 70
    64
  9
$PINSBASE
 10
0.0
 20
0.0
 30
0.0
  9
$PLIMCHECK
 70
     0
  9
$PEXTMIN
 10
1.0000000000E+20
 20
1.0000000000E+20
 30
1.0000000000E+20
  9
$PEXTMAX
 10
-1.0000000000E+20
 20
-1.0000000000E+20
 30
-1.0000000000E+20
  9
$PLIMMIN
 10
0.0
 20
0.0
  9
$PLIMMAX
 10
420.0
 20
297.0
  9
$UNITMODE
 70
     0
  9
$VISRETAIN
 70
     1
  9
$PLINEGEN
 70
     0
  9
$PSLTSCALE
 70
     1
  9
$TREEDEPTH
 70
  3020
  9
$CMLSTYLE
  2
Standard
  9
$CMLJUST
 70
     0
  9
$CMLSCALE
 40
20.0
  9
$PROXYGRAPHICS
 70
     1
  9
$MEASUREMENT
 70
     1
  9
$CELWEIGHT
370
    -1
  9
$ENDCAPS
280
     0
  9
$JOINSTYLE
280
     0
  9
$LWDISPLAY
290
     1
  9
$INSUNITS
 70
     4
  9
$HYPERLINKBASE
  1

  9
$STYLESHEET
  1

  9
$XEDIT
290
     1
  9
$CEPSNTYPE
380
     0
  9
$PSTYLEMODE
290
     1
  9
$FINGERPRINTGUID
  2
{F13ACB82-6DF0-4148-BCE8-72AF62448643}
  9
$VERSIONGUID
  2
{FAEB1C32-E019-11D5-929B-00C0DF256EC4}
  9
$EXTNAMES
290
     1
  9
$PSVPSCALE
 40
0.0
  9
$OLESTARTUP
290
     0
  0
ENDSEC
  0
SECTION
  2
CLASSES
  0
CLASS
  1
ACDBDICTIONARYWDFLT
  2
AcDbDictionaryWithDefault
  3
ObjectDBX Classes
 90
        0
280
     0
281
     0
  0
CLASS
  1
ACDBPLACEHOLDER
  2
AcDbPlaceHolder
  3
ObjectDBX Classes
 90
        0
280
     0
281
     0
  0
CLASS
  1
LAYOUT
  2
AcDbLayout
  3
ObjectDBX Classes
 90
        0
280
     0
281
     0
  0
ENDSEC
  0
SECTION
  2
TABLES
  0
TABLE
  2
VPORT
  5
8
330
0
100
AcDbSymbolTable
 70
     1
  0
VPORT
  5
29
330
8
100
AcDbSymbolTableRecord
100
AcDbViewportTableRecord
  2
*Active
 70
     0
 10
0.0
 20
0.0
 11
1.0
 21
1.0
 12
105.0
 22
148.5
 13
0.0
 23
0.0
 14
10.0
 24
10.0
 15
10.0
 25
10.0
 16
0.0
 26
0.0
 36
1.0
 17
0.0
 27
0.0
 37
0.0
 40
297.0
 41
1.9729729729
 42
50.0
 43
0.0
 44
0.0
 50
0.0
 51
0.0
 71
     0
 72
  2000
 73
     1
 74
     3
 75
     0
 76
     0
 77
     0
 78
     0
281
     0
 65
     1
110
0.0
120
0.0
130
0.0
111
1.0
121
0.0
131
0.0
112
0.0
122
1.0
132
0.0
 79
     0
146
0.0
  0
ENDTAB
  0
TABLE
  2
LTYPE
  5
5
330
0
100
AcDbSymbolTable
 70
     6
  0
LTYPE
  5
14
330
5
100
AcDbSymbolTableRecord
100
AcDbLinetypeTableRecord
  2
ByBlock
 70
     0
  3

 72
    65
 73
     0
 40
0.0
  0
LTYPE
  5
15
330
5
100
AcDbSymbolTableRecord
100
AcDbLinetypeTableRecord
  2
ByLayer
 70
     0
  3

 72
    65
 73
     0
 40
0.0
  0
LTYPE
  5
16
330
5
100
AcDbSymbolTableRecord
100
AcDbLinetypeTableRecord
  2
Continuous
 70
     0
  3
Solid line
 72
    65
 73
     0
 40
0.0
  0
LTYPE
  5
2A
330
5
100
AcDbSymbolTableRecord
100
AcDbLinetypeTableRecord
  2
HIDDEN
 70
     0
  3
Hidden __ __ __ __ __ __ __ __ __ __ __ __ __ __
 72
    65
 73
     2
 40
1.905
 49
1.27
 74
     0
 49
-0.635
 74
     0
  0
LTYPE
  5
2B
330
5
100
AcDbSymbolTableRecord
100
AcDbLinetypeTableRecord
  2
PHANTOM
 70
     0
  3
Phantom ______  __  __  ______  __  __  ______
 72
    65
 73
     6
 40
12.7
 49
6.35
 74
     0
 49
-1.27
 74
     0
 49
1.27
 74
     0
 49
-1.27
 74
     0
 49
1.27
 74
     0
 49
-1.27
 74
     0
  0
LTYPE
  5
2C
330
5
100
AcDbSymbolTableRecord
100
AcDbLinetypeTableRecord
  2
CENTER
 70
     0
  3
Center ____ _ ____ _ ____ _ ____ _ ____ _ ____
 72
    65
 73
     4
 40
10.16
 49
6.35
 74
     0
 49
-1.27
 74
     0
 49
1.27
 74
     0
 49
-1.27
 74
     0
  0
LTYPE
  5
2D
330
5
100
AcDbSymbolTableRecord
100
AcDbLinetypeTableRecord
  2
CENTERX2
 70
     0
  3
Center (2x) ________  __  ________  __  _____
 72
    65
 73
     4
 40
20.32
 49
12.7
 74
     0
 49
-2.54
 74
     0
 49
2.54
 74
     0
 49
-2.54
 74
     0
  0
LTYPE
  5
2E
330
5
100
AcDbSymbolTableRecord
100
AcDbLinetypeTableRecord
  2
DOT2
 70
     0
  3
Dot (.5x) ........................................
 72
    65
 73
     2
 40
0.635
 49
0.0
 74
     0
 49
-0.635
 74
     0
  0
ENDTAB
  0
TABLE
  2
LAYER
  5
2
330
0
100
AcDbSymbolTable
 70
    15
  0
LAYER
  5
10
330
2
100
AcDbSymbolTableRecord
100
AcDbLayerTableRecord
  2
0
 70
     0
 62
     7
  6
Continuous
370
    -3
390
F
  0
LAYER
  5
2F
330
2
100
AcDbSymbolTableRecord
100
AcDbLayerTableRecord
  2
SLD-0_0
 70
     0
 62
   179
  6
Continuous
370
     0
390
F
  0
LAYER
  5
30
330
2
100
AcDbSymbolTableRecord
100
AcDbLayerTableRecord
  2
SLD-0
 70
     0
 62
   179
  6
Continuous
370
     0
390
F
  0
LAYER
  5
31
330
2
100
AcDbSymbolTableRecord
100
AcDbLayerTableRecord
  2
Z_OM_OUTLINE
 70
     0
 62
   179
  6
Continuous
370
     0
390
F
  0
LAYER
  5
32
330
2
100
AcDbSymbolTableRecord
100
AcDbLayerTableRecord
  2
Z_OM_MOUNT
 70
     0
 62
   179
  6
Continuous
370
     0
390
F
  0
LAYER
  5
33
330
2
100
AcDbSymbolTableRecord
100
AcDbLayerTableRecord
  2
Z_OM_NOTE
 70
     0
 62
     4
  6
Continuous
370
     0
390
F
  0
LAYER
  5
34
330
2
100
AcDbSymbolTableRecord
100
AcDbLayerTableRecord
  2
Z_OM_CENTER
 70
     0
 62
     2
  6
CENTER
370
     0
390
F
  0
LAYER
  5
35
330
2
100
AcDbSymbolTableRecord
100
AcDbLayerTableRecord
  2
Z_OM_DIM
 70
     0
 62
     4
  6
Continuous
370
     0
390
F
  0
LAYER
  5
36
330
2
100
AcDbSymbolTableRecord
100
AcDbLayerTableRecord
  2
Z_OM_PHANTOM
 70
     0
 62
     3
  6
PHANTOM
370
     0
390
F
  0
LAYER
  5
37
330
2
100
AcDbSymbolTableRecord
100
AcDbLayerTableRecord
  2
Z_OM_DASHED
 70
     0
 62
     2
  6
HIDDEN
370
     0
390
F
  0
LAYER
  5
38
330
2
100
AcDbSymbolTableRecord
100
AcDbLayerTableRecord
  2
Z_OM_BRACKET
 70
     0
 62
     3
  6
Continuous
370
     0
390
F
  0
LAYER
  5
39
330
2
100
AcDbSymbolTableRecord
100
AcDbLayerTableRecord
  2
SLD-DEFPOINTS
 70
     0
 62
   179
  6
Continuous
370
     0
390
F
  0
LAYER
  5
3A
330
2
100
AcDbSymbolTableRecord
100
AcDbLayerTableRecord
  2
Z_OM_THIN_LINE
 70
     0
 62
     2
  6
Continuous
370
     0
390
F
  0
LAYER
  5
3B
330
2
100
AcDbSymbolTableRecord
100
AcDbLayerTableRecord
  2
SLD-DEFPOINTS_0
 70
     0
 62
   179
  6
Continuous
370
     0
390
F
  0
LAYER
  5
E5
330
2
100
AcDbSymbolTableRecord
100
AcDbLayerTableRecord
  2
Defpoints
 70
     0
 62
     7
  6
Continuous
290
     0
370
    -3
390
F
  0
ENDTAB
  0
TABLE
  2
STYLE
  5
3
330
0
100
AcDbSymbolTable
 70
     7
  0
STYLE
  5
11
330
3
100
AcDbSymbolTableRecord
100
AcDbTextStyleTableRecord
  2
Standard
 70
     0
 40
0.0
 41
1.0
 50
0.0
 71
     0
 42
2.5
  3
txt
  4
bigfont
  0
STYLE
  5
3F
330
3
100
AcDbSymbolTableRecord
100
AcDbTextStyleTableRecord
  2
SLDTEXTSTYLE0
 70
     0
 40
0.0
 41
1.08
 50
0.0
 71
     0
 42
0.2
  3
TXT
  4
bigfont
  0
STYLE
  5
4A
330
3
100
AcDbSymbolTableRecord
100
AcDbTextStyleTableRecord
  2
SLDTEXTSTYLE1
 70
     0
 40
0.0
 41
0.8399163763
 50
0.0
 71
     0
 42
0.2
  3
TXT
  4
bigfont
  0
STYLE
  5
4C
330
3
100
AcDbSymbolTableRecord
100
AcDbTextStyleTableRecord
  2
SLDTEXTSTYLE2
 70
     0
 40
0.0
 41
0.945224321
 50
0.0
 71
     0
 42
0.2
  3
TXT
  4
bigfont
  0
STYLE
  5
4E
330
3
100
AcDbSymbolTableRecord
100
AcDbTextStyleTableRecord
  2
SLDTEXTSTYLE3
 70
     0
 40
0.0
 41
0.8654464286
 50
0.0
 71
     0
 42
0.2
  3
TXT
  4
bigfont
  0
STYLE
  5
102
330
3
100
AcDbSymbolTableRecord
100
AcDbTextStyleTableRecord
  2
SLDTEXTSTYLE4
 70
     0
 40
0.0
 41
0.96
 50
0.0
 71
     0
 42
0.2
  3
TXT
  4
bigfont
  0
STYLE
  5
282
330
3
100
AcDbSymbolTableRecord
100
AcDbTextStyleTableRecord
  2
SLDTEXTSTYLE5
 70
     0
 40
0.0
 41
0.7
 50
0.0
 71
     0
 42
0.2
  3
TXT
  4
bigfont
  0
ENDTAB
  0
TABLE
  2
VIEW
  5
6
330
0
100
AcDbSymbolTable
 70
     0
  0
ENDTAB
  0
TABLE
  2
UCS
  5
7
330
0
100
AcDbSymbolTable
 70
     0
  0
ENDTAB
  0
TABLE
  2
APPID
  5
9
330
0
100
AcDbSymbolTable
 70
     1
  0
APPID
  5
12
330
9
100
AcDbSymbolTableRecord
100
AcDbRegAppTableRecord
  2
ACAD
 70
     0
  0
ENDTAB
  0
TABLE
  2
DIMSTYLE
  5
A
330
0
100
AcDbSymbolTable
 70
     4
100
AcDbDimStyleTable
  0
DIMSTYLE
105
27
330
A
100
AcDbSymbolTableRecord
100
AcDbDimStyleTableRecord
  2
ISO-25
 70
     0
 41
2.5
 42
0.625
 43
3.75
 44
1.25
 73
     0
 74
     0
 77
     1
 78
     8
140
2.5
141
2.5
143
0.0393700787
147
0.625
171
     3
172
     1
271
     2
272
     2
274
     3
278
    44
283
     0
284
     8
340
11
  0
DIMSTYLE
105
F4
102
{ACAD_REACTORS
330
E4
330
104
330
11E
330
14F
330
16B
330
1B6
330
1CE
330
1E6
330
1FE
330
21A
330
24D
330
264
102
}
330
A
100
AcDbSymbolTableRecord
100
AcDbDimStyleTableRecord
  2
SLDDIMSTYLE0
 70
     0
 41
3.0
 44
0.0
 73
     0
 74
     0
 77
     3
 78
    12
140
1.1
147
0.275
173
     1
271
     1
284
    12
340
3F
341
F5
343
F5
344
F5
  0
DIMSTYLE
105
144
102
{ACAD_REACTORS
330
136
330
186
330
19E
102
}
330
A
100
AcDbSymbolTableRecord
100
AcDbDimStyleTableRecord
  2
SLDDIMSTYLE1
 70
     0
 41
3.0
 44
0.0
 73
     0
 74
     0
 77
     3
 78
    12
140
1.1
147
0.275
173
     1
271
     0
284
    12
340
3F
341
F5
343
F5
344
F5
  0
DIMSTYLE
105
240
102
{ACAD_REACTORS
330
236
102
}
330
A
100
AcDbSymbolTableRecord
100
AcDbDimStyleTableRecord
  2
SLDDIMSTYLE2
 70
     0
 41
3.0
 44
0.0
 78
    12
140
1.1
147
0.275
172
     1
173
     1
271
     1
284
    12
340
3F
341
F5
343
F5
344
F5
  0
ENDTAB
  0
TABLE
  2
BLOCK_RECORD
  5
1
330
0
100
AcDbSymbolTable
 70
    21
  0
BLOCK_RECORD
  5
1F
330
1
100
AcDbSymbolTableRecord
100
AcDbBlockTableRecord
  2
*Model_Space
340
22
  0
BLOCK_RECORD
  5
1B
330
1
100
AcDbSymbolTableRecord
100
AcDbBlockTableRecord
  2
*Paper_Space
340
1E
  0
BLOCK_RECORD
  5
23
330
1
100
AcDbSymbolTableRecord
100
AcDbBlockTableRecord
  2
*Paper_Space0
340
26
  0
BLOCK_RECORD
  5
3C
330
1
100
AcDbSymbolTableRecord
100
AcDbBlockTableRecord
  2
SW_NOTE_0
340
0
102
{BLKREFS
331
286
102
}
  0
BLOCK_RECORD
  5
42
330
1
100
AcDbSymbolTableRecord
100
AcDbBlockTableRecord
  2
SW_NOTE_1
340
0
102
{BLKREFS
331
287
102
}
  0
BLOCK_RECORD
  5
47
330
1
100
AcDbSymbolTableRecord
100
AcDbBlockTableRecord
  2
SW_NOTE_2
340
0
102
{BLKREFS
331
288
102
}
  0
BLOCK_RECORD
  5
E6
330
1
100
AcDbSymbolTableRecord
100
AcDbBlockTableRecord
  2
*D4
340
0
  0
BLOCK_RECORD
  5
F5
330
1
100
AcDbSymbolTableRecord
100
AcDbBlockTableRecord
  2
_None
340
0
102
{BLKREFS
331
EC
331
EB
331
10B
331
10A
331
124
331
123
331
13C
331
13B
331
156
331
155
331
172
331
171
331
18C
331
18B
331
1A4
331
1A3
331
1BC
331
1BB
331
1D4
331
1D3
331
1EC
331
1EB
331
205
331
204
331
221
331
220
331
23B
331
253
331
252
331
26B
331
26A
102
}
  0
BLOCK_RECORD
  5
105
330
1
100
AcDbSymbolTableRecord
100
AcDbBlockTableRecord
  2
*D6
340
0
  0
BLOCK_RECORD
  5
11F
330
1
100
AcDbSymbolTableRecord
100
AcDbBlockTableRecord
  2
*D7
340
0
  0
BLOCK_RECORD
  5
137
330
1
100
AcDbSymbolTableRecord
100
AcDbBlockTableRecord
  2
*D8
340
0
  0
BLOCK_RECORD
  5
150
330
1
100
AcDbSymbolTableRecord
100
AcDbBlockTableRecord
  2
*D9
340
0
  0
BLOCK_RECORD
  5
16C
330
1
100
AcDbSymbolTableRecord
100
AcDbBlockTableRecord
  2
*D10
340
0
  0
BLOCK_RECORD
  5
187
330
1
100
AcDbSymbolTableRecord
100
AcDbBlockTableRecord
  2
*D11
340
0
  0
BLOCK_RECORD
  5
19F
330
1
100
AcDbSymbolTableRecord
100
AcDbBlockTableRecord
  2
*D12
340
0
  0
BLOCK_RECORD
  5
1B7
330
1
100
AcDbSymbolTableRecord
100
AcDbBlockTableRecord
  2
*D13
340
0
  0
BLOCK_RECORD
  5
1CF
330
1
100
AcDbSymbolTableRecord
100
AcDbBlockTableRecord
  2
*D14
340
0
  0
BLOCK_RECORD
  5
1E7
330
1
100
AcDbSymbolTableRecord
100
AcDbBlockTableRecord
  2
*D15
340
0
  0
BLOCK_RECORD
  5
1FF
330
1
100
AcDbSymbolTableRecord
100
AcDbBlockTableRecord
  2
*D16
340
0
  0
BLOCK_RECORD
  5
21B
330
1
100
AcDbSymbolTableRecord
100
AcDbBlockTableRecord
  2
*D17
340
0
  0
BLOCK_RECORD
  5
237
330
1
100
AcDbSymbolTableRecord
100
AcDbBlockTableRecord
  2
*D18
340
0
  0
BLOCK_RECORD
  5
24E
330
1
100
AcDbSymbolTableRecord
100
AcDbBlockTableRecord
  2
*D19
340
0
  0
BLOCK_RECORD
  5
265
330
1
100
AcDbSymbolTableRecord
100
AcDbBlockTableRecord
  2
*D20
340
0
  0
ENDTAB
  0
ENDSEC
  0
SECTION
  2
BLOCKS
  0
BLOCK
  5
20
330
1F
100
AcDbEntity
  8
0
100
AcDbBlockBegin
  2
*Model_Space
 70
     0
 71
     0
 10
0.0
 20
0.0
 30
0.0
  3
*Model_Space
  1

  0
ENDBLK
  5
21
330
1F
100
AcDbEntity
  8
0
100
AcDbBlockEnd
  0
BLOCK
  5
1C
330
1B
100
AcDbEntity
 67
     1
  8
0
100
AcDbBlockBegin
  2
*Paper_Space
 70
     0
 71
     0
 10
0.0
 20
0.0
 30
0.0
  3
*Paper_Space
  1

  0
ENDBLK
  5
1D
330
1B
100
AcDbEntity
 67
     1
  8
0
100
AcDbBlockEnd
  0
BLOCK
  5
24
330
23
100
AcDbEntity
  8
0
100
AcDbBlockBegin
  2
*Paper_Space0
 70
     0
 71
     0
 10
0.0
 20
0.0
 30
0.0
  3
*Paper_Space0
  1

  0
ENDBLK
  5
25
330
23
100
AcDbEntity
  8
0
100
AcDbBlockEnd
  0
BLOCK
  5
3D
330
3C
100
AcDbEntity
  8
0
100
AcDbBlockBegin
  2
SW_NOTE_0
 70
     0
 71
     0
 10
0.0
 20
0.0
 30
0.0
  3
SW_NOTE_0
  1

  0
MTEXT
  5
40
330
3C
100
AcDbEntity
  8
Z_OM_NOTE
100
AcDbMText
 10
0.0
 20
1.5005855294
 30
0.0
 40
1.1
 41
0.0
 71
     1
 72
     1
  1
SOURCE LENS
  7
SLDTEXTSTYLE0
 73
     1
 44
1.0
  0
MTEXT
  5
41
330
3C
100
AcDbEntity
  8
Z_OM_NOTE
100
AcDbMText
 10
3.2969443128
 20
-0.3254145213
 30
0.0
 40
1.1
 41
0.0
 71
     1
 72
     1
  1
LENS (O4)
  7
SLDTEXTSTYLE0
 73
     1
 44
1.0
  0
ENDBLK
  5
3E
330
3C
100
AcDbEntity
  8
0
100
AcDbBlockEnd
  0
BLOCK
  5
43
330
42
100
AcDbEntity
  8
0
100
AcDbBlockBegin
  2
SW_NOTE_1
 70
     0
 71
     0
 10
0.0
 20
0.0
 30
0.0
  3
SW_NOTE_1
  1

  0
MTEXT
  5
45
330
42
100
AcDbEntity
  8
Z_OM_NOTE
100
AcDbMText
 10
0.0
 20
1.5005855294
 30
0.0
 40
1.1
 41
0.0
 71
     1
 72
     1
  1
RECEIVE LENS
  7
SLDTEXTSTYLE0
 73
     1
 44
1.0
  0
MTEXT
  5
46
330
42
100
AcDbEntity
  8
Z_OM_NOTE
100
AcDbMText
 10
4.531388171
 20
-0.3254145213
 30
0.0
 40
1.1
 41
0.0
 71
     1
 72
     1
  1
LENS (O4)
  7
SLDTEXTSTYLE0
 73
     1
 44
1.0
  0
ENDBLK
  5
44
330
42
100
AcDbEntity
  8
0
100
AcDbBlockEnd
  0
BLOCK
  5
48
330
47
100
AcDbEntity
  8
0
100
AcDbBlockBegin
  2
SW_NOTE_2
 70
     0
 71
     0
 10
0.0
 20
0.0
 30
0.0
  3
SW_NOTE_2
  1

  0
MTEXT
  5
4B
330
47
100
AcDbEntity
  8
Z_OM_NOTE
100
AcDbMText
 10
0.0
 20
1.5005855294
 30
0.0
 40
1.1
 41
0.0
 71
     1
 72
     1
  1
VINYL INSULATED ROUND CORD
  7
SLDTEXTSTYLE1
 73
     1
 44
1.0
  0
MTEXT
  5
4D
330
47
100
AcDbEntity
  8
Z_OM_NOTE
100
AcDbMText
 10
7.6205600053
 20
-0.3254145213
 30
0.0
 40
1.1
 41
0.0
 71
     1
 72
     1
  1
O2.4(7/O0.127) 3 CORES
  7
SLDTEXTSTYLE2
 73
     1
 44
1.0
  0
MTEXT
  5
4F
330
47
100
AcDbEntity
  8
Z_OM_NOTE
100
AcDbMText
 10
9.4737559557
 20
-2.1514145719
 30
0.0
 40
1.1
 41
0.0
 71
     1
 72
     1
  1
STANDARD LENGTH 2m
  7
SLDTEXTSTYLE3
 73
     1
 44
1.0
  0
ENDBLK
  5
49
330
47
100
AcDbEntity
  8
0
100
AcDbBlockEnd
  0
BLOCK
  5
F2
330
E6
100
AcDbEntity
  8
0
100
AcDbBlockBegin
  2
*D4
 70
     1
 71
     0
 10
0.0
 20
0.0
 30
0.0
  3
*D4
  1

  0
ARC
  5
F8
330
E6
100
AcDbEntity
  8
Z_OM_DIM
100
AcDbCircle
 10
108.7064279683
 20
152.875
 30
0.0
 40
0.0937500000000284
100
AcDbArc
 50
90.0
 51
270.0
  0
ARC
  5
F9
330
E6
100
AcDbEntity
  8
Z_OM_DIM
100
AcDbCircle
 10
108.7064279683
 20
152.875
 30
0.0
 40
0.0937500000000284
100
AcDbArc
 50
270.0
 51
90.0
  0
LINE
  5
FA
330
E6
100
AcDbEntity
  8
Z_OM_DIM
100
AcDbLine
 10
100.8582885661
 20
152.875
 30
0.0
 11
109.4064279683
 21
152.875
 31
0.0
  0
LINE
  5
FB
330
E6
100
AcDbEntity
  8
Z_OM_DIM
100
AcDbLine
 10
98.5944631974
 20
150.375
 30
0.0
 11
109.4064279683
 21
150.375
 31
0.0
  0
LINE
  5
FC
330
E6
100
AcDbEntity
  8
Z_OM_DIM
100
AcDbLine
 10
108.7064279683
 20
152.875
 30
0.0
 11
108.7064279683
 21
154.375
 31
0.0
  0
LINE
  5
FD
330
E6
100
AcDbEntity
  8
Z_OM_DIM
100
AcDbLine
 10
108.7064279683
 20
148.875
 30
0.0
 11
108.7064279683
 21
144.199
 31
0.0
  0
LINE
  5
FE
330
E6
100
AcDbEntity
  8
Z_OM_DIM
100
AcDbLine
 10
108.7064279683
 20
152.875
 30
0.0
 11
108.7064279683
 21
150.375
 31
0.0
  0
LINE
  5
FF
330
E6
100
AcDbEntity
  8
Z_OM_DIM
100
AcDbLine
 10
108.3045041833
 20
148.875
 30
0.0
 11
108.7064279683
 21
150.375
 31
0.0
  0
LINE
  5
100
330
E6
100
AcDbEntity
  8
Z_OM_DIM
100
AcDbLine
 10
108.7064279683
 20
150.375
 30
0.0
 11
109.1083517533
 21
148.875
 31
0.0
  0
LINE
  5
101
330
E6
100
AcDbEntity
  8
Z_OM_DIM
100
AcDbLine
 10
108.7064279683
 20
150.375
 30
0.0
 11
108.7064279683
 21
148.875
 31
0.0
  0
MTEXT
  5
103
330
E6
100
AcDbEntity
  8
Z_OM_DIM
100
AcDbMText
 10
107.006212141
 20
144.345161068
 30
0.2
 40
1.1
 41
0.0
 71
     1
 72
     1
  1
2.5
  7
SLDTEXTSTYLE4
 11
6.123031769111886E-17
 21
1.0
 31
0.0
 73
     1
 44
1.0
  0
ENDBLK
  5
F3
330
E6
100
AcDbEntity
  8
0
100
AcDbBlockEnd
  0
BLOCK
  5
F6
330
F5
100
AcDbEntity
  8
0
100
AcDbBlockBegin
  2
_None
 70
     0
 71
     0
 10
0.0
 20
0.0
 30
0.0
  3
_None
  1

  0
ENDBLK
  5
F7
330
F5
100
AcDbEntity
  8
0
100
AcDbBlockEnd
  0
BLOCK
  5
111
330
105
100
AcDbEntity
  8
0
100
AcDbBlockBegin
  2
*D6
 70
     1
 71
     0
 10
0.0
 20
0.0
 30
0.0
  3
*D6
  1

  0
ARC
  5
113
330
105
100
AcDbEntity
  8
Z_OM_DIM
100
AcDbCircle
 10
108.7064279683
 20
152.875
 30
0.0
 40
0.0937500000000284
100
AcDbArc
 50
270.0
 51
90.0
  0
ARC
  5
114
330
105
100
AcDbEntity
  8
Z_OM_DIM
100
AcDbCircle
 10
108.7064279683
 20
152.875
 30
0.0
 40
0.0937500000000284
100
AcDbArc
 50
90.0
 51
270.0
  0
LINE
  5
115
330
105
100
AcDbEntity
  8
Z_OM_DIM
100
AcDbLine
 10
98.5944631974
 20
155.375
 30
0.0
 11
109.4064279683
 21
155.375
 31
0.0
  0
LINE
  5
116
330
105
100
AcDbEntity
  8
Z_OM_DIM
100
AcDbLine
 10
100.8582885661
 20
152.875
 30
0.0
 11
109.4064279683
 21
152.875
 31
0.0
  0
LINE
  5
117
330
105
100
AcDbEntity
  8
Z_OM_DIM
100
AcDbLine
 10
108.7064279683
 20
152.875
 30
0.0
 11
108.7064279683
 21
149.875
 31
0.0
  0
LINE
  5
118
330
105
100
AcDbEntity
  8
Z_OM_DIM
100
AcDbLine
 10
108.7064279683
 20
156.875
 30
0.0
 11
108.7064279683
 21
161.551
 31
0.0
  0
LINE
  5
119
330
105
100
AcDbEntity
  8
Z_OM_DIM
100
AcDbLine
 10
108.7064279683
 20
152.875
 30
0.0
 11
108.7064279683
 21
155.375
 31
0.0
  0
LINE
  5
11A
330
105
100
AcDbEntity
  8
Z_OM_DIM
100
AcDbLine
 10
109.1083517533
 20
156.875
 30
0.0
 11
108.7064279683
 21
155.375
 31
0.0
  0
LINE
  5
11B
330
105
100
AcDbEntity
  8
Z_OM_DIM
100
AcDbLine
 10
108.7064279683
 20
155.375
 30
0.0
 11
108.3045041833
 21
156.875
 31
0.0
  0
LINE
  5
11C
330
105
100
AcDbEntity
  8
Z_OM_DIM
100
AcDbLine
 10
108.7064279683
 20
155.375
 30
0.0
 11
108.7064279683
 21
156.875
 31
0.0
  0
MTEXT
  5
11D
330
105
100
AcDbEntity
  8
Z_OM_DIM
100
AcDbMText
 10
107.006212141
 20
158.521161068
 30
0.2
 40
1.1
 41
0.0
 71
     1
 72
     1
  1
2.5
  7
SLDTEXTSTYLE4
 11
6.123031769111886E-17
 21
1.0
 31
0.0
 73
     1
 44
1.0
  0
ENDBLK
  5
112
330
105
100
AcDbEntity
  8
0
100
AcDbBlockEnd
  0
BLOCK
  5
12A
330
11F
100
AcDbEntity
  8
0
100
AcDbBlockBegin
  2
*D7
 70
     1
 71
     0
 10
0.0
 20
0.0
 30
0.0
  3
*D7
  1

  0
LINE
  5
12C
330
11F
100
AcDbEntity
  8
Z_OM_DIM
100
AcDbLine
 10
92.075
 20
141.0750000001
 30
0.0
 11
92.075
 21
123.2268668705
 31
0.0
  0
LINE
  5
12D
330
11F
100
AcDbEntity
  8
Z_OM_DIM
100
AcDbLine
 10
98.675
 20
141.0750000001
 30
0.0
 11
98.675
 21
123.2268668705
 31
0.0
  0
LINE
  5
12E
330
11F
100
AcDbEntity
  8
Z_OM_DIM
100
AcDbLine
 10
93.575
 20
123.9268668705
 30
0.0
 11
97.175
 21
123.9268668705
 31
0.0
  0
LINE
  5
12F
330
11F
100
AcDbEntity
  8
Z_OM_DIM
100
AcDbLine
 10
93.575
 20
123.5249430855
 30
0.0
 11
92.075
 21
123.9268668705
 31
0.0
  0
LINE
  5
130
330
11F
100
AcDbEntity
  8
Z_OM_DIM
100
AcDbLine
 10
92.075
 20
123.9268668705
 30
0.0
 11
93.575
 21
124.3287906555
 31
0.0
  0
LINE
  5
131
330
11F
100
AcDbEntity
  8
Z_OM_DIM
100
AcDbLine
 10
92.075
 20
123.9268668705
 30
0.0
 11
93.575
 21
123.9268668705
 31
0.0
  0
LINE
  5
132
330
11F
100
AcDbEntity
  8
Z_OM_DIM
100
AcDbLine
 10
97.175
 20
124.3287906555
 30
0.0
 11
98.675
 21
123.9268668705
 31
0.0
  0
LINE
  5
133
330
11F
100
AcDbEntity
  8
Z_OM_DIM
100
AcDbLine
 10
98.675
 20
123.9268668705
 30
0.0
 11
97.175
 21
123.5249430855
 31
0.0
  0
LINE
  5
134
330
11F
100
AcDbEntity
  8
Z_OM_DIM
100
AcDbLine
 10
98.675
 20
123.9268668705
 30
0.0
 11
97.175
 21
123.9268668705
 31
0.0
  0
MTEXT
  5
135
330
11F
100
AcDbEntity
  8
Z_OM_DIM
100
AcDbMText
 10
94.0812490092
 20
125.6270826978
 30
0.2
 40
1.1
 41
0.0
 71
     1
 72
     1
  1
6.6
  7
SLDTEXTSTYLE4
 73
     1
 44
1.0
  0
ENDBLK
  5
12B
330
11F
100
AcDbEntity
  8
0
100
AcDbBlockEnd
  0
BLOCK
  5
142
330
137
100
AcDbEntity
  8
0
100
AcDbBlockBegin
  2
*D8
 70
     1
 71
     0
 10
0.0
 20
0.0
 30
0.0
  3
*D8
  1

  0
LINE
  5
145
330
137
100
AcDbEntity
  8
Z_OM_DIM
100
AcDbLine
 10
91.875
 20
163.675
 30
0.0
 11
91.875
 21
173.1232548117
 31
0.0
  0
LINE
  5
146
330
137
100
AcDbEntity
  8
Z_OM_DIM
100
AcDbLine
 10
98.875
 20
163.675
 30
0.0
 11
98.875
 21
173.1232548117
 31
0.0
  0
LINE
  5
147
330
137
100
AcDbEntity
  8
Z_OM_DIM
100
AcDbLine
 10
93.375
 20
172.4232548117
 30
0.0
 11
97.375
 21
172.4232548117
 31
0.0
  0
LINE
  5
148
330
137
100
AcDbEntity
  8
Z_OM_DIM
100
AcDbLine
 10
93.375
 20
172.0213310267
 30
0.0
 11
91.875
 21
172.4232548117
 31
0.0
  0
LINE
  5
149
330
137
100
AcDbEntity
  8
Z_OM_DIM
100
AcDbLine
 10
91.875
 20
172.4232548117
 30
0.0
 11
93.375
 21
172.8251785967
 31
0.0
  0
LINE
  5
14A
330
137
100
AcDbEntity
  8
Z_OM_DIM
100
AcDbLine
 10
91.875
 20
172.4232548117
 30
0.0
 11
93.375
 21
172.4232548117
 31
0.0
  0
LINE
  5
14B
330
137
100
AcDbEntity
  8
Z_OM_DIM
100
AcDbLine
 10
97.375
 20
172.8251785967
 30
0.0
 11
98.875
 21
172.4232548117
 31
0.0
  0
LINE
  5
14C
330
137
100
AcDbEntity
  8
Z_OM_DIM
100
AcDbLine
 10
98.875
 20
172.4232548117
 30
0.0
 11
97.375
 21
172.0213310267
 31
0.0
  0
LINE
  5
14D
330
137
100
AcDbEntity
  8
Z_OM_DIM
100
AcDbLine
 10
98.875
 20
172.4232548117
 30
0.0
 11
97.375
 21
172.4232548117
 31
0.0
  0
MTEXT
  5
14E
330
137
100
AcDbEntity
  8
Z_OM_DIM
100
AcDbMText
 10
94.7573500346
 20
174.123470639
 30
0.2
 40
1.1
 41
0.0
 71
     1
 72
     1
  1
7
  7
SLDTEXTSTYLE4
 73
     1
 44
1.0
  0
ENDBLK
  5
143
330
137
100
AcDbEntity
  8
0
100
AcDbBlockEnd
  0
BLOCK
  5
15D
330
150
100
AcDbEntity
  8
0
100
AcDbBlockBegin
  2
*D9
 70
     1
 71
     0
 10
0.0
 20
0.0
 30
0.0
  3
*D9
  1

  0
LINE
  5
15F
330
150
100
AcDbEntity
  8
Z_OM_DIM
100
AcDbLine
 10
94.225
 20
161.3883851735
 30
0.0
 11
94.225
 21
169.7112375474
 31
0.0
  0
LINE
  5
160
330
150
100
AcDbEntity
  8
Z_OM_DIM
100
AcDbLine
 10
96.525
 20
161.3883851735
 30
0.0
 11
96.525
 21
169.7112375474
 31
0.0
  0
LINE
  5
161
330
150
100
AcDbEntity
  8
Z_OM_DIM
100
AcDbLine
 10
98.025
 20
169.0112375474
 30
0.0
 11
99.525
 21
169.0112375474
 31
0.0
  0
LINE
  5
162
330
150
100
AcDbEntity
  8
Z_OM_DIM
100
AcDbLine
 10
92.725
 20
169.0112375474
 30
0.0
 11
87.911847614
 21
169.0112375474
 31
0.0
  0
LINE
  5
163
330
150
100
AcDbEntity
  8
Z_OM_DIM
100
AcDbLine
 10
96.525
 20
169.0112375474
 30
0.0
 11
94.225
 21
169.0112375474
 31
0.0
  0
LINE
  5
164
330
150
100
AcDbEntity
  8
Z_OM_DIM
100
AcDbLine
 10
98.025
 20
168.6093137624
 30
0.0
 11
96.525
 21
169.0112375474
 31
0.0
  0
LINE
  5
165
330
150
100
AcDbEntity
  8
Z_OM_DIM
100
AcDbLine
 10
96.525
 20
169.0112375474
 30
0.0
 11
98.025
 21
169.4131613324
 31
0.0
  0
LINE
  5
166
330
150
100
AcDbEntity
  8
Z_OM_DIM
100
AcDbLine
 10
96.525
 20
169.0112375474
 30
0.0
 11
98.025
 21
169.0112375474
 31
0.0
  0
LINE
  5
167
330
150
100
AcDbEntity
  8
Z_OM_DIM
100
AcDbLine
 10
92.725
 20
169.4131613324
 30
0.0
 11
94.225
 21
169.0112375474
 31
0.0
  0
LINE
  5
168
330
150
100
AcDbEntity
  8
Z_OM_DIM
100
AcDbLine
 10
94.225
 20
169.0112375474
 30
0.0
 11
92.725
 21
168.6093137624
 31
0.0
  0
LINE
  5
169
330
150
100
AcDbEntity
  8
Z_OM_DIM
100
AcDbLine
 10
94.225
 20
169.0112375474
 30
0.0
 11
92.725
 21
169.0112375474
 31
0.0
  0
MTEXT
  5
16A
330
150
100
AcDbEntity
  8
Z_OM_DIM
100
AcDbMText
 10
88.058008682
 20
170.7114533747
 30
0.2
 40
1.1
 41
0.0
 71
     1
 72
     1
  1
2.3
  7
SLDTEXTSTYLE4
 73
     1
 44
1.0
  0
ENDBLK
  5
15E
330
150
100
AcDbEntity
  8
0
100
AcDbBlockEnd
  0
BLOCK
  5
178
330
16C
100
AcDbEntity
  8
0
100
AcDbBlockBegin
  2
*D10
 70
     1
 71
     0
 10
0.0
 20
0.0
 30
0.0
  3
*D10
  1

  0
LINE
  5
17A
330
16C
100
AcDbEntity
  8
Z_OM_DIM
100
AcDbLine
 10
99.375
 20
163.175
 30
0.0
 11
105.1995292676
 21
163.175
 31
0.0
  0
LINE
  5
17B
330
16C
100
AcDbEntity
  8
Z_OM_DIM
100
AcDbLine
 10
98.3247048628
 20
160.275
 30
0.0
 11
105.1995292676
 21
160.275
 31
0.0
  0
LINE
  5
17C
330
16C
100
AcDbEntity
  8
Z_OM_DIM
100
AcDbLine
 10
104.4995292676
 20
158.775
 30
0.0
 11
104.4995292676
 21
157.275
 31
0.0
  0
LINE
  5
17D
330
16C
100
AcDbEntity
  8
Z_OM_DIM
100
AcDbLine
 10
104.4995292676
 20
164.675
 30
0.0
 11
104.4995292676
 21
169.351
 31
0.0
  0
LINE
  5
17E
330
16C
100
AcDbEntity
  8
Z_OM_DIM
100
AcDbLine
 10
104.4995292676
 20
160.275
 30
0.0
 11
104.4995292676
 21
163.175
 31
0.0
  0
LINE
  5
17F
330
16C
100
AcDbEntity
  8
Z_OM_DIM
100
AcDbLine
 10
104.0976054826
 20
158.775
 30
0.0
 11
104.4995292676
 21
160.275
 31
0.0
  0
LINE
  5
180
330
16C
100
AcDbEntity
  8
Z_OM_DIM
100
AcDbLine
 10
104.4995292676
 20
160.275
 30
0.0
 11
104.9014530526
 21
158.775
 31
0.0
  0
LINE
  5
181
330
16C
100
AcDbEntity
  8
Z_OM_DIM
100
AcDbLine
 10
104.4995292676
 20
160.275
 30
0.0
 11
104.4995292676
 21
158.775
 31
0.0
  0
LINE
  5
182
330
16C
100
AcDbEntity
  8
Z_OM_DIM
100
AcDbLine
 10
104.9014530526
 20
164.675
 30
0.0
 11
104.4995292676
 21
163.175
 31
0.0
  0
LINE
  5
183
330
16C
100
AcDbEntity
  8
Z_OM_DIM
100
AcDbLine
 10
104.4995292676
 20
163.175
 30
0.0
 11
104.0976054826
 21
164.675
 31
0.0
  0
LINE
  5
184
330
16C
100
AcDbEntity
  8
Z_OM_DIM
100
AcDbLine
 10
104.4995292676
 20
163.175
 30
0.0
 11
104.4995292676
 21
164.675
 31
0.0
  0
MTEXT
  5
185
330
16C
100
AcDbEntity
  8
Z_OM_DIM
100
AcDbMText
 10
102.7993134403
 20
166.321161068
 30
0.2
 40
1.1
 41
0.0
 71
     1
 72
     1
  1
2.9
  7
SLDTEXTSTYLE4
 11
6.123031769111886E-17
 21
1.0
 31
0.0
 73
     1
 44
1.0
  0
ENDBLK
  5
179
330
16C
100
AcDbEntity
  8
0
100
AcDbBlockEnd
  0
BLOCK
  5
192
330
187
100
AcDbEntity
  8
0
100
AcDbBlockBegin
  2
*D11
 70
     1
 71
     0
 10
0.0
 20
0.0
 30
0.0
  3
*D11
  1

  0
LINE
  5
194
330
187
100
AcDbEntity
  8
Z_OM_DIM
100
AcDbLine
 10
99.375
 20
192.8253218564
 30
0.0
 11
104.8331659856
 21
192.8253218564
 31
0.0
  0
LINE
  5
195
330
187
100
AcDbEntity
  8
Z_OM_DIM
100
AcDbLine
 10
99.375
 20
181.8253218564
 30
0.0
 11
104.8331659856
 21
181.8253218564
 31
0.0
  0
LINE
  5
196
330
187
100
AcDbEntity
  8
Z_OM_DIM
100
AcDbLine
 10
104.1331659856
 20
191.3253218564
 30
0.0
 11
104.1331659856
 21
183.3253218564
 31
0.0
  0
LINE
  5
197
330
187
100
AcDbEntity
  8
Z_OM_DIM
100
AcDbLine
 10
103.7312422006
 20
191.3253218564
 30
0.0
 11
104.1331659856
 21
192.8253218564
 31
0.0
  0
LINE
  5
198
330
187
100
AcDbEntity
  8
Z_OM_DIM
100
AcDbLine
 10
104.1331659856
 20
192.8253218564
 30
0.0
 11
104.5350897706
 21
191.3253218564
 31
0.0
  0
LINE
  5
199
330
187
100
AcDbEntity
  8
Z_OM_DIM
100
AcDbLine
 10
104.1331659856
 20
192.8253218564
 30
0.0
 11
104.1331659856
 21
191.3253218564
 31
0.0
  0
LINE
  5
19A
330
187
100
AcDbEntity
  8
Z_OM_DIM
100
AcDbLine
 10
104.5350897706
 20
183.3253218564
 30
0.0
 11
104.1331659856
 21
181.8253218564
 31
0.0
  0
LINE
  5
19B
330
187
100
AcDbEntity
  8
Z_OM_DIM
100
AcDbLine
 10
104.1331659856
 20
181.8253218564
 30
0.0
 11
103.7312422006
 21
183.3253218564
 31
0.0
  0
LINE
  5
19C
330
187
100
AcDbEntity
  8
Z_OM_DIM
100
AcDbLine
 10
104.1331659856
 20
181.8253218564
 30
0.0
 11
104.1331659856
 21
183.3253218564
 31
0.0
  0
MTEXT
  5
19D
330
187
100
AcDbEntity
  8
Z_OM_DIM
100
AcDbMText
 10
102.4329501582
 20
186.5592718029
 30
0.2
 40
1.1
 41
0.0
 71
     1
 72
     1
  1
11
  7
SLDTEXTSTYLE4
 11
6.123031769111886E-17
 21
1.0
 31
0.0
 73
     1
 44
1.0
  0
ENDBLK
  5
193
330
187
100
AcDbEntity
  8
0
100
AcDbBlockEnd
  0
BLOCK
  5
1AA
330
19F
100
AcDbEntity
  8
0
100
AcDbBlockBegin
  2
*D12
 70
     1
 71
     0
 10
0.0
 20
0.0
 30
0.0
  3
*D12
  1

  0
LINE
  5
1AC
330
19F
100
AcDbEntity
  8
Z_OM_DIM
100
AcDbLine
 10
130.6840893605
 20
144.375
 30
0.0
 11
137.8174569671
 21
144.375
 31
0.0
  0
LINE
  5
1AD
330
19F
100
AcDbEntity
  8
Z_OM_DIM
100
AcDbLine
 10
130.6840893605
 20
159.375
 30
0.0
 11
137.8174569671
 21
159.375
 31
0.0
  0
LINE
  5
1AE
330
19F
100
AcDbEntity
  8
Z_OM_DIM
100
AcDbLine
 10
137.1174569671
 20
145.875
 30
0.0
 11
137.1174569671
 21
157.875
 31
0.0
  0
LINE
  5
1AF
330
19F
100
AcDbEntity
  8
Z_OM_DIM
100
AcDbLine
 10
137.5193807521
 20
145.875
 30
0.0
 11
137.1174569671
 21
144.375
 31
0.0
  0
LINE
  5
1B0
330
19F
100
AcDbEntity
  8
Z_OM_DIM
100
AcDbLine
 10
137.1174569671
 20
144.375
 30
0.0
 11
136.7155331821
 21
145.875
 31
0.0
  0
LINE
  5
1B1
330
19F
100
AcDbEntity
  8
Z_OM_DIM
100
AcDbLine
 10
137.1174569671
 20
144.375
 30
0.0
 11
137.1174569671
 21
145.875
 31
0.0
  0
LINE
  5
1B2
330
19F
100
AcDbEntity
  8
Z_OM_DIM
100
AcDbLine
 10
136.7155331821
 20
157.875
 30
0.0
 11
137.1174569671
 21
159.375
 31
0.0
  0
LINE
  5
1B3
330
19F
100
AcDbEntity
  8
Z_OM_DIM
100
AcDbLine
 10
137.1174569671
 20
159.375
 30
0.0
 11
137.5193807521
 21
157.875
 31
0.0
  0
LINE
  5
1B4
330
19F
100
AcDbEntity
  8
Z_OM_DIM
100
AcDbLine
 10
137.1174569671
 20
159.375
 30
0.0
 11
137.1174569671
 21
157.875
 31
0.0
  0
MTEXT
  5
1B5
330
19F
100
AcDbEntity
  8
Z_OM_DIM
100
AcDbMText
 10
135.4172411398
 20
150.8462390704
 30
0.2
 40
1.1
 41
0.0
 71
     1
 72
     1
  1
15
  7
SLDTEXTSTYLE4
 11
6.123031769111886E-17
 21
1.0
 31
0.0
 73
     1
 44
1.0
  0
ENDBLK
  5
1AB
330
19F
100
AcDbEntity
  8
0
100
AcDbBlockEnd
  0
BLOCK
  5
1C2
330
1B7
100
AcDbEntity
  8
0
100
AcDbBlockBegin
  2
*D13
 70
     1
 71
     0
 10
0.0
 20
0.0
 30
0.0
  3
*D13
  1

  0
LINE
  5
1C4
330
1B7
100
AcDbEntity
  8
Z_OM_DIM
100
AcDbLine
 10
126.3913264042
 20
163.175
 30
0.0
 11
145.7978515226
 21
163.175
 31
0.0
  0
LINE
  5
1C5
330
1B7
100
AcDbEntity
  8
Z_OM_DIM
100
AcDbLine
 10
127.3984345044
 20
138.675
 30
0.0
 11
145.7978515226
 21
138.675
 31
0.0
  0
LINE
  5
1C6
330
1B7
100
AcDbEntity
  8
Z_OM_DIM
100
AcDbLine
 10
145.0978515226
 20
161.675
 30
0.0
 11
145.0978515226
 21
140.175
 31
0.0
  0
LINE
  5
1C7
330
1B7
100
AcDbEntity
  8
Z_OM_DIM
100
AcDbLine
 10
144.6959277376
 20
161.675
 30
0.0
 11
145.0978515226
 21
163.175
 31
0.0
  0
LINE
  5
1C8
330
1B7
100
AcDbEntity
  8
Z_OM_DIM
100
AcDbLine
 10
145.0978515226
 20
163.175
 30
0.0
 11
145.4997753076
 21
161.675
 31
0.0
  0
LINE
  5
1C9
330
1B7
100
AcDbEntity
  8
Z_OM_DIM
100
AcDbLine
 10
145.0978515226
 20
163.175
 30
0.0
 11
145.0978515226
 21
161.675
 31
0.0
  0
LINE
  5
1CA
330
1B7
100
AcDbEntity
  8
Z_OM_DIM
100
AcDbLine
 10
145.4997753076
 20
140.175
 30
0.0
 11
145.0978515226
 21
138.675
 31
0.0
  0
LINE
  5
1CB
330
1B7
100
AcDbEntity
  8
Z_OM_DIM
100
AcDbLine
 10
145.0978515226
 20
138.675
 30
0.0
 11
144.6959277376
 21
140.175
 31
0.0
  0
LINE
  5
1CC
330
1B7
100
AcDbEntity
  8
Z_OM_DIM
100
AcDbLine
 10
145.0978515226
 20
138.675
 30
0.0
 11
145.0978515226
 21
140.175
 31
0.0
  0
MTEXT
  5
1CD
330
1B7
100
AcDbEntity
  8
Z_OM_DIM
100
AcDbMText
 10
143.3976356952
 20
149.334995768
 30
0.2
 40
1.1
 41
0.0
 71
     1
 72
     1
  1
24.5
  7
SLDTEXTSTYLE4
 11
6.123031769111886E-17
 21
1.0
 31
0.0
 73
     1
 44
1.0
  0
ENDBLK
  5
1C3
330
1B7
100
AcDbEntity
  8
0
100
AcDbBlockEnd
  0
BLOCK
  5
1DA
330
1CF
100
AcDbEntity
  8
0
100
AcDbBlockBegin
  2
*D14
 70
     1
 71
     0
 10
0.0
 20
0.0
 30
0.0
  3
*D14
  1

  0
LINE
  5
1DC
330
1CF
100
AcDbEntity
  8
Z_OM_DIM
100
AcDbLine
 10
126.3913264042
 20
163.175
 30
0.0
 11
141.5591349526
 21
163.175
 31
0.0
  0
LINE
  5
1DD
330
1CF
100
AcDbEntity
  8
Z_OM_DIM
100
AcDbLine
 10
127.8984345044
 20
142.575
 30
0.0
 11
141.5591349526
 21
142.575
 31
0.0
  0
LINE
  5
1DE
330
1CF
100
AcDbEntity
  8
Z_OM_DIM
100
AcDbLine
 10
140.8591349526
 20
161.675
 30
0.0
 11
140.8591349526
 21
144.075
 31
0.0
  0
LINE
  5
1DF
330
1CF
100
AcDbEntity
  8
Z_OM_DIM
100
AcDbLine
 10
140.4572111676
 20
161.675
 30
0.0
 11
140.8591349526
 21
163.175
 31
0.0
  0
LINE
  5
1E0
330
1CF
100
AcDbEntity
  8
Z_OM_DIM
100
AcDbLine
 10
140.8591349526
 20
163.175
 30
0.0
 11
141.2610587376
 21
161.675
 31
0.0
  0
LINE
  5
1E1
330
1CF
100
AcDbEntity
  8
Z_OM_DIM
100
AcDbLine
 10
140.8591349526
 20
163.175
 30
0.0
 11
140.8591349526
 21
161.675
 31
0.0
  0
LINE
  5
1E2
330
1CF
100
AcDbEntity
  8
Z_OM_DIM
100
AcDbLine
 10
141.2610587376
 20
144.075
 30
0.0
 11
140.8591349526
 21
142.575
 31
0.0
  0
LINE
  5
1E3
330
1CF
100
AcDbEntity
  8
Z_OM_DIM
100
AcDbLine
 10
140.8591349526
 20
142.575
 30
0.0
 11
140.4572111676
 21
144.075
 31
0.0
  0
LINE
  5
1E4
330
1CF
100
AcDbEntity
  8
Z_OM_DIM
100
AcDbLine
 10
140.8591349526
 20
142.575
 30
0.0
 11
140.8591349526
 21
144.075
 31
0.0
  0
MTEXT
  5
1E5
330
1CF
100
AcDbEntity
  8
Z_OM_DIM
100
AcDbMText
 10
139.1589191253
 20
150.8664622146
 30
0.2
 40
1.1
 41
0.0
 71
     1
 72
     1
  1
20.6
  7
SLDTEXTSTYLE4
 11
6.123031769111886E-17
 21
1.0
 31
0.0
 73
     1
 44
1.0
  0
ENDBLK
  5
1DB
330
1CF
100
AcDbEntity
  8
0
100
AcDbBlockEnd
  0
BLOCK
  5
1F2
330
1E7
100
AcDbEntity
  8
0
100
AcDbBlockBegin
  2
*D15
 70
     1
 71
     0
 10
0.0
 20
0.0
 30
0.0
  3
*D15
  1

  0
LINE
  5
1F4
330
1E7
100
AcDbEntity
  8
Z_OM_DIM
100
AcDbLine
 10
130.6840893605
 20
159.375
 30
0.0
 11
133.8613265605
 21
159.375
 31
0.0
  0
LINE
  5
1F5
330
1E7
100
AcDbEntity
  8
Z_OM_DIM
100
AcDbLine
 10
129.4507166053
 20
152.875
 30
0.0
 11
133.8613265605
 21
152.875
 31
0.0
  0
LINE
  5
1F6
330
1E7
100
AcDbEntity
  8
Z_OM_DIM
100
AcDbLine
 10
133.1613265605
 20
157.875
 30
0.0
 11
133.1613265605
 21
154.375
 31
0.0
  0
LINE
  5
1F7
330
1E7
100
AcDbEntity
  8
Z_OM_DIM
100
AcDbLine
 10
132.7594027755
 20
157.875
 30
0.0
 11
133.1613265605
 21
159.375
 31
0.0
  0
LINE
  5
1F8
330
1E7
100
AcDbEntity
  8
Z_OM_DIM
100
AcDbLine
 10
133.1613265605
 20
159.375
 30
0.0
 11
133.5632503455
 21
157.875
 31
0.0
  0
LINE
  5
1F9
330
1E7
100
AcDbEntity
  8
Z_OM_DIM
100
AcDbLine
 10
133.1613265605
 20
159.375
 30
0.0
 11
133.1613265605
 21
157.875
 31
0.0
  0
LINE
  5
1FA
330
1E7
100
AcDbEntity
  8
Z_OM_DIM
100
AcDbLine
 10
133.5632503455
 20
154.375
 30
0.0
 11
133.1613265605
 21
152.875
 31
0.0
  0
LINE
  5
1FB
330
1E7
100
AcDbEntity
  8
Z_OM_DIM
100
AcDbLine
 10
133.1613265605
 20
152.875
 30
0.0
 11
132.7594027755
 21
154.375
 31
0.0
  0
LINE
  5
1FC
330
1E7
100
AcDbEntity
  8
Z_OM_DIM
100
AcDbLine
 10
133.1613265605
 20
152.875
 30
0.0
 11
133.1613265605
 21
154.375
 31
0.0
  0
MTEXT
  5
1FD
330
1E7
100
AcDbEntity
  8
Z_OM_DIM
100
AcDbMText
 10
131.4611107332
 20
154.683161068
 30
0.2
 40
1.1
 41
0.0
 71
     1
 72
     1
  1
6.5
  7
SLDTEXTSTYLE4
 11
6.123031769111886E-17
 21
1.0
 31
0.0
 73
     1
 44
1.0
  0
ENDBLK
  5
1F3
330
1E7
100
AcDbEntity
  8
0
100
AcDbBlockEnd
  0
BLOCK
  5
20C
330
1FF
100
AcDbEntity
  8
0
100
AcDbBlockBegin
  2
*D16
 70
     1
 71
     0
 10
0.0
 20
0.0
 30
0.0
  3
*D16
  1

  0
LINE
  5
20E
330
1FF
100
AcDbEntity
  8
Z_OM_DIM
100
AcDbLine
 10
121.8984345044
 20
141.0750000001
 30
0.0
 11
121.8984345044
 21
123.5106658169
 31
0.0
  0
LINE
  5
20F
330
1FF
100
AcDbEntity
  8
Z_OM_DIM
100
AcDbLine
 10
127.0984345044
 20
141.0750000001
 30
0.0
 11
127.0984345044
 21
123.5106658169
 31
0.0
  0
LINE
  5
210
330
1FF
100
AcDbEntity
  8
Z_OM_DIM
100
AcDbLine
 10
128.5984345044
 20
124.2106658169
 30
0.0
 11
130.0984345044
 21
124.2106658169
 31
0.0
  0
LINE
  5
211
330
1FF
100
AcDbEntity
  8
Z_OM_DIM
100
AcDbLine
 10
120.3984345044
 20
124.2106658169
 30
0.0
 11
115.7224345044
 21
124.2106658169
 31
0.0
  0
LINE
  5
212
330
1FF
100
AcDbEntity
  8
Z_OM_DIM
100
AcDbLine
 10
127.0984345044
 20
124.2106658169
 30
0.0
 11
121.8984345044
 21
124.2106658169
 31
0.0
  0
LINE
  5
213
330
1FF
100
AcDbEntity
  8
Z_OM_DIM
100
AcDbLine
 10
128.5984345044
 20
123.8087420319
 30
0.0
 11
127.0984345044
 21
124.2106658169
 31
0.0
  0
LINE
  5
214
330
1FF
100
AcDbEntity
  8
Z_OM_DIM
100
AcDbLine
 10
127.0984345044
 20
124.2106658169
 30
0.0
 11
128.5984345044
 21
124.6125896019
 31
0.0
  0
LINE
  5
215
330
1FF
100
AcDbEntity
  8
Z_OM_DIM
100
AcDbLine
 10
127.0984345044
 20
124.2106658169
 30
0.0
 11
128.5984345044
 21
124.2106658169
 31
0.0
  0
LINE
  5
216
330
1FF
100
AcDbEntity
  8
Z_OM_DIM
100
AcDbLine
 10
120.3984345044
 20
124.6125896019
 30
0.0
 11
121.8984345044
 21
124.2106658169
 31
0.0
  0
LINE
  5
217
330
1FF
100
AcDbEntity
  8
Z_OM_DIM
100
AcDbLine
 10
121.8984345044
 20
124.2106658169
 30
0.0
 11
120.3984345044
 21
123.8087420319
 31
0.0
  0
LINE
  5
218
330
1FF
100
AcDbEntity
  8
Z_OM_DIM
100
AcDbLine
 10
121.8984345044
 20
124.2106658169
 30
0.0
 11
120.3984345044
 21
124.2106658169
 31
0.0
  0
MTEXT
  5
219
330
1FF
100
AcDbEntity
  8
Z_OM_DIM
100
AcDbMText
 10
115.8685955725
 20
125.9108816442
 30
0.2
 40
1.1
 41
0.0
 71
     1
 72
     1
  1
5.2
  7
SLDTEXTSTYLE4
 73
     1
 44
1.0
  0
ENDBLK
  5
20D
330
1FF
100
AcDbEntity
  8
0
100
AcDbBlockEnd
  0
BLOCK
  5
228
330
21B
100
AcDbEntity
  8
0
100
AcDbBlockBegin
  2
*D17
 70
     1
 71
     0
 10
0.0
 20
0.0
 30
0.0
  3
*D17
  1

  0
LINE
  5
22A
330
21B
100
AcDbEntity
  8
Z_OM_DIM
100
AcDbLine
 10
118.1984345044
 20
144.875
 30
0.0
 11
118.1984345044
 21
132.2783794011
 31
0.0
  0
LINE
  5
22B
330
21B
100
AcDbEntity
  8
Z_OM_DIM
100
AcDbLine
 10
124.4984345044
 20
127.3440442539
 30
0.0
 11
124.4984345044
 21
133.6783794011
 31
0.0
  0
LINE
  5
22C
330
21B
100
AcDbEntity
  8
Z_OM_DIM
100
AcDbLine
 10
125.9984345044
 20
132.9783794011
 30
0.0
 11
127.4984345044
 21
132.9783794011
 31
0.0
  0
LINE
  5
22D
330
21B
100
AcDbEntity
  8
Z_OM_DIM
100
AcDbLine
 10
116.6984345044
 20
132.9783794011
 30
0.0
 11
111.6224345044
 21
132.9783794011
 31
0.0
  0
LINE
  5
22E
330
21B
100
AcDbEntity
  8
Z_OM_DIM
100
AcDbLine
 10
124.4984345044
 20
132.9783794011
 30
0.0
 11
118.1984345044
 21
132.9783794011
 31
0.0
  0
LINE
  5
22F
330
21B
100
AcDbEntity
  8
Z_OM_DIM
100
AcDbLine
 10
125.9984345044
 20
132.5764556161
 30
0.0
 11
124.4984345044
 21
132.9783794011
 31
0.0
  0
LINE
  5
230
330
21B
100
AcDbEntity
  8
Z_OM_DIM
100
AcDbLine
 10
124.4984345044
 20
132.9783794011
 30
0.0
 11
125.9984345044
 21
133.3803031861
 31
0.0
  0
LINE
  5
231
330
21B
100
AcDbEntity
  8
Z_OM_DIM
100
AcDbLine
 10
124.4984345044
 20
132.9783794011
 30
0.0
 11
125.9984345044
 21
132.9783794011
 31
0.0
  0
LINE
  5
232
330
21B
100
AcDbEntity
  8
Z_OM_DIM
100
AcDbLine
 10
116.6984345044
 20
133.3803031861
 30
0.0
 11
118.1984345044
 21
132.9783794011
 31
0.0
  0
LINE
  5
233
330
21B
100
AcDbEntity
  8
Z_OM_DIM
100
AcDbLine
 10
118.1984345044
 20
132.9783794011
 30
0.0
 11
116.6984345044
 21
132.5764556161
 31
0.0
  0
LINE
  5
234
330
21B
100
AcDbEntity
  8
Z_OM_DIM
100
AcDbLine
 10
118.1984345044
 20
132.9783794011
 30
0.0
 11
116.6984345044
 21
132.9783794011
 31
0.0
  0
MTEXT
  5
235
330
21B
100
AcDbEntity
  8
Z_OM_DIM
100
AcDbMText
 10
111.7685955725
 20
134.6785952284
 30
0.2
 40
1.1
 41
0.0
 71
     1
 72
     1
  1
6.3
  7
SLDTEXTSTYLE4
 73
     1
 44
1.0
  0
ENDBLK
  5
229
330
21B
100
AcDbEntity
  8
0
100
AcDbBlockEnd
  0
BLOCK
  5
23E
330
237
100
AcDbEntity
  8
0
100
AcDbBlockBegin
  2
*D18
 70
     1
 71
     0
 10
0.0
 20
0.0
 30
0.0
  3
*D18
  1

  0
LINE
  5
241
330
237
100
AcDbEntity
  8
Z_OM_DIM
100
AcDbLine
 10
125.1644048928
 20
147.8128934966
 30
0.0
 11
123.5297490794
 21
150.3284253235
 31
0.0
  0
LINE
  5
242
330
237
100
AcDbEntity
  8
Z_OM_DIM
100
AcDbLine
 10
129.6324641161
 20
140.9371065034
 30
0.0
 11
135.7774795329
 21
131.4806926636
 31
0.0
  0
LINE
  5
243
330
237
100
AcDbEntity
  8
Z_OM_DIM
100
AcDbLine
 10
126.7990607062
 20
145.2973616698
 30
0.0
 11
127.9978083027
 21
143.4526383302
 31
0.0
  0
LINE
  5
244
330
237
100
AcDbEntity
  8
Z_OM_DIM
100
AcDbLine
 10
125.8384396082
 20
148.2508981978
 30
0.0
 11
126.7990607062
 21
145.2973616698
 31
0.0
  0
LINE
  5
245
330
237
100
AcDbEntity
  8
Z_OM_DIM
100
AcDbLine
 10
126.7990607062
 20
145.2973616698
 30
0.0
 11
124.4903701774
 21
147.3748887955
 31
0.0
  0
LINE
  5
246
330
237
100
AcDbEntity
  8
Z_OM_DIM
100
AcDbLine
 10
126.7990607062
 20
145.2973616698
 30
0.0
 11
125.1644048928
 21
147.8128934966
 31
0.0
  0
LINE
  5
247
330
237
100
AcDbEntity
  8
Z_OM_DIM
100
AcDbLine
 10
128.9584294007
 20
140.4991018022
 30
0.0
 11
127.9978083027
 21
143.4526383302
 31
0.0
  0
LINE
  5
248
330
237
100
AcDbEntity
  8
Z_OM_DIM
100
AcDbLine
 10
127.9978083027
 20
143.4526383302
 30
0.0
 11
130.3064988315
 21
141.3751112045
 31
0.0
  0
LINE
  5
249
330
237
100
AcDbEntity
  8
Z_OM_DIM
100
AcDbLine
 10
127.9978083027
 20
143.4526383302
 30
0.0
 11
129.6324641161
 21
140.9371065034
 31
0.0
  0
MTEXT
  5
24A
330
237
100
AcDbEntity
  8
Z_OM_DIM
100
AcDbMText
 10
133.4601150243
 20
138.1671471257
 30
0.2
 40
1.1
 41
0.0
 71
     1
 72
     1
  1
2-
  7
SLDTEXTSTYLE4
 11
0.5448852711357834
 21
-0.8385106089366334
 31
0.0
 73
     1
 44
1.0
  0
MTEXT
  5
24B
330
237
100
AcDbEntity
  8
Z_OM_DIM
100
AcDbMText
 10
134.5073543016
 20
136.5555762307
 30
0.2
 40
1.1
 41
0.0
 71
     1
 72
     1
  1
%%c
  7
SLDTEXTSTYLE4
 11
0.5448852711357834
 21
-0.8385106089366334
 31
0.0
 73
     1
 44
1.0
  0
MTEXT
  5
24C
330
237
100
AcDbEntity
  8
Z_OM_DIM
100
AcDbMText
 10
135.6010450563
 20
134.8725222939
 30
0.2
 40
1.1
 41
0.0
 71
     1
 72
     1
  1
2.2
  7
SLDTEXTSTYLE4
 11
0.5448852711357834
 21
-0.8385106089366334
 31
0.0
 73
     1
 44
1.0
  0
ENDBLK
  5
23F
330
237
100
AcDbEntity
  8
0
100
AcDbBlockEnd
  0
BLOCK
  5
258
330
24E
100
AcDbEntity
  8
0
100
AcDbBlockBegin
  2
*D19
 70
     1
 71
     0
 10
0.0
 20
0.0
 30
0.0
  3
*D19
  1

  0
LINE
  5
25A
330
24E
100
AcDbEntity
  8
Z_OM_DIM
100
AcDbLine
 10
118.1984345342
 20
161.1750000894
 30
0.0
 11
118.1984345342
 21
166.913665024
 31
0.0
  0
LINE
  5
25B
330
24E
100
AcDbEntity
  8
Z_OM_DIM
100
AcDbLine
 10
127.3984345044
 20
162.904982069
 30
0.0
 11
127.3984345044
 21
166.913665024
 31
0.0
  0
LINE
  5
25C
330
24E
100
AcDbEntity
  8
Z_OM_DIM
100
AcDbLine
 10
119.6984345342
 20
166.213665024
 30
0.0
 11
125.8984345044
 21
166.213665024
 31
0.0
  0
LINE
  5
25D
330
24E
100
AcDbEntity
  8
Z_OM_DIM
100
AcDbLine
 10
119.6984345342
 20
165.811741239
 30
0.0
 11
118.1984345342
 21
166.213665024
 31
0.0
  0
LINE
  5
25E
330
24E
100
AcDbEntity
  8
Z_OM_DIM
100
AcDbLine
 10
118.1984345342
 20
166.213665024
 30
0.0
 11
119.6984345342
 21
166.615588809
 31
0.0
  0
LINE
  5
25F
330
24E
100
AcDbEntity
  8
Z_OM_DIM
100
AcDbLine
 10
118.1984345342
 20
166.213665024
 30
0.0
 11
119.6984345342
 21
166.213665024
 31
0.0
  0
LINE
  5
260
330
24E
100
AcDbEntity
  8
Z_OM_DIM
100
AcDbLine
 10
125.8984345044
 20
166.615588809
 30
0.0
 11
127.3984345044
 21
166.213665024
 31
0.0
  0
LINE
  5
261
330
24E
100
AcDbEntity
  8
Z_OM_DIM
100
AcDbLine
 10
127.3984345044
 20
166.213665024
 30
0.0
 11
125.8984345044
 21
165.811741239
 31
0.0
  0
LINE
  5
262
330
24E
100
AcDbEntity
  8
Z_OM_DIM
100
AcDbLine
 10
127.3984345044
 20
166.213665024
 30
0.0
 11
125.8984345044
 21
166.213665024
 31
0.0
  0
MTEXT
  5
263
330
24E
100
AcDbEntity
  8
Z_OM_DIM
100
AcDbMText
 10
121.4809876355
 20
167.9138808513
 30
0.2
 40
1.1
 41
0.0
 71
     1
 72
     1
  1
9.2
  7
SLDTEXTSTYLE4
 73
     1
 44
1.0
  0
ENDBLK
  5
259
330
24E
100
AcDbEntity
  8
0
100
AcDbBlockEnd
  0
BLOCK
  5
271
330
265
100
AcDbEntity
  8
0
100
AcDbBlockBegin
  2
*D20
 70
     1
 71
     0
 10
0.0
 20
0.0
 30
0.0
  3
*D20
  1

  0
LINE
  5
273
330
265
100
AcDbEntity
  8
Z_OM_DIM
100
AcDbLine
 10
126.3913264042
 20
163.175
 30
0.0
 11
133.8613265605
 21
163.175
 31
0.0
  0
LINE
  5
274
330
265
100
AcDbEntity
  8
Z_OM_DIM
100
AcDbLine
 10
130.6840893605
 20
159.375
 30
0.0
 11
133.8613265605
 21
159.375
 31
0.0
  0
LINE
  5
275
330
265
100
AcDbEntity
  8
Z_OM_DIM
100
AcDbLine
 10
133.1613265605
 20
157.875
 30
0.0
 11
133.1613265605
 21
156.375
 31
0.0
  0
LINE
  5
276
330
265
100
AcDbEntity
  8
Z_OM_DIM
100
AcDbLine
 10
133.1613265605
 20
164.675
 30
0.0
 11
133.1613265605
 21
169.751
 31
0.0
  0
LINE
  5
277
330
265
100
AcDbEntity
  8
Z_OM_DIM
100
AcDbLine
 10
133.1613265605
 20
159.375
 30
0.0
 11
133.1613265605
 21
163.175
 31
0.0
  0
LINE
  5
278
330
265
100
AcDbEntity
  8
Z_OM_DIM
100
AcDbLine
 10
132.7594027755
 20
157.875
 30
0.0
 11
133.1613265605
 21
159.375
 31
0.0
  0
LINE
  5
279
330
265
100
AcDbEntity
  8
Z_OM_DIM
100
AcDbLine
 10
133.1613265605
 20
159.375
 30
0.0
 11
133.5632503455
 21
157.875
 31
0.0
  0
LINE
  5
27A
330
265
100
AcDbEntity
  8
Z_OM_DIM
100
AcDbLine
 10
133.1613265605
 20
159.375
 30
0.0
 11
133.1613265605
 21
157.875
 31
0.0
  0
LINE
  5
27B
330
265
100
AcDbEntity
  8
Z_OM_DIM
100
AcDbLine
 10
133.5632503455
 20
164.675
 30
0.0
 11
133.1613265605
 21
163.175
 31
0.0
  0
LINE
  5
27C
330
265
100
AcDbEntity
  8
Z_OM_DIM
100
AcDbLine
 10
133.1613265605
 20
163.175
 30
0.0
 11
132.7594027755
 21
164.675
 31
0.0
  0
LINE
  5
27D
330
265
100
AcDbEntity
  8
Z_OM_DIM
100
AcDbLine
 10
133.1613265605
 20
163.175
 30
0.0
 11
133.1613265605
 21
164.675
 31
0.0
  0
MTEXT
  5
27E
330
265
100
AcDbEntity
  8
Z_OM_DIM
100
AcDbMText
 10
131.4611107332
 20
166.721161068
 30
0.2
 40
1.1
 41
0.0
 71
     1
 72
     1
  1
3.8
  7
SLDTEXTSTYLE4
 11
6.123031769111886E-17
 21
1.0
 31
0.0
 73
     1
 44
1.0
  0
ENDBLK
  5
272
330
265
100
AcDbEntity
  8
0
100
AcDbBlockEnd
  0
ENDSEC
  0
SECTION
  2
ENTITIES
  0
LINE
  5
50
330
1F
100
AcDbEntity
  8
Z_OM_CENTER
100
AcDbLine
 10
95.375
 20
165.2866437739
 30
0.0
 11
95.375
 21
127.0620759557
 31
0.0
  0
LINE
  5
51
330
1F
100
AcDbEntity
  8
Z_OM_OUTLINE
100
AcDbLine
 10
96.574999943
 20
128.3750004321
 30
0.0
 11
96.575000057
 21
138.6750002086
 31
0.0
  0
LINE
  5
52
330
1F
100
AcDbEntity
  8
Z_OM_OUTLINE
100
AcDbLine
 10
94.174999943
 20
138.6750002086
 30
0.0
 11
94.174999943
 21
128.6750004321
 31
0.0
  0
LINE
  5
53
330
1F
100
AcDbEntity
  8
Z_OM_OUTLINE
100
AcDbLine
 10
93.074999949
 20
138.6750002086
 30
0.0
 11
97.675000051
 21
138.6750002086
 31
0.0
  0
LINE
  5
54
330
1F
100
AcDbEntity
  8
Z_OM_OUTLINE
100
AcDbLine
 10
98.6749999821
 20
141.5749999389
 30
0.0
 11
92.0750000179
 21
141.5749999389
 31
0.0
  0
LINE
  5
55
330
1F
100
AcDbEntity
  8
Z_OM_OUTLINE
100
AcDbLine
 10
91.874999892
 20
142.5750001028
 30
0.0
 11
98.875000108
 21
142.5750001028
 31
0.0
  0
LINE
  5
56
330
1F
100
AcDbEntity
  8
Z_OM_OUTLINE
100
AcDbLine
 10
98.875000108
 20
147.1749999721
 30
0.0
 11
91.874999892
 21
147.1749999721
 31
0.0
  0
LINE
  5
57
330
1F
100
AcDbEntity
  8
Z_OM_OUTLINE
100
AcDbLine
 10
91.874999892
 20
145.375000003
 30
0.0
 11
98.875000108
 21
145.375000003
 31
0.0
  0
LINE
  5
58
330
1F
100
AcDbEntity
  8
Z_OM_OUTLINE
100
AcDbLine
 10
98.875000108
 20
147.3749999816
 30
0.0
 11
91.874999892
 21
147.3749999816
 31
0.0
  0
LINE
  5
59
330
1F
100
AcDbEntity
  8
Z_OM_OUTLINE
100
AcDbLine
 10
93.074999949
 20
139.6749999069
 30
0.0
 11
93.074999949
 21
138.6750002086
 31
0.0
  0
LINE
  5
5A
330
1F
100
AcDbEntity
  8
Z_OM_OUTLINE
100
AcDbLine
 10
91.874999892
 20
163.1749995679
 30
0.0
 11
91.874999892
 21
142.5750001028
 31
0.0
  0
LINE
  5
5B
330
1F
100
AcDbEntity
  8
Z_OM_OUTLINE
100
AcDbLine
 10
92.274999911
 20
141.5749999389
 30
0.0
 11
93.074999949
 21
139.6749999069
 31
0.0
  0
LINE
  5
5C
330
1F
100
AcDbEntity
  8
Z_OM_OUTLINE
100
AcDbLine
 10
92.0750000179
 20
141.5749999389
 30
0.0
 11
92.0750000179
 21
142.5750001028
 31
0.0
  0
LINE
  5
5D
330
1F
100
AcDbEntity
  8
Z_OM_OUTLINE
100
AcDbLine
 10
92.0750000179
 20
147.3749999816
 30
0.0
 11
92.0750000179
 21
147.1749999721
 31
0.0
  0
LINE
  5
5E
330
1F
100
AcDbEntity
  8
Z_OM_OUTLINE
100
AcDbLine
 10
97.675000051
 20
138.6750002086
 30
0.0
 11
97.675000051
 21
139.6749999069
 31
0.0
  0
LINE
  5
5F
330
1F
100
AcDbEntity
  8
Z_OM_OUTLINE
100
AcDbLine
 10
98.875000108
 20
163.1749995679
 30
0.0
 11
98.875000108
 21
142.5750001028
 31
0.0
  0
LINE
  5
60
330
1F
100
AcDbEntity
  8
Z_OM_OUTLINE
100
AcDbLine
 10
97.675000051
 20
139.6749999069
 30
0.0
 11
98.475000089
 21
141.5749999389
 31
0.0
  0
LINE
  5
61
330
1F
100
AcDbEntity
  8
Z_OM_OUTLINE
100
AcDbLine
 10
98.6749999821
 20
141.5749999389
 30
0.0
 11
98.6749999821
 21
142.5750001028
 31
0.0
  0
LINE
  5
62
330
1F
100
AcDbEntity
  8
Z_OM_OUTLINE
100
AcDbLine
 10
98.6749999821
 20
147.3749999816
 30
0.0
 11
98.6749999821
 21
147.1749999721
 31
0.0
  0
LINE
  5
63
330
1F
100
AcDbEntity
  8
Z_OM_OUTLINE
100
AcDbLine
 10
91.874999892
 20
163.1749995679
 30
0.0
 11
98.875000108
 21
163.1749995679
 31
0.0
  0
LINE
  5
64
330
1F
100
AcDbEntity
  8
Z_OM_OUTLINE
100
AcDbLine
 10
91.874999892
 20
159.7749997556
 30
0.0
 11
98.875000108
 21
159.7749997556
 31
0.0
  0
LINE
  5
65
330
1F
100
AcDbEntity
  8
Z_OM_OUTLINE
100
AcDbLine
 10
98.875000108
 20
158.5749999315
 30
0.0
 11
91.874999892
 21
158.5749999315
 31
0.0
  0
LINE
  5
66
330
1F
100
AcDbEntity
  8
Z_OM_OUTLINE
100
AcDbLine
 10
91.874999892
 20
159.9750003472
 30
0.0
 11
98.875000108
 21
159.9750003472
 31
0.0
  0
LINE
  5
67
330
1F
100
AcDbEntity
  8
Z_OM_OUTLINE
100
AcDbLine
 10
98.875000108
 20
158.3750002712
 30
0.0
 11
91.874999892
 21
158.3750002712
 31
0.0
  0
LINE
  5
68
330
1F
100
AcDbEntity
  8
Z_OM_CENTER
100
AcDbLine
 10
93.1348667103
 20
160.275
 30
0.0
 11
97.8247048628
 21
160.275
 31
0.0
  0
LINE
  5
69
330
1F
100
AcDbEntity
  8
Z_OM_CENTER
100
AcDbLine
 10
92.6917964996
 20
150.375
 30
0.0
 11
98.0944631974
 21
150.375
 31
0.0
  0
LINE
  5
6A
330
1F
100
AcDbEntity
  8
Z_OM_CENTER
100
AcDbLine
 10
92.6709404558
 20
155.375
 30
0.0
 11
98.0944631974
 21
155.375
 31
0.0
  0
LINE
  5
6B
330
1F
100
AcDbEntity
  8
Z_OM_CENTER
100
AcDbLine
 10
90.3240355805
 20
152.875
 30
0.0
 11
100.3582885661
 21
152.875
 31
0.0
  0
LINE
  5
6C
330
1F
100
AcDbEntity
  8
Z_OM_OUTLINE
100
AcDbLine
 10
93.275
 20
155.375
 30
0.0
 11
93.275
 21
150.375
 31
0.0
  0
LINE
  5
6D
330
1F
100
AcDbEntity
  8
Z_OM_OUTLINE
100
AcDbLine
 10
92.0750000179
 20
159.7749997556
 30
0.0
 11
92.0750000179
 21
159.9750003472
 31
0.0
  0
LINE
  5
6E
330
1F
100
AcDbEntity
  8
Z_OM_CENTER
100
AcDbLine
 10
94.225
 20
159.6616148265
 30
0.0
 11
94.225
 21
160.8883851735
 31
0.0
  0
LINE
  5
6F
330
1F
100
AcDbEntity
  8
Z_OM_CENTER
100
AcDbLine
 10
96.525
 20
159.6616148265
 30
0.0
 11
96.525
 21
160.8883851735
 31
0.0
  0
LINE
  5
70
330
1F
100
AcDbEntity
  8
Z_OM_OUTLINE
100
AcDbLine
 10
92.0750000179
 20
158.5749999315
 30
0.0
 11
92.0750000179
 21
158.3750002712
 31
0.0
  0
LINE
  5
71
330
1F
100
AcDbEntity
  8
Z_OM_OUTLINE
100
AcDbLine
 10
97.475
 20
150.375
 30
0.0
 11
97.475
 21
155.375
 31
0.0
  0
LINE
  5
72
330
1F
100
AcDbEntity
  8
Z_OM_OUTLINE
100
AcDbLine
 10
98.6749999821
 20
159.9750003472
 30
0.0
 11
98.6749999821
 21
159.7749997556
 31
0.0
  0
LINE
  5
73
330
1F
100
AcDbEntity
  8
Z_OM_OUTLINE
100
AcDbLine
 10
98.6749999821
 20
158.5749999315
 30
0.0
 11
98.6749999821
 21
158.3750002712
 31
0.0
  0
LINE
  5
74
330
1F
100
AcDbEntity
  8
Z_OM_OUTLINE
100
AcDbLine
 10
98.875000108
 20
181.8253218862
 30
0.0
 11
91.874999892
 21
181.8253218862
 31
0.0
  0
LINE
  5
75
330
1F
100
AcDbEntity
  8
Z_OM_OUTLINE
100
AcDbLine
 10
98.875000108
 20
185.3253217614
 30
0.0
 11
91.874999892
 21
185.3253217614
 31
0.0
  0
LINE
  5
76
330
1F
100
AcDbEntity
  8
Z_OM_OUTLINE
100
AcDbLine
 10
98.875000108
 20
185.5253218873
 30
0.0
 11
91.874999892
 21
185.5253218873
 31
0.0
  0
LINE
  5
77
330
1F
100
AcDbEntity
  8
Z_OM_OUTLINE
100
AcDbLine
 10
98.875000108
 20
189.5182137578
 30
0.0
 11
91.874999892
 21
189.5182137578
 31
0.0
  0
LINE
  5
78
330
1F
100
AcDbEntity
  8
Z_OM_OUTLINE
100
AcDbLine
 10
91.874999892
 20
181.8253218862
 30
0.0
 11
91.874999892
 21
192.8253218266
 31
0.0
  0
LINE
  5
79
330
1F
100
AcDbEntity
  8
Z_OM_OUTLINE
100
AcDbLine
 10
92.0750000179
 20
185.3253217614
 30
0.0
 11
92.0750000179
 21
185.5253218873
 31
0.0
  0
LINE
  5
7A
330
1F
100
AcDbEntity
  8
Z_OM_OUTLINE
100
AcDbLine
 10
98.875000108
 20
192.8253218266
 30
0.0
 11
98.875000108
 21
181.8253218862
 31
0.0
  0
LINE
  5
7B
330
1F
100
AcDbEntity
  8
Z_OM_OUTLINE
100
AcDbLine
 10
98.6749999821
 20
185.5253218873
 30
0.0
 11
98.6749999821
 21
185.3253217614
 31
0.0
  0
LINE
  5
7C
330
1F
100
AcDbEntity
  8
Z_OM_OUTLINE
100
AcDbLine
 10
98.875000108
 20
192.8253218266
 30
0.0
 11
91.874999892
 21
192.8253218266
 31
0.0
  0
LINE
  5
7D
330
1F
100
AcDbEntity
  8
Z_OM_OUTLINE
100
AcDbLine
 10
127.8984343547
 20
147.2368175557
 30
0.0
 11
127.8984343547
 21
156.5131821364
 31
0.0
  0
LINE
  5
7E
330
1F
100
AcDbEntity
  8
Z_OM_OUTLINE
100
AcDbLine
 10
119.6984343145
 20
147.3749999816
 30
0.0
 11
119.6984343145
 21
158.3750002712
 31
0.0
  0
LINE
  5
7F
330
1F
100
AcDbEntity
  8
Z_OM_OUTLINE
100
AcDbLine
 10
118.1984345342
 20
158.3750002712
 30
0.0
 11
118.1984345342
 21
147.3749999816
 31
0.0
  0
LINE
  5
80
330
1F
100
AcDbEntity
  8
Z_OM_OUTLINE
100
AcDbLine
 10
119.8984344404
 20
147.1749999721
 30
0.0
 11
119.8984344404
 21
158.5749999315
 31
0.0
  0
LINE
  5
81
330
1F
100
AcDbEntity
  8
Z_OM_OUTLINE
100
AcDbLine
 10
123.598434507
 20
146.1750000119
 30
0.0
 11
123.598434507
 21
157.5749997728
 31
0.0
  0
LINE
  5
82
330
1F
100
AcDbEntity
  8
Z_OM_CENTER
100
AcDbLine
 10
127.3984345044
 20
162.404982069
 30
0.0
 11
127.3984345044
 21
141.6135603161
 31
0.0
  0
LINE
  5
83
330
1F
100
AcDbEntity
  8
Z_OM_OUTLINE
100
AcDbLine
 10
126.8984344236
 20
138.6750002086
 30
0.0
 11
122.0984345449
 21
138.6750002086
 31
0.0
  0
LINE
  5
84
330
1F
100
AcDbEntity
  8
Z_OM_OUTLINE
100
AcDbLine
 10
126.8984344236
 20
139.6749999069
 30
0.0
 11
122.0984345449
 21
139.6749999069
 31
0.0
  0
LINE
  5
85
330
1F
100
AcDbEntity
  8
Z_OM_OUTLINE
100
AcDbLine
 10
127.0984345495
 20
141.5749999389
 30
0.0
 11
121.8984345354
 21
141.5749999389
 31
0.0
  0
LINE
  5
86
330
1F
100
AcDbEntity
  8
Z_OM_OUTLINE
100
AcDbLine
 10
119.6984343145
 20
142.5750001028
 30
0.0
 11
127.3984345056
 21
142.5750001028
 31
0.0
  0
LINE
  5
87
330
1F
100
AcDbEntity
  8
Z_OM_OUTLINE
100
AcDbLine
 10
127.3984345056
 20
146.1750000119
 30
0.0
 11
123.598434507
 21
146.1750000119
 31
0.0
  0
LINE
  5
88
330
1F
100
AcDbEntity
  8
Z_OM_OUTLINE
100
AcDbLine
 10
123.2984345145
 20
138.6750002086
 30
0.0
 11
123.2984345145
 21
128.6750004321
 31
0.0
  0
LINE
  5
89
330
1F
100
AcDbEntity
  8
Z_OM_CENTER
100
AcDbLine
 10
124.4984345044
 20
144.0857110733
 30
0.0
 11
124.4984345044
 21
126.8440442539
 31
0.0
  0
LINE
  5
8A
330
1F
100
AcDbEntity
  8
Z_OM_OUTLINE
100
AcDbLine
 10
118.1984345342
 20
147.3749999816
 30
0.0
 11
119.6984343145
 21
147.3749999816
 31
0.0
  0
LINE
  5
8B
330
1F
100
AcDbEntity
  8
Z_OM_OUTLINE
100
AcDbLine
 10
118.1984345342
 20
147.1749999721
 30
0.0
 11
119.8984344404
 21
147.1749999721
 31
0.0
  0
LINE
  5
8C
330
1F
100
AcDbEntity
  8
Z_OM_OUTLINE
100
AcDbLine
 10
118.1984345342
 20
145.375000003
 30
0.0
 11
119.6984343145
 21
145.375000003
 31
0.0
  0
LINE
  5
8D
330
1F
100
AcDbEntity
  8
Z_OM_OUTLINE
100
AcDbLine
 10
118.1984345342
 20
147.1749999721
 30
0.0
 11
118.1984345342
 21
145.375000003
 31
0.0
  0
LINE
  5
8E
330
1F
100
AcDbEntity
  8
Z_OM_OUTLINE
100
AcDbLine
 10
118.3984346602
 20
147.3749999816
 30
0.0
 11
118.3984346602
 21
147.1749999721
 31
0.0
  0
LINE
  5
8F
330
1F
100
AcDbEntity
  8
Z_OM_OUTLINE
100
AcDbLine
 10
119.6984343145
 20
145.375000003
 30
0.0
 11
119.6984343145
 21
142.5750001028
 31
0.0
  0
LINE
  5
90
330
1F
100
AcDbEntity
  8
Z_OM_OUTLINE
100
AcDbLine
 10
121.8984345354
 20
141.5749999389
 30
0.0
 11
121.8984345354
 21
142.5750001028
 31
0.0
  0
LINE
  5
91
330
1F
100
AcDbEntity
  8
Z_OM_OUTLINE
100
AcDbLine
 10
122.0984345449
 20
138.6750002086
 30
0.0
 11
122.0984345449
 21
141.5749999389
 31
0.0
  0
LINE
  5
92
330
1F
100
AcDbEntity
  8
Z_OM_OUTLINE
100
AcDbLine
 10
125.6984345145
 20
128.3750004321
 30
0.0
 11
125.6984345145
 21
138.6750002086
 31
0.0
  0
LINE
  5
93
330
1F
100
AcDbEntity
  8
Z_OM_OUTLINE
100
AcDbLine
 10
126.8984344236
 20
141.5749999389
 30
0.0
 11
126.8984344236
 21
138.6750002086
 31
0.0
  0
LINE
  5
94
330
1F
100
AcDbEntity
  8
Z_OM_OUTLINE
100
AcDbLine
 10
127.0984345495
 20
141.5749999389
 30
0.0
 11
127.0984345495
 21
142.5750001028
 31
0.0
  0
LINE
  5
95
330
1F
100
AcDbEntity
  8
Z_OM_CENTER
100
AcDbLine
 10
125.366564808
 20
144.375
 30
0.0
 11
130.1840893605
 21
144.375
 31
0.0
  0
LINE
  5
96
330
1F
100
AcDbEntity
  8
Z_OM_OUTLINE
100
AcDbLine
 10
123.598434507
 20
157.5749997728
 30
0.0
 11
127.3984344711
 21
157.5749997728
 31
0.0
  0
LINE
  5
97
330
1F
100
AcDbEntity
  8
Z_OM_OUTLINE
100
AcDbLine
 10
125.8913264058
 20
163.1749995679
 30
0.0
 11
121.8984345354
 21
163.1749995679
 31
0.0
  0
LINE
  5
98
330
1F
100
AcDbEntity
  8
Z_OM_CENTER
100
AcDbLine
 10
116.8090715634
 20
152.875
 30
0.0
 11
128.9507166053
 21
152.875
 31
0.0
  0
LINE
  5
99
330
1F
100
AcDbEntity
  8
Z_OM_CENTER
100
AcDbLine
 10
117.1689519646
 20
150.375
 30
0.0
 11
120.7559661383
 21
150.375
 31
0.0
  0
LINE
  5
9A
330
1F
100
AcDbEntity
  8
Z_OM_CENTER
100
AcDbLine
 10
117.1689519646
 20
155.375
 30
0.0
 11
120.7559661383
 21
155.375
 31
0.0
  0
LINE
  5
9B
330
1F
100
AcDbEntity
  8
Z_OM_OUTLINE
100
AcDbLine
 10
119.6984343145
 20
158.3750002712
 30
0.0
 11
118.1984345342
 21
158.3750002712
 31
0.0
  0
LINE
  5
9C
330
1F
100
AcDbEntity
  8
Z_OM_OUTLINE
100
AcDbLine
 10
121.1984345305
 20
159.9750003472
 30
0.0
 11
118.1984345044
 21
159.9750003472
 31
0.0
  0
LINE
  5
9D
330
1F
100
AcDbEntity
  8
Z_OM_OUTLINE
100
AcDbLine
 10
119.8984344404
 20
158.5749999315
 30
0.0
 11
118.1984345342
 21
158.5749999315
 31
0.0
  0
LINE
  5
9E
330
1F
100
AcDbEntity
  8
Z_OM_OUTLINE
100
AcDbLine
 10
121.2812773331
 20
159.7749997556
 30
0.0
 11
118.1984345342
 21
159.7749997556
 31
0.0
  0
LINE
  5
9F
330
1F
100
AcDbEntity
  8
Z_OM_OUTLINE
100
AcDbLine
 10
118.3984346602
 20
159.9750003472
 30
0.0
 11
118.3984346602
 21
159.7749997556
 31
0.0
  0
LINE
  5
A0
330
1F
100
AcDbEntity
  8
Z_OM_OUTLINE
100
AcDbLine
 10
118.3984346602
 20
158.5749999315
 30
0.0
 11
118.3984346602
 21
158.3750002712
 31
0.0
  0
LINE
  5
A1
330
1F
100
AcDbEntity
  8
Z_OM_OUTLINE
100
AcDbLine
 10
118.1984345342
 20
159.7749997556
 30
0.0
 11
118.1984345342
 21
158.5749999315
 31
0.0
  0
LINE
  5
A2
330
1F
100
AcDbEntity
  8
Z_OM_OUTLINE
100
AcDbLine
 10
118.1984345044
 20
160.675
 30
0.0
 11
118.1984345044
 21
159.9750003472
 31
0.0
  0
LINE
  5
A3
330
1F
100
AcDbEntity
  8
Z_OM_OUTLINE
100
AcDbLine
 10
121.8984345354
 20
160.3921574235
 30
0.0
 11
121.2812773331
 21
159.7749997556
 31
0.0
  0
LINE
  5
A4
330
1F
100
AcDbEntity
  8
Z_OM_OUTLINE
100
AcDbLine
 10
121.6984343796
 20
163.1749995679
 30
0.0
 11
121.6984343796
 21
160.4750004292
 31
0.0
  0
LINE
  5
A5
330
1F
100
AcDbEntity
  8
Z_OM_OUTLINE
100
AcDbLine
 10
121.8984345354
 20
163.1749995679
 30
0.0
 11
121.8984345354
 21
160.3921574235
 31
0.0
  0
LINE
  5
A6
330
1F
100
AcDbEntity
  8
Z_OM_OUTLINE
100
AcDbLine
 10
121.6984343796
 20
160.4750004292
 30
0.0
 11
121.1984345305
 21
159.9750003472
 31
0.0
  0
LINE
  5
A7
330
1F
100
AcDbEntity
  8
Z_OM_OUTLINE
100
AcDbLine
 10
121.8984345354
 20
162.9749999076
 30
0.0
 11
121.6984344094
 21
162.9749999076
 31
0.0
  0
LINE
  5
A8
330
1F
100
AcDbEntity
  8
Z_OM_OUTLINE
100
AcDbLine
 10
121.6984343796
 20
163.1749995679
 30
0.0
 11
120.6984345044
 21
163.175
 31
0.0
  0
LINE
  5
A9
330
1F
100
AcDbEntity
  8
Z_OM_CENTER
100
AcDbLine
 10
125.366564808
 20
159.375
 30
0.0
 11
130.1840893605
 21
159.375
 31
0.0
  0
LINE
  5
AA
330
1F
100
AcDbEntity
  8
Z_OM_OUTLINE
100
AcDbLine
 10
126.9268544138
 20
161.8008079173
 30
0.0
 11
125.8913264058
 21
163.1749995679
 31
0.0
  0
LINE
  5
AB
330
1F
100
AcDbEntity
  8
Z_OM_NOTE
  6
Continuous
 62
     4
100
AcDbLine
 10
93.4137875866
 20
161.5747955295
 30
0.0
 11
94.225
 21
160.2506062872
 31
0.0
  0
LINE
  5
AC
330
1F
100
AcDbEntity
  8
Z_OM_NOTE
  6
Continuous
 62
     4
100
AcDbLine
 10
94.225
 20
160.2506062872
 30
0.0
 11
92.8603748244
 21
160.99178161
 31
0.0
  0
LINE
  5
AD
330
1F
100
AcDbEntity
  8
Z_OM_NOTE
  6
Continuous
 62
     4
100
AcDbLine
 10
94.225
 20
160.2506062872
 30
0.0
 11
93.1370812055
 21
161.2832885697
 31
0.0
  0
LINE
  5
AE
330
1F
100
AcDbEntity
  8
Z_OM_NOTE
100
AcDbLine
 10
93.1370812055
 20
161.2832885697
 30
0.0
 11
85.0173201437
 21
168.9907879063
 31
0.0
  0
LINE
  5
AF
330
1F
100
AcDbEntity
  8
Z_OM_NOTE
100
AcDbLine
 10
85.0173201437
 20
168.9907879063
 30
0.0
 11
62.6045201437
 21
168.9907879063
 31
0.0
  0
LINE
  5
B0
330
1F
100
AcDbEntity
  8
Z_OM_NOTE
  6
Continuous
 62
     4
100
AcDbLine
 10
97.6719376442
 20
161.3219368506
 30
0.0
 11
96.525
 21
160.275
 31
0.0
  0
LINE
  5
B1
330
1F
100
AcDbEntity
  8
Z_OM_NOTE
  6
Continuous
 62
     4
100
AcDbLine
 10
96.525
 20
160.275
 30
0.0
 11
96.9948087178
 21
161.7551427288
 31
0.0
  0
LINE
  5
B2
330
1F
100
AcDbEntity
  8
Z_OM_NOTE
  6
Continuous
 62
     4
100
AcDbLine
 10
96.525
 20
160.275
 30
0.0
 11
97.333373181
 21
161.5385397897
 31
0.0
  0
LINE
  5
B3
330
1F
100
AcDbEntity
  8
Z_OM_NOTE
100
AcDbLine
 10
97.333373181
 20
161.5385397897
 30
0.0
 11
104.4767002004
 21
172.704023915
 31
0.0
  0
LINE
  5
B4
330
1F
100
AcDbEntity
  8
Z_OM_NOTE
100
AcDbLine
 10
104.4767002004
 20
172.704023915
 30
0.0
 11
126.4935002004
 21
172.704023915
 31
0.0
  0
LINE
  5
B5
330
1F
100
AcDbEntity
  8
Z_OM_NOTE
  6
Continuous
 62
     4
100
AcDbLine
 10
94.3892674112
 20
156.5749474957
 30
0.0
 11
95.375
 21
155.375
 31
0.0
  0
LINE
  5
B6
330
1F
100
AcDbEntity
  8
Z_OM_NOTE
  6
Continuous
 62
     4
100
AcDbLine
 10
95.375
 20
155.375
 30
0.0
 11
93.9213567914
 21
155.9213187267
 31
0.0
  0
LINE
  5
B7
330
1F
100
AcDbEntity
  8
Z_OM_NOTE
  6
Continuous
 62
     4
100
AcDbLine
 10
95.375
 20
155.375
 30
0.0
 11
94.1553121013
 21
156.2481331112
 31
0.0
  0
LINE
  5
B8
330
1F
100
AcDbEntity
  8
Z_OM_NOTE
100
AcDbLine
 10
94.1553121013
 20
156.2481331112
 30
0.0
 11
87.3594969856
 21
161.1130261722
 31
0.0
  0
LINE
  5
B9
330
1F
100
AcDbEntity
  8
Z_OM_NOTE
100
AcDbLine
 10
87.3594969856
 20
161.1130261722
 30
0.0
 11
73.2626969856
 21
161.1130261722
 31
0.0
  0
LINE
  5
BA
330
1F
100
AcDbEntity
  8
Z_OM_NOTE
  6
Continuous
 62
     4
100
AcDbLine
 10
94.103389844
 20
153.7663755326
 30
0.0
 11
95.375
 21
152.875
 31
0.0
  0
LINE
  5
BB
330
1F
100
AcDbEntity
  8
Z_OM_NOTE
  6
Continuous
 62
     4
100
AcDbLine
 10
95.375
 20
152.875
 30
0.0
 11
93.8280655355
 21
153.0111487846
 31
0.0
  0
LINE
  5
BC
330
1F
100
AcDbEntity
  8
Z_OM_NOTE
  6
Continuous
 62
     4
100
AcDbLine
 10
95.375
 20
152.875
 30
0.0
 11
93.9657276898
 21
153.3887621586
 31
0.0
  0
LINE
  5
BD
330
1F
100
AcDbEntity
  8
Z_OM_NOTE
100
AcDbLine
 10
93.9657276898
 20
153.3887621586
 30
0.0
 11
88.1837227005
 21
155.4966410566
 31
0.0
  0
LINE
  5
BE
330
1F
100
AcDbEntity
  8
Z_OM_NOTE
100
AcDbLine
 10
88.1837227005
 20
155.4966410566
 30
0.0
 11
73.6909227005
 21
155.4966410566
 31
0.0
  0
LINE
  5
BF
330
1F
100
AcDbEntity
  8
Z_OM_NOTE
  6
Continuous
 62
     4
100
AcDbLine
 10
93.825376301
 20
150.273959807
 30
0.0
 11
95.375
 21
150.375
 31
0.0
  0
LINE
  5
C0
330
1F
100
AcDbEntity
  8
Z_OM_NOTE
  6
Continuous
 62
     4
100
AcDbLine
 10
95.375
 20
150.375
 30
0.0
 11
94.083506603
 21
149.5126847825
 31
0.0
  0
LINE
  5
C1
330
1F
100
AcDbEntity
  8
Z_OM_NOTE
  6
Continuous
 62
     4
100
AcDbLine
 10
95.375
 20
150.375
 30
0.0
 11
93.954441452
 21
149.8933222947
 31
0.0
  0
LINE
  5
C2
330
1F
100
AcDbEntity
  8
Z_OM_NOTE
100
AcDbLine
 10
93.954441452
 20
149.8933222947
 30
0.0
 11
87.7849904833
 21
147.8014078224
 31
0.0
  0
LINE
  5
C3
330
1F
100
AcDbEntity
  8
Z_OM_NOTE
100
AcDbLine
 10
87.7849904833
 20
147.8014078224
 30
0.0
 11
72.5001904833
 21
147.8014078224
 31
0.0
  0
LINE
  5
C4
330
1F
100
AcDbEntity
  8
Z_OM_CENTER
100
AcDbLine
 10
95.375
 20
196.1468668182
 30
0.0
 11
95.375
 21
178.9326324241
 31
0.0
  0
LINE
  5
C5
330
1F
100
AcDbEntity
  8
Z_OM_NOTE
  6
Continuous
 62
     4
100
AcDbLine
 10
92.9086596267
 20
132.776153875
 30
0.0
 11
94.174999943
 21
133.6750003204
 31
0.0
  0
LINE
  5
C6
330
1F
100
AcDbEntity
  8
Z_OM_NOTE
  6
Continuous
 62
     4
100
AcDbLine
 10
94.174999943
 20
133.6750003204
 30
0.0
 11
93.5277402756
 21
132.2634063094
 31
0.0
  0
LINE
  5
C7
330
1F
100
AcDbEntity
  8
Z_OM_NOTE
  6
Continuous
 62
     4
100
AcDbLine
 10
94.174999943
 20
133.6750003204
 30
0.0
 11
93.2181999511
 21
132.5197800922
 31
0.0
  0
LINE
  5
C8
330
1F
100
AcDbEntity
  8
Z_OM_NOTE
100
AcDbLine
 10
93.2181999511
 20
132.5197800922
 30
0.0
 11
88.8707023039
 21
127.2707026813
 31
0.0
  0
LINE
  5
C9
330
1F
100
AcDbEntity
  8
Z_OM_NOTE
100
AcDbLine
 10
88.8707023039
 20
127.2707026813
 30
0.0
 11
58.3003023039
 21
127.2707026813
 31
0.0
  0
LINE
  5
CA
330
1F
100
AcDbEntity
  8
SLD-0_0
  6
Continuous
 62
   179
370
     0
100
AcDbLine
 10
20.2604743903
 20
285.0
 30
0.0
 11
196.7604743903
 21
285.0
 31
0.0
  0
LINE
  5
CB
330
1F
100
AcDbEntity
  8
SLD-0_0
  6
Continuous
 62
   179
370
     0
100
AcDbLine
 10
20.2604743903
 20
285.0
 30
0.0
 11
20.2604743903
 21
10.0
 31
0.0
  0
LINE
  5
CC
330
1F
100
AcDbEntity
  8
SLD-0_0
  6
Continuous
 62
   179
370
     0
100
AcDbLine
 10
20.2604743903
 20
10.0
 30
0.0
 11
196.7604743903
 21
10.0
 31
0.0
  0
LINE
  5
CD
330
1F
100
AcDbEntity
  8
SLD-0_0
  6
Continuous
 62
   179
370
     0
100
AcDbLine
 10
196.7604743903
 20
285.0
 30
0.0
 11
196.7604743903
 21
10.0
 31
0.0
  0
LINE
  5
CE
330
1F
100
AcDbEntity
  8
SLD-0_0
  6
Continuous
 62
   179
370
     0
100
AcDbLine
 10
127.0104743903
 20
50.75
 30
0.0
 11
196.7604743903
 21
50.75
 31
0.0
  0
LINE
  5
CF
330
1F
100
AcDbEntity
  8
SLD-0_0
  6
Continuous
 62
   179
370
     0
100
AcDbLine
 10
127.0104743903
 20
50.75
 30
0.0
 11
127.0104743903
 21
10.0
 31
0.0
  0
LINE
  5
D0
330
1F
100
AcDbEntity
  8
SLD-0_0
  6
Continuous
 62
   179
370
     0
100
AcDbLine
 10
127.0104743903
 20
22.75
 30
0.0
 11
196.7604743903
 21
22.75
 31
0.0
  0
LINE
  5
D1
330
1F
100
AcDbEntity
  8
SLD-0_0
  6
Continuous
 62
   179
370
     0
100
AcDbLine
 10
127.0104743903
 20
36.75
 30
0.0
 11
196.7604743903
 21
36.75
 31
0.0
  0
ARC
  5
D2
330
1F
100
AcDbEntity
  8
Z_OM_OUTLINE
100
AcDbCircle
 10
95.375
 20
155.375
 30
0.0
 40
2.099999999999994
100
AcDbArc
 50
0.0
 51
180.0
  0
ARC
  5
D3
330
1F
100
AcDbEntity
  8
Z_OM_OUTLINE
100
AcDbCircle
 10
95.375
 20
150.375
 30
0.0
 40
2.099999999999994
100
AcDbArc
 50
180.0
 51
0.0
  0
ARC
  5
D4
330
1F
100
AcDbEntity
  8
Z_OM_OUTLINE
100
AcDbCircle
 10
127.3984345044
 20
144.3750000573
 30
0.0
 40
1.799999954550032
100
AcDbArc
 50
270.0000000382
 51
89.9999999618
  0
CIRCLE
  5
D5
330
1F
100
AcDbEntity
  8
Z_OM_OUTLINE
100
AcDbCircle
 10
127.3984345044
 20
144.3750000573
 30
0.0
 40
1.099999999999994
  0
ARC
  5
D6
330
1F
100
AcDbEntity
  8
Z_OM_OUTLINE
100
AcDbCircle
 10
129.8984344296
 20
147.2368176043
 30
0.0
 40
2.000000074889155
100
AcDbArc
 50
180.0
 51
228.8604895851
  0
ARC
  5
D7
330
1F
100
AcDbEntity
  8
Z_OM_OUTLINE
100
AcDbCircle
 10
120.6984345044
 20
160.675
 30
0.0
 40
2.5
100
AcDbArc
 50
90.0
 51
180.0
  0
ARC
  5
D8
330
1F
100
AcDbEntity
  8
Z_OM_OUTLINE
100
AcDbCircle
 10
127.39843447
 20
159.374999889
 30
0.0
 40
1.800000116214545
100
AcDbArc
 50
270.000000035
 51
72.7684245297
  0
CIRCLE
  5
D9
330
1F
100
AcDbEntity
  8
Z_OM_OUTLINE
100
AcDbCircle
 10
127.39843447
 20
159.374999889
 30
0.0
 40
1.099999999980724
  0
ARC
  5
DA
330
1F
100
AcDbEntity
  8
Z_OM_OUTLINE
100
AcDbCircle
 10
129.8984344296
 20
156.5131823957
 30
0.0
 40
2.000000074889177
100
AcDbArc
 50
131.1395104149
 51
180.0
  0
ARC
  5
DB
330
1F
100
AcDbEntity
  8
Z_OM_OUTLINE
100
AcDbCircle
 10
128.5241254339
 20
163.0044379636
 30
0.0
 40
2.00000000001547
100
AcDbArc
 50
216.9999999998
 51
252.7684245296
  0
ARC
  5
DC
330
1F
100
AcDbEntity
  8
Z_OM_OUTLINE
100
AcDbCircle
 10
125.0484345145
 20
128.3250004321
 30
0.0
 40
0.6519202405203096
100
AcDbArc
 50
4.3987053551
 51
147.5288077091
  0
ARC
  5
DD
330
1F
100
AcDbEntity
  8
Z_OM_OUTLINE
100
AcDbCircle
 10
123.8984345145
 20
129.1250004321
 30
0.0
 40
0.7499999999999772
100
AcDbArc
 50
216.8698976458
 51
323.1301023542
  0
ARC
  5
DE
330
1F
100
AcDbEntity
  8
Z_OM_OUTLINE
100
AcDbCircle
 10
125.2104405601
 20
128.9730246146
 30
0.0
 40
0.7718620488000247
100
AcDbArc
 50
202.7127101168
 51
309.2148029473
  0
ARC
  5
DF
330
1F
100
AcDbEntity
  8
Z_OM_OUTLINE
100
AcDbCircle
 10
95.924999943
 20
128.3250004321
 30
0.0
 40
0.6519202405202791
100
AcDbArc
 50
4.398705355
 51
147.5288077092
  0
ARC
  5
E0
330
1F
100
AcDbEntity
  8
Z_OM_OUTLINE
100
AcDbCircle
 10
94.774999943
 20
129.1250004321
 30
0.0
 40
0.7500000000000228
100
AcDbArc
 50
216.8698976458
 51
323.1301023541
  0
ARC
  5
E1
330
1F
100
AcDbEntity
  8
Z_OM_OUTLINE
100
AcDbCircle
 10
96.0870059886
 20
128.9730246146
 30
0.0
 40
0.7718620487860005
100
AcDbArc
 50
202.7127101155
 51
309.2148029487
  0
CIRCLE
  5
E2
330
1F
100
AcDbEntity
  8
Z_OM_PHANTOM
100
AcDbCircle
 10
95.375
 20
155.375
 30
0.0
 40
2.0
  0
CIRCLE
  5
E3
330
1F
100
AcDbEntity
  8
Z_OM_PHANTOM
100
AcDbCircle
 10
95.375
 20
150.375
 30
0.0
 40
2.0
  0
DIMENSION
  5
E4
330
1F
100
AcDbEntity
  8
Z_OM_DIM
100
AcDbDimension
  2
*D4
 10
108.7064279683
 20
150.375
 30
0.0
 11
108.7064279683
 21
145.787
 31
0.0
 70
   160
 71
     1
 42
2.5
  3
SLDDIMSTYLE0
100
AcDbAlignedDimension
 13
100.3582885661
 23
152.875
 33
0.0
 14
98.0944631974
 24
150.375
 34
0.0
 50
90.0
100
AcDbRotatedDimension
1001
ACAD
1000
DSTYLE
1002
{
1070
    77
1070
     3
1070
   143
1040
0.0393700787
1070
    41
1040
3.0
1070
    44
1040
1.0
1070
    42
1040
1.0
1070
   147
1040
1.524
1070
    73
1070
     0
1070
    74
1070
     0
1070
   140
1040
2.2
1070
   284
1070
    12
1070
    78
1070
    12
1002
}
  0
DIMENSION
  5
104
330
1F
100
AcDbEntity
  8
Z_OM_DIM
100
AcDbDimension
  2
*D6
 10
108.7064279683
 20
152.875
 30
0.0
 11
108.7064279683
 21
159.963
 31
0.0
 70
   160
 71
     1
 42
2.5
  3
SLDDIMSTYLE0
100
AcDbAlignedDimension
 13
98.0944631974
 23
155.375
 33
0.0
 14
100.3582885661
 24
152.875
 34
0.0
 50
90.0
100
AcDbRotatedDimension
1001
ACAD
1000
DSTYLE
1002
{
1070
    77
1070
     3
1070
   143
1040
0.0393700787
1070
    41
1040
3.0
1070
    44
1040
1.0
1070
    42
1040
1.0
1070
   147
1040
1.524
1070
    73
1070
     0
1070
    74
1070
     0
1070
   140
1040
2.2
1070
   284
1070
    12
1070
    78
1070
    12
1002
}
  0
DIMENSION
  5
11E
330
1F
100
AcDbEntity
  8
Z_OM_DIM
100
AcDbDimension
  2
*D7
 10
98.675
 20
123.9268668705
 30
0.0
 11
95.375
 21
123.9268668705
 31
0.0
 70
   160
 71
     1
 42
6.6
  3
SLDDIMSTYLE0
100
AcDbAlignedDimension
 13
92.075
 23
141.5750000001
 33
0.0
 14
98.675
 24
141.5750000001
 34
0.0
100
AcDbRotatedDimension
1001
ACAD
1000
DSTYLE
1002
{
1070
    77
1070
     3
1070
   143
1040
0.0393700787
1070
    41
1040
3.0
1070
    44
1040
1.0
1070
    42
1040
1.0
1070
   147
1040
1.524
1070
    73
1070
     0
1070
    74
1070
     0
1070
   140
1040
2.2
1070
   284
1070
    12
1070
    78
1070
    12
1002
}
  0
DIMENSION
  5
136
330
1F
100
AcDbEntity
  8
Z_OM_DIM
100
AcDbDimension
  2
*D8
 10
98.875
 20
172.4232548117
 30
0.0
 11
95.375
 21
172.4232548117
 31
0.0
 70
   160
 71
     1
 42
7.0
  3
SLDDIMSTYLE1
100
AcDbAlignedDimension
 13
91.875
 23
163.175
 33
0.0
 14
98.875
 24
163.175
 34
0.0
100
AcDbRotatedDimension
1001
ACAD
1000
DSTYLE
1002
{
1070
    77
1070
     3
1070
   143
1040
0.0393700787
1070
    41
1040
3.0
1070
    44
1040
1.0
1070
    42
1040
1.0
1070
   147
1040
1.524
1070
    73
1070
     0
1070
    74
1070
     0
1070
   140
1040
2.2
1070
   284
1070
    12
1070
    78
1070
    12
1002
}
  0
DIMENSION
  5
14F
330
1F
100
AcDbEntity
  8
Z_OM_DIM
100
AcDbDimension
  2
*D9
 10
96.525
 20
169.0112375474
 30
0.0
 11
89.499847614
 21
169.0112375474
 31
0.0
 70
   160
 71
     1
 42
2.3
  3
SLDDIMSTYLE0
100
AcDbAlignedDimension
 13
94.225
 23
160.8883851735
 33
0.0
 14
96.525
 24
160.8883851735
 34
0.0
100
AcDbRotatedDimension
1001
ACAD
1000
DSTYLE
1002
{
1070
    77
1070
     3
1070
   143
1040
0.0393700787
1070
    41
1040
3.0
1070
    44
1040
1.0
1070
    42
1040
1.0
1070
   147
1040
1.524
1070
    73
1070
     0
1070
    74
1070
     0
1070
   140
1040
2.2
1070
   284
1070
    12
1070
    78
1070
    12
1002
}
  0
DIMENSION
  5
16B
330
1F
100
AcDbEntity
  8
Z_OM_DIM
100
AcDbDimension
  2
*D10
 10
104.4995292676
 20
160.275
 30
0.0
 11
104.4995292676
 21
167.763
 31
0.0
 70
   160
 71
     1
 42
2.9
  3
SLDDIMSTYLE0
100
AcDbAlignedDimension
 13
98.875
 23
163.175
 33
0.0
 14
97.8247048628
 24
160.275
 34
0.0
 50
90.0
100
AcDbRotatedDimension
1001
ACAD
1000
DSTYLE
1002
{
1070
    77
1070
     3
1070
   143
1040
0.0393700787
1070
    41
1040
3.0
1070
    44
1040
1.0
1070
    42
1040
1.0
1070
   147
1040
1.524
1070
    73
1070
     0
1070
    74
1070
     0
1070
   140
1040
2.2
1070
   284
1070
    12
1070
    78
1070
    12
1002
}
  0
DIMENSION
  5
186
330
1F
100
AcDbEntity
  8
Z_OM_DIM
100
AcDbDimension
  2
*D11
 10
104.1331659856
 20
181.8253218564
 30
0.0
 11
104.1331659856
 21
187.3253218564
 31
0.0
 70
   160
 71
     1
 42
11.0
  3
SLDDIMSTYLE1
100
AcDbAlignedDimension
 13
98.875
 23
192.8253218564
 33
0.0
 14
98.875
 24
181.8253218564
 34
0.0
 50
90.0
100
AcDbRotatedDimension
1001
ACAD
1000
DSTYLE
1002
{
1070
    77
1070
     3
1070
   143
1040
0.0393700787
1070
    41
1040
3.0
1070
    44
1040
1.0
1070
    42
1040
1.0
1070
   147
1040
1.524
1070
    73
1070
     0
1070
    74
1070
     0
1070
   140
1040
2.2
1070
   284
1070
    12
1070
    78
1070
    12
1002
}
  0
DIMENSION
  5
19E
330
1F
100
AcDbEntity
  8
Z_OM_DIM
100
AcDbDimension
  2
*D12
 10
137.1174569671
 20
159.375
 30
0.0
 11
137.1174569671
 21
151.875
 31
0.0
 70
   160
 71
     1
 42
15.0
  3
SLDDIMSTYLE1
100
AcDbAlignedDimension
 13
130.1840893605
 23
144.375
 33
0.0
 14
130.1840893605
 24
159.375
 34
0.0
 50
90.0
100
AcDbRotatedDimension
1001
ACAD
1000
DSTYLE
1002
{
1070
    77
1070
     3
1070
   143
1040
0.0393700787
1070
    41
1040
3.0
1070
    44
1040
1.0
1070
    42
1040
1.0
1070
   147
1040
1.524
1070
    73
1070
     0
1070
    74
1070
     0
1070
   140
1040
2.2
1070
   284
1070
    12
1070
    78
1070
    12
1002
}
  0
DIMENSION
  5
1B6
330
1F
100
AcDbEntity
  8
Z_OM_DIM
100
AcDbDimension
  2
*D13
 10
145.0978515226
 20
138.675
 30
0.0
 11
145.0978515226
 21
150.925
 31
0.0
 70
   160
 71
     1
 42
24.5
  3
SLDDIMSTYLE0
100
AcDbAlignedDimension
 13
125.8913264042
 23
163.175
 33
0.0
 14
126.8984345044
 24
138.675
 34
0.0
 50
90.0
100
AcDbRotatedDimension
1001
ACAD
1000
DSTYLE
1002
{
1070
    77
1070
     3
1070
   143
1040
0.0393700787
1070
    41
1040
3.0
1070
    44
1040
1.0
1070
    42
1040
1.0
1070
   147
1040
1.524
1070
    73
1070
     0
1070
    74
1070
     0
1070
   140
1040
2.2
1070
   284
1070
    12
1070
    78
1070
    12
1002
}
  0
DIMENSION
  5
1CE
330
1F
100
AcDbEntity
  8
Z_OM_DIM
100
AcDbDimension
  2
*D14
 10
140.8591349526
 20
142.575
 30
0.0
 11
140.8591349526
 21
152.875
 31
0.0
 70
   160
 71
     1
 42
20.6
  3
SLDDIMSTYLE0
100
AcDbAlignedDimension
 13
125.8913264042
 23
163.175
 33
0.0
 14
127.3984345044
 24
142.575
 34
0.0
 50
90.0
100
AcDbRotatedDimension
1001
ACAD
1000
DSTYLE
1002
{
1070
    77
1070
     3
1070
   143
1040
0.0393700787
1070
    41
1040
3.0
1070
    44
1040
1.0
1070
    42
1040
1.0
1070
   147
1040
1.524
1070
    73
1070
     0
1070
    74
1070
     0
1070
   140
1040
2.2
1070
   284
1070
    12
1070
    78
1070
    12
1002
}
  0
DIMENSION
  5
1E6
330
1F
100
AcDbEntity
  8
Z_OM_DIM
100
AcDbDimension
  2
*D15
 10
133.1613265605
 20
152.875
 30
0.0
 11
133.1613265605
 21
156.125
 31
0.0
 70
   160
 71
     1
 42
6.5
  3
SLDDIMSTYLE0
100
AcDbAlignedDimension
 13
130.1840893605
 23
159.375
 33
0.0
 14
128.9507166053
 24
152.875
 34
0.0
 50
90.0
100
AcDbRotatedDimension
1001
ACAD
1000
DSTYLE
1002
{
1070
    77
1070
     3
1070
   143
1040
0.0393700787
1070
    41
1040
3.0
1070
    44
1040
1.0
1070
    42
1040
1.0
1070
   147
1040
1.524
1070
    73
1070
     0
1070
    74
1070
     0
1070
   140
1040
2.2
1070
   284
1070
    12
1070
    78
1070
    12
1002
}
  0
DIMENSION
  5
1FE
330
1F
100
AcDbEntity
  8
Z_OM_DIM
100
AcDbDimension
  2
*D16
 10
127.0984345044
 20
124.2106658169
 30
0.0
 11
117.3104345044
 21
124.2106658169
 31
0.0
 70
   160
 71
     1
 42
5.2
  3
SLDDIMSTYLE0
100
AcDbAlignedDimension
 13
121.8984345044
 23
141.5750000001
 33
0.0
 14
127.0984345044
 24
141.5750000001
 34
0.0
100
AcDbRotatedDimension
1001
ACAD
1000
DSTYLE
1002
{
1070
    77
1070
     3
1070
   143
1040
0.0393700787
1070
    41
1040
3.0
1070
    44
1040
1.0
1070
    42
1040
1.0
1070
   147
1040
1.524
1070
    73
1070
     0
1070
    74
1070
     0
1070
   140
1040
2.2
1070
   284
1070
    12
1070
    78
1070
    12
1002
}
  0
DIMENSION
  5
21A
330
1F
100
AcDbEntity
  8
Z_OM_DIM
100
AcDbDimension
  2
*D17
 10
124.4984345044
 20
132.9783794011
 30
0.0
 11
113.2104345044
 21
132.9783794011
 31
0.0
 70
   160
 71
     1
 42
6.3
  3
SLDDIMSTYLE0
100
AcDbAlignedDimension
 13
118.1984345044
 23
145.375
 33
0.0
 14
124.4984345044
 24
126.8440442539
 34
0.0
100
AcDbRotatedDimension
1001
ACAD
1000
DSTYLE
1002
{
1070
    77
1070
     3
1070
   143
1040
0.0393700787
1070
    41
1040
3.0
1070
    44
1040
1.0
1070
    42
1040
1.0
1070
   147
1040
1.524
1070
    73
1070
     0
1070
    74
1070
     0
1070
   140
1040
2.2
1070
   284
1070
    12
1070
    78
1070
    12
1002
}
  0
DIMENSION
  5
236
330
1F
100
AcDbEntity
  8
Z_OM_DIM
100
AcDbDimension
  2
*D18
 10
1.4496455322
 20
1.6428190388
 30
0.0
 11
133.9412161691
 21
-4.498892191
 31
0.0
 70
   163
  1
2-<>
 71
     1
 42
2.1909647563
  3
SLDDIMSTYLE2
100
AcDbDiametricDimension
 15
0.0
 25
0.0
 35
0.0
 40
0.0
1001
ACAD
1000
DSTYLE
1002
{
1070
    77
1070
     0
1070
   143
1040
0.0393700787
1070
    41
1040
3.0
1070
    44
1040
1.0
1070
    42
1040
1.0
1070
   147
1040
1.524
1070
    73
1070
     1
1070
    74
1070
     1
1070
   140
1040
2.2
1070
   284
1070
    12
1070
    78
1070
    12
1002
}
  0
DIMENSION
  5
24D
330
1F
100
AcDbEntity
  8
Z_OM_DIM
100
AcDbDimension
  2
*D19
 10
127.3984345044
 20
166.213665024
 30
0.0
 11
122.7984345193
 21
166.213665024
 31
0.0
 70
   160
 71
     1
 42
9.1999999702
  3
SLDDIMSTYLE0
100
AcDbAlignedDimension
 13
118.1984345342
 23
160.6750000894
 33
0.0
 14
127.3984345044
 24
162.404982069
 34
0.0
100
AcDbRotatedDimension
1001
ACAD
1000
DSTYLE
1002
{
1070
    77
1070
     3
1070
   143
1040
0.0393700787
1070
    41
1040
3.0
1070
    44
1040
1.0
1070
    42
1040
1.0
1070
   147
1040
1.524
1070
    73
1070
     0
1070
    74
1070
     0
1070
   140
1040
2.2
1070
   284
1070
    12
1070
    78
1070
    12
1002
}
  0
DIMENSION
  5
264
330
1F
100
AcDbEntity
  8
Z_OM_DIM
100
AcDbDimension
  2
*D20
 10
133.1613265605
 20
159.375
 30
0.0
 11
133.1613265605
 21
168.163
 31
0.0
 70
   160
 71
     1
 42
3.8
  3
SLDDIMSTYLE0
100
AcDbAlignedDimension
 13
125.8913264042
 23
163.175
 33
0.0
 14
130.1840893605
 24
159.375
 34
0.0
 50
90.0
100
AcDbRotatedDimension
1001
ACAD
1000
DSTYLE
1002
{
1070
    77
1070
     3
1070
   143
1040
0.0393700787
1070
    41
1040
3.0
1070
    44
1040
1.0
1070
    42
1040
1.0
1070
   147
1040
1.524
1070
    73
1070
     0
1070
    74
1070
     0
1070
   140
1040
2.2
1070
   284
1070
    12
1070
    78
1070
    12
1002
}
  0
MTEXT
  5
27F
330
1F
100
AcDbEntity
  8
Z_OM_NOTE
100
AcDbMText
 10
60.8713430698
 20
170.4910956557
 30
0.0
 40
1.1
 41
0.0
 71
     1
 72
     1
  1
OPERATING INDICATOR
  7
SLDTEXTSTYLE0
 73
     1
 44
1.0
  0
MTEXT
  5
280
330
1F
100
AcDbEntity
  8
Z_OM_NOTE
100
AcDbMText
 10
106.3767002004
 20
174.2043316644
 30
0.0
 40
1.1
 41
0.0
 71
     1
 72
     1
  1
STABILITY INDICATOR
  7
SLDTEXTSTYLE0
 73
     1
 44
1.0
  0
MTEXT
  5
281
330
1F
100
AcDbEntity
  8
Z_OM_NOTE
100
AcDbMText
 10
72.2770558614
 20
156.996948806
 30
0.0
 40
1.1
 41
0.0
 71
     1
 72
     1
  1
OPTICAL AXIS
  7
SLDTEXTSTYLE0
 73
     1
 44
1.0
  0
MTEXT
  5
283
330
1F
100
AcDbEntity
  8
SLD-0_0
 62
     7
100
AcDbMText
 10
151.3423141558
 20
29.8867574891
 30
0.0
 40
4.2333333333
 41
0.0
 71
     1
 72
     1
  1
E3T-SL21R
  7
SLDTEXTSTYLE5
 73
     1
 44
1.0
  0
MTEXT
  5
284
330
1F
100
AcDbEntity
  8
SLD-0_0
 62
     7
100
AcDbMText
 10
147.6367792695
 20
43.410571106
 30
0.0
 40
4.2333333333
 41
0.0
 71
     1
 72
     1
  1
光電センサー
  7
SLDTEXTSTYLE5
 73
     1
 44
1.0
  0
MTEXT
  5
285
330
1F
100
AcDbEntity
  8
SLD-0_0
 62
     7
100
AcDbMText
 10
156.6794539725
 20
18.333740507
 30
0.0
 40
4.2333333333
 41
0.0
 71
     1
 72
     1
  1
041649
  7
SLDTEXTSTYLE5
 73
     1
 44
1.0
  0
INSERT
  5
286
330
1F
100
AcDbEntity
  8
0
  6
Continuous
 62
     7
370
     0
100
AcDbBlockReference
  2
SW_NOTE_0
 10
71.8638023096
 20
163.6045754174
 30
0.0
  0
INSERT
  5
287
330
1F
100
AcDbEntity
  8
0
  6
Continuous
 62
     7
370
     0
100
AcDbBlockReference
  2
SW_NOTE_1
 10
71.054851949
 20
150.2929570675
 30
0.0
  0
INSERT
  5
288
330
1F
100
AcDbEntity
  8
0
  6
Continuous
 62
     7
370
     0
100
AcDbBlockReference
  2
SW_NOTE_2
 10
55.2494419053
 20
131.2289185931
 30
0.0
  0
ENDSEC
  0
SECTION
  2
OBJECTS
  0
DICTIONARY
  5
C
330
0
100
AcDbDictionary
281
     1
  3
ACAD_GROUP
350
D
  3
ACAD_LAYOUT
350
1A
  3
ACAD_MLINESTYLE
350
17
  3
ACAD_PLOTSETTINGS
350
19
  3
ACAD_PLOTSTYLENAME
350
E
  0
DICTIONARY
  5
D
102
{ACAD_REACTORS
330
C
102
}
330
C
100
AcDbDictionary
281
     1
  0
DICTIONARY
  5
1A
102
{ACAD_REACTORS
330
C
102
}
330
C
100
AcDbDictionary
281
     1
  3
Layout1
350
1E
  3
Layout2
350
26
  3
Model
350
22
  0
DICTIONARY
  5
17
102
{ACAD_REACTORS
330
C
102
}
330
C
100
AcDbDictionary
281
     1
  3
Standard
350
18
  0
DICTIONARY
  5
19
102
{ACAD_REACTORS
330
C
102
}
330
C
100
AcDbDictionary
281
     1
  0
ACDBDICTIONARYWDFLT
  5
E
102
{ACAD_REACTORS
330
C
102
}
330
C
100
AcDbDictionary
281
     1
  3
Normal
350
F
100
AcDbDictionaryWithDefault
340
F
  0
LAYOUT
  5
1E
102
{ACAD_REACTORS
330
1A
102
}
330
1A
100
AcDbPlotSettings
  1

  2

  4

  6

 40
0.0
 41
0.0
 42
0.0
 43
0.0
 44
0.0
 45
0.0
 46
0.0
 47
0.0
 48
0.0
 49
0.0
140
0.0
141
0.0
142
1.0
143
1.0
 70
   688
 72
     0
 73
     0
 74
     5
  7

 75
    16
147
1.0
148
0.0
149
0.0
100
AcDbLayout
  1
Layout1
 70
     1
 71
     1
 10
0.0
 20
0.0
 11
0.0
 21
0.0
 12
0.0
 22
0.0
 32
0.0
 14
0.0
 24
0.0
 34
0.0
 15
0.0
 25
0.0
 35
0.0
146
0.0
 13
0.0
 23
0.0
 33
0.0
 16
1.0
 26
0.0
 36
0.0
 17
0.0
 27
1.0
 37
0.0
 76
     0
330
1B
  0
LAYOUT
  5
26
102
{ACAD_REACTORS
330
1A
102
}
330
1A
100
AcDbPlotSettings
  1

  2

  4

  6

 40
0.0
 41
0.0
 42
0.0
 43
0.0
 44
0.0
 45
0.0
 46
0.0
 47
0.0
 48
0.0
 49
0.0
140
0.0
141
0.0
142
1.0
143
1.0
 70
   688
 72
     0
 73
     0
 74
     5
  7

 75
    16
147
1.0
148
0.0
149
0.0
100
AcDbLayout
  1
Layout2
 70
     1
 71
     2
 10
0.0
 20
0.0
 11
0.0
 21
0.0
 12
0.0
 22
0.0
 32
0.0
 14
0.0
 24
0.0
 34
0.0
 15
0.0
 25
0.0
 35
0.0
146
0.0
 13
0.0
 23
0.0
 33
0.0
 16
1.0
 26
0.0
 36
0.0
 17
0.0
 27
1.0
 37
0.0
 76
     0
330
23
  0
LAYOUT
  5
22
102
{ACAD_REACTORS
330
1A
102
}
330
1A
100
AcDbPlotSettings
  1

  2

  4

  6

 40
0.0
 41
0.0
 42
0.0
 43
0.0
 44
0.0
 45
0.0
 46
0.0
 47
0.0
 48
0.0
 49
0.0
140
0.0
141
0.0
142
1.0
143
1.0
 70
  1712
 72
     0
 73
     0
 74
     0
  7

 75
     0
147
1.0
148
0.0
149
0.0
100
AcDbLayout
  1
Model
 70
     1
 71
     0
 10
0.0
 20
0.0
 11
0.0
 21
0.0
 12
0.0
 22
0.0
 32
0.0
 14
0.0
 24
0.0
 34
0.0
 15
210.0
 25
297.0
 35
0.0
146
0.0
 13
0.0
 23
0.0
 33
0.0
 16
1.0
 26
0.0
 36
0.0
 17
0.0
 27
1.0
 37
0.0
 76
     0
330
1F
  0
MLINESTYLE
  5
18
102
{ACAD_REACTORS
330
17
102
}
330
17
100
AcDbMlineStyle
  2
Standard
 70
     0
  3

 62
   256
 51
90.0
 52
90.0
 71
     2
 49
0.5
 62
   256
  6
BYLAYER
 49
-0.5
 62
   256
  6
BYLAYER
  0
ACDBPLACEHOLDER
  5
F
102
{ACAD_REACTORS
330
E
102
}
330
E
  0
ENDSEC
  0
EOF
