  0
SECTION
  2
HEADER
  9
$ACADVER
  1
AC1012
  9
$DWGCODEPAGE
  3
dos932
  9
$INSBASE
 10
0.0
 20
0.0
 30
0.0
  9
$EXTMIN
 10
-36.7218821492948
 20
-97.22744711478274
 30
-0.0000000000112498
  9
$EXTMAX
 10
128.9982731900731
 20
27.8129882119411
 30
0.0000000000002956
  9
$LIMMIN
 10
0.0
 20
0.0
  9
$LIMMAX
 10
12.0
 20
9.0
  9
$ORTHOMODE
 70
     1
  9
$REGENMODE
 70
     1
  9
$FILLMODE
 70
     1
  9
$QTEXTMODE
 70
     0
  9
$MIRRTEXT
 70
     1
  9
$DRAGMODE
 70
     2
  9
$LTSCALE
 40
1.0
  9
$OSMODE
 70
   551
  9
$ATTMODE
 70
     1
  9
$TEXTSIZE
 40
1.5
  9
$TRACEWID
 40
0.05
  9
$TEXTSTYLE
  7
STANDARD
  9
$CLAYER
  8
0
  9
$CELTYPE
  6
BYLAYER
  9
$CECOLOR
 62
   256
  9
$CELTSCALE
 40
1.0
  9
$DELOBJ
 70
     1
  9
$DISPSILH
 70
     0
  9
$DIMSCALE
 40
1.0
  9
$DIMASZ
 40
3.0
  9
$DIMEXO
 40
0.5
  9
$DIMDLI
 40
8.0
  9
$DIMRND
 40
0.0
  9
$DIMDLE
 40
0.0
  9
$DIMEXE
 40
1.5
  9
$DIMTP
 40
0.0
  9
$DIMTM
 40
0.0
  9
$DIMTXT
 40
2.2
  9
$DIMCEN
 40
5.0
  9
$DIMTSZ
 40
0.0
  9
$DIMTOL
 70
     0
  9
$DIMLIM
 70
     0
  9
$DIMTIH
 70
     0
  9
$DIMTOH
 70
     0
  9
$DIMSE1
 70
     0
  9
$DIMSE2
 70
     0
  9
$DIMTAD
 70
     1
  9
$DIMZIN
 70
     8
  9
$DIMBLK
  1
OPEN30
  9
$DIMASO
 70
     1
  9
$DIMSHO
 70
     1
  9
$DIMPOST
  1

  9
$DIMAPOST
  1

  9
$DIMALT
 70
     0
  9
$DIMALTD
 70
     2
  9
$DIMALTF
 40
25.4
  9
$DIMLFAC
 40
1.0
  9
$DIMTOFL
 70
     1
  9
$DIMTVP
 40
0.0
  9
$DIMTIX
 70
     0
  9
$DIMSOXD
 70
     0
  9
$DIMSAH
 70
     0
  9
$DIMBLK1
  1

  9
$DIMBLK2
  1

  9
$DIMSTYLE
  2
STANDARD
  9
$DIMCLRD
 70
   256
  9
$DIMCLRE
 70
   256
  9
$DIMCLRT
 70
   256
  9
$DIMTFAC
 40
1.0
  9
$DIMGAP
 40
0.8
  9
$DIMJUST
 70
     0
  9
$DIMSD1
 70
     0
  9
$DIMSD2
 70
     0
  9
$DIMTOLJ
 70
     1
  9
$DIMTZIN
 70
     0
  9
$DIMALTZ
 70
     0
  9
$DIMALTTZ
 70
     0
  9
$DIMFIT
 70
     1
  9
$DIMUPT
 70
     0
  9
$DIMUNIT
 70
     2
  9
$DIMDEC
 70
     4
  9
$DIMTDEC
 70
     4
  9
$DIMALTU
 70
     2
  9
$DIMALTTD
 70
     2
  9
$DIMTXSTY
  7
STANDARD
  9
$DIMAUNIT
 70
     0
  9
$LUNITS
 70
     2
  9
$LUPREC
 70
     2
  9
$SKETCHINC
 40
0.1
  9
$FILLETRAD
 40
0.0
  9
$AUNITS
 70
     0
  9
$AUPREC
 70
     2
  9
$MENU
  1
acad
  9
$ELEVATION
 40
0.0
  9
$PELEVATION
 40
0.0
  9
$THICKNESS
 40
0.0
  9
$LIMCHECK
 70
     0
  9
$BLIPMODE
 70
     0
  9
$CHAMFERA
 40
0.0
  9
$CHAMFERB
 40
0.0
  9
$CHAMFERC
 40
0.0
  9
$CHAMFERD
 40
0.0
  9
$SKPOLY
 70
     0
  9
$TDCREATE
 40
2453838.618339479
  9
$TDUPDATE
 40
2453902.351087778
  9
$TDINDWG
 40
0.0272880440
  9
$TDUSRTIMER
 40
0.0272880440
  9
$USRTIMER
 70
     1
  9
$ANGBASE
 50
0.0
  9
$ANGDIR
 70
     0
  9
$PDMODE
 70
     0
  9
$PDSIZE
 40
0.0
  9
$PLINEWID
 40
0.0
  9
$COORDS
 70
     2
  9
$SPLFRAME
 70
     0
  9
$SPLINETYPE
 70
     6
  9
$SPLINESEGS
 70
     8
  9
$ATTDIA
 70
     0
  9
$ATTREQ
 70
     1
  9
$HANDLING
 70
     1
  9
$HANDSEED
  5
1672
  9
$SURFTAB1
 70
     6
  9
$SURFTAB2
 70
     6
  9
$SURFTYPE
 70
     6
  9
$SURFU
 70
     6
  9
$SURFV
 70
     6
  9
$UCSNAME
  2

  9
$UCSORG
 10
0.0
 20
0.0
 30
0.0
  9
$UCSXDIR
 10
1.0
 20
0.0
 30
0.0
  9
$UCSYDIR
 10
0.0
 20
1.0
 30
0.0
  9
$PUCSNAME
  2

  9
$PUCSORG
 10
0.0
 20
0.0
 30
0.0
  9
$PUCSXDIR
 10
1.0
 20
0.0
 30
0.0
  9
$PUCSYDIR
 10
0.0
 20
1.0
 30
0.0
  9
$USERI1
 70
     0
  9
$USERI2
 70
     0
  9
$USERI3
 70
     0
  9
$USERI4
 70
     0
  9
$USERI5
 70
     0
  9
$USERR1
 40
0.0
  9
$USERR2
 40
0.0
  9
$USERR3
 40
0.0
  9
$USERR4
 40
0.0
  9
$USERR5
 40
0.0
  9
$WORLDVIEW
 70
     1
  9
$SHADEDGE
 70
     3
  9
$SHADEDIF
 70
    70
  9
$TILEMODE
 70
     1
  9
$MAXACTVP
 70
    16
  9
$PINSBASE
 10
0.0
 20
0.0
 30
0.0
  9
$PLIMCHECK
 70
     0
  9
$PEXTMIN
 10
1.000000000000000E+20
 20
1.000000000000000E+20
 30
1.000000000000000E+20
  9
$PEXTMAX
 10
-1.000000000000000E+20
 20
-1.000000000000000E+20
 30
-1.000000000000000E+20
  9
$PLIMMIN
 10
0.0
 20
0.0
  9
$PLIMMAX
 10
12.0
 20
9.0
  9
$UNITMODE
 70
     0
  9
$VISRETAIN
 70
     0
  9
$PLINEGEN
 70
     0
  9
$PSLTSCALE
 70
     1
  9
$TREEDEPTH
 70
  3020
  9
$PICKSTYLE
 70
     1
  9
$CMLSTYLE
  2
STANDARD
  9
$CMLJUST
 70
     0
  9
$CMLSCALE
 40
1.0
  9
$SAVEIMAGES
 70
     1
  0
ENDSEC
  0
SECTION
  2
CLASSES
  0
CLASS
  1
ACDBDICTIONARYWDFLT
  2
AcDbDictionaryWithDefault
  3
AutoCAD 2000
 90
    32768
280
     0
281
     0
  0
CLASS
  1
ACDBPLACEHOLDER
  2
AcDbPlaceHolder
  3
AutoCAD 2000
 90
    32768
280
     0
281
     0
  0
CLASS
  1
LAYOUT
  2
AcDbLayout
  3
AutoCAD 2000
 90
    32768
280
     0
281
     0
  0
CLASS
  1
DICTIONARYVAR
  2
AcDbDictionaryVar
  3
AutoCAD 2000
 90
    32768
280
     0
281
     0
  0
CLASS
  1
LONG_TRANSACTION
  2
AcDbLongTransaction
  3
AutoCAD 2000
 90
    32768
280
     0
281
     0
  0
CLASS
  1
LWPOLYLINE
  2
AcDbPolyline
  3
AutoCAD 2000
 90
    32768
280
     0
281
     1
  0
CLASS
  1
HATCH
  2
AcDbHatch
  3
AutoCAD 2000
 90
    32768
280
     0
281
     1
  0
CLASS
  1
XRECORD
  2
AcDbXrecord
  3
AutoCAD 2000
 90
    32768
280
     0
281
     0
  0
CLASS
  1
LONG_TRANSACTION
  2
AcDbLongTransaction
  3
AutoCAD 2000
 90
    32768
280
     0
281
     0
  0
CLASS
  1
LWPOLYLINE
  2
AcDbPolyline
  3
AutoCAD 2000
 90
    32768
280
     0
281
     1
  0
CLASS
  1
HATCH
  2
AcDbHatch
  3
AutoCAD 2000
 90
    32768
280
     0
281
     1
  0
CLASS
  1
XRECORD
  2
AcDbXrecord
  3
AutoCAD 2000
 90
    32768
280
     0
281
     0
  0
CLASS
  1
LONG_TRANSACTION
  2
AcDbLongTransaction
  3
AutoCAD 2000
 90
    32768
280
     0
281
     0
  0
CLASS
  1
LWPOLYLINE
  2
AcDbPolyline
  3
AutoCAD 2000
 90
    32768
280
     0
281
     1
  0
CLASS
  1
HATCH
  2
AcDbHatch
  3
AutoCAD 2000
 90
    32768
280
     0
281
     1
  0
CLASS
  1
XRECORD
  2
AcDbXrecord
  3
AutoCAD 2000
 90
    32768
280
     0
281
     0
  0
CLASS
  1
LONG_TRANSACTION
  2
AcDbLongTransaction
  3
AutoCAD 2000
 90
    32768
280
     0
281
     0
  0
CLASS
  1
LWPOLYLINE
  2
AcDbPolyline
  3
AutoCAD 2000
 90
    32768
280
     0
281
     1
  0
CLASS
  1
HATCH
  2
AcDbHatch
  3
AutoCAD 2000
 90
    32768
280
     0
281
     1
  0
CLASS
  1
XRECORD
  2
AcDbXrecord
  3
AutoCAD 2000
 90
    32768
280
     0
281
     0
  0
ENDSEC
  0
SECTION
  2
TABLES
  0
TABLE
  2
VPORT
  5
8
330
0
100
AcDbSymbolTable
 70
     3
  0
VPORT
  5
166F
330
8
100
AcDbSymbolTableRecord
100
AcDbViewportTableRecord
  2
*ACTIVE
 70
     0
 10
0.0
 20
0.0
 11
1.0
 21
1.0
 12
46.13819552038915
 22
-34.70722945142081
 13
0.0
 23
0.0
 14
1.0
 24
1.0
 15
0.0
 25
0.0
 16
0.0
 26
0.0
 36
1.0
 17
0.0
 27
0.0
 37
0.0
 40
126.5057529282088
 41
2.221135029354207
 42
50.0
 43
0.0
 44
0.0
 50
0.0
 51
0.0
 71
     0
 72
   100
 73
     1
 74
     1
 75
     0
 76
     0
 77
     0
 78
     0
  0
ENDTAB
  0
TABLE
  2
LTYPE
  5
5
330
0
100
AcDbSymbolTable
 70
     4
  0
LTYPE
  5
11
330
5
100
AcDbSymbolTableRecord
100
AcDbLinetypeTableRecord
  2
BYBLOCK
 70
     0
  3

 72
    65
 73
     0
 40
0.0
  0
LTYPE
  5
12
330
5
100
AcDbSymbolTableRecord
100
AcDbLinetypeTableRecord
  2
BYLAYER
 70
     0
  3

 72
    65
 73
     0
 40
0.0
  0
LTYPE
  5
13
330
5
100
AcDbSymbolTableRecord
100
AcDbLinetypeTableRecord
  2
CONTINUOUS
 70
     0
  3
Solid line
 72
    65
 73
     0
 40
0.0
  0
LTYPE
  5
1D
330
5
100
AcDbSymbolTableRecord
100
AcDbLinetypeTableRecord
  2
CENTER
 70
     0
  3
____ _ ____ _ ____ _ ____ _ ____ _ ____ _ ____ 
 72
    65
 73
     4
 40
2.0
 49
1.25
 74
     0
 49
-0.25
 74
     0
 49
0.25
 74
     0
 49
-0.25
 74
     0
  0
LTYPE
  5
1E
330
5
100
AcDbSymbolTableRecord
100
AcDbLinetypeTableRecord
  2
PHANTOM
 70
     0
  3
______  __  __  ______  __  __  ______  __  __ 
 72
    65
 73
     6
 40
2.5
 49
1.25
 74
     0
 49
-0.25
 74
     0
 49
0.25
 74
     0
 49
-0.25
 74
     0
 49
0.25
 74
     0
 49
-0.25
 74
     0
  0
LTYPE
  5
1F
330
5
100
AcDbSymbolTableRecord
100
AcDbLinetypeTableRecord
  2
DASHED
 70
     0
  3
__ __ __ __ __ __ __ __ __ __ __ __ __ __ __ __
 72
    65
 73
     2
 40
0.75
 49
0.5
 74
     0
 49
-0.25
 74
     0
  0
ENDTAB
  0
TABLE
  2
LAYER
  5
2
330
0
100
AcDbSymbolTable
 70
    11
  0
LAYER
  5
E
330
2
100
AcDbSymbolTableRecord
100
AcDbLayerTableRecord
  2
0
 70
     0
 62
     7
  6
CONTINUOUS
  0
LAYER
  5
23
330
2
100
AcDbSymbolTableRecord
100
AcDbLayerTableRecord
  2
Z_OM_OUTLINE
 70
     0
 62
     7
  6
CONTINUOUS
  0
LAYER
  5
24
330
2
100
AcDbSymbolTableRecord
100
AcDbLayerTableRecord
  2
Z_OM_MOUNT
 70
     0
 62
     7
  6
CONTINUOUS
  0
LAYER
  5
25
330
2
100
AcDbSymbolTableRecord
100
AcDbLayerTableRecord
  2
Z_OM_NOTE
 70
     0
 62
     4
  6
CONTINUOUS
  0
LAYER
  5
26
330
2
100
AcDbSymbolTableRecord
100
AcDbLayerTableRecord
  2
Z_OM_CENTER
 70
     0
 62
     2
  6
CENTER
  0
LAYER
  5
27
330
2
100
AcDbSymbolTableRecord
100
AcDbLayerTableRecord
  2
Z_OM_DIM
 70
     0
 62
     4
  6
CONTINUOUS
  0
LAYER
  5
28
330
2
100
AcDbSymbolTableRecord
100
AcDbLayerTableRecord
  2
Z_OM_PHANTOM
 70
     0
 62
     3
  6
PHANTOM
  0
LAYER
  5
29
330
2
100
AcDbSymbolTableRecord
100
AcDbLayerTableRecord
  2
Z_OM_DASHED
 70
     0
 62
     2
  6
DASHED
  0
LAYER
  5
2A
330
2
100
AcDbSymbolTableRecord
100
AcDbLayerTableRecord
  2
Z_OM_BRACKET
 70
     0
 62
     3
  6
CONTINUOUS
  0
LAYER
  5
2B
330
2
100
AcDbSymbolTableRecord
100
AcDbLayerTableRecord
  2
DEFPOINTS
 70
     0
 62
     7
  6
CONTINUOUS
  0
LAYER
  5
983
330
2
100
AcDbSymbolTableRecord
100
AcDbLayerTableRecord
  2
Z_OM_THIN_LINE
 70
     0
 62
     2
  6
CONTINUOUS
  0
ENDTAB
  0
TABLE
  2
STYLE
  5
3
330
0
100
AcDbSymbolTable
 70
     1
  0
STYLE
  5
F
330
3
100
AcDbSymbolTableRecord
100
AcDbTextStyleTableRecord
  2
STANDARD
 70
     0
 40
0.0
 41
1.08
 50
0.0
 71
     0
 42
1.5
  3
txt.shx
  4
bigfont.shx
  0
ENDTAB
  0
TABLE
  2
VIEW
  5
6
330
0
100
AcDbSymbolTable
 70
     0
  0
ENDTAB
  0
TABLE
  2
UCS
  5
7
330
0
100
AcDbSymbolTable
 70
     0
  0
ENDTAB
  0
TABLE
  2
APPID
  5
9
330
0
100
AcDbSymbolTable
 70
     1
  0
APPID
  5
10
330
9
100
AcDbSymbolTableRecord
100
AcDbRegAppTableRecord
  2
ACAD
 70
     0
  0
ENDTAB
  0
TABLE
  2
DIMSTYLE
  5
A
330
0
100
AcDbSymbolTable
 70
     1
  0
DIMSTYLE
105
30
102
{ACAD_REACTORS
330
E72
330
E88
330
E95
330
EA2
330
EB1
330
ECD
330
EC0
330
EE7
330
EF6
330
F50
330
F5F
330
F6E
330
F7D
330
F8C
330
F9B
330
FA8
330
FB5
330
FC4
330
FD1
330
1281
102
}
330
A
100
AcDbSymbolTableRecord
100
AcDbDimStyleTableRecord
  2
STANDARD
 70
     0
  3

  4

  5
OPEN30
  6

  7

 40
1.0
 41
3.0
 42
0.5
 43
8.0
 44
1.5
 45
0.0
 46
0.0
 47
0.0
 48
0.0
140
2.2
141
5.0
142
0.0
143
25.4
144
1.0
145
0.0
146
1.0
147
0.8
 71
     0
 72
     0
 73
     0
 74
     0
 75
     0
 76
     0
 77
     1
 78
     8
170
     0
171
     2
172
     1
173
     0
174
     0
175
     0
176
   256
177
   256
178
   256
270
     2
271
     4
272
     4
273
     2
274
     2
340
F
275
     0
280
     0
281
     0
282
     0
283
     1
284
     0
285
     0
286
     0
287
     1
288
     0
  0
ENDTAB
  0
TABLE
  2
BLOCK_RECORD
  5
1
330
0
100
AcDbSymbolTable
 70
    21
  0
BLOCK_RECORD
  5
17
102
{ACAD_XDICTIONARY
360
145D
102
}
330
1
100
AcDbSymbolTableRecord
100
AcDbBlockTableRecord
  2
*MODEL_SPACE
  0
BLOCK_RECORD
  5
14
102
{ACAD_XDICTIONARY
360
145B
102
}
330
1
100
AcDbSymbolTableRecord
100
AcDbBlockTableRecord
  2
*PAPER_SPACE
  0
BLOCK_RECORD
  5
977
330
1
100
AcDbSymbolTableRecord
100
AcDbBlockTableRecord
  2
_OPEN30
  0
BLOCK_RECORD
  5
E73
330
1
100
AcDbSymbolTableRecord
100
AcDbBlockTableRecord
  2
*D1
  0
BLOCK_RECORD
  5
E89
330
1
100
AcDbSymbolTableRecord
100
AcDbBlockTableRecord
  2
*D2
  0
BLOCK_RECORD
  5
E96
330
1
100
AcDbSymbolTableRecord
100
AcDbBlockTableRecord
  2
*D3
  0
BLOCK_RECORD
  5
EA3
330
1
100
AcDbSymbolTableRecord
100
AcDbBlockTableRecord
  2
*D4
  0
BLOCK_RECORD
  5
EB2
330
1
100
AcDbSymbolTableRecord
100
AcDbBlockTableRecord
  2
*D5
  0
BLOCK_RECORD
  5
EC1
330
1
100
AcDbSymbolTableRecord
100
AcDbBlockTableRecord
  2
*D6
  0
BLOCK_RECORD
  5
ECE
330
1
100
AcDbSymbolTableRecord
100
AcDbBlockTableRecord
  2
*D7
  0
BLOCK_RECORD
  5
EE8
330
1
100
AcDbSymbolTableRecord
100
AcDbBlockTableRecord
  2
*D8
  0
BLOCK_RECORD
  5
EF7
330
1
100
AcDbSymbolTableRecord
100
AcDbBlockTableRecord
  2
*D9
  0
BLOCK_RECORD
  5
F51
330
1
100
AcDbSymbolTableRecord
100
AcDbBlockTableRecord
  2
*D10
  0
BLOCK_RECORD
  5
F60
330
1
100
AcDbSymbolTableRecord
100
AcDbBlockTableRecord
  2
*D11
  0
BLOCK_RECORD
  5
F6F
330
1
100
AcDbSymbolTableRecord
100
AcDbBlockTableRecord
  2
*D12
  0
BLOCK_RECORD
  5
F7E
330
1
100
AcDbSymbolTableRecord
100
AcDbBlockTableRecord
  2
*D13
  0
BLOCK_RECORD
  5
F8D
330
1
100
AcDbSymbolTableRecord
100
AcDbBlockTableRecord
  2
*D14
  0
BLOCK_RECORD
  5
F9C
330
1
100
AcDbSymbolTableRecord
100
AcDbBlockTableRecord
  2
*D15
  0
BLOCK_RECORD
  5
FA9
330
1
100
AcDbSymbolTableRecord
100
AcDbBlockTableRecord
  2
*D16
  0
BLOCK_RECORD
  5
FB6
330
1
100
AcDbSymbolTableRecord
100
AcDbBlockTableRecord
  2
*D17
  0
BLOCK_RECORD
  5
FC5
330
1
100
AcDbSymbolTableRecord
100
AcDbBlockTableRecord
  2
*D18
  0
BLOCK_RECORD
  5
FD2
330
1
100
AcDbSymbolTableRecord
100
AcDbBlockTableRecord
  2
*D19
  0
BLOCK_RECORD
  5
1282
330
1
100
AcDbSymbolTableRecord
100
AcDbBlockTableRecord
  2
*D20
  0
ENDTAB
  0
ENDSEC
  0
SECTION
  2
BLOCKS
  0
BLOCK
  5
2E
330
17
100
AcDbEntity
  8
0
100
AcDbBlockBegin
  2
*MODEL_SPACE
 70
     0
 10
0.0
 20
0.0
 30
0.0
  3
*MODEL_SPACE
  1

  0
ENDBLK
  5
2F
330
17
100
AcDbEntity
  8
0
100
AcDbBlockEnd
  0
BLOCK
  5
2C
330
14
100
AcDbEntity
 67
     1
  8
0
100
AcDbBlockBegin
  2
*PAPER_SPACE
 70
     0
 10
0.0
 20
0.0
 30
0.0
  3
*PAPER_SPACE
  1

  0
ENDBLK
  5
2D
330
14
100
AcDbEntity
 67
     1
  8
0
100
AcDbBlockEnd
  0
BLOCK
  5
97B
330
977
100
AcDbEntity
  8
0
100
AcDbBlockBegin
  2
_OPEN30
 70
     0
 10
0.0
 20
0.0
 30
0.0
  3
_OPEN30
  1

  0
LINE
  5
978
330
977
100
AcDbEntity
  8
0
  6
BYBLOCK
 62
     0
100
AcDbLine
 10
-1.0
 20
0.26794919
 30
0.0
 11
0.0
 21
0.0
 31
0.0
  0
LINE
  5
979
330
977
100
AcDbEntity
  8
0
  6
BYBLOCK
 62
     0
100
AcDbLine
 10
0.0
 20
0.0
 30
0.0
 11
-1.0
 21
-0.26794919
 31
0.0
  0
LINE
  5
97A
330
977
100
AcDbEntity
  8
0
  6
BYBLOCK
 62
     0
100
AcDbLine
 10
0.0
 20
0.0
 30
0.0
 11
-1.0
 21
0.0
 31
0.0
  0
ENDBLK
  5
97C
330
977
100
AcDbEntity
  8
0
100
AcDbBlockEnd
  0
BLOCK
  5
E7D
330
E73
100
AcDbEntity
  8
0
100
AcDbBlockBegin
  2
*D1
 70
     1
 10
0.0
 20
0.0
 30
0.0
  3
*D1
  1

  0
LINE
  5
13EA
330
E73
100
AcDbEntity
  8
Z_OM_DIM
100
AcDbLine
 10
-9.400000000000019
 20
3.500000000000113
 30
0.0
 11
-9.400000000000018
 21
26.31107989691747
 31
0.0
  0
LINE
  5
13EB
330
E73
100
AcDbEntity
  8
Z_OM_DIM
100
AcDbLine
 10
25.40049999999996
 20
3.500000000000113
 30
0.0
 11
25.40049999999996
 21
26.31107989691747
 31
0.0
  0
LINE
  5
13EC
330
E73
100
AcDbEntity
  8
Z_OM_DIM
100
AcDbLine
 10
-6.400000000000018
 20
24.81107989691747
 30
0.0
 11
22.40049999999996
 21
24.81107989691747
 31
0.0
  0
INSERT
  5
13ED
330
E73
100
AcDbEntity
  8
Z_OM_DIM
100
AcDbBlockReference
  2
_OPEN30
 10
-9.400000000000018
 20
24.81107989691747
 30
0.0
 41
3.0
 42
3.0
 43
3.0
 50
180.0
  0
INSERT
  5
13EE
330
E73
100
AcDbEntity
  8
Z_OM_DIM
100
AcDbBlockReference
  2
_OPEN30
 10
25.40049999999996
 20
24.81107989691747
 30
0.0
 41
3.0
 42
3.0
 43
3.0
  0
MTEXT
  5
13EF
330
E73
100
AcDbEntity
  8
Z_OM_DIM
100
AcDbMText
 10
8.00024999999997
 20
26.71107989691747
 30
0.0
 40
2.2
 41
0.0
 71
     5
 72
     1
  1
\A1;34.8
1001
ACAD
1000
MTEXTBEGIN
1070
    73
1070
     1
1070
    44
1040
1.0
1070
    74
1070
     0
1000
MTEXTEND
  0
POINT
  5
13F0
330
E73
100
AcDbEntity
  8
DEFPOINTS
 62
     0
100
AcDbPoint
 10
-9.400000000000019
 20
3.000000000000113
 30
0.0
  0
POINT
  5
13F1
330
E73
100
AcDbEntity
  8
DEFPOINTS
 62
     0
100
AcDbPoint
 10
25.40049999999996
 20
3.000000000000113
 30
0.0
  0
POINT
  5
13F2
330
E73
100
AcDbEntity
  8
DEFPOINTS
 62
     0
100
AcDbPoint
 10
25.40049999999996
 20
24.81107989691747
 30
0.0
  0
ENDBLK
  5
E7E
330
E73
100
AcDbEntity
  8
0
100
AcDbBlockEnd
  0
BLOCK
  5
E93
330
E89
100
AcDbEntity
  8
0
100
AcDbBlockBegin
  2
*D2
 70
     1
 10
0.0
 20
0.0
 30
0.0
  3
*D2
  1

  0
LINE
  5
E8A
330
E89
100
AcDbEntity
  8
Z_OM_DIM
100
AcDbLine
 10
-3.0
 20
3.000000000000113
 30
0.0
 11
-2.999999999999999
 21
17.85667077576771
 31
0.0
  0
LINE
  5
E8B
330
E89
100
AcDbEntity
  8
Z_OM_DIM
100
AcDbLine
 10
18.99999999999997
 20
3.000000000000113
 30
0.0
 11
18.99999999999997
 21
17.85667077576771
 31
0.0
  0
LINE
  5
E8C
330
E89
100
AcDbEntity
  8
Z_OM_DIM
100
AcDbLine
 10
0.0000000000000009
 20
16.35667077576771
 30
0.0
 11
15.99999999999997
 21
16.35667077576771
 31
0.0
  0
INSERT
  5
E8D
330
E89
100
AcDbEntity
  8
Z_OM_DIM
100
AcDbBlockReference
  2
_OPEN30
 10
-2.999999999999999
 20
16.35667077576771
 30
0.0
 41
3.0
 42
3.0
 43
3.0
 50
180.0
  0
INSERT
  5
E8E
330
E89
100
AcDbEntity
  8
Z_OM_DIM
100
AcDbBlockReference
  2
_OPEN30
 10
18.99999999999997
 20
16.35667077576771
 30
0.0
 41
3.0
 42
3.0
 43
3.0
  0
MTEXT
  5
E8F
330
E89
100
AcDbEntity
  8
Z_OM_DIM
100
AcDbMText
 10
7.999999999999985
 20
18.2566707757677
 30
0.0
 40
2.2
 41
0.0
 71
     5
 72
     1
  1
\A1;22
1001
ACAD
1000
MTEXTBEGIN
1070
    73
1070
     1
1070
    44
1040
1.0
1070
    74
1070
     0
1000
MTEXTEND
  0
POINT
  5
E90
330
E89
100
AcDbEntity
  8
DEFPOINTS
 62
     0
100
AcDbPoint
 10
-3.0
 20
2.500000000000113
 30
0.0
  0
POINT
  5
E91
330
E89
100
AcDbEntity
  8
DEFPOINTS
 62
     0
100
AcDbPoint
 10
18.99999999999997
 20
2.500000000000113
 30
0.0
  0
POINT
  5
E92
330
E89
100
AcDbEntity
  8
DEFPOINTS
 62
     0
100
AcDbPoint
 10
18.99999999999997
 20
16.35667077576771
 30
0.0
  0
ENDBLK
  5
E94
330
E89
100
AcDbEntity
  8
0
100
AcDbBlockEnd
  0
BLOCK
  5
EA0
330
E96
100
AcDbEntity
  8
0
100
AcDbBlockBegin
  2
*D3
 70
     1
 10
0.0
 20
0.0
 30
0.0
  3
*D3
  1

  0
LINE
  5
E97
330
E96
100
AcDbEntity
  8
Z_OM_DIM
100
AcDbLine
 10
0.0
 20
3.100000000000051
 30
0.0
 11
0.0000000000000004
 21
9.850000000000108
 31
0.0
  0
LINE
  5
E98
330
E96
100
AcDbEntity
  8
Z_OM_DIM
100
AcDbLine
 10
15.99999999999997
 20
3.500000000000113
 30
0.0
 11
15.99999999999997
 21
9.850000000000108
 31
0.0
  0
LINE
  5
E99
330
E96
100
AcDbEntity
  8
Z_OM_DIM
100
AcDbLine
 10
3.0
 20
8.350000000000108
 30
0.0
 11
12.99999999999997
 21
8.350000000000108
 31
0.0
  0
INSERT
  5
E9A
330
E96
100
AcDbEntity
  8
Z_OM_DIM
100
AcDbBlockReference
  2
_OPEN30
 10
0.0000000000000004
 20
8.350000000000108
 30
0.0
 41
3.0
 42
3.0
 43
3.0
 50
180.0
  0
INSERT
  5
E9B
330
E96
100
AcDbEntity
  8
Z_OM_DIM
100
AcDbBlockReference
  2
_OPEN30
 10
15.99999999999997
 20
8.350000000000108
 30
0.0
 41
3.0
 42
3.0
 43
3.0
  0
MTEXT
  5
E9C
330
E96
100
AcDbEntity
  8
Z_OM_DIM
100
AcDbMText
 10
7.999999999999985
 20
10.2500000000001
 30
0.0
 40
2.2
 41
0.0
 71
     5
 72
     1
  1
\A1;16
1001
ACAD
1000
MTEXTBEGIN
1070
    73
1070
     1
1070
    44
1040
1.0
1070
    74
1070
     0
1000
MTEXTEND
  0
POINT
  5
E9D
330
E96
100
AcDbEntity
  8
DEFPOINTS
 62
     0
100
AcDbPoint
 10
0.0
 20
2.600000000000051
 30
0.0
  0
POINT
  5
E9E
330
E96
100
AcDbEntity
  8
DEFPOINTS
 62
     0
100
AcDbPoint
 10
15.99999999999997
 20
3.000000000000113
 30
0.0
  0
POINT
  5
E9F
330
E96
100
AcDbEntity
  8
DEFPOINTS
 62
     0
100
AcDbPoint
 10
15.99999999999997
 20
8.350000000000108
 30
0.0
  0
ENDBLK
  5
EA1
330
E96
100
AcDbEntity
  8
0
100
AcDbBlockEnd
  0
BLOCK
  5
EAF
330
EA3
100
AcDbEntity
  8
0
100
AcDbBlockBegin
  2
*D4
 70
     1
 10
0.0
 20
0.0
 30
0.0
  3
*D4
  1

  0
LINE
  5
1342
330
EA3
100
AcDbEntity
  8
Z_OM_DIM
100
AcDbLine
 10
-9.900000000000019
 20
3.000000000000113
 30
0.0
 11
-16.79328313629702
 21
3.000000000000115
 31
0.0
  0
LINE
  5
1343
330
EA3
100
AcDbEntity
  8
Z_OM_DIM
100
AcDbLine
 10
-9.400000000000019
 20
0.5000000000001138
 30
0.0
 11
-16.79328313629702
 21
0.5000000000001159
 31
0.0
  0
LINE
  5
1344
330
EA3
100
AcDbEntity
  8
Z_OM_DIM
100
AcDbLine
 10
-15.29328313629702
 20
-2.499999999999884
 30
0.0
 11
-15.29328313629703
 21
-5.499999999999884
 31
0.0
  0
LINE
  5
1345
330
EA3
100
AcDbEntity
  8
Z_OM_DIM
100
AcDbLine
 10
-15.29328313629702
 20
6.000000000000115
 30
0.0
 11
-15.29328313629702
 21
15.35200000000011
 31
0.0
  0
LINE
  5
1346
330
EA3
100
AcDbEntity
  8
Z_OM_DIM
100
AcDbLine
 10
-15.29328313629702
 20
0.5000000000001156
 30
0.0
 11
-15.29328313629702
 21
3.000000000000115
 31
0.0
  0
INSERT
  5
1347
330
EA3
100
AcDbEntity
  8
Z_OM_DIM
100
AcDbBlockReference
  2
_OPEN30
 10
-15.29328313629702
 20
0.5000000000001156
 30
0.0
 41
3.0
 42
3.0
 43
3.0
 50
90.0
  0
INSERT
  5
1348
330
EA3
100
AcDbEntity
  8
Z_OM_DIM
100
AcDbBlockReference
  2
_OPEN30
 10
-15.29328313629702
 20
3.000000000000115
 30
0.0
 41
3.0
 42
3.0
 43
3.0
 50
270.0
  0
MTEXT
  5
1349
330
EA3
100
AcDbEntity
  8
Z_OM_DIM
100
AcDbMText
 10
-17.19328313629702
 20
12.17600000000011
 30
0.0
 40
2.2
 41
0.0
 71
     5
 72
     1
  1
\A1;2.5
 11
0.0000000000000001
 21
1.0
 31
0.0
1001
ACAD
1000
MTEXTBEGIN
1070
    73
1070
     1
1070
    44
1040
1.0
1070
    74
1070
     0
1000
MTEXTEND
  0
POINT
  5
134A
330
EA3
100
AcDbEntity
  8
DEFPOINTS
 62
     0
100
AcDbPoint
 10
-9.400000000000019
 20
3.000000000000113
 30
0.0
  0
POINT
  5
134B
330
EA3
100
AcDbEntity
  8
DEFPOINTS
 62
     0
100
AcDbPoint
 10
-8.900000000000019
 20
0.5000000000001137
 30
0.0
  0
POINT
  5
134C
330
EA3
100
AcDbEntity
  8
DEFPOINTS
 62
     0
100
AcDbPoint
 10
-15.29328313629702
 20
0.5000000000001156
 30
0.0
  0
ENDBLK
  5
EB0
330
EA3
100
AcDbEntity
  8
0
100
AcDbBlockEnd
  0
BLOCK
  5
EBE
330
EB2
100
AcDbEntity
  8
0
100
AcDbBlockBegin
  2
*D5
 70
     1
 10
0.0
 20
0.0
 30
0.0
  3
*D5
  1

  0
LINE
  5
132E
330
EB2
100
AcDbEntity
  8
Z_OM_DIM
100
AcDbLine
 10
-9.900000000000019
 20
3.000000000000113
 30
0.0
 11
-21.56662264712019
 21
3.000000000000117
 31
0.0
  0
LINE
  5
132F
330
EB2
100
AcDbEntity
  8
Z_OM_DIM
100
AcDbLine
 10
-3.700000000000017
 20
-4.299999999999883
 30
0.0
 11
-21.56662264712019
 21
-4.299999999999879
 31
0.0
  0
LINE
  5
1330
330
EB2
100
AcDbEntity
  8
Z_OM_DIM
100
AcDbLine
 10
-20.06662264712019
 20
6.000000000000116
 30
0.0
 11
-20.06662264712019
 21
9.000000000000117
 31
0.0
  0
LINE
  5
1331
330
EB2
100
AcDbEntity
  8
Z_OM_DIM
100
AcDbLine
 10
-20.06662264712019
 20
-7.299999999999879
 30
0.0
 11
-20.0666226471202
 21
-10.29999999999987
 31
0.0
  0
LINE
  5
1332
330
EB2
100
AcDbEntity
  8
Z_OM_DIM
100
AcDbLine
 10
-20.06662264712019
 20
3.000000000000116
 30
0.0
 11
-20.06662264712019
 21
-4.299999999999879
 31
0.0
  0
INSERT
  5
1333
330
EB2
100
AcDbEntity
  8
Z_OM_DIM
100
AcDbBlockReference
  2
_OPEN30
 10
-20.06662264712019
 20
3.000000000000116
 30
0.0
 41
3.0
 42
3.0
 43
3.0
 50
270.0
  0
INSERT
  5
1334
330
EB2
100
AcDbEntity
  8
Z_OM_DIM
100
AcDbBlockReference
  2
_OPEN30
 10
-20.06662264712019
 20
-4.299999999999879
 30
0.0
 41
3.0
 42
3.0
 43
3.0
 50
90.0
  0
MTEXT
  5
1335
330
EB2
100
AcDbEntity
  8
Z_OM_DIM
100
AcDbMText
 10
-21.96662264712019
 20
-0.6499999999998844
 30
0.0
 40
2.2
 41
0.0
 71
     5
 72
     1
  1
\A1;7.3
 11
0.0000000000000001
 21
1.0
 31
0.0
1001
ACAD
1000
MTEXTBEGIN
1070
    73
1070
     1
1070
    44
1040
1.0
1070
    74
1070
     0
1000
MTEXTEND
  0
POINT
  5
1336
330
EB2
100
AcDbEntity
  8
DEFPOINTS
 62
     0
100
AcDbPoint
 10
-9.400000000000019
 20
3.000000000000113
 30
0.0
  0
POINT
  5
1337
330
EB2
100
AcDbEntity
  8
DEFPOINTS
 62
     0
100
AcDbPoint
 10
-3.200000000000017
 20
-4.299999999999883
 30
0.0
  0
POINT
  5
1338
330
EB2
100
AcDbEntity
  8
DEFPOINTS
 62
     0
100
AcDbPoint
 10
-20.06662264712019
 20
-4.299999999999879
 30
0.0
  0
ENDBLK
  5
EBF
330
EB2
100
AcDbEntity
  8
0
100
AcDbBlockEnd
  0
BLOCK
  5
ECB
330
EC1
100
AcDbEntity
  8
0
100
AcDbBlockBegin
  2
*D6
 70
     1
 10
0.0
 20
0.0
 30
0.0
  3
*D6
  1

  0
LINE
  5
134D
330
EC1
100
AcDbEntity
  8
Z_OM_DIM
100
AcDbLine
 10
-5.400000000000019
 20
-2.59999999999988
 30
0.0
 11
-5.40000000000002
 21
-18.5906300363485
 31
0.0
  0
LINE
  5
134E
330
EC1
100
AcDbEntity
  8
Z_OM_DIM
100
AcDbLine
 10
21.39999999999996
 20
-2.59999999999988
 30
0.0
 11
21.39999999999996
 21
-18.5906300363485
 31
0.0
  0
LINE
  5
134F
330
EC1
100
AcDbEntity
  8
Z_OM_DIM
100
AcDbLine
 10
-2.40000000000002
 20
-17.0906300363485
 30
0.0
 11
18.39999999999996
 21
-17.0906300363485
 31
0.0
  0
INSERT
  5
1350
330
EC1
100
AcDbEntity
  8
Z_OM_DIM
100
AcDbBlockReference
  2
_OPEN30
 10
-5.40000000000002
 20
-17.0906300363485
 30
0.0
 41
3.0
 42
3.0
 43
3.0
 50
180.0
  0
INSERT
  5
1351
330
EC1
100
AcDbEntity
  8
Z_OM_DIM
100
AcDbBlockReference
  2
_OPEN30
 10
21.39999999999996
 20
-17.0906300363485
 30
0.0
 41
3.0
 42
3.0
 43
3.0
  0
MTEXT
  5
1352
330
EC1
100
AcDbEntity
  8
Z_OM_DIM
100
AcDbMText
 10
7.999999999999968
 20
-15.19063003634849
 30
0.0
 40
2.2
 41
0.0
 71
     5
 72
     1
  1
\A1;26.8
1001
ACAD
1000
MTEXTBEGIN
1070
    73
1070
     1
1070
    44
1040
1.0
1070
    74
1070
     0
1000
MTEXTEND
  0
POINT
  5
1353
330
EC1
100
AcDbEntity
  8
DEFPOINTS
 62
     0
100
AcDbPoint
 10
-5.400000000000019
 20
-2.09999999999988
 30
0.0
  0
POINT
  5
1354
330
EC1
100
AcDbEntity
  8
DEFPOINTS
 62
     0
100
AcDbPoint
 10
21.39999999999996
 20
-2.09999999999988
 30
0.0
  0
POINT
  5
1355
330
EC1
100
AcDbEntity
  8
DEFPOINTS
 62
     0
100
AcDbPoint
 10
21.39999999999996
 20
-17.0906300363485
 30
0.0
  0
ENDBLK
  5
ECC
330
EC1
100
AcDbEntity
  8
0
100
AcDbBlockEnd
  0
BLOCK
  5
EDA
330
ECE
100
AcDbEntity
  8
0
100
AcDbBlockBegin
  2
*D7
 70
     1
 10
0.0
 20
0.0
 30
0.0
  3
*D7
  1

  0
LINE
  5
F45
330
ECE
100
AcDbEntity
  8
Z_OM_DIM
100
AcDbLine
 10
25.90049999999996
 20
3.000000000000113
 30
0.0
 11
33.74544279369618
 21
3.000000000000111
 31
0.0
  0
LINE
  5
F46
330
ECE
100
AcDbEntity
  8
Z_OM_DIM
100
AcDbLine
 10
19.42474999999996
 20
0.0000000000000002
 30
0.0
 11
33.74544279369618
 21
-0.0000000000000038
 31
0.0
  0
LINE
  5
F47
330
ECE
100
AcDbEntity
  8
Z_OM_DIM
100
AcDbLine
 10
32.24544279369618
 20
-3.000000000000003
 30
0.0
 11
32.24544279369618
 21
-6.000000000000003
 31
0.0
  0
LINE
  5
F48
330
ECE
100
AcDbEntity
  8
Z_OM_DIM
100
AcDbLine
 10
32.24544279369618
 20
6.000000000000111
 30
0.0
 11
32.24544279369618
 21
12.18400000000011
 31
0.0
  0
LINE
  5
F49
330
ECE
100
AcDbEntity
  8
Z_OM_DIM
100
AcDbLine
 10
32.24544279369618
 20
-0.0000000000000034
 30
0.0
 11
32.24544279369618
 21
3.000000000000111
 31
0.0
  0
INSERT
  5
F4A
330
ECE
100
AcDbEntity
  8
Z_OM_DIM
100
AcDbBlockReference
  2
_OPEN30
 10
32.24544279369618
 20
-0.0000000000000034
 30
0.0
 41
3.0
 42
3.0
 43
3.0
 50
90.0
  0
INSERT
  5
F4B
330
ECE
100
AcDbEntity
  8
Z_OM_DIM
100
AcDbBlockReference
  2
_OPEN30
 10
32.24544279369618
 20
3.000000000000111
 30
0.0
 41
3.0
 42
3.0
 43
3.0
 50
270.0
  0
MTEXT
  5
F4C
330
ECE
100
AcDbEntity
  8
Z_OM_DIM
100
AcDbMText
 10
30.34544279369618
 20
10.59200000000011
 30
0.0
 40
2.2
 41
0.0
 71
     5
 72
     1
  1
\A1;3
 11
0.0000000000000001
 21
1.0
 31
0.0
1001
ACAD
1000
MTEXTBEGIN
1070
    73
1070
     1
1070
    44
1040
1.0
1070
    74
1070
     0
1000
MTEXTEND
  0
POINT
  5
F4D
330
ECE
100
AcDbEntity
  8
DEFPOINTS
 62
     0
100
AcDbPoint
 10
25.40049999999996
 20
3.000000000000113
 30
0.0
  0
POINT
  5
F4E
330
ECE
100
AcDbEntity
  8
DEFPOINTS
 62
     0
100
AcDbPoint
 10
18.92474999999996
 20
0.0000000000000004
 30
0.0
  0
POINT
  5
F4F
330
ECE
100
AcDbEntity
  8
DEFPOINTS
 62
     0
100
AcDbPoint
 10
32.24544279369618
 20
-0.0000000000000034
 30
0.0
  0
ENDBLK
  5
EDB
330
ECE
100
AcDbEntity
  8
0
100
AcDbBlockEnd
  0
BLOCK
  5
EF4
330
EE8
100
AcDbEntity
  8
0
100
AcDbBlockBegin
  2
*D8
 70
     1
 10
0.0
 20
0.0
 30
0.0
  3
*D8
  1

  0
LINE
  5
10C0
330
EE8
100
AcDbEntity
  8
Z_OM_DIM
100
AcDbLine
 10
61.98349999999996
 20
0.986000000000118
 30
0.0
 11
53.64765080707236
 21
0.9860000000001203
 31
0.0
  0
LINE
  5
10C1
330
EE8
100
AcDbEntity
  8
Z_OM_DIM
100
AcDbLine
 10
61.48349999999997
 20
-4.313999999999879
 30
0.0
 11
53.64765080707236
 21
-4.313999999999876
 31
0.0
  0
LINE
  5
10C2
330
EE8
100
AcDbEntity
  8
Z_OM_DIM
100
AcDbLine
 10
55.14765080707237
 20
-7.313999999999878
 30
0.0
 11
55.14765080707237
 21
-10.31399999999987
 31
0.0
  0
LINE
  5
10C3
330
EE8
100
AcDbEntity
  8
Z_OM_DIM
100
AcDbLine
 10
55.14765080707237
 20
3.986000000000119
 30
0.0
 11
55.14765080707237
 21
13.33800000000012
 31
0.0
  0
LINE
  5
10C4
330
EE8
100
AcDbEntity
  8
Z_OM_DIM
100
AcDbLine
 10
55.14765080707237
 20
-4.313999999999878
 30
0.0
 11
55.14765080707237
 21
0.98600000000012
 31
0.0
  0
INSERT
  5
10C5
330
EE8
100
AcDbEntity
  8
Z_OM_DIM
100
AcDbBlockReference
  2
_OPEN30
 10
55.14765080707237
 20
-4.313999999999878
 30
0.0
 41
3.0
 42
3.0
 43
3.0
 50
90.0
  0
INSERT
  5
10C6
330
EE8
100
AcDbEntity
  8
Z_OM_DIM
100
AcDbBlockReference
  2
_OPEN30
 10
55.14765080707237
 20
0.98600000000012
 30
0.0
 41
3.0
 42
3.0
 43
3.0
 50
270.0
  0
MTEXT
  5
10C7
330
EE8
100
AcDbEntity
  8
Z_OM_DIM
100
AcDbMText
 10
53.24765080707237
 20
10.16200000000012
 30
0.0
 40
2.2
 41
0.0
 71
     5
 72
     1
  1
\A1;5.3
 11
0.0000000000000001
 21
1.0
 31
0.0
1001
ACAD
1000
MTEXTBEGIN
1070
    73
1070
     1
1070
    44
1040
1.0
1070
    74
1070
     0
1000
MTEXTEND
  0
POINT
  5
10C8
330
EE8
100
AcDbEntity
  8
DEFPOINTS
 62
     0
100
AcDbPoint
 10
62.48349999999996
 20
0.9860000000001178
 30
0.0
  0
POINT
  5
10C9
330
EE8
100
AcDbEntity
  8
DEFPOINTS
 62
     0
100
AcDbPoint
 10
61.98349999999996
 20
-4.313999999999879
 30
0.0
  0
POINT
  5
10CA
330
EE8
100
AcDbEntity
  8
DEFPOINTS
 62
     0
100
AcDbPoint
 10
55.14765080707237
 20
-4.313999999999878
 30
0.0
  0
ENDBLK
  5
EF5
330
EE8
100
AcDbEntity
  8
0
100
AcDbBlockEnd
  0
BLOCK
  5
F03
330
EF7
100
AcDbEntity
  8
0
100
AcDbBlockBegin
  2
*D9
 70
     1
 10
0.0
 20
0.0
 30
0.0
  3
*D9
  1

  0
LINE
  5
14D9
330
EF7
100
AcDbEntity
  8
Z_OM_DIM
100
AcDbLine
 10
63.63349999999996
 20
-0.0139999999998821
 30
0.0
 11
63.63349999999996
 21
-10.75343944551738
 31
0.0
  0
LINE
  5
14DA
330
EF7
100
AcDbEntity
  8
Z_OM_DIM
100
AcDbLine
 10
70.63349999999997
 20
-0.0139999999998821
 30
0.0
 11
70.63349999999997
 21
-10.75343944551738
 31
0.0
  0
LINE
  5
14DB
330
EF7
100
AcDbEntity
  8
Z_OM_DIM
100
AcDbLine
 10
60.63349999999997
 20
-9.253439445517386
 30
0.0
 11
57.63349999999997
 21
-9.253439445517386
 31
0.0
  0
LINE
  5
14DC
330
EF7
100
AcDbEntity
  8
Z_OM_DIM
100
AcDbLine
 10
73.63349999999996
 20
-9.253439445517386
 30
0.0
 11
76.63349999999997
 21
-9.253439445517386
 31
0.0
  0
LINE
  5
14DD
330
EF7
100
AcDbEntity
  8
Z_OM_DIM
100
AcDbLine
 10
63.63349999999996
 20
-9.253439445517386
 30
0.0
 11
70.63349999999997
 21
-9.253439445517386
 31
0.0
  0
INSERT
  5
14DE
330
EF7
100
AcDbEntity
  8
Z_OM_DIM
100
AcDbBlockReference
  2
_OPEN30
 10
63.63349999999996
 20
-9.253439445517386
 30
0.0
 41
3.0
 42
3.0
 43
3.0
  0
INSERT
  5
14DF
330
EF7
100
AcDbEntity
  8
Z_OM_DIM
100
AcDbBlockReference
  2
_OPEN30
 10
70.63349999999997
 20
-9.253439445517386
 30
0.0
 41
3.0
 42
3.0
 43
3.0
 50
180.0
  0
MTEXT
  5
14E0
330
EF7
100
AcDbEntity
  8
Z_OM_DIM
100
AcDbMText
 10
67.13349999999997
 20
-7.353439445517386
 30
0.0
 40
2.2
 41
0.0
 71
     5
 72
     1
  1
\A1;7
1001
ACAD
1000
MTEXTBEGIN
1070
    73
1070
     1
1070
    44
1040
1.0
1070
    74
1070
     0
1000
MTEXTEND
  0
POINT
  5
14E1
330
EF7
100
AcDbEntity
  8
DEFPOINTS
 62
     0
100
AcDbPoint
 10
63.63349999999996
 20
0.4860000000001179
 30
0.0
  0
POINT
  5
14E2
330
EF7
100
AcDbEntity
  8
DEFPOINTS
 62
     0
100
AcDbPoint
 10
70.63349999999997
 20
0.486000000000118
 30
0.0
  0
POINT
  5
14E3
330
EF7
100
AcDbEntity
  8
DEFPOINTS
 62
     0
100
AcDbPoint
 10
70.63349999999997
 20
-9.253439445517386
 30
0.0
  0
ENDBLK
  5
F04
330
EF7
100
AcDbEntity
  8
0
100
AcDbBlockEnd
  0
BLOCK
  5
F5D
330
F51
100
AcDbEntity
  8
0
100
AcDbBlockBegin
  2
*D10
 70
     1
 10
0.0
 20
0.0
 30
0.0
  3
*D10
  1

  0
LINE
  5
14E8
330
F51
100
AcDbEntity
  8
Z_OM_DIM
100
AcDbLine
 10
15.6666026220896
 20
-50.96532588911667
 30
0.0
 11
37.71919980347819
 21
-50.96532588911668
 31
0.0
  0
LINE
  5
14E9
330
F51
100
AcDbEntity
  8
Z_OM_DIM
100
AcDbLine
 10
15.66660262206717
 20
-54.36532588911667
 30
0.0
 11
37.71919980347819
 21
-54.36532588911668
 31
0.0
  0
LINE
  5
14EA
330
F51
100
AcDbEntity
  8
Z_OM_DIM
100
AcDbLine
 10
36.21919980347819
 20
-57.36532588911668
 30
0.0
 11
36.21919980347819
 21
-60.36532588911668
 31
0.0
  0
LINE
  5
14EB
330
F51
100
AcDbEntity
  8
Z_OM_DIM
100
AcDbLine
 10
36.21919980347819
 20
-47.96532588911668
 30
0.0
 11
36.21919980347819
 21
-37.57532588911669
 31
0.0
  0
LINE
  5
14EC
330
F51
100
AcDbEntity
  8
Z_OM_DIM
100
AcDbLine
 10
36.21919980347819
 20
-54.36532588911668
 30
0.0
 11
36.21919980347819
 21
-50.96532588911668
 31
0.0
  0
INSERT
  5
14ED
330
F51
100
AcDbEntity
  8
Z_OM_DIM
100
AcDbBlockReference
  2
_OPEN30
 10
36.21919980347819
 20
-54.36532588911668
 30
0.0
 41
3.0
 42
3.0
 43
3.0
 50
90.0
  0
INSERT
  5
14EE
330
F51
100
AcDbEntity
  8
Z_OM_DIM
100
AcDbBlockReference
  2
_OPEN30
 10
36.21919980347819
 20
-50.96532588911668
 30
0.0
 41
3.0
 42
3.0
 43
3.0
 50
270.0
  0
MTEXT
  5
14EF
330
F51
100
AcDbEntity
  8
Z_OM_DIM
100
AcDbMText
 10
34.3191998034782
 20
-40.75132588911668
 30
0.0
 40
2.2
 41
0.0
 71
     5
 72
     1
  1
\A1;3.4
 11
0.0000000000000001
 21
1.0
 31
0.0
1001
ACAD
1000
MTEXTBEGIN
1070
    73
1070
     1
1070
    44
1040
1.0
1070
    74
1070
     0
1000
MTEXTEND
  0
POINT
  5
14F0
330
F51
100
AcDbEntity
  8
DEFPOINTS
 62
     0
100
AcDbPoint
 10
15.1666026220896
 20
-50.96532588911667
 30
0.0
  0
POINT
  5
14F1
330
F51
100
AcDbEntity
  8
DEFPOINTS
 62
     0
100
AcDbPoint
 10
15.16660262206717
 20
-54.36532588911667
 30
0.0
  0
POINT
  5
14F2
330
F51
100
AcDbEntity
  8
DEFPOINTS
 62
     0
100
AcDbPoint
 10
36.21919980347819
 20
-54.36532588911668
 30
0.0
  0
ENDBLK
  5
F5E
330
F51
100
AcDbEntity
  8
0
100
AcDbBlockEnd
  0
BLOCK
  5
F6C
330
F60
100
AcDbEntity
  8
0
100
AcDbBlockBegin
  2
*D11
 70
     1
 10
0.0
 20
0.0
 30
0.0
  3
*D11
  1

  0
LINE
  5
1267
330
F60
100
AcDbEntity
  8
Z_OM_DIM
100
AcDbLine
 10
14.16660262206718
 20
-53.85532588911669
 30
0.0
 11
14.16660262206718
 21
-68.31534668074787
 31
0.0
  0
LINE
  5
1268
330
F60
100
AcDbEntity
  8
Z_OM_DIM
100
AcDbLine
 10
15.16660262206717
 20
-53.67982588911669
 30
0.0
 11
15.16660262206717
 21
-68.31534668074787
 31
0.0
  0
LINE
  5
1269
330
F60
100
AcDbEntity
  8
Z_OM_DIM
100
AcDbLine
 10
11.16660262206718
 20
-66.81534668074788
 30
0.0
 11
8.166602622067188
 21
-66.81534668074788
 31
0.0
  0
LINE
  5
126A
330
F60
100
AcDbEntity
  8
Z_OM_DIM
100
AcDbLine
 10
18.16660262206717
 20
-66.81534668074788
 30
0.0
 11
23.55860262206717
 21
-66.81534668074788
 31
0.0
  0
LINE
  5
126B
330
F60
100
AcDbEntity
  8
Z_OM_DIM
100
AcDbLine
 10
14.16660262206718
 20
-66.81534668074788
 30
0.0
 11
15.16660262206717
 21
-66.81534668074788
 31
0.0
  0
INSERT
  5
126C
330
F60
100
AcDbEntity
  8
Z_OM_DIM
100
AcDbBlockReference
  2
_OPEN30
 10
14.16660262206718
 20
-66.81534668074788
 30
0.0
 41
3.0
 42
3.0
 43
3.0
  0
INSERT
  5
126D
330
F60
100
AcDbEntity
  8
Z_OM_DIM
100
AcDbBlockReference
  2
_OPEN30
 10
15.16660262206717
 20
-66.81534668074788
 30
0.0
 41
3.0
 42
3.0
 43
3.0
 50
180.0
  0
MTEXT
  5
126E
330
F60
100
AcDbEntity
  8
Z_OM_DIM
100
AcDbMText
 10
22.36260262206717
 20
-64.91534668074788
 30
0.0
 40
2.2
 41
0.0
 71
     5
 72
     1
  1
\A1;1
1001
ACAD
1000
MTEXTBEGIN
1070
    73
1070
     1
1070
    44
1040
1.0
1070
    74
1070
     0
1000
MTEXTEND
  0
POINT
  5
126F
330
F60
100
AcDbEntity
  8
DEFPOINTS
 62
     0
100
AcDbPoint
 10
14.16660262206718
 20
-53.35532588911668
 30
0.0
  0
POINT
  5
1270
330
F60
100
AcDbEntity
  8
DEFPOINTS
 62
     0
100
AcDbPoint
 10
15.16660262206717
 20
-53.17982588911668
 30
0.0
  0
POINT
  5
1271
330
F60
100
AcDbEntity
  8
DEFPOINTS
 62
     0
100
AcDbPoint
 10
15.16660262206717
 20
-66.81534668074788
 30
0.0
  0
ENDBLK
  5
F6D
330
F60
100
AcDbEntity
  8
0
100
AcDbBlockEnd
  0
BLOCK
  5
F7B
330
F6F
100
AcDbEntity
  8
0
100
AcDbBlockBegin
  2
*D12
 70
     1
 10
0.0
 20
0.0
 30
0.0
  3
*D12
  1

  0
LINE
  5
1251
330
F6F
100
AcDbEntity
  8
Z_OM_DIM
100
AcDbLine
 10
0.8666026220672023
 20
-52.16532588911668
 30
0.0
 11
6.477962244294068
 21
-52.16532588911668
 31
0.0
  0
LINE
  5
1252
330
F6F
100
AcDbEntity
  8
Z_OM_DIM
100
AcDbLine
 10
0.8666026220672019
 20
-53.16532588911669
 30
0.0
 11
6.477962244294068
 21
-53.16532588911669
 31
0.0
  0
LINE
  5
1253
330
F6F
100
AcDbEntity
  8
Z_OM_DIM
100
AcDbLine
 10
4.977962244294069
 20
-49.16532588911668
 30
0.0
 11
4.977962244294069
 21
-46.16532588911669
 31
0.0
  0
LINE
  5
1254
330
F6F
100
AcDbEntity
  8
Z_OM_DIM
100
AcDbLine
 10
4.977962244294067
 20
-56.16532588911669
 30
0.0
 11
4.977962244294066
 21
-61.70732588911668
 31
0.0
  0
LINE
  5
1255
330
F6F
100
AcDbEntity
  8
Z_OM_DIM
100
AcDbLine
 10
4.977962244294068
 20
-52.16532588911668
 30
0.0
 11
4.977962244294068
 21
-53.16532588911669
 31
0.0
  0
INSERT
  5
1256
330
F6F
100
AcDbEntity
  8
Z_OM_DIM
100
AcDbBlockReference
  2
_OPEN30
 10
4.977962244294068
 20
-52.16532588911668
 30
0.0
 41
3.0
 42
3.0
 43
3.0
 50
270.0
  0
INSERT
  5
1257
330
F6F
100
AcDbEntity
  8
Z_OM_DIM
100
AcDbBlockReference
  2
_OPEN30
 10
4.977962244294068
 20
-53.16532588911669
 30
0.0
 41
3.0
 42
3.0
 43
3.0
 50
90.0
  0
MTEXT
  5
1258
330
F6F
100
AcDbEntity
  8
Z_OM_DIM
100
AcDbMText
 10
3.077962244294075
 20
-60.51132588911668
 30
0.0
 40
2.2
 41
0.0
 71
     5
 72
     1
  1
\A1;1
 11
0.0000000000000001
 21
1.0
 31
0.0
1001
ACAD
1000
MTEXTBEGIN
1070
    73
1070
     1
1070
    44
1040
1.0
1070
    74
1070
     0
1000
MTEXTEND
  0
POINT
  5
1259
330
F6F
100
AcDbEntity
  8
DEFPOINTS
 62
     0
100
AcDbPoint
 10
0.3666026220672023
 20
-52.16532588911668
 30
0.0
  0
POINT
  5
125A
330
F6F
100
AcDbEntity
  8
DEFPOINTS
 62
     0
100
AcDbPoint
 10
0.3666026220672021
 20
-53.16532588911669
 30
0.0
  0
POINT
  5
125B
330
F6F
100
AcDbEntity
  8
DEFPOINTS
 62
     0
100
AcDbPoint
 10
4.977962244294068
 20
-53.16532588911669
 30
0.0
  0
ENDBLK
  5
F7C
330
F6F
100
AcDbEntity
  8
0
100
AcDbBlockEnd
  0
BLOCK
  5
F8A
330
F7E
100
AcDbEntity
  8
0
100
AcDbBlockBegin
  2
*D13
 70
     1
 10
0.0
 20
0.0
 30
0.0
  3
*D13
  1

  0
LINE
  5
1246
330
F7E
100
AcDbEntity
  8
Z_OM_DIM
100
AcDbLine
 10
0.3666026220672022
 20
-53.66532588911669
 30
0.0
 11
0.3666026220672014
 21
-68.72065866538912
 31
0.0
  0
LINE
  5
1247
330
F7E
100
AcDbEntity
  8
Z_OM_DIM
100
AcDbLine
 10
-3.033397377932797
 20
-53.66532588911669
 30
0.0
 11
-3.033397377932798
 21
-68.72065866538912
 31
0.0
  0
LINE
  5
1248
330
F7E
100
AcDbEntity
  8
Z_OM_DIM
100
AcDbLine
 10
3.366602622067201
 20
-67.22065866538912
 30
0.0
 11
6.366602622067201
 21
-67.22065866538912
 31
0.0
  0
LINE
  5
1249
330
F7E
100
AcDbEntity
  8
Z_OM_DIM
100
AcDbLine
 10
-6.033397377932798
 20
-67.22065866538912
 30
0.0
 11
-16.42376386559581
 21
-67.22065866538912
 31
0.0
  0
LINE
  5
124A
330
F7E
100
AcDbEntity
  8
Z_OM_DIM
100
AcDbLine
 10
0.3666026220672014
 20
-67.22065866538912
 30
0.0
 11
-3.033397377932798
 21
-67.22065866538912
 31
0.0
  0
INSERT
  5
124B
330
F7E
100
AcDbEntity
  8
Z_OM_DIM
100
AcDbBlockReference
  2
_OPEN30
 10
0.3666026220672014
 20
-67.22065866538912
 30
0.0
 41
3.0
 42
3.0
 43
3.0
 50
180.0
  0
INSERT
  5
124C
330
F7E
100
AcDbEntity
  8
Z_OM_DIM
100
AcDbBlockReference
  2
_OPEN30
 10
-3.033397377932798
 20
-67.22065866538912
 30
0.0
 41
3.0
 42
3.0
 43
3.0
  0
MTEXT
  5
124D
330
F7E
100
AcDbEntity
  8
Z_OM_DIM
100
AcDbMText
 10
-13.24776386559581
 20
-65.32065866538911
 30
0.0
 40
2.2
 41
0.0
 71
     5
 72
     1
  1
\A1;3.4
1001
ACAD
1000
MTEXTBEGIN
1070
    73
1070
     1
1070
    44
1040
1.0
1070
    74
1070
     0
1000
MTEXTEND
  0
POINT
  5
124E
330
F7E
100
AcDbEntity
  8
DEFPOINTS
 62
     0
100
AcDbPoint
 10
0.3666026220672023
 20
-53.16532588911669
 30
0.0
  0
POINT
  5
124F
330
F7E
100
AcDbEntity
  8
DEFPOINTS
 62
     0
100
AcDbPoint
 10
-3.033397377932797
 20
-53.16532588911669
 30
0.0
  0
POINT
  5
1250
330
F7E
100
AcDbEntity
  8
DEFPOINTS
 62
     0
100
AcDbPoint
 10
-3.033397377932798
 20
-67.22065866538912
 30
0.0
  0
ENDBLK
  5
F8B
330
F7E
100
AcDbEntity
  8
0
100
AcDbBlockEnd
  0
BLOCK
  5
F99
330
F8D
100
AcDbEntity
  8
0
100
AcDbBlockBegin
  2
*D14
 70
     1
 10
0.0
 20
0.0
 30
0.0
  3
*D14
  1

  0
LINE
  5
13D6
330
F8D
100
AcDbEntity
  8
Z_OM_DIM
100
AcDbLine
 10
-7.233397377932817
 20
-49.16532588911668
 30
0.0
 11
-24.23822322542651
 21
-49.16532588911668
 31
0.0
  0
LINE
  5
13D7
330
F8D
100
AcDbEntity
  8
Z_OM_DIM
100
AcDbLine
 10
-7.233397377932817
 20
-56.16532588911669
 30
0.0
 11
-24.23822322542651
 21
-56.16532588911668
 31
0.0
  0
LINE
  5
13D8
330
F8D
100
AcDbEntity
  8
Z_OM_DIM
100
AcDbLine
 10
-22.73822322542651
 20
-46.16532588911668
 30
0.0
 11
-22.73822322542651
 21
-43.16532588911668
 31
0.0
  0
LINE
  5
13D9
330
F8D
100
AcDbEntity
  8
Z_OM_DIM
100
AcDbLine
 10
-22.73822322542652
 20
-59.16532588911668
 30
0.0
 11
-22.73822322542652
 21
-62.16532588911668
 31
0.0
  0
LINE
  5
13DA
330
F8D
100
AcDbEntity
  8
Z_OM_DIM
100
AcDbLine
 10
-22.73822322542651
 20
-49.16532588911668
 30
0.0
 11
-22.73822322542652
 21
-56.16532588911668
 31
0.0
  0
INSERT
  5
13DB
330
F8D
100
AcDbEntity
  8
Z_OM_DIM
100
AcDbBlockReference
  2
_OPEN30
 10
-22.73822322542651
 20
-49.16532588911668
 30
0.0
 41
3.0
 42
3.0
 43
3.0
 50
270.0
  0
INSERT
  5
13DC
330
F8D
100
AcDbEntity
  8
Z_OM_DIM
100
AcDbBlockReference
  2
_OPEN30
 10
-22.73822322542652
 20
-56.16532588911668
 30
0.0
 41
3.0
 42
3.0
 43
3.0
 50
90.0
  0
MTEXT
  5
13DD
330
F8D
100
AcDbEntity
  8
Z_OM_DIM
100
AcDbMText
 10
-24.6382232254265
 20
-52.66532588911669
 30
0.0
 40
2.2
 41
0.0
 71
     5
 72
     1
  1
\A1;7
 11
0.0000000000000001
 21
1.0
 31
0.0
1001
ACAD
1000
MTEXTBEGIN
1070
    73
1070
     1
1070
    44
1040
1.0
1070
    74
1070
     0
1000
MTEXTEND
  0
POINT
  5
13DE
330
F8D
100
AcDbEntity
  8
DEFPOINTS
 62
     0
100
AcDbPoint
 10
-6.733397377932817
 20
-49.16532588911668
 30
0.0
  0
POINT
  5
13DF
330
F8D
100
AcDbEntity
  8
DEFPOINTS
 62
     0
100
AcDbPoint
 10
-6.733397377932817
 20
-56.16532588911669
 30
0.0
  0
POINT
  5
13E0
330
F8D
100
AcDbEntity
  8
DEFPOINTS
 62
     0
100
AcDbPoint
 10
-22.73822322542652
 20
-56.16532588911668
 30
0.0
  0
ENDBLK
  5
F9A
330
F8D
100
AcDbEntity
  8
0
100
AcDbBlockEnd
  0
BLOCK
  5
FA6
330
F9C
100
AcDbEntity
  8
0
100
AcDbBlockBegin
  2
*D15
 70
     1
 10
0.0
 20
0.0
 30
0.0
  3
*D15
  1

  0
LINE
  5
13CB
330
F9C
100
AcDbEntity
  8
Z_OM_DIM
100
AcDbLine
 10
-11.23339737793281
 20
-48.01532588911669
 30
0.0
 11
-29.80627216319339
 21
-48.01532588911668
 31
0.0
  0
LINE
  5
13CC
330
F9C
100
AcDbEntity
  8
Z_OM_DIM
100
AcDbLine
 10
-11.23339737793281
 20
-57.31532588911669
 30
0.0
 11
-29.80627216319339
 21
-57.31532588911668
 31
0.0
  0
LINE
  5
13CD
330
F9C
100
AcDbEntity
  8
Z_OM_DIM
100
AcDbLine
 10
-28.3062721631934
 20
-60.31532588911668
 30
0.0
 11
-28.3062721631934
 21
-63.31532588911668
 31
0.0
  0
LINE
  5
13CE
330
F9C
100
AcDbEntity
  8
Z_OM_DIM
100
AcDbLine
 10
-28.30627216319339
 20
-45.01532588911667
 30
0.0
 11
-28.30627216319339
 21
-28.29772588911668
 31
0.0
  0
LINE
  5
13CF
330
F9C
100
AcDbEntity
  8
Z_OM_DIM
100
AcDbLine
 10
-28.3062721631934
 20
-57.31532588911668
 30
0.0
 11
-28.30627216319339
 21
-48.01532588911668
 31
0.0
  0
INSERT
  5
13D0
330
F9C
100
AcDbEntity
  8
Z_OM_DIM
100
AcDbBlockReference
  2
_OPEN30
 10
-28.3062721631934
 20
-57.31532588911668
 30
0.0
 41
3.0
 42
3.0
 43
3.0
 50
90.0
  0
INSERT
  5
13D1
330
F9C
100
AcDbEntity
  8
Z_OM_DIM
100
AcDbBlockReference
  2
_OPEN30
 10
-28.30627216319339
 20
-48.01532588911668
 30
0.0
 41
3.0
 42
3.0
 43
3.0
 50
270.0
  0
MTEXT
  5
13D2
330
F9C
100
AcDbEntity
  8
Z_OM_DIM
100
AcDbMText
 10
-30.20627216319338
 20
-35.15652588911668
 30
0.0
 40
2.2
 41
0.0
 71
     5
 72
     1
  1
\A1;10 MAX.
 11
0.0000000000000001
 21
1.0
 31
0.0
1001
ACAD
1000
MTEXTBEGIN
1070
    73
1070
     1
1070
    44
1040
1.0
1070
    74
1070
     0
1000
MTEXTEND
  0
POINT
  5
13D3
330
F9C
100
AcDbEntity
  8
DEFPOINTS
 62
     0
100
AcDbPoint
 10
-10.73339737793281
 20
-48.01532588911669
 30
0.0
  0
POINT
  5
13D4
330
F9C
100
AcDbEntity
  8
DEFPOINTS
 62
     0
100
AcDbPoint
 10
-10.73339737793281
 20
-57.31532588911669
 30
0.0
  0
POINT
  5
13D5
330
F9C
100
AcDbEntity
  8
DEFPOINTS
 62
     0
100
AcDbPoint
 10
-28.3062721631934
 20
-57.31532588911668
 30
0.0
  0
ENDBLK
  5
FA7
330
F9C
100
AcDbEntity
  8
0
100
AcDbBlockEnd
  0
BLOCK
  5
FB3
330
FA9
100
AcDbEntity
  8
0
100
AcDbBlockBegin
  2
*D16
 70
     1
 10
0.0
 20
0.0
 30
0.0
  3
*D16
  1

  0
LINE
  5
13E1
330
FA9
100
AcDbEntity
  8
Z_OM_DIM
100
AcDbLine
 10
-7.233397377932817
 20
-47.51532588911668
 30
0.0
 11
-35.215233460246
 21
-47.51532588911667
 31
0.0
  0
LINE
  5
13E2
330
FA9
100
AcDbEntity
  8
Z_OM_DIM
100
AcDbLine
 10
-4.833397377932811
 20
-57.81532588911669
 30
0.0
 11
-35.21523346024601
 21
-57.81532588911668
 31
0.0
  0
LINE
  5
13E3
330
FA9
100
AcDbEntity
  8
Z_OM_DIM
100
AcDbLine
 10
-33.71523346024601
 20
-50.51532588911668
 30
0.0
 11
-33.71523346024601
 21
-54.81532588911668
 31
0.0
  0
INSERT
  5
13E4
330
FA9
100
AcDbEntity
  8
Z_OM_DIM
100
AcDbBlockReference
  2
_OPEN30
 10
-33.715233460246
 20
-47.51532588911667
 30
0.0
 41
3.0
 42
3.0
 43
3.0
 50
90.0
  0
INSERT
  5
13E5
330
FA9
100
AcDbEntity
  8
Z_OM_DIM
100
AcDbBlockReference
  2
_OPEN30
 10
-33.71523346024601
 20
-57.81532588911668
 30
0.0
 41
3.0
 42
3.0
 43
3.0
 50
270.0
  0
MTEXT
  5
13E6
330
FA9
100
AcDbEntity
  8
Z_OM_DIM
100
AcDbMText
 10
-35.61523346024599
 20
-52.66532588911669
 30
0.0
 40
2.2
 41
0.0
 71
     5
 72
     1
  1
\A1;10.3
 11
0.0000000000000001
 21
1.0
 31
0.0
1001
ACAD
1000
MTEXTBEGIN
1070
    73
1070
     1
1070
    44
1040
1.0
1070
    74
1070
     0
1000
MTEXTEND
  0
POINT
  5
13E7
330
FA9
100
AcDbEntity
  8
DEFPOINTS
 62
     0
100
AcDbPoint
 10
-6.733397377932817
 20
-47.51532588911668
 30
0.0
  0
POINT
  5
13E8
330
FA9
100
AcDbEntity
  8
DEFPOINTS
 62
     0
100
AcDbPoint
 10
-4.333397377932811
 20
-57.81532588911669
 30
0.0
  0
POINT
  5
13E9
330
FA9
100
AcDbEntity
  8
DEFPOINTS
 62
     0
100
AcDbPoint
 10
-33.71523346024601
 20
-57.81532588911668
 30
0.0
  0
ENDBLK
  5
FB4
330
FA9
100
AcDbEntity
  8
0
100
AcDbBlockEnd
  0
BLOCK
  5
FC2
330
FB6
100
AcDbEntity
  8
0
100
AcDbBlockBegin
  2
*D17
 70
     1
 10
0.0
 20
0.0
 30
0.0
  3
*D17
  1

  0
LINE
  5
13B7
330
FB6
100
AcDbEntity
  8
Z_OM_DIM
100
AcDbLine
 10
-10.73339737793281
 20
-47.51532588911668
 30
0.0
 11
-10.73339737793281
 21
-41.51662264300056
 31
0.0
  0
LINE
  5
13B8
330
FB6
100
AcDbEntity
  8
Z_OM_DIM
100
AcDbLine
 10
-7.733397377932831
 20
-47.51532588911668
 30
0.0
 11
-7.733397377932831
 21
-41.51662264300056
 31
0.0
  0
LINE
  5
13B9
330
FB6
100
AcDbEntity
  8
Z_OM_DIM
100
AcDbLine
 10
-13.73339737793281
 20
-43.01662264300055
 30
0.0
 11
-16.73339737793281
 21
-43.01662264300055
 31
0.0
  0
LINE
  5
13BA
330
FB6
100
AcDbEntity
  8
Z_OM_DIM
100
AcDbLine
 10
-4.733397377932831
 20
-43.01662264300055
 30
0.0
 11
-1.733397377932831
 21
-43.01662264300055
 31
0.0
  0
LINE
  5
13BB
330
FB6
100
AcDbEntity
  8
Z_OM_DIM
100
AcDbLine
 10
-10.73339737793281
 20
-43.01662264300055
 30
0.0
 11
-7.733397377932831
 21
-43.01662264300055
 31
0.0
  0
INSERT
  5
13BC
330
FB6
100
AcDbEntity
  8
Z_OM_DIM
100
AcDbBlockReference
  2
_OPEN30
 10
-10.73339737793281
 20
-43.01662264300055
 30
0.0
 41
3.0
 42
3.0
 43
3.0
  0
INSERT
  5
13BD
330
FB6
100
AcDbEntity
  8
Z_OM_DIM
100
AcDbBlockReference
  2
_OPEN30
 10
-7.733397377932831
 20
-43.01662264300055
 30
0.0
 41
3.0
 42
3.0
 43
3.0
 50
180.0
  0
MTEXT
  5
13BE
330
FB6
100
AcDbEntity
  8
Z_OM_DIM
100
AcDbMText
 10
-9.233397377932824
 20
-41.11662264300056
 30
0.0
 40
2.2
 41
0.0
 71
     5
 72
     1
  1
\A1;3
1001
ACAD
1000
MTEXTBEGIN
1070
    73
1070
     1
1070
    44
1040
1.0
1070
    74
1070
     0
1000
MTEXTEND
  0
POINT
  5
13BF
330
FB6
100
AcDbEntity
  8
DEFPOINTS
 62
     0
100
AcDbPoint
 10
-10.73339737793281
 20
-48.01532588911669
 30
0.0
  0
POINT
  5
13C0
330
FB6
100
AcDbEntity
  8
DEFPOINTS
 62
     0
100
AcDbPoint
 10
-7.733397377932831
 20
-48.01532588911669
 30
0.0
  0
POINT
  5
13C1
330
FB6
100
AcDbEntity
  8
DEFPOINTS
 62
     0
100
AcDbPoint
 10
-7.733397377932831
 20
-43.01662264300055
 30
0.0
  0
ENDBLK
  5
FC3
330
FB6
100
AcDbEntity
  8
0
100
AcDbBlockEnd
  0
BLOCK
  5
FCF
330
FC5
100
AcDbEntity
  8
0
100
AcDbBlockBegin
  2
*D18
 70
     1
 10
0.0
 20
0.0
 30
0.0
  3
*D18
  1

  0
LINE
  5
1377
330
FC5
100
AcDbEntity
  8
Z_OM_DIM
100
AcDbLine
 10
-1.333397377932797
 20
-48.91382588911669
 30
0.0
 11
-1.333397377932796
 21
-32.90719852982732
 31
0.0
  0
LINE
  5
1378
330
FC5
100
AcDbEntity
  8
Z_OM_DIM
100
AcDbLine
 10
14.66660262206717
 20
-48.56732588911668
 30
0.0
 11
14.66660262206717
 21
-32.90719852982732
 31
0.0
  0
LINE
  5
1379
330
FC5
100
AcDbEntity
  8
Z_OM_DIM
100
AcDbLine
 10
1.666602622067203
 20
-34.40719852982732
 30
0.0
 11
11.66660262206717
 21
-34.40719852982732
 31
0.0
  0
INSERT
  5
137A
330
FC5
100
AcDbEntity
  8
Z_OM_DIM
100
AcDbBlockReference
  2
_OPEN30
 10
-1.333397377932796
 20
-34.40719852982732
 30
0.0
 41
3.0
 42
3.0
 43
3.0
 50
180.0
  0
INSERT
  5
137B
330
FC5
100
AcDbEntity
  8
Z_OM_DIM
100
AcDbBlockReference
  2
_OPEN30
 10
14.66660262206717
 20
-34.40719852982732
 30
0.0
 41
3.0
 42
3.0
 43
3.0
  0
MTEXT
  5
137C
330
FC5
100
AcDbEntity
  8
Z_OM_DIM
100
AcDbMText
 10
6.666602622067188
 20
-32.50719852982733
 30
0.0
 40
2.2
 41
0.0
 71
     5
 72
     1
  1
\A1;16
1001
ACAD
1000
MTEXTBEGIN
1070
    73
1070
     1
1070
    44
1040
1.0
1070
    74
1070
     0
1000
MTEXTEND
  0
POINT
  5
137D
330
FC5
100
AcDbEntity
  8
DEFPOINTS
 62
     0
100
AcDbPoint
 10
-1.333397377932797
 20
-49.41382588911669
 30
0.0
  0
POINT
  5
137E
330
FC5
100
AcDbEntity
  8
DEFPOINTS
 62
     0
100
AcDbPoint
 10
14.66660262206717
 20
-49.06732588911669
 30
0.0
  0
POINT
  5
137F
330
FC5
100
AcDbEntity
  8
DEFPOINTS
 62
     0
100
AcDbPoint
 10
14.66660262206717
 20
-34.40719852982732
 30
0.0
  0
ENDBLK
  5
FD0
330
FC5
100
AcDbEntity
  8
0
100
AcDbBlockEnd
  0
BLOCK
  5
FDE
330
FD2
100
AcDbEntity
  8
0
100
AcDbBlockBegin
  2
*D19
 70
     1
 10
0.0
 20
0.0
 30
0.0
  3
*D19
  1

  0
LINE
  5
13AC
330
FD2
100
AcDbEntity
  8
Z_OM_DIM
100
AcDbLine
 10
21.06660262206717
 20
-47.51532588911668
 30
0.0
 11
21.06660262206717
 21
-41.5153258891167
 31
0.0
  0
LINE
  5
13AD
330
FD2
100
AcDbEntity
  8
Z_OM_DIM
100
AcDbLine
 10
24.06660262206718
 20
-47.51532588911668
 30
0.0
 11
24.06660262206718
 21
-41.5153258891167
 31
0.0
  0
LINE
  5
13AE
330
FD2
100
AcDbEntity
  8
Z_OM_DIM
100
AcDbLine
 10
18.06660262206717
 20
-43.01532588911669
 30
0.0
 11
15.06660262206717
 21
-43.01532588911669
 31
0.0
  0
LINE
  5
13AF
330
FD2
100
AcDbEntity
  8
Z_OM_DIM
100
AcDbLine
 10
27.06660262206717
 20
-43.01532588911669
 30
0.0
 11
30.06660262206718
 21
-43.01532588911669
 31
0.0
  0
LINE
  5
13B0
330
FD2
100
AcDbEntity
  8
Z_OM_DIM
100
AcDbLine
 10
21.06660262206717
 20
-43.01532588911669
 30
0.0
 11
24.06660262206718
 21
-43.01532588911669
 31
0.0
  0
INSERT
  5
13B1
330
FD2
100
AcDbEntity
  8
Z_OM_DIM
100
AcDbBlockReference
  2
_OPEN30
 10
21.06660262206717
 20
-43.01532588911669
 30
0.0
 41
3.0
 42
3.0
 43
3.0
  0
INSERT
  5
13B2
330
FD2
100
AcDbEntity
  8
Z_OM_DIM
100
AcDbBlockReference
  2
_OPEN30
 10
24.06660262206718
 20
-43.01532588911669
 30
0.0
 41
3.0
 42
3.0
 43
3.0
 50
180.0
  0
MTEXT
  5
13B3
330
FD2
100
AcDbEntity
  8
Z_OM_DIM
100
AcDbMText
 10
22.56660262206718
 20
-41.1153258891167
 30
0.0
 40
2.2
 41
0.0
 71
     5
 72
     1
  1
\A1;3
1001
ACAD
1000
MTEXTBEGIN
1070
    73
1070
     1
1070
    44
1040
1.0
1070
    74
1070
     0
1000
MTEXTEND
  0
POINT
  5
13B4
330
FD2
100
AcDbEntity
  8
DEFPOINTS
 62
     0
100
AcDbPoint
 10
21.06660262206717
 20
-48.01532588911669
 30
0.0
  0
POINT
  5
13B5
330
FD2
100
AcDbEntity
  8
DEFPOINTS
 62
     0
100
AcDbPoint
 10
24.06660262206718
 20
-48.01532588911669
 30
0.0
  0
POINT
  5
13B6
330
FD2
100
AcDbEntity
  8
DEFPOINTS
 62
     0
100
AcDbPoint
 10
24.06660262206718
 20
-43.01532588911669
 30
0.0
  0
ENDBLK
  5
FDF
330
FD2
100
AcDbEntity
  8
0
100
AcDbBlockEnd
  0
BLOCK
  5
128C
330
1282
100
AcDbEntity
  8
0
100
AcDbBlockBegin
  2
*D20
 70
     1
 10
0.0
 20
0.0
 30
0.0
  3
*D20
  1

  0
LINE
  5
12BD
330
1282
100
AcDbEntity
  8
Z_OM_DIM
100
AcDbLine
 10
91.53193604530679
 20
-67.18784999999994
 30
0.0
 11
91.53193604530679
 21
-74.19286533257366
 31
0.0
  0
LINE
  5
12BE
330
1282
100
AcDbEntity
  8
Z_OM_DIM
100
AcDbLine
 10
107.5319360453067
 20
-67.18784999999994
 30
0.0
 11
107.5319360453067
 21
-74.19286533257366
 31
0.0
  0
LINE
  5
12BF
330
1282
100
AcDbEntity
  8
Z_OM_DIM
100
AcDbLine
 10
94.5319360453068
 20
-72.69286533257366
 30
0.0
 11
104.5319360453067
 21
-72.69286533257366
 31
0.0
  0
INSERT
  5
12C0
330
1282
100
AcDbEntity
  8
Z_OM_DIM
100
AcDbBlockReference
  2
_OPEN30
 10
91.53193604530679
 20
-72.69286533257366
 30
0.0
 41
3.0
 42
3.0
 43
3.0
 50
180.0
  0
INSERT
  5
12C1
330
1282
100
AcDbEntity
  8
Z_OM_DIM
100
AcDbBlockReference
  2
_OPEN30
 10
107.5319360453067
 20
-72.69286533257366
 30
0.0
 41
3.0
 42
3.0
 43
3.0
  0
MTEXT
  5
12C2
330
1282
100
AcDbEntity
  8
Z_OM_DIM
100
AcDbMText
 10
99.5319360453068
 20
-70.79286533257366
 30
0.0
 40
2.2
 41
0.0
 71
     5
 72
     1
  1
\A1;16±0.1
1001
ACAD
1000
MTEXTBEGIN
1070
    73
1070
     1
1070
    44
1040
1.0
1070
    74
1070
     0
1000
MTEXTEND
  0
POINT
  5
12C3
330
1282
100
AcDbEntity
  8
DEFPOINTS
 62
     0
100
AcDbPoint
 10
91.53193604530679
 20
-66.68784999999994
 30
0.0
  0
POINT
  5
12C4
330
1282
100
AcDbEntity
  8
DEFPOINTS
 62
     0
100
AcDbPoint
 10
107.5319360453067
 20
-66.68784999999994
 30
0.0
  0
POINT
  5
12C5
330
1282
100
AcDbEntity
  8
DEFPOINTS
 62
     0
100
AcDbPoint
 10
107.5319360453067
 20
-72.69286533257366
 30
0.0
  0
ENDBLK
  5
128D
330
1282
100
AcDbEntity
  8
0
100
AcDbBlockEnd
  0
ENDSEC
  0
SECTION
  2
ENTITIES
  0
LINE
  5
BB0
330
17
100
AcDbEntity
  8
Z_OM_CENTER
 48
3.0
100
AcDbLine
 10
88.14043604530679
 20
-62.97009999999992
 30
0.0
 11
111.7944360453067
 21
-62.97009999999992
 31
0.0
  0
CIRCLE
  5
BB1
330
17
100
AcDbEntity
  8
Z_OM_MOUNT
100
AcDbCircle
 10
91.53193604530679
 20
-62.97009999999992
 30
0.0
 40
1.5
  0
CIRCLE
  5
BB2
330
17
100
AcDbEntity
  8
Z_OM_THIN_LINE
100
AcDbCircle
 10
91.53193604530679
 20
-62.97009999999992
 30
0.0
 40
1.7
  0
CIRCLE
  5
BB3
330
17
100
AcDbEntity
  8
Z_OM_MOUNT
100
AcDbCircle
 10
107.5319360453067
 20
-62.97009999999992
 30
0.0
 40
1.5
  0
CIRCLE
  5
BB4
330
17
100
AcDbEntity
  8
Z_OM_THIN_LINE
100
AcDbCircle
 10
107.5319360453067
 20
-62.97009999999992
 30
0.0
 40
1.7
  0
LINE
  5
BB7
330
17
100
AcDbEntity
  8
Z_OM_CENTER
 48
3.0
100
AcDbLine
 10
91.53193604530679
 20
-59.38299999999991
 30
0.0
 11
91.53193604530679
 21
-66.68784999999994
 31
0.0
  0
LINE
  5
BB8
330
17
100
AcDbEntity
  8
Z_OM_CENTER
 48
3.0
100
AcDbLine
 10
107.5319360453067
 20
-59.38299999999991
 30
0.0
 11
107.5319360453067
 21
-66.68784999999994
 31
0.0
  0
LINE
  5
BBE
330
17
100
AcDbEntity
  8
Z_OM_CENTER
 48
3.0
100
AcDbLine
 10
-11.77539737793283
 20
-52.66532588911669
 30
0.0
 11
25.94910262206717
 21
-52.66532588911669
 31
0.0
  0
LINE
  5
BC2
330
17
100
AcDbEntity
  8
Z_OM_OUTLINE
100
AcDbLine
 10
-10.73339737793281
 20
-57.31532588911669
 30
0.0
 11
-10.73339737793281
 21
-48.01532588911669
 31
0.0
  0
LINE
  5
BC3
330
17
100
AcDbEntity
  8
Z_OM_OUTLINE
100
AcDbLine
 10
24.06660262206718
 20
-57.31532588911669
 30
0.0
 11
24.06660262206718
 21
-48.01532588911669
 31
0.0
  0
LINE
  5
BC4
330
17
100
AcDbEntity
  8
Z_OM_OUTLINE
100
AcDbLine
 10
-6.733397377932817
 20
-56.16532588911669
 30
0.0
 11
-6.733397377932817
 21
-47.51532588911668
 31
0.0
  0
LINE
  5
BC5
330
17
100
AcDbEntity
  8
Z_OM_OUTLINE
100
AcDbLine
 10
20.06660262206718
 20
-56.16532588911669
 30
0.0
 11
20.06660262206718
 21
-47.51532588911668
 31
0.0
  0
LINE
  5
BC6
330
17
100
AcDbEntity
  8
Z_OM_CENTER
 48
3.0
100
AcDbLine
 10
-1.333397377932797
 20
-49.41382588911669
 30
0.0
 11
-1.333397377932797
 21
-54.34732588911669
 31
0.0
  0
LINE
  5
BC7
330
17
100
AcDbEntity
  8
Z_OM_CENTER
 48
3.0
100
AcDbLine
 10
14.66660262206717
 20
-54.11382588911668
 30
0.0
 11
14.66660262206717
 21
-49.06732588911669
 31
0.0
  0
LINE
  5
BC8
330
17
100
AcDbEntity
  8
Z_OM_CENTER
 48
3.0
100
AcDbLine
 10
6.666602622067188
 20
-60.08932588911667
 30
0.0
 11
6.666602622067188
 21
-46.32332588911669
 31
0.0
  0
LINE
  5
BC9
330
17
100
AcDbEntity
  8
Z_OM_OUTLINE
100
AcDbLine
 10
-10.73339737793281
 20
-57.31532588911669
 30
0.0
 11
-7.733397377932831
 21
-57.31532588911669
 31
0.0
  0
LINE
  5
BCA
330
17
100
AcDbEntity
  8
Z_OM_OUTLINE
100
AcDbLine
 10
-10.73339737793281
 20
-56.16532588911669
 30
0.0
 11
-4.333397377932811
 21
-56.16532588911669
 31
0.0
  0
LINE
  5
BCB
330
17
100
AcDbEntity
  8
Z_OM_OUTLINE
100
AcDbLine
 10
-4.333397377932811
 20
-57.81532588911669
 30
0.0
 11
17.66660262206717
 21
-57.81532588911669
 31
0.0
  0
ARC
  5
BCE
330
17
100
AcDbEntity
  8
Z_OM_OUTLINE
100
AcDbCircle
 10
-1.333397377932797
 20
-52.16532588911668
 30
0.0
 40
1.7
100
AcDbArc
 50
0.0
 51
180.0
  0
ARC
  5
BCF
330
17
100
AcDbEntity
  8
Z_OM_OUTLINE
100
AcDbCircle
 10
-1.333397377932797
 20
-53.16532588911669
 30
0.0
 40
1.7
100
AcDbArc
 50
180.0
 51
0.0
  0
LINE
  5
BD0
330
17
100
AcDbEntity
  8
Z_OM_OUTLINE
100
AcDbLine
 10
-7.733397377932831
 20
-57.31532588911669
 30
0.0
 11
-7.733397377932831
 21
-56.16532588911669
 31
0.0
  0
LINE
  5
BD1
330
17
100
AcDbEntity
  8
Z_OM_OUTLINE
100
AcDbLine
 10
-4.333397377932811
 20
-57.81532588911669
 30
0.0
 11
-4.333397377932811
 21
-56.16532588911669
 31
0.0
  0
POINT
  5
BD2
330
17
100
AcDbEntity
  8
Z_OM_OUTLINE
100
AcDbPoint
 10
-6.733397377932817
 20
-52.66532588911669
 30
0.0
  0
LINE
  5
BD3
330
17
100
AcDbEntity
  8
Z_OM_OUTLINE
100
AcDbLine
 10
-3.033397377932828
 20
-52.16532588911668
 30
0.0
 11
-3.033397377932828
 21
-53.16532588911669
 31
0.0
  0
LINE
  5
BD8
330
17
100
AcDbEntity
  8
Z_OM_OUTLINE
100
AcDbLine
 10
0.3666026220672052
 20
-53.16532588911669
 30
0.0
 11
0.3666026220672052
 21
-52.16532588911668
 31
0.0
  0
ARC
  5
BDA
330
17
100
AcDbEntity
  8
Z_OM_OUTLINE
100
AcDbCircle
 10
15.16825703383188
 20
-52.66532588911669
 30
0.0
 40
1.700000805022837
100
AcDbArc
 50
269.9442407166062
 51
90.05575928263764
  0
ARC
  5
BDB
330
17
100
AcDbEntity
  8
Z_OM_OUTLINE
100
AcDbCircle
 10
14.16494821030247
 20
-52.66532588911669
 30
0.0
 40
1.700000805022845
100
AcDbArc
 50
89.94424071723567
 51
270.0557592833939
  0
LINE
  5
BDC
330
17
100
AcDbEntity
  8
Z_OM_CENTER
 48
3.0
100
AcDbLine
 10
14.16660262206718
 20
-53.35532588911668
 30
0.0
 11
14.16660262206718
 21
-51.88182588911669
 31
0.0
  0
LINE
  5
BDD
330
17
100
AcDbEntity
  8
Z_OM_CENTER
 48
3.0
100
AcDbLine
 10
15.16660262206717
 20
-53.17982588911668
 30
0.0
 11
15.16660262206717
 21
-51.94482588911666
 31
0.0
  0
LINE
  5
BDE
330
17
100
AcDbEntity
  8
Z_OM_OUTLINE
100
AcDbLine
 10
14.16660262206718
 20
-54.36532588911667
 30
0.0
 11
15.16660262206717
 21
-54.36532588911667
 31
0.0
  0
LINE
  5
BE0
330
17
100
AcDbEntity
  8
Z_OM_OUTLINE
100
AcDbLine
 10
17.66660262206717
 20
-56.16532588911669
 30
0.0
 11
24.06660262206718
 21
-56.16532588911669
 31
0.0
  0
LINE
  5
BE1
330
17
100
AcDbEntity
  8
Z_OM_OUTLINE
100
AcDbLine
 10
17.66660262206717
 20
-57.81532588911669
 30
0.0
 11
17.66660262206717
 21
-56.16532588911669
 31
0.0
  0
LINE
  5
BE2
330
17
100
AcDbEntity
  8
Z_OM_OUTLINE
100
AcDbLine
 10
24.06660262206718
 20
-57.31532588911669
 30
0.0
 11
21.06660262206717
 21
-57.31532588911669
 31
0.0
  0
LINE
  5
BE3
330
17
100
AcDbEntity
  8
Z_OM_OUTLINE
100
AcDbLine
 10
21.06660262206717
 20
-57.31532588911669
 30
0.0
 11
21.06660262206717
 21
-56.16532588911669
 31
0.0
  0
LINE
  5
BE9
330
17
100
AcDbEntity
  8
Z_OM_OUTLINE
100
AcDbLine
 10
-10.73339737793281
 20
-48.01532588911669
 30
0.0
 11
-7.733397377932831
 21
-48.01532588911669
 31
0.0
  0
LINE
  5
BEA
330
17
100
AcDbEntity
  8
Z_OM_OUTLINE
100
AcDbLine
 10
-10.73339737793281
 20
-49.16532588911668
 30
0.0
 11
-6.733397377932817
 21
-49.16532588911668
 31
0.0
  0
LINE
  5
BEB
330
17
100
AcDbEntity
  8
Z_OM_OUTLINE
100
AcDbLine
 10
-5.900000000000019
 20
3.000000000000113
 30
0.0
 11
-9.400000000000019
 21
3.000000000000113
 31
0.0
  0
LINE
  5
BEC
330
17
100
AcDbEntity
  8
Z_OM_OUTLINE
100
AcDbLine
 10
-8.900000000000019
 20
0.5000000000001137
 30
0.0
 11
-6.900000000000019
 21
0.5000000000001137
 31
0.0
  0
LINE
  5
BEE
330
17
100
AcDbEntity
  8
Z_OM_OUTLINE
100
AcDbLine
 10
-9.400000000000019
 20
3.000000000000113
 30
0.0
 11
-9.400000000000019
 21
1.000000000000113
 31
0.0
  0
ARC
  5
BEF
330
17
100
AcDbEntity
  8
Z_OM_OUTLINE
100
AcDbCircle
 10
-8.900000000000019
 20
1.000000000000113
 30
0.0
 40
0.5
100
AcDbArc
 50
180.0
 51
270.0
  0
LINE
  5
BF3
330
17
100
AcDbEntity
  8
Z_OM_OUTLINE
100
AcDbLine
 10
-6.733397377932817
 20
-47.51532588911668
 30
0.0
 11
20.06660262206718
 21
-47.51532588911668
 31
0.0
  0
LINE
  5
BF4
330
17
100
AcDbEntity
  8
Z_OM_OUTLINE
100
AcDbLine
 10
-7.733397377932831
 20
-49.16532588911668
 30
0.0
 11
-7.733397377932831
 21
-48.01532588911669
 31
0.0
  0
LINE
  5
BF6
330
17
100
AcDbEntity
  8
Z_OM_OUTLINE
100
AcDbLine
 10
24.06660262206718
 20
-49.16532588911668
 30
0.0
 11
20.06660262206718
 21
-49.16532588911668
 31
0.0
  0
LINE
  5
BF7
330
17
100
AcDbEntity
  8
Z_OM_OUTLINE
100
AcDbLine
 10
21.06660262206717
 20
-48.01532588911669
 30
0.0
 11
24.06660262206718
 21
-48.01532588911669
 31
0.0
  0
LINE
  5
BF8
330
17
100
AcDbEntity
  8
Z_OM_OUTLINE
100
AcDbLine
 10
21.06660262206717
 20
-49.16532588911668
 30
0.0
 11
21.06660262206717
 21
-48.01532588911669
 31
0.0
  0
LINE
  5
BFA
330
17
100
AcDbEntity
  8
Z_OM_OUTLINE
100
AcDbLine
 10
-2.5
 20
3.000000000000113
 30
0.0
 11
18.49999999999997
 21
3.000000000000113
 31
0.0
  0
LINE
  5
BFB
330
17
100
AcDbEntity
  8
Z_OM_OUTLINE
100
AcDbLine
 10
-3.200000000000017
 20
-4.299999999999883
 30
0.0
 11
19.19999999999996
 21
-4.299999999999883
 31
0.0
  0
LINE
  5
BFC
330
17
100
AcDbEntity
  8
Z_OM_OUTLINE
100
AcDbLine
 10
-3.200000000000017
 20
-3.299999999999883
 30
0.0
 11
19.19999999999996
 21
-3.299999999999883
 31
0.0
  0
LINE
  5
BFD
330
17
100
AcDbEntity
  8
Z_OM_OUTLINE
100
AcDbLine
 10
-6.400000000000019
 20
3.000000000000113
 30
0.0
 11
-6.400000000000019
 21
1.000000000000113
 31
0.0
  0
LINE
  5
BFE
330
17
100
AcDbEntity
  8
Z_OM_CENTER
 48
3.0
100
AcDbLine
 10
8.0
 20
-6.334999999999993
 30
0.0
 11
8.0
 21
4.838000000000121
 31
0.0
  0
LINE
  5
BFF
330
17
100
AcDbEntity
  8
Z_OM_OUTLINE
100
AcDbLine
 10
-3.0
 20
-3.299999999999883
 30
0.0
 11
-3.0
 21
2.500000000000113
 31
0.0
  0
ARC
  5
C00
330
17
100
AcDbEntity
  8
Z_OM_OUTLINE
100
AcDbCircle
 10
-5.900000000000019
 20
1.500000000000113
 30
0.0
 40
1.5
100
AcDbArc
 50
0.0
 51
90.0
  0
CIRCLE
  5
C01
330
17
100
AcDbEntity
  8
Z_OM_OUTLINE
100
AcDbCircle
 10
0.0
 20
0.0
 30
0.0
 40
1.6
  0
ARC
  5
C03
330
17
100
AcDbEntity
  8
Z_OM_OUTLINE
100
AcDbCircle
 10
-3.200000000000017
 20
-2.09999999999988
 30
0.0
 40
1.199999999999999
100
AcDbArc
 50
180.0
 51
270.0
  0
ARC
  5
C04
330
17
100
AcDbEntity
  8
Z_OM_OUTLINE
100
AcDbCircle
 10
-3.200000000000017
 20
-2.09999999999988
 30
0.0
 40
2.2
100
AcDbArc
 50
180.0
 51
270.0
  0
LINE
  5
C06
330
17
100
AcDbEntity
  8
Z_OM_OUTLINE
100
AcDbLine
 10
-4.400000000000019
 20
-2.09999999999988
 30
0.0
 11
-4.400000000000019
 21
1.500000000000113
 31
0.0
  0
LINE
  5
C07
330
17
100
AcDbEntity
  8
Z_OM_OUTLINE
100
AcDbLine
 10
-5.400000000000019
 20
-2.09999999999988
 30
0.0
 11
-5.400000000000019
 21
1.500000000000113
 31
0.0
  0
LINE
  5
C08
330
17
100
AcDbEntity
  8
Z_OM_OUTLINE
100
AcDbLine
 10
-5.400000000000019
 20
1.000000000000113
 30
0.0
 11
-4.400000000000019
 21
1.000000000000113
 31
0.0
  0
LINE
  5
C09
330
17
100
AcDbEntity
  8
Z_OM_OUTLINE
100
AcDbLine
 10
-6.400000000000019
 20
2.000000000000113
 30
0.0
 11
-5.900000000000019
 21
2.000000000000113
 31
0.0
  0
ARC
  5
C0A
330
17
100
AcDbEntity
  8
Z_OM_OUTLINE
100
AcDbCircle
 10
-6.900000000000019
 20
1.000000000000113
 30
0.0
 40
0.5
100
AcDbArc
 50
270.0
 51
0.0
  0
ARC
  5
C0B
330
17
100
AcDbEntity
  8
Z_OM_OUTLINE
100
AcDbCircle
 10
-5.900000000000019
 20
1.500000000000113
 30
0.0
 40
0.5
100
AcDbArc
 50
0.0
 51
90.0
  0
ARC
  5
C0F
330
17
100
AcDbEntity
  8
Z_OM_OUTLINE
100
AcDbCircle
 10
-2.5
 20
2.500000000000113
 30
0.0
 40
0.5
100
AcDbArc
 50
90.0
 51
180.0
  0
LINE
  5
C10
330
17
100
AcDbEntity
  8
Z_OM_OUTLINE
100
AcDbLine
 10
25.40049999999996
 20
3.000000000000113
 30
0.0
 11
25.40049999999996
 21
1.000000000000113
 31
0.0
  0
LINE
  5
C11
330
17
100
AcDbEntity
  8
Z_OM_OUTLINE
100
AcDbLine
 10
18.99999999999997
 20
-3.299999999999883
 30
0.0
 11
18.99999999999997
 21
2.500000000000113
 31
0.0
  0
ARC
  5
C12
330
17
100
AcDbEntity
  8
Z_OM_OUTLINE
100
AcDbCircle
 10
21.90049999999996
 20
1.500000000000113
 30
0.0
 40
1.5
100
AcDbArc
 50
90.0
 51
180.0
  0
LINE
  5
C13
330
17
100
AcDbEntity
  8
Z_OM_OUTLINE
100
AcDbLine
 10
22.40049999999996
 20
3.000000000000113
 30
0.0
 11
22.40049999999996
 21
1.000000000000113
 31
0.0
  0
CIRCLE
  5
C14
330
17
100
AcDbEntity
  8
Z_OM_OUTLINE
100
AcDbCircle
 10
15.99999999999997
 20
0.0
 30
0.0
 40
1.6
  0
LINE
  5
C16
330
17
100
AcDbEntity
  8
Z_OM_CENTER
 48
3.0
100
AcDbLine
 10
15.99999999999997
 20
2.600000000000051
 30
0.0
 11
15.99999999999997
 21
-2.60000000000005
 31
0.0
  0
LINE
  5
C17
330
17
100
AcDbEntity
  8
Z_OM_CENTER
 48
3.0
100
AcDbLine
 10
18.92474999999996
 20
0.0000000000000004
 30
0.0
 11
13.07524999999997
 21
0.0000000000000005
 31
0.0
  0
ARC
  5
C19
330
17
100
AcDbEntity
  8
Z_OM_OUTLINE
100
AcDbCircle
 10
19.19999999999996
 20
-2.09999999999988
 30
0.0
 40
2.2
100
AcDbArc
 50
270.0
 51
0.0
  0
ARC
  5
C1A
330
17
100
AcDbEntity
  8
Z_OM_OUTLINE
100
AcDbCircle
 10
19.19999999999996
 20
-2.09999999999988
 30
0.0
 40
1.199999999999999
100
AcDbArc
 50
270.0
 51
0.0
  0
ARC
  5
C1B
330
17
100
AcDbEntity
  8
Z_OM_OUTLINE
100
AcDbCircle
 10
21.90049999999996
 20
1.500000000000113
 30
0.0
 40
0.5
100
AcDbArc
 50
90.0
 51
180.0
  0
LINE
  5
C1C
330
17
100
AcDbEntity
  8
Z_OM_OUTLINE
100
AcDbLine
 10
21.40049999999996
 20
-2.09999999999988
 30
0.0
 11
21.40049999999996
 21
1.500000000000113
 31
0.0
  0
LINE
  5
C1D
330
17
100
AcDbEntity
  8
Z_OM_OUTLINE
100
AcDbLine
 10
20.40049999999996
 20
-2.09999999999988
 30
0.0
 11
20.40049999999996
 21
1.500000000000113
 31
0.0
  0
LINE
  5
C1E
330
17
100
AcDbEntity
  8
Z_OM_OUTLINE
100
AcDbLine
 10
20.40049999999996
 20
1.000000000000113
 30
0.0
 11
21.40049999999996
 21
1.000000000000113
 31
0.0
  0
LINE
  5
C1F
330
17
100
AcDbEntity
  8
Z_OM_OUTLINE
100
AcDbLine
 10
22.90049999999996
 20
0.5000000000001137
 30
0.0
 11
24.90049999999996
 21
0.5000000000001137
 31
0.0
  0
LINE
  5
C20
330
17
100
AcDbEntity
  8
Z_OM_OUTLINE
100
AcDbLine
 10
22.40049999999996
 20
2.000000000000113
 30
0.0
 11
21.90049999999996
 21
2.000000000000113
 31
0.0
  0
ARC
  5
C21
330
17
100
AcDbEntity
  8
Z_OM_OUTLINE
100
AcDbCircle
 10
22.90049999999996
 20
1.000000000000113
 30
0.0
 40
0.5
100
AcDbArc
 50
180.0
 51
270.0
  0
ARC
  5
C22
330
17
100
AcDbEntity
  8
Z_OM_OUTLINE
100
AcDbCircle
 10
24.90049999999996
 20
1.000000000000113
 30
0.0
 40
0.5
100
AcDbArc
 50
270.0
 51
0.0
  0
ARC
  5
C23
330
17
100
AcDbEntity
  8
Z_OM_OUTLINE
100
AcDbCircle
 10
18.49999999999997
 20
2.500000000000113
 30
0.0
 40
0.5
100
AcDbArc
 50
0.0
 51
90.0
  0
LINE
  5
C24
330
17
100
AcDbEntity
  8
Z_OM_OUTLINE
100
AcDbLine
 10
21.90049999999996
 20
3.000000000000113
 30
0.0
 11
25.40049999999996
 21
3.000000000000113
 31
0.0
  0
LINE
  5
C28
330
17
100
AcDbEntity
  8
Z_OM_CENTER
 48
3.0
100
AcDbLine
 10
67.13349999999997
 20
4.541499999999999
 30
0.0
 11
67.13349999999997
 21
-5.877499999999884
 31
0.0
  0
LINE
  5
C29
330
17
100
AcDbEntity
  8
Z_OM_OUTLINE
100
AcDbLine
 10
72.28349999999998
 20
2.986000000000117
 30
0.0
 11
72.28349999999998
 21
-3.063999999999992
 31
0.0
  0
ARC
  5
C2A
330
17
100
AcDbEntity
  8
Z_OM_OUTLINE
100
AcDbCircle
 10
70.53349999999998
 20
1.736000000000117
 30
0.0
 40
1.25
100
AcDbArc
 50
0.0
 51
90.0
  0
ARC
  5
C2B
330
17
100
AcDbEntity
  8
Z_OM_OUTLINE
100
AcDbCircle
 10
63.73349999999996
 20
1.736000000000117
 30
0.0
 40
1.25
100
AcDbArc
 50
90.0
 51
180.0
  0
LINE
  5
C2C
330
17
100
AcDbEntity
  8
Z_OM_OUTLINE
100
AcDbLine
 10
71.03349999999998
 20
-4.313999999999879
 30
0.0
 11
61.98349999999996
 21
-4.313999999999879
 31
0.0
  0
LINE
  5
C2D
330
17
100
AcDbEntity
  8
Z_OM_OUTLINE
100
AcDbLine
 10
70.38349999999997
 20
1.986000000000117
 30
0.0
 11
63.88349999999996
 21
1.986000000000117
 31
0.0
  0
LINE
  5
C2E
330
17
100
AcDbEntity
  8
Z_OM_OUTLINE
100
AcDbLine
 10
61.98349999999996
 20
-4.313999999999879
 30
0.0
 11
61.98349999999996
 21
0.4860000000001179
 31
0.0
  0
ARC
  5
C2F
330
17
100
AcDbEntity
  8
Z_OM_OUTLINE
100
AcDbCircle
 10
62.48349999999996
 20
0.4860000000001179
 30
0.0
 40
0.5
100
AcDbArc
 50
90.0
 51
180.0
  0
LINE
  5
C30
330
17
100
AcDbEntity
  8
Z_OM_OUTLINE
100
AcDbLine
 10
62.48349999999996
 20
1.736000000000117
 30
0.0
 11
62.48349999999996
 21
0.4860000000001179
 31
0.0
  0
LINE
  5
C31
330
17
100
AcDbEntity
  8
Z_OM_OUTLINE
100
AcDbLine
 10
63.63349999999996
 20
1.736000000000117
 30
0.0
 11
63.63349999999996
 21
0.4860000000001179
 31
0.0
  0
LINE
  5
C32
330
17
100
AcDbEntity
  8
Z_OM_OUTLINE
100
AcDbLine
 10
63.63349999999996
 20
0.4860000000001179
 30
0.0
 11
62.48349999999996
 21
0.4860000000001179
 31
0.0
  0
ARC
  5
C33
330
17
100
AcDbEntity
  8
Z_OM_OUTLINE
100
AcDbCircle
 10
63.88349999999997
 20
1.736000000000117
 30
0.0
 40
0.25
100
AcDbArc
 50
90.0
 51
180.0
  0
ARC
  5
C34
330
17
100
AcDbEntity
  8
Z_OM_OUTLINE
100
AcDbCircle
 10
71.03349999999998
 20
-3.063999999999992
 30
0.0
 40
0.25
100
AcDbArc
 50
270.0
 51
0.0
  0
LINE
  5
C35
330
17
100
AcDbEntity
  8
Z_OM_OUTLINE
100
AcDbLine
 10
70.78349999999997
 20
0.4860000000001179
 30
0.0
 11
70.78349999999997
 21
-3.313999999999879
 31
0.0
  0
ARC
  5
C36
330
17
100
AcDbEntity
  8
Z_OM_OUTLINE
100
AcDbCircle
 10
71.03349999999998
 20
-3.063999999999992
 30
0.0
 40
1.25
100
AcDbArc
 50
270.0
 51
0.0
  0
LINE
  5
C37
330
17
100
AcDbEntity
  8
Z_OM_OUTLINE
100
AcDbLine
 10
71.03349999999998
 20
-3.313999999999879
 30
0.0
 11
70.78349999999997
 21
-3.313999999999879
 31
0.0
  0
LINE
  5
C38
330
17
100
AcDbEntity
  8
Z_OM_OUTLINE
100
AcDbLine
 10
71.78349999999998
 20
0.4860000000001179
 30
0.0
 11
70.63349999999997
 21
0.486000000000118
 31
0.0
  0
ARC
  5
C39
330
17
100
AcDbEntity
  8
Z_OM_OUTLINE
100
AcDbCircle
 10
70.38349999999997
 20
1.736000000000117
 30
0.0
 40
0.25
100
AcDbArc
 50
0.0
 51
90.0
  0
LINE
  5
C3A
330
17
100
AcDbEntity
  8
Z_OM_OUTLINE
100
AcDbLine
 10
71.28349999999997
 20
-3.063999999999992
 30
0.0
 11
71.28349999999997
 21
0.4860000000001179
 31
0.0
  0
LINE
  5
C3B
330
17
100
AcDbEntity
  8
Z_OM_OUTLINE
100
AcDbLine
 10
71.78349999999998
 20
1.736000000000117
 30
0.0
 11
71.78349999999998
 21
0.4860000000001179
 31
0.0
  0
LINE
  5
C3C
330
17
100
AcDbEntity
  8
Z_OM_OUTLINE
100
AcDbLine
 10
70.53349999999998
 20
2.986000000000117
 30
0.0
 11
63.73349999999996
 21
2.986000000000117
 31
0.0
  0
LINE
  5
C3E
330
17
100
AcDbEntity
  8
Z_OM_OUTLINE
100
AcDbLine
 10
72.28349999999998
 20
2.986000000000117
 30
0.0
 11
71.28349999999997
 21
2.986000000000117
 31
0.0
  0
LINE
  5
C3F
330
17
100
AcDbEntity
  8
Z_OM_OUTLINE
100
AcDbLine
 10
71.28349999999997
 20
2.736000000000117
 30
0.0
 11
71.28349999999997
 21
2.986000000000117
 31
0.0
  0
LINE
  5
E5E
330
17
100
AcDbEntity
  8
Z_OM_CENTER
 48
3.0
100
AcDbLine
 10
0.0
 20
2.600000000000051
 30
0.0
 11
0.0
 21
-2.60000000000005
 31
0.0
  0
LINE
  5
E5F
330
17
100
AcDbEntity
  8
Z_OM_CENTER
 48
3.0
100
AcDbLine
 10
2.924749999999995
 20
0.0000000000000004
 30
0.0
 11
-2.924749999999995
 21
0.0000000000000005
 31
0.0
  0
TEXT
  5
E60
330
17
100
AcDbEntity
  8
Z_OM_NOTE
100
AcDbText
 10
67.86750466036659
 20
-80.05377472430598
 30
0.0
 40
3.0
  1
MOUNTING SCREW HOLES
 41
1.08
100
AcDbText
  0
LEADER
  5
E64
330
17
100
AcDbEntity
  8
Z_OM_DIM
100
AcDbLeader
  3
STANDARD
 73
     0
 74
     0
 75
     1
 40
2.2
 41
8.712000000000001
 76
     3
 10
92.38980991357285
 20
-61.50243095483128
 30
0.0
 10
93.89189715331639
 20
-53.68865875693678
 30
0.0
 10
96.89189715331639
 20
-53.68865875693678
 30
0.0
340
E65
1001
ACAD
1000
DSTYLE
1002
{
1070
     5
1000
OPEN30
1070
    77
1070
     1
1070
   147
1040
0.8
1070
   342
1005
977
1002
}
1000
LEANOF
1010
0.0
1020
0.0
1030
0.0
  0
MTEXT
  5
E65
330
17
100
AcDbEntity
  8
Z_OM_DIM
100
AcDbMText
 10
97.6918971533164
 20
-52.88865875693677
 30
0.0
 40
2.2
 41
12.1634774752963
 71
     7
 72
     1
  1
\A1;2-M3
1001
ACAD
1000
MTEXTBEGIN
1070
    73
1070
     1
1070
    44
1040
1.0
1070
    74
1070
     0
1000
MTEXTEND
  0
LEADER
  5
E66
330
17
100
AcDbEntity
  8
Z_OM_DIM
100
AcDbLeader
  3
STANDARD
 73
     0
 74
     0
 75
     1
 40
2.2
 41
11.088
 76
     3
 10
15.66660262206717
 20
-54.36532588911667
 30
0.0
 10
29.29802481941988
 20
-65.19270092603005
 30
0.0
 10
32.29802481941987
 20
-65.19270092603005
 30
0.0
340
E67
1001
ACAD
1000
DSTYLE
1002
{
1070
     5
1000
OPEN30
1070
    77
1070
     1
1070
   147
1040
0.8
1070
   342
1005
977
1002
}
1000
LEANOF
1010
0.0
1020
0.0
1030
0.0
  0
MTEXT
  5
E67
330
17
100
AcDbEntity
  8
Z_OM_DIM
100
AcDbMText
 10
33.09802481941988
 20
-64.39270092603006
 30
0.0
 40
2.2
 41
7.345495464390751
 71
     7
 72
     1
  1
\A1;4-R1.7
1001
ACAD
1000
MTEXTBEGIN
1070
    73
1070
     1
1070
    44
1040
1.0
1070
    74
1070
     0
1000
MTEXTEND
  0
DIMENSION
  5
E72
330
17
100
AcDbEntity
  8
Z_OM_DIM
100
AcDbDimension
  2
*D1
 10
25.40049999999996
 20
24.81107989691747
 30
0.0
 11
8.00024999999997
 21
24.81107989691747
 31
0.0
 70
   160
  3
STANDARD
100
AcDbAlignedDimension
 13
-9.400000000000019
 23
3.000000000000113
 33
0.0
 14
25.40049999999996
 24
3.000000000000113
 34
0.0
100
AcDbRotatedDimension
1001
ACAD
1000
DSTYLE
1002
{
1070
   271
1070
     2
1002
}
  0
DIMENSION
  5
E88
330
17
100
AcDbEntity
  8
Z_OM_DIM
100
AcDbDimension
  2
*D2
 10
18.99999999999997
 20
16.35667077576771
 30
0.0
 11
7.999999999999985
 21
18.2566707757677
 31
0.0
 70
    32
  3
STANDARD
100
AcDbAlignedDimension
 13
-3.0
 23
2.500000000000113
 33
0.0
 14
18.99999999999997
 24
2.500000000000113
 34
0.0
100
AcDbRotatedDimension
  0
DIMENSION
  5
E95
330
17
100
AcDbEntity
  8
Z_OM_DIM
100
AcDbDimension
  2
*D3
 10
15.99999999999997
 20
8.350000000000108
 30
0.0
 11
7.999999999999985
 21
10.2500000000001
 31
0.0
 70
    32
  3
STANDARD
100
AcDbAlignedDimension
 13
0.0
 23
2.600000000000051
 33
0.0
 14
15.99999999999997
 24
3.000000000000113
 34
0.0
100
AcDbRotatedDimension
  0
DIMENSION
  5
EA2
330
17
100
AcDbEntity
  8
Z_OM_DIM
100
AcDbDimension
  2
*D4
 10
-15.29328313629702
 20
0.5000000000001156
 30
0.0
 11
-15.29328313629702
 21
12.17600000000011
 31
0.0
 70
   160
  3
STANDARD
100
AcDbAlignedDimension
 13
-9.400000000000019
 23
3.000000000000113
 33
0.0
 14
-8.900000000000019
 24
0.5000000000001137
 34
0.0
 50
90.0
100
AcDbRotatedDimension
  0
DIMENSION
  5
EB1
330
17
100
AcDbEntity
  8
Z_OM_DIM
100
AcDbDimension
  2
*D5
 10
-20.06662264712019
 20
-4.299999999999879
 30
0.0
 11
-21.96662264712019
 21
-0.6499999999998844
 31
0.0
 70
    32
  3
STANDARD
100
AcDbAlignedDimension
 13
-9.400000000000019
 23
3.000000000000113
 33
0.0
 14
-3.200000000000017
 24
-4.299999999999883
 34
0.0
 50
90.0
100
AcDbRotatedDimension
  0
DIMENSION
  5
EC0
330
17
100
AcDbEntity
  8
Z_OM_DIM
100
AcDbDimension
  2
*D6
 10
21.39999999999996
 20
-17.0906300363485
 30
0.0
 11
7.999999999999968
 21
-17.0906300363485
 31
0.0
 70
   160
  3
STANDARD
100
AcDbAlignedDimension
 13
-5.400000000000019
 23
-2.09999999999988
 33
0.0
 14
21.39999999999996
 24
-2.09999999999988
 34
0.0
100
AcDbRotatedDimension
  0
DIMENSION
  5
ECD
330
17
100
AcDbEntity
  8
Z_OM_DIM
100
AcDbDimension
  2
*D7
 10
32.24544279369618
 20
-0.0000000000000034
 30
0.0
 11
32.24544279369618
 21
10.59200000000011
 31
0.0
 70
   160
  3
STANDARD
100
AcDbAlignedDimension
 13
25.40049999999996
 23
3.000000000000113
 33
0.0
 14
18.92474999999996
 24
0.0000000000000004
 34
0.0
 50
90.0
100
AcDbRotatedDimension
  0
DIMENSION
  5
EE7
330
17
100
AcDbEntity
  8
Z_OM_DIM
100
AcDbDimension
  2
*D8
 10
55.14765080707237
 20
-4.313999999999878
 30
0.0
 11
55.14765080707237
 21
10.16200000000012
 31
0.0
 70
   160
  3
STANDARD
100
AcDbAlignedDimension
 13
62.48349999999996
 23
0.9860000000001178
 33
0.0
 14
61.98349999999996
 24
-4.313999999999879
 34
0.0
 50
90.0
100
AcDbRotatedDimension
  0
DIMENSION
  5
EF6
330
17
100
AcDbEntity
  8
Z_OM_DIM
100
AcDbDimension
  2
*D9
 10
70.63349999999997
 20
-9.253439445517386
 30
0.0
 11
67.13349999999997
 21
-7.353439445517386
 31
0.0
 70
    32
  3
STANDARD
100
AcDbAlignedDimension
 13
63.63349999999996
 23
0.4860000000001179
 33
0.0
 14
70.63349999999997
 24
0.486000000000118
 34
0.0
100
AcDbRotatedDimension
  0
DIMENSION
  5
F50
330
17
100
AcDbEntity
  8
Z_OM_DIM
100
AcDbDimension
  2
*D10
 10
36.21919980347819
 20
-54.36532588911668
 30
0.0
 11
36.2191998034782
 21
-40.75132588911668
 31
0.0
 70
   160
  3
STANDARD
100
AcDbAlignedDimension
 13
15.1666026220896
 23
-50.96532588911667
 33
0.0
 14
15.16660262206717
 24
-54.36532588911667
 34
0.0
 50
90.0
100
AcDbRotatedDimension
  0
DIMENSION
  5
F5F
330
17
100
AcDbEntity
  8
Z_OM_DIM
100
AcDbDimension
  2
*D11
 10
15.16660262206717
 20
-66.81534668074788
 30
0.0
 11
22.36260262206717
 21
-64.91534668074788
 31
0.0
 70
    32
  3
STANDARD
100
AcDbAlignedDimension
 13
14.16660262206718
 23
-53.35532588911668
 33
0.0
 14
15.16660262206717
 24
-53.17982588911668
 34
0.0
100
AcDbRotatedDimension
  0
DIMENSION
  5
F6E
330
17
100
AcDbEntity
  8
Z_OM_DIM
100
AcDbDimension
  2
*D12
 10
4.977962244294068
 20
-53.16532588911669
 30
0.0
 11
4.977962244294076
 21
-60.51132588911668
 31
0.0
 70
   160
  3
STANDARD
100
AcDbAlignedDimension
 13
0.3666026220672023
 23
-52.16532588911668
 33
0.0
 14
0.3666026220672021
 24
-53.16532588911669
 34
0.0
 50
90.0
100
AcDbRotatedDimension
  0
DIMENSION
  5
F7D
330
17
100
AcDbEntity
  8
Z_OM_DIM
100
AcDbDimension
  2
*D13
 10
-3.033397377932798
 20
-67.22065866538912
 30
0.0
 11
-13.24776386559581
 21
-67.22065866538912
 31
0.0
 70
   160
  3
STANDARD
100
AcDbAlignedDimension
 13
0.3666026220672023
 23
-53.16532588911669
 33
0.0
 14
-3.033397377932797
 24
-53.16532588911669
 34
0.0
100
AcDbRotatedDimension
  0
DIMENSION
  5
F8C
330
17
100
AcDbEntity
  8
Z_OM_DIM
100
AcDbDimension
  2
*D14
 10
-22.73822322542652
 20
-56.16532588911668
 30
0.0
 11
-22.7382232254265
 21
-52.66532588911669
 31
0.0
 70
   160
  3
STANDARD
100
AcDbAlignedDimension
 13
-6.733397377932817
 23
-49.16532588911668
 33
0.0
 14
-6.733397377932817
 24
-56.16532588911669
 34
0.0
 50
90.0
100
AcDbRotatedDimension
  0
DIMENSION
  5
F9B
330
17
100
AcDbEntity
  8
Z_OM_DIM
100
AcDbDimension
  2
*D15
 10
-28.3062721631934
 20
-57.31532588911668
 30
0.0
 11
-28.30627216319339
 21
-35.15652588911668
 31
0.0
 70
   160
  1
10 MAX.
  3
STANDARD
100
AcDbAlignedDimension
 13
-10.73339737793281
 23
-48.01532588911669
 33
0.0
 14
-10.73339737793281
 24
-57.31532588911669
 34
0.0
 50
90.0
100
AcDbRotatedDimension
  0
DIMENSION
  5
FA8
330
17
100
AcDbEntity
  8
Z_OM_DIM
100
AcDbDimension
  2
*D16
 10
-33.71523346024601
 20
-57.81532588911668
 30
0.0
 11
-33.71523346024599
 21
-52.66532588911669
 31
0.0
 70
   160
  3
STANDARD
100
AcDbAlignedDimension
 13
-6.733397377932817
 23
-47.51532588911668
 33
0.0
 14
-4.333397377932811
 24
-57.81532588911669
 34
0.0
 50
90.0
100
AcDbRotatedDimension
  0
DIMENSION
  5
FB5
330
17
100
AcDbEntity
  8
Z_OM_DIM
100
AcDbDimension
  2
*D17
 10
-7.733397377932831
 20
-43.01662264300055
 30
0.0
 11
-9.233397377932824
 21
-43.01662264300055
 31
0.0
 70
   160
  3
STANDARD
100
AcDbAlignedDimension
 13
-10.73339737793281
 23
-48.01532588911669
 33
0.0
 14
-7.733397377932831
 24
-48.01532588911669
 34
0.0
100
AcDbRotatedDimension
  0
DIMENSION
  5
FC4
330
17
100
AcDbEntity
  8
Z_OM_DIM
100
AcDbDimension
  2
*D18
 10
14.66660262206717
 20
-34.40719852982732
 30
0.0
 11
6.666602622067188
 21
-34.40719852982732
 31
0.0
 70
   160
  3
STANDARD
100
AcDbAlignedDimension
 13
-1.333397377932797
 23
-49.41382588911669
 33
0.0
 14
14.66660262206717
 24
-49.06732588911669
 34
0.0
100
AcDbRotatedDimension
  0
DIMENSION
  5
FD1
330
17
100
AcDbEntity
  8
Z_OM_DIM
100
AcDbDimension
  2
*D19
 10
24.06660262206718
 20
-43.01532588911669
 30
0.0
 11
22.56660262206718
 21
-43.01532588911669
 31
0.0
 70
   160
  3
STANDARD
100
AcDbAlignedDimension
 13
21.06660262206717
 23
-48.01532588911669
 33
0.0
 14
24.06660262206718
 24
-48.01532588911669
 34
0.0
100
AcDbRotatedDimension
  0
LEADER
  5
1272
330
17
100
AcDbEntity
  8
Z_OM_DIM
100
AcDbLeader
  3
STANDARD
 73
     0
 74
     0
 75
     1
 40
2.2
 41
11.88
 76
     3
 10
0.7377845407962661
 20
-1.419744333097361
 30
0.0
 10
1.910373499673838
 20
-9.4492017168441
 30
0.0
 10
4.910373499673838
 20
-9.4492017168441
 30
0.0
340
1273
1001
ACAD
1000
DSTYLE
1002
{
1070
     5
1000
OPEN30
1070
    77
1070
     1
1070
   147
1040
0.8
1070
   342
1005
977
1002
}
1000
LEANOF
1010
0.0
1020
0.0
1030
0.0
  0
MTEXT
  5
1273
330
17
100
AcDbEntity
  8
Z_OM_DIM
100
AcDbMText
 10
5.710373499673838
 20
-8.6492017168441
 30
0.0
 40
2.2
 41
12.67979363912985
 71
     7
 72
     1
  1
\A1;2-%%C3.2
1001
ACAD
1000
MTEXTBEGIN
1070
    73
1070
     1
1070
    44
1040
1.0
1070
    74
1070
     0
1000
MTEXTEND
  0
DIMENSION
  5
1281
330
17
100
AcDbEntity
  8
Z_OM_DIM
100
AcDbDimension
  2
*D20
 10
107.5319360453067
 20
-72.69286533257366
 30
0.0
 11
99.5319360453068
 21
-70.79286533257366
 31
0.0
 70
    32
  3
STANDARD
100
AcDbAlignedDimension
 13
91.53193604530679
 23
-66.68784999999994
 33
0.0
 14
107.5319360453067
 24
-66.68784999999994
 34
0.0
100
AcDbRotatedDimension
1001
ACAD
1000
DSTYLE
1002
{
1070
    47
1040
0.1
1070
   272
1070
     1
1070
   147
1040
0.8
1070
    48
1040
0.1
1070
    72
1070
     0
1070
    71
1070
     1
1002
}
  0
TEXT
  5
12C7
330
17
100
AcDbEntity
  8
Z_OM_NOTE
100
AcDbText
 10
92.78498687434217
 20
-94.30539596487642
 30
0.0
 40
1.5
  1
CAD DRAWING No.E39_69
 41
1.08
100
AcDbText
  0
TEXT
  5
12CE
330
17
100
AcDbEntity
  8
Z_OM_NOTE
100
AcDbText
 10
92.62410823428082
 20
-97.22554054660713
 30
0.0
 40
1.5
  1
(LAYERED DRAWINGS)
 41
1.08
100
AcDbText
  0
LINE
  5
1490
330
17
100
AcDbEntity
  8
Z_OM_OUTLINE
 48
3.0
100
AcDbLine
 10
70.63349999999997
 20
1.736000000000117
 30
0.0
 11
70.63349999999997
 21
0.486000000000118
 31
0.0
  0
LINE
  5
14E4
330
17
100
AcDbEntity
  8
Z_OM_OUTLINE
 48
3.0
100
AcDbLine
 10
14.1666026220485
 20
-50.96532588911667
 30
0.0
 11
15.1666026220896
 21
-50.96532588911667
 31
0.0
  0
ENDSEC
  0
SECTION
  2
OBJECTS
  0
DICTIONARY
  5
C
330
0
100
AcDbDictionary
  3
ACAD_GROUP
350
D
  3
ACAD_LAYOUT
350
956
  3
ACAD_MLINESTYLE
350
1A
  3
ACAD_PLOTSETTINGS
350
957
  3
ACADDIM
350
E63
1001
ACAD
1000
TREAT_AS_HARD
1070
     0
  0
DICTIONARY
  5
145D
330
17
100
AcDbDictionary
  3
ACAD_LAYOUTSELFREF
350
1671
1001
ACAD
1000
TREAT_AS_HARD
1070
     1
  0
DICTIONARY
  5
145B
330
14
100
AcDbDictionary
  3
ACAD_LAYOUTSELFREF
350
1670
1001
ACAD
1000
TREAT_AS_HARD
1070
     1
  0
DICTIONARY
  5
D
102
{ACAD_REACTORS
330
C
102
}
330
C
100
AcDbDictionary
1001
ACAD
1000
TREAT_AS_HARD
1070
     0
  0
DICTIONARY
  5
956
102
{ACAD_REACTORS
330
C
102
}
330
C
100
AcDbDictionary
1001
ACAD
1000
TREAT_AS_HARD
1070
     0
  0
DICTIONARY
  5
1A
102
{ACAD_REACTORS
330
C
102
}
330
C
100
AcDbDictionary
  3
STANDARD
350
1B
1001
ACAD
1000
TREAT_AS_HARD
1070
     0
  0
DICTIONARY
  5
957
102
{ACAD_REACTORS
330
C
102
}
330
C
100
AcDbDictionary
1001
ACAD
1000
TREAT_AS_HARD
1070
     0
  0
XRECORD
  5
E63
102
{ACAD_REACTORS
330
C
102
}
330
C
100
AcDbXrecord
 90
   990106
  3

 60
     0
 61
     0
 62
     1
 63
     3
 64
     1
 65
     0
 66
     0
 67
     2
 68
     1
 69
     0
 70
     0
 71
     0
 72
     0
 40
10.2
170
     2
340
1273
  0
XRECORD
  5
1671
102
{ACAD_REACTORS
330
145D
102
}
330
145D
100
AcDbXrecord
340
17
  0
XRECORD
  5
1670
102
{ACAD_REACTORS
330
145B
102
}
330
145B
100
AcDbXrecord
340
14
  0
MLINESTYLE
  5
1B
102
{ACAD_REACTORS
330
1A
102
}
330
1A
100
AcDbMlineStyle
  2
STANDARD
 70
     0
  3

 62
   256
 51
90.0
 52
90.0
 71
     2
 49
0.5
 62
   256
  6
BYLAYER
 49
-0.5
 62
   256
  6
BYLAYER
  0
ENDSEC
  0
EOF
