  0
SECTION
  2
HEADER
  9
$ACADVER
  1
AC1015
  9
$ACADMAINTVER
 70
     6
  9
$DWGCODEPAGE
  3
DOS932
  9
$INSBASE
 10
0.0
 20
0.0
 30
0.0
  9
$EXTMIN
 10
0.0
 20
0.0
 30
0.0
  9
$EXTMAX
 10
210.0
 20
297.0
 30
0.0
  9
$LIMMIN
 10
0.0
 20
0.0
  9
$LIMMAX
 10
210.0
 20
297.0
  9
$ORTHOMODE
 70
     0
  9
$REGENMODE
 70
     1
  9
$FILLMODE
 70
     1
  9
$QTEXTMODE
 70
     0
  9
$MIRRTEXT
 70
     1
  9
$LTSCALE
 40
1.0
  9
$ATTMODE
 70
     1
  9
$TEXTSIZE
 40
3.5
  9
$TRACEWID
 40
1.0
  9
$TEXTSTYLE
  7
STANDARD
  9
$CLAYER
  8
0
  9
$CELTYPE
  6
ByLayer
  9
$CECOLOR
 62
   256
  9
$CELTSCALE
 40
1.0
  9
$DISPSILH
 70
     0
  9
$DIMSCALE
 40
1.0
  9
$DIMASZ
 40
3.0
  9
$DIMEXO
 40
1.0
  9
$DIMDLI
 40
3.75
  9
$DIMRND
 40
0.0
  9
$DIMDLE
 40
0.0
  9
$DIMEXE
 40
1.0
  9
$DIMTP
 40
0.0
  9
$DIMTM
 40
0.0
  9
$DIMTXT
 40
3.5
  9
$DIMCEN
 40
2.5
  9
$DIMTSZ
 40
0.0
  9
$DIMTOL
 70
     0
  9
$DIMLIM
 70
     0
  9
$DIMTIH
 70
     1
  9
$DIMTOH
 70
     1
  9
$DIMSE1
 70
     0
  9
$DIMSE2
 70
     0
  9
$DIMTAD
 70
     1
  9
$DIMZIN
 70
     0
  9
$DIMBLK
  1

  9
$DIMASO
 70
     1
  9
$DIMSHO
 70
     1
  9
$DIMPOST
  1

  9
$DIMAPOST
  1

  9
$DIMALT
 70
     0
  9
$DIMALTD
 70
     3
  9
$DIMALTF
 40
0.0393700787
  9
$DIMLFAC
 40
1.0
  9
$DIMTOFL
 70
     1
  9
$DIMTVP
 40
0.0
  9
$DIMTIX
 70
     0
  9
$DIMSOXD
 70
     0
  9
$DIMSAH
 70
     0
  9
$DIMBLK1
  1

  9
$DIMBLK2
  1

  9
$DIMSTYLE
  2
ISO-25
  9
$DIMCLRD
 70
     0
  9
$DIMCLRE
 70
     0
  9
$DIMCLRT
 70
     0
  9
$DIMTFAC
 40
1.0
  9
$DIMGAP
 40
1.524
  9
$DIMJUST
 70
     0
  9
$DIMSD1
 70
     0
  9
$DIMSD2
 70
     0
  9
$DIMTOLJ
 70
     0
  9
$DIMTZIN
 70
     0
  9
$DIMALTZ
 70
     0
  9
$DIMALTTZ
 70
     0
  9
$DIMUPT
 70
     0
  9
$DIMDEC
 70
     1
  9
$DIMTDEC
 70
     3
  9
$DIMALTU
 70
     2
  9
$DIMALTTD
 70
     3
  9
$DIMTXSTY
  7
STANDARD
  9
$DIMAUNIT
 70
     0
  9
$DIMADEC
 70
     2
  9
$DIMALTRND
 40
0.0
  9
$DIMAZIN
 70
     0
  9
$DIMDSEP
 70
    44
  9
$DIMATFIT
 70
     3
  9
$DIMFRAC
 70
     0
  9
$DIMLDRBLK
  1

  9
$DIMLUNIT
 70
     2
  9
$DIMLWD
 70
    -2
  9
$DIMLWE
 70
    -2
  9
$DIMTMOVE
 70
     0
  9
$LUNITS
 70
     2
  9
$LUPREC
 70
     1
  9
$SKETCHINC
 40
1.0
  9
$FILLETRAD
 40
10.0
  9
$AUNITS
 70
     0
  9
$AUPREC
 70
     2
  9
$MENU
  1
.
  9
$ELEVATION
 40
0.0
  9
$PELEVATION
 40
0.0
  9
$THICKNESS
 40
0.0
  9
$LIMCHECK
 70
     0
  9
$CHAMFERA
 40
0.0
  9
$CHAMFERB
 40
0.0
  9
$CHAMFERC
 40
0.0
  9
$CHAMFERD
 40
0.0
  9
$SKPOLY
 70
     0
  9
$TDCREATE
 40
2459135.656580405
  9
$TDUCREATE
 40
2459135.281580405
  9
$TDUPDATE
 40
2459135.656581852
  9
$TDUUPDATE
 40
2459135.281581852
  9
$TDINDWG
 40
0.0000000116
  9
$TDUSRTIMER
 40
0.0000000116
  9
$USRTIMER
 70
     1
  9
$ANGBASE
 50
0.0
  9
$ANGDIR
 70
     0
  9
$PDMODE
 70
     0
  9
$PDSIZE
 40
-1.0
  9
$PLINEWID
 40
0.0
  9
$SPLFRAME
 70
     0
  9
$SPLINETYPE
 70
     6
  9
$SPLINESEGS
 70
     8
  9
$HANDSEED
  5
17C
  9
$SURFTAB1
 70
     6
  9
$SURFTAB2
 70
     6
  9
$SURFTYPE
 70
     6
  9
$SURFU
 70
     6
  9
$SURFV
 70
     6
  9
$UCSBASE
  2

  9
$UCSNAME
  2

  9
$UCSORG
 10
0.0
 20
0.0
 30
0.0
  9
$UCSXDIR
 10
1.0
 20
0.0
 30
0.0
  9
$UCSYDIR
 10
0.0
 20
1.0
 30
0.0
  9
$UCSORTHOREF
  2

  9
$UCSORTHOVIEW
 70
     0
  9
$UCSORGTOP
 10
0.0
 20
0.0
 30
0.0
  9
$UCSORGBOTTOM
 10
0.0
 20
0.0
 30
0.0
  9
$UCSORGLEFT
 10
0.0
 20
0.0
 30
0.0
  9
$UCSORGRIGHT
 10
0.0
 20
0.0
 30
0.0
  9
$UCSORGFRONT
 10
0.0
 20
0.0
 30
0.0
  9
$UCSORGBACK
 10
0.0
 20
0.0
 30
0.0
  9
$PUCSBASE
  2

  9
$PUCSNAME
  2

  9
$PUCSORG
 10
0.0
 20
0.0
 30
0.0
  9
$PUCSXDIR
 10
1.0
 20
0.0
 30
0.0
  9
$PUCSYDIR
 10
0.0
 20
1.0
 30
0.0
  9
$PUCSORTHOREF
  2

  9
$PUCSORTHOVIEW
 70
     0
  9
$PUCSORGTOP
 10
0.0
 20
0.0
 30
0.0
  9
$PUCSORGBOTTOM
 10
0.0
 20
0.0
 30
0.0
  9
$PUCSORGLEFT
 10
0.0
 20
0.0
 30
0.0
  9
$PUCSORGRIGHT
 10
0.0
 20
0.0
 30
0.0
  9
$PUCSORGFRONT
 10
0.0
 20
0.0
 30
0.0
  9
$PUCSORGBACK
 10
0.0
 20
0.0
 30
0.0
  9
$USERI1
 70
     0
  9
$USERI2
 70
     0
  9
$USERI3
 70
     0
  9
$USERI4
 70
     0
  9
$USERI5
 70
     0
  9
$USERR1
 40
0.0
  9
$USERR2
 40
0.0
  9
$USERR3
 40
0.0
  9
$USERR4
 40
0.0
  9
$USERR5
 40
0.0
  9
$WORLDVIEW
 70
     1
  9
$SHADEDGE
 70
     3
  9
$SHADEDIF
 70
    70
  9
$TILEMODE
 70
     1
  9
$MAXACTVP
 70
    64
  9
$PINSBASE
 10
0.0
 20
0.0
 30
0.0
  9
$PLIMCHECK
 70
     0
  9
$PEXTMIN
 10
1.0000000000E+20
 20
1.0000000000E+20
 30
1.0000000000E+20
  9
$PEXTMAX
 10
-1.0000000000E+20
 20
-1.0000000000E+20
 30
-1.0000000000E+20
  9
$PLIMMIN
 10
0.0
 20
0.0
  9
$PLIMMAX
 10
420.0
 20
297.0
  9
$UNITMODE
 70
     0
  9
$VISRETAIN
 70
     1
  9
$PLINEGEN
 70
     0
  9
$PSLTSCALE
 70
     1
  9
$TREEDEPTH
 70
  3020
  9
$CMLSTYLE
  2
Standard
  9
$CMLJUST
 70
     0
  9
$CMLSCALE
 40
20.0
  9
$PROXYGRAPHICS
 70
     1
  9
$MEASUREMENT
 70
     1
  9
$CELWEIGHT
370
    -1
  9
$ENDCAPS
280
     0
  9
$JOINSTYLE
280
     0
  9
$LWDISPLAY
290
     1
  9
$INSUNITS
 70
     4
  9
$HYPERLINKBASE
  1

  9
$STYLESHEET
  1

  9
$XEDIT
290
     1
  9
$CEPSNTYPE
380
     0
  9
$PSTYLEMODE
290
     1
  9
$FINGERPRINTGUID
  2
{2A139F75-2855-482D-9530-345643D9611B}
  9
$VERSIONGUID
  2
{FAEB1C32-E019-11D5-929B-00C0DF256EC4}
  9
$EXTNAMES
290
     1
  9
$PSVPSCALE
 40
0.0
  9
$OLESTARTUP
290
     0
  0
ENDSEC
  0
SECTION
  2
CLASSES
  0
CLASS
  1
ACDBDICTIONARYWDFLT
  2
AcDbDictionaryWithDefault
  3
ObjectDBX Classes
 90
        0
280
     0
281
     0
  0
CLASS
  1
VISUALSTYLE
  2
AcDbVisualStyle
  3
ObjectDBX Classes
 90
     4095
280
     0
281
     0
  0
CLASS
  1
MATERIAL
  2
AcDbMaterial
  3
ObjectDBX Classes
 90
     1153
280
     0
281
     0
  0
CLASS
  1
SCALE
  2
AcDbScale
  3
ObjectDBX Classes
 90
     1153
280
     0
281
     0
  0
CLASS
  1
TABLESTYLE
  2
AcDbTableStyle
  3
ObjectDBX Classes
 90
     4095
280
     0
281
     0
  0
CLASS
  1
MLEADERSTYLE
  2
AcDbMLeaderStyle
  3
ACDB_MLEADERSTYLE_CLASS
 90
     4095
280
     0
281
     0
  0
CLASS
  1
SUN
  2
AcDbSun
  3
SCENEOE
 90
     1153
280
     0
281
     0
  0
CLASS
  1
ACDBPLACEHOLDER
  2
AcDbPlaceHolder
  3
ObjectDBX Classes
 90
        0
280
     0
281
     0
  0
CLASS
  1
LAYOUT
  2
AcDbLayout
  3
ObjectDBX Classes
 90
        0
280
     0
281
     0
  0
ENDSEC
  0
SECTION
  2
TABLES
  0
TABLE
  2
VPORT
  5
8
330
0
100
AcDbSymbolTable
 70
     1
  0
VPORT
  5
29
330
8
100
AcDbSymbolTableRecord
100
AcDbViewportTableRecord
  2
*Active
 70
     0
 10
0.0
 20
0.0
 11
1.0
 21
1.0
 12
105.0
 22
148.5
 13
0.0
 23
0.0
 14
10.0
 24
10.0
 15
10.0
 25
10.0
 16
0.0
 26
0.0
 36
1.0
 17
0.0
 27
0.0
 37
0.0
 40
297.0
 41
0.7070707071
 42
50.0
 43
0.0
 44
0.0
 50
0.0
 51
0.0
 71
     0
 72
  2000
 73
     1
 74
     3
 75
     0
 76
     0
 77
     0
 78
     0
281
     0
 65
     1
110
0.0
120
0.0
130
0.0
111
1.0
121
0.0
131
0.0
112
0.0
122
1.0
132
0.0
 79
     0
146
0.0
  0
ENDTAB
  0
TABLE
  2
LTYPE
  5
5
330
0
100
AcDbSymbolTable
 70
     8
  0
LTYPE
  5
14
330
5
100
AcDbSymbolTableRecord
100
AcDbLinetypeTableRecord
  2
ByBlock
 70
     0
  3

 72
    65
 73
     0
 40
0.0
  0
LTYPE
  5
15
330
5
100
AcDbSymbolTableRecord
100
AcDbLinetypeTableRecord
  2
ByLayer
 70
     0
  3

 72
    65
 73
     0
 40
0.0
  0
LTYPE
  5
16
330
5
100
AcDbSymbolTableRecord
100
AcDbLinetypeTableRecord
  2
Continuous
 70
     0
  3
Solid line
 72
    65
 73
     0
 40
0.0
  0
LTYPE
  5
6E
330
5
100
AcDbSymbolTableRecord
100
AcDbLinetypeTableRecord
  2
SLD-実線
 70
     0
  3
SolidWorks Line Style
 72
    65
 73
     0
 40
0.0
  0
LTYPE
  5
6F
330
5
100
AcDbSymbolTableRecord
100
AcDbLinetypeTableRecord
  2
SLD-破線
 70
     0
  3
SolidWorks Line Style
 72
    65
 73
     2
 40
1.905
 49
1.27
 74
     0
 49
-0.635
 74
     0
  0
LTYPE
  5
70
330
5
100
AcDbSymbolTableRecord
100
AcDbLinetypeTableRecord
  2
SLD-2点鎖線
 70
     0
  3
SolidWorks Line Style
 72
    65
 73
     6
 40
12.7
 49
6.35
 74
     0
 49
-1.27
 74
     0
 49
1.27
 74
     0
 49
-1.27
 74
     0
 49
1.27
 74
     0
 49
-1.27
 74
     0
  0
LTYPE
  5
71
330
5
100
AcDbSymbolTableRecord
100
AcDbLinetypeTableRecord
  2
SLD-鎖線
 70
     0
  3
SolidWorks Line Style
 72
    65
 73
     4
 40
10.16
 49
6.35
 74
     0
 49
-1.27
 74
     0
 49
1.27
 74
     0
 49
-1.27
 74
     0
  0
LTYPE
  5
72
330
5
100
AcDbSymbolTableRecord
100
AcDbLinetypeTableRecord
  2
SLD-1点鎖線(中心線)
 70
     0
  3
SolidWorks Line Style
 72
    65
 73
     4
 40
34.29
 49
30.48
 74
     0
 49
-1.27
 74
     0
 49
1.27
 74
     0
 49
-1.27
 74
     0
  0
LTYPE
  5
73
330
5
100
AcDbSymbolTableRecord
100
AcDbLinetypeTableRecord
  2
SLD-点線
 70
     0
  3
SolidWorks Line Style
 72
    65
 73
     2
 40
0.635
 49
0.0
 74
     0
 49
-0.635
 74
     0
  0
LTYPE
  5
74
330
5
100
AcDbSymbolTableRecord
100
AcDbLinetypeTableRecord
  2
SLD-細-太鎖線(切断面)
 70
     0
  3
SolidWorks Line Style
 72
    65
 73
     4
 40
10.16
 49
6.35
 74
     0
 49
-1.27
 74
     0
 49
1.27
 74
     0
 49
-1.27
 74
     0
  0
ENDTAB
  0
TABLE
  2
LAYER
  5
2
330
0
100
AcDbSymbolTable
 70
     1
  0
LAYER
  5
10
330
2
100
AcDbSymbolTableRecord
100
AcDbLayerTableRecord
  2
0
 70
     0
 62
     7
  6
Continuous
370
    -3
390
F
  0
ENDTAB
  0
TABLE
  2
STYLE
  5
3
330
0
100
AcDbSymbolTable
 70
     3
  0
STYLE
  5
11
330
3
100
AcDbSymbolTableRecord
100
AcDbTextStyleTableRecord
  2
STANDARD
 70
     0
 40
0.0
 41
1.0
 50
0.0
 71
     0
 42
3.5
  3
MSGOTHIC.TTC
  4

1001
ACAD
1000
ＭＳ ゴシック
1071
    32817
  0
STYLE
  5
7D
330
3
100
AcDbSymbolTableRecord
100
AcDbTextStyleTableRecord
  2
SLDTEXTSTYLE0
 70
     0
 40
0.0
 41
1.0
 50
0.0
 71
     0
 42
3.5
  3
MSGOTHIC.TTC
  4

1001
ACAD
1000
ＭＳ ゴシック
1071
      305
  0
STYLE
  5
7F
330
3
100
AcDbSymbolTableRecord
100
AcDbTextStyleTableRecord
  2
SLDTEXTSTYLE1
 70
     0
 40
0.0
 41
1.0
 50
0.0
 71
     0
 42
3.5
  3
MSGOTHIC.TTC
  4
bigfont
1001
ACAD
1000
ＭＳ Ｐゴシック
1071
      306
  0
ENDTAB
  0
TABLE
  2
VIEW
  5
6
330
0
100
AcDbSymbolTable
 70
     0
  0
ENDTAB
  0
TABLE
  2
UCS
  5
7
330
0
100
AcDbSymbolTable
 70
     0
  0
ENDTAB
  0
TABLE
  2
APPID
  5
9
330
0
100
AcDbSymbolTable
 70
     1
  0
APPID
  5
12
330
9
100
AcDbSymbolTableRecord
100
AcDbRegAppTableRecord
  2
ACAD
 70
     0
  0
ENDTAB
  0
TABLE
  2
DIMSTYLE
  5
A
330
0
100
AcDbSymbolTable
 70
     2
100
AcDbDimStyleTable
  0
DIMSTYLE
105
27
330
A
100
AcDbSymbolTableRecord
100
AcDbDimStyleTableRecord
  2
ISO-25
 70
     0
 41
2.5
 42
0.625
 43
3.75
 44
1.25
 73
     0
 74
     0
 77
     1
 78
     8
140
2.5
141
2.5
143
0.0393700787
147
0.625
171
     3
172
     1
178
     0
271
     2
272
     2
274
     3
278
    44
283
     0
284
     8
340
11
  0
DIMSTYLE
105
151
102
{ACAD_REACTORS
330
150
330
15C
330
167
330
171
102
}
330
A
100
AcDbSymbolTableRecord
100
AcDbDimStyleTableRecord
  2
SLDDIMSTYLE0
 70
     0
 41
3.0
 44
0.0
 45
0.000000001
 73
     0
 74
     0
 77
     3
 78
    12
 79
     3
140
3.5
147
0.875
173
     1
178
     0
271
     1
272
     3
276
     2
284
    12
340
7D
  0
ENDTAB
  0
TABLE
  2
BLOCK_RECORD
  5
1
330
0
100
AcDbSymbolTable
 70
     5
  0
BLOCK_RECORD
  5
1F
330
1
100
AcDbSymbolTableRecord
100
AcDbBlockTableRecord
  2
*Model_Space
340
22
  0
BLOCK_RECORD
  5
1B
330
1
100
AcDbSymbolTableRecord
100
AcDbBlockTableRecord
  2
*Paper_Space
340
1E
  0
BLOCK_RECORD
  5
23
330
1
100
AcDbSymbolTableRecord
100
AcDbBlockTableRecord
  2
*Paper_Space0
340
26
  0
BLOCK_RECORD
  5
152
330
1
100
AcDbSymbolTableRecord
100
AcDbBlockTableRecord
  2
_D
340
0
  0
BLOCK_RECORD
  5
15D
330
1
100
AcDbSymbolTableRecord
100
AcDbBlockTableRecord
  2
_D_1
340
0
  0
BLOCK_RECORD
  5
168
330
1
100
AcDbSymbolTableRecord
100
AcDbBlockTableRecord
  2
_D_2
340
0
  0
BLOCK_RECORD
  5
172
330
1
100
AcDbSymbolTableRecord
100
AcDbBlockTableRecord
  2
_D_3
340
0
  0
ENDTAB
  0
ENDSEC
  0
SECTION
  2
BLOCKS
  0
BLOCK
  5
20
330
1F
100
AcDbEntity
  8
0
100
AcDbBlockBegin
  2
*Model_Space
 70
     0
 10
0.0
 20
0.0
 30
0.0
  3
*Model_Space
  1

  0
ENDBLK
  5
21
330
1F
100
AcDbEntity
  8
0
100
AcDbBlockEnd
  0
BLOCK
  5
1C
330
1B
100
AcDbEntity
 67
     1
  8
0
100
AcDbBlockBegin
  2
*Paper_Space
 70
     0
 10
0.0
 20
0.0
 30
0.0
  3
*Paper_Space
  1

  0
ENDBLK
  5
1D
330
1B
100
AcDbEntity
 67
     1
  8
0
100
AcDbBlockEnd
  0
BLOCK
  5
24
330
23
100
AcDbEntity
  8
0
100
AcDbBlockBegin
  2
*Paper_Space0
 70
     0
 10
0.0
 20
0.0
 30
0.0
  3
*Paper_Space0
  1

  0
ENDBLK
  5
25
330
23
100
AcDbEntity
  8
0
100
AcDbBlockEnd
  0
BLOCK
  5
153
330
152
100
AcDbEntity
  8
0
100
AcDbBlockBegin
  2
_D
 70
     0
 10
0.0
 20
0.0
 30
0.0
  3
_D
  1

  0
SOLID
  5
155
330
152
100
AcDbEntity
  8
0
  6
SLD-実線
 62
     7
370
    18
100
AcDbTrace
 10
77.3949461062
 20
124.6271491812
 30
0.0
 11
78.1449461062
 21
127.6271491812
 31
0.0
 12
76.6449461062
 22
127.6271491812
 32
0.0
 13
76.6449461062
 23
127.6271491812
 33
0.0
  0
SOLID
  5
156
330
152
100
AcDbEntity
  8
0
  6
SLD-実線
 62
     7
370
    18
100
AcDbTrace
 10
77.3949461062
 20
160.3073032262
 30
0.0
 11
76.6449461062
 21
157.3073032262
 31
0.0
 12
78.1449461062
 22
157.3073032262
 32
0.0
 13
78.1449461062
 23
157.3073032262
 33
0.0
  0
LINE
  5
157
330
152
100
AcDbEntity
  8
0
  6
SLD-実線
 62
     7
370
    18
100
AcDbLine
 10
87.5289664998
 20
124.6271491812
 30
0.0
 11
76.3949461062
 21
124.6271491812
 31
0.0
  0
LINE
  5
158
330
152
100
AcDbEntity
  8
0
  6
SLD-実線
 62
     7
370
    18
100
AcDbLine
 10
87.5289664998
 20
160.3073032262
 30
0.0
 11
76.3949461062
 21
160.3073032262
 31
0.0
  0
LINE
  5
159
330
152
100
AcDbEntity
  8
0
  6
SLD-実線
 62
     7
370
    18
100
AcDbLine
 10
77.3949461062
 20
124.6271491812
 30
0.0
 11
77.3949461062
 21
160.3073032262
 31
0.0
  0
MTEXT
  5
15A
330
152
100
AcDbEntity
  8
0
  6
SLD-実線
 62
     7
370
    18
100
AcDbMText
 10
73.3222186007
 20
136.4586500676
 30
0.0
 40
3.5
 41
0.0
 71
     1
 72
     1
  1
%%c
  7
SLDTEXTSTYLE0
 11
-1.037486409151910E-14
 21
1.0
 31
0.0
 73
     1
 44
1.0
  0
MTEXT
  5
15B
330
152
100
AcDbEntity
  8
0
  6
SLD-実線
 62
     7
370
    18
100
AcDbMText
 10
73.3222186007
 20
140.3285805827
 30
0.0
 40
3.5
 41
0.0
 71
     1
 72
     1
  1
35.7
  7
SLDTEXTSTYLE0
 11
-1.037486409151910E-14
 21
1.0
 31
0.0
 73
     1
 44
1.0
  0
ENDBLK
  5
154
330
152
100
AcDbEntity
  8
0
100
AcDbBlockEnd
  0
BLOCK
  5
15E
330
15D
100
AcDbEntity
  8
0
100
AcDbBlockBegin
  2
_D_1
 70
     0
 10
0.0
 20
0.0
 30
0.0
  3
_D_1
  1

  0
SOLID
  5
160
330
15D
100
AcDbEntity
  8
0
  6
SLD-実線
 62
     7
370
    18
100
AcDbTrace
 10
65.3949461062
 20
117.4672262037
 30
0.0
 11
66.1449461062
 21
120.4672262037
 31
0.0
 12
64.6449461062
 22
120.4672262037
 32
0.0
 13
64.6449461062
 23
120.4672262037
 33
0.0
  0
SOLID
  5
161
330
15D
100
AcDbEntity
  8
0
  6
SLD-実線
 62
     7
370
    18
100
AcDbTrace
 10
65.3949461062
 20
167.4672262037
 30
0.0
 11
64.6449461062
 21
164.4672262037
 31
0.0
 12
66.1449461062
 22
164.4672262037
 32
0.0
 13
66.1449461062
 23
164.4672262037
 33
0.0
  0
LINE
  5
162
330
15D
100
AcDbEntity
  8
0
  6
SLD-実線
 62
     7
370
    18
100
AcDbLine
 10
86.3949461062
 20
117.4672262037
 30
0.0
 11
64.3949461062
 21
117.4672262037
 31
0.0
  0
LINE
  5
163
330
15D
100
AcDbEntity
  8
0
  6
SLD-実線
 62
     7
370
    18
100
AcDbLine
 10
86.3949461062
 20
167.4672262037
 30
0.0
 11
64.3949461062
 21
167.4672262037
 31
0.0
  0
LINE
  5
164
330
15D
100
AcDbEntity
  8
0
  6
SLD-実線
 62
     7
370
    18
100
AcDbLine
 10
65.3949461062
 20
117.4672262037
 30
0.0
 11
65.3949461062
 21
167.4672262037
 31
0.0
  0
MTEXT
  5
165
330
15D
100
AcDbEntity
  8
0
  6
SLD-実線
 62
     7
370
    18
100
AcDbMText
 10
61.3222186007
 20
138.4954553323
 30
0.0
 40
3.5
 41
0.0
 71
     1
 72
     1
  1
%%c
  7
SLDTEXTSTYLE0
 11
-1.037486409151910E-14
 21
1.0
 31
0.0
 73
     1
 44
1.0
  0
MTEXT
  5
166
330
15D
100
AcDbEntity
  8
0
  6
SLD-実線
 62
     7
370
    18
100
AcDbMText
 10
61.3222186007
 20
142.3653858473
 30
0.0
 40
3.5
 41
0.0
 71
     1
 72
     1
  1
50
  7
SLDTEXTSTYLE0
 11
-1.037486409151910E-14
 21
1.0
 31
0.0
 73
     1
 44
1.0
  0
ENDBLK
  5
15F
330
15D
100
AcDbEntity
  8
0
100
AcDbBlockEnd
  0
BLOCK
  5
169
330
168
100
AcDbEntity
  8
0
100
AcDbBlockBegin
  2
_D_2
 70
     0
 10
0.0
 20
0.0
 30
0.0
  3
_D_2
  1

  0
SOLID
  5
16B
330
168
100
AcDbEntity
  8
0
  6
SLD-実線
 62
     7
370
    18
100
AcDbTrace
 10
87.3949461062
 20
180.0455397526
 30
0.0
 11
90.3949461062
 21
179.2955397526
 31
0.0
 12
90.3949461062
 22
180.7955397526
 32
0.0
 13
90.3949461062
 23
180.7955397526
 33
0.0
  0
SOLID
  5
16C
330
168
100
AcDbEntity
  8
0
  6
SLD-実線
 62
     7
370
    18
100
AcDbTrace
 10
133.3949461062
 20
180.0455397526
 30
0.0
 11
130.3949461062
 21
180.7955397526
 31
0.0
 12
130.3949461062
 22
179.2955397526
 32
0.0
 13
130.3949461062
 23
179.2955397526
 33
0.0
  0
LINE
  5
16D
330
168
100
AcDbEntity
  8
0
  6
SLD-実線
 62
     7
370
    18
100
AcDbLine
 10
87.3949461062
 20
168.4672262037
 30
0.0
 11
87.3949461062
 21
181.0455397526
 31
0.0
  0
LINE
  5
16E
330
168
100
AcDbEntity
  8
0
  6
SLD-実線
 62
     7
370
    18
100
AcDbLine
 10
133.3949461062
 20
161.9672262037
 30
0.0
 11
133.3949461062
 21
181.0455397526
 31
0.0
  0
LINE
  5
16F
330
168
100
AcDbEntity
  8
0
  6
SLD-実線
 62
     7
370
    18
100
AcDbLine
 10
87.3949461062
 20
180.0455397526
 30
0.0
 11
133.3949461062
 21
180.0455397526
 31
0.0
  0
MTEXT
  5
170
330
168
100
AcDbEntity
  8
0
  6
SLD-実線
 62
     7
370
    18
100
AcDbMText
 10
108.3581406088
 20
184.1182667925
 30
0.0
 40
3.5
 41
0.0
 71
     1
 72
     1
  1
46
  7
SLDTEXTSTYLE0
 73
     1
 44
1.0
  0
ENDBLK
  5
16A
330
168
100
AcDbEntity
  8
0
100
AcDbBlockEnd
  0
BLOCK
  5
173
330
172
100
AcDbEntity
  8
0
100
AcDbBlockBegin
  2
_D_3
 70
     0
 10
0.0
 20
0.0
 30
0.0
  3
_D_3
  1

  0
SOLID
  5
175
330
172
100
AcDbEntity
  8
0
  6
SLD-実線
 62
     7
370
    18
100
AcDbTrace
 10
143.3949461062
 20
122.9672262037
 30
0.0
 11
144.1449461062
 21
125.9672262037
 31
0.0
 12
142.6449461062
 22
125.9672262037
 32
0.0
 13
142.6449461062
 23
125.9672262037
 33
0.0
  0
SOLID
  5
176
330
172
100
AcDbEntity
  8
0
  6
SLD-実線
 62
     7
370
    18
100
AcDbTrace
 10
143.3949461062
 20
161.9672262037
 30
0.0
 11
142.6449461062
 21
158.9672262037
 31
0.0
 12
144.1449461062
 22
158.9672262037
 32
0.0
 13
144.1449461062
 23
158.9672262037
 33
0.0
  0
LINE
  5
177
330
172
100
AcDbEntity
  8
0
  6
SLD-実線
 62
     7
370
    18
100
AcDbLine
 10
133.3949461062
 20
122.9672262037
 30
0.0
 11
144.3949461062
 21
122.9672262037
 31
0.0
  0
LINE
  5
178
330
172
100
AcDbEntity
  8
0
  6
SLD-実線
 62
     7
370
    18
100
AcDbLine
 10
133.3949461062
 20
161.9672262037
 30
0.0
 11
144.3949461062
 21
161.9672262037
 31
0.0
  0
LINE
  5
179
330
172
100
AcDbEntity
  8
0
  6
SLD-実線
 62
     7
370
    18
100
AcDbLine
 10
143.3949461062
 20
122.9672262037
 30
0.0
 11
143.3949461062
 21
161.9672262037
 31
0.0
  0
MTEXT
  5
17A
330
172
100
AcDbEntity
  8
0
  6
SLD-実線
 62
     7
370
    18
100
AcDbMText
 10
139.3222186007
 20
138.4954553323
 30
0.0
 40
3.5
 41
0.0
 71
     1
 72
     1
  1
%%c
  7
SLDTEXTSTYLE0
 11
-1.037486409151910E-14
 21
1.0
 31
0.0
 73
     1
 44
1.0
  0
MTEXT
  5
17B
330
172
100
AcDbEntity
  8
0
  6
SLD-実線
 62
     7
370
    18
100
AcDbMText
 10
139.3222186007
 20
142.3653858473
 30
0.0
 40
3.5
 41
0.0
 71
     1
 72
     1
  1
39
  7
SLDTEXTSTYLE0
 11
-1.037486409151910E-14
 21
1.0
 31
0.0
 73
     1
 44
1.0
  0
ENDBLK
  5
174
330
172
100
AcDbEntity
  8
0
100
AcDbBlockEnd
  0
ENDSEC
  0
SECTION
  2
ENTITIES
  0
LINE
  5
75
330
1F
100
AcDbEntity
  8
0
  6
SLD-実線
 62
     7
370
    18
100
AcDbLine
 10
20.2604743903
 20
285.0
 30
0.0
 11
196.7604743903
 21
285.0
 31
0.0
  0
LINE
  5
76
330
1F
100
AcDbEntity
  8
0
  6
SLD-実線
 62
     7
370
    18
100
AcDbLine
 10
20.2604743903
 20
285.0
 30
0.0
 11
20.2604743903
 21
10.0
 31
0.0
  0
LINE
  5
77
330
1F
100
AcDbEntity
  8
0
  6
SLD-実線
 62
     7
370
    18
100
AcDbLine
 10
20.2604743903
 20
10.0
 30
0.0
 11
196.7604743903
 21
10.0
 31
0.0
  0
LINE
  5
78
330
1F
100
AcDbEntity
  8
0
  6
SLD-実線
 62
     7
370
    18
100
AcDbLine
 10
196.7604743903
 20
285.0
 30
0.0
 11
196.7604743903
 21
10.0
 31
0.0
  0
LINE
  5
79
330
1F
100
AcDbEntity
  8
0
  6
SLD-実線
 62
     7
370
    18
100
AcDbLine
 10
127.0104743903
 20
50.75
 30
0.0
 11
196.7604743903
 21
50.75
 31
0.0
  0
LINE
  5
7A
330
1F
100
AcDbEntity
  8
0
  6
SLD-実線
 62
     7
370
    18
100
AcDbLine
 10
127.0104743903
 20
50.75
 30
0.0
 11
127.0104743903
 21
10.0
 31
0.0
  0
LINE
  5
7B
330
1F
100
AcDbEntity
  8
0
  6
SLD-実線
 62
     7
370
    18
100
AcDbLine
 10
127.0104743903
 20
22.75
 30
0.0
 11
196.7604743903
 21
22.75
 31
0.0
  0
LINE
  5
7C
330
1F
100
AcDbEntity
  8
0
  6
SLD-実線
 62
     7
370
    18
100
AcDbLine
 10
127.0104743903
 20
36.75
 30
0.0
 11
196.7604743903
 21
36.75
 31
0.0
  0
MTEXT
  5
7E
330
1F
100
AcDbEntity
  8
0
  6
Continuous
 62
     7
370
     0
100
AcDbMText
 10
162.4410958209
 20
29.8861654089
 30
0.0
 40
4.2333333333
 41
0.0
 71
     2
 72
     1
  1
EPLG-50-S5
  7
SLDTEXTSTYLE0
 73
     1
 44
1.0
  0
MTEXT
  5
80
330
1F
100
AcDbEntity
  8
0
  6
Continuous
 62
     7
370
     0
100
AcDbMText
 10
159.9385808447
 20
45.047705333
 30
0.0
 40
3.7041666667
 41
0.0
 71
     2
 72
     1
  1
吸着パット・ジャバラ・シリコン・白　
  7
SLDTEXTSTYLE1
 73
     1
 44
1.0
  0
MTEXT
  5
81
330
1F
100
AcDbEntity
  8
0
  6
Continuous
 62
     7
370
     0
100
AcDbMText
 10
162.9406221815
 20
16.2918260795
 30
0.0
 40
4.2333333333
 41
0.0
 71
     2
 72
     1
  1
999999
  7
SLDTEXTSTYLE0
 73
     1
 44
1.0
  0
LINE
  5
82
330
1F
100
AcDbEntity
  8
0
  6
SLD-実線
 62
     7
370
    18
100
AcDbLine
 10
100.3449464594
 20
117.4572252894
 30
0.0
 11
102.944945768
 21
117.4572252894
 31
0.0
  0
LINE
  5
83
330
1F
100
AcDbEntity
  8
0
  6
SLD-実線
 62
     7
370
    18
100
AcDbLine
 10
102.944945768
 20
167.477227118
 30
0.0
 11
100.3449464594
 21
167.477227118
 31
0.0
  0
ARC
  5
84
330
1F
100
AcDbEntity
  8
0
  6
SLD-実線
 62
     7
370
    18
100
AcDbCircle
 10
100.3449461062
 20
117.6572262037
 30
0.0
 40
0.2000000000000171
100
AcDbArc
 50
180.0
 51
270.0
  0
ARC
  5
85
330
1F
100
AcDbEntity
  8
0
  6
SLD-実線
 62
     7
370
    18
100
AcDbCircle
 10
100.3449461062
 20
167.277227118
 30
0.0
 40
0.1999999999999878
100
AcDbArc
 50
89.9998988272
 51
180.0002619378
  0
LINE
  5
86
330
1F
100
AcDbEntity
  8
0
  6
SLD-実線
 62
     7
370
    18
100
AcDbLine
 10
108.4449466695
 20
117.4572252894
 30
0.0
 11
111.0449459781
 21
117.4572252894
 31
0.0
  0
LINE
  5
87
330
1F
100
AcDbEntity
  8
0
  6
SLD-実線
 62
     7
370
    18
100
AcDbLine
 10
111.0449459781
 20
167.477227118
 30
0.0
 11
108.4449466695
 21
167.477227118
 31
0.0
  0
LINE
  5
88
330
1F
100
AcDbEntity
  8
0
  6
SLD-実線
 62
     7
370
    18
100
AcDbLine
 10
116.5449459483
 20
117.4572252894
 30
0.0
 11
119.1449471195
 21
117.4572252894
 31
0.0
  0
LINE
  5
89
330
1F
100
AcDbEntity
  8
0
  6
SLD-実線
 62
     7
370
    18
100
AcDbLine
 10
119.1449471195
 20
167.477227118
 30
0.0
 11
116.5449459483
 21
167.477227118
 31
0.0
  0
ARC
  5
8A
330
1F
100
AcDbEntity
  8
0
  6
SLD-実線
 62
     7
370
    18
100
AcDbCircle
 10
116.5449461062
 20
117.6572262037
 30
0.0
 40
0.2000000000000028
100
AcDbArc
 50
180.0
 51
270.0
  0
ARC
  5
8B
330
1F
100
AcDbEntity
  8
0
  6
SLD-実線
 62
     7
370
    18
100
AcDbCircle
 10
116.5449461062
 20
167.277227118
 30
0.0
 40
0.1999999999999942
100
AcDbArc
 50
90.0000452494
 51
180.0002619378
  0
ARC
  5
8C
330
1F
100
AcDbEntity
  8
0
  6
SLD-実線
 62
     7
370
    18
100
AcDbCircle
 10
102.9449461062
 20
117.6572252894
 30
0.0
 40
0.2000000000000189
100
AcDbArc
 50
269.9999030961
 51
0.0002619378
  0
ARC
  5
8D
330
1F
100
AcDbEntity
  8
0
  6
SLD-実線
 62
     7
370
    18
100
AcDbCircle
 10
102.9449463596
 20
167.2772262037
 30
0.0
 40
0.1999999999999908
100
AcDbArc
 50
359.9998256594
 51
90.000072571
  0
LINE
  5
8E
330
1F
100
AcDbEntity
  8
0
  6
SLD-実線
 62
     7
370
    18
100
AcDbLine
 10
87.6949461205
 20
117.4572252894
 30
0.0
 11
89.2772375052
 21
123.1433593893
 31
0.0
  0
LINE
  5
8F
330
1F
100
AcDbEntity
  8
0
  6
SLD-実線
 62
     7
370
    18
100
AcDbLine
 10
89.2772375052
 20
161.7910930181
 30
0.0
 11
87.6949461205
 21
167.477227118
 31
0.0
  0
ARC
  5
90
330
1F
100
AcDbEntity
  8
0
  6
SLD-実線
 62
     7
370
    18
100
AcDbCircle
 10
111.0449461062
 20
117.6572252894
 30
0.0
 40
0.2000000000000155
100
AcDbArc
 50
269.9999632871
 51
0.0002619378
  0
ARC
  5
91
330
1F
100
AcDbEntity
  8
0
  6
SLD-実線
 62
     7
370
    18
100
AcDbCircle
 10
111.0449456383
 20
167.2772262037
 30
0.0
 40
0.2000000000000192
100
AcDbArc
 50
359.9998256593
 51
89.9998659578
  0
ARC
  5
92
330
1F
100
AcDbEntity
  8
0
  6
SLD-実線
 62
     7
370
    18
100
AcDbCircle
 10
108.4449461062
 20
117.6572262037
 30
0.0
 40
0.2000000000000028
100
AcDbArc
 50
180.0
 51
270.0
  0
ARC
  5
93
330
1F
100
AcDbEntity
  8
0
  6
SLD-実線
 62
     7
370
    18
100
AcDbCircle
 10
108.4449461062
 20
167.277227118
 30
0.0
 40
0.2000000000000144
100
AcDbArc
 50
89.9998386362
 51
180.000261938
  0
ARC
  5
94
330
1F
100
AcDbEntity
  8
0
  6
SLD-実線
 62
     7
370
    18
100
AcDbCircle
 10
119.1449461062
 20
117.6572252894
 30
0.0
 40
0.1999999999999975
100
AcDbArc
 50
270.0002902824
 51
0.0002619385
  0
ARC
  5
95
330
1F
100
AcDbEntity
  8
0
  6
SLD-実線
 62
     7
370
    18
100
AcDbCircle
 10
119.1449467798
 20
167.2772262037
 30
0.0
 40
0.200000000000005
100
AcDbArc
 50
359.9998256591
 51
90.0001929531
  0
ARC
  5
96
330
1F
100
AcDbEntity
  8
0
  6
SLD-実線
 62
     7
370
    18
100
AcDbCircle
 10
94.8449461062
 20
117.6572252894
 30
0.0
 40
0.2000000000000058
100
AcDbArc
 50
269.9999763072
 51
0.0002619378
  0
ARC
  5
97
330
1F
100
AcDbEntity
  8
0
  6
SLD-実線
 62
     7
370
    18
100
AcDbCircle
 10
94.8449461494
 20
167.2772262037
 30
0.0
 40
0.200000000000005
100
AcDbArc
 50
359.9998256594
 51
90.00001238
  0
LINE
  5
98
330
1F
100
AcDbEntity
  8
0
  6
SLD-実線
 62
     7
370
    18
100
AcDbLine
 10
92.2449462493
 20
117.4572252894
 30
0.0
 11
94.8449460235
 21
117.4572252894
 31
0.0
  0
LINE
  5
99
330
1F
100
AcDbEntity
  8
0
  6
SLD-実線
 62
     7
370
    18
100
AcDbLine
 10
94.8449460235
 20
167.477227118
 30
0.0
 11
92.2449462493
 21
167.477227118
 31
0.0
  0
LINE
  5
9A
330
1F
100
AcDbEntity
  8
0
  6
SLD-実線
 62
     7
370
    18
100
AcDbLine
 10
87.6949461205
 20
167.477227118
 30
0.0
 11
87.3949461062
 21
167.4672265762
 31
0.0
  0
LINE
  5
9B
330
1F
100
AcDbEntity
  8
0
  6
SLD-実線
 62
     7
370
    18
100
AcDbLine
 10
87.3949461062
 20
117.4672258312
 30
0.0
 11
87.6949461205
 21
117.4572252894
 31
0.0
  0
ARC
  5
9C
330
1F
100
AcDbEntity
  8
0
  6
SLD-実線
 62
     7
370
    18
100
AcDbCircle
 10
92.2449461062
 20
117.6572262037
 30
0.0
 40
0.1999999999999886
100
AcDbArc
 50
180.0
 51
270.0
  0
ARC
  5
9D
330
1F
100
AcDbEntity
  8
0
  6
SLD-実線
 62
     7
370
    18
100
AcDbCircle
 10
92.2449461062
 20
167.277227118
 30
0.0
 40
0.1999999999999829
100
AcDbArc
 50
89.9999590183
 51
180.0002619378
  0
LINE
  5
9E
330
1F
100
AcDbEntity
  8
0
  6
SLD-実線
 62
     7
370
    18
100
AcDbLine
 10
92.0449461234
 20
166.4772269541
 30
0.0
 11
89.8381484118
 21
161.744733643
 31
0.0
  0
LINE
  5
9F
330
1F
100
AcDbEntity
  8
0
  6
SLD-実線
 62
     7
370
    18
100
AcDbLine
 10
89.8381484118
 20
123.1897187645
 30
0.0
 11
92.0449461234
 21
118.4572254533
 31
0.0
  0
LINE
  5
A0
330
1F
100
AcDbEntity
  8
0
  6
SLD-実線
 62
     7
370
    18
100
AcDbLine
 10
100.1449458678
 20
166.4772269541
 30
0.0
 11
97.8668386494
 21
161.5918086136
 31
0.0
  0
LINE
  5
A1
330
1F
100
AcDbEntity
  8
0
  6
SLD-実線
 62
     7
370
    18
100
AcDbLine
 10
97.8668386494
 20
123.3426437938
 30
0.0
 11
100.1449458678
 21
118.4572254533
 31
0.0
  0
LINE
  5
A2
330
1F
100
AcDbEntity
  8
0
  6
SLD-実線
 62
     7
370
    18
100
AcDbLine
 10
116.344946288
 20
166.4772269541
 30
0.0
 11
114.0668381383
 21
161.5918086136
 31
0.0
  0
LINE
  5
A3
330
1F
100
AcDbEntity
  8
0
  6
SLD-実線
 62
     7
370
    18
100
AcDbLine
 10
114.0668381383
 20
123.3426437938
 30
0.0
 11
116.344946288
 21
118.4572254533
 31
0.0
  0
LINE
  5
A4
330
1F
100
AcDbEntity
  8
0
  6
SLD-実線
 62
     7
370
    18
100
AcDbLine
 10
108.2449470092
 20
166.4772269541
 30
0.0
 11
105.9668388595
 21
161.5918086136
 31
0.0
  0
LINE
  5
A5
330
1F
100
AcDbEntity
  8
0
  6
SLD-実線
 62
     7
370
    18
100
AcDbLine
 10
105.9668388595
 20
123.3426437938
 30
0.0
 11
108.2449470092
 21
118.4572254533
 31
0.0
  0
LINE
  5
A6
330
1F
100
AcDbEntity
  8
0
  6
SLD-実線
 62
     7
370
    18
100
AcDbLine
 10
95.0449461494
 20
118.4572254533
 30
0.0
 11
97.3230533679
 21
123.3426437938
 31
0.0
  0
LINE
  5
A7
330
1F
100
AcDbEntity
  8
0
  6
SLD-実線
 62
     7
370
    18
100
AcDbLine
 10
97.3230533679
 20
161.5918086136
 30
0.0
 11
95.0449461494
 21
166.4772269541
 31
0.0
  0
LINE
  5
A8
330
1F
100
AcDbEntity
  8
0
  6
SLD-実線
 62
     7
370
    18
100
AcDbLine
 10
103.1449463596
 20
118.4572254533
 30
0.0
 11
105.4230545093
 21
123.3426437938
 31
0.0
  0
LINE
  5
A9
330
1F
100
AcDbEntity
  8
0
  6
SLD-実線
 62
     7
370
    18
100
AcDbLine
 10
105.4230545093
 20
161.5918086136
 30
0.0
 11
103.1449463596
 21
166.4772269541
 31
0.0
  0
LINE
  5
AA
330
1F
100
AcDbEntity
  8
0
  6
SLD-実線
 62
     7
370
    18
100
AcDbLine
 10
111.2449456383
 20
118.4572254533
 30
0.0
 11
113.5230537881
 21
123.3426437938
 31
0.0
  0
LINE
  5
AB
330
1F
100
AcDbEntity
  8
0
  6
SLD-実線
 62
     7
370
    18
100
AcDbLine
 10
113.5230537881
 20
161.5918086136
 30
0.0
 11
111.2449456383
 21
166.4772269541
 31
0.0
  0
ARC
  5
AC
330
1F
100
AcDbEntity
  8
0
  6
SLD-実線
 62
     7
370
    18
100
AcDbCircle
 10
132.3949461062
 20
123.9672258014
 30
0.0
 40
0.9999999999999929
100
AcDbArc
 50
270.0001024528
 51
0.000023052
  0
ARC
  5
AD
330
1F
100
AcDbEntity
  8
0
  6
SLD-実線
 62
     7
370
    18
100
AcDbCircle
 10
132.3949461956
 20
160.9672262037
 30
0.0
 40
0.9999999999999716
100
AcDbArc
 50
0.0000136604
 51
90.0000051226
  0
ARC
  5
AE
330
1F
100
AcDbEntity
  8
0
  6
SLD-実線
 62
     7
370
    18
100
AcDbCircle
 10
89.5662559229
 20
123.0629336135
 30
0.0
 40
0.300000000000004
100
AcDbArc
 50
24.9999309655
 51
164.4495615323
  0
ARC
  5
AF
330
1F
100
AcDbEntity
  8
0
  6
SLD-実線
 62
     7
370
    18
100
AcDbCircle
 10
89.5662560398
 20
161.8715186773
 30
0.0
 40
0.2999999999999973
100
AcDbArc
 50
195.5503764835
 51
334.9999761186
  0
ARC
  5
B0
330
1F
100
AcDbEntity
  8
0
  6
SLD-実線
 62
     7
370
    18
100
AcDbCircle
 10
113.79494594
 20
123.2158580196
 30
0.0
 40
0.3000000000000165
100
AcDbArc
 50
25.0000623101
 51
154.9999248914
  0
ARC
  5
B1
330
1F
100
AcDbEntity
  8
0
  6
SLD-実線
 62
     7
370
    18
100
AcDbCircle
 10
113.7949461294
 20
161.718594081
 30
0.0
 40
0.3000000000000002
100
AcDbArc
 50
204.9999976637
 51
334.9999895377
  0
ARC
  5
B2
330
1F
100
AcDbEntity
  8
0
  6
SLD-実線
 62
     7
370
    18
100
AcDbCircle
 10
97.5949461956
 20
123.2158585677
 30
0.0
 40
0.3000000000000074
100
AcDbArc
 50
24.999946822
 51
155.0000403795
  0
ARC
  5
B3
330
1F
100
AcDbEntity
  8
0
  6
SLD-実線
 62
     7
370
    18
100
AcDbCircle
 10
97.5949459193
 20
161.7185936304
 30
0.0
 40
0.3000000000000058
100
AcDbArc
 50
204.9999027141
 51
335.0000844873
  0
ARC
  5
B4
330
1F
100
AcDbEntity
  8
0
  6
SLD-実線
 62
     7
370
    18
100
AcDbCircle
 10
105.6949463006
 20
123.215858793
 30
0.0
 40
0.2999999999999879
100
AcDbArc
 50
24.9998993471
 51
155.0000878543
  0
ARC
  5
B5
330
1F
100
AcDbEntity
  8
0
  6
SLD-実線
 62
     7
370
    18
100
AcDbCircle
 10
105.69494649
 20
161.7185948543
 30
0.0
 40
0.3000000000000138
100
AcDbArc
 50
205.000160626
 51
334.9998265754
  0
LINE
  5
B6
330
1F
100
AcDbEntity
  8
0
  6
SLD-実線
 62
     7
370
    18
100
AcDbLine
 10
100.1449461062
 20
117.6572262037
 30
0.0
 11
100.1449458678
 21
167.2772255951
 31
0.0
  0
LINE
  5
B7
330
1F
100
AcDbEntity
  8
0
  6
SLD-実線
 62
     7
370
    18
100
AcDbLine
 10
116.3449461062
 20
117.6572262037
 30
0.0
 11
116.344946288
 21
167.2772255951
 31
0.0
  0
LINE
  5
B8
330
1F
100
AcDbEntity
  8
0
  6
SLD-実線
 62
     7
370
    18
100
AcDbLine
 10
103.1449461062
 20
117.6572262037
 30
0.0
 11
103.1449463596
 21
167.2772255951
 31
0.0
  0
LINE
  5
B9
330
1F
100
AcDbEntity
  8
0
  6
SLD-実線
 62
     7
370
    18
100
AcDbLine
 10
87.6949461205
 20
117.4572252894
 30
0.0
 11
87.6949461205
 21
167.477227118
 31
0.0
  0
LINE
  5
BA
330
1F
100
AcDbEntity
  8
0
  6
SLD-実線
 62
     7
370
    18
100
AcDbLine
 10
111.2449461062
 20
117.6572262037
 30
0.0
 11
111.2449456383
 21
167.2772255951
 31
0.0
  0
LINE
  5
BB
330
1F
100
AcDbEntity
  8
0
  6
SLD-実線
 62
     7
370
    18
100
AcDbLine
 10
108.2449461062
 20
117.6572262037
 30
0.0
 11
108.2449470092
 21
167.2772255951
 31
0.0
  0
LINE
  5
BC
330
1F
100
AcDbEntity
  8
0
  6
SLD-実線
 62
     7
370
    18
100
AcDbLine
 10
119.3449467798
 20
117.6572268123
 30
0.0
 11
119.3449467798
 21
167.2772255951
 31
0.0
  0
LINE
  5
BD
330
1F
100
AcDbEntity
  8
0
  6
SLD-実線
 62
     7
370
    18
100
AcDbLine
 10
95.0449461062
 20
117.6572262037
 30
0.0
 11
95.0449461494
 21
167.2772255951
 31
0.0
  0
LINE
  5
BE
330
1F
100
AcDbEntity
  8
0
  6
SLD-実線
 62
     7
370
    18
100
AcDbLine
 10
87.3949461062
 20
117.4672258312
 30
0.0
 11
87.3949461062
 21
167.4672265762
 31
0.0
  0
LINE
  5
BF
330
1F
100
AcDbEntity
  8
0
  6
SLD-実線
 62
     7
370
    18
100
AcDbLine
 10
92.0449461062
 20
117.6572262037
 30
0.0
 11
92.0449461234
 21
167.2772255951
 31
0.0
  0
LINE
  5
C0
330
1F
100
AcDbEntity
  8
0
  6
SLD-実線
 62
     7
370
    18
100
AcDbLine
 10
132.3949478944
 20
143.9672262167
 30
0.0
 11
119.3449467798
 21
143.9672262167
 31
0.0
  0
LINE
  5
C1
330
1F
100
AcDbEntity
  8
0
  6
SLD-実線
 62
     7
370
    18
100
AcDbLine
 10
132.3949478944
 20
142.4672262037
 30
0.0
 11
132.3949478944
 21
143.9672262167
 31
0.0
  0
LINE
  5
C2
330
1F
100
AcDbEntity
  8
0
  6
SLD-実線
 62
     7
370
    18
100
AcDbLine
 10
132.3949478944
 20
140.9672261907
 30
0.0
 11
132.3949478944
 21
142.4672262037
 31
0.0
  0
LINE
  5
C3
330
1F
100
AcDbEntity
  8
0
  6
SLD-実線
 62
     7
370
    18
100
AcDbLine
 10
132.3949478944
 20
140.9672261907
 30
0.0
 11
119.3449467798
 21
140.9672261907
 31
0.0
  0
LINE
  5
C4
330
1F
100
AcDbEntity
  8
0
  6
SLD-実線
 62
     7
370
    18
100
AcDbLine
 10
122.1149459858
 20
123.0250031913
 30
0.0
 11
122.1149459858
 21
140.9672261907
 31
0.0
  0
SPLINE
  5
C5
330
1F
100
AcDbEntity
  8
0
  6
SLD-実線
 62
     7
370
    18
100
AcDbSpline
210
0.0
220
0.0
230
1.0
 70
     8
 71
     3
 72
     8
 73
     4
 74
     0
 42
0.000000001
 43
0.00000001
 40
0.0
 40
0.0
 40
0.0
 40
0.0
 40
1.0
 40
1.0
 40
1.0
 40
1.0
 10
122.1149459858325
 20
123.0250031912596
 30
0.0
 10
121.1919877146199
 20
121.5178154859438
 30
0.0
 10
120.268583823858
 20
120.0108997469705
 30
0.0
 10
119.344946106234
 20
118.5041274892251
 30
0.0
  0
SPLINE
  5
C6
330
1F
100
AcDbEntity
  8
0
  6
SLD-実線
 62
     7
370
    18
100
AcDbSpline
210
0.0
220
0.0
230
1.0
 70
     8
 71
     3
 72
     8
 73
     4
 74
     0
 42
0.000000001
 43
0.00000001
 40
0.0
 40
0.0
 40
0.0
 40
0.0
 40
1.0
 40
1.0
 40
1.0
 40
1.0
 10
119.3449461062335
 20
166.4303249181887
 30
0.0
 10
120.2685839663022
 20
164.9235524280669
 30
0.0
 10
121.1919879182834
 20
163.4166365888873
 30
0.0
 10
122.1149459858321
 20
161.9094492161543
 30
0.0
  0
LINE
  5
C7
330
1F
100
AcDbEntity
  8
0
  6
SLD-実線
 62
     7
370
    18
100
AcDbLine
 10
122.1149459858
 20
143.9672262167
 30
0.0
 11
122.1149459858
 21
161.9094492162
 31
0.0
  0
LINE
  5
C8
330
1F
100
AcDbEntity
  8
0
  6
SLD-実線
 62
     7
370
    18
100
AcDbLine
 10
132.3949478944
 20
123.0250031913
 30
0.0
 11
132.3949478944
 21
140.9672261907
 31
0.0
  0
LINE
  5
C9
330
1F
100
AcDbEntity
  8
0
  6
SLD-実線
 62
     7
370
    18
100
AcDbLine
 10
132.3949478944
 20
143.9672262167
 30
0.0
 11
132.3949478944
 21
161.9094492162
 31
0.0
  0
LINE
  5
CA
330
1F
100
AcDbEntity
  8
0
  6
SLD-実線
 62
     7
370
    18
100
AcDbLine
 10
133.3949461062
 20
123.9672262037
 30
0.0
 11
133.3949461956
 21
160.9672264421
 31
0.0
  0
LINE
  5
CB
330
1F
100
AcDbEntity
  8
0
  6
SLD-実線
 62
     7
370
    18
100
AcDbLine
 10
122.1149459858
 20
161.9094492162
 30
0.0
 11
132.3949478944
 21
161.9094492162
 31
0.0
  0
LINE
  5
CC
330
1F
100
AcDbEntity
  8
0
  6
SLD-実線
 62
     7
370
    18
100
AcDbLine
 10
132.3949478944
 20
123.0250031913
 30
0.0
 11
122.1149459858
 21
123.0250031913
 31
0.0
  0
LINE
  5
CD
330
1F
100
AcDbEntity
  8
0
  6
SLD-実線
 62
     7
370
    18
100
AcDbLine
 10
132.3949478944
 20
161.967226606
 30
0.0
 11
119.3449467798
 21
167.2772255951
 31
0.0
  0
LINE
  5
CE
330
1F
100
AcDbEntity
  8
0
  6
SLD-実線
 62
     7
370
    18
100
AcDbLine
 10
132.3949478944
 20
161.9094492162
 30
0.0
 11
132.3949478944
 21
161.967226606
 31
0.0
  0
LINE
  5
CF
330
1F
100
AcDbEntity
  8
0
  6
SLD-実線
 62
     7
370
    18
100
AcDbLine
 10
132.3949478944
 20
122.9672258014
 30
0.0
 11
132.3949478944
 21
123.0250031913
 31
0.0
  0
LINE
  5
D0
330
1F
100
AcDbEntity
  8
0
  6
SLD-実線
 62
     7
370
    18
100
AcDbLine
 10
119.3449467798
 20
117.6572268123
 30
0.0
 11
132.3949478944
 21
122.9672258014
 31
0.0
  0
LINE
  5
D1
330
1F
100
AcDbEntity
  8
0
  6
SLD-実線
 62
     8
370
    18
100
AcDbLine
 10
100.3449464594
 20
117.4572252894
 30
0.0
 11
100.3449464594
 21
167.477227118
 31
0.0
  0
LINE
  5
D2
330
1F
100
AcDbEntity
  8
0
  6
SLD-実線
 62
     8
370
    18
100
AcDbLine
 10
102.944945768
 20
117.4572252894
 30
0.0
 11
102.944945768
 21
167.477227118
 31
0.0
  0
LINE
  5
D3
330
1F
100
AcDbEntity
  8
0
  6
SLD-実線
 62
     8
370
    18
100
AcDbLine
 10
108.4449466695
 20
117.4572252894
 30
0.0
 11
108.4449466695
 21
167.477227118
 31
0.0
  0
LINE
  5
D4
330
1F
100
AcDbEntity
  8
0
  6
SLD-実線
 62
     8
370
    18
100
AcDbLine
 10
111.0449459781
 20
117.4572252894
 30
0.0
 11
111.0449459781
 21
167.477227118
 31
0.0
  0
LINE
  5
D5
330
1F
100
AcDbEntity
  8
0
  6
SLD-実線
 62
     8
370
    18
100
AcDbLine
 10
116.5449459483
 20
117.4572252894
 30
0.0
 11
116.5449459483
 21
167.477227118
 31
0.0
  0
LINE
  5
D6
330
1F
100
AcDbEntity
  8
0
  6
SLD-実線
 62
     8
370
    18
100
AcDbLine
 10
119.1449471195
 20
117.4572252894
 30
0.0
 11
119.1449471195
 21
167.477227118
 31
0.0
  0
LINE
  5
D7
330
1F
100
AcDbEntity
  8
0
  6
SLD-実線
 62
     8
370
    18
100
AcDbLine
 10
89.2772375052
 20
123.1433593893
 30
0.0
 11
89.2772375052
 21
161.7910930181
 31
0.0
  0
LINE
  5
D8
330
1F
100
AcDbEntity
  8
0
  6
SLD-実線
 62
     8
370
    18
100
AcDbLine
 10
94.8449460235
 20
117.4572252894
 30
0.0
 11
94.8449460235
 21
167.477227118
 31
0.0
  0
LINE
  5
D9
330
1F
100
AcDbEntity
  8
0
  6
SLD-実線
 62
     8
370
    18
100
AcDbLine
 10
92.2449462493
 20
117.4572252894
 30
0.0
 11
92.2449462493
 21
167.477227118
 31
0.0
  0
LINE
  5
DA
330
1F
100
AcDbEntity
  8
0
  6
SLD-実線
 62
     8
370
    18
100
AcDbLine
 10
89.8381484118
 20
123.1897187645
 30
0.0
 11
89.8381484118
 21
161.744733643
 31
0.0
  0
LINE
  5
DB
330
1F
100
AcDbEntity
  8
0
  6
SLD-実線
 62
     8
370
    18
100
AcDbLine
 10
97.8668386494
 20
123.3426437938
 30
0.0
 11
97.8668386494
 21
161.5918086136
 31
0.0
  0
LINE
  5
DC
330
1F
100
AcDbEntity
  8
0
  6
SLD-実線
 62
     8
370
    18
100
AcDbLine
 10
114.0668381383
 20
123.3426437938
 30
0.0
 11
114.0668381383
 21
161.5918086136
 31
0.0
  0
LINE
  5
DD
330
1F
100
AcDbEntity
  8
0
  6
SLD-実線
 62
     8
370
    18
100
AcDbLine
 10
105.9668388595
 20
123.3426437938
 30
0.0
 11
105.9668388595
 21
161.5918086136
 31
0.0
  0
LINE
  5
DE
330
1F
100
AcDbEntity
  8
0
  6
SLD-実線
 62
     8
370
    18
100
AcDbLine
 10
97.3230533679
 20
123.3426437938
 30
0.0
 11
97.3230533679
 21
161.5918086136
 31
0.0
  0
LINE
  5
DF
330
1F
100
AcDbEntity
  8
0
  6
SLD-実線
 62
     8
370
    18
100
AcDbLine
 10
105.4230545093
 20
123.3426437938
 30
0.0
 11
105.4230545093
 21
161.5918086136
 31
0.0
  0
LINE
  5
E0
330
1F
100
AcDbEntity
  8
0
  6
SLD-実線
 62
     8
370
    18
100
AcDbLine
 10
113.5230537881
 20
123.3426437938
 30
0.0
 11
113.5230537881
 21
161.5918086136
 31
0.0
  0
LINE
  5
E1
330
1F
100
AcDbEntity
  8
0
  6
SLD-破線
 62
     7
370
    18
100
AcDbLine
 10
88.528966499
 20
160.3073024416
 30
0.0
 11
88.528966499
 21
124.6298060978
 31
0.0
  0
LINE
  5
E2
330
1F
100
AcDbEntity
  8
0
  6
SLD-破線
 62
     7
370
    18
100
AcDbLine
 10
93.0917922784
 20
165.7644429469
 30
0.0
 11
93.0917922784
 21
119.1700094605
 31
0.0
  0
LINE
  5
E3
330
1F
100
AcDbEntity
  8
0
  6
SLD-破線
 62
     7
370
    18
100
AcDbLine
 10
93.9980999944
 20
165.7644429469
 30
0.0
 11
93.9980999944
 21
119.1700094605
 31
0.0
  0
LINE
  5
E4
330
1F
100
AcDbEntity
  8
0
  6
SLD-破線
 62
     7
370
    18
100
AcDbLine
 10
109.2917926987
 20
165.7644429469
 30
0.0
 11
109.2917926987
 21
119.1700094605
 31
0.0
  0
LINE
  5
E5
330
1F
100
AcDbEntity
  8
0
  6
SLD-破線
 62
     7
370
    18
100
AcDbLine
 10
110.1980999489
 20
165.7644429469
 30
0.0
 11
110.1980999489
 21
119.1700094605
 31
0.0
  0
LINE
  5
E6
330
1F
100
AcDbEntity
  8
0
  6
SLD-破線
 62
     7
370
    18
100
AcDbLine
 10
101.1917924886
 20
165.7644429469
 30
0.0
 11
101.1917924886
 21
119.1700094605
 31
0.0
  0
LINE
  5
E7
330
1F
100
AcDbEntity
  8
0
  6
SLD-破線
 62
     7
370
    18
100
AcDbLine
 10
102.0980997388
 20
165.7644429469
 30
0.0
 11
102.0980997388
 21
119.1700094605
 31
0.0
  0
LINE
  5
E8
330
1F
100
AcDbEntity
  8
0
  6
SLD-破線
 62
     7
370
    18
100
AcDbLine
 10
90.4229626274
 20
160.0411194295
 30
0.0
 11
90.4229626437
 21
124.9040377552
 31
0.0
  0
LINE
  5
E9
330
1F
100
AcDbEntity
  8
0
  6
SLD-破線
 62
     7
370
    18
100
AcDbLine
 10
98.5012538933
 20
159.9945648989
 30
0.0
 11
98.5012537246
 21
124.9505647683
 31
0.0
  0
LINE
  5
EA
330
1F
100
AcDbEntity
  8
0
  6
SLD-破線
 62
     7
370
    18
100
AcDbLine
 10
104.7886375715
 20
159.9945643211
 30
0.0
 11
104.7886375715
 21
124.9505647683
 31
0.0
  0
LINE
  5
EB
330
1F
100
AcDbEntity
  8
0
  6
SLD-破線
 62
     7
370
    18
100
AcDbLine
 10
96.6886382927
 20
159.9945643211
 30
0.0
 11
96.6886382927
 21
124.9505647683
 31
0.0
  0
LINE
  5
EC
330
1F
100
AcDbEntity
  8
0
  6
SLD-破線
 62
     7
370
    18
100
AcDbLine
 10
112.8886387129
 20
159.9945643211
 30
0.0
 11
112.8886387129
 21
124.9505647683
 31
0.0
  0
LINE
  5
ED
330
1F
100
AcDbEntity
  8
0
  6
SLD-破線
 62
     7
370
    18
100
AcDbLine
 10
106.6012538933
 20
159.9945648989
 30
0.0
 11
106.6012539347
 21
124.9505647683
 31
0.0
  0
LINE
  5
EE
330
1F
100
AcDbEntity
  8
0
  6
SLD-破線
 62
     7
370
    18
100
AcDbLine
 10
116.986509498
 20
164.8953113585
 30
0.0
 11
116.9865101953
 21
120.0497777427
 31
0.0
  0
LINE
  5
EF
330
1F
100
AcDbEntity
  8
0
  6
SLD-破線
 62
     7
370
    18
100
AcDbLine
 10
117.8726766636
 20
164.9340030962
 30
0.0
 11
117.8726766636
 21
120.0111055041
 31
0.0
  0
LINE
  5
F0
330
1F
100
AcDbEntity
  8
0
  6
SLD-破線
 62
     7
370
    18
100
AcDbLine
 10
121.6062724967
 20
158.4672269637
 30
0.0
 11
121.6062724967
 21
126.4779002631
 31
0.0
  0
LINE
  5
F1
330
1F
100
AcDbEntity
  8
0
  6
SLD-破線
 62
     7
370
    18
100
AcDbLine
 10
114.7012532134
 20
159.9945643211
 30
0.0
 11
114.7012532134
 21
124.9505647683
 31
0.0
  0
LINE
  5
F2
330
1F
100
AcDbEntity
  8
0
  6
SLD-破線
 62
     7
370
    18
100
AcDbLine
 10
132.3949478944
 20
161.9094492162
 30
0.0
 11
132.3949478944
 21
143.9672262167
 31
0.0
  0
LINE
  5
F3
330
1F
100
AcDbEntity
  8
0
  6
SLD-破線
 62
     7
370
    18
100
AcDbLine
 10
132.3949478944
 20
140.9672261907
 30
0.0
 11
132.3949478944
 21
123.0250031913
 31
0.0
  0
LINE
  5
F4
330
1F
100
AcDbEntity
  8
0
  6
SLD-破線
 62
     7
370
    18
100
AcDbLine
 10
127.1949461062
 20
159.9672262037
 30
0.0
 11
127.1949455519
 21
124.9778860474
 31
0.0
  0
LINE
  5
F5
330
1F
100
AcDbEntity
  8
0
  6
SLD-破線
 62
     7
370
    18
100
AcDbLine
 10
127.3949461062
 20
125.1672262037
 30
0.0
 11
127.3949452122
 21
159.767226618
 31
0.0
  0
LINE
  5
F6
330
1F
100
AcDbEntity
  8
0
  6
SLD-破線
 62
     7
370
    18
100
AcDbLine
 10
125.5949445446
 20
159.9672262782
 30
0.0
 11
125.5949445446
 21
124.9778860474
 31
0.0
  0
LINE
  5
F7
330
1F
100
AcDbEntity
  8
0
  6
SLD-破線
 62
     7
370
    18
100
AcDbLine
 10
125.3949448843
 20
125.1672257895
 30
0.0
 11
125.3949448843
 21
159.767226618
 31
0.0
  0
LINE
  5
F8
330
1F
100
AcDbEntity
  8
0
  6
SLD-破線
 62
     7
370
    18
100
AcDbLine
 10
132.8949461062
 20
157.9672262037
 30
0.0
 11
132.8949451824
 21
126.9698732758
 31
0.0
  0
LINE
  5
F9
330
1F
100
AcDbEntity
  8
0
  6
SLD-破線
 62
     7
370
    18
100
AcDbLine
 10
122.472298183
 20
157.9672259504
 30
0.0
 11
122.472298183
 21
126.9698732758
 31
0.0
  0
LINE
  5
FA
330
1F
100
AcDbEntity
  8
0
  6
SLD-破線
 62
     7
370
    18
100
AcDbLine
 10
125.1949461062
 20
157.9672262037
 30
0.0
 11
125.1949452241
 21
126.9698732758
 31
0.0
  0
LINE
  5
FB
330
1F
100
AcDbEntity
  8
0
  6
SLD-破線
 62
     7
370
    18
100
AcDbLine
 10
127.5949448724
 20
157.9672259504
 30
0.0
 11
127.5949448724
 21
126.9698732758
 31
0.0
  0
LINE
  5
FC
330
1F
100
AcDbEntity
  8
0
  6
SLD-破線
 62
     7
370
    18
100
AcDbLine
 10
87.3949461062
 20
117.4672258312
 30
0.0
 11
88.5289664998
 21
124.6271491812
 31
0.0
  0
LINE
  5
FD
330
1F
100
AcDbEntity
  8
0
  6
SLD-破線
 62
     7
370
    18
100
AcDbLine
 10
88.528966499
 20
160.3073024416
 30
0.0
 11
87.3949461062
 21
167.4672265762
 31
0.0
  0
ARC
  5
FE
330
1F
100
AcDbEntity
  8
0
  6
SLD-破線
 62
     7
370
    18
100
AcDbCircle
 10
93.5449461386
 20
119.3813186629
 30
0.0
 40
0.4999999999999882
100
AcDbArc
 50
205.0000090451
 51
334.9999912221
  0
ARC
  5
FF
330
1F
100
AcDbEntity
  8
0
  6
SLD-破線
 62
     7
370
    18
100
AcDbCircle
 10
93.544946104
 20
165.5531338092
 30
0.0
 40
0.5000000000000013
100
AcDbArc
 50
25.0000008633
 51
154.9999994039
  0
ARC
  5
100
330
1F
100
AcDbEntity
  8
0
  6
SLD-破線
 62
     7
370
    18
100
AcDbCircle
 10
109.7449463487
 20
119.3813191135
 30
0.0
 40
0.5000000000000111
100
AcDbArc
 50
205.0000660147
 51
334.9999342525
  0
ARC
  5
101
330
1F
100
AcDbEntity
  8
0
  6
SLD-破線
 62
     7
370
    18
100
AcDbCircle
 10
109.7449460813
 20
165.5531337605
 30
0.0
 40
0.5000000000000181
100
AcDbArc
 50
25.0000070249
 51
154.9999932423
  0
ARC
  5
102
330
1F
100
AcDbEntity
  8
0
  6
SLD-破線
 62
     7
370
    18
100
AcDbCircle
 10
101.6449462437
 20
119.3813188882
 30
0.0
 40
0.5000000000000073
100
AcDbArc
 50
205.0000375299
 51
334.9999627373
  0
ARC
  5
103
330
1F
100
AcDbEntity
  8
0
  6
SLD-破線
 62
     7
370
    18
100
AcDbCircle
 10
101.6449459763
 20
165.5531335352
 30
0.0
 40
0.5000000000000036
100
AcDbArc
 50
25.0000355097
 51
154.9999647575
  0
LINE
  5
104
330
1F
100
AcDbEntity
  8
0
  6
SLD-破線
 62
     7
370
    18
100
AcDbLine
 10
93.0917922784
 20
165.7644429469
 30
0.0
 11
90.4229626274
 21
160.0411194295
 31
0.0
  0
LINE
  5
105
330
1F
100
AcDbEntity
  8
0
  6
SLD-破線
 62
     7
370
    18
100
AcDbLine
 10
90.4229626437
 20
124.8933331335
 30
0.0
 11
93.0917922784
 21
119.1700094605
 31
0.0
  0
LINE
  5
106
330
1F
100
AcDbEntity
  8
0
  6
SLD-破線
 62
     7
370
    18
100
AcDbLine
 10
101.1917924886
 20
165.7644429469
 30
0.0
 11
98.5012538933
 21
159.9945648989
 31
0.0
  0
LINE
  5
107
330
1F
100
AcDbEntity
  8
0
  6
SLD-破線
 62
     7
370
    18
100
AcDbLine
 10
98.5012537246
 20
124.9398880863
 30
0.0
 11
101.1917924886
 21
119.1700094605
 31
0.0
  0
LINE
  5
108
330
1F
100
AcDbEntity
  8
0
  6
SLD-破線
 62
     7
370
    18
100
AcDbLine
 10
102.0980997388
 20
119.1700094605
 30
0.0
 11
104.7886383192
 21
124.9398875085
 31
0.0
  0
LINE
  5
109
330
1F
100
AcDbEntity
  8
0
  6
SLD-破線
 62
     7
370
    18
100
AcDbLine
 10
104.7886375715
 20
159.9945643211
 30
0.0
 11
102.0980997388
 21
165.7644429469
 31
0.0
  0
LINE
  5
10A
330
1F
100
AcDbEntity
  8
0
  6
SLD-破線
 62
     7
370
    18
100
AcDbLine
 10
93.9980999944
 20
119.1700094605
 30
0.0
 11
96.6886383192
 21
124.9398875085
 31
0.0
  0
LINE
  5
10B
330
1F
100
AcDbEntity
  8
0
  6
SLD-破線
 62
     7
370
    18
100
AcDbLine
 10
96.6886382927
 20
159.9945643211
 30
0.0
 11
93.9980999944
 21
165.7644429469
 31
0.0
  0
LINE
  5
10C
330
1F
100
AcDbEntity
  8
0
  6
SLD-破線
 62
     7
370
    18
100
AcDbLine
 10
110.1980999489
 20
119.1700094605
 30
0.0
 11
112.8886383192
 21
124.9398875085
 31
0.0
  0
LINE
  5
10D
330
1F
100
AcDbEntity
  8
0
  6
SLD-破線
 62
     7
370
    18
100
AcDbLine
 10
112.8886387129
 20
159.9945643211
 30
0.0
 11
110.1980999489
 21
165.7644429469
 31
0.0
  0
LINE
  5
10E
330
1F
100
AcDbEntity
  8
0
  6
SLD-破線
 62
     7
370
    18
100
AcDbLine
 10
109.2917926987
 20
165.7644429469
 30
0.0
 11
106.6012538933
 21
159.9945648989
 31
0.0
  0
LINE
  5
10F
330
1F
100
AcDbEntity
  8
0
  6
SLD-破線
 62
     7
370
    18
100
AcDbLine
 10
106.6012539347
 20
124.9398880863
 30
0.0
 11
109.2917926987
 21
119.1700094605
 31
0.0
  0
ARC
  5
110
330
1F
100
AcDbEntity
  8
0
  6
SLD-破線
 62
     7
370
    18
100
AcDbCircle
 10
117.4396635521
 20
120.250450458
 30
0.0
 40
0.5000000000000133
100
AcDbArc
 50
205.0001455146
 51
329.9999631981
  0
ARC
  5
111
330
1F
100
AcDbEntity
  8
0
  6
SLD-破線
 62
     7
370
    18
100
AcDbCircle
 10
117.4396638704
 20
164.6840032544
 30
0.0
 40
0.5000000000000141
100
AcDbArc
 50
29.9999790762
 51
155.000129825
  0
LINE
  5
112
330
1F
100
AcDbEntity
  8
0
  6
SLD-破線
 62
     7
370
    18
100
AcDbLine
 10
117.8726760935
 20
120.0004501798
 30
0.0
 11
121.6062724967
 21
126.4672254437
 31
0.0
  0
LINE
  5
113
330
1F
100
AcDbEntity
  8
0
  6
SLD-破線
 62
     7
370
    18
100
AcDbLine
 10
121.6062724967
 20
158.4672269637
 30
0.0
 11
117.8726766636
 21
164.9340030962
 31
0.0
  0
LINE
  5
114
330
1F
100
AcDbEntity
  8
0
  6
SLD-破線
 62
     7
370
    18
100
AcDbLine
 10
116.986509498
 20
164.8953113585
 30
0.0
 11
114.7012532134
 21
159.9945643211
 31
0.0
  0
LINE
  5
115
330
1F
100
AcDbEntity
  8
0
  6
SLD-破線
 62
     7
370
    18
100
AcDbLine
 10
114.7012532134
 20
124.9398880863
 30
0.0
 11
116.9865101953
 21
120.0391401762
 31
0.0
  0
ARC
  5
116
330
1F
100
AcDbEntity
  8
0
  6
SLD-破線
 62
     7
370
    18
100
AcDbCircle
 10
89.5166548629
 20
124.4707148583
 30
0.0
 40
1.000000000000022
100
AcDbArc
 50
25.0000008504
 51
171.0000082447
  0
ARC
  5
117
330
1F
100
AcDbEntity
  8
0
  6
SLD-破線
 62
     7
370
    18
100
AcDbCircle
 10
89.516654747
 20
160.4637374911
 30
0.0
 40
1.000000000000005
100
AcDbArc
 50
189.0000339021
 51
335.0000126542
  0
ARC
  5
118
330
1F
100
AcDbEntity
  8
0
  6
SLD-破線
 62
     7
370
    18
100
AcDbCircle
 10
97.5949461566
 20
124.5172693548
 30
0.0
 40
1.000000000000017
100
AcDbArc
 50
25.000029701
 51
155.0000068275
  0
ARC
  5
119
330
1F
100
AcDbEntity
  8
0
  6
SLD-破線
 62
     7
370
    18
100
AcDbCircle
 10
97.5949459583
 20
160.4171828433
 30
0.0
 40
1.000000000000004
100
AcDbArc
 50
205.0000164687
 51
335.0000200599
  0
ARC
  5
11A
330
1F
100
AcDbEntity
  8
0
  6
SLD-破線
 62
     7
370
    18
100
AcDbCircle
 10
113.794945901
 20
124.5172688068
 30
0.0
 40
1.000000000000013
100
AcDbArc
 50
25.0000643474
 51
154.9999721811
  0
ARC
  5
11B
330
1F
100
AcDbEntity
  8
0
  6
SLD-破線
 62
     7
370
    18
100
AcDbCircle
 10
113.7949461684
 20
160.4171832939
 30
0.0
 40
1.00000000000001
100
AcDbArc
 50
205.0000449535
 51
334.999991575
  0
ARC
  5
11C
330
1F
100
AcDbEntity
  8
0
  6
SLD-破線
 62
     7
370
    18
100
AcDbCircle
 10
105.6949462616
 20
124.5172695801
 30
0.0
 40
1.0
100
AcDbArc
 50
25.0000154586
 51
155.00002107
  0
ARC
  5
11D
330
1F
100
AcDbEntity
  8
0
  6
SLD-破線
 62
     7
370
    18
100
AcDbCircle
 10
105.6949455977
 20
160.41718207
 30
0.0
 40
1.000000000000003
100
AcDbArc
 50
204.9999675798
 51
335.0000689488
  0
ARC
  5
11E
330
1F
100
AcDbEntity
  8
0
  6
SLD-破線
 62
     7
370
    18
100
AcDbCircle
 10
127.1949461062
 20
125.1672261292
 30
0.0
 40
0.1999999999999894
100
AcDbArc
 50
269.9998411981
 51
0.0000213446
  0
ARC
  5
11F
330
1F
100
AcDbEntity
  8
0
  6
SLD-破線
 62
     7
370
    18
100
AcDbCircle
 10
127.1949452122
 20
159.7672262037
 30
0.0
 40
0.200000000000034
100
AcDbArc
 50
0.000118674
 51
89.999743868
  0
LINE
  5
120
330
1F
100
AcDbEntity
  8
0
  6
SLD-破線
 62
     7
370
    18
100
AcDbLine
 10
125.5949461062
 20
124.9672262037
 30
0.0
 11
127.1949455519
 21
124.9672261292
 31
0.0
  0
LINE
  5
121
330
1F
100
AcDbEntity
  8
0
  6
SLD-破線
 62
     7
370
    18
100
AcDbLine
 10
127.1949461062
 20
159.9672262037
 30
0.0
 11
125.5949445446
 21
159.9672262782
 31
0.0
  0
ARC
  5
122
330
1F
100
AcDbEntity
  8
0
  6
SLD-破線
 62
     7
370
    18
100
AcDbCircle
 10
125.5949448843
 20
125.1672262037
 30
0.0
 40
0.2000000000000339
100
AcDbArc
 50
180.0001186735
 51
270.0003500473
  0
ARC
  5
123
330
1F
100
AcDbEntity
  8
0
  6
SLD-破線
 62
     7
370
    18
100
AcDbCircle
 10
125.5949461062
 20
159.7672262782
 30
0.0
 40
0.2000000000000316
100
AcDbArc
 50
90.0004473774
 51
180.0000213461
  0
ARC
  5
124
330
1F
100
AcDbEntity
  8
0
  6
SLD-破線
 62
     7
370
    18
100
AcDbCircle
 10
132.8949461062
 20
126.467226457
 30
0.0
 40
0.5000000000000073
100
AcDbArc
 50
359.9999709716
 51
90.0001058679
  0
ARC
  5
125
330
1F
100
AcDbEntity
  8
0
  6
SLD-破線
 62
     7
370
    18
100
AcDbCircle
 10
132.8949461062
 20
158.4672262037
 30
0.0
 40
0.5
100
AcDbArc
 50
270.0
 51
0.0
  0
ARC
  5
126
330
1F
100
AcDbEntity
  8
0
  6
SLD-破線
 62
     7
370
    18
100
AcDbCircle
 10
122.4722963754
 20
125.9672262037
 30
0.0
 40
1.000000000000047
100
AcDbArc
 50
90.0
 51
150.0
  0
ARC
  5
127
330
1F
100
AcDbEntity
  8
0
  6
SLD-破線
 62
     7
370
    18
100
AcDbCircle
 10
122.4722983393
 20
158.9672262037
 30
0.0
 40
1.000000000000014
100
AcDbArc
 50
209.9999497214
 51
269.9998874789
  0
ARC
  5
128
330
1F
100
AcDbEntity
  8
0
  6
SLD-破線
 62
     7
370
    18
100
AcDbCircle
 10
125.1949461062
 20
126.767226457
 30
0.0
 40
0.2000000000000069
100
AcDbArc
 50
359.9999274287
 51
90.000252717
  0
ARC
  5
129
330
1F
100
AcDbEntity
  8
0
  6
SLD-破線
 62
     7
370
    18
100
AcDbCircle
 10
125.1949461062
 20
158.1672262037
 30
0.0
 40
0.2000000000000171
100
AcDbArc
 50
270.0
 51
0.0
  0
ARC
  5
12A
330
1F
100
AcDbEntity
  8
0
  6
SLD-破線
 62
     7
370
    18
100
AcDbCircle
 10
127.5949461062
 20
126.7672262037
 30
0.0
 40
0.2000000000000028
100
AcDbArc
 50
90.0
 51
180.0
  0
ARC
  5
12B
330
1F
100
AcDbEntity
  8
0
  6
SLD-破線
 62
     7
370
    18
100
AcDbCircle
 10
127.55472173
 20
158.1631394487
 30
0.0
 40
0.2000000000000198
100
AcDbArc
 50
281.6022104159
 51
281.6025712512
  0
LINE
  5
12C
330
1F
100
AcDbEntity
  8
0
  6
SLD-破線
 62
     7
370
    18
100
AcDbLine
 10
122.4722963754
 20
126.9672262037
 30
0.0
 11
125.1949452241
 21
126.967226457
 31
0.0
  0
LINE
  5
12D
330
1F
100
AcDbEntity
  8
0
  6
SLD-破線
 62
     7
370
    18
100
AcDbLine
 10
125.1949461062
 20
157.9672262037
 30
0.0
 11
122.472298183
 21
157.9672259504
 31
0.0
  0
LINE
  5
12E
330
1F
100
AcDbEntity
  8
0
  6
SLD-破線
 62
     7
370
    18
100
AcDbLine
 10
127.5949461062
 20
126.9672262037
 30
0.0
 11
132.8949451824
 21
126.967226457
 31
0.0
  0
LINE
  5
12F
330
1F
100
AcDbEntity
  8
0
  6
SLD-破線
 62
     7
370
    18
100
AcDbLine
 10
132.8949461062
 20
157.9672262037
 30
0.0
 11
127.5949448724
 21
157.9672259504
 31
0.0
  0
LINE
  5
130
330
1F
100
AcDbEntity
  8
0
  6
SLD-破線
 62
     7
370
    18
100
AcDbLine
 10
100.3449464594
 20
142.4672262037
 30
0.0
 11
100.3449464594
 21
117.4572252894
 31
0.0
  0
LINE
  5
131
330
1F
100
AcDbEntity
  8
0
  6
SLD-破線
 62
     7
370
    18
100
AcDbLine
 10
100.3449464594
 20
167.477227118
 30
0.0
 11
100.3449464594
 21
142.4672262037
 31
0.0
  0
LINE
  5
132
330
1F
100
AcDbEntity
  8
0
  6
SLD-破線
 62
     7
370
    18
100
AcDbLine
 10
102.944945768
 20
142.4672262037
 30
0.0
 11
102.944945768
 21
117.4572252894
 31
0.0
  0
LINE
  5
133
330
1F
100
AcDbEntity
  8
0
  6
SLD-破線
 62
     7
370
    18
100
AcDbLine
 10
102.944945768
 20
167.477227118
 30
0.0
 11
102.944945768
 21
142.4672262037
 31
0.0
  0
LINE
  5
134
330
1F
100
AcDbEntity
  8
0
  6
SLD-破線
 62
     7
370
    18
100
AcDbLine
 10
108.4449466695
 20
142.4672262037
 30
0.0
 11
108.4449466695
 21
117.4572252894
 31
0.0
  0
LINE
  5
135
330
1F
100
AcDbEntity
  8
0
  6
SLD-破線
 62
     7
370
    18
100
AcDbLine
 10
108.4449466695
 20
167.477227118
 30
0.0
 11
108.4449466695
 21
142.4672262037
 31
0.0
  0
LINE
  5
136
330
1F
100
AcDbEntity
  8
0
  6
SLD-破線
 62
     7
370
    18
100
AcDbLine
 10
111.0449459781
 20
142.4672262037
 30
0.0
 11
111.0449459781
 21
117.4572252894
 31
0.0
  0
LINE
  5
137
330
1F
100
AcDbEntity
  8
0
  6
SLD-破線
 62
     7
370
    18
100
AcDbLine
 10
111.0449459781
 20
167.477227118
 30
0.0
 11
111.0449459781
 21
142.4672262037
 31
0.0
  0
LINE
  5
138
330
1F
100
AcDbEntity
  8
0
  6
SLD-破線
 62
     7
370
    18
100
AcDbLine
 10
116.5449459483
 20
142.4672262037
 30
0.0
 11
116.5449459483
 21
117.4572252894
 31
0.0
  0
LINE
  5
139
330
1F
100
AcDbEntity
  8
0
  6
SLD-破線
 62
     7
370
    18
100
AcDbLine
 10
116.5449459483
 20
167.477227118
 30
0.0
 11
116.5449459483
 21
142.4672262037
 31
0.0
  0
LINE
  5
13A
330
1F
100
AcDbEntity
  8
0
  6
SLD-破線
 62
     7
370
    18
100
AcDbLine
 10
119.1449471195
 20
142.4672262037
 30
0.0
 11
119.1449471195
 21
117.4572252894
 31
0.0
  0
LINE
  5
13B
330
1F
100
AcDbEntity
  8
0
  6
SLD-破線
 62
     7
370
    18
100
AcDbLine
 10
119.1449471195
 20
167.477227118
 30
0.0
 11
119.1449471195
 21
142.4672262037
 31
0.0
  0
LINE
  5
13C
330
1F
100
AcDbEntity
  8
0
  6
SLD-破線
 62
     7
370
    18
100
AcDbLine
 10
89.2772375052
 20
142.4672262037
 30
0.0
 11
89.2772375052
 21
123.1433593893
 31
0.0
  0
LINE
  5
13D
330
1F
100
AcDbEntity
  8
0
  6
SLD-破線
 62
     7
370
    18
100
AcDbLine
 10
89.2772375052
 20
161.7910930181
 30
0.0
 11
89.2772375052
 21
142.4672262037
 31
0.0
  0
LINE
  5
13E
330
1F
100
AcDbEntity
  8
0
  6
SLD-破線
 62
     7
370
    18
100
AcDbLine
 10
94.8449460235
 20
142.4672262037
 30
0.0
 11
94.8449460235
 21
117.4572252894
 31
0.0
  0
LINE
  5
13F
330
1F
100
AcDbEntity
  8
0
  6
SLD-破線
 62
     7
370
    18
100
AcDbLine
 10
94.8449460235
 20
167.477227118
 30
0.0
 11
94.8449460235
 21
142.4672262037
 31
0.0
  0
LINE
  5
140
330
1F
100
AcDbEntity
  8
0
  6
SLD-破線
 62
     7
370
    18
100
AcDbLine
 10
92.2449462493
 20
142.4672262037
 30
0.0
 11
92.2449462493
 21
117.4572252894
 31
0.0
  0
LINE
  5
141
330
1F
100
AcDbEntity
  8
0
  6
SLD-破線
 62
     7
370
    18
100
AcDbLine
 10
92.2449462493
 20
167.477227118
 30
0.0
 11
92.2449462493
 21
142.4672262037
 31
0.0
  0
LINE
  5
142
330
1F
100
AcDbEntity
  8
0
  6
SLD-破線
 62
     7
370
    18
100
AcDbLine
 10
89.8381484118
 20
142.4672262037
 30
0.0
 11
89.8381484118
 21
123.1897187645
 31
0.0
  0
LINE
  5
143
330
1F
100
AcDbEntity
  8
0
  6
SLD-破線
 62
     7
370
    18
100
AcDbLine
 10
89.8381484118
 20
161.744733643
 30
0.0
 11
89.8381484118
 21
142.4672262037
 31
0.0
  0
LINE
  5
144
330
1F
100
AcDbEntity
  8
0
  6
SLD-破線
 62
     7
370
    18
100
AcDbLine
 10
97.8668386494
 20
142.4672262037
 30
0.0
 11
97.8668386494
 21
123.3426437938
 31
0.0
  0
LINE
  5
145
330
1F
100
AcDbEntity
  8
0
  6
SLD-破線
 62
     7
370
    18
100
AcDbLine
 10
97.8668386494
 20
161.5918086136
 30
0.0
 11
97.8668386494
 21
142.4672262037
 31
0.0
  0
LINE
  5
146
330
1F
100
AcDbEntity
  8
0
  6
SLD-破線
 62
     7
370
    18
100
AcDbLine
 10
114.0668381383
 20
142.4672262037
 30
0.0
 11
114.0668381383
 21
123.3426437938
 31
0.0
  0
LINE
  5
147
330
1F
100
AcDbEntity
  8
0
  6
SLD-破線
 62
     7
370
    18
100
AcDbLine
 10
114.0668381383
 20
161.5918086136
 30
0.0
 11
114.0668381383
 21
142.4672262037
 31
0.0
  0
LINE
  5
148
330
1F
100
AcDbEntity
  8
0
  6
SLD-破線
 62
     7
370
    18
100
AcDbLine
 10
105.9668388595
 20
142.4672262037
 30
0.0
 11
105.9668388595
 21
123.3426437938
 31
0.0
  0
LINE
  5
149
330
1F
100
AcDbEntity
  8
0
  6
SLD-破線
 62
     7
370
    18
100
AcDbLine
 10
105.9668388595
 20
161.5918086136
 30
0.0
 11
105.9668388595
 21
142.4672262037
 31
0.0
  0
LINE
  5
14A
330
1F
100
AcDbEntity
  8
0
  6
SLD-破線
 62
     7
370
    18
100
AcDbLine
 10
97.3230533679
 20
142.4672262037
 30
0.0
 11
97.3230533679
 21
123.3426437938
 31
0.0
  0
LINE
  5
14B
330
1F
100
AcDbEntity
  8
0
  6
SLD-破線
 62
     7
370
    18
100
AcDbLine
 10
97.3230533679
 20
161.5918086136
 30
0.0
 11
97.3230533679
 21
142.4672262037
 31
0.0
  0
LINE
  5
14C
330
1F
100
AcDbEntity
  8
0
  6
SLD-破線
 62
     7
370
    18
100
AcDbLine
 10
105.4230545093
 20
142.4672262037
 30
0.0
 11
105.4230545093
 21
123.3426437938
 31
0.0
  0
LINE
  5
14D
330
1F
100
AcDbEntity
  8
0
  6
SLD-破線
 62
     7
370
    18
100
AcDbLine
 10
105.4230545093
 20
161.5918086136
 30
0.0
 11
105.4230545093
 21
142.4672262037
 31
0.0
  0
LINE
  5
14E
330
1F
100
AcDbEntity
  8
0
  6
SLD-破線
 62
     7
370
    18
100
AcDbLine
 10
113.5230537881
 20
142.4672262037
 30
0.0
 11
113.5230537881
 21
123.3426437938
 31
0.0
  0
LINE
  5
14F
330
1F
100
AcDbEntity
  8
0
  6
SLD-破線
 62
     7
370
    18
100
AcDbLine
 10
113.5230537881
 20
161.5918086136
 30
0.0
 11
113.5230537881
 21
142.4672262037
 31
0.0
  0
DIMENSION
  5
150
330
1F
100
AcDbEntity
  8
0
  6
SLD-実線
 62
     7
370
    18
100
AcDbDimension
  2
_D
 10
77.3949461062
 20
160.3073032262
 30
0.0
 11
77.3949461062
 21
142.4672262037
 31
0.0
 70
   160
  1
%%c<>
 71
     2
 42
-1.0
  3
SLDDIMSTYLE0
100
AcDbAlignedDimension
 13
88.5289664998
 23
124.6271491812
 33
0.0
 14
88.5289664998
 24
160.3073032262
 34
0.0
 50
90.0
100
AcDbRotatedDimension
  0
DIMENSION
  5
15C
330
1F
100
AcDbEntity
  8
0
  6
SLD-実線
 62
     7
370
    18
100
AcDbDimension
  2
_D_1
 10
65.3949461062
 20
167.4672262037
 30
0.0
 11
65.3949461062
 21
142.4672262037
 31
0.0
 70
   160
  1
%%c<>
 71
     2
 42
-1.0
  3
SLDDIMSTYLE0
100
AcDbAlignedDimension
 13
87.3949461062
 23
117.4672262037
 33
0.0
 14
87.3949461062
 24
167.4672262037
 34
0.0
 50
90.0
100
AcDbRotatedDimension
  0
DIMENSION
  5
167
330
1F
100
AcDbEntity
  8
0
  6
SLD-実線
 62
     7
370
    18
100
AcDbDimension
  2
_D_2
 10
133.3949461062
 20
180.0455397526
 30
0.0
 11
110.3949461062
 21
180.0455397526
 31
0.0
 70
   160
  1
<>
 71
     2
 42
-1.0
  3
SLDDIMSTYLE0
100
AcDbAlignedDimension
 13
87.3949461062
 23
167.4672262037
 33
0.0
 14
133.3949461062
 24
160.9672262037
 34
0.0
 50
0.0
100
AcDbRotatedDimension
  0
DIMENSION
  5
171
330
1F
100
AcDbEntity
  8
0
  6
SLD-実線
 62
     7
370
    18
100
AcDbDimension
  2
_D_3
 10
143.3949461062
 20
161.9672262037
 30
0.0
 11
143.3949461062
 21
142.4672262037
 31
0.0
 70
   160
  1
%%c<>
 71
     2
 42
-1.0
  3
SLDDIMSTYLE0
100
AcDbAlignedDimension
 13
132.3949461062
 23
122.9672262037
 33
0.0
 14
132.3949461062
 24
161.9672262037
 34
0.0
 50
90.0
100
AcDbRotatedDimension
  0
ENDSEC
  0
SECTION
  2
OBJECTS
  0
DICTIONARY
  5
C
330
0
100
AcDbDictionary
281
     1
  3
ACAD_GROUP
350
D
  3
ACAD_LAYOUT
350
1A
  3
ACAD_MLINESTYLE
350
17
  3
ACAD_PLOTSETTINGS
350
19
  3
ACAD_PLOTSTYLENAME
350
E
  3
ACAD_SCALELIST
350
47
  0
DICTIONARY
  5
D
102
{ACAD_REACTORS
330
C
102
}
330
C
100
AcDbDictionary
281
     1
  0
DICTIONARY
  5
1A
102
{ACAD_REACTORS
330
C
102
}
330
C
100
AcDbDictionary
281
     1
  3
Layout1
350
1E
  3
Layout2
350
26
  3
Model
350
22
  0
DICTIONARY
  5
17
102
{ACAD_REACTORS
330
C
102
}
330
C
100
AcDbDictionary
281
     1
  3
Standard
350
18
  0
DICTIONARY
  5
19
102
{ACAD_REACTORS
330
C
102
}
330
C
100
AcDbDictionary
281
     1
  0
ACDBDICTIONARYWDFLT
  5
E
102
{ACAD_REACTORS
330
C
102
}
330
C
100
AcDbDictionary
281
     1
  3
Normal
350
F
100
AcDbDictionaryWithDefault
340
F
  0
DICTIONARY
  5
47
102
{ACAD_REACTORS
330
C
102
}
330
C
100
AcDbDictionary
281
     1
  3
A0
350
48
  3
A1
350
49
  3
A2
350
4A
  3
A3
350
4B
  3
A4
350
4C
  3
A5
350
4D
  3
A6
350
4E
  3
A7
350
4F
  3
A8
350
50
  3
A9
350
51
  3
B0
350
52
  3
B1
350
53
  3
B2
350
54
  3
B3
350
55
  3
B4
350
56
  3
B5
350
57
  3
B6
350
58
  3
B7
350
59
  3
B8
350
5A
  3
B9
350
5B
  3
C0
350
5C
  3
C1
350
5D
  3
C2
350
5E
  3
C3
350
5F
  3
C4
350
60
  3
C5
350
61
  3
C6
350
62
  3
C7
350
63
  3
C8
350
64
  3
C9
350
65
  3
D0
350
66
  3
D1
350
67
  3
D2
350
68
  0
LAYOUT
  5
1E
102
{ACAD_REACTORS
330
1A
102
}
330
1A
100
AcDbPlotSettings
  1

  2
none_device
  4

  6

 40
0.0
 41
0.0
 42
0.0
 43
0.0
 44
0.0
 45
0.0
 46
0.0
 47
0.0
 48
0.0
 49
0.0
140
0.0
141
0.0
142
1.0
143
1.0
 70
   688
 72
     1
 73
     0
 74
     5
  7

 75
    16
147
1.0
148
0.0
149
0.0
100
AcDbLayout
  1
Layout1
 70
     1
 71
     1
 10
0.0
 20
0.0
 11
420.0
 21
297.0
 12
0.0
 22
0.0
 32
0.0
 14
1.0000000000E+20
 24
1.0000000000E+20
 34
1.0000000000E+20
 15
-1.0000000000E+20
 25
-1.0000000000E+20
 35
-1.0000000000E+20
146
0.0
 13
0.0
 23
0.0
 33
0.0
 16
1.0
 26
0.0
 36
0.0
 17
0.0
 27
1.0
 37
0.0
 76
     0
330
1B
  0
LAYOUT
  5
26
102
{ACAD_REACTORS
330
1A
102
}
330
1A
100
AcDbPlotSettings
  1

  2
none_device
  4

  6

 40
0.0
 41
0.0
 42
0.0
 43
0.0
 44
0.0
 45
0.0
 46
0.0
 47
0.0
 48
0.0
 49
0.0
140
0.0
141
0.0
142
1.0
143
1.0
 70
   688
 72
     1
 73
     0
 74
     5
  7

 75
    16
147
1.0
148
0.0
149
0.0
100
AcDbLayout
  1
Layout2
 70
     1
 71
     2
 10
0.0
 20
0.0
 11
0.0
 21
0.0
 12
0.0
 22
0.0
 32
0.0
 14
0.0
 24
0.0
 34
0.0
 15
0.0
 25
0.0
 35
0.0
146
0.0
 13
0.0
 23
0.0
 33
0.0
 16
1.0
 26
0.0
 36
0.0
 17
0.0
 27
1.0
 37
0.0
 76
     0
330
23
  0
LAYOUT
  5
22
102
{ACAD_REACTORS
330
1A
102
}
330
1A
100
AcDbPlotSettings
  1

  2
none_device
  4
Letter_(8.50_x_11.00_Inches)
  6

 40
6.35
 41
6.35
 42
6.35000508
 43
6.35000508
 44
215.9
 45
279.4
 46
0.0
 47
0.0
 48
0.0
 49
0.0
140
0.0
141
0.0
142
1.0
143
1.0
 70
  1712
 72
     1
 73
     0
 74
     0
  7

 75
     0
147
1.0
148
0.0
149
0.0
100
AcDbLayout
  1
Model
 70
     1
 71
     0
 10
0.0
 20
0.0
 11
210.0
 21
297.0
 12
0.0
 22
0.0
 32
0.0
 14
0.0
 24
0.0
 34
0.0
 15
210.0
 25
297.0
 35
0.0
146
0.0
 13
0.0
 23
0.0
 33
0.0
 16
1.0
 26
0.0
 36
0.0
 17
0.0
 27
1.0
 37
0.0
 76
     0
330
1F
331
29
  0
MLINESTYLE
  5
18
102
{ACAD_REACTORS
330
17
102
}
330
17
100
AcDbMlineStyle
  2
Standard
 70
     0
  3

 62
   256
 51
90.0
 52
90.0
 71
     2
 49
0.5
 62
   256
  6
BYLAYER
 49
-0.5
 62
   256
  6
BYLAYER
  0
ACDBPLACEHOLDER
  5
F
102
{ACAD_REACTORS
330
E
102
}
330
E
  0
SCALE
  5
48
102
{ACAD_REACTORS
330
47
102
}
330
47
100
AcDbScale
 70
     0
300
1:1
140
1.0
141
1.0
290
     1
  0
SCALE
  5
49
102
{ACAD_REACTORS
330
47
102
}
330
47
100
AcDbScale
 70
     0
300
1:2
140
1.0
141
2.0
290
     0
  0
SCALE
  5
4A
102
{ACAD_REACTORS
330
47
102
}
330
47
100
AcDbScale
 70
     0
300
1:4
140
1.0
141
4.0
290
     0
  0
SCALE
  5
4B
102
{ACAD_REACTORS
330
47
102
}
330
47
100
AcDbScale
 70
     0
300
1:5
140
1.0
141
5.0
290
     0
  0
SCALE
  5
4C
102
{ACAD_REACTORS
330
47
102
}
330
47
100
AcDbScale
 70
     0
300
1:8
140
1.0
141
8.0
290
     0
  0
SCALE
  5
4D
102
{ACAD_REACTORS
330
47
102
}
330
47
100
AcDbScale
 70
     0
300
1:10
140
1.0
141
10.0
290
     0
  0
SCALE
  5
4E
102
{ACAD_REACTORS
330
47
102
}
330
47
100
AcDbScale
 70
     0
300
1:16
140
1.0
141
16.0
290
     0
  0
SCALE
  5
4F
102
{ACAD_REACTORS
330
47
102
}
330
47
100
AcDbScale
 70
     0
300
1:20
140
1.0
141
20.0
290
     0
  0
SCALE
  5
50
102
{ACAD_REACTORS
330
47
102
}
330
47
100
AcDbScale
 70
     0
300
1:30
140
1.0
141
30.0
290
     0
  0
SCALE
  5
51
102
{ACAD_REACTORS
330
47
102
}
330
47
100
AcDbScale
 70
     0
300
1:40
140
1.0
141
40.0
290
     0
  0
SCALE
  5
52
102
{ACAD_REACTORS
330
47
102
}
330
47
100
AcDbScale
 70
     0
300
1:50
140
1.0
141
50.0
290
     0
  0
SCALE
  5
53
102
{ACAD_REACTORS
330
47
102
}
330
47
100
AcDbScale
 70
     0
300
1:100
140
1.0
141
100.0
290
     0
  0
SCALE
  5
54
102
{ACAD_REACTORS
330
47
102
}
330
47
100
AcDbScale
 70
     0
300
2:1
140
2.0
141
1.0
290
     0
  0
SCALE
  5
55
102
{ACAD_REACTORS
330
47
102
}
330
47
100
AcDbScale
 70
     0
300
4:1
140
4.0
141
1.0
290
     0
  0
SCALE
  5
56
102
{ACAD_REACTORS
330
47
102
}
330
47
100
AcDbScale
 70
     0
300
8:1
140
8.0
141
1.0
290
     0
  0
SCALE
  5
57
102
{ACAD_REACTORS
330
47
102
}
330
47
100
AcDbScale
 70
     0
300
10:1
140
10.0
141
1.0
290
     0
  0
SCALE
  5
58
102
{ACAD_REACTORS
330
47
102
}
330
47
100
AcDbScale
 70
     0
300
100:1
140
100.0
141
1.0
290
     0
  0
SCALE
  5
59
102
{ACAD_REACTORS
330
47
102
}
330
47
100
AcDbScale
 70
     0
300
1/128" = 1'-0"
140
0.0078125
141
12.0
290
     0
  0
SCALE
  5
5A
102
{ACAD_REACTORS
330
47
102
}
330
47
100
AcDbScale
 70
     0
300
1/64" = 1'-0"
140
0.015625
141
12.0
290
     0
  0
SCALE
  5
5B
102
{ACAD_REACTORS
330
47
102
}
330
47
100
AcDbScale
 70
     0
300
1/32" = 1'-0"
140
0.03125
141
12.0
290
     0
  0
SCALE
  5
5C
102
{ACAD_REACTORS
330
47
102
}
330
47
100
AcDbScale
 70
     0
300
1/16" = 1'-0"
140
0.0625
141
12.0
290
     0
  0
SCALE
  5
5D
102
{ACAD_REACTORS
330
47
102
}
330
47
100
AcDbScale
 70
     0
300
3/32" = 1'-0"
140
0.09375
141
12.0
290
     0
  0
SCALE
  5
5E
102
{ACAD_REACTORS
330
47
102
}
330
47
100
AcDbScale
 70
     0
300
1/8" = 1'-0"
140
0.125
141
12.0
290
     0
  0
SCALE
  5
5F
102
{ACAD_REACTORS
330
47
102
}
330
47
100
AcDbScale
 70
     0
300
3/16" = 1'-0"
140
0.1875
141
12.0
290
     0
  0
SCALE
  5
60
102
{ACAD_REACTORS
330
47
102
}
330
47
100
AcDbScale
 70
     0
300
1/4" = 1'-0"
140
0.25
141
12.0
290
     0
  0
SCALE
  5
61
102
{ACAD_REACTORS
330
47
102
}
330
47
100
AcDbScale
 70
     0
300
3/8" = 1'-0"
140
0.375
141
12.0
290
     0
  0
SCALE
  5
62
102
{ACAD_REACTORS
330
47
102
}
330
47
100
AcDbScale
 70
     0
300
1/2" = 1'-0"
140
0.5
141
12.0
290
     0
  0
SCALE
  5
63
102
{ACAD_REACTORS
330
47
102
}
330
47
100
AcDbScale
 70
     0
300
3/4" = 1'-0"
140
0.75
141
12.0
290
     0
  0
SCALE
  5
64
102
{ACAD_REACTORS
330
47
102
}
330
47
100
AcDbScale
 70
     0
300
1" = 1'-0"
140
1.0
141
12.0
290
     0
  0
SCALE
  5
65
102
{ACAD_REACTORS
330
47
102
}
330
47
100
AcDbScale
 70
     0
300
1-1/2" = 1'-0"
140
1.5
141
12.0
290
     0
  0
SCALE
  5
66
102
{ACAD_REACTORS
330
47
102
}
330
47
100
AcDbScale
 70
     0
300
3" = 1'-0"
140
3.0
141
12.0
290
     0
  0
SCALE
  5
67
102
{ACAD_REACTORS
330
47
102
}
330
47
100
AcDbScale
 70
     0
300
6" = 1'-0"
140
6.0
141
12.0
290
     0
  0
SCALE
  5
68
102
{ACAD_REACTORS
330
47
102
}
330
47
100
AcDbScale
 70
     0
300
1'-0" = 1'-0"
140
12.0
141
12.0
290
     0
  0
ENDSEC
  0
EOF
