  0
SECTION
  2
HEADER
  9
$ACADVER
  1
AC1015
  9
$ACADMAINTVER
 70
     6
  9
$DWGCODEPAGE
  3
DOS932
  9
$INSBASE
 10
0.0
 20
0.0
 30
0.0
  9
$EXTMIN
 10
0.0
 20
0.0
 30
0.0
  9
$EXTMAX
 10
210.0
 20
297.0
 30
0.0
  9
$LIMMIN
 10
0.0
 20
0.0
  9
$LIMMAX
 10
0.0
 20
0.0
  9
$ORTHOMODE
 70
     0
  9
$REGENMODE
 70
     1
  9
$FILLMODE
 70
     1
  9
$QTEXTMODE
 70
     0
  9
$MIRRTEXT
 70
     1
  9
$LTSCALE
 40
1.0
  9
$ATTMODE
 70
     1
  9
$TEXTSIZE
 40
3.5
  9
$TRACEWID
 40
1.0
  9
$TEXTSTYLE
  7
Standard
  9
$CLAYER
  8
0
  9
$CELTYPE
  6
ByLayer
  9
$CECOLOR
 62
   256
  9
$CELTSCALE
 40
1.0
  9
$DISPSILH
 70
     0
  9
$DIMSCALE
 40
1.0
  9
$DIMASZ
 40
3.0
  9
$DIMEXO
 40
1.0
  9
$DIMDLI
 40
3.75
  9
$DIMRND
 40
0.0
  9
$DIMDLE
 40
0.0
  9
$DIMEXE
 40
1.0
  9
$DIMTP
 40
0.0
  9
$DIMTM
 40
0.0
  9
$DIMTXT
 40
3.5
  9
$DIMCEN
 40
2.5
  9
$DIMTSZ
 40
0.0
  9
$DIMTOL
 70
     0
  9
$DIMLIM
 70
     0
  9
$DIMTIH
 70
     1
  9
$DIMTOH
 70
     1
  9
$DIMSE1
 70
     0
  9
$DIMSE2
 70
     0
  9
$DIMTAD
 70
     1
  9
$DIMZIN
 70
     0
  9
$DIMBLK
  1

  9
$DIMASO
 70
     1
  9
$DIMSHO
 70
     1
  9
$DIMPOST
  1

  9
$DIMAPOST
  1

  9
$DIMALT
 70
     0
  9
$DIMALTD
 70
     3
  9
$DIMALTF
 40
0.0393700787
  9
$DIMLFAC
 40
1.0
  9
$DIMTOFL
 70
     1
  9
$DIMTVP
 40
0.0
  9
$DIMTIX
 70
     0
  9
$DIMSOXD
 70
     0
  9
$DIMSAH
 70
     0
  9
$DIMBLK1
  1

  9
$DIMBLK2
  1

  9
$DIMSTYLE
  2
ISO-25
  9
$DIMCLRD
 70
     0
  9
$DIMCLRE
 70
     0
  9
$DIMCLRT
 70
     0
  9
$DIMTFAC
 40
1.0
  9
$DIMGAP
 40
1.524
  9
$DIMJUST
 70
     0
  9
$DIMSD1
 70
     0
  9
$DIMSD2
 70
     0
  9
$DIMTOLJ
 70
     0
  9
$DIMTZIN
 70
     0
  9
$DIMALTZ
 70
     0
  9
$DIMALTTZ
 70
     0
  9
$DIMUPT
 70
     0
  9
$DIMDEC
 70
     2
  9
$DIMTDEC
 70
     2
  9
$DIMALTU
 70
     2
  9
$DIMALTTD
 70
     3
  9
$DIMTXSTY
  7
Standard
  9
$DIMAUNIT
 70
     0
  9
$DIMADEC
 70
     0
  9
$DIMALTRND
 40
0.0
  9
$DIMAZIN
 70
     0
  9
$DIMDSEP
 70
    44
  9
$DIMATFIT
 70
     3
  9
$DIMFRAC
 70
     0
  9
$DIMLDRBLK
  1

  9
$DIMLUNIT
 70
     2
  9
$DIMLWD
 70
    -2
  9
$DIMLWE
 70
    -2
  9
$DIMTMOVE
 70
     0
  9
$LUNITS
 70
     2
  9
$LUPREC
 70
     1
  9
$SKETCHINC
 40
1.0
  9
$FILLETRAD
 40
10.0
  9
$AUNITS
 70
     0
  9
$AUPREC
 70
     0
  9
$MENU
  1
.
  9
$ELEVATION
 40
0.0
  9
$PELEVATION
 40
0.0
  9
$THICKNESS
 40
0.0
  9
$LIMCHECK
 70
     0
  9
$CHAMFERA
 40
10.0
  9
$CHAMFERB
 40
10.0
  9
$CHAMFERC
 40
20.0
  9
$CHAMFERD
 40
0.0
  9
$SKPOLY
 70
     0
  9
$TDCREATE
 40
2454418.781430475
  9
$TDUCREATE
 40
2454418.406430475
  9
$TDUPDATE
 40
2454418.781430486
  9
$TDUUPDATE
 40
2454418.406430486
  9
$TDINDWG
 40
0.0000000116
  9
$TDUSRTIMER
 40
0.0000000116
  9
$USRTIMER
 70
     1
  9
$ANGBASE
 50
0.0
  9
$ANGDIR
 70
     0
  9
$PDMODE
 70
     0
  9
$PDSIZE
 40
-1.0
  9
$PLINEWID
 40
0.0
  9
$SPLFRAME
 70
     0
  9
$SPLINETYPE
 70
     6
  9
$SPLINESEGS
 70
     8
  9
$HANDSEED
  5
324
  9
$SURFTAB1
 70
     6
  9
$SURFTAB2
 70
     6
  9
$SURFTYPE
 70
     6
  9
$SURFU
 70
     6
  9
$SURFV
 70
     6
  9
$UCSBASE
  2

  9
$UCSNAME
  2

  9
$UCSORG
 10
0.0
 20
0.0
 30
0.0
  9
$UCSXDIR
 10
1.0
 20
0.0
 30
0.0
  9
$UCSYDIR
 10
0.0
 20
1.0
 30
0.0
  9
$UCSORTHOREF
  2

  9
$UCSORTHOVIEW
 70
     0
  9
$UCSORGTOP
 10
0.0
 20
0.0
 30
0.0
  9
$UCSORGBOTTOM
 10
0.0
 20
0.0
 30
0.0
  9
$UCSORGLEFT
 10
0.0
 20
0.0
 30
0.0
  9
$UCSORGRIGHT
 10
0.0
 20
0.0
 30
0.0
  9
$UCSORGFRONT
 10
0.0
 20
0.0
 30
0.0
  9
$UCSORGBACK
 10
0.0
 20
0.0
 30
0.0
  9
$PUCSBASE
  2

  9
$PUCSNAME
  2

  9
$PUCSORG
 10
0.0
 20
0.0
 30
0.0
  9
$PUCSXDIR
 10
1.0
 20
0.0
 30
0.0
  9
$PUCSYDIR
 10
0.0
 20
1.0
 30
0.0
  9
$PUCSORTHOREF
  2

  9
$PUCSORTHOVIEW
 70
     0
  9
$PUCSORGTOP
 10
0.0
 20
0.0
 30
0.0
  9
$PUCSORGBOTTOM
 10
0.0
 20
0.0
 30
0.0
  9
$PUCSORGLEFT
 10
0.0
 20
0.0
 30
0.0
  9
$PUCSORGRIGHT
 10
0.0
 20
0.0
 30
0.0
  9
$PUCSORGFRONT
 10
0.0
 20
0.0
 30
0.0
  9
$PUCSORGBACK
 10
0.0
 20
0.0
 30
0.0
  9
$USERI1
 70
     0
  9
$USERI2
 70
     0
  9
$USERI3
 70
     0
  9
$USERI4
 70
     0
  9
$USERI5
 70
     0
  9
$USERR1
 40
0.0
  9
$USERR2
 40
0.0
  9
$USERR3
 40
0.0
  9
$USERR4
 40
0.0
  9
$USERR5
 40
0.0
  9
$WORLDVIEW
 70
     1
  9
$SHADEDGE
 70
     3
  9
$SHADEDIF
 70
    70
  9
$TILEMODE
 70
     1
  9
$MAXACTVP
 70
    64
  9
$PINSBASE
 10
0.0
 20
0.0
 30
0.0
  9
$PLIMCHECK
 70
     0
  9
$PEXTMIN
 10
1.0000000000E+20
 20
1.0000000000E+20
 30
1.0000000000E+20
  9
$PEXTMAX
 10
-1.0000000000E+20
 20
-1.0000000000E+20
 30
-1.0000000000E+20
  9
$PLIMMIN
 10
0.0
 20
0.0
  9
$PLIMMAX
 10
420.0
 20
297.0
  9
$UNITMODE
 70
     0
  9
$VISRETAIN
 70
     1
  9
$PLINEGEN
 70
     0
  9
$PSLTSCALE
 70
     1
  9
$TREEDEPTH
 70
  3020
  9
$CMLSTYLE
  2
Standard
  9
$CMLJUST
 70
     0
  9
$CMLSCALE
 40
20.0
  9
$PROXYGRAPHICS
 70
     1
  9
$MEASUREMENT
 70
     1
  9
$CELWEIGHT
370
    -1
  9
$ENDCAPS
280
     0
  9
$JOINSTYLE
280
     0
  9
$LWDISPLAY
290
     1
  9
$INSUNITS
 70
     4
  9
$HYPERLINKBASE
  1

  9
$STYLESHEET
  1

  9
$XEDIT
290
     1
  9
$CEPSNTYPE
380
     0
  9
$PSTYLEMODE
290
     1
  9
$FINGERPRINTGUID
  2
{8A95D6D1-2541-4924-AC15-03A89A008F2C}
  9
$VERSIONGUID
  2
{FAEB1C32-E019-11D5-929B-00C0DF256EC4}
  9
$EXTNAMES
290
     1
  9
$PSVPSCALE
 40
0.0
  9
$OLESTARTUP
290
     0
  0
ENDSEC
  0
SECTION
  2
CLASSES
  0
CLASS
  1
ACDBDICTIONARYWDFLT
  2
AcDbDictionaryWithDefault
  3
ObjectDBX Classes
 90
        0
280
     0
281
     0
  0
CLASS
  1
ACDBPLACEHOLDER
  2
AcDbPlaceHolder
  3
ObjectDBX Classes
 90
        0
280
     0
281
     0
  0
CLASS
  1
LAYOUT
  2
AcDbLayout
  3
ObjectDBX Classes
 90
        0
280
     0
281
     0
  0
ENDSEC
  0
SECTION
  2
TABLES
  0
TABLE
  2
VPORT
  5
8
330
0
100
AcDbSymbolTable
 70
     1
  0
VPORT
  5
29
330
8
100
AcDbSymbolTableRecord
100
AcDbViewportTableRecord
  2
*Active
 70
     0
 10
0.0
 20
0.0
 11
1.0
 21
1.0
 12
105.0
 22
148.5
 13
0.0
 23
0.0
 14
10.0
 24
10.0
 15
10.0
 25
10.0
 16
0.0
 26
0.0
 36
1.0
 17
0.0
 27
0.0
 37
0.0
 40
297.0
 41
1.9729729729
 42
50.0
 43
0.0
 44
0.0
 50
0.0
 51
0.0
 71
     0
 72
  2000
 73
     1
 74
     3
 75
     0
 76
     0
 77
     0
 78
     0
281
     0
 65
     1
110
0.0
120
0.0
130
0.0
111
1.0
121
0.0
131
0.0
112
0.0
122
1.0
132
0.0
 79
     0
146
0.0
  0
ENDTAB
  0
TABLE
  2
LTYPE
  5
5
330
0
100
AcDbSymbolTable
 70
     6
  0
LTYPE
  5
14
330
5
100
AcDbSymbolTableRecord
100
AcDbLinetypeTableRecord
  2
ByBlock
 70
     0
  3

 72
    65
 73
     0
 40
0.0
  0
LTYPE
  5
15
330
5
100
AcDbSymbolTableRecord
100
AcDbLinetypeTableRecord
  2
ByLayer
 70
     0
  3

 72
    65
 73
     0
 40
0.0
  0
LTYPE
  5
16
330
5
100
AcDbSymbolTableRecord
100
AcDbLinetypeTableRecord
  2
Continuous
 70
     0
  3
Solid line
 72
    65
 73
     0
 40
0.0
  0
LTYPE
  5
2A
330
5
100
AcDbSymbolTableRecord
100
AcDbLinetypeTableRecord
  2
HIDDEN
 70
     0
  3
Hidden __ __ __ __ __ __ __ __ __ __ __ __ __ __
 72
    65
 73
     2
 40
1.905
 49
1.27
 74
     0
 49
-0.635
 74
     0
  0
LTYPE
  5
2B
330
5
100
AcDbSymbolTableRecord
100
AcDbLinetypeTableRecord
  2
PHANTOM
 70
     0
  3
Phantom ______  __  __  ______  __  __  ______
 72
    65
 73
     6
 40
12.7
 49
6.35
 74
     0
 49
-1.27
 74
     0
 49
1.27
 74
     0
 49
-1.27
 74
     0
 49
1.27
 74
     0
 49
-1.27
 74
     0
  0
LTYPE
  5
2C
330
5
100
AcDbSymbolTableRecord
100
AcDbLinetypeTableRecord
  2
CENTER
 70
     0
  3
Center ____ _ ____ _ ____ _ ____ _ ____ _ ____
 72
    65
 73
     4
 40
10.16
 49
6.35
 74
     0
 49
-1.27
 74
     0
 49
1.27
 74
     0
 49
-1.27
 74
     0
  0
LTYPE
  5
2D
330
5
100
AcDbSymbolTableRecord
100
AcDbLinetypeTableRecord
  2
CENTERX2
 70
     0
  3
Center (2x) ________  __  ________  __  _____
 72
    65
 73
     4
 40
20.32
 49
12.7
 74
     0
 49
-2.54
 74
     0
 49
2.54
 74
     0
 49
-2.54
 74
     0
  0
LTYPE
  5
2E
330
5
100
AcDbSymbolTableRecord
100
AcDbLinetypeTableRecord
  2
DOT2
 70
     0
  3
Dot (.5x) ........................................
 72
    65
 73
     2
 40
0.635
 49
0.0
 74
     0
 49
-0.635
 74
     0
  0
ENDTAB
  0
TABLE
  2
LAYER
  5
2
330
0
100
AcDbSymbolTable
 70
     2
  0
LAYER
  5
10
330
2
100
AcDbSymbolTableRecord
100
AcDbLayerTableRecord
  2
0
 70
     0
 62
     7
  6
Continuous
370
    -3
390
F
  0
LAYER
  5
128
330
2
100
AcDbSymbolTableRecord
100
AcDbLayerTableRecord
  2
Defpoints
 70
     0
 62
     7
  6
Continuous
290
     0
370
    -3
390
F
  0
ENDTAB
  0
TABLE
  2
STYLE
  5
3
330
0
100
AcDbSymbolTable
 70
     2
  0
STYLE
  5
11
330
3
100
AcDbSymbolTableRecord
100
AcDbTextStyleTableRecord
  2
Standard
 70
     0
 40
0.0
 41
1.0
 50
0.0
 71
     0
 42
2.5
  3
txt
  4
bigfont
  0
STYLE
  5
37
330
3
100
AcDbSymbolTableRecord
100
AcDbTextStyleTableRecord
  2
SLDTEXTSTYLE0
 70
     0
 40
0.0
 41
0.7
 50
0.0
 71
     0
 42
0.2
  3
TXT
  4
bigfont
  0
ENDTAB
  0
TABLE
  2
VIEW
  5
6
330
0
100
AcDbSymbolTable
 70
     0
  0
ENDTAB
  0
TABLE
  2
UCS
  5
7
330
0
100
AcDbSymbolTable
 70
     0
  0
ENDTAB
  0
TABLE
  2
APPID
  5
9
330
0
100
AcDbSymbolTable
 70
     1
  0
APPID
  5
12
330
9
100
AcDbSymbolTableRecord
100
AcDbRegAppTableRecord
  2
ACAD
 70
     0
  0
ENDTAB
  0
TABLE
  2
DIMSTYLE
  5
A
330
0
100
AcDbSymbolTable
 70
     3
100
AcDbDimStyleTable
  0
DIMSTYLE
105
27
330
A
100
AcDbSymbolTableRecord
100
AcDbDimStyleTableRecord
  2
ISO-25
 70
     0
 41
2.5
 42
0.625
 43
3.75
 44
1.25
 73
     0
 74
     0
 77
     1
 78
     8
140
2.5
141
2.5
143
0.0393700787
147
0.625
171
     3
172
     1
271
     2
272
     2
274
     3
278
    44
283
     0
284
     8
340
11
  0
DIMSTYLE
105
136
102
{ACAD_REACTORS
330
127
330
143
330
157
330
16B
330
23A
330
24D
330
2CE
330
2E2
330
2F5
330
30C
102
}
330
A
100
AcDbSymbolTableRecord
100
AcDbDimStyleTableRecord
  2
SLDDIMSTYLE0
 70
     0
 41
3.0
 44
0.0
 73
     0
 74
     0
 77
     3
 78
    12
140
3.5
147
0.875
173
     1
271
     1
272
     3
284
    12
340
37
341
137
343
137
344
137
  0
DIMSTYLE
105
322
330
A
100
AcDbSymbolTableRecord
100
AcDbDimStyleTableRecord
  2
SLDDIMSTYLE1
 70
     0
 41
3.0
 44
0.0
140
3.0
147
0.75
173
     1
271
     0
272
     0
340
11
341
137
343
137
344
137
  0
ENDTAB
  0
TABLE
  2
BLOCK_RECORD
  5
1
330
0
100
AcDbSymbolTable
 70
    15
  0
BLOCK_RECORD
  5
1F
330
1
100
AcDbSymbolTableRecord
100
AcDbBlockTableRecord
  2
*Model_Space
340
22
  0
BLOCK_RECORD
  5
1B
330
1
100
AcDbSymbolTableRecord
100
AcDbBlockTableRecord
  2
*Paper_Space
340
1E
  0
BLOCK_RECORD
  5
23
330
1
100
AcDbSymbolTableRecord
100
AcDbBlockTableRecord
  2
*Paper_Space0
340
26
  0
BLOCK_RECORD
  5
39
330
1
100
AcDbSymbolTableRecord
100
AcDbBlockTableRecord
  2
SW_NOTE_0
340
0
102
{BLKREFS
331
3E
102
}
  0
BLOCK_RECORD
  5
129
330
1
100
AcDbSymbolTableRecord
100
AcDbBlockTableRecord
  2
*D2
340
0
  0
BLOCK_RECORD
  5
137
330
1
100
AcDbSymbolTableRecord
100
AcDbBlockTableRecord
  2
_Open30
340
0
102
{BLKREFS
331
12E
331
12D
331
13D
331
13E
331
149
331
148
331
151
331
152
331
15D
331
15C
331
165
331
166
331
173
331
172
331
17A
331
17B
331
240
331
23F
331
247
331
248
331
255
331
254
331
25C
331
25D
331
2D4
331
2D3
331
2DC
331
2DD
331
2E8
331
2E7
331
2EF
331
2F0
331
2FD
331
2FC
331
304
331
305
331
312
331
311
331
319
331
31A
102
}
  0
BLOCK_RECORD
  5
144
330
1
100
AcDbSymbolTableRecord
100
AcDbBlockTableRecord
  2
*D4
340
0
  0
BLOCK_RECORD
  5
158
330
1
100
AcDbSymbolTableRecord
100
AcDbBlockTableRecord
  2
*D5
340
0
  0
BLOCK_RECORD
  5
16C
330
1
100
AcDbSymbolTableRecord
100
AcDbBlockTableRecord
  2
*D6
340
0
  0
BLOCK_RECORD
  5
23B
330
1
100
AcDbSymbolTableRecord
100
AcDbBlockTableRecord
  2
*D7
340
0
  0
BLOCK_RECORD
  5
24E
330
1
100
AcDbSymbolTableRecord
100
AcDbBlockTableRecord
  2
*D8
340
0
  0
BLOCK_RECORD
  5
264
330
1
100
AcDbSymbolTableRecord
100
AcDbBlockTableRecord
  2
SW_CENTERMARKSYMBOL_0
340
0
102
{BLKREFS
331
26F
102
}
  0
BLOCK_RECORD
  5
270
330
1
100
AcDbSymbolTableRecord
100
AcDbBlockTableRecord
  2
SW_CENTERMARKSYMBOL_1
340
0
102
{BLKREFS
331
27B
102
}
  0
BLOCK_RECORD
  5
2CF
330
1
100
AcDbSymbolTableRecord
100
AcDbBlockTableRecord
  2
*D11
340
0
  0
BLOCK_RECORD
  5
2E3
330
1
100
AcDbSymbolTableRecord
100
AcDbBlockTableRecord
  2
*D12
340
0
  0
BLOCK_RECORD
  5
2F6
330
1
100
AcDbSymbolTableRecord
100
AcDbBlockTableRecord
  2
*D13
340
0
  0
BLOCK_RECORD
  5
30D
330
1
100
AcDbSymbolTableRecord
100
AcDbBlockTableRecord
  2
*D14
340
0
  0
ENDTAB
  0
ENDSEC
  0
SECTION
  2
BLOCKS
  0
BLOCK
  5
20
330
1F
100
AcDbEntity
  8
0
100
AcDbBlockBegin
  2
*Model_Space
 70
     0
 71
     0
 10
0.0
 20
0.0
 30
0.0
  3
*Model_Space
  1

  0
ENDBLK
  5
21
330
1F
100
AcDbEntity
  8
0
100
AcDbBlockEnd
  0
BLOCK
  5
1C
330
1B
100
AcDbEntity
 67
     1
  8
0
100
AcDbBlockBegin
  2
*Paper_Space
 70
     0
 71
     0
 10
0.0
 20
0.0
 30
0.0
  3
*Paper_Space
  1

  0
ENDBLK
  5
1D
330
1B
100
AcDbEntity
 67
     1
  8
0
100
AcDbBlockEnd
  0
BLOCK
  5
24
330
23
100
AcDbEntity
  8
0
100
AcDbBlockBegin
  2
*Paper_Space0
 70
     0
 71
     0
 10
0.0
 20
0.0
 30
0.0
  3
*Paper_Space0
  1

  0
ENDBLK
  5
25
330
23
100
AcDbEntity
  8
0
100
AcDbBlockEnd
  0
BLOCK
  5
3A
330
39
100
AcDbEntity
  8
0
100
AcDbBlockBegin
  2
SW_NOTE_0
 70
     0
 71
     0
 10
0.0
 20
0.0
 30
0.0
  3
SW_NOTE_0
  1

  0
MTEXT
  5
3C
330
39
100
AcDbEntity
  8
0
  6
Continuous
 62
     7
370
     0
100
AcDbMText
 10
0.0
 20
4.9260606061
 30
0.0
 40
4.2333333333
 41
0.0
 71
     1
 72
     1
  1
GT-NTシリーズ
  7
SLDTEXTSTYLE0
 73
     1
 44
1.0
  0
MTEXT
  5
3D
330
39
100
AcDbEntity
  8
0
  6
Continuous
 62
     7
370
     0
100
AcDbMText
 10
-6.7062098533
 20
-0.7183837702
 30
0.0
 40
4.2333333333
 41
0.0
 71
     1
 72
     1
  1
(スライドタイプタテ型)
  7
SLDTEXTSTYLE0
 73
     1
 44
1.0
  0
ENDBLK
  5
3B
330
39
100
AcDbEntity
  8
0
100
AcDbBlockEnd
  0
BLOCK
  5
134
330
129
100
AcDbEntity
  8
0
100
AcDbBlockBegin
  2
*D2
 70
     1
 71
     0
 10
0.0
 20
0.0
 30
0.0
  3
*D2
  1

  0
INSERT
  5
13D
330
129
100
AcDbEntity
  8
0
  6
Continuous
 62
     7
370
     0
100
AcDbBlockReference
  2
_Open30
 10
29.2229797707
 20
190.4939304773
 30
0.1
 41
3.0
 42
3.0
 50
90.0
  0
INSERT
  5
13E
330
129
100
AcDbEntity
  8
0
  6
Continuous
 62
     7
370
     0
100
AcDbBlockReference
  2
_Open30
 10
29.2229797707
 20
119.3939304773
 30
0.1
 41
3.0
 42
3.0
 50
270.0
  0
LINE
  5
13F
330
129
100
AcDbEntity
  8
0
  6
Continuous
 62
     7
370
     0
100
AcDbLine
 10
38.9989779192
 20
190.4939304773
 30
0.0
 11
28.2229797707
 21
190.4939304773
 31
0.0
  0
LINE
  5
140
330
129
100
AcDbEntity
  8
0
  6
Continuous
 62
     7
370
     0
100
AcDbLine
 10
38.9989779192
 20
119.3939304773
 30
0.0
 11
28.2229797707
 21
119.3939304773
 31
0.0
  0
LINE
  5
141
330
129
100
AcDbEntity
  8
0
  6
Continuous
 62
     7
370
     0
100
AcDbLine
 10
29.2229797707
 20
190.4939304773
 30
0.0
 11
29.2229797707
 21
119.3939304773
 31
0.0
  0
MTEXT
  5
142
330
129
100
AcDbEntity
  8
0
  6
Continuous
 62
     7
370
     0
100
AcDbMText
 10
25.1502527309
 20
152.9076749756
 30
0.0
 40
3.5
 41
0.0
 71
     1
 72
     1
  1
71
  7
SLDTEXTSTYLE0
 11
-7.044197039909883E-15
 21
1.0
 31
0.0
 73
     1
 44
1.0
  0
ENDBLK
  5
135
330
129
100
AcDbEntity
  8
0
100
AcDbBlockEnd
  0
BLOCK
  5
138
330
137
100
AcDbEntity
  8
0
100
AcDbBlockBegin
  2
_Open30
 70
     0
 71
     0
 10
0.0
 20
0.0
 30
0.0
  3
_Open30
  1

  0
LINE
  5
13A
330
137
100
AcDbEntity
  8
0
  6
ByBlock
 62
     0
370
    -2
100
AcDbLine
 10
-1.0
 20
0.267949
 30
0.0
 11
0.0
 21
0.0
 31
0.0
  0
LINE
  5
13B
330
137
100
AcDbEntity
  8
0
  6
ByBlock
 62
     0
370
    -2
100
AcDbLine
 10
0.0
 20
0.0
 30
0.0
 11
-1.0
 21
-0.267949
 31
0.0
  0
LINE
  5
13C
330
137
100
AcDbEntity
  8
0
  6
ByBlock
 62
     0
370
    -2
100
AcDbLine
 10
0.0
 20
0.0
 30
0.0
 11
-1.0
 21
0.0
 31
0.0
  0
ENDBLK
  5
139
330
137
100
AcDbEntity
  8
0
100
AcDbBlockEnd
  0
BLOCK
  5
14F
330
144
100
AcDbEntity
  8
0
100
AcDbBlockBegin
  2
*D4
 70
     1
 71
     0
 10
0.0
 20
0.0
 30
0.0
  3
*D4
  1

  0
INSERT
  5
151
330
144
100
AcDbEntity
  8
0
  6
Continuous
 62
     7
370
     0
100
AcDbBlockReference
  2
_Open30
 10
120.8446969471
 20
164.4939304773
 30
0.1
 41
3.0
 42
3.0
 50
90.0
  0
INSERT
  5
152
330
144
100
AcDbEntity
  8
0
  6
Continuous
 62
     7
370
     0
100
AcDbBlockReference
  2
_Open30
 10
120.8446969471
 20
144.4939304773
 30
0.1
 41
3.0
 42
3.0
 50
270.0
  0
LINE
  5
153
330
144
100
AcDbEntity
  8
0
  6
Continuous
 62
     7
370
     0
100
AcDbLine
 10
86.4989779192
 20
164.4939304773
 30
0.0
 11
121.8446969471
 21
164.4939304773
 31
0.0
  0
LINE
  5
154
330
144
100
AcDbEntity
  8
0
  6
Continuous
 62
     7
370
     0
100
AcDbLine
 10
109.0989779192
 20
144.4939304773
 30
0.0
 11
121.8446969471
 21
144.4939304773
 31
0.0
  0
LINE
  5
155
330
144
100
AcDbEntity
  8
0
  6
Continuous
 62
     7
370
     0
100
AcDbLine
 10
120.8446969471
 20
164.4939304773
 30
0.0
 11
120.8446969471
 21
144.4939304773
 31
0.0
  0
MTEXT
  5
156
330
144
100
AcDbEntity
  8
0
  6
Continuous
 62
     7
370
     0
100
AcDbMText
 10
116.7719699072
 20
152.4576749756
 30
0.0
 40
3.5
 41
0.0
 71
     1
 72
     1
  1
20
  7
SLDTEXTSTYLE0
 11
-7.044197039909883E-15
 21
1.0
 31
0.0
 73
     1
 44
1.0
  0
ENDBLK
  5
150
330
144
100
AcDbEntity
  8
0
100
AcDbBlockEnd
  0
BLOCK
  5
163
330
158
100
AcDbEntity
  8
0
100
AcDbBlockBegin
  2
*D5
 70
     1
 71
     0
 10
0.0
 20
0.0
 30
0.0
  3
*D5
  1

  0
INSERT
  5
165
330
158
100
AcDbEntity
  8
0
  6
Continuous
 62
     7
370
     0
100
AcDbBlockReference
  2
_Open30
 10
120.8446969471
 20
119.3939304773
 30
0.1
 41
3.0
 42
3.0
 50
270.0
  0
INSERT
  5
166
330
158
100
AcDbEntity
  8
0
  6
Continuous
 62
     7
370
     0
100
AcDbBlockReference
  2
_Open30
 10
120.8446969471
 20
144.4939304773
 30
0.1
 41
3.0
 42
3.0
 50
90.0
  0
LINE
  5
167
330
158
100
AcDbEntity
  8
0
  6
Continuous
 62
     7
370
     0
100
AcDbLine
 10
99.9989779192
 20
119.3939304773
 30
0.0
 11
121.8446969471
 21
119.3939304773
 31
0.0
  0
LINE
  5
168
330
158
100
AcDbEntity
  8
0
  6
Continuous
 62
     7
370
     0
100
AcDbLine
 10
109.0989779192
 20
144.4939304773
 30
0.0
 11
121.8446969471
 21
144.4939304773
 31
0.0
  0
LINE
  5
169
330
158
100
AcDbEntity
  8
0
  6
Continuous
 62
     7
370
     0
100
AcDbLine
 10
120.8446969471
 20
119.3939304773
 30
0.0
 11
120.8446969471
 21
144.4939304773
 31
0.0
  0
MTEXT
  5
16A
330
158
100
AcDbEntity
  8
0
  6
Continuous
 62
     7
370
     0
100
AcDbMText
 10
116.7719699072
 20
127.8714194739
 30
0.0
 40
3.5
 41
0.0
 71
     1
 72
     1
  1
25.1
  7
SLDTEXTSTYLE0
 11
-5.123107341999111E-14
 21
1.0
 31
0.0
 73
     1
 44
1.0
  0
ENDBLK
  5
164
330
158
100
AcDbEntity
  8
0
100
AcDbBlockEnd
  0
BLOCK
  5
177
330
16C
100
AcDbEntity
  8
0
100
AcDbBlockBegin
  2
*D6
 70
     1
 71
     0
 10
0.0
 20
0.0
 30
0.0
  3
*D6
  1

  0
INSERT
  5
17A
330
16C
100
AcDbEntity
  8
0
  6
Continuous
 62
     7
370
     0
100
AcDbBlockReference
  2
_Open30
 10
37.9989779192
 20
219.3321581558
 30
0.1
 41
3.0
 42
3.0
 50
360.0
  0
INSERT
  5
17B
330
16C
100
AcDbEntity
  8
0
  6
Continuous
 62
     7
370
     0
100
AcDbBlockReference
  2
_Open30
 10
46.9989779192
 20
219.3321581558
 30
0.1
 41
3.0
 42
3.0
 50
180.0
  0
LINE
  5
17C
330
16C
100
AcDbEntity
  8
0
  6
Continuous
 62
     7
370
     0
100
AcDbLine
 10
37.9989779192
 20
195.4939304773
 30
0.0
 11
37.9989779192
 21
220.3321581558
 31
0.0
  0
LINE
  5
17D
330
16C
100
AcDbEntity
  8
0
  6
Continuous
 62
     7
370
     0
100
AcDbLine
 10
46.9989779192
 20
194.9939301696
 30
0.0
 11
46.9989779192
 21
220.3321581558
 31
0.0
  0
LINE
  5
17E
330
16C
100
AcDbEntity
  8
0
  6
Continuous
 62
     7
370
     0
100
AcDbLine
 10
37.9989779192
 20
219.3321581558
 30
0.0
 11
32.9989779192
 21
219.3321581558
 31
0.0
  0
LINE
  5
17F
330
16C
100
AcDbEntity
  8
0
  6
Continuous
 62
     7
370
     0
100
AcDbLine
 10
37.9989779192
 20
219.3321581558
 30
0.0
 11
46.9989779192
 21
219.3321581558
 31
0.0
  0
LINE
  5
180
330
16C
100
AcDbEntity
  8
0
  6
Continuous
 62
     7
370
     0
100
AcDbLine
 10
46.9989779192
 20
219.3321581558
 30
0.0
 11
51.9989779192
 21
219.3321581558
 31
0.0
  0
MTEXT
  5
181
330
16C
100
AcDbEntity
  8
0
  6
Continuous
 62
     7
370
     0
100
AcDbMText
 10
41.4818396025
 20
223.4048851957
 30
0.0
 40
3.5
 41
0.0
 71
     1
 72
     1
  1
9
  7
SLDTEXTSTYLE0
 73
     1
 44
1.0
  0
ENDBLK
  5
178
330
16C
100
AcDbEntity
  8
0
100
AcDbBlockEnd
  0
BLOCK
  5
245
330
23B
100
AcDbEntity
  8
0
100
AcDbBlockBegin
  2
*D7
 70
     1
 71
     0
 10
0.0
 20
0.0
 30
0.0
  3
*D7
  1

  0
INSERT
  5
247
330
23B
100
AcDbEntity
  8
0
  6
Continuous
 62
     7
370
     0
100
AcDbBlockReference
  2
_Open30
 10
150.6097286858
 20
107.2510342448
 30
-16.820734127
 41
3.0
 42
3.0
 50
180.0
  0
INSERT
  5
248
330
23B
100
AcDbEntity
  8
0
  6
Continuous
 62
     7
370
     0
100
AcDbBlockReference
  2
_Open30
 10
182.6097286858
 20
107.2510342448
 30
-16.820734127
 41
3.0
 42
3.0
 50
0.0
  0
LINE
  5
249
330
23B
100
AcDbEntity
  8
0
  6
Continuous
 62
     7
370
     0
100
AcDbLine
 10
150.6097286858
 20
118.3939304773
 30
0.0
 11
150.6097286858
 21
106.2510342448
 31
0.0
  0
LINE
  5
24A
330
23B
100
AcDbEntity
  8
0
  6
Continuous
 62
     7
370
     0
100
AcDbLine
 10
182.6097286858
 20
118.3939304773
 30
0.0
 11
182.6097286858
 21
106.2510342448
 31
0.0
  0
LINE
  5
24B
330
23B
100
AcDbEntity
  8
0
  6
Continuous
 62
     7
370
     0
100
AcDbLine
 10
150.6097286858
 20
107.2510342448
 30
0.0
 11
182.6097286858
 21
107.2510342448
 31
0.0
  0
MTEXT
  5
24C
330
23B
100
AcDbEntity
  8
0
  6
Continuous
 62
     7
370
     0
100
AcDbMText
 10
164.5734731841
 20
111.3237612847
 30
0.0
 40
3.5
 41
0.0
 71
     1
 72
     1
  1
32
  7
SLDTEXTSTYLE0
 73
     1
 44
1.0
  0
ENDBLK
  5
246
330
23B
100
AcDbEntity
  8
0
100
AcDbBlockEnd
  0
BLOCK
  5
259
330
24E
100
AcDbEntity
  8
0
100
AcDbBlockBegin
  2
*D8
 70
     1
 71
     0
 10
0.0
 20
0.0
 30
0.0
  3
*D8
  1

  0
INSERT
  5
25C
330
24E
100
AcDbEntity
  8
0
  6
Continuous
 62
     7
370
     0
100
AcDbBlockReference
  2
_Open30
 10
163.6097295404
 20
225.1223271615
 30
-16.820734127
 41
3.0
 42
3.0
 50
359.9999940455
  0
INSERT
  5
25D
330
24E
100
AcDbEntity
  8
0
  6
Continuous
 62
     7
370
     0
100
AcDbBlockReference
  2
_Open30
 10
169.6097303177
 20
225.122326538
 30
-16.820734127
 41
3.0
 42
3.0
 50
179.9999940455
  0
LINE
  5
25E
330
24E
100
AcDbEntity
  8
0
  6
Continuous
 62
     7
370
     0
100
AcDbLine
 10
163.6097283669
 20
213.8298047932
 30
0.0
 11
163.6097296444
 21
226.1223271615
 31
0.0
  0
LINE
  5
25F
330
24E
100
AcDbEntity
  8
0
  6
Continuous
 62
     7
370
     0
100
AcDbLine
 10
169.6097291441
 20
213.8298041696
 30
0.0
 11
169.6097304216
 21
226.122326538
 31
0.0
  0
LINE
  5
260
330
24E
100
AcDbEntity
  8
0
  6
Continuous
 62
     7
370
     0
100
AcDbLine
 10
163.6097295404
 20
225.1223271615
 30
0.0
 11
158.6097295404
 21
225.1223276812
 31
0.0
  0
LINE
  5
261
330
24E
100
AcDbEntity
  8
0
  6
Continuous
 62
     7
370
     0
100
AcDbLine
 10
163.6097295404
 20
225.1223271615
 30
0.0
 11
169.6097303177
 21
225.122326538
 31
0.0
  0
LINE
  5
262
330
24E
100
AcDbEntity
  8
0
  6
Continuous
 62
     7
370
     0
100
AcDbLine
 10
169.6097303177
 20
225.122326538
 30
0.0
 11
174.6097303177
 21
225.1223260184
 31
0.0
  0
MTEXT
  5
263
330
24E
100
AcDbEntity
  8
0
  6
Continuous
 62
     7
370
     0
100
AcDbMText
 10
165.5925920356
 20
229.1950539954
 30
0.0
 40
3.5
 41
0.0
 71
     1
 72
     1
  1
6
  7
SLDTEXTSTYLE0
 11
0.9999999999999946
 21
-1.039249595498119E-7
 31
0.0
 73
     1
 44
1.0
  0
ENDBLK
  5
25A
330
24E
100
AcDbEntity
  8
0
100
AcDbBlockEnd
  0
BLOCK
  5
265
330
264
100
AcDbEntity
  8
0
100
AcDbBlockBegin
  2
SW_CENTERMARKSYMBOL_0
 70
     0
 71
     0
 10
0.0
 20
0.0
 30
0.0
  3
SW_CENTERMARKSYMBOL_0
  1

  0
LINE
  5
267
330
264
100
AcDbEntity
  8
0
  6
Continuous
 62
     7
370
     0
100
AcDbLine
 10
0.0
 20
0.0
 30
0.0
 11
0.0
 21
2.5
 31
0.0
  0
LINE
  5
268
330
264
100
AcDbEntity
  8
0
  6
Continuous
 62
     7
370
     0
100
AcDbLine
 10
0.0
 20
0.0
 30
0.0
 11
-2.5
 21
0.0
 31
0.0
  0
LINE
  5
269
330
264
100
AcDbEntity
  8
0
  6
Continuous
 62
     7
370
     0
100
AcDbLine
 10
0.0
 20
0.0
 30
0.0
 11
0.0
 21
-2.5
 31
0.0
  0
LINE
  5
26A
330
264
100
AcDbEntity
  8
0
  6
Continuous
 62
     7
370
     0
100
AcDbLine
 10
0.0
 20
0.0
 30
0.0
 11
2.5
 21
0.0
 31
0.0
  0
LINE
  5
26B
330
264
100
AcDbEntity
  8
0
  6
Continuous
 62
     7
370
     0
100
AcDbLine
 10
0.0
 20
2.5
 30
0.0
 11
0.0
 21
86.3087608791
 31
0.0
  0
LINE
  5
26C
330
264
100
AcDbEntity
  8
0
  6
Continuous
 62
     7
370
     0
100
AcDbLine
 10
-2.5
 20
0.0
 30
0.0
 11
-4.5
 21
0.0
 31
0.0
  0
LINE
  5
26D
330
264
100
AcDbEntity
  8
0
  6
Continuous
 62
     7
370
     0
100
AcDbLine
 10
0.0
 20
-2.5
 30
0.0
 11
0.0
 21
-18.1964123438
 31
0.0
  0
LINE
  5
26E
330
264
100
AcDbEntity
  8
0
  6
Continuous
 62
     7
370
     0
100
AcDbLine
 10
2.5
 20
0.0
 30
0.0
 11
4.5
 21
0.0
 31
0.0
  0
ENDBLK
  5
266
330
264
100
AcDbEntity
  8
0
100
AcDbBlockEnd
  0
BLOCK
  5
271
330
270
100
AcDbEntity
  8
0
100
AcDbBlockBegin
  2
SW_CENTERMARKSYMBOL_1
 70
     0
 71
     0
 10
0.0
 20
0.0
 30
0.0
  3
SW_CENTERMARKSYMBOL_1
  1

  0
LINE
  5
273
330
270
100
AcDbEntity
  8
0
  6
Continuous
 62
     7
370
     0
100
AcDbLine
 10
0.0
 20
0.0
 30
0.0
 11
0.0
 21
2.5
 31
0.0
  0
LINE
  5
274
330
270
100
AcDbEntity
  8
0
  6
Continuous
 62
     7
370
     0
100
AcDbLine
 10
0.0
 20
0.0
 30
0.0
 11
-2.5
 21
0.0
 31
0.0
  0
LINE
  5
275
330
270
100
AcDbEntity
  8
0
  6
Continuous
 62
     7
370
     0
100
AcDbLine
 10
0.0
 20
0.0
 30
0.0
 11
0.0
 21
-2.5
 31
0.0
  0
LINE
  5
276
330
270
100
AcDbEntity
  8
0
  6
Continuous
 62
     7
370
     0
100
AcDbLine
 10
0.0
 20
0.0
 30
0.0
 11
2.5
 21
0.0
 31
0.0
  0
LINE
  5
277
330
270
100
AcDbEntity
  8
0
  6
Continuous
 62
     7
370
     0
100
AcDbLine
 10
0.0
 20
2.5
 30
0.0
 11
0.0
 21
4.0
 31
0.0
  0
LINE
  5
278
330
270
100
AcDbEntity
  8
0
  6
Continuous
 62
     7
370
     0
100
AcDbLine
 10
-2.5
 20
0.0
 30
0.0
 11
-4.0
 21
0.0
 31
0.0
  0
LINE
  5
279
330
270
100
AcDbEntity
  8
0
  6
Continuous
 62
     7
370
     0
100
AcDbLine
 10
0.0
 20
-2.5
 30
0.0
 11
0.0
 21
-4.0
 31
0.0
  0
LINE
  5
27A
330
270
100
AcDbEntity
  8
0
  6
Continuous
 62
     7
370
     0
100
AcDbLine
 10
2.5
 20
0.0
 30
0.0
 11
4.0
 21
0.0
 31
0.0
  0
ENDBLK
  5
272
330
270
100
AcDbEntity
  8
0
100
AcDbBlockEnd
  0
BLOCK
  5
2DA
330
2CF
100
AcDbEntity
  8
0
100
AcDbBlockBegin
  2
*D11
 70
     1
 71
     0
 10
0.0
 20
0.0
 30
0.0
  3
*D11
  1

  0
INSERT
  5
2DC
330
2CF
100
AcDbEntity
  8
0
  6
Continuous
 62
     7
370
     0
100
AcDbBlockReference
  2
_Open30
 10
117.9496125656
 20
57.8297546012
 30
28.3516306776
 41
3.0
 42
3.0
 50
90.0
  0
INSERT
  5
2DD
330
2CF
100
AcDbEntity
  8
0
  6
Continuous
 62
     7
370
     0
100
AcDbBlockReference
  2
_Open30
 10
117.9496125656
 20
37.8297546012
 30
28.3516306776
 41
3.0
 42
3.0
 50
270.0
  0
LINE
  5
2DE
330
2CF
100
AcDbEntity
  8
0
  6
Continuous
 62
     7
370
     0
100
AcDbLine
 10
90.9989779192
 20
57.8297546012
 30
0.0
 11
118.9496125656
 21
57.8297546012
 31
0.0
  0
LINE
  5
2DF
330
2CF
100
AcDbEntity
  8
0
  6
Continuous
 62
     7
370
     0
100
AcDbLine
 10
90.9989779192
 20
37.8297546012
 30
0.0
 11
118.9496125656
 21
37.8297546012
 31
0.0
  0
LINE
  5
2E0
330
2CF
100
AcDbEntity
  8
0
  6
Continuous
 62
     7
370
     0
100
AcDbLine
 10
117.9496125656
 20
57.8297546012
 30
0.0
 11
117.9496125656
 21
37.8297546012
 31
0.0
  0
MTEXT
  5
2E1
330
2CF
100
AcDbEntity
  8
0
  6
Continuous
 62
     7
370
     0
100
AcDbMText
 10
113.8768855257
 20
45.7934990995
 30
0.0
 40
3.5
 41
0.0
 71
     1
 72
     1
  1
20
  7
SLDTEXTSTYLE0
 11
-7.044197039909883E-15
 21
1.0
 31
0.0
 73
     1
 44
1.0
  0
ENDBLK
  5
2DB
330
2CF
100
AcDbEntity
  8
0
100
AcDbBlockEnd
  0
BLOCK
  5
2ED
330
2E3
100
AcDbEntity
  8
0
100
AcDbBlockBegin
  2
*D12
 70
     1
 71
     0
 10
0.0
 20
0.0
 30
0.0
  3
*D12
  1

  0
INSERT
  5
2EF
330
2E3
100
AcDbEntity
  8
0
  6
Continuous
 62
     7
370
     0
100
AcDbBlockReference
  2
_Open30
 10
44.9989779192
 20
19.9849193178
 30
28.3516306776
 41
3.0
 42
3.0
 50
180.0
  0
INSERT
  5
2F0
330
2E3
100
AcDbEntity
  8
0
  6
Continuous
 62
     7
370
     0
100
AcDbBlockReference
  2
_Open30
 10
89.9989779192
 20
19.9849193178
 30
28.3516306776
 41
3.0
 42
3.0
 50
360.0
  0
LINE
  5
2F1
330
2E3
100
AcDbEntity
  8
0
  6
Continuous
 62
     7
370
     0
100
AcDbLine
 10
44.9989779192
 20
36.8297546012
 30
0.0
 11
44.9989779192
 21
18.9849193178
 31
0.0
  0
LINE
  5
2F2
330
2E3
100
AcDbEntity
  8
0
  6
Continuous
 62
     7
370
     0
100
AcDbLine
 10
89.9989779192
 20
36.8297546012
 30
0.0
 11
89.9989779192
 21
18.9849193178
 31
0.0
  0
LINE
  5
2F3
330
2E3
100
AcDbEntity
  8
0
  6
Continuous
 62
     7
370
     0
100
AcDbLine
 10
44.9989779192
 20
19.9849193178
 30
0.0
 11
89.9989779192
 21
19.9849193178
 31
0.0
  0
MTEXT
  5
2F4
330
2E3
100
AcDbEntity
  8
0
  6
Continuous
 62
     7
370
     0
100
AcDbMText
 10
65.4627224175
 20
24.0576463577
 30
0.0
 40
3.5
 41
0.0
 71
     1
 72
     1
  1
45
  7
SLDTEXTSTYLE0
 73
     1
 44
1.0
  0
ENDBLK
  5
2EE
330
2E3
100
AcDbEntity
  8
0
100
AcDbBlockEnd
  0
BLOCK
  5
301
330
2F6
100
AcDbEntity
  8
0
100
AcDbBlockBegin
  2
*D13
 70
     1
 71
     0
 10
0.0
 20
0.0
 30
0.0
  3
*D13
  1

  0
INSERT
  5
304
330
2F6
100
AcDbEntity
  8
0
  6
Continuous
 62
     7
370
     0
100
AcDbBlockReference
  2
_Open30
 10
37.9989779192
 20
19.9849193178
 30
28.3516306776
 41
3.0
 42
3.0
 50
0.0
  0
INSERT
  5
305
330
2F6
100
AcDbEntity
  8
0
  6
Continuous
 62
     7
370
     0
100
AcDbBlockReference
  2
_Open30
 10
44.9989779192
 20
19.9849193178
 30
28.3516306776
 41
3.0
 42
3.0
 50
180.0
  0
LINE
  5
306
330
2F6
100
AcDbEntity
  8
0
  6
Continuous
 62
     7
370
     0
100
AcDbLine
 10
37.9989779192
 20
30.8297546012
 30
0.0
 11
37.9989779192
 21
18.9849193178
 31
0.0
  0
LINE
  5
307
330
2F6
100
AcDbEntity
  8
0
  6
Continuous
 62
     7
370
     0
100
AcDbLine
 10
44.9989779192
 20
36.8297546012
 30
0.0
 11
44.9989779192
 21
18.9849193178
 31
0.0
  0
LINE
  5
308
330
2F6
100
AcDbEntity
  8
0
  6
Continuous
 62
     7
370
     0
100
AcDbLine
 10
37.9989779192
 20
19.9849193178
 30
0.0
 11
32.9989779192
 21
19.9849193178
 31
0.0
  0
LINE
  5
309
330
2F6
100
AcDbEntity
  8
0
  6
Continuous
 62
     7
370
     0
100
AcDbLine
 10
37.9989779192
 20
19.9849193178
 30
0.0
 11
44.9989779192
 21
19.9849193178
 31
0.0
  0
LINE
  5
30A
330
2F6
100
AcDbEntity
  8
0
  6
Continuous
 62
     7
370
     0
100
AcDbLine
 10
44.9989779192
 20
19.9849193178
 30
0.0
 11
49.9989779192
 21
19.9849193178
 31
0.0
  0
MTEXT
  5
30B
330
2F6
100
AcDbEntity
  8
0
  6
Continuous
 62
     7
370
     0
100
AcDbMText
 10
40.4818396025
 20
24.0576463577
 30
0.0
 40
3.5
 41
0.0
 71
     1
 72
     1
  1
7
  7
SLDTEXTSTYLE0
 73
     1
 44
1.0
  0
ENDBLK
  5
302
330
2F6
100
AcDbEntity
  8
0
100
AcDbBlockEnd
  0
BLOCK
  5
317
330
30D
100
AcDbEntity
  8
0
100
AcDbBlockBegin
  2
*D14
 70
     1
 71
     0
 10
0.0
 20
0.0
 30
0.0
  3
*D14
  1

  0
INSERT
  5
319
330
30D
100
AcDbEntity
  8
0
  6
Continuous
 62
     7
370
     0
100
AcDbBlockReference
  2
_Open30
 10
101.9989779192
 20
19.9849193178
 30
28.3516306776
 41
3.0
 42
3.0
 50
180.0
  0
INSERT
  5
31A
330
30D
100
AcDbEntity
  8
0
  6
Continuous
 62
     7
370
     0
100
AcDbBlockReference
  2
_Open30
 10
89.9989779192
 20
19.9849193178
 30
28.3516306776
 41
3.0
 42
3.0
 50
360.0
  0
LINE
  5
31B
330
30D
100
AcDbEntity
  8
0
  6
Continuous
 62
     7
370
     0
100
AcDbLine
 10
101.9989779192
 20
31.1579052101
 30
0.0
 11
101.9989779192
 21
18.9849193178
 31
0.0
  0
LINE
  5
31C
330
30D
100
AcDbEntity
  8
0
  6
Continuous
 62
     7
370
     0
100
AcDbLine
 10
89.9989779192
 20
36.8297546012
 30
0.0
 11
89.9989779192
 21
18.9849193178
 31
0.0
  0
LINE
  5
31D
330
30D
100
AcDbEntity
  8
0
  6
Continuous
 62
     7
370
     0
100
AcDbLine
 10
101.9989779192
 20
19.9849193178
 30
0.0
 11
106.9989779192
 21
19.9849193178
 31
0.0
  0
LINE
  5
31E
330
30D
100
AcDbEntity
  8
0
  6
Continuous
 62
     7
370
     0
100
AcDbLine
 10
101.9989779192
 20
19.9849193178
 30
0.0
 11
89.9989779192
 21
19.9849193178
 31
0.0
  0
LINE
  5
31F
330
30D
100
AcDbEntity
  8
0
  6
Continuous
 62
     7
370
     0
100
AcDbLine
 10
89.9989779192
 20
19.9849193178
 30
0.0
 11
84.9989779192
 21
19.9849193178
 31
0.0
  0
MTEXT
  5
320
330
30D
100
AcDbEntity
  8
0
  6
Continuous
 62
     7
370
     0
100
AcDbMText
 10
93.9627224175
 20
24.0576463577
 30
0.0
 40
3.5
 41
0.0
 71
     1
 72
     1
  1
12
  7
SLDTEXTSTYLE0
 73
     1
 44
1.0
  0
ENDBLK
  5
318
330
30D
100
AcDbEntity
  8
0
100
AcDbBlockEnd
  0
ENDSEC
  0
SECTION
  2
ENTITIES
  0
LINE
  5
2F
330
1F
100
AcDbEntity
  8
0
  6
Continuous
 62
     7
370
     0
100
AcDbLine
 10
20.2604743903
 20
285.0
 30
0.0
 11
196.7604743903
 21
285.0
 31
0.0
  0
LINE
  5
30
330
1F
100
AcDbEntity
  8
0
  6
Continuous
 62
     7
370
     0
100
AcDbLine
 10
20.2604743903
 20
285.0
 30
0.0
 11
20.2604743903
 21
10.0
 31
0.0
  0
LINE
  5
31
330
1F
100
AcDbEntity
  8
0
  6
Continuous
 62
     7
370
     0
100
AcDbLine
 10
20.2604743903
 20
10.0
 30
0.0
 11
196.7604743903
 21
10.0
 31
0.0
  0
LINE
  5
32
330
1F
100
AcDbEntity
  8
0
  6
Continuous
 62
     7
370
     0
100
AcDbLine
 10
196.7604743903
 20
285.0
 30
0.0
 11
196.7604743903
 21
10.0
 31
0.0
  0
LINE
  5
33
330
1F
100
AcDbEntity
  8
0
  6
Continuous
 62
     7
370
     0
100
AcDbLine
 10
127.0104743903
 20
50.75
 30
0.0
 11
196.7604743903
 21
50.75
 31
0.0
  0
LINE
  5
34
330
1F
100
AcDbEntity
  8
0
  6
Continuous
 62
     7
370
     0
100
AcDbLine
 10
127.0104743903
 20
50.75
 30
0.0
 11
127.0104743903
 21
10.0
 31
0.0
  0
LINE
  5
35
330
1F
100
AcDbEntity
  8
0
  6
Continuous
 62
     7
370
     0
100
AcDbLine
 10
127.0104743903
 20
22.75
 30
0.0
 11
196.7604743903
 21
22.75
 31
0.0
  0
LINE
  5
36
330
1F
100
AcDbEntity
  8
0
  6
Continuous
 62
     7
370
     0
100
AcDbLine
 10
127.0104743903
 20
36.75
 30
0.0
 11
196.7604743903
 21
36.75
 31
0.0
  0
MTEXT
  5
38
330
1F
100
AcDbEntity
  8
0
  6
Continuous
 62
     7
370
     0
100
AcDbMText
 10
152.6407324243
 20
29.8861654089
 30
0.0
 40
4.2333333333
 41
0.0
 71
     1
 72
     1
  1
GT-NT05R
  7
SLDTEXTSTYLE0
 73
     1
 44
1.0
  0
INSERT
  5
3E
330
1F
100
AcDbEntity
  8
0
  6
Continuous
 62
     7
370
     0
100
AcDbBlockReference
  2
SW_NOTE_0
 10
145.0721865444
 20
43.452139104
 30
0.0
  0
MTEXT
  5
3F
330
1F
100
AcDbEntity
  8
0
  6
Continuous
 62
     7
370
     0
100
AcDbMText
 10
155.362269304
 20
16.2918259049
 30
0.0
 40
4.2333333333
 41
0.0
 71
     1
 72
     1
  1
060225
  7
SLDTEXTSTYLE0
 73
     1
 44
1.0
  0
LINE
  5
40
330
1F
100
AcDbEntity
  8
0
  6
Continuous
 62
     7
370
     0
100
AcDbLine
 10
49.9989779192
 20
187.4939304773
 30
0.0
 11
49.9989778921
 21
184.4939320996
 31
0.0
  0
LINE
  5
41
330
1F
100
AcDbEntity
  8
0
  6
Continuous
 62
     7
370
     0
100
AcDbLine
 10
55.9989779442
 20
184.4939320996
 30
0.0
 11
55.9989779192
 21
187.4939304773
 31
0.0
  0
ARC
  5
42
330
1F
100
AcDbEntity
  8
0
  6
Continuous
 62
     7
370
     0
100
AcDbCircle
 10
50.4989779192
 20
187.4939304773
 30
0.0
 40
0.4999999999978968
100
AcDbArc
 50
90.0
 51
180.0
  0
ARC
  5
43
330
1F
100
AcDbEntity
  8
0
  6
Continuous
 62
     7
370
     0
100
AcDbCircle
 10
55.4989779192
 20
187.4939304773
 30
0.0
 40
0.4999999999979252
100
AcDbArc
 50
360.0
 51
90.0
  0
ARC
  5
44
330
1F
100
AcDbEntity
  8
0
  6
Continuous
 62
     7
370
     0
100
AcDbCircle
 10
72.4989779192
 20
187.4939304773
 30
0.0
 40
0.4999999999978968
100
AcDbArc
 50
90.0
 51
180.0
  0
ARC
  5
45
330
1F
100
AcDbEntity
  8
0
  6
Continuous
 62
     7
370
     0
100
AcDbCircle
 10
77.4989779192
 20
187.4939304773
 30
0.0
 40
0.4999999999979252
100
AcDbArc
 50
360.0
 51
90.0
  0
LINE
  5
46
330
1F
100
AcDbEntity
  8
0
  6
Continuous
 62
     7
370
     0
100
AcDbLine
 10
71.9989779192
 20
187.4939304773
 30
0.0
 11
71.9989777729
 21
184.4939320996
 31
0.0
  0
LINE
  5
47
330
1F
100
AcDbEntity
  8
0
  6
Continuous
 62
     7
370
     0
100
AcDbLine
 10
77.9989787563
 20
184.4939320996
 30
0.0
 11
77.9989779192
 21
187.4939304773
 31
0.0
  0
LINE
  5
48
330
1F
100
AcDbEntity
  8
0
  6
Continuous
 62
     7
370
     0
100
AcDbLine
 10
91.9989779192
 20
159.4939304773
 30
0.0
 11
78.498977907
 21
159.4939298644
 31
0.0
  0
LINE
  5
49
330
1F
100
AcDbEntity
  8
0
  6
Continuous
 62
     7
370
     0
100
AcDbLine
 10
78.498977907
 20
129.493930535
 30
0.0
 11
91.9989779192
 21
129.4939304773
 31
0.0
  0
LINE
  5
4A
330
1F
100
AcDbEntity
  8
0
  6
Continuous
 62
     7
370
     0
100
AcDbLine
 10
93.4989779192
 20
157.9939304773
 30
0.0
 11
91.9989779192
 21
159.4939304773
 31
0.0
  0
LINE
  5
4B
330
1F
100
AcDbEntity
  8
0
  6
Continuous
 62
     7
370
     0
100
AcDbLine
 10
91.9989779192
 20
129.4939304773
 30
0.0
 11
93.4989779192
 21
130.9939304773
 31
0.0
  0
LINE
  5
4C
330
1F
100
AcDbEntity
  8
0
  6
Continuous
 62
     7
370
     0
100
AcDbLine
 10
95.9989779192
 20
135.4939304773
 30
0.0
 11
96.9989779192
 21
136.4939304773
 31
0.0
  0
LINE
  5
4D
330
1F
100
AcDbEntity
  8
0
  6
Continuous
 62
     7
370
     0
100
AcDbLine
 10
96.9989779192
 20
152.4939304773
 30
0.0
 11
95.9989779192
 21
153.4939304773
 31
0.0
  0
LINE
  5
4E
330
1F
100
AcDbEntity
  8
0
  6
Continuous
 62
     7
370
     0
100
AcDbLine
 10
95.9989779192
 20
153.4939304773
 30
0.0
 11
93.498978503
 21
153.4939307436
 31
0.0
  0
LINE
  5
4F
330
1F
100
AcDbEntity
  8
0
  6
Continuous
 62
     7
370
     0
100
AcDbLine
 10
93.498978503
 20
135.4939305872
 30
0.0
 11
95.9989779192
 21
135.4939304773
 31
0.0
  0
LINE
  5
50
330
1F
100
AcDbEntity
  8
0
  6
Continuous
 62
     7
370
     0
100
AcDbLine
 10
102.5989779192
 20
149.9939304773
 30
0.0
 11
101.9989771023
 21
149.9939301699
 31
0.0
  0
LINE
  5
51
330
1F
100
AcDbEntity
  8
0
  6
Continuous
 62
     7
370
     0
100
AcDbLine
 10
101.9989771023
 20
138.9939304915
 30
0.0
 11
102.5989779192
 21
138.9939304773
 31
0.0
  0
LINE
  5
52
330
1F
100
AcDbEntity
  8
0
  6
Continuous
 62
     7
370
     0
100
AcDbLine
 10
99.9989767745
 20
148.4939308554
 30
0.0
 11
96.9989781454
 21
148.4939308554
 31
0.0
  0
LINE
  5
53
330
1F
100
AcDbEntity
  8
0
  6
Continuous
 62
     7
370
     0
100
AcDbLine
 10
96.9989781454
 20
140.4939304754
 30
0.0
 11
99.9989767745
 21
140.4939304754
 31
0.0
  0
LINE
  5
54
330
1F
100
AcDbEntity
  8
0
  6
Continuous
 62
     7
370
     0
100
AcDbLine
 10
103.7989779192
 20
147.4939304773
 30
0.0
 11
102.5989760831
 21
147.4939306915
 31
0.0
  0
LINE
  5
55
330
1F
100
AcDbEntity
  8
0
  6
Continuous
 62
     7
370
     0
100
AcDbLine
 10
102.5989760831
 20
141.4939304065
 30
0.0
 11
103.7989779192
 21
141.4939304773
 31
0.0
  0
LINE
  5
56
330
1F
100
AcDbEntity
  8
0
  6
Continuous
 62
     7
370
     0
100
AcDbLine
 10
103.7989779192
 20
141.4939304773
 30
0.0
 11
104.0989779192
 21
141.7939304773
 31
0.0
  0
LINE
  5
57
330
1F
100
AcDbEntity
  8
0
  6
Continuous
 62
     7
370
     0
100
AcDbLine
 10
104.0989779192
 20
147.1939304773
 30
0.0
 11
103.7989779192
 21
147.4939304773
 31
0.0
  0
LINE
  5
58
330
1F
100
AcDbEntity
  8
0
  6
Continuous
 62
     7
370
     0
100
AcDbLine
 10
108.5989779192
 20
134.4939304773
 30
0.0
 11
104.9989794567
 21
134.4939304232
 31
0.0
  0
LINE
  5
59
330
1F
100
AcDbEntity
  8
0
  6
Continuous
 62
     7
370
     0
100
AcDbLine
 10
104.9989794567
 20
130.4939306989
 30
0.0
 11
108.5989779192
 21
130.4939304773
 31
0.0
  0
LINE
  5
5A
330
1F
100
AcDbEntity
  8
0
  6
Continuous
 62
     7
370
     0
100
AcDbLine
 10
108.5989779192
 20
130.4939304773
 30
0.0
 11
108.9989779192
 21
130.8939304773
 31
0.0
  0
LINE
  5
5B
330
1F
100
AcDbEntity
  8
0
  6
Continuous
 62
     7
370
     0
100
AcDbLine
 10
108.9989779192
 20
134.0939304773
 30
0.0
 11
108.5989779192
 21
134.4939304773
 31
0.0
  0
LINE
  5
5C
330
1F
100
AcDbEntity
  8
0
  6
Continuous
 62
     7
370
     0
100
AcDbLine
 10
108.7989779192
 20
142.6939304773
 30
0.0
 11
111.5989779192
 21
142.9939304773
 31
0.0
  0
LINE
  5
5D
330
1F
100
AcDbEntity
  8
0
  6
Continuous
 62
     7
370
     0
100
AcDbLine
 10
111.5989779192
 20
145.9939304773
 30
0.0
 11
108.7989779192
 21
146.2939304773
 31
0.0
  0
LINE
  5
5E
330
1F
100
AcDbEntity
  8
0
  6
Continuous
 62
     7
370
     0
100
AcDbLine
 10
106.2989779192
 20
146.2939304773
 30
0.0
 11
106.0989779192
 21
146.2939304773
 31
0.0
  0
LINE
  5
5F
330
1F
100
AcDbEntity
  8
0
  6
Continuous
 62
     7
370
     0
100
AcDbLine
 10
106.0989779192
 20
142.6939304773
 30
0.0
 11
106.2989779192
 21
142.6939304773
 31
0.0
  0
LINE
  5
60
330
1F
100
AcDbEntity
  8
0
  6
Continuous
 62
     7
370
     0
100
AcDbLine
 10
108.7989779192
 20
146.2939304773
 30
0.0
 11
108.5989779192
 21
146.2939304773
 31
0.0
  0
LINE
  5
61
330
1F
100
AcDbEntity
  8
0
  6
Continuous
 62
     7
370
     0
100
AcDbLine
 10
108.5989779192
 20
142.6939304773
 30
0.0
 11
108.7989779192
 21
142.6939304773
 31
0.0
  0
LINE
  5
62
330
1F
100
AcDbEntity
  8
0
  6
Continuous
 62
     7
370
     0
100
AcDbLine
 10
106.2989779192
 20
142.6939304773
 30
0.0
 11
108.5989770665
 21
142.9939304195
 31
0.0
  0
LINE
  5
63
330
1F
100
AcDbEntity
  8
0
  6
Continuous
 62
     7
370
     0
100
AcDbLine
 10
108.5989770665
 20
145.9939304456
 30
0.0
 11
106.2989779192
 21
146.2939304773
 31
0.0
  0
LINE
  5
64
330
1F
100
AcDbEntity
  8
0
  6
Continuous
 62
     7
370
     0
100
AcDbLine
 10
106.0989794507
 20
145.9939304456
 30
0.0
 11
104.0989791229
 21
145.9939304456
 31
0.0
  0
LINE
  5
65
330
1F
100
AcDbEntity
  8
0
  6
Continuous
 62
     7
370
     0
100
AcDbLine
 10
104.0989791229
 20
142.9939304195
 30
0.0
 11
106.0989794507
 21
142.9939304195
 31
0.0
  0
LINE
  5
66
330
1F
100
AcDbEntity
  8
0
  6
Continuous
 62
     7
370
     0
100
AcDbLine
 10
86.1989779192
 20
162.6939304773
 30
0.0
 11
88.9989779192
 21
162.9939304773
 31
0.0
  0
LINE
  5
67
330
1F
100
AcDbEntity
  8
0
  6
Continuous
 62
     7
370
     0
100
AcDbLine
 10
88.9989779192
 20
165.9939304773
 30
0.0
 11
86.1989779192
 21
166.2939304773
 31
0.0
  0
LINE
  5
68
330
1F
100
AcDbEntity
  8
0
  6
Continuous
 62
     7
370
     0
100
AcDbLine
 10
86.1989779192
 20
166.2939304773
 30
0.0
 11
85.9989779192
 21
166.2939304773
 31
0.0
  0
LINE
  5
69
330
1F
100
AcDbEntity
  8
0
  6
Continuous
 62
     7
370
     0
100
AcDbLine
 10
85.9989779192
 20
162.6939304773
 30
0.0
 11
86.1989779192
 21
162.6939304773
 31
0.0
  0
LINE
  5
6A
330
1F
100
AcDbEntity
  8
0
  6
Continuous
 62
     7
370
     0
100
AcDbLine
 10
83.6989779192
 20
166.2939304773
 30
0.0
 11
83.4989779192
 21
166.2939304773
 31
0.0
  0
LINE
  5
6B
330
1F
100
AcDbEntity
  8
0
  6
Continuous
 62
     7
370
     0
100
AcDbLine
 10
83.4989779192
 20
162.6939304773
 30
0.0
 11
83.6989779192
 21
162.6939304773
 31
0.0
  0
LINE
  5
6C
330
1F
100
AcDbEntity
  8
0
  6
Continuous
 62
     7
370
     0
100
AcDbLine
 10
83.6989779192
 20
162.6939304773
 30
0.0
 11
85.998978205
 21
162.9939313695
 31
0.0
  0
LINE
  5
6D
330
1F
100
AcDbEntity
  8
0
  6
Continuous
 62
     7
370
     0
100
AcDbLine
 10
85.998978205
 20
165.9939299986
 30
0.0
 11
83.6989779192
 21
166.2939304773
 31
0.0
  0
LINE
  5
6E
330
1F
100
AcDbEntity
  8
0
  6
Continuous
 62
     7
370
     0
100
AcDbLine
 10
83.4989787265
 20
165.9939299986
 30
0.0
 11
81.4989783987
 21
165.9939299986
 31
0.0
  0
LINE
  5
6F
330
1F
100
AcDbEntity
  8
0
  6
Continuous
 62
     7
370
     0
100
AcDbLine
 10
81.4989783987
 20
162.9939313695
 30
0.0
 11
83.4989787265
 21
162.9939313695
 31
0.0
  0
LINE
  5
70
330
1F
100
AcDbEntity
  8
0
  6
Continuous
 62
     7
370
     0
100
AcDbLine
 10
39.9989779192
 20
214.1572155451
 30
0.0
 11
41.1037781462
 21
214.1572154775
 31
0.0
  0
LINE
  5
71
330
1F
100
AcDbEntity
  8
0
  6
Continuous
 62
     7
370
     0
100
AcDbLine
 10
44.9989779192
 20
200.7561915854
 30
0.0
 11
44.9989779192
 21
198.4939304773
 31
0.0
  0
LINE
  5
72
330
1F
100
AcDbEntity
  8
0
  6
Continuous
 62
     7
370
     0
100
AcDbLine
 10
39.9989779192
 20
197.3515649943
 30
0.0
 11
45.3573323041
 21
197.3515666738
 31
0.0
  0
LINE
  5
73
330
1F
100
AcDbEntity
  8
0
  6
Continuous
 62
     7
370
     0
100
AcDbLine
 10
39.9989779192
 20
214.1572155451
 30
0.0
 11
39.9989779192
 21
197.3515649943
 31
0.0
  0
ARC
  5
74
330
1F
100
AcDbEntity
  8
0
  6
Continuous
 62
     7
370
     0
100
AcDbCircle
 10
19.9951121252
 20
200.7550690468
 30
0.0
 40
25.00386590384647
100
AcDbArc
 50
0.0
 51
32.4119560849
  0
LWPOLYLINE
  5
75
330
1F
100
AcDbEntity
  8
0
  6
Continuous
 62
     7
370
     0
100
AcDbPolyline
 90
        3
 70
   128
 43
0.0
 10
45.3573323041
 20
197.3515666738
 10
45.0713399052
 20
197.9608155504
 10
44.9989780038
 20
198.4939306691
  0
LINE
  5
76
330
1F
100
AcDbEntity
  8
0
  6
Continuous
 62
     7
370
     0
100
AcDbLine
 10
46.9989783317
 20
190.4939293578
 30
0.0
 11
46.9989783317
 21
196.4939303413
 31
0.0
  0
LINE
  5
77
330
1F
100
AcDbEntity
  8
0
  6
Continuous
 62
     7
370
     0
100
AcDbLine
 10
39.9989779192
 20
194.4939304773
 30
0.0
 11
39.9989779192
 21
197.3515649943
 31
0.0
  0
ARC
  5
78
330
1F
100
AcDbEntity
  8
0
  6
Continuous
 62
     7
370
     0
100
AcDbCircle
 10
46.9989779192
 20
198.4939304773
 30
0.0
 40
2.000000000003192
100
AcDbArc
 50
214.8327431635
 51
269.9999999998
  0
LINE
  5
79
330
1F
100
AcDbEntity
  8
0
  6
Continuous
 62
     7
370
     0
100
AcDbLine
 10
40.9989782795
 20
121.3939312562
 30
0.0
 11
39.9989781156
 21
121.3939312562
 31
0.0
  0
LINE
  5
7A
330
1F
100
AcDbEntity
  8
0
  6
Continuous
 62
     7
370
     0
100
AcDbLine
 10
40.9989782795
 20
119.3939309284
 30
0.0
 11
40.9989782795
 21
121.3939312562
 31
0.0
  0
LINE
  5
7B
330
1F
100
AcDbEntity
  8
0
  6
Continuous
 62
     7
370
     0
100
AcDbLine
 10
40.9989782795
 20
119.3939309284
 30
0.0
 11
39.9989781156
 21
119.3939309284
 31
0.0
  0
LINE
  5
7C
330
1F
100
AcDbEntity
  8
0
  6
Continuous
 62
     7
370
     0
100
AcDbLine
 10
39.9989781156
 20
119.3939309284
 30
0.0
 11
39.9989781156
 21
121.3939312562
 31
0.0
  0
LINE
  5
7D
330
1F
100
AcDbEntity
  8
0
  6
Continuous
 62
     7
370
     0
100
AcDbLine
 10
98.9989784732
 20
121.3939312562
 30
0.0
 11
101.8274050439
 21
121.3939304773
 31
0.0
  0
ARC
  5
7E
330
1F
100
AcDbEntity
  8
0
  6
Continuous
 62
     7
370
     0
100
AcDbCircle
 10
98.9989779192
 20
122.3939304773
 30
0.0
 40
2.999999999999943
100
AcDbArc
 50
270.0
 51
340.5287793656
  0
LINE
  5
7F
330
1F
100
AcDbEntity
  8
0
  6
Continuous
 62
     7
370
     0
100
AcDbLine
 10
98.9989779192
 20
119.3939304773
 30
0.0
 11
81.9630787894
 21
119.3939309284
 31
0.0
  0
LINE
  5
80
330
1F
100
AcDbEntity
  8
0
  6
Continuous
 62
     7
370
     0
100
AcDbLine
 10
81.9630787894
 20
119.3939309284
 30
0.0
 11
76.7669265344
 21
122.3939295575
 31
0.0
  0
LINE
  5
81
330
1F
100
AcDbEntity
  8
0
  6
Continuous
 62
     7
370
     0
100
AcDbLine
 10
76.7669265344
 20
122.3939295575
 30
0.0
 11
55.7310287561
 21
122.3939295575
 31
0.0
  0
LINE
  5
82
330
1F
100
AcDbEntity
  8
0
  6
Continuous
 62
     7
370
     0
100
AcDbLine
 10
55.7310287561
 20
122.3939295575
 30
0.0
 11
50.5348762683
 21
119.3939309284
 31
0.0
  0
LINE
  5
83
330
1F
100
AcDbEntity
  8
0
  6
Continuous
 62
     7
370
     0
100
AcDbLine
 10
50.5348762683
 20
119.3939309284
 30
0.0
 11
40.9989782795
 21
119.3939309284
 31
0.0
  0
LINE
  5
84
330
1F
100
AcDbEntity
  8
0
  6
Continuous
 62
     7
370
     0
100
AcDbLine
 10
40.9989782795
 20
121.3939312562
 30
0.0
 11
49.9989778921
 21
121.3939312562
 31
0.0
  0
LINE
  5
85
330
1F
100
AcDbEntity
  8
0
  6
Continuous
 62
     7
370
     0
100
AcDbLine
 10
49.9989778921
 20
121.3939312562
 30
0.0
 11
55.1951303419
 21
124.3939304773
 31
0.0
  0
LINE
  5
86
330
1F
100
AcDbEntity
  8
0
  6
Continuous
 62
     7
370
     0
100
AcDbLine
 10
57.9989779228
 20
124.3939308166
 30
0.0
 11
55.1951303419
 21
124.3939304773
 31
0.0
  0
LINE
  5
87
330
1F
100
AcDbEntity
  8
0
  6
Continuous
 62
     7
370
     0
100
AcDbLine
 10
57.9989779228
 20
124.3939308166
 30
0.0
 11
57.9989779192
 21
125.9939304773
 31
0.0
  0
LINE
  5
88
330
1F
100
AcDbEntity
  8
0
  6
Continuous
 62
     7
370
     0
100
AcDbLine
 10
65.9989779192
 20
125.9939304773
 30
0.0
 11
57.9989779192
 21
125.9939304773
 31
0.0
  0
LINE
  5
89
330
1F
100
AcDbEntity
  8
0
  6
Continuous
 62
     7
370
     0
100
AcDbLine
 10
65.9989777207
 20
124.3939308166
 30
0.0
 11
65.9989779192
 21
125.9939304773
 31
0.0
  0
LINE
  5
8A
330
1F
100
AcDbEntity
  8
0
  6
Continuous
 62
     7
370
     0
100
AcDbLine
 10
65.9989777207
 20
124.3939308166
 30
0.0
 11
77.3028263077
 21
124.3939308166
 31
0.0
  0
LINE
  5
8B
330
1F
100
AcDbEntity
  8
0
  6
Continuous
 62
     7
370
     0
100
AcDbLine
 10
77.3028263077
 20
124.3939308166
 30
0.0
 11
82.4989785626
 21
121.3939312562
 31
0.0
  0
LINE
  5
8C
330
1F
100
AcDbEntity
  8
0
  6
Continuous
 62
     7
370
     0
100
AcDbLine
 10
82.4989785626
 20
121.3939312562
 30
0.0
 11
98.9989784732
 21
121.3939312562
 31
0.0
  0
LINE
  5
8D
330
1F
100
AcDbEntity
  8
0
  6
Continuous
 62
     7
370
     0
100
AcDbLine
 10
37.9989779192
 20
191.4939304773
 30
0.0
 11
37.9989777878
 21
125.9939308926
 31
0.0
  0
LINE
  5
8E
330
1F
100
AcDbEntity
  8
0
  6
Continuous
 62
     7
370
     0
100
AcDbLine
 10
37.9989779192
 20
191.4939304773
 30
0.0
 11
39.9989779192
 21
191.4939304773
 31
0.0
  0
LINE
  5
8F
330
1F
100
AcDbEntity
  8
0
  6
Continuous
 62
     7
370
     0
100
AcDbLine
 10
39.9989779192
 20
191.4939304773
 30
0.0
 11
39.9989781156
 21
190.1939317301
 31
0.0
  0
LINE
  5
90
330
1F
100
AcDbEntity
  8
0
  6
Continuous
 62
     7
370
     0
100
AcDbLine
 10
39.9989781156
 20
190.1939317301
 30
0.0
 11
49.1989783197
 21
190.1939317301
 31
0.0
  0
LINE
  5
91
330
1F
100
AcDbEntity
  8
0
  6
Continuous
 62
     7
370
     0
100
AcDbLine
 10
49.1989783197
 20
190.1939317301
 30
0.0
 11
49.1989783197
 21
184.4939320996
 31
0.0
  0
LINE
  5
92
330
1F
100
AcDbEntity
  8
0
  6
Continuous
 62
     7
370
     0
100
AcDbLine
 10
49.1989783197
 20
184.4939320996
 30
0.0
 11
56.7989778658
 21
184.4939320996
 31
0.0
  0
LINE
  5
93
330
1F
100
AcDbEntity
  8
0
  6
Continuous
 62
     7
370
     0
100
AcDbLine
 10
56.7989778658
 20
184.4939320996
 30
0.0
 11
56.7989778658
 21
190.1939317301
 31
0.0
  0
LINE
  5
94
330
1F
100
AcDbEntity
  8
0
  6
Continuous
 62
     7
370
     0
100
AcDbLine
 10
56.7989778658
 20
190.1939317301
 30
0.0
 11
68.0262881517
 21
190.1939317301
 31
0.0
  0
LINE
  5
95
330
1F
100
AcDbEntity
  8
0
  6
Continuous
 62
     7
370
     0
100
AcDbLine
 10
68.0262881517
 20
190.1939317301
 30
0.0
 11
71.1989782005
 21
188.362176688
 31
0.0
  0
LINE
  5
96
330
1F
100
AcDbEntity
  8
0
  6
Continuous
 62
     7
370
     0
100
AcDbLine
 10
71.1989782005
 20
188.362176688
 30
0.0
 11
71.1989782005
 21
184.4939320996
 31
0.0
  0
LINE
  5
97
330
1F
100
AcDbEntity
  8
0
  6
Continuous
 62
     7
370
     0
100
AcDbLine
 10
71.1989782005
 20
184.4939320996
 30
0.0
 11
78.498977907
 21
184.4939320996
 31
0.0
  0
LINE
  5
98
330
1F
100
AcDbEntity
  8
0
  6
Continuous
 62
     7
370
     0
100
AcDbLine
 10
78.498977907
 20
179.9939304307
 30
0.0
 11
78.498977907
 21
184.4939320996
 31
0.0
  0
LINE
  5
99
330
1F
100
AcDbEntity
  8
0
  6
Continuous
 62
     7
370
     0
100
AcDbLine
 10
39.9989781156
 20
179.9939304307
 30
0.0
 11
78.498977907
 21
179.9939304307
 31
0.0
  0
LINE
  5
9A
330
1F
100
AcDbEntity
  8
0
  6
Continuous
 62
     7
370
     0
100
AcDbLine
 10
78.498977907
 20
127.9939302891
 30
0.0
 11
78.498977907
 21
179.4939294174
 31
0.0
  0
LINE
  5
9B
330
1F
100
AcDbEntity
  8
0
  6
Continuous
 62
     7
370
     0
100
AcDbLine
 10
78.498977907
 20
127.9939302891
 30
0.0
 11
39.9989781156
 21
127.9939302891
 31
0.0
  0
LINE
  5
9C
330
1F
100
AcDbEntity
  8
0
  6
Continuous
 62
     7
370
     0
100
AcDbLine
 10
39.9989781156
 20
127.9939302891
 30
0.0
 11
39.9989781156
 21
125.9939308926
 31
0.0
  0
LINE
  5
9D
330
1F
100
AcDbEntity
  8
0
  6
Continuous
 62
     7
370
     0
100
AcDbLine
 10
37.9989777878
 20
125.9939308926
 30
0.0
 11
39.9989781156
 21
125.9939308926
 31
0.0
  0
CIRCLE
  5
9E
330
1F
100
AcDbEntity
  8
0
  6
Continuous
 62
     7
370
     0
100
AcDbCircle
 10
45.9989779192
 20
135.9939304773
 30
0.0
 40
2.799999999996388
  0
LINE
  5
9F
330
1F
100
AcDbEntity
  8
0
  6
Continuous
 62
     7
370
     0
100
AcDbLine
 10
78.498977907
 20
179.4939294174
 30
0.0
 11
39.9989781156
 21
179.4939294174
 31
0.0
  0
LINE
  5
A0
330
1F
100
AcDbEntity
  8
0
  6
Continuous
 62
     7
370
     0
100
AcDbLine
 10
39.9989781156
 20
179.9939304307
 30
0.0
 11
39.9989781156
 21
179.4939294174
 31
0.0
  0
LINE
  5
A1
330
1F
100
AcDbEntity
  8
0
  6
Continuous
 62
     7
370
     0
100
AcDbLine
 10
56.7989778658
 20
190.1939317301
 30
0.0
 11
56.6489778878
 21
190.3439305439
 31
0.0
  0
LINE
  5
A2
330
1F
100
AcDbEntity
  8
0
  6
Continuous
 62
     7
370
     0
100
AcDbLine
 10
56.4989779098
 20
184.4939320996
 30
0.0
 11
56.4989779192
 21
190.1939304773
 31
0.0
  0
LINE
  5
A3
330
1F
100
AcDbEntity
  8
0
  6
Continuous
 62
     7
370
     0
100
AcDbLine
 10
56.6489778878
 20
190.3439305439
 30
0.0
 11
56.4989779192
 21
190.1939304773
 31
0.0
  0
LINE
  5
A4
330
1F
100
AcDbEntity
  8
0
  6
Continuous
 62
     7
370
     0
100
AcDbLine
 10
101.9989779192
 20
146.9882695573
 30
0.0
 11
101.9989771023
 21
122.3939295575
 31
0.0
  0
ARC
  5
A5
330
1F
100
AcDbEntity
  8
0
  6
Continuous
 62
     7
370
     0
100
AcDbCircle
 10
98.9989779192
 20
122.3939304773
 30
0.0
 40
2.99999999999906
100
AcDbArc
 50
340.5287793656
 51
0.0
  0
ARC
  5
A6
330
1F
100
AcDbEntity
  8
0
  6
Continuous
 62
     7
370
     0
100
AcDbCircle
 10
98.9989779192
 20
122.3939304773
 30
0.0
 40
1.000000000000412
100
AcDbArc
 50
270.0000006412
 51
0.0
  0
LINE
  5
A7
330
1F
100
AcDbEntity
  8
0
  6
Continuous
 62
     7
370
     0
100
AcDbLine
 10
99.9989767745
 20
122.3939295575
 30
0.0
 11
99.9989779192
 21
146.9882695573
 31
0.0
  0
LINE
  5
A8
330
1F
100
AcDbEntity
  8
0
  6
Continuous
 62
     7
370
     0
100
AcDbLine
 10
99.9989779192
 20
146.9882695573
 30
0.0
 11
101.9989779192
 21
146.9882695573
 31
0.0
  0
LINE
  5
A9
330
1F
100
AcDbEntity
  8
0
  6
Continuous
 62
     7
370
     0
100
AcDbLine
 10
68.9989782124
 20
125.9939308926
 30
0.0
 11
68.9989782124
 21
124.3939308166
 31
0.0
  0
LINE
  5
AA
330
1F
100
AcDbEntity
  8
0
  6
Continuous
 62
     7
370
     0
100
AcDbLine
 10
67.6572903144
 20
125.9939304773
 30
0.0
 11
65.9989779192
 21
125.9939304773
 31
0.0
  0
LINE
  5
AB
330
1F
100
AcDbEntity
  8
0
  6
Continuous
 62
     7
370
     0
100
AcDbLine
 10
37.9989779192
 20
194.4939304773
 30
0.0
 11
39.9989779192
 21
194.4939304773
 31
0.0
  0
LINE
  5
AC
330
1F
100
AcDbEntity
  8
0
  6
Continuous
 62
     7
370
     0
100
AcDbLine
 10
39.9989779192
 20
194.4939304773
 30
0.0
 11
39.9989779192
 21
191.4939304773
 31
0.0
  0
LINE
  5
AD
330
1F
100
AcDbEntity
  8
0
  6
Continuous
 62
     7
370
     0
100
AcDbLine
 10
37.9989779192
 20
194.4939304773
 30
0.0
 11
37.9989779192
 21
191.4939304773
 31
0.0
  0
LINE
  5
AE
330
1F
100
AcDbEntity
  8
0
  6
Continuous
 62
     7
370
     0
100
AcDbLine
 10
55.1951303419
 20
124.3939304773
 30
0.0
 11
54.9989779192
 21
124.3939304773
 31
0.0
  0
LINE
  5
AF
330
1F
100
AcDbEntity
  8
0
  6
Continuous
 62
     7
370
     0
100
AcDbLine
 10
54.9989780131
 20
125.9939308926
 30
0.0
 11
54.9989779192
 21
124.3939304773
 31
0.0
  0
LINE
  5
B0
330
1F
100
AcDbEntity
  8
0
  6
Continuous
 62
     7
370
     0
100
AcDbLine
 10
56.340665524
 20
125.9939304773
 30
0.0
 11
57.9989779192
 21
125.9939304773
 31
0.0
  0
LINE
  5
B1
330
1F
100
AcDbEntity
  8
0
  6
Continuous
 62
     7
370
     0
100
AcDbLine
 10
49.3489780649
 20
190.3439305439
 30
0.0
 11
49.1989783197
 21
190.1939317301
 31
0.0
  0
LINE
  5
B2
330
1F
100
AcDbEntity
  8
0
  6
Continuous
 62
     7
370
     0
100
AcDbLine
 10
49.4989779192
 20
190.1939304773
 30
0.0
 11
49.3489780649
 21
190.3439305439
 31
0.0
  0
LINE
  5
B3
330
1F
100
AcDbEntity
  8
0
  6
Continuous
 62
     7
370
     0
100
AcDbLine
 10
49.4989779192
 20
190.1939304773
 30
0.0
 11
49.4989778101
 21
184.4939320996
 31
0.0
  0
LINE
  5
B4
330
1F
100
AcDbEntity
  8
0
  6
Continuous
 62
     7
370
     0
100
AcDbLine
 10
49.1989779192
 20
190.4939304773
 30
0.0
 11
39.9989781156
 21
190.4939293578
 31
0.0
  0
LINE
  5
B5
330
1F
100
AcDbEntity
  8
0
  6
Continuous
 62
     7
370
     0
100
AcDbLine
 10
49.1989779192
 20
190.4939304773
 30
0.0
 11
49.3489780649
 21
190.3439305439
 31
0.0
  0
LINE
  5
B6
330
1F
100
AcDbEntity
  8
0
  6
Continuous
 62
     7
370
     0
100
AcDbLine
 10
71.3690740242
 20
188.4603827908
 30
0.0
 11
71.1989782005
 21
188.362176688
 31
0.0
  0
LINE
  5
B7
330
1F
100
AcDbEntity
  8
0
  6
Continuous
 62
     7
370
     0
100
AcDbLine
 10
68.1066733971
 20
190.4939293578
 30
0.0
 11
68.0262881517
 21
190.1939317301
 31
0.0
  0
LINE
  5
B8
330
1F
100
AcDbEntity
  8
0
  6
Continuous
 62
     7
370
     0
100
AcDbLine
 10
71.2391703576
 20
188.6853828743
 30
0.0
 11
68.1066733971
 21
190.4939293578
 31
0.0
  0
LINE
  5
B9
330
1F
100
AcDbEntity
  8
0
  6
Continuous
 62
     7
370
     0
100
AcDbLine
 10
71.2391703576
 20
188.6853828743
 30
0.0
 11
71.3690740242
 21
188.4603827908
 31
0.0
  0
LINE
  5
BA
330
1F
100
AcDbEntity
  8
0
  6
Continuous
 62
     7
370
     0
100
AcDbLine
 10
56.7989779192
 20
190.4939304773
 30
0.0
 11
56.6489778878
 21
190.3439305439
 31
0.0
  0
LINE
  5
BB
330
1F
100
AcDbEntity
  8
0
  6
Continuous
 62
     7
370
     0
100
AcDbLine
 10
68.1066733971
 20
190.4939293578
 30
0.0
 11
56.7989779192
 21
190.4939304773
 31
0.0
  0
LINE
  5
BC
330
1F
100
AcDbEntity
  8
0
  6
Continuous
 62
     7
370
     0
100
AcDbLine
 10
71.4989776909
 20
188.2353827074
 30
0.0
 11
71.3690740242
 21
188.4603827908
 31
0.0
  0
LINE
  5
BD
330
1F
100
AcDbEntity
  8
0
  6
Continuous
 62
     7
370
     0
100
AcDbLine
 10
71.4989776909
 20
188.2353827074
 30
0.0
 11
71.4989776909
 21
184.4939320996
 31
0.0
  0
CIRCLE
  5
BE
330
1F
100
AcDbEntity
  8
0
  6
Continuous
 62
     7
370
     0
100
AcDbCircle
 10
45.9989779192
 20
135.9939304773
 30
0.0
 40
2.500000000000604
  0
LINE
  5
BF
330
1F
100
AcDbEntity
  8
0
  6
Continuous
 62
     7
370
     0
100
AcDbLine
 10
40.1989777758
 20
179.9939304307
 30
0.0
 11
40.1989777758
 21
179.4939294174
 31
0.0
  0
LINE
  5
C0
330
1F
100
AcDbEntity
  8
0
  6
Continuous
 62
     7
370
     0
100
AcDbLine
 10
78.2989782467
 20
179.9939304307
 30
0.0
 11
78.2989782467
 21
179.4939294174
 31
0.0
  0
LINE
  5
C1
330
1F
100
AcDbEntity
  8
0
  6
Continuous
 62
     7
370
     0
100
AcDbLine
 10
78.498977907
 20
125.9939308926
 30
0.0
 11
67.6572903144
 21
125.9939304773
 31
0.0
  0
LINE
  5
C2
330
1F
100
AcDbEntity
  8
0
  6
Continuous
 62
     7
370
     0
100
AcDbLine
 10
39.9989781156
 20
125.9939308926
 30
0.0
 11
56.340665524
 21
125.9939304773
 31
0.0
  0
LINE
  5
C3
330
1F
100
AcDbEntity
  8
0
  6
Continuous
 62
     7
370
     0
100
AcDbLine
 10
78.498977907
 20
125.9939308926
 30
0.0
 11
78.498977907
 21
127.9939302891
 31
0.0
  0
CIRCLE
  5
C4
330
1F
100
AcDbEntity
  8
0
  6
Continuous
 62
     7
370
     0
100
AcDbCircle
 10
45.9989779192
 20
135.9939304773
 30
0.0
 40
1.950000000002675
  0
CIRCLE
  5
C5
330
1F
100
AcDbEntity
  8
0
  6
Continuous
 62
     7
370
     0
100
AcDbCircle
 10
45.9989779192
 20
135.9939304773
 30
0.0
 40
2.249999999998551
  0
LINE
  5
C6
330
1F
100
AcDbEntity
  8
0
  6
Continuous
 62
     7
370
     0
100
AcDbLine
 10
46.9989783317
 20
136.5712806998
 30
0.0
 11
45.9989781677
 21
137.1486309632
 31
0.0
  0
LINE
  5
C7
330
1F
100
AcDbEntity
  8
0
  6
Continuous
 62
     7
370
     0
100
AcDbLine
 10
45.9989781677
 20
137.1486309632
 30
0.0
 11
44.9989780038
 21
136.5712806998
 31
0.0
  0
LINE
  5
C8
330
1F
100
AcDbEntity
  8
0
  6
Continuous
 62
     7
370
     0
100
AcDbLine
 10
44.9989780038
 20
136.5712806998
 30
0.0
 11
44.9989780038
 21
135.4165802892
 31
0.0
  0
LINE
  5
C9
330
1F
100
AcDbEntity
  8
0
  6
Continuous
 62
     7
370
     0
100
AcDbLine
 10
44.9989780038
 20
135.4165802892
 30
0.0
 11
45.9989781677
 21
134.8392299093
 31
0.0
  0
LINE
  5
CA
330
1F
100
AcDbEntity
  8
0
  6
Continuous
 62
     7
370
     0
100
AcDbLine
 10
45.9989781677
 20
134.8392299093
 30
0.0
 11
46.9989783317
 21
135.4165802892
 31
0.0
  0
LINE
  5
CB
330
1F
100
AcDbEntity
  8
0
  6
Continuous
 62
     7
370
     0
100
AcDbLine
 10
46.9989783317
 20
135.4165802892
 30
0.0
 11
46.9989783317
 21
136.5712806998
 31
0.0
  0
LINE
  5
CC
330
1F
100
AcDbEntity
  8
0
  6
Continuous
 62
     7
370
     0
100
AcDbLine
 10
52.9989779192
 20
187.9939304773
 30
0.0
 11
55.4989779192
 21
187.9939304773
 31
0.0
  0
LINE
  5
CD
330
1F
100
AcDbEntity
  8
0
  6
Continuous
 62
     7
370
     0
100
AcDbLine
 10
50.4989779192
 20
187.9939304773
 30
0.0
 11
52.9989779192
 21
187.9939304773
 31
0.0
  0
LINE
  5
CE
330
1F
100
AcDbEntity
  8
0
  6
Continuous
 62
     7
370
     0
100
AcDbLine
 10
74.9989779192
 20
187.9939304773
 30
0.0
 11
77.4989779192
 21
187.9939304773
 31
0.0
  0
LINE
  5
CF
330
1F
100
AcDbEntity
  8
0
  6
Continuous
 62
     7
370
     0
100
AcDbLine
 10
72.4989779192
 20
187.9939304773
 30
0.0
 11
74.9989779192
 21
187.9939304773
 31
0.0
  0
LINE
  5
D0
330
1F
100
AcDbEntity
  8
0
  6
Continuous
 62
     7
370
     0
100
AcDbLine
 10
91.9989779192
 20
159.4939304773
 30
0.0
 11
91.9989779192
 21
151.0322788926
 31
0.0
  0
LINE
  5
D1
330
1F
100
AcDbEntity
  8
0
  6
Continuous
 62
     7
370
     0
100
AcDbLine
 10
91.9989779192
 20
151.0322788926
 30
0.0
 11
86.4989779192
 21
151.0322788926
 31
0.0
  0
LINE
  5
D2
330
1F
100
AcDbEntity
  8
0
  6
Continuous
 62
     7
370
     0
100
AcDbLine
 10
86.4989779192
 20
137.955582062
 30
0.0
 11
91.9989779192
 21
137.955582062
 31
0.0
  0
LINE
  5
D3
330
1F
100
AcDbEntity
  8
0
  6
Continuous
 62
     7
370
     0
100
AcDbLine
 10
91.9989779192
 20
137.955582062
 30
0.0
 11
91.9989779192
 21
129.4939304773
 31
0.0
  0
LINE
  5
D4
330
1F
100
AcDbEntity
  8
0
  6
Continuous
 62
     7
370
     0
100
AcDbLine
 10
86.4989779192
 20
151.0322788926
 30
0.0
 11
86.4989779192
 21
137.955582062
 31
0.0
  0
LINE
  5
D5
330
1F
100
AcDbEntity
  8
0
  6
Continuous
 62
     7
370
     0
100
AcDbLine
 10
65.9989777207
 20
122.3939295575
 30
0.0
 11
65.9989779192
 21
121.7939304773
 31
0.0
  0
LINE
  5
D6
330
1F
100
AcDbEntity
  8
0
  6
Continuous
 62
     7
370
     0
100
AcDbLine
 10
65.9989779192
 20
121.7939304773
 30
0.0
 11
57.9989779192
 21
121.7939304773
 31
0.0
  0
LINE
  5
D7
330
1F
100
AcDbEntity
  8
0
  6
Continuous
 62
     7
370
     0
100
AcDbLine
 10
57.9989779228
 20
122.3939295575
 30
0.0
 11
57.9989779192
 21
121.7939304773
 31
0.0
  0
LINE
  5
D8
330
1F
100
AcDbEntity
  8
0
  6
Continuous
 62
     7
370
     0
100
AcDbLine
 10
66.9989778846
 20
122.3939295575
 30
0.0
 11
66.9989779192
 21
121.7939304773
 31
0.0
  0
LINE
  5
D9
330
1F
100
AcDbEntity
  8
0
  6
Continuous
 62
     7
370
     0
100
AcDbLine
 10
66.9989779192
 20
121.7939304773
 30
0.0
 11
65.9989779192
 21
121.7939304773
 31
0.0
  0
LINE
  5
DA
330
1F
100
AcDbEntity
  8
0
  6
Continuous
 62
     7
370
     0
100
AcDbLine
 10
56.9989779192
 20
121.7939304773
 30
0.0
 11
56.9989779335
 21
122.3939295575
 31
0.0
  0
LINE
  5
DB
330
1F
100
AcDbEntity
  8
0
  6
Continuous
 62
     7
370
     0
100
AcDbLine
 10
56.9989779192
 20
121.7939304773
 30
0.0
 11
57.9989779192
 21
121.7939304773
 31
0.0
  0
LINE
  5
DC
330
1F
100
AcDbEntity
  8
0
  6
Continuous
 62
     7
370
     0
100
AcDbLine
 10
61.9989779964
 20
119.7939302489
 30
0.0
 11
61.9989779964
 21
121.7939305767
 31
0.0
  0
LINE
  5
DD
330
1F
100
AcDbEntity
  8
0
  6
Continuous
 62
     7
370
     0
100
AcDbLine
 10
65.9989779192
 20
121.7939304773
 30
0.0
 11
65.9989777207
 21
119.7939302489
 31
0.0
  0
LINE
  5
DE
330
1F
100
AcDbEntity
  8
0
  6
Continuous
 62
     7
370
     0
100
AcDbLine
 10
65.9989777207
 20
119.7939302489
 30
0.0
 11
61.9989779964
 21
119.7939302489
 31
0.0
  0
LINE
  5
DF
330
1F
100
AcDbEntity
  8
0
  6
Continuous
 62
     7
370
     0
100
AcDbLine
 10
57.9989779192
 20
121.7939304773
 30
0.0
 11
57.9989779228
 21
119.7939302489
 31
0.0
  0
LINE
  5
E0
330
1F
100
AcDbEntity
  8
0
  6
Continuous
 62
     7
370
     0
100
AcDbLine
 10
61.9989779964
 20
119.7939302489
 30
0.0
 11
57.9989779228
 21
119.7939302489
 31
0.0
  0
ARC
  5
E1
330
1F
100
AcDbEntity
  8
0
  6
Continuous
 62
     7
370
     0
100
AcDbCircle
 10
77.5593282435
 20
144.2783609967
 30
0.0
 40
15.94110788736034
100
AcDbArc
 50
0.7748274941
 51
25.0670961808
  0
LINE
  5
E2
330
1F
100
AcDbEntity
  8
0
  6
Continuous
 62
     7
370
     0
100
AcDbLine
 10
93.4989779192
 20
157.9939304773
 30
0.0
 11
93.4989779192
 21
144.4939304773
 31
0.0
  0
ARC
  5
E3
330
1F
100
AcDbEntity
  8
0
  6
Continuous
 62
     7
370
     0
100
AcDbCircle
 10
77.5593231991
 20
144.7095006495
 30
0.0
 40
15.94111293560907
100
AcDbArc
 50
334.9329078206
 51
359.2251716172
  0
LINE
  5
E4
330
1F
100
AcDbEntity
  8
0
  6
Continuous
 62
     7
370
     0
100
AcDbLine
 10
93.4989779192
 20
144.4939304773
 30
0.0
 11
93.4989779192
 21
130.9939304773
 31
0.0
  0
ARC
  5
E5
330
1F
100
AcDbEntity
  8
0
  6
Continuous
 62
     7
370
     0
100
AcDbCircle
 10
143.1600692185
 20
306.4803478305
 30
0.0
 40
138.2649044981569
100
AcDbArc
 50
238.7824916005
 51
239.0953566885
  0
LINE
  5
E6
330
1F
100
AcDbEntity
  8
0
  6
Continuous
 62
     7
370
     0
100
AcDbLine
 10
56.4989779192
 20
190.1939304773
 30
0.0
 11
49.4989779192
 21
190.1939304773
 31
0.0
  0
LINE
  5
E7
330
1F
100
AcDbEntity
  8
0
  6
Continuous
 62
     7
370
     0
100
AcDbLine
 10
56.7989779192
 20
190.4939304773
 30
0.0
 11
49.1989779192
 21
190.4939304773
 31
0.0
  0
LWPOLYLINE
  5
E8
330
1F
100
AcDbEntity
  8
0
  6
Continuous
 62
     7
370
     0
100
AcDbPolyline
 90
        6
 70
   128
 43
0.0
 10
72.4529789015
 20
187.9845887139
 10
72.3528505489
 20
188.0423977688
 10
71.8843757361
 20
188.3128724709
 10
71.5622219443
 20
188.4988687649
 10
71.3439469412
 20
188.6248878851
 10
71.2391703576
 20
188.6853828743
  0
LINE
  5
E9
330
1F
100
AcDbEntity
  8
0
  6
Continuous
 62
     7
370
     0
100
AcDbLine
 10
41.9575252756
 20
125.9939308926
 30
0.0
 11
41.9575252756
 21
122.9939304009
 31
0.0
  0
LINE
  5
EA
330
1F
100
AcDbEntity
  8
0
  6
Continuous
 62
     7
370
     0
100
AcDbLine
 10
43.9782521873
 20
122.9939304009
 30
0.0
 11
43.9782521873
 21
125.9939308926
 31
0.0
  0
LINE
  5
EB
330
1F
100
AcDbEntity
  8
0
  6
Continuous
 62
     7
370
     0
100
AcDbLine
 10
43.9782521873
 20
122.9939304009
 30
0.0
 11
41.9575252756
 21
122.9939304009
 31
0.0
  0
LINE
  5
EC
330
1F
100
AcDbEntity
  8
0
  6
Continuous
 62
     7
370
     0
100
AcDbLine
 10
48.0197041481
 20
125.9939308926
 30
0.0
 11
48.0197041481
 21
122.9939304009
 31
0.0
  0
LINE
  5
ED
330
1F
100
AcDbEntity
  8
0
  6
Continuous
 62
     7
370
     0
100
AcDbLine
 10
48.0197041481
 20
122.9939304009
 30
0.0
 11
43.9782521873
 21
122.9939304009
 31
0.0
  0
LINE
  5
EE
330
1F
100
AcDbEntity
  8
0
  6
Continuous
 62
     7
370
     0
100
AcDbLine
 10
50.0404301285
 20
125.9939308926
 30
0.0
 11
50.0404301285
 21
122.9939304009
 31
0.0
  0
LINE
  5
EF
330
1F
100
AcDbEntity
  8
0
  6
Continuous
 62
     7
370
     0
100
AcDbLine
 10
50.0404301285
 20
122.9939304009
 30
0.0
 11
48.0197041481
 21
122.9939304009
 31
0.0
  0
LINE
  5
F0
330
1F
100
AcDbEntity
  8
0
  6
Continuous
 62
     7
370
     0
100
AcDbLine
 10
78.498977907
 20
184.4939320996
 30
0.0
 11
77.9989787563
 21
184.7826048449
 31
0.0
  0
LINE
  5
F1
330
1F
100
AcDbEntity
  8
0
  6
Continuous
 62
     7
370
     0
100
AcDbLine
 10
96.9989779192
 20
144.4939304773
 30
0.0
 11
96.9989779192
 21
136.4939304773
 31
0.0
  0
LINE
  5
F2
330
1F
100
AcDbEntity
  8
0
  6
Continuous
 62
     7
370
     0
100
AcDbLine
 10
96.9989779192
 20
152.4939304773
 30
0.0
 11
96.9989779192
 21
144.4939304773
 31
0.0
  0
LINE
  5
F3
330
1F
100
AcDbEntity
  8
0
  6
Continuous
 62
     7
370
     0
100
AcDbLine
 10
95.9989779192
 20
144.4939304773
 30
0.0
 11
95.9989779192
 21
135.4939304773
 31
0.0
  0
LINE
  5
F4
330
1F
100
AcDbEntity
  8
0
  6
Continuous
 62
     7
370
     0
100
AcDbLine
 10
95.9989779192
 20
153.4939304773
 30
0.0
 11
95.9989779192
 21
144.4939304773
 31
0.0
  0
LINE
  5
F5
330
1F
100
AcDbEntity
  8
0
  6
Continuous
 62
     7
370
     0
100
AcDbLine
 10
99.9989779192
 20
152.3939304773
 30
0.0
 11
101.9989779192
 21
152.3939304773
 31
0.0
  0
LINE
  5
F6
330
1F
100
AcDbEntity
  8
0
  6
Continuous
 62
     7
370
     0
100
AcDbLine
 10
101.9989779192
 20
146.9882695573
 30
0.0
 11
101.9989779192
 21
152.3939304773
 31
0.0
  0
LINE
  5
F7
330
1F
100
AcDbEntity
  8
0
  6
Continuous
 62
     7
370
     0
100
AcDbLine
 10
99.9989779192
 20
146.9882695573
 30
0.0
 11
99.9989779192
 21
152.3939304773
 31
0.0
  0
LINE
  5
F8
330
1F
100
AcDbEntity
  8
0
  6
Continuous
 62
     7
370
     0
100
AcDbLine
 10
101.9989771023
 20
145.9939304456
 30
0.0
 11
102.5989760831
 21
145.9939304456
 31
0.0
  0
LINE
  5
F9
330
1F
100
AcDbEntity
  8
0
  6
Continuous
 62
     7
370
     0
100
AcDbLine
 10
102.5989779192
 20
147.2439304773
 30
0.0
 11
101.9989771023
 21
147.2439301848
 31
0.0
  0
LINE
  5
FA
330
1F
100
AcDbEntity
  8
0
  6
Continuous
 62
     7
370
     0
100
AcDbLine
 10
102.5989779192
 20
147.2439304773
 30
0.0
 11
102.5989760831
 21
145.9939304456
 31
0.0
  0
LINE
  5
FB
330
1F
100
AcDbEntity
  8
0
  6
Continuous
 62
     7
370
     0
100
AcDbLine
 10
101.9989771023
 20
141.7439304475
 30
0.0
 11
102.5989779192
 21
141.7439304773
 31
0.0
  0
LINE
  5
FC
330
1F
100
AcDbEntity
  8
0
  6
Continuous
 62
     7
370
     0
100
AcDbLine
 10
102.5989779192
 20
141.7439304773
 30
0.0
 11
102.5989779192
 21
138.9939304773
 31
0.0
  0
LINE
  5
FD
330
1F
100
AcDbEntity
  8
0
  6
Continuous
 62
     7
370
     0
100
AcDbLine
 10
102.5989779192
 20
149.9939304773
 30
0.0
 11
102.5989779192
 21
147.2439304773
 31
0.0
  0
LINE
  5
FE
330
1F
100
AcDbEntity
  8
0
  6
Continuous
 62
     7
370
     0
100
AcDbLine
 10
102.5989760831
 20
142.9939304195
 30
0.0
 11
101.9989771023
 21
142.9939304195
 31
0.0
  0
LINE
  5
FF
330
1F
100
AcDbEntity
  8
0
  6
Continuous
 62
     7
370
     0
100
AcDbLine
 10
102.5989760831
 20
142.9939304195
 30
0.0
 11
102.5989779192
 21
141.7439304773
 31
0.0
  0
LINE
  5
100
330
1F
100
AcDbEntity
  8
0
  6
Continuous
 62
     7
370
     0
100
AcDbLine
 10
101.9989771023
 20
130.473204115
 30
0.0
 11
104.9989794567
 21
130.473204115
 31
0.0
  0
LINE
  5
101
330
1F
100
AcDbEntity
  8
0
  6
Continuous
 62
     7
370
     0
100
AcDbLine
 10
101.9989771023
 20
134.5146565415
 30
0.0
 11
104.9989794567
 21
134.5146565415
 31
0.0
  0
LINE
  5
102
330
1F
100
AcDbEntity
  8
0
  6
Continuous
 62
     7
370
     0
100
AcDbLine
 10
104.9989794567
 20
134.5146565415
 30
0.0
 11
104.9989794567
 21
130.473204115
 31
0.0
  0
LINE
  5
103
330
1F
100
AcDbEntity
  8
0
  6
Continuous
 62
     7
370
     0
100
AcDbLine
 10
104.9989794567
 20
136.535382289
 30
0.0
 11
101.9989771023
 21
136.535382289
 31
0.0
  0
LINE
  5
104
330
1F
100
AcDbEntity
  8
0
  6
Continuous
 62
     7
370
     0
100
AcDbLine
 10
104.9989794567
 20
136.535382289
 30
0.0
 11
104.9989794567
 21
134.5146565415
 31
0.0
  0
LINE
  5
105
330
1F
100
AcDbEntity
  8
0
  6
Continuous
 62
     7
370
     0
100
AcDbLine
 10
101.9989771023
 20
128.4524781346
 30
0.0
 11
104.9989794567
 21
128.4524781346
 31
0.0
  0
LINE
  5
106
330
1F
100
AcDbEntity
  8
0
  6
Continuous
 62
     7
370
     0
100
AcDbLine
 10
104.9989794567
 20
130.473204115
 30
0.0
 11
104.9989794567
 21
128.4524781346
 31
0.0
  0
LINE
  5
107
330
1F
100
AcDbEntity
  8
0
  6
Continuous
 62
     7
370
     0
100
AcDbLine
 10
103.7989779192
 20
144.4939304773
 30
0.0
 11
103.7989779192
 21
141.4939304773
 31
0.0
  0
LINE
  5
108
330
1F
100
AcDbEntity
  8
0
  6
Continuous
 62
     7
370
     0
100
AcDbLine
 10
103.7989779192
 20
147.4939304773
 30
0.0
 11
103.7989779192
 21
144.4939304773
 31
0.0
  0
LINE
  5
109
330
1F
100
AcDbEntity
  8
0
  6
Continuous
 62
     7
370
     0
100
AcDbLine
 10
104.0989779192
 20
144.4939304773
 30
0.0
 11
104.0989779192
 21
141.7939304773
 31
0.0
  0
LINE
  5
10A
330
1F
100
AcDbEntity
  8
0
  6
Continuous
 62
     7
370
     0
100
AcDbLine
 10
104.0989779192
 20
147.1939304773
 30
0.0
 11
104.0989779192
 21
144.4939304773
 31
0.0
  0
LINE
  5
10B
330
1F
100
AcDbEntity
  8
0
  6
Continuous
 62
     7
370
     0
100
AcDbLine
 10
108.5989779192
 20
132.4939304773
 30
0.0
 11
108.5989779192
 21
130.4939304773
 31
0.0
  0
LINE
  5
10C
330
1F
100
AcDbEntity
  8
0
  6
Continuous
 62
     7
370
     0
100
AcDbLine
 10
108.5989779192
 20
134.4939304773
 30
0.0
 11
108.5989779192
 21
132.4939304773
 31
0.0
  0
LINE
  5
10D
330
1F
100
AcDbEntity
  8
0
  6
Continuous
 62
     7
370
     0
100
AcDbLine
 10
108.9989779192
 20
132.4939304773
 30
0.0
 11
108.9989779192
 21
130.8939304773
 31
0.0
  0
LINE
  5
10E
330
1F
100
AcDbEntity
  8
0
  6
Continuous
 62
     7
370
     0
100
AcDbLine
 10
108.9989779192
 20
134.0939304773
 30
0.0
 11
108.9989779192
 21
132.4939304773
 31
0.0
  0
LINE
  5
10F
330
1F
100
AcDbEntity
  8
0
  6
Continuous
 62
     7
370
     0
100
AcDbLine
 10
111.5989779192
 20
144.4939304773
 30
0.0
 11
111.5989779192
 21
142.9939304773
 31
0.0
  0
LINE
  5
110
330
1F
100
AcDbEntity
  8
0
  6
Continuous
 62
     7
370
     0
100
AcDbLine
 10
111.5989779192
 20
145.9939304773
 30
0.0
 11
111.5989779192
 21
144.4939304773
 31
0.0
  0
LINE
  5
111
330
1F
100
AcDbEntity
  8
0
  6
Continuous
 62
     7
370
     0
100
AcDbLine
 10
108.7989779192
 20
146.2939304773
 30
0.0
 11
108.7989779192
 21
142.6939304773
 31
0.0
  0
LINE
  5
112
330
1F
100
AcDbEntity
  8
0
  6
Continuous
 62
     7
370
     0
100
AcDbLine
 10
106.2989779192
 20
144.4939304773
 30
0.0
 11
106.2989779192
 21
142.6939304773
 31
0.0
  0
LINE
  5
113
330
1F
100
AcDbEntity
  8
0
  6
Continuous
 62
     7
370
     0
100
AcDbLine
 10
106.2989779192
 20
146.2939304773
 30
0.0
 11
106.2989779192
 21
144.4939304773
 31
0.0
  0
LINE
  5
114
330
1F
100
AcDbEntity
  8
0
  6
Continuous
 62
     7
370
     0
100
AcDbLine
 10
106.0989779192
 20
146.2939304773
 30
0.0
 11
106.0989779192
 21
142.6939304773
 31
0.0
  0
LINE
  5
115
330
1F
100
AcDbEntity
  8
0
  6
Continuous
 62
     7
370
     0
100
AcDbLine
 10
108.5989779192
 20
146.2939304773
 30
0.0
 11
108.5989779192
 21
142.6939304773
 31
0.0
  0
LINE
  5
116
330
1F
100
AcDbEntity
  8
0
  6
Continuous
 62
     7
370
     0
100
AcDbLine
 10
78.498977907
 20
166.5146566644
 30
0.0
 11
81.4989783987
 21
166.5146566644
 31
0.0
  0
LINE
  5
117
330
1F
100
AcDbEntity
  8
0
  6
Continuous
 62
     7
370
     0
100
AcDbLine
 10
81.4989783987
 20
168.5353826448
 30
0.0
 11
78.498977907
 21
168.5353826448
 31
0.0
  0
LINE
  5
118
330
1F
100
AcDbEntity
  8
0
  6
Continuous
 62
     7
370
     0
100
AcDbLine
 10
81.4989783987
 20
168.5353826448
 30
0.0
 11
81.4989783987
 21
166.5146566644
 31
0.0
  0
LINE
  5
119
330
1F
100
AcDbEntity
  8
0
  6
Continuous
 62
     7
370
     0
100
AcDbLine
 10
78.498977907
 20
162.4732047036
 30
0.0
 11
81.4989783987
 21
162.4732047036
 31
0.0
  0
LINE
  5
11A
330
1F
100
AcDbEntity
  8
0
  6
Continuous
 62
     7
370
     0
100
AcDbLine
 10
81.4989783987
 20
166.5146566644
 30
0.0
 11
81.4989783987
 21
162.4732047036
 31
0.0
  0
LINE
  5
11B
330
1F
100
AcDbEntity
  8
0
  6
Continuous
 62
     7
370
     0
100
AcDbLine
 10
78.498977907
 20
160.4524787232
 30
0.0
 11
81.4989783987
 21
160.4524787232
 31
0.0
  0
LINE
  5
11C
330
1F
100
AcDbEntity
  8
0
  6
Continuous
 62
     7
370
     0
100
AcDbLine
 10
81.4989783987
 20
162.4732047036
 30
0.0
 11
81.4989783987
 21
160.4524787232
 31
0.0
  0
LINE
  5
11D
330
1F
100
AcDbEntity
  8
0
  6
Continuous
 62
     7
370
     0
100
AcDbLine
 10
88.9989779192
 20
164.4939304773
 30
0.0
 11
88.9989779192
 21
162.9939304773
 31
0.0
  0
LINE
  5
11E
330
1F
100
AcDbEntity
  8
0
  6
Continuous
 62
     7
370
     0
100
AcDbLine
 10
88.9989779192
 20
165.9939304773
 30
0.0
 11
88.9989779192
 21
164.4939304773
 31
0.0
  0
LINE
  5
11F
330
1F
100
AcDbEntity
  8
0
  6
Continuous
 62
     7
370
     0
100
AcDbLine
 10
86.1989779192
 20
164.4939304773
 30
0.0
 11
86.1989779192
 21
162.6939304773
 31
0.0
  0
LINE
  5
120
330
1F
100
AcDbEntity
  8
0
  6
Continuous
 62
     7
370
     0
100
AcDbLine
 10
86.1989779192
 20
166.2939304773
 30
0.0
 11
86.1989779192
 21
164.4939304773
 31
0.0
  0
LINE
  5
121
330
1F
100
AcDbEntity
  8
0
  6
Continuous
 62
     7
370
     0
100
AcDbLine
 10
85.9989779192
 20
166.2939304773
 30
0.0
 11
85.9989779192
 21
162.6939304773
 31
0.0
  0
LINE
  5
122
330
1F
100
AcDbEntity
  8
0
  6
Continuous
 62
     7
370
     0
100
AcDbLine
 10
83.6989779192
 20
164.4939304773
 30
0.0
 11
83.6989779192
 21
162.6939304773
 31
0.0
  0
LINE
  5
123
330
1F
100
AcDbEntity
  8
0
  6
Continuous
 62
     7
370
     0
100
AcDbLine
 10
83.6989779192
 20
166.2939304773
 30
0.0
 11
83.6989779192
 21
164.4939304773
 31
0.0
  0
LINE
  5
124
330
1F
100
AcDbEntity
  8
0
  6
Continuous
 62
     7
370
     0
100
AcDbLine
 10
83.4989779192
 20
166.2939304773
 30
0.0
 11
83.4989779192
 21
162.6939304773
 31
0.0
  0
LINE
  5
125
330
1F
100
AcDbEntity
  8
0
  6
Continuous
 62
     7
370
     0
100
AcDbLine
 10
49.9989779192
 20
187.4939304773
 30
0.0
 11
55.9989779192
 21
187.4939304773
 31
0.0
  0
LINE
  5
126
330
1F
100
AcDbEntity
  8
0
  6
Continuous
 62
     7
370
     0
100
AcDbLine
 10
71.9989779192
 20
187.4939304773
 30
0.0
 11
77.9989779192
 21
187.4939304773
 31
0.0
  0
DIMENSION
  5
127
330
1F
100
AcDbEntity
  8
0
  6
Continuous
 62
     7
370
     0
100
AcDbDimension
  2
*D2
 10
29.2229797707
 20
119.3939304773
 30
0.0
 11
29.2229797707
 21
154.9439304773
 31
0.0
 70
   160
  1
71
 71
     1
 42
71.1
  3
SLDDIMSTYLE0
100
AcDbAlignedDimension
 13
39.9989779192
 23
190.4939304773
 33
0.0
 14
39.9989779192
 24
119.3939304773
 34
0.0
 50
90.0
100
AcDbRotatedDimension
1001
ACAD
1000
DSTYLE
1002
{
1070
    77
1070
     3
1070
   143
1040
0.0393700787
1070
    41
1040
3.0
1070
    44
1040
1.0
1070
    42
1040
1.0
1070
   147
1040
1.524
1070
    73
1070
     0
1070
    74
1070
     0
1070
   140
1040
3.5
1070
   284
1070
    12
1070
    78
1070
    12
1002
}
  0
DIMENSION
  5
143
330
1F
100
AcDbEntity
  8
0
  6
Continuous
 62
     7
370
     0
100
AcDbDimension
  2
*D4
 10
120.8446969471
 20
144.4939304773
 30
0.0
 11
120.8446969471
 21
154.4939304773
 31
0.0
 70
   160
 71
     1
 42
20.0
  3
SLDDIMSTYLE0
100
AcDbAlignedDimension
 13
85.4989779192
 23
164.4939304773
 33
0.0
 14
108.0989779192
 24
144.4939304773
 34
0.0
 50
90.0
100
AcDbRotatedDimension
1001
ACAD
1000
DSTYLE
1002
{
1070
    77
1070
     3
1070
   143
1040
0.0393700787
1070
    41
1040
3.0
1070
    44
1040
1.0
1070
    42
1040
1.0
1070
   147
1040
1.524
1070
    73
1070
     0
1070
    74
1070
     0
1070
   140
1040
3.5
1070
   284
1070
    12
1070
    78
1070
    12
1002
}
  0
DIMENSION
  5
157
330
1F
100
AcDbEntity
  8
0
  6
Continuous
 62
     7
370
     0
100
AcDbDimension
  2
*D5
 10
120.8446969471
 20
144.4939304773
 30
0.0
 11
120.8446969471
 21
131.9439304773
 31
0.0
 70
   160
 71
     1
 42
25.1
  3
SLDDIMSTYLE0
100
AcDbAlignedDimension
 13
98.9989779192
 23
119.3939304773
 33
0.0
 14
108.0989779192
 24
144.4939304773
 34
0.0
 50
90.0
100
AcDbRotatedDimension
1001
ACAD
1000
DSTYLE
1002
{
1070
    77
1070
     3
1070
   143
1040
0.0393700787
1070
    41
1040
3.0
1070
    44
1040
1.0
1070
    42
1040
1.0
1070
   147
1040
1.524
1070
    73
1070
     0
1070
    74
1070
     0
1070
   140
1040
3.5
1070
   284
1070
    12
1070
    78
1070
    12
1002
}
  0
DIMENSION
  5
16B
330
1F
100
AcDbEntity
  8
0
  6
Continuous
 62
     7
370
     0
100
AcDbDimension
  2
*D6
 10
46.9989779192
 20
219.3321581558
 30
0.0
 11
42.4989779192
 21
219.3321581558
 31
0.0
 70
   160
 71
     1
 42
9.0
  3
SLDDIMSTYLE0
100
AcDbAlignedDimension
 13
37.9989779192
 23
194.4939304773
 33
0.0
 14
46.9989779192
 24
193.9939301696
 34
0.0
100
AcDbRotatedDimension
1001
ACAD
1000
DSTYLE
1002
{
1070
    77
1070
     3
1070
   143
1040
0.0393700787
1070
    41
1040
3.0
1070
    44
1040
1.0
1070
    42
1040
1.0
1070
   147
1040
1.524
1070
    73
1070
     0
1070
    74
1070
     0
1070
   140
1040
3.5
1070
   284
1070
    12
1070
    78
1070
    12
1002
}
  0
LINE
  5
182
330
1F
100
AcDbEntity
  8
0
  6
CENTERX2
 62
     7
370
     0
100
AcDbLine
 10
79.4989779192
 20
164.4939304773
 30
0.0
 11
85.4989779192
 21
164.4939304773
 31
0.0
  0
LINE
  5
183
330
1F
100
AcDbEntity
  8
0
  6
CENTERX2
 62
     7
370
     0
100
AcDbLine
 10
102.0989779192
 20
144.4939304773
 30
0.0
 11
108.0989779192
 21
144.4939304773
 31
0.0
  0
LINE
  5
184
330
1F
100
AcDbEntity
  8
0
  6
Continuous
 62
     7
370
     0
100
AcDbLine
 10
151.1097286858
 20
187.4939304773
 30
0.0
 11
151.1097289391
 21
184.4939320996
 31
0.0
  0
LINE
  5
185
330
1F
100
AcDbEntity
  8
0
  6
Continuous
 62
     7
370
     0
100
AcDbLine
 10
157.1097289913
 20
184.4939320996
 30
0.0
 11
157.1097286858
 21
187.4939304773
 31
0.0
  0
ARC
  5
186
330
1F
100
AcDbEntity
  8
0
  6
Continuous
 62
     7
370
     0
100
AcDbCircle
 10
151.6097286858
 20
187.4939304773
 30
0.0
 40
0.4999999999979252
100
AcDbArc
 50
90.0
 51
180.0
  0
ARC
  5
187
330
1F
100
AcDbEntity
  8
0
  6
Continuous
 62
     7
370
     0
100
AcDbCircle
 10
156.6097286858
 20
187.4939304773
 30
0.0
 40
0.4999999999978968
100
AcDbArc
 50
360.0
 51
90.0
  0
LINE
  5
188
330
1F
100
AcDbEntity
  8
0
  6
Continuous
 62
     7
370
     0
100
AcDbLine
 10
176.1097286858
 20
187.4939304773
 30
0.0
 11
176.1097283803
 21
184.4939320996
 31
0.0
  0
LINE
  5
189
330
1F
100
AcDbEntity
  8
0
  6
Continuous
 62
     7
370
     0
100
AcDbLine
 10
182.1097284325
 20
184.4939320996
 30
0.0
 11
182.1097286858
 21
187.4939304773
 31
0.0
  0
ARC
  5
18A
330
1F
100
AcDbEntity
  8
0
  6
Continuous
 62
     7
370
     0
100
AcDbCircle
 10
176.6097286858
 20
187.4939304773
 30
0.0
 40
0.4999999999991666
100
AcDbArc
 50
89.9999841127
 51
180.0
  0
ARC
  5
18B
330
1F
100
AcDbEntity
  8
0
  6
Continuous
 62
     7
370
     0
100
AcDbCircle
 10
181.6097286858
 20
187.4939304773
 30
0.0
 40
0.5000000000008242
100
AcDbArc
 50
0.0
 51
90.0000158873
  0
LINE
  5
18C
330
1F
100
AcDbEntity
  8
0
  6
Continuous
 62
     7
370
     0
100
AcDbLine
 10
168.3054003397
 20
196.4939304773
 30
0.0
 11
175.3619638972
 21
196.4939303413
 31
0.0
  0
ARC
  5
18D
330
1F
100
AcDbEntity
  8
0
  6
Continuous
 62
     7
370
     0
100
AcDbCircle
 10
167.8097263954
 20
196.4282780419
 30
0.0
 40
0.5000029300351353
100
AcDbArc
 50
7.5449421203
 51
83.7368381774
  0
LWPOLYLINE
  5
18E
330
1F
100
AcDbEntity
  8
0
  6
Continuous
 62
     7
370
     0
100
AcDbPolyline
 90
        4
 70
   128
 43
0.0
 10
167.8642743269
 20
196.9252966061
 10
167.8805780599
 20
197.0738537326
 10
167.8988361733
 20
197.2402214721
 10
167.9188197946
 20
197.4223099366
  0
LWPOLYLINE
  5
18F
330
1F
100
AcDbEntity
  8
0
  6
Continuous
 62
     7
370
     0
100
AcDbPolyline
 90
        6
 70
   128
 43
0.0
 10
167.9188197946
 20
197.4223099366
 10
169.258800545
 20
197.275254102
 10
170.5093751431
 20
197.1380106821
 10
171.6604740128
 20
197.0116823628
 10
172.7028297961
 20
196.8972861484
 10
173.6280503452
 20
196.7957459107
  0
ELLIPSE
  5
190
330
1F
100
AcDbEntity
  8
0
  6
Continuous
 62
     7
370
     0
100
AcDbEllipse
 10
174.8772531206
 20
198.4939304773
 30
0.0
 11
1.577908738171516
 21
1.41421356237538
 31
0.0
210
0.0
220
0.0
230
1.0
 40
0.8962581474
 41
2.356194490193071
 42
3.37045792838301
  0
LINE
  5
191
330
1F
100
AcDbEntity
  8
0
  6
Continuous
 62
     7
370
     0
100
AcDbLine
 10
172.8652450025
 20
198.4939306691
 30
0.0
 11
175.5550024136
 21
198.4939304773
 31
0.0
  0
LWPOLYLINE
  5
192
330
1F
100
AcDbEntity
  8
0
  6
Continuous
 62
     7
370
     0
100
AcDbPolyline
 90
        3
 70
   128
 43
0.0
 10
175.4560861506
 20
197.3515666738
 10
175.5154095359
 20
197.9608155504
 10
175.5550028525
 20
198.4939306691
  0
LWPOLYLINE
  5
193
330
1F
100
AcDbEntity
  8
0
  6
Continuous
 62
     7
370
     0
100
AcDbPolyline
 90
        6
 70
   128
 43
0.0
 10
175.3619638972
 20
196.4939303413
 10
175.3660216697
 20
196.5309001222
 10
175.3780431815
 20
196.6404385581
 10
175.3975841917
 20
196.8184999838
 10
175.4239229255
 20
197.058498086
 10
175.4560861506
 20
197.3515666738
  0
LWPOLYLINE
  5
194
330
1F
100
AcDbEntity
  8
0
  6
Continuous
 62
     7
370
     0
100
AcDbPolyline
 90
        4
 70
   128
 43
0.0
 10
165.3006375769
 20
197.4223099366
 10
165.3206211982
 20
197.2402214721
 10
165.3388793117
 20
197.0738537326
 10
165.3551830446
 20
196.9252966061
  0
ARC
  5
195
330
1F
100
AcDbEntity
  8
0
  6
Continuous
 62
     7
370
     0
100
AcDbCircle
 10
165.409727606
 20
196.4282822909
 30
0.0
 40
0.4999983387006338
100
AcDbArc
 50
96.2628310527
 51
172.4554793508
  0
LINE
  5
196
330
1F
100
AcDbEntity
  8
0
  6
Continuous
 62
     7
370
     0
100
AcDbLine
 10
157.8574934743
 20
196.4939303413
 30
0.0
 11
164.9140577408
 21
196.4939304773
 31
0.0
  0
LWPOLYLINE
  5
197
330
1F
100
AcDbEntity
  8
0
  6
Continuous
 62
     7
370
     0
100
AcDbPolyline
 90
        6
 70
   128
 43
0.0
 10
157.763371221
 20
197.3515666738
 10
157.7955344461
 20
197.058498086
 10
157.8218731798
 20
196.8184999838
 10
157.8414141901
 20
196.6404385581
 10
157.8534357019
 20
196.5309001222
 10
157.8574934743
 20
196.4939303413
  0
LWPOLYLINE
  5
198
330
1F
100
AcDbEntity
  8
0
  6
Continuous
 62
     7
370
     0
100
AcDbPolyline
 90
        3
 70
   128
 43
0.0
 10
157.763371221
 20
197.3515666738
 10
157.7040478356
 20
197.9608155504
 10
157.664454519
 20
198.4939306691
  0
LINE
  5
199
330
1F
100
AcDbEntity
  8
0
  6
Continuous
 62
     7
370
     0
100
AcDbLine
 10
157.664454958
 20
198.4939304773
 30
0.0
 11
160.354212369
 21
198.4939306691
 31
0.0
  0
ELLIPSE
  5
19A
330
1F
100
AcDbEntity
  8
0
  6
Continuous
 62
     7
370
     0
100
AcDbEllipse
 10
158.3422042509
 20
198.4939304773
 30
0.0
 11
1.577908738171544
 21
-1.414213562375352
 31
0.0
210
0.0
220
0.0
230
1.0
 40
0.8962581474
 41
6.054320032385113
 42
7.068583470576332
  0
LWPOLYLINE
  5
19B
330
1F
100
AcDbEntity
  8
0
  6
Continuous
 62
     7
370
     0
100
AcDbPolyline
 90
        6
 70
   128
 43
0.0
 10
159.5914070264
 20
196.7957459107
 10
160.5166275755
 20
196.8972861484
 10
161.5589833588
 20
197.0116823628
 10
162.7100822285
 20
197.1380106821
 10
163.9606568266
 20
197.275254102
 10
165.3006375769
 20
197.4223099366
  0
LINE
  5
19C
330
1F
100
AcDbEntity
  8
0
  6
Continuous
 62
     7
370
     0
100
AcDbLine
 10
164.9127130402
 20
196.3737341697
 30
0.0
 11
165.1308950847
 21
194.3856707645
 31
0.0
  0
ARC
  5
19D
330
1F
100
AcDbEntity
  8
0
  6
Continuous
 62
     7
370
     0
100
AcDbCircle
 10
165.6279110402
 20
194.4402161696
 30
0.0
 40
0.5000000612744578
100
AcDbArc
 50
186.2629066589
 51
276.2725315238
  0
ARC
  5
19E
330
1F
100
AcDbEntity
  8
0
  6
Continuous
 62
     7
370
     0
100
AcDbCircle
 10
166.6097290402
 20
185.4939301696
 30
0.0
 40
8.499999999987173
100
AcDbArc
 50
83.7370877467
 51
96.2623460652
  0
ARC
  5
19F
330
1F
100
AcDbEntity
  8
0
  6
Continuous
 62
     7
370
     0
100
AcDbCircle
 10
167.5915470402
 20
194.4402161696
 30
0.0
 40
0.5000000612812061
100
AcDbArc
 50
263.7370937645
 51
353.7371057007
  0
LINE
  5
1A0
330
1F
100
AcDbEntity
  8
0
  6
Continuous
 62
     7
370
     0
100
AcDbLine
 10
168.0885630075
 20
194.3856708717
 30
0.0
 11
168.3067450497
 21
196.3737342565
 31
0.0
  0
LINE
  5
1A1
330
1F
100
AcDbEntity
  8
0
  6
Continuous
 62
     7
370
     0
100
AcDbLine
 10
174.7034890346
 20
190.4939293578
 30
0.0
 11
175.3619638972
 21
196.4939303413
 31
0.0
  0
LINE
  5
1A2
330
1F
100
AcDbEntity
  8
0
  6
Continuous
 62
     7
370
     0
100
AcDbLine
 10
158.5159683369
 20
190.4939293578
 30
0.0
 11
157.8574934743
 21
196.4939303413
 31
0.0
  0
ARC
  5
1A3
330
1F
100
AcDbEntity
  8
0
  6
Continuous
 62
     7
370
     0
100
AcDbCircle
 10
165.4097290402
 20
196.4282801696
 30
0.0
 40
0.5000001703643006
100
AcDbArc
 50
172.4550962355
 51
186.2629738559
  0
ARC
  5
1A4
330
1F
100
AcDbEntity
  8
0
  6
Continuous
 62
     7
370
     0
100
AcDbCircle
 10
167.8097290402
 20
196.4282801696
 30
0.0
 40
0.5000001703804391
100
AcDbArc
 50
353.7370361468
 51
7.5449037697
  0
LINE
  5
1A5
330
1F
100
AcDbEntity
  8
0
  6
Continuous
 62
     7
370
     0
100
AcDbLine
 10
169.6097289447
 20
212.8298051372
 30
0.0
 11
167.9188197946
 21
197.4223099366
 31
0.0
  0
LINE
  5
1A6
330
1F
100
AcDbEntity
  8
0
  6
Continuous
 62
     7
370
     0
100
AcDbLine
 10
170.8413683578
 20
213.8178415313
 30
0.0
 11
169.6097289447
 21
212.8298051372
 31
0.0
  0
ELLIPSE
  5
1A7
330
1F
100
AcDbEntity
  8
0
  6
Continuous
 62
     7
370
     0
100
AcDbEllipse
 10
147.9634174574
 20
200.7561915854
 30
0.0
 11
19.72385922711626
 21
17.67766952966767
 31
0.0
210
0.0
220
0.0
230
1.0
 40
0.8962581474
 41
5.497787143782082
 42
6.047527711006736
  0
LINE
  5
1A8
330
1F
100
AcDbEntity
  8
0
  6
Continuous
 62
     7
370
     0
100
AcDbLine
 10
172.8652450025
 20
198.4939306691
 30
0.0
 11
173.1135188371
 21
200.7561914339
 31
0.0
  0
ELLIPSE
  5
1A9
330
1F
100
AcDbEntity
  8
0
  6
Continuous
 62
     7
370
     0
100
AcDbEllipse
 10
185.2560399142
 20
200.7561915854
 30
0.0
 11
19.72385922711683
 21
-17.67766952966707
 31
0.0
210
0.0
220
0.0
230
1.0
 40
0.8962581474
 41
3.377250230795571
 42
3.926990816987291
  0
LINE
  5
1AA
330
1F
100
AcDbEntity
  8
0
  6
Continuous
 62
     7
370
     0
100
AcDbLine
 10
163.609728194
 20
212.8298051372
 30
0.0
 11
162.3780894794
 21
213.8178415313
 31
0.0
  0
LINE
  5
1AB
330
1F
100
AcDbEntity
  8
0
  6
Continuous
 62
     7
370
     0
100
AcDbLine
 10
165.3006375769
 20
197.4223099366
 30
0.0
 11
163.609728194
 21
212.8298051372
 31
0.0
  0
LINE
  5
1AC
330
1F
100
AcDbEntity
  8
0
  6
Continuous
 62
     7
370
     0
100
AcDbLine
 10
160.354212369
 20
198.4939306691
 30
0.0
 11
160.1059385344
 21
200.7561914339
 31
0.0
  0
LINE
  5
1AD
330
1F
100
AcDbEntity
  8
0
  6
Continuous
 62
     7
370
     0
100
AcDbLine
 10
175.5961137937
 20
200.7561915854
 30
0.0
 11
173.1135188371
 21
200.7561914339
 31
0.0
  0
ARC
  5
1AE
330
1F
100
AcDbEntity
  8
0
  6
Continuous
 62
     7
370
     0
100
AcDbCircle
 10
150.6052916344
 20
200.078838057
 30
0.0
 40
25.00000000001586
100
AcDbArc
 50
356.3652218616
 51
1.5525699311
  0
LINE
  5
1AF
330
1F
100
AcDbEntity
  8
0
  6
Continuous
 62
     7
370
     0
100
AcDbLine
 10
157.6233435778
 20
200.7561915854
 30
0.0
 11
160.1059385344
 21
200.7561914339
 31
0.0
  0
ARC
  5
1B0
330
1F
100
AcDbEntity
  8
0
  6
Continuous
 62
     7
370
     0
100
AcDbCircle
 10
182.6141657371
 20
200.078838057
 30
0.0
 40
24.99999999997506
100
AcDbArc
 50
178.4474300689
 51
183.6347781384
  0
LINE
  5
1B1
330
1F
100
AcDbEntity
  8
0
  6
Continuous
 62
     7
370
     0
100
AcDbLine
 10
162.3780894794
 20
213.8178415313
 30
0.0
 11
161.9550445818
 21
214.1572154775
 31
0.0
  0
ARC
  5
1B2
330
1F
100
AcDbEntity
  8
0
  6
Continuous
 62
     7
370
     0
100
AcDbCircle
 10
182.6179686284
 20
200.0776079413
 30
0.0
 40
25.00383527648685
100
AcDbArc
 50
145.7296888118
 51
178.4448487973
  0
LINE
  5
1B3
330
1F
100
AcDbEntity
  8
0
  6
Continuous
 62
     7
370
     0
100
AcDbLine
 10
171.2644132555
 20
214.1572154775
 30
0.0
 11
170.8413683578
 21
213.8178415313
 31
0.0
  0
ARC
  5
1B4
330
1F
100
AcDbEntity
  8
0
  6
Continuous
 62
     7
370
     0
100
AcDbCircle
 10
150.6038048069
 20
200.0783572958
 30
0.0
 40
25.00149973836278
100
AcDbArc
 50
1.5535785911
 51
34.2718801946
  0
CIRCLE
  5
1B5
330
1F
100
AcDbEntity
  8
0
  6
Continuous
 62
     7
370
     0
100
AcDbCircle
 10
166.6097286858
 20
144.4939304773
 30
0.0
 40
1.500000000002984
  0
CIRCLE
  5
1B6
330
1F
100
AcDbEntity
  8
0
  6
Continuous
 62
     7
370
     0
100
AcDbCircle
 10
166.6097286858
 20
144.4939304773
 30
0.0
 40
1.000000000000483
  0
CIRCLE
  5
1B7
330
1F
100
AcDbEntity
  8
0
  6
Continuous
 62
     7
370
     0
100
AcDbCircle
 10
166.6097286858
 20
144.4939304773
 30
0.0
 40
1.799999999996146
  0
CIRCLE
  5
1B8
330
1F
100
AcDbEntity
  8
0
  6
Continuous
 62
     7
370
     0
100
AcDbCircle
 10
166.6097286858
 20
132.4939304773
 30
0.0
 40
1.600000000003149
  0
CIRCLE
  5
1B9
330
1F
100
AcDbEntity
  8
0
  6
Continuous
 62
     7
370
     0
100
AcDbCircle
 10
166.6097286858
 20
132.4939304773
 30
0.0
 40
1.999999999998067
  0
LINE
  5
1BA
330
1F
100
AcDbEntity
  8
0
  6
Continuous
 62
     7
370
     0
100
AcDbLine
 10
167.6097287333
 20
133.0712807081
 30
0.0
 11
166.6097286858
 21
133.6486308552
 31
0.0
  0
LINE
  5
1BB
330
1F
100
AcDbEntity
  8
0
  6
Continuous
 62
     7
370
     0
100
AcDbLine
 10
166.6097286858
 20
133.6486308552
 30
0.0
 11
165.6097286383
 21
133.0712807081
 31
0.0
  0
LINE
  5
1BC
330
1F
100
AcDbEntity
  8
0
  6
Continuous
 62
     7
370
     0
100
AcDbLine
 10
165.6097286383
 20
133.0712807081
 30
0.0
 11
165.6097286383
 21
131.916580414
 31
0.0
  0
LINE
  5
1BD
330
1F
100
AcDbEntity
  8
0
  6
Continuous
 62
     7
370
     0
100
AcDbLine
 10
165.6097286383
 20
131.916580414
 30
0.0
 11
166.6097286858
 21
131.3392298013
 31
0.0
  0
LINE
  5
1BE
330
1F
100
AcDbEntity
  8
0
  6
Continuous
 62
     7
370
     0
100
AcDbLine
 10
166.6097286858
 20
131.3392298013
 30
0.0
 11
167.6097287333
 21
131.916580414
 31
0.0
  0
LINE
  5
1BF
330
1F
100
AcDbEntity
  8
0
  6
Continuous
 62
     7
370
     0
100
AcDbLine
 10
167.6097287333
 20
131.916580414
 30
0.0
 11
167.6097287333
 21
133.0712807081
 31
0.0
  0
LINE
  5
1C0
330
1F
100
AcDbEntity
  8
0
  6
Continuous
 62
     7
370
     0
100
AcDbLine
 10
163.1097285777
 20
134.5146565415
 30
0.0
 11
163.1097285777
 21
130.473204115
 31
0.0
  0
LINE
  5
1C1
330
1F
100
AcDbEntity
  8
0
  6
Continuous
 62
     7
370
     0
100
AcDbLine
 10
166.609728686
 20
136.535382289
 30
0.0
 11
163.1097285777
 21
134.5146565415
 31
0.0
  0
LINE
  5
1C2
330
1F
100
AcDbEntity
  8
0
  6
Continuous
 62
     7
370
     0
100
AcDbLine
 10
170.1097287938
 20
134.5146565415
 30
0.0
 11
166.609728686
 21
136.535382289
 31
0.0
  0
LINE
  5
1C3
330
1F
100
AcDbEntity
  8
0
  6
Continuous
 62
     7
370
     0
100
AcDbLine
 10
170.1097287938
 20
130.473204115
 30
0.0
 11
170.1097287938
 21
134.5146565415
 31
0.0
  0
LINE
  5
1C4
330
1F
100
AcDbEntity
  8
0
  6
Continuous
 62
     7
370
     0
100
AcDbLine
 10
166.6097286857
 20
128.4524781346
 30
0.0
 11
170.1097287938
 21
130.473204115
 31
0.0
  0
LINE
  5
1C5
330
1F
100
AcDbEntity
  8
0
  6
Continuous
 62
     7
370
     0
100
AcDbLine
 10
163.1097285777
 20
130.473204115
 30
0.0
 11
166.6097286857
 21
128.4524781346
 31
0.0
  0
CIRCLE
  5
1C6
330
1F
100
AcDbEntity
  8
0
  6
Continuous
 62
     7
370
     0
100
AcDbCircle
 10
166.6097286858
 20
144.4939304773
 30
0.0
 40
2.700000000002575
  0
CIRCLE
  5
1C7
330
1F
100
AcDbEntity
  8
0
  6
Continuous
 62
     7
370
     0
100
AcDbCircle
 10
166.6097286858
 20
144.4939304773
 30
0.0
 40
2.999999999998437
  0
LINE
  5
1C8
330
1F
100
AcDbEntity
  8
0
  6
Continuous
 62
     7
370
     0
100
AcDbLine
 10
161.846588965
 20
147.2439304773
 30
0.0
 11
164.0116525583
 21
145.9939304456
 31
0.0
  0
ARC
  5
1C9
330
1F
100
AcDbEntity
  8
0
  6
Continuous
 62
     7
370
     0
100
AcDbCircle
 10
166.6097286858
 20
144.4939304773
 30
0.0
 40
5.500000000003047
100
AcDbArc
 50
210.0
 51
150.0
  0
LINE
  5
1CA
330
1F
100
AcDbEntity
  8
0
  6
Continuous
 62
     7
370
     0
100
AcDbLine
 10
164.0116525583
 20
142.9939304195
 30
0.0
 11
161.846588965
 21
141.7439304773
 31
0.0
  0
LINE
  5
1CB
330
1F
100
AcDbEntity
  8
0
  6
Continuous
 62
     7
370
     0
100
AcDbLine
 10
150.6097286858
 20
121.3939304773
 30
0.0
 11
150.6097286858
 21
119.3939304773
 31
0.0
  0
LWPOLYLINE
  5
1CC
330
1F
100
AcDbEntity
  8
0
  6
Continuous
 62
     7
370
     0
100
AcDbPolyline
 90
        4
 70
   128
 43
0.0
 10
150.937879435
 20
122.3939295575
 10
150.8265994258
 20
122.0548201069
 10
150.7167462029
 20
121.7200562075
 10
150.6097279258
 20
121.3939312562
  0
LINE
  5
1CD
330
1F
100
AcDbEntity
  8
0
  6
Continuous
 62
     7
370
     0
100
AcDbLine
 10
150.937879435
 20
122.3939295575
 30
0.0
 11
182.2815779366
 21
122.3939295575
 31
0.0
  0
LINE
  5
1CE
330
1F
100
AcDbEntity
  8
0
  6
Continuous
 62
     7
370
     0
100
AcDbLine
 10
182.6097286858
 20
119.3939304773
 30
0.0
 11
182.6097286858
 21
121.3939304773
 31
0.0
  0
LINE
  5
1CF
330
1F
100
AcDbEntity
  8
0
  6
Continuous
 62
     7
370
     0
100
AcDbLine
 10
150.6097286858
 20
119.3939304773
 30
0.0
 11
182.6097286858
 21
119.3939304773
 31
0.0
  0
LWPOLYLINE
  5
1D0
330
1F
100
AcDbEntity
  8
0
  6
Continuous
 62
     7
370
     0
100
AcDbPolyline
 90
        4
 70
   128
 43
0.0
 10
182.2815779366
 20
122.3939295575
 10
182.3928579457
 20
122.0548201069
 10
182.5027111687
 20
121.7200562075
 10
182.6097294457
 20
121.3939312562
  0
ARC
  5
1D1
330
1F
100
AcDbEntity
  8
0
  6
Continuous
 62
     7
370
     0
100
AcDbCircle
 10
166.6097286858
 20
144.4939304773
 30
0.0
 40
8.000000000000682
100
AcDbArc
 50
99.068721546
 51
161.8327188202
  0
LINE
  5
1D2
330
1F
100
AcDbEntity
  8
0
  6
Continuous
 62
     7
370
     0
100
AcDbLine
 10
165.3487766645
 20
152.3939304773
 30
0.0
 11
167.8706807071
 21
152.3939304773
 31
0.0
  0
ARC
  5
1D3
330
1F
100
AcDbEntity
  8
0
  6
Continuous
 62
     7
370
     0
100
AcDbCircle
 10
166.6097286858
 20
144.4939304773
 30
0.0
 40
8.000000000000677
100
AcDbArc
 50
18.1672811798
 51
80.931278454
  0
LINE
  5
1D4
330
1F
100
AcDbEntity
  8
0
  6
Continuous
 62
     7
370
     0
100
AcDbLine
 10
159.0085266391
 20
146.9882695573
 30
0.0
 11
150.937879435
 21
122.3939295575
 31
0.0
  0
LINE
  5
1D5
330
1F
100
AcDbEntity
  8
0
  6
Continuous
 62
     7
370
     0
100
AcDbLine
 10
182.2815779366
 20
122.3939295575
 30
0.0
 11
174.2109307325
 21
146.9882695573
 31
0.0
  0
ARC
  5
1D6
330
1F
100
AcDbEntity
  8
0
  6
Continuous
 62
     7
370
     0
100
AcDbCircle
 10
166.6097286858
 20
144.4939304773
 30
0.0
 40
8.000000000003011
100
AcDbArc
 50
80.9312784541
 51
99.0687215463
  0
ARC
  5
1D7
330
1F
100
AcDbEntity
  8
0
  6
Continuous
 62
     7
370
     0
100
AcDbCircle
 10
166.6097286858
 20
144.4939304773
 30
0.0
 40
8.999999999997277
100
AcDbArc
 50
180.0
 51
189.0987632709
  0
ARC
  5
1D8
330
1F
100
AcDbEntity
  8
0
  6
Continuous
 62
     7
370
     0
100
AcDbCircle
 10
166.6097286858
 20
144.4939304773
 30
0.0
 40
8.999999999997272
100
AcDbArc
 50
350.9012367291
 51
180.0
  0
ARC
  5
1D9
330
1F
100
AcDbEntity
  8
0
  6
Continuous
 62
     7
370
     0
100
AcDbCircle
 10
166.6097286858
 20
144.4939304773
 30
0.0
 40
13.50000000000236
100
AcDbArc
 50
360.0
 51
180.0
  0
LINE
  5
1DA
330
1F
100
AcDbEntity
  8
0
  6
Continuous
 62
     7
370
     0
100
AcDbLine
 10
153.1097286858
 20
151.0322788926
 30
0.0
 11
153.1097286858
 21
144.4939304773
 31
0.0
  0
ARC
  5
1DB
330
1F
100
AcDbEntity
  8
0
  6
Continuous
 62
     7
370
     0
100
AcDbCircle
 10
166.6097286858
 20
144.4939304773
 30
0.0
 40
14.99999999999886
100
AcDbArc
 50
25.8419327632
 51
154.1580672368
  0
LINE
  5
1DC
330
1F
100
AcDbEntity
  8
0
  6
Continuous
 62
     7
370
     0
100
AcDbLine
 10
180.1097286858
 20
144.4939304773
 30
0.0
 11
180.1097286858
 21
151.0322788927
 31
0.0
  0
ARC
  5
1DD
330
1F
100
AcDbEntity
  8
0
  6
Continuous
 62
     7
370
     0
100
AcDbCircle
 10
166.6097286858
 20
144.4939304773
 30
0.0
 40
14.99999999999919
100
AcDbArc
 50
205.8419327632
 51
219.6017661847
  0
ARC
  5
1DE
330
1F
100
AcDbEntity
  8
0
  6
Continuous
 62
     7
370
     0
100
AcDbCircle
 10
166.6097286858
 20
144.4939304773
 30
0.0
 40
14.99999999999819
100
AcDbArc
 50
320.3982338153
 51
334.1580672368
  0
LINE
  5
1DF
330
1F
100
AcDbEntity
  8
0
  6
Continuous
 62
     7
370
     0
100
AcDbLine
 10
153.1097286858
 20
137.955582062
 30
0.0
 11
153.1097286858
 21
144.4939304773
 31
0.0
  0
ARC
  5
1E0
330
1F
100
AcDbEntity
  8
0
  6
Continuous
 62
     7
370
     0
100
AcDbCircle
 10
166.6097286858
 20
144.4939304773
 30
0.0
 40
13.50000000000464
100
AcDbArc
 50
180.0
 51
215.4915157264
  0
ARC
  5
1E1
330
1F
100
AcDbEntity
  8
0
  6
Continuous
 62
     7
370
     0
100
AcDbCircle
 10
166.6097286858
 20
144.4939304773
 30
0.0
 40
13.50000000000463
100
AcDbArc
 50
324.5084842736
 51
0.0
  0
LINE
  5
1E2
330
1F
100
AcDbEntity
  8
0
  6
Continuous
 62
     7
370
     0
100
AcDbLine
 10
180.1097286858
 20
137.955582062
 30
0.0
 11
180.1097286858
 21
144.4939304773
 31
0.0
  0
CIRCLE
  5
1E3
330
1F
100
AcDbEntity
  8
0
  6
Continuous
 62
     7
370
     0
100
AcDbCircle
 10
178.6097286858
 20
164.4939304773
 30
0.0
 40
1.500000000003041
  0
CIRCLE
  5
1E4
330
1F
100
AcDbEntity
  8
0
  6
Continuous
 62
     7
370
     0
100
AcDbCircle
 10
178.6097286858
 20
164.4939304773
 30
0.0
 40
1.79999999999464
  0
CIRCLE
  5
1E5
330
1F
100
AcDbEntity
  8
0
  6
Continuous
 62
     7
370
     0
100
AcDbCircle
 10
178.6097286858
 20
164.4939304773
 30
0.0
 40
1.000000000002615
  0
ARC
  5
1E6
330
1F
100
AcDbEntity
  8
0
  6
Continuous
 62
     7
370
     0
100
AcDbCircle
 10
166.6097286858
 20
144.4939304773
 30
0.0
 40
14.999999999998
100
AcDbArc
 50
334.1580672368
 51
25.8419327632
  0
ARC
  5
1E7
330
1F
100
AcDbEntity
  8
0
  6
Continuous
 62
     7
370
     0
100
AcDbCircle
 10
166.6097286858
 20
144.4939304773
 30
0.0
 40
14.99999999999803
100
AcDbArc
 50
154.1580672368
 51
205.8419327632
  0
LINE
  5
1E8
330
1F
100
AcDbEntity
  8
0
  6
Continuous
 62
     7
370
     0
100
AcDbLine
 10
182.6097294457
 20
124.3939308166
 30
0.0
 11
181.6252767809
 21
124.3939308166
 31
0.0
  0
LINE
  5
1E9
330
1F
100
AcDbEntity
  8
0
  6
Continuous
 62
     7
370
     0
100
AcDbLine
 10
151.5941805907
 20
124.3939308166
 30
0.0
 11
150.6097279258
 21
124.3939308166
 31
0.0
  0
LINE
  5
1EA
330
1F
100
AcDbEntity
  8
0
  6
Continuous
 62
     7
370
     0
100
AcDbLine
 10
150.6097279258
 20
124.3939308166
 30
0.0
 11
150.6097286858
 21
121.3939304773
 31
0.0
  0
LINE
  5
1EB
330
1F
100
AcDbEntity
  8
0
  6
Continuous
 62
     7
370
     0
100
AcDbLine
 10
182.6097286858
 20
121.3939304773
 30
0.0
 11
182.6097294457
 21
124.3939308166
 31
0.0
  0
LINE
  5
1EC
330
1F
100
AcDbEntity
  8
0
  6
Continuous
 62
     7
370
     0
100
AcDbLine
 10
175.1097291477
 20
166.5146566644
 30
0.0
 11
175.1097291477
 21
162.4732047036
 31
0.0
  0
LINE
  5
1ED
330
1F
100
AcDbEntity
  8
0
  6
Continuous
 62
     7
370
     0
100
AcDbLine
 10
178.6097287901
 20
168.5353826448
 30
0.0
 11
175.1097291477
 21
166.5146566644
 31
0.0
  0
LINE
  5
1EE
330
1F
100
AcDbEntity
  8
0
  6
Continuous
 62
     7
370
     0
100
AcDbLine
 10
182.1097284325
 20
166.5146566644
 30
0.0
 11
178.6097287901
 21
168.5353826448
 31
0.0
  0
LINE
  5
1EF
330
1F
100
AcDbEntity
  8
0
  6
Continuous
 62
     7
370
     0
100
AcDbLine
 10
182.1097284325
 20
162.4732047036
 30
0.0
 11
182.1097284325
 21
166.5146566644
 31
0.0
  0
LINE
  5
1F0
330
1F
100
AcDbEntity
  8
0
  6
Continuous
 62
     7
370
     0
100
AcDbLine
 10
178.6097287901
 20
160.4524787232
 30
0.0
 11
182.1097284325
 21
162.4732047036
 31
0.0
  0
LINE
  5
1F1
330
1F
100
AcDbEntity
  8
0
  6
Continuous
 62
     7
370
     0
100
AcDbLine
 10
175.1097291477
 20
162.4732047036
 30
0.0
 11
178.6097287901
 21
160.4524787232
 31
0.0
  0
LINE
  5
1F2
330
1F
100
AcDbEntity
  8
0
  6
Continuous
 62
     7
370
     0
100
AcDbLine
 10
182.6097294457
 20
127.9939302891
 30
0.0
 11
182.6097294457
 21
179.4939294174
 31
0.0
  0
LINE
  5
1F3
330
1F
100
AcDbEntity
  8
0
  6
Continuous
 62
     7
370
     0
100
AcDbLine
 10
182.6097294457
 20
127.9939302891
 30
0.0
 11
182.1097284325
 21
127.9939302891
 31
0.0
  0
LINE
  5
1F4
330
1F
100
AcDbEntity
  8
0
  6
Continuous
 62
     7
370
     0
100
AcDbLine
 10
182.1097284325
 20
127.9939302891
 30
0.0
 11
182.1097286858
 21
125.9939304773
 31
0.0
  0
LINE
  5
1F5
330
1F
100
AcDbEntity
  8
0
  6
Continuous
 62
     7
370
     0
100
AcDbLine
 10
182.1097286858
 20
125.9939304773
 30
0.0
 11
181.1002362289
 21
125.9939308926
 31
0.0
  0
LINE
  5
1F6
330
1F
100
AcDbEntity
  8
0
  6
Continuous
 62
     7
370
     0
100
AcDbLine
 10
152.1192211427
 20
125.9939308926
 30
0.0
 11
151.1097286858
 21
125.9939304773
 31
0.0
  0
LINE
  5
1F7
330
1F
100
AcDbEntity
  8
0
  6
Continuous
 62
     7
370
     0
100
AcDbLine
 10
151.1097286858
 20
125.9939304773
 30
0.0
 11
151.1097289391
 21
127.9939302891
 31
0.0
  0
LINE
  5
1F8
330
1F
100
AcDbEntity
  8
0
  6
Continuous
 62
     7
370
     0
100
AcDbLine
 10
150.6097279258
 20
127.9939302891
 30
0.0
 11
151.1097289391
 21
127.9939302891
 31
0.0
  0
LINE
  5
1F9
330
1F
100
AcDbEntity
  8
0
  6
Continuous
 62
     7
370
     0
100
AcDbLine
 10
150.6097279258
 20
127.9939302891
 30
0.0
 11
150.6097279258
 21
179.4939294174
 31
0.0
  0
LINE
  5
1FA
330
1F
100
AcDbEntity
  8
0
  6
Continuous
 62
     7
370
     0
100
AcDbLine
 10
182.6097294457
 20
179.4939294174
 30
0.0
 11
150.6097279258
 21
179.4939294174
 31
0.0
  0
LINE
  5
1FB
330
1F
100
AcDbEntity
  8
0
  6
Continuous
 62
     7
370
     0
100
AcDbLine
 10
150.6097279258
 20
184.4939320996
 30
0.0
 11
157.9097285636
 21
184.4939320996
 31
0.0
  0
LINE
  5
1FC
330
1F
100
AcDbEntity
  8
0
  6
Continuous
 62
     7
370
     0
100
AcDbLine
 10
157.9097285636
 20
184.4939320996
 30
0.0
 11
175.309728808
 21
184.4939320996
 31
0.0
  0
LINE
  5
1FD
330
1F
100
AcDbEntity
  8
0
  6
Continuous
 62
     7
370
     0
100
AcDbLine
 10
182.6097294457
 20
184.4939320996
 30
0.0
 11
175.309728808
 21
184.4939320996
 31
0.0
  0
LINE
  5
1FE
330
1F
100
AcDbEntity
  8
0
  6
Continuous
 62
     7
370
     0
100
AcDbLine
 10
182.6097294457
 20
179.9939304307
 30
0.0
 11
150.6097279258
 21
179.9939304307
 31
0.0
  0
LINE
  5
1FF
330
1F
100
AcDbEntity
  8
0
  6
Continuous
 62
     7
370
     0
100
AcDbLine
 10
150.6097279258
 20
179.9939304307
 30
0.0
 11
150.6097279258
 21
184.4939320996
 31
0.0
  0
LINE
  5
200
330
1F
100
AcDbEntity
  8
0
  6
Continuous
 62
     7
370
     0
100
AcDbLine
 10
182.6097294457
 20
179.9939304307
 30
0.0
 11
182.6097294457
 21
184.4939320996
 31
0.0
  0
LWPOLYLINE
  5
201
330
1F
100
AcDbEntity
  8
0
  6
Continuous
 62
     7
370
     0
100
AcDbPolyline
 90
        8
 70
   128
 43
0.0
 10
157.9097285636
 20
186.4280543938
 10
157.7731957428
 20
187.0976380721
 10
157.2702144973
 20
187.722663553
 10
156.8116685145
 20
188.0423977688
 10
156.2412036352
 20
188.3128724709
 10
155.6515497856
 20
188.4988687649
 10
155.0020314522
 20
188.6248878851
 10
154.1097284995
 20
188.6853828743
  0
LINE
  5
202
330
1F
100
AcDbEntity
  8
0
  6
Continuous
 62
     7
370
     0
100
AcDbLine
 10
154.1097284995
 20
188.6853828743
 30
0.0
 11
150.9097292788
 21
188.6853828743
 31
0.0
  0
LINE
  5
203
330
1F
100
AcDbEntity
  8
0
  6
Continuous
 62
     7
370
     0
100
AcDbLine
 10
150.9097292788
 20
188.6853828743
 30
0.0
 11
150.9097292788
 21
190.4939293578
 31
0.0
  0
LINE
  5
204
330
1F
100
AcDbEntity
  8
0
  6
Continuous
 62
     7
370
     0
100
AcDbLine
 10
182.3097280927
 20
190.4939293578
 30
0.0
 11
150.9097292788
 21
190.4939293578
 31
0.0
  0
LINE
  5
205
330
1F
100
AcDbEntity
  8
0
  6
Continuous
 62
     7
370
     0
100
AcDbLine
 10
182.3097280927
 20
188.6853828743
 30
0.0
 11
182.3097280927
 21
190.4939293578
 31
0.0
  0
LINE
  5
206
330
1F
100
AcDbEntity
  8
0
  6
Continuous
 62
     7
370
     0
100
AcDbLine
 10
182.3097280927
 20
188.6853828743
 30
0.0
 11
179.109728872
 21
188.6853828743
 31
0.0
  0
LWPOLYLINE
  5
207
330
1F
100
AcDbEntity
  8
0
  6
Continuous
 62
     7
370
     0
100
AcDbPolyline
 90
        7
 70
   128
 43
0.0
 10
179.109728872
 20
188.6853828743
 10
177.9994610466
 20
188.5909728423
 10
177.0091904096
 20
188.3246890917
 10
176.1667271845
 20
187.8901563302
 10
175.5565413974
 20
187.2889280036
 10
175.3070289038
 20
186.5427225545
 10
175.309728808
 20
186.4280543938
  0
LINE
  5
208
330
1F
100
AcDbEntity
  8
0
  6
Continuous
 62
     7
370
     0
100
AcDbLine
 10
175.309728808
 20
186.4280543938
 30
0.0
 11
175.309728808
 21
184.4939320996
 31
0.0
  0
LINE
  5
209
330
1F
100
AcDbEntity
  8
0
  6
Continuous
 62
     7
370
     0
100
AcDbLine
 10
157.9097285636
 20
184.4939320996
 30
0.0
 11
157.9097285636
 21
186.4280543938
 31
0.0
  0
LINE
  5
20A
330
1F
100
AcDbEntity
  8
0
  6
Continuous
 62
     7
370
     0
100
AcDbLine
 10
175.309728808
 20
186.4280543938
 30
0.0
 11
175.6097282983
 21
186.1682451978
 31
0.0
  0
LINE
  5
20B
330
1F
100
AcDbEntity
  8
0
  6
Continuous
 62
     7
370
     0
100
AcDbLine
 10
175.6097282983
 20
184.4939320996
 30
0.0
 11
175.6097282983
 21
186.1682451978
 31
0.0
  0
LINE
  5
20C
330
1F
100
AcDbEntity
  8
0
  6
Continuous
 62
     7
370
     0
100
AcDbLine
 10
157.9097285636
 20
186.4280543938
 30
0.0
 11
157.6097290732
 21
186.1682451978
 31
0.0
  0
LINE
  5
20D
330
1F
100
AcDbEntity
  8
0
  6
Continuous
 62
     7
370
     0
100
AcDbLine
 10
157.6097290732
 20
184.4939320996
 30
0.0
 11
157.6097290732
 21
186.1682451978
 31
0.0
  0
LINE
  5
20E
330
1F
100
AcDbEntity
  8
0
  6
Continuous
 62
     7
370
     0
100
AcDbLine
 10
150.8097294487
 20
179.9939304307
 30
0.0
 11
150.8097294487
 21
179.4939294174
 31
0.0
  0
LINE
  5
20F
330
1F
100
AcDbEntity
  8
0
  6
Continuous
 62
     7
370
     0
100
AcDbLine
 10
182.4097279228
 20
179.9939304307
 30
0.0
 11
182.4097279228
 21
179.4939294174
 31
0.0
  0
LINE
  5
210
330
1F
100
AcDbEntity
  8
0
  6
Continuous
 62
     7
370
     0
100
AcDbLine
 10
151.6097286858
 20
187.9939304773
 30
0.0
 11
156.6097286858
 21
187.9939304773
 31
0.0
  0
LINE
  5
211
330
1F
100
AcDbEntity
  8
0
  6
Continuous
 62
     7
370
     0
100
AcDbLine
 10
176.6097289631
 20
187.9939304773
 30
0.0
 11
181.6097285471
 21
187.9939304773
 31
0.0
  0
LWPOLYLINE
  5
212
330
1F
100
AcDbEntity
  8
0
  6
Continuous
 62
     7
370
     0
100
AcDbPolyline
 90
        3
 70
   128
 43
0.0
 10
175.6097282983
 20
186.1682451978
 10
175.8050657578
 20
186.8386149123
 10
176.1097283803
 20
187.1613107338
  0
ARC
  5
213
330
1F
100
AcDbEntity
  8
0
  6
Continuous
 62
     7
370
     0
100
AcDbCircle
 10
179.0733024124
 20
182.9746524951
 30
0.0
 40
5.260856323266187
100
AcDbArc
 50
89.6032776895
 51
107.4306399044
  0
LWPOLYLINE
  5
214
330
1F
100
AcDbEntity
  8
0
  6
Continuous
 62
     7
370
     0
100
AcDbPolyline
 90
        3
 70
   128
 43
0.0
 10
157.6097290732
 20
186.1682451978
 10
157.4143916138
 20
186.8386149123
 10
157.1097289913
 20
187.1613107338
  0
ARC
  5
215
330
1F
100
AcDbEntity
  8
0
  6
Continuous
 62
     7
370
     0
100
AcDbCircle
 10
154.1461549591
 20
182.9746524951
 30
0.0
 40
5.260856323266187
100
AcDbArc
 50
72.5693600956
 51
90.3967223105
  0
LINE
  5
216
330
1F
100
AcDbEntity
  8
0
  6
Continuous
 62
     7
370
     0
100
AcDbLine
 10
154.1097284995
 20
188.2353827074
 30
0.0
 11
154.1097284995
 21
188.6853828743
 31
0.0
  0
LINE
  5
217
330
1F
100
AcDbEntity
  8
0
  6
Continuous
 62
     7
370
     0
100
AcDbLine
 10
179.109728872
 20
188.6853828743
 30
0.0
 11
179.109728872
 21
188.2353827074
 31
0.0
  0
LINE
  5
218
330
1F
100
AcDbEntity
  8
0
  6
Continuous
 62
     7
370
     0
100
AcDbLine
 10
182.6097294457
 20
188.362176688
 30
0.0
 11
182.4396326907
 21
188.4603827908
 31
0.0
  0
LINE
  5
219
330
1F
100
AcDbEntity
  8
0
  6
Continuous
 62
     7
370
     0
100
AcDbLine
 10
182.3097280927
 20
184.4939320996
 30
0.0
 11
182.3097280927
 21
188.2353827074
 31
0.0
  0
LINE
  5
21A
330
1F
100
AcDbEntity
  8
0
  6
Continuous
 62
     7
370
     0
100
AcDbLine
 10
182.4396326907
 20
188.4603827908
 30
0.0
 11
182.3097280927
 21
188.2353827074
 31
0.0
  0
LINE
  5
21B
330
1F
100
AcDbEntity
  8
0
  6
Continuous
 62
     7
370
     0
100
AcDbLine
 10
182.6097294457
 20
184.4939320996
 30
0.0
 11
182.6097294457
 21
188.362176688
 31
0.0
  0
LINE
  5
21C
330
1F
100
AcDbEntity
  8
0
  6
Continuous
 62
     7
370
     0
100
AcDbLine
 10
179.109728872
 20
188.2353827074
 30
0.0
 11
182.3097280927
 21
188.2353827074
 31
0.0
  0
LINE
  5
21D
330
1F
100
AcDbEntity
  8
0
  6
Continuous
 62
     7
370
     0
100
AcDbLine
 10
150.9097292788
 20
188.2353827074
 30
0.0
 11
150.9097292788
 21
184.4939320996
 31
0.0
  0
LINE
  5
21E
330
1F
100
AcDbEntity
  8
0
  6
Continuous
 62
     7
370
     0
100
AcDbLine
 10
154.1097284995
 20
188.2353827074
 30
0.0
 11
150.9097292788
 21
188.2353827074
 31
0.0
  0
LINE
  5
21F
330
1F
100
AcDbEntity
  8
0
  6
Continuous
 62
     7
370
     0
100
AcDbLine
 10
150.9097292788
 20
188.6853828743
 30
0.0
 11
150.7798246808
 21
188.4603827908
 31
0.0
  0
LINE
  5
220
330
1F
100
AcDbEntity
  8
0
  6
Continuous
 62
     7
370
     0
100
AcDbLine
 10
150.9097292788
 20
188.2353827074
 30
0.0
 11
150.7798246808
 21
188.4603827908
 31
0.0
  0
LINE
  5
221
330
1F
100
AcDbEntity
  8
0
  6
Continuous
 62
     7
370
     0
100
AcDbLine
 10
150.7798246808
 20
188.4603827908
 30
0.0
 11
150.6097279258
 21
188.362176688
 31
0.0
  0
LINE
  5
222
330
1F
100
AcDbEntity
  8
0
  6
Continuous
 62
     7
370
     0
100
AcDbLine
 10
150.6097279258
 20
188.362176688
 30
0.0
 11
150.6097279258
 21
184.4939320996
 31
0.0
  0
LINE
  5
223
330
1F
100
AcDbEntity
  8
0
  6
Continuous
 62
     7
370
     0
100
AcDbLine
 10
182.3097280927
 20
188.6853828743
 30
0.0
 11
182.4396326907
 21
188.4603827908
 31
0.0
  0
LINE
  5
224
330
1F
100
AcDbEntity
  8
0
  6
Continuous
 62
     7
370
     0
100
AcDbLine
 10
182.6097294457
 20
190.1939317301
 30
0.0
 11
182.3097280927
 21
190.4939293578
 31
0.0
  0
LINE
  5
225
330
1F
100
AcDbEntity
  8
0
  6
Continuous
 62
     7
370
     0
100
AcDbLine
 10
182.6097294457
 20
188.362176688
 30
0.0
 11
182.6097294457
 21
190.1939317301
 31
0.0
  0
LINE
  5
226
330
1F
100
AcDbEntity
  8
0
  6
Continuous
 62
     7
370
     0
100
AcDbLine
 10
150.9097292788
 20
190.4939293578
 30
0.0
 11
150.6097279258
 21
190.1939317301
 31
0.0
  0
LINE
  5
227
330
1F
100
AcDbEntity
  8
0
  6
Continuous
 62
     7
370
     0
100
AcDbLine
 10
150.6097279258
 20
190.1939317301
 30
0.0
 11
150.6097279258
 21
188.362176688
 31
0.0
  0
LINE
  5
228
330
1F
100
AcDbEntity
  8
0
  6
Continuous
 62
     7
370
     0
100
AcDbLine
 10
182.1097286858
 20
125.9939304773
 30
0.0
 11
182.6097286858
 21
125.9939304773
 31
0.0
  0
LINE
  5
229
330
1F
100
AcDbEntity
  8
0
  6
Continuous
 62
     7
370
     0
100
AcDbLine
 10
182.6097294457
 20
124.3939308166
 30
0.0
 11
182.6097286858
 21
125.9939304773
 31
0.0
  0
LINE
  5
22A
330
1F
100
AcDbEntity
  8
0
  6
Continuous
 62
     7
370
     0
100
AcDbLine
 10
151.1097286858
 20
125.9939304773
 30
0.0
 11
150.6097286858
 21
125.9939304773
 31
0.0
  0
LINE
  5
22B
330
1F
100
AcDbEntity
  8
0
  6
Continuous
 62
     7
370
     0
100
AcDbLine
 10
150.6097279258
 20
124.3939308166
 30
0.0
 11
150.6097286858
 21
125.9939304773
 31
0.0
  0
LINE
  5
22C
330
1F
100
AcDbEntity
  8
0
  6
Continuous
 62
     7
370
     0
100
AcDbLine
 10
182.6097294457
 20
179.9939304307
 30
0.0
 11
182.6097294457
 21
179.4939294174
 31
0.0
  0
LINE
  5
22D
330
1F
100
AcDbEntity
  8
0
  6
Continuous
 62
     7
370
     0
100
AcDbLine
 10
182.6097286858
 20
125.9939304773
 30
0.0
 11
182.6097294457
 21
127.9939302891
 31
0.0
  0
LINE
  5
22E
330
1F
100
AcDbEntity
  8
0
  6
Continuous
 62
     7
370
     0
100
AcDbLine
 10
150.6097279258
 20
179.9939304307
 30
0.0
 11
150.6097279258
 21
179.4939294174
 31
0.0
  0
LINE
  5
22F
330
1F
100
AcDbEntity
  8
0
  6
Continuous
 62
     7
370
     0
100
AcDbLine
 10
150.6097279258
 20
127.9939302891
 30
0.0
 11
150.6097286858
 21
125.9939304773
 31
0.0
  0
ARC
  5
230
330
1F
100
AcDbEntity
  8
0
  6
Continuous
 62
     7
370
     0
100
AcDbCircle
 10
153.6097286858
 20
191.4939304773
 30
0.0
 40
2.999999999997073
100
AcDbArc
 50
90.0
 51
180.0
  0
ARC
  5
231
330
1F
100
AcDbEntity
  8
0
  6
Continuous
 62
     7
370
     0
100
AcDbCircle
 10
179.6097286858
 20
191.4939304773
 30
0.0
 40
2.999999999997044
100
AcDbArc
 50
360.0
 51
90.0
  0
LINE
  5
232
330
1F
100
AcDbEntity
  8
0
  6
Continuous
 62
     7
370
     0
100
AcDbLine
 10
158.0769847848
 20
194.4939300135
 30
0.0
 11
153.6097286858
 21
194.4939304773
 31
0.0
  0
LINE
  5
233
330
1F
100
AcDbEntity
  8
0
  6
Continuous
 62
     7
370
     0
100
AcDbLine
 10
179.6097286858
 20
194.4939304773
 30
0.0
 11
175.1424725868
 21
194.4939300135
 31
0.0
  0
LINE
  5
234
330
1F
100
AcDbEntity
  8
0
  6
Continuous
 62
     7
370
     0
100
AcDbLine
 10
150.6097286858
 20
191.4939304773
 30
0.0
 11
150.6097279258
 21
190.1939317301
 31
0.0
  0
LINE
  5
235
330
1F
100
AcDbEntity
  8
0
  6
Continuous
 62
     7
370
     0
100
AcDbLine
 10
182.6097286858
 20
191.4939304773
 30
0.0
 11
182.6097294457
 21
190.1939317301
 31
0.0
  0
LINE
  5
236
330
1F
100
AcDbEntity
  8
0
  6
Continuous
 62
     7
370
     0
100
AcDbLine
 10
151.1097286858
 20
187.4939304773
 30
0.0
 11
157.1097286858
 21
187.4939304773
 31
0.0
  0
LINE
  5
237
330
1F
100
AcDbEntity
  8
0
  6
Continuous
 62
     7
370
     0
100
AcDbLine
 10
176.1097286858
 20
187.4939304773
 30
0.0
 11
182.1097286858
 21
187.4939304773
 31
0.0
  0
LINE
  5
238
330
1F
100
AcDbEntity
  8
0
  6
Continuous
 62
     7
370
     0
100
AcDbLine
 10
179.109728872
 20
187.993931742
 30
0.0
 11
179.109728872
 21
188.2353827074
 31
0.0
  0
LINE
  5
239
330
1F
100
AcDbEntity
  8
0
  6
Continuous
 62
     7
370
     0
100
AcDbLine
 10
154.1097284995
 20
188.2353827074
 30
0.0
 11
154.1097284995
 21
187.993931742
 31
0.0
  0
DIMENSION
  5
23A
330
1F
100
AcDbEntity
  8
0
  6
Continuous
 62
     7
370
     0
100
AcDbDimension
  2
*D7
 10
182.6097286858
 20
107.2510342448
 30
0.0
 11
166.6097286858
 21
107.2510342448
 31
0.0
 70
   160
 71
     1
 42
32.0
  3
SLDDIMSTYLE0
100
AcDbAlignedDimension
 13
150.6097286858
 23
119.3939304773
 33
0.0
 14
182.6097286858
 24
119.3939304773
 34
0.0
100
AcDbRotatedDimension
1001
ACAD
1000
DSTYLE
1002
{
1070
    77
1070
     3
1070
   143
1040
0.0393700787
1070
    41
1040
3.0
1070
    44
1040
1.0
1070
    42
1040
1.0
1070
   147
1040
1.524
1070
    73
1070
     0
1070
    74
1070
     0
1070
   140
1040
3.5
1070
   284
1070
    12
1070
    78
1070
    12
1002
}
  0
DIMENSION
  5
24D
330
1F
100
AcDbEntity
  8
0
  6
Continuous
 62
     7
370
     0
100
AcDbDimension
  2
*D8
 10
169.6097303177
 20
225.122326538
 30
0.0
 11
166.6097299291
 21
225.1223268498
 31
0.0
 70
   160
 71
     1
 42
6.0000007773
  3
SLDDIMSTYLE0
100
AcDbAlignedDimension
 13
163.6097282629
 23
212.8298047932
 33
0.0
 14
169.6097290402
 24
212.8298041696
 34
0.0
 50
-0.0000059545
100
AcDbRotatedDimension
1001
ACAD
1000
DSTYLE
1002
{
1070
    77
1070
     3
1070
   143
1040
0.0393700787
1070
    41
1040
3.0
1070
    44
1040
1.0
1070
    42
1040
1.0
1070
   147
1040
1.524
1070
    73
1070
     0
1070
    74
1070
     0
1070
   140
1040
3.5
1070
   284
1070
    12
1070
    78
1070
    12
1002
}
  0
INSERT
  5
26F
330
1F
100
AcDbEntity
  8
0
  6
Continuous
 62
     7
370
     0
100
AcDbBlockReference
  2
SW_CENTERMARKSYMBOL_0
 10
166.6097286858
 20
132.4939304773
 30
0.0
  0
INSERT
  5
27B
330
1F
100
AcDbEntity
  8
0
  6
Continuous
 62
     7
370
     0
100
AcDbBlockReference
  2
SW_CENTERMARKSYMBOL_1
 10
178.6097286858
 20
164.4939304773
 30
0.0
  0
LINE
  5
27C
330
1F
100
AcDbEntity
  8
0
  6
Continuous
 62
     7
370
     0
100
AcDbLine
 10
108.5989779192
 20
49.8297546012
 30
0.0
 11
104.9989794567
 21
49.8297546962
 31
0.0
  0
LINE
  5
27D
330
1F
100
AcDbEntity
  8
0
  6
Continuous
 62
     7
370
     0
100
AcDbLine
 10
104.9989794567
 20
45.8297545062
 30
0.0
 11
108.5989779192
 21
45.8297546012
 31
0.0
  0
LINE
  5
27E
330
1F
100
AcDbEntity
  8
0
  6
Continuous
 62
     7
370
     0
100
AcDbLine
 10
108.5989779192
 20
45.8297546012
 30
0.0
 11
108.9989779192
 21
46.2297546012
 31
0.0
  0
LINE
  5
27F
330
1F
100
AcDbEntity
  8
0
  6
Continuous
 62
     7
370
     0
100
AcDbLine
 10
108.9989779192
 20
49.4297546012
 30
0.0
 11
108.5989779192
 21
49.8297546012
 31
0.0
  0
LINE
  5
280
330
1F
100
AcDbEntity
  8
0
  6
Continuous
 62
     7
370
     0
100
AcDbLine
 10
101.9989771023
 20
42.329754631
 30
0.0
 11
102.5989779192
 21
42.3297546012
 31
0.0
  0
LINE
  5
281
330
1F
100
AcDbEntity
  8
0
  6
Continuous
 62
     7
370
     0
100
AcDbLine
 10
108.7989767268
 20
46.0297546321
 30
0.0
 11
111.5989779192
 21
46.3297546012
 31
0.0
  0
LINE
  5
282
330
1F
100
AcDbEntity
  8
0
  6
Continuous
 62
     7
370
     0
100
AcDbLine
 10
111.5989779192
 20
49.3297546012
 30
0.0
 11
108.7989767268
 21
49.6297545703
 31
0.0
  0
LINE
  5
283
330
1F
100
AcDbEntity
  8
0
  6
Continuous
 62
     7
370
     0
100
AcDbLine
 10
50.5348762683
 20
63.8297553612
 30
0.0
 11
50.5348762683
 21
31.8297538413
 31
0.0
  0
LINE
  5
284
330
1F
100
AcDbEntity
  8
0
  6
Continuous
 62
     7
370
     0
100
AcDbLine
 10
40.9989782795
 20
31.8297538413
 30
0.0
 11
50.5348762683
 21
31.8297538413
 31
0.0
  0
LINE
  5
285
330
1F
100
AcDbEntity
  8
0
  6
Continuous
 62
     7
370
     0
100
AcDbLine
 10
40.9989782795
 20
31.8297538413
 30
0.0
 11
39.9989781156
 21
32.8297549365
 31
0.0
  0
LINE
  5
286
330
1F
100
AcDbEntity
  8
0
  6
Continuous
 62
     7
370
     0
100
AcDbLine
 10
39.9989781156
 20
32.8297549365
 30
0.0
 11
39.9989781156
 21
62.829754266
 31
0.0
  0
LINE
  5
287
330
1F
100
AcDbEntity
  8
0
  6
Continuous
 62
     7
370
     0
100
AcDbLine
 10
40.9989782795
 20
63.8297553612
 30
0.0
 11
39.9989781156
 21
62.829754266
 31
0.0
  0
LINE
  5
288
330
1F
100
AcDbEntity
  8
0
  6
Continuous
 62
     7
370
     0
100
AcDbLine
 10
50.5348762683
 20
63.8297553612
 30
0.0
 11
40.9989782795
 21
63.8297553612
 31
0.0
  0
CIRCLE
  5
289
330
1F
100
AcDbEntity
  8
0
  6
Continuous
 62
     7
370
     0
100
AcDbCircle
 10
44.9989779192
 20
57.8297546012
 30
0.0
 40
2.025000000000254
  0
CIRCLE
  5
28A
330
1F
100
AcDbEntity
  8
0
  6
Continuous
 62
     7
370
     0
100
AcDbCircle
 10
44.9989779192
 20
37.8297546012
 30
0.0
 40
2.025000000000155
  0
LINE
  5
28B
330
1F
100
AcDbEntity
  8
0
  6
Continuous
 62
     7
370
     0
100
AcDbLine
 10
98.9989779192
 20
63.8297546012
 30
0.0
 11
98.9989779192
 21
31.8297546012
 31
0.0
  0
LINE
  5
28C
330
1F
100
AcDbEntity
  8
0
  6
Continuous
 62
     7
370
     0
100
AcDbLine
 10
81.9630787894
 20
31.8297538413
 30
0.0
 11
98.9989779192
 21
31.8297546012
 31
0.0
  0
LINE
  5
28D
330
1F
100
AcDbEntity
  8
0
  6
Continuous
 62
     7
370
     0
100
AcDbLine
 10
81.9630787894
 20
63.8297553612
 30
0.0
 11
81.9630787894
 21
31.8297538413
 31
0.0
  0
CIRCLE
  5
28E
330
1F
100
AcDbEntity
  8
0
  6
Continuous
 62
     7
370
     0
100
AcDbCircle
 10
89.9989779192
 20
57.8297546012
 30
0.0
 40
2.024999999999366
  0
CIRCLE
  5
28F
330
1F
100
AcDbEntity
  8
0
  6
Continuous
 62
     7
370
     0
100
AcDbCircle
 10
89.9989779192
 20
37.8297546012
 30
0.0
 40
2.024999999999267
  0
LINE
  5
290
330
1F
100
AcDbEntity
  8
0
  6
Continuous
 62
     7
370
     0
100
AcDbLine
 10
98.9989779192
 20
63.8297546012
 30
0.0
 11
81.9630787894
 21
63.8297553612
 31
0.0
  0
LINE
  5
291
330
1F
100
AcDbEntity
  8
0
  6
Continuous
 62
     7
370
     0
100
AcDbLine
 10
76.7669265344
 20
31.8297538413
 30
0.0
 11
81.9630787894
 21
31.8297538413
 31
0.0
  0
LINE
  5
292
330
1F
100
AcDbEntity
  8
0
  6
Continuous
 62
     7
370
     0
100
AcDbLine
 10
76.7669265344
 20
63.8297553612
 30
0.0
 11
76.7669265344
 21
31.8297538413
 31
0.0
  0
LINE
  5
293
330
1F
100
AcDbEntity
  8
0
  6
Continuous
 62
     7
370
     0
100
AcDbLine
 10
81.9630787894
 20
63.8297553612
 30
0.0
 11
76.7669265344
 21
63.8297553612
 31
0.0
  0
ELLIPSE
  5
294
330
1F
100
AcDbEntity
  8
0
  6
Continuous
 62
     7
370
     0
100
AcDbEllipse
 10
98.9989779192
 20
63.5016039923
 30
0.0
 11
2.999999999999076
 21
0.0
 31
0.0
210
0.0
220
0.0
230
1.0
 40
0.3281506089
 41
0.0
 42
0.339836909450926
  0
LINE
  5
295
330
1F
100
AcDbEntity
  8
0
  6
Continuous
 62
     7
370
     0
100
AcDbLine
 10
101.9989771023
 20
63.501603852
 30
0.0
 11
101.9989771023
 21
32.1579053504
 31
0.0
  0
ELLIPSE
  5
296
330
1F
100
AcDbEntity
  8
0
  6
Continuous
 62
     7
370
     0
100
AcDbEllipse
 10
98.9989779192
 20
32.1579052101
 30
0.0
 11
2.999999999999076
 21
0.0
 31
0.0
210
0.0
220
0.0
230
1.0
 40
0.3281506089
 41
5.943348397728698
 42
6.283185307179586
  0
LINE
  5
297
330
1F
100
AcDbEntity
  8
0
  6
Continuous
 62
     7
370
     0
100
AcDbLine
 10
98.9989779192
 20
31.8297546012
 30
0.0
 11
101.8274050439
 21
31.8297546012
 31
0.0
  0
LINE
  5
298
330
1F
100
AcDbEntity
  8
0
  6
Continuous
 62
     7
370
     0
100
AcDbLine
 10
101.8274050439
 20
63.8297546012
 30
0.0
 11
98.9989779192
 21
63.8297546012
 31
0.0
  0
LINE
  5
299
330
1F
100
AcDbEntity
  8
0
  6
Continuous
 62
     7
370
     0
100
AcDbLine
 10
55.7310287561
 20
63.8297553612
 30
0.0
 11
55.7310287561
 21
31.8297538413
 31
0.0
  0
LINE
  5
29A
330
1F
100
AcDbEntity
  8
0
  6
Continuous
 62
     7
370
     0
100
AcDbLine
 10
50.5348762683
 20
31.8297538413
 30
0.0
 11
55.7310287561
 21
31.8297538413
 31
0.0
  0
LINE
  5
29B
330
1F
100
AcDbEntity
  8
0
  6
Continuous
 62
     7
370
     0
100
AcDbLine
 10
55.7310287561
 20
63.8297553612
 30
0.0
 11
50.5348762683
 21
63.8297553612
 31
0.0
  0
CIRCLE
  5
29C
330
1F
100
AcDbEntity
  8
0
  6
Continuous
 62
     7
370
     0
100
AcDbCircle
 10
89.9989779192
 20
37.8297546012
 30
0.0
 40
1.649999999996751
  0
CIRCLE
  5
29D
330
1F
100
AcDbEntity
  8
0
  6
Continuous
 62
     7
370
     0
100
AcDbCircle
 10
44.9989779192
 20
37.8297546012
 30
0.0
 40
1.649999999998947
  0
CIRCLE
  5
29E
330
1F
100
AcDbEntity
  8
0
  6
Continuous
 62
     7
370
     0
100
AcDbCircle
 10
44.9989779192
 20
57.8297546012
 30
0.0
 40
1.650000000000318
  0
CIRCLE
  5
29F
330
1F
100
AcDbEntity
  8
0
  6
Continuous
 62
     7
370
     0
100
AcDbCircle
 10
89.9989779192
 20
57.8297546012
 30
0.0
 40
1.649999999998144
  0
LINE
  5
2A0
330
1F
100
AcDbEntity
  8
0
  6
Continuous
 62
     7
370
     0
100
AcDbLine
 10
65.9989777207
 20
36.5203534691
 30
0.0
 11
65.9989777207
 21
41.1391555769
 31
0.0
  0
LINE
  5
2A1
330
1F
100
AcDbEntity
  8
0
  6
Continuous
 62
     7
370
     0
100
AcDbLine
 10
61.9989779964
 20
34.2109528808
 30
0.0
 11
65.9989777207
 21
36.5203534691
 31
0.0
  0
LINE
  5
2A2
330
1F
100
AcDbEntity
  8
0
  6
Continuous
 62
     7
370
     0
100
AcDbLine
 10
57.9989779228
 20
41.1391555769
 30
0.0
 11
57.9989779228
 21
36.5203534691
 31
0.0
  0
LINE
  5
2A3
330
1F
100
AcDbEntity
  8
0
  6
Continuous
 62
     7
370
     0
100
AcDbLine
 10
61.9989779964
 20
43.4485566309
 30
0.0
 11
57.9989779228
 21
41.1391555769
 31
0.0
  0
LINE
  5
2A4
330
1F
100
AcDbEntity
  8
0
  6
Continuous
 62
     7
370
     0
100
AcDbLine
 10
65.9989777207
 20
41.1391555769
 30
0.0
 11
61.9989779964
 21
43.4485566309
 31
0.0
  0
LINE
  5
2A5
330
1F
100
AcDbEntity
  8
0
  6
Continuous
 62
     7
370
     0
100
AcDbLine
 10
57.9989779228
 20
36.5203534691
 30
0.0
 11
61.9989779964
 21
34.2109528808
 31
0.0
  0
LINE
  5
2A6
330
1F
100
AcDbEntity
  8
0
  6
Continuous
 62
     7
370
     0
100
AcDbLine
 10
57.9989779228
 20
59.1391557334
 30
0.0
 11
57.9989779228
 21
54.5203536255
 31
0.0
  0
LINE
  5
2A7
330
1F
100
AcDbEntity
  8
0
  6
Continuous
 62
     7
370
     0
100
AcDbLine
 10
61.9989779964
 20
61.4485563217
 30
0.0
 11
57.9989779228
 21
59.1391557334
 31
0.0
  0
LINE
  5
2A8
330
1F
100
AcDbEntity
  8
0
  6
Continuous
 62
     7
370
     0
100
AcDbLine
 10
65.9989777207
 20
59.1391557334
 30
0.0
 11
61.9989779964
 21
61.4485563217
 31
0.0
  0
LINE
  5
2A9
330
1F
100
AcDbEntity
  8
0
  6
Continuous
 62
     7
370
     0
100
AcDbLine
 10
65.9989777207
 20
54.5203536255
 30
0.0
 11
65.9989777207
 21
59.1391557334
 31
0.0
  0
LINE
  5
2AA
330
1F
100
AcDbEntity
  8
0
  6
Continuous
 62
     7
370
     0
100
AcDbLine
 10
61.9989779964
 20
52.2109525716
 30
0.0
 11
65.9989777207
 21
54.5203536255
 31
0.0
  0
LINE
  5
2AB
330
1F
100
AcDbEntity
  8
0
  6
Continuous
 62
     7
370
     0
100
AcDbLine
 10
57.9989779228
 20
54.5203536255
 30
0.0
 11
61.9989779964
 21
52.2109525716
 31
0.0
  0
LINE
  5
2AC
330
1F
100
AcDbEntity
  8
0
  6
Continuous
 62
     7
370
     0
100
AcDbLine
 10
66.9989779192
 20
34.8297546012
 30
0.0
 11
66.9989779192
 21
60.8297546012
 31
0.0
  0
ARC
  5
2AD
330
1F
100
AcDbEntity
  8
0
  6
Continuous
 62
     7
370
     0
100
AcDbCircle
 10
57.9989779192
 20
34.8297546012
 30
0.0
 40
0.9999999999973923
100
AcDbArc
 50
180.0
 51
270.0000000001
  0
LINE
  5
2AE
330
1F
100
AcDbEntity
  8
0
  6
Continuous
 62
     7
370
     0
100
AcDbLine
 10
56.9989779192
 20
60.8297546012
 30
0.0
 11
56.9989779192
 21
34.8297546012
 31
0.0
  0
ARC
  5
2AF
330
1F
100
AcDbEntity
  8
0
  6
Continuous
 62
     7
370
     0
100
AcDbCircle
 10
57.9989779192
 20
60.8297546012
 30
0.0
 40
0.9999999999961062
100
AcDbArc
 50
89.9999999999
 51
180.0
  0
LINE
  5
2B0
330
1F
100
AcDbEntity
  8
0
  6
Continuous
 62
     7
370
     0
100
AcDbLine
 10
65.9989779192
 20
61.8297546012
 30
0.0
 11
57.9989779192
 21
61.8297546012
 31
0.0
  0
ARC
  5
2B1
330
1F
100
AcDbEntity
  8
0
  6
Continuous
 62
     7
370
     0
100
AcDbCircle
 10
65.9989779192
 20
60.8297546012
 30
0.0
 40
0.9999999999973994
100
AcDbArc
 50
360.0
 51
90.0000000001
  0
LINE
  5
2B2
330
1F
100
AcDbEntity
  8
0
  6
Continuous
 62
     7
370
     0
100
AcDbLine
 10
57.9989779192
 20
33.8297546012
 30
0.0
 11
65.9989779192
 21
33.8297546012
 31
0.0
  0
ARC
  5
2B3
330
1F
100
AcDbEntity
  8
0
  6
Continuous
 62
     7
370
     0
100
AcDbCircle
 10
65.9989779192
 20
34.8297546012
 30
0.0
 40
0.9999999999973852
100
AcDbArc
 50
269.9999999999
 51
0.0
  0
LINE
  5
2B4
330
1F
100
AcDbEntity
  8
0
  6
Continuous
 62
     7
370
     0
100
AcDbLine
 10
55.7310287561
 20
31.8297538413
 30
0.0
 11
76.7669265344
 21
31.8297538413
 31
0.0
  0
LINE
  5
2B5
330
1F
100
AcDbEntity
  8
0
  6
Continuous
 62
     7
370
     0
100
AcDbLine
 10
76.7669265344
 20
63.8297553612
 30
0.0
 11
55.7310287561
 21
63.8297553612
 31
0.0
  0
LINE
  5
2B6
330
1F
100
AcDbEntity
  8
0
  6
Continuous
 62
     7
370
     0
100
AcDbLine
 10
44.3115911633
 20
36.3297545789
 30
0.0
 11
45.6863639131
 21
36.3297545789
 31
0.0
  0
LINE
  5
2B7
330
1F
100
AcDbEntity
  8
0
  6
Continuous
 62
     7
370
     0
100
AcDbLine
 10
43.4692117572
 20
37.2114385916
 30
0.0
 11
43.6986169964
 21
36.8140963344
 31
0.0
  0
LINE
  5
2B8
330
1F
100
AcDbEntity
  8
0
  6
Continuous
 62
     7
370
     0
100
AcDbLine
 10
43.6986169964
 20
58.8454128681
 30
0.0
 11
43.4692117572
 21
58.4480706109
 31
0.0
  0
LINE
  5
2B9
330
1F
100
AcDbEntity
  8
0
  6
Continuous
 62
     7
370
     0
100
AcDbLine
 10
45.6863639131
 20
59.3297546236
 30
0.0
 11
44.3115911633
 21
59.3297546236
 31
0.0
  0
LINE
  5
2BA
330
1F
100
AcDbEntity
  8
0
  6
Continuous
 62
     7
370
     0
100
AcDbLine
 10
40.4989772662
 20
32.3297548545
 30
0.0
 11
39.9989781156
 21
32.3297548545
 31
0.0
  0
LINE
  5
2BB
330
1F
100
AcDbEntity
  8
0
  6
Continuous
 62
     7
370
     0
100
AcDbLine
 10
39.9989781156
 20
31.8297538413
 30
0.0
 11
39.9989781156
 21
32.3297548545
 31
0.0
  0
LINE
  5
2BC
330
1F
100
AcDbEntity
  8
0
  6
Continuous
 62
     7
370
     0
100
AcDbLine
 10
37.9989777878
 20
31.8297538413
 30
0.0
 11
39.9989781156
 21
31.8297538413
 31
0.0
  0
LINE
  5
2BD
330
1F
100
AcDbEntity
  8
0
  6
Continuous
 62
     7
370
     0
100
AcDbLine
 10
37.9989777878
 20
31.8297538413
 30
0.0
 11
37.9989777878
 21
63.8297553612
 31
0.0
  0
LINE
  5
2BE
330
1F
100
AcDbEntity
  8
0
  6
Continuous
 62
     7
370
     0
100
AcDbLine
 10
37.9989777878
 20
63.8297553612
 30
0.0
 11
39.9989781156
 21
63.8297553612
 31
0.0
  0
LINE
  5
2BF
330
1F
100
AcDbEntity
  8
0
  6
Continuous
 62
     7
370
     0
100
AcDbLine
 10
39.9989781156
 20
63.3297543479
 30
0.0
 11
39.9989781156
 21
63.8297553612
 31
0.0
  0
LINE
  5
2C0
330
1F
100
AcDbEntity
  8
0
  6
Continuous
 62
     7
370
     0
100
AcDbLine
 10
39.9989781156
 20
63.3297543479
 30
0.0
 11
40.4989772662
 21
63.3297543479
 31
0.0
  0
LINE
  5
2C1
330
1F
100
AcDbEntity
  8
0
  6
Continuous
 62
     7
370
     0
100
AcDbLine
 10
40.9989782795
 20
63.8297553612
 30
0.0
 11
39.9989781156
 21
63.8297553612
 31
0.0
  0
LINE
  5
2C2
330
1F
100
AcDbEntity
  8
0
  6
Continuous
 62
     7
370
     0
100
AcDbLine
 10
39.9989781156
 20
31.8297538413
 30
0.0
 11
40.9989782795
 21
31.8297538413
 31
0.0
  0
LINE
  5
2C3
330
1F
100
AcDbEntity
  8
0
  6
Continuous
 62
     7
370
     0
100
AcDbLine
 10
101.9989771023
 20
44.3297544932
 30
0.0
 11
104.9989794567
 21
44.3297544932
 31
0.0
  0
LINE
  5
2C4
330
1F
100
AcDbEntity
  8
0
  6
Continuous
 62
     7
370
     0
100
AcDbLine
 10
101.9989771023
 20
47.8297546012
 30
0.0
 11
104.9989794567
 21
47.8297546013
 31
0.0
  0
LINE
  5
2C5
330
1F
100
AcDbEntity
  8
0
  6
Continuous
 62
     7
370
     0
100
AcDbLine
 10
104.9989794567
 20
47.8297546013
 30
0.0
 11
104.9989794567
 21
44.3297544932
 31
0.0
  0
LINE
  5
2C6
330
1F
100
AcDbEntity
  8
0
  6
Continuous
 62
     7
370
     0
100
AcDbLine
 10
101.9989771023
 20
51.3297547093
 30
0.0
 11
104.9989794567
 21
51.3297547093
 31
0.0
  0
LINE
  5
2C7
330
1F
100
AcDbEntity
  8
0
  6
Continuous
 62
     7
370
     0
100
AcDbLine
 10
104.9989794567
 20
51.3297547093
 30
0.0
 11
104.9989794567
 21
47.8297546013
 31
0.0
  0
LINE
  5
2C8
330
1F
100
AcDbEntity
  8
0
  6
Continuous
 62
     7
370
     0
100
AcDbLine
 10
108.5989779192
 20
49.8297546012
 30
0.0
 11
108.5989779192
 21
45.8297546012
 31
0.0
  0
LINE
  5
2C9
330
1F
100
AcDbEntity
  8
0
  6
Continuous
 62
     7
370
     0
100
AcDbLine
 10
108.9989779192
 20
49.4297546012
 30
0.0
 11
108.9989779192
 21
46.2297546012
 31
0.0
  0
LINE
  5
2CA
330
1F
100
AcDbEntity
  8
0
  6
Continuous
 62
     7
370
     0
100
AcDbLine
 10
101.9989771023
 20
52.5928944787
 30
0.0
 11
102.5989779192
 21
52.592894322
 31
0.0
  0
LINE
  5
2CB
330
1F
100
AcDbEntity
  8
0
  6
Continuous
 62
     7
370
     0
100
AcDbLine
 10
102.5989779192
 20
52.592894322
 30
0.0
 11
102.5989779192
 21
51.3297546012
 31
0.0
  0
LINE
  5
2CC
330
1F
100
AcDbEntity
  8
0
  6
Continuous
 62
     7
370
     0
100
AcDbLine
 10
102.5989779192
 20
44.3297546012
 30
0.0
 11
102.5989779192
 21
42.3297546012
 31
0.0
  0
LINE
  5
2CD
330
1F
100
AcDbEntity
  8
0
  6
Continuous
 62
     7
370
     0
100
AcDbLine
 10
111.5989779192
 20
49.3297546012
 30
0.0
 11
111.5989779192
 21
46.3297546012
 31
0.0
  0
DIMENSION
  5
2CE
330
1F
100
AcDbEntity
  8
0
  6
Continuous
 62
     7
370
     0
100
AcDbDimension
  2
*D11
 10
117.9496125656
 20
37.8297546012
 30
0.0
 11
117.9496125656
 21
47.8297546012
 31
0.0
 70
   160
 71
     1
 42
20.0
  3
SLDDIMSTYLE0
100
AcDbAlignedDimension
 13
89.9989779192
 23
57.8297546012
 33
0.0
 14
89.9989779192
 24
37.8297546012
 34
0.0
 50
90.0
100
AcDbRotatedDimension
1001
ACAD
1000
DSTYLE
1002
{
1070
    77
1070
     3
1070
   143
1040
0.0393700787
1070
    41
1040
3.0
1070
    44
1040
1.0
1070
    42
1040
1.0
1070
   147
1040
1.524
1070
    73
1070
     0
1070
    74
1070
     0
1070
   140
1040
3.5
1070
   284
1070
    12
1070
    78
1070
    12
1002
}
  0
DIMENSION
  5
2E2
330
1F
100
AcDbEntity
  8
0
  6
Continuous
 62
     7
370
     0
100
AcDbDimension
  2
*D12
 10
89.9989779192
 20
19.9849193178
 30
0.0
 11
67.4989779192
 21
19.9849193178
 31
0.0
 70
   160
 71
     1
 42
45.0
  3
SLDDIMSTYLE0
100
AcDbAlignedDimension
 13
44.9989779192
 23
37.8297546012
 33
0.0
 14
89.9989779192
 24
37.8297546012
 34
0.0
 50
0.0
100
AcDbRotatedDimension
1001
ACAD
1000
DSTYLE
1002
{
1070
    77
1070
     3
1070
   143
1040
0.0393700787
1070
    41
1040
3.0
1070
    44
1040
1.0
1070
    42
1040
1.0
1070
   147
1040
1.524
1070
    73
1070
     0
1070
    74
1070
     0
1070
   140
1040
3.5
1070
   284
1070
    12
1070
    78
1070
    12
1002
}
  0
DIMENSION
  5
2F5
330
1F
100
AcDbEntity
  8
0
  6
Continuous
 62
     7
370
     0
100
AcDbDimension
  2
*D13
 10
44.9989779192
 20
19.9849193178
 30
0.0
 11
41.4989779192
 21
19.9849193178
 31
0.0
 70
   160
 71
     1
 42
7.0
  3
SLDDIMSTYLE0
100
AcDbAlignedDimension
 13
37.9989779192
 23
31.8297546012
 33
0.0
 14
44.9989779192
 24
37.8297546012
 34
0.0
100
AcDbRotatedDimension
1001
ACAD
1000
DSTYLE
1002
{
1070
    77
1070
     3
1070
   143
1040
0.0393700787
1070
    41
1040
3.0
1070
    44
1040
1.0
1070
    42
1040
1.0
1070
   147
1040
1.524
1070
    73
1070
     0
1070
    74
1070
     0
1070
   140
1040
3.5
1070
   284
1070
    12
1070
    78
1070
    12
1002
}
  0
DIMENSION
  5
30C
330
1F
100
AcDbEntity
  8
0
  6
Continuous
 62
     7
370
     0
100
AcDbDimension
  2
*D14
 10
89.9989779192
 20
19.9849193178
 30
0.0
 11
95.9989779192
 21
19.9849193178
 31
0.0
 70
   160
 71
     1
 42
12.0
  3
SLDDIMSTYLE0
100
AcDbAlignedDimension
 13
101.9989779192
 23
32.1579052101
 33
0.0
 14
89.9989779192
 24
37.8297546012
 34
0.0
100
AcDbRotatedDimension
1001
ACAD
1000
DSTYLE
1002
{
1070
    77
1070
     3
1070
   143
1040
0.0393700787
1070
    41
1040
3.0
1070
    44
1040
1.0
1070
    42
1040
1.0
1070
   147
1040
1.524
1070
    73
1070
     0
1070
    74
1070
     0
1070
   140
1040
3.5
1070
   284
1070
    12
1070
    78
1070
    12
1002
}
  0
MTEXT
  5
321
330
1F
100
AcDbEntity
  8
0
  6
Continuous
 62
     7
370
     0
100
AcDbMText
 10
105.1044055309
 20
75.0751510834
 30
0.0
 40
3.5
 41
0.0
 71
     1
 72
     1
  1
4-M4
  7
SLDTEXTSTYLE0
 73
     1
 44
1.0
  0
LEADER
  5
323
330
1F
100
AcDbEntity
  8
0
  6
Continuous
 62
     7
370
     0
100
AcDbLeader
  3
SLDDIMSTYLE1
 76
     3
 10
91.4110437464
 20
59.2812004664
 30
0.0
 10
104.6025334545
 20
71.0012555164
 30
0.0
 10
113.2515131981
 20
71.0012555164
 30
0.0
  0
ENDSEC
  0
SECTION
  2
OBJECTS
  0
DICTIONARY
  5
C
330
0
100
AcDbDictionary
281
     1
  3
ACAD_GROUP
350
D
  3
ACAD_LAYOUT
350
1A
  3
ACAD_MLINESTYLE
350
17
  3
ACAD_PLOTSETTINGS
350
19
  3
ACAD_PLOTSTYLENAME
350
E
  0
DICTIONARY
  5
D
102
{ACAD_REACTORS
330
C
102
}
330
C
100
AcDbDictionary
281
     1
  0
DICTIONARY
  5
1A
102
{ACAD_REACTORS
330
C
102
}
330
C
100
AcDbDictionary
281
     1
  3
Layout1
350
1E
  3
Layout2
350
26
  3
Model
350
22
  0
DICTIONARY
  5
17
102
{ACAD_REACTORS
330
C
102
}
330
C
100
AcDbDictionary
281
     1
  3
Standard
350
18
  0
DICTIONARY
  5
19
102
{ACAD_REACTORS
330
C
102
}
330
C
100
AcDbDictionary
281
     1
  0
ACDBDICTIONARYWDFLT
  5
E
102
{ACAD_REACTORS
330
C
102
}
330
C
100
AcDbDictionary
281
     1
  3
Normal
350
F
100
AcDbDictionaryWithDefault
340
F
  0
LAYOUT
  5
1E
102
{ACAD_REACTORS
330
1A
102
}
330
1A
100
AcDbPlotSettings
  1

  2

  4

  6

 40
0.0
 41
0.0
 42
0.0
 43
0.0
 44
0.0
 45
0.0
 46
0.0
 47
0.0
 48
0.0
 49
0.0
140
0.0
141
0.0
142
1.0
143
1.0
 70
   688
 72
     0
 73
     0
 74
     5
  7

 75
    16
147
1.0
148
0.0
149
0.0
100
AcDbLayout
  1
Layout1
 70
     1
 71
     1
 10
0.0
 20
0.0
 11
0.0
 21
0.0
 12
0.0
 22
0.0
 32
0.0
 14
0.0
 24
0.0
 34
0.0
 15
0.0
 25
0.0
 35
0.0
146
0.0
 13
0.0
 23
0.0
 33
0.0
 16
1.0
 26
0.0
 36
0.0
 17
0.0
 27
1.0
 37
0.0
 76
     0
330
1B
  0
LAYOUT
  5
26
102
{ACAD_REACTORS
330
1A
102
}
330
1A
100
AcDbPlotSettings
  1

  2

  4

  6

 40
0.0
 41
0.0
 42
0.0
 43
0.0
 44
0.0
 45
0.0
 46
0.0
 47
0.0
 48
0.0
 49
0.0
140
0.0
141
0.0
142
1.0
143
1.0
 70
   688
 72
     0
 73
     0
 74
     5
  7

 75
    16
147
1.0
148
0.0
149
0.0
100
AcDbLayout
  1
Layout2
 70
     1
 71
     2
 10
0.0
 20
0.0
 11
0.0
 21
0.0
 12
0.0
 22
0.0
 32
0.0
 14
0.0
 24
0.0
 34
0.0
 15
0.0
 25
0.0
 35
0.0
146
0.0
 13
0.0
 23
0.0
 33
0.0
 16
1.0
 26
0.0
 36
0.0
 17
0.0
 27
1.0
 37
0.0
 76
     0
330
23
  0
LAYOUT
  5
22
102
{ACAD_REACTORS
330
1A
102
}
330
1A
100
AcDbPlotSettings
  1

  2

  4

  6

 40
0.0
 41
0.0
 42
0.0
 43
0.0
 44
0.0
 45
0.0
 46
0.0
 47
0.0
 48
0.0
 49
0.0
140
0.0
141
0.0
142
1.0
143
1.0
 70
  1712
 72
     0
 73
     0
 74
     0
  7

 75
     0
147
1.0
148
0.0
149
0.0
100
AcDbLayout
  1
Model
 70
     1
 71
     0
 10
0.0
 20
0.0
 11
0.0
 21
0.0
 12
0.0
 22
0.0
 32
0.0
 14
0.0
 24
0.0
 34
0.0
 15
210.0
 25
297.0
 35
0.0
146
0.0
 13
0.0
 23
0.0
 33
0.0
 16
1.0
 26
0.0
 36
0.0
 17
0.0
 27
1.0
 37
0.0
 76
     0
330
1F
  0
MLINESTYLE
  5
18
102
{ACAD_REACTORS
330
17
102
}
330
17
100
AcDbMlineStyle
  2
Standard
 70
     0
  3

 62
   256
 51
90.0
 52
90.0
 71
     2
 49
0.5
 62
   256
  6
BYLAYER
 49
-0.5
 62
   256
  6
BYLAYER
  0
ACDBPLACEHOLDER
  5
F
102
{ACAD_REACTORS
330
E
102
}
330
E
  0
ENDSEC
  0
EOF
