  0
SECTION
  2
HEADER
  9
$ACADVER
  1
AC1015
  9
$ACADMAINTVER
 70
     6
  9
$DWGCODEPAGE
  3
DOS932
  9
$INSBASE
 10
0.0
 20
0.0
 30
0.0
  9
$EXTMIN
 10
0.0
 20
0.0
 30
0.0
  9
$EXTMAX
 10
210.0
 20
297.0
 30
0.0
  9
$LIMMIN
 10
0.0
 20
0.0
  9
$LIMMAX
 10
0.0
 20
0.0
  9
$ORTHOMODE
 70
     0
  9
$REGENMODE
 70
     1
  9
$FILLMODE
 70
     1
  9
$QTEXTMODE
 70
     0
  9
$MIRRTEXT
 70
     1
  9
$LTSCALE
 40
1.0
  9
$ATTMODE
 70
     1
  9
$TEXTSIZE
 40
3.5
  9
$TRACEWID
 40
1.0
  9
$TEXTSTYLE
  7
Standard
  9
$CLAYER
  8
0
  9
$CELTYPE
  6
ByLayer
  9
$CECOLOR
 62
   256
  9
$CELTSCALE
 40
1.0
  9
$DISPSILH
 70
     0
  9
$DIMSCALE
 40
1.0
  9
$DIMASZ
 40
3.0
  9
$DIMEXO
 40
1.0
  9
$DIMDLI
 40
3.75
  9
$DIMRND
 40
0.0
  9
$DIMDLE
 40
0.0
  9
$DIMEXE
 40
1.0
  9
$DIMTP
 40
0.0
  9
$DIMTM
 40
0.0
  9
$DIMTXT
 40
3.5
  9
$DIMCEN
 40
2.5
  9
$DIMTSZ
 40
0.0
  9
$DIMTOL
 70
     0
  9
$DIMLIM
 70
     0
  9
$DIMTIH
 70
     1
  9
$DIMTOH
 70
     1
  9
$DIMSE1
 70
     0
  9
$DIMSE2
 70
     0
  9
$DIMTAD
 70
     1
  9
$DIMZIN
 70
     0
  9
$DIMBLK
  1

  9
$DIMASO
 70
     1
  9
$DIMSHO
 70
     1
  9
$DIMPOST
  1

  9
$DIMAPOST
  1

  9
$DIMALT
 70
     0
  9
$DIMALTD
 70
     3
  9
$DIMALTF
 40
0.0393700787
  9
$DIMLFAC
 40
1.0
  9
$DIMTOFL
 70
     1
  9
$DIMTVP
 40
0.0
  9
$DIMTIX
 70
     0
  9
$DIMSOXD
 70
     0
  9
$DIMSAH
 70
     0
  9
$DIMBLK1
  1

  9
$DIMBLK2
  1

  9
$DIMSTYLE
  2
ISO-25
  9
$DIMCLRD
 70
     0
  9
$DIMCLRE
 70
     0
  9
$DIMCLRT
 70
     0
  9
$DIMTFAC
 40
1.0
  9
$DIMGAP
 40
1.524
  9
$DIMJUST
 70
     0
  9
$DIMSD1
 70
     0
  9
$DIMSD2
 70
     0
  9
$DIMTOLJ
 70
     0
  9
$DIMTZIN
 70
     0
  9
$DIMALTZ
 70
     0
  9
$DIMALTTZ
 70
     0
  9
$DIMUPT
 70
     0
  9
$DIMDEC
 70
     2
  9
$DIMTDEC
 70
     2
  9
$DIMALTU
 70
     2
  9
$DIMALTTD
 70
     3
  9
$DIMTXSTY
  7
Standard
  9
$DIMAUNIT
 70
     0
  9
$DIMADEC
 70
     0
  9
$DIMALTRND
 40
0.0
  9
$DIMAZIN
 70
     0
  9
$DIMDSEP
 70
    44
  9
$DIMATFIT
 70
     3
  9
$DIMFRAC
 70
     0
  9
$DIMLDRBLK
  1

  9
$DIMLUNIT
 70
     2
  9
$DIMLWD
 70
    -2
  9
$DIMLWE
 70
    -2
  9
$DIMTMOVE
 70
     0
  9
$LUNITS
 70
     2
  9
$LUPREC
 70
     1
  9
$SKETCHINC
 40
1.0
  9
$FILLETRAD
 40
10.0
  9
$AUNITS
 70
     0
  9
$AUPREC
 70
     0
  9
$MENU
  1
.
  9
$ELEVATION
 40
0.0
  9
$PELEVATION
 40
0.0
  9
$THICKNESS
 40
0.0
  9
$LIMCHECK
 70
     0
  9
$CHAMFERA
 40
10.0
  9
$CHAMFERB
 40
10.0
  9
$CHAMFERC
 40
20.0
  9
$CHAMFERD
 40
0.0
  9
$SKPOLY
 70
     0
  9
$TDCREATE
 40
2454418.781657986
  9
$TDUCREATE
 40
2454418.406657986
  9
$TDUPDATE
 40
2454418.781657998
  9
$TDUUPDATE
 40
2454418.406657998
  9
$TDINDWG
 40
0.0000000116
  9
$TDUSRTIMER
 40
0.0000000116
  9
$USRTIMER
 70
     1
  9
$ANGBASE
 50
0.0
  9
$ANGDIR
 70
     0
  9
$PDMODE
 70
     0
  9
$PDSIZE
 40
-1.0
  9
$PLINEWID
 40
0.0
  9
$SPLFRAME
 70
     0
  9
$SPLINETYPE
 70
     6
  9
$SPLINESEGS
 70
     8
  9
$HANDSEED
  5
30F
  9
$SURFTAB1
 70
     6
  9
$SURFTAB2
 70
     6
  9
$SURFTYPE
 70
     6
  9
$SURFU
 70
     6
  9
$SURFV
 70
     6
  9
$UCSBASE
  2

  9
$UCSNAME
  2

  9
$UCSORG
 10
0.0
 20
0.0
 30
0.0
  9
$UCSXDIR
 10
1.0
 20
0.0
 30
0.0
  9
$UCSYDIR
 10
0.0
 20
1.0
 30
0.0
  9
$UCSORTHOREF
  2

  9
$UCSORTHOVIEW
 70
     0
  9
$UCSORGTOP
 10
0.0
 20
0.0
 30
0.0
  9
$UCSORGBOTTOM
 10
0.0
 20
0.0
 30
0.0
  9
$UCSORGLEFT
 10
0.0
 20
0.0
 30
0.0
  9
$UCSORGRIGHT
 10
0.0
 20
0.0
 30
0.0
  9
$UCSORGFRONT
 10
0.0
 20
0.0
 30
0.0
  9
$UCSORGBACK
 10
0.0
 20
0.0
 30
0.0
  9
$PUCSBASE
  2

  9
$PUCSNAME
  2

  9
$PUCSORG
 10
0.0
 20
0.0
 30
0.0
  9
$PUCSXDIR
 10
1.0
 20
0.0
 30
0.0
  9
$PUCSYDIR
 10
0.0
 20
1.0
 30
0.0
  9
$PUCSORTHOREF
  2

  9
$PUCSORTHOVIEW
 70
     0
  9
$PUCSORGTOP
 10
0.0
 20
0.0
 30
0.0
  9
$PUCSORGBOTTOM
 10
0.0
 20
0.0
 30
0.0
  9
$PUCSORGLEFT
 10
0.0
 20
0.0
 30
0.0
  9
$PUCSORGRIGHT
 10
0.0
 20
0.0
 30
0.0
  9
$PUCSORGFRONT
 10
0.0
 20
0.0
 30
0.0
  9
$PUCSORGBACK
 10
0.0
 20
0.0
 30
0.0
  9
$USERI1
 70
     0
  9
$USERI2
 70
     0
  9
$USERI3
 70
     0
  9
$USERI4
 70
     0
  9
$USERI5
 70
     0
  9
$USERR1
 40
0.0
  9
$USERR2
 40
0.0
  9
$USERR3
 40
0.0
  9
$USERR4
 40
0.0
  9
$USERR5
 40
0.0
  9
$WORLDVIEW
 70
     1
  9
$SHADEDGE
 70
     3
  9
$SHADEDIF
 70
    70
  9
$TILEMODE
 70
     1
  9
$MAXACTVP
 70
    64
  9
$PINSBASE
 10
0.0
 20
0.0
 30
0.0
  9
$PLIMCHECK
 70
     0
  9
$PEXTMIN
 10
1.0000000000E+20
 20
1.0000000000E+20
 30
1.0000000000E+20
  9
$PEXTMAX
 10
-1.0000000000E+20
 20
-1.0000000000E+20
 30
-1.0000000000E+20
  9
$PLIMMIN
 10
0.0
 20
0.0
  9
$PLIMMAX
 10
420.0
 20
297.0
  9
$UNITMODE
 70
     0
  9
$VISRETAIN
 70
     1
  9
$PLINEGEN
 70
     0
  9
$PSLTSCALE
 70
     1
  9
$TREEDEPTH
 70
  3020
  9
$CMLSTYLE
  2
Standard
  9
$CMLJUST
 70
     0
  9
$CMLSCALE
 40
20.0
  9
$PROXYGRAPHICS
 70
     1
  9
$MEASUREMENT
 70
     1
  9
$CELWEIGHT
370
    -1
  9
$ENDCAPS
280
     0
  9
$JOINSTYLE
280
     0
  9
$LWDISPLAY
290
     1
  9
$INSUNITS
 70
     4
  9
$HYPERLINKBASE
  1

  9
$STYLESHEET
  1

  9
$XEDIT
290
     1
  9
$CEPSNTYPE
380
     0
  9
$PSTYLEMODE
290
     1
  9
$FINGERPRINTGUID
  2
{567D442D-79EF-436D-B4B2-6E2A7F4C3898}
  9
$VERSIONGUID
  2
{FAEB1C32-E019-11D5-929B-00C0DF256EC4}
  9
$EXTNAMES
290
     1
  9
$PSVPSCALE
 40
0.0
  9
$OLESTARTUP
290
     0
  0
ENDSEC
  0
SECTION
  2
CLASSES
  0
CLASS
  1
ACDBDICTIONARYWDFLT
  2
AcDbDictionaryWithDefault
  3
ObjectDBX Classes
 90
        0
280
     0
281
     0
  0
CLASS
  1
ACDBPLACEHOLDER
  2
AcDbPlaceHolder
  3
ObjectDBX Classes
 90
        0
280
     0
281
     0
  0
CLASS
  1
LAYOUT
  2
AcDbLayout
  3
ObjectDBX Classes
 90
        0
280
     0
281
     0
  0
ENDSEC
  0
SECTION
  2
TABLES
  0
TABLE
  2
VPORT
  5
8
330
0
100
AcDbSymbolTable
 70
     1
  0
VPORT
  5
29
330
8
100
AcDbSymbolTableRecord
100
AcDbViewportTableRecord
  2
*Active
 70
     0
 10
0.0
 20
0.0
 11
1.0
 21
1.0
 12
105.0
 22
148.5
 13
0.0
 23
0.0
 14
10.0
 24
10.0
 15
10.0
 25
10.0
 16
0.0
 26
0.0
 36
1.0
 17
0.0
 27
0.0
 37
0.0
 40
297.0
 41
1.9729729729
 42
50.0
 43
0.0
 44
0.0
 50
0.0
 51
0.0
 71
     0
 72
  2000
 73
     1
 74
     3
 75
     0
 76
     0
 77
     0
 78
     0
281
     0
 65
     1
110
0.0
120
0.0
130
0.0
111
1.0
121
0.0
131
0.0
112
0.0
122
1.0
132
0.0
 79
     0
146
0.0
  0
ENDTAB
  0
TABLE
  2
LTYPE
  5
5
330
0
100
AcDbSymbolTable
 70
     6
  0
LTYPE
  5
14
330
5
100
AcDbSymbolTableRecord
100
AcDbLinetypeTableRecord
  2
ByBlock
 70
     0
  3

 72
    65
 73
     0
 40
0.0
  0
LTYPE
  5
15
330
5
100
AcDbSymbolTableRecord
100
AcDbLinetypeTableRecord
  2
ByLayer
 70
     0
  3

 72
    65
 73
     0
 40
0.0
  0
LTYPE
  5
16
330
5
100
AcDbSymbolTableRecord
100
AcDbLinetypeTableRecord
  2
Continuous
 70
     0
  3
Solid line
 72
    65
 73
     0
 40
0.0
  0
LTYPE
  5
2A
330
5
100
AcDbSymbolTableRecord
100
AcDbLinetypeTableRecord
  2
HIDDEN
 70
     0
  3
Hidden __ __ __ __ __ __ __ __ __ __ __ __ __ __
 72
    65
 73
     2
 40
1.905
 49
1.27
 74
     0
 49
-0.635
 74
     0
  0
LTYPE
  5
2B
330
5
100
AcDbSymbolTableRecord
100
AcDbLinetypeTableRecord
  2
PHANTOM
 70
     0
  3
Phantom ______  __  __  ______  __  __  ______
 72
    65
 73
     6
 40
12.7
 49
6.35
 74
     0
 49
-1.27
 74
     0
 49
1.27
 74
     0
 49
-1.27
 74
     0
 49
1.27
 74
     0
 49
-1.27
 74
     0
  0
LTYPE
  5
2C
330
5
100
AcDbSymbolTableRecord
100
AcDbLinetypeTableRecord
  2
CENTER
 70
     0
  3
Center ____ _ ____ _ ____ _ ____ _ ____ _ ____
 72
    65
 73
     4
 40
10.16
 49
6.35
 74
     0
 49
-1.27
 74
     0
 49
1.27
 74
     0
 49
-1.27
 74
     0
  0
LTYPE
  5
2D
330
5
100
AcDbSymbolTableRecord
100
AcDbLinetypeTableRecord
  2
CENTERX2
 70
     0
  3
Center (2x) ________  __  ________  __  _____
 72
    65
 73
     4
 40
20.32
 49
12.7
 74
     0
 49
-2.54
 74
     0
 49
2.54
 74
     0
 49
-2.54
 74
     0
  0
LTYPE
  5
2E
330
5
100
AcDbSymbolTableRecord
100
AcDbLinetypeTableRecord
  2
DOT2
 70
     0
  3
Dot (.5x) ........................................
 72
    65
 73
     2
 40
0.635
 49
0.0
 74
     0
 49
-0.635
 74
     0
  0
ENDTAB
  0
TABLE
  2
LAYER
  5
2
330
0
100
AcDbSymbolTable
 70
     2
  0
LAYER
  5
10
330
2
100
AcDbSymbolTableRecord
100
AcDbLayerTableRecord
  2
0
 70
     0
 62
     7
  6
Continuous
370
    -3
390
F
  0
LAYER
  5
12A
330
2
100
AcDbSymbolTableRecord
100
AcDbLayerTableRecord
  2
Defpoints
 70
     0
 62
     7
  6
Continuous
290
     0
370
    -3
390
F
  0
ENDTAB
  0
TABLE
  2
STYLE
  5
3
330
0
100
AcDbSymbolTable
 70
     2
  0
STYLE
  5
11
330
3
100
AcDbSymbolTableRecord
100
AcDbTextStyleTableRecord
  2
Standard
 70
     0
 40
0.0
 41
1.0
 50
0.0
 71
     0
 42
2.5
  3
txt
  4
bigfont
  0
STYLE
  5
37
330
3
100
AcDbSymbolTableRecord
100
AcDbTextStyleTableRecord
  2
SLDTEXTSTYLE0
 70
     0
 40
0.0
 41
0.7
 50
0.0
 71
     0
 42
0.2
  3
TXT
  4
bigfont
  0
ENDTAB
  0
TABLE
  2
VIEW
  5
6
330
0
100
AcDbSymbolTable
 70
     0
  0
ENDTAB
  0
TABLE
  2
UCS
  5
7
330
0
100
AcDbSymbolTable
 70
     0
  0
ENDTAB
  0
TABLE
  2
APPID
  5
9
330
0
100
AcDbSymbolTable
 70
     1
  0
APPID
  5
12
330
9
100
AcDbSymbolTableRecord
100
AcDbRegAppTableRecord
  2
ACAD
 70
     0
  0
ENDTAB
  0
TABLE
  2
DIMSTYLE
  5
A
330
0
100
AcDbSymbolTable
 70
     3
100
AcDbDimStyleTable
  0
DIMSTYLE
105
27
330
A
100
AcDbSymbolTableRecord
100
AcDbDimStyleTableRecord
  2
ISO-25
 70
     0
 41
2.5
 42
0.625
 43
3.75
 44
1.25
 73
     0
 74
     0
 77
     1
 78
     8
140
2.5
141
2.5
143
0.0393700787
147
0.625
171
     3
172
     1
271
     2
272
     2
274
     3
278
    44
283
     0
284
     8
340
11
  0
DIMSTYLE
105
138
102
{ACAD_REACTORS
330
129
330
145
330
159
330
16D
330
23F
330
252
330
2B9
330
2CC
330
2E0
330
2F7
102
}
330
A
100
AcDbSymbolTableRecord
100
AcDbDimStyleTableRecord
  2
SLDDIMSTYLE0
 70
     0
 41
3.0
 44
0.0
 73
     0
 74
     0
 77
     3
 78
    12
140
3.5
147
0.875
173
     1
271
     1
272
     3
284
    12
340
37
341
139
343
139
344
139
  0
DIMSTYLE
105
30D
330
A
100
AcDbSymbolTableRecord
100
AcDbDimStyleTableRecord
  2
SLDDIMSTYLE1
 70
     0
 41
3.0
 44
0.0
140
3.0
147
0.75
173
     1
271
     0
272
     0
340
11
341
139
343
139
344
139
  0
ENDTAB
  0
TABLE
  2
BLOCK_RECORD
  5
1
330
0
100
AcDbSymbolTable
 70
    13
  0
BLOCK_RECORD
  5
1F
330
1
100
AcDbSymbolTableRecord
100
AcDbBlockTableRecord
  2
*Model_Space
340
22
  0
BLOCK_RECORD
  5
1B
330
1
100
AcDbSymbolTableRecord
100
AcDbBlockTableRecord
  2
*Paper_Space
340
1E
  0
BLOCK_RECORD
  5
23
330
1
100
AcDbSymbolTableRecord
100
AcDbBlockTableRecord
  2
*Paper_Space0
340
26
  0
BLOCK_RECORD
  5
39
330
1
100
AcDbSymbolTableRecord
100
AcDbBlockTableRecord
  2
SW_NOTE_0
340
0
102
{BLKREFS
331
3E
102
}
  0
BLOCK_RECORD
  5
12B
330
1
100
AcDbSymbolTableRecord
100
AcDbBlockTableRecord
  2
*D2
340
0
  0
BLOCK_RECORD
  5
139
330
1
100
AcDbSymbolTableRecord
100
AcDbBlockTableRecord
  2
_Open30
340
0
102
{BLKREFS
331
130
331
12F
331
13F
331
140
331
14B
331
14A
331
153
331
154
331
15F
331
15E
331
167
331
168
331
173
331
172
331
17A
331
17B
331
245
331
244
331
24C
331
24D
331
25A
331
259
331
261
331
262
331
2BF
331
2BE
331
2C6
331
2C7
331
2D2
331
2D1
331
2DA
331
2DB
331
2E8
331
2E7
331
2EF
331
2F0
331
2FD
331
2FC
331
304
331
305
102
}
  0
BLOCK_RECORD
  5
146
330
1
100
AcDbSymbolTableRecord
100
AcDbBlockTableRecord
  2
*D4
340
0
  0
BLOCK_RECORD
  5
15A
330
1
100
AcDbSymbolTableRecord
100
AcDbBlockTableRecord
  2
*D5
340
0
  0
BLOCK_RECORD
  5
16E
330
1
100
AcDbSymbolTableRecord
100
AcDbBlockTableRecord
  2
*D6
340
0
  0
BLOCK_RECORD
  5
240
330
1
100
AcDbSymbolTableRecord
100
AcDbBlockTableRecord
  2
*D7
340
0
  0
BLOCK_RECORD
  5
253
330
1
100
AcDbSymbolTableRecord
100
AcDbBlockTableRecord
  2
*D8
340
0
  0
BLOCK_RECORD
  5
2BA
330
1
100
AcDbSymbolTableRecord
100
AcDbBlockTableRecord
  2
*D9
340
0
  0
BLOCK_RECORD
  5
2CD
330
1
100
AcDbSymbolTableRecord
100
AcDbBlockTableRecord
  2
*D10
340
0
  0
BLOCK_RECORD
  5
2E1
330
1
100
AcDbSymbolTableRecord
100
AcDbBlockTableRecord
  2
*D11
340
0
  0
BLOCK_RECORD
  5
2F8
330
1
100
AcDbSymbolTableRecord
100
AcDbBlockTableRecord
  2
*D12
340
0
  0
ENDTAB
  0
ENDSEC
  0
SECTION
  2
BLOCKS
  0
BLOCK
  5
20
330
1F
100
AcDbEntity
  8
0
100
AcDbBlockBegin
  2
*Model_Space
 70
     0
 71
     0
 10
0.0
 20
0.0
 30
0.0
  3
*Model_Space
  1

  0
ENDBLK
  5
21
330
1F
100
AcDbEntity
  8
0
100
AcDbBlockEnd
  0
BLOCK
  5
1C
330
1B
100
AcDbEntity
 67
     1
  8
0
100
AcDbBlockBegin
  2
*Paper_Space
 70
     0
 71
     0
 10
0.0
 20
0.0
 30
0.0
  3
*Paper_Space
  1

  0
ENDBLK
  5
1D
330
1B
100
AcDbEntity
 67
     1
  8
0
100
AcDbBlockEnd
  0
BLOCK
  5
24
330
23
100
AcDbEntity
  8
0
100
AcDbBlockBegin
  2
*Paper_Space0
 70
     0
 71
     0
 10
0.0
 20
0.0
 30
0.0
  3
*Paper_Space0
  1

  0
ENDBLK
  5
25
330
23
100
AcDbEntity
  8
0
100
AcDbBlockEnd
  0
BLOCK
  5
3A
330
39
100
AcDbEntity
  8
0
100
AcDbBlockBegin
  2
SW_NOTE_0
 70
     0
 71
     0
 10
0.0
 20
0.0
 30
0.0
  3
SW_NOTE_0
  1

  0
MTEXT
  5
3C
330
39
100
AcDbEntity
  8
0
  6
Continuous
 62
     7
370
     0
100
AcDbMText
 10
0.0
 20
4.9260606061
 30
0.0
 40
4.2333333333
 41
0.0
 71
     1
 72
     1
  1
GT-NTシリーズ
  7
SLDTEXTSTYLE0
 73
     1
 44
1.0
  0
MTEXT
  5
3D
330
39
100
AcDbEntity
  8
0
  6
Continuous
 62
     7
370
     0
100
AcDbMText
 10
-6.7062098533
 20
-0.7183837702
 30
0.0
 40
4.2333333333
 41
0.0
 71
     1
 72
     1
  1
(スライドタイプタテ型)
  7
SLDTEXTSTYLE0
 73
     1
 44
1.0
  0
ENDBLK
  5
3B
330
39
100
AcDbEntity
  8
0
100
AcDbBlockEnd
  0
BLOCK
  5
136
330
12B
100
AcDbEntity
  8
0
100
AcDbBlockBegin
  2
*D2
 70
     1
 71
     0
 10
0.0
 20
0.0
 30
0.0
  3
*D2
  1

  0
INSERT
  5
13F
330
12B
100
AcDbEntity
  8
0
  6
Continuous
 62
     7
370
     0
100
AcDbBlockReference
  2
_Open30
 10
125.5678303222
 20
198.4611819789
 30
0.1
 41
3.0
 42
3.0
 50
90.0
  0
INSERT
  5
140
330
12B
100
AcDbEntity
  8
0
  6
Continuous
 62
     7
370
     0
100
AcDbBlockReference
  2
_Open30
 10
125.5678303222
 20
177.4611819789
 30
0.1
 41
3.0
 42
3.0
 50
270.0
  0
LINE
  5
141
330
12B
100
AcDbEntity
  8
0
  6
Continuous
 62
     7
370
     0
100
AcDbLine
 10
98.5075321068
 20
198.4611819789
 30
0.0
 11
126.5678303222
 21
198.4611819789
 31
0.0
  0
LINE
  5
142
330
12B
100
AcDbEntity
  8
0
  6
Continuous
 62
     7
370
     0
100
AcDbLine
 10
101.0075321068
 20
177.4611819789
 30
0.0
 11
126.5678303222
 21
177.4611819789
 31
0.0
  0
LINE
  5
143
330
12B
100
AcDbEntity
  8
0
  6
Continuous
 62
     7
370
     0
100
AcDbLine
 10
125.5678303222
 20
198.4611819789
 30
0.0
 11
125.5678303222
 21
177.4611819789
 31
0.0
  0
MTEXT
  5
144
330
12B
100
AcDbEntity
  8
0
  6
Continuous
 62
     7
370
     0
100
AcDbMText
 10
121.4951032823
 20
185.9254317708
 30
0.0
 40
3.5
 41
0.0
 71
     1
 72
     1
  1
21
  7
SLDTEXTSTYLE0
 11
-7.044197039909883E-15
 21
1.0
 31
0.0
 73
     1
 44
1.0
  0
ENDBLK
  5
137
330
12B
100
AcDbEntity
  8
0
100
AcDbBlockEnd
  0
BLOCK
  5
13A
330
139
100
AcDbEntity
  8
0
100
AcDbBlockBegin
  2
_Open30
 70
     0
 71
     0
 10
0.0
 20
0.0
 30
0.0
  3
_Open30
  1

  0
LINE
  5
13C
330
139
100
AcDbEntity
  8
0
  6
ByBlock
 62
     0
370
    -2
100
AcDbLine
 10
-1.0
 20
0.267949
 30
0.0
 11
0.0
 21
0.0
 31
0.0
  0
LINE
  5
13D
330
139
100
AcDbEntity
  8
0
  6
ByBlock
 62
     0
370
    -2
100
AcDbLine
 10
0.0
 20
0.0
 30
0.0
 11
-1.0
 21
-0.267949
 31
0.0
  0
LINE
  5
13E
330
139
100
AcDbEntity
  8
0
  6
ByBlock
 62
     0
370
    -2
100
AcDbLine
 10
0.0
 20
0.0
 30
0.0
 11
-1.0
 21
0.0
 31
0.0
  0
ENDBLK
  5
13B
330
139
100
AcDbEntity
  8
0
100
AcDbBlockEnd
  0
BLOCK
  5
151
330
146
100
AcDbEntity
  8
0
100
AcDbBlockBegin
  2
*D4
 70
     1
 71
     0
 10
0.0
 20
0.0
 30
0.0
  3
*D4
  1

  0
INSERT
  5
153
330
146
100
AcDbEntity
  8
0
  6
Continuous
 62
     7
370
     0
100
AcDbBlockReference
  2
_Open30
 10
125.5678303222
 20
148.3611819789
 30
0.1
 41
3.0
 42
3.0
 50
270.0
  0
INSERT
  5
154
330
146
100
AcDbEntity
  8
0
  6
Continuous
 62
     7
370
     0
100
AcDbBlockReference
  2
_Open30
 10
125.5678303222
 20
177.4611819789
 30
0.1
 41
3.0
 42
3.0
 50
90.0
  0
LINE
  5
155
330
146
100
AcDbEntity
  8
0
  6
Continuous
 62
     7
370
     0
100
AcDbLine
 10
107.0075321068
 20
148.3611819789
 30
0.0
 11
126.5678303222
 21
148.3611819789
 31
0.0
  0
LINE
  5
156
330
146
100
AcDbEntity
  8
0
  6
Continuous
 62
     7
370
     0
100
AcDbLine
 10
96.0075321068
 20
177.4611819789
 30
0.0
 11
126.5678303222
 21
177.4611819789
 31
0.0
  0
LINE
  5
157
330
146
100
AcDbEntity
  8
0
  6
Continuous
 62
     7
370
     0
100
AcDbLine
 10
125.5678303222
 20
148.3611819789
 30
0.0
 11
125.5678303222
 21
177.4611819789
 31
0.0
  0
MTEXT
  5
158
330
146
100
AcDbEntity
  8
0
  6
Continuous
 62
     7
370
     0
100
AcDbMText
 10
121.4951032823
 20
158.837720339
 30
0.0
 40
3.5
 41
0.0
 71
     1
 72
     1
  1
29.1
  7
SLDTEXTSTYLE0
 11
6.123031769111886E-17
 21
1.0
 31
0.0
 73
     1
 44
1.0
  0
ENDBLK
  5
152
330
146
100
AcDbEntity
  8
0
100
AcDbBlockEnd
  0
BLOCK
  5
165
330
15A
100
AcDbEntity
  8
0
100
AcDbBlockBegin
  2
*D5
 70
     1
 71
     0
 10
0.0
 20
0.0
 30
0.0
  3
*D5
  1

  0
INSERT
  5
167
330
15A
100
AcDbEntity
  8
0
  6
Continuous
 62
     7
370
     0
100
AcDbBlockReference
  2
_Open30
 10
30.1286400573
 20
148.3611819789
 30
0.1
 41
3.0
 42
3.0
 50
270.0
  0
INSERT
  5
168
330
15A
100
AcDbEntity
  8
0
  6
Continuous
 62
     7
370
     0
100
AcDbBlockReference
  2
_Open30
 10
30.1286400573
 20
236.4611819789
 30
0.1
 41
3.0
 42
3.0
 50
90.0
  0
LINE
  5
169
330
15A
100
AcDbEntity
  8
0
  6
Continuous
 62
     7
370
     0
100
AcDbLine
 10
37.5075321068
 20
148.3611819789
 30
0.0
 11
29.1286400573
 21
148.3611819789
 31
0.0
  0
LINE
  5
16A
330
15A
100
AcDbEntity
  8
0
  6
Continuous
 62
     7
370
     0
100
AcDbLine
 10
35.5075321068
 20
236.4611819789
 30
0.0
 11
29.1286400573
 21
236.4611819789
 31
0.0
  0
LINE
  5
16B
330
15A
100
AcDbEntity
  8
0
  6
Continuous
 62
     7
370
     0
100
AcDbLine
 10
30.1286400573
 20
148.3611819789
 30
0.0
 11
30.1286400573
 21
236.4611819789
 31
0.0
  0
MTEXT
  5
16C
330
15A
100
AcDbEntity
  8
0
  6
Continuous
 62
     7
370
     0
100
AcDbMText
 10
26.0559130174
 20
190.3754317708
 30
0.0
 40
3.5
 41
0.0
 71
     1
 72
     1
  1
88
  7
SLDTEXTSTYLE0
 11
2.827240123872560E-13
 21
1.0
 31
0.0
 73
     1
 44
1.0
  0
ENDBLK
  5
166
330
15A
100
AcDbEntity
  8
0
100
AcDbBlockEnd
  0
BLOCK
  5
178
330
16E
100
AcDbEntity
  8
0
100
AcDbBlockBegin
  2
*D6
 70
     1
 71
     0
 10
0.0
 20
0.0
 30
0.0
  3
*D6
  1

  0
INSERT
  5
17A
330
16E
100
AcDbEntity
  8
0
  6
Continuous
 62
     7
370
     0
100
AcDbBlockReference
  2
_Open30
 10
36.5075321068
 20
272.3272093346
 30
0.1
 41
3.0
 42
3.0
 50
360.0
  0
INSERT
  5
17B
330
16E
100
AcDbEntity
  8
0
  6
Continuous
 62
     7
370
     0
100
AcDbBlockReference
  2
_Open30
 10
47.5075321068
 20
272.3272093346
 30
0.1
 41
3.0
 42
3.0
 50
180.0
  0
LINE
  5
17C
330
16E
100
AcDbEntity
  8
0
  6
Continuous
 62
     7
370
     0
100
AcDbLine
 10
36.5075321068
 20
241.4611819789
 30
0.0
 11
36.5075321068
 21
273.3272093346
 31
0.0
  0
LINE
  5
17D
330
16E
100
AcDbEntity
  8
0
  6
Continuous
 62
     7
370
     0
100
AcDbLine
 10
47.5075321068
 20
245.4611819789
 30
0.0
 11
47.5075321068
 21
273.3272093346
 31
0.0
  0
LINE
  5
17E
330
16E
100
AcDbEntity
  8
0
  6
Continuous
 62
     7
370
     0
100
AcDbLine
 10
36.5075321068
 20
272.3272093346
 30
0.0
 11
31.5075321068
 21
272.3272093346
 31
0.0
  0
LINE
  5
17F
330
16E
100
AcDbEntity
  8
0
  6
Continuous
 62
     7
370
     0
100
AcDbLine
 10
36.5075321068
 20
272.3272093346
 30
0.0
 11
47.5075321068
 21
272.3272093346
 31
0.0
  0
LINE
  5
180
330
16E
100
AcDbEntity
  8
0
  6
Continuous
 62
     7
370
     0
100
AcDbLine
 10
47.5075321068
 20
272.3272093346
 30
0.0
 11
52.5075321068
 21
272.3272093346
 31
0.0
  0
MTEXT
  5
181
330
16E
100
AcDbEntity
  8
0
  6
Continuous
 62
     7
370
     0
100
AcDbMText
 10
39.9717818987
 20
276.3999363745
 30
0.0
 40
3.5
 41
0.0
 71
     1
 72
     1
  1
11
  7
SLDTEXTSTYLE0
 73
     1
 44
1.0
  0
ENDBLK
  5
179
330
16E
100
AcDbEntity
  8
0
100
AcDbBlockEnd
  0
BLOCK
  5
24A
330
240
100
AcDbEntity
  8
0
100
AcDbBlockBegin
  2
*D7
 70
     1
 71
     0
 10
0.0
 20
0.0
 30
0.0
  3
*D7
  1

  0
INSERT
  5
24C
330
240
100
AcDbEntity
  8
0
  6
Continuous
 62
     7
370
     0
100
AcDbBlockReference
  2
_Open30
 10
150.8935889571
 20
137.1792700245
 30
23.0179563492
 41
3.0
 42
3.0
 50
180.0
  0
INSERT
  5
24D
330
240
100
AcDbEntity
  8
0
  6
Continuous
 62
     7
370
     0
100
AcDbBlockReference
  2
_Open30
 10
188.8935889571
 20
137.1792700245
 30
23.0179563492
 41
3.0
 42
3.0
 50
0.0
  0
LINE
  5
24E
330
240
100
AcDbEntity
  8
0
  6
Continuous
 62
     7
370
     0
100
AcDbLine
 10
150.8935889571
 20
147.3611819789
 30
0.0
 11
150.8935889571
 21
136.1792700245
 31
0.0
  0
LINE
  5
24F
330
240
100
AcDbEntity
  8
0
  6
Continuous
 62
     7
370
     0
100
AcDbLine
 10
188.8935889571
 20
147.3611819789
 30
0.0
 11
188.8935889571
 21
136.1792700245
 31
0.0
  0
LINE
  5
250
330
240
100
AcDbEntity
  8
0
  6
Continuous
 62
     7
370
     0
100
AcDbLine
 10
150.8935889571
 20
137.1792700245
 30
0.0
 11
188.8935889571
 21
137.1792700245
 31
0.0
  0
MTEXT
  5
251
330
240
100
AcDbEntity
  8
0
  6
Continuous
 62
     7
370
     0
100
AcDbMText
 10
167.857838749
 20
141.2519970644
 30
0.0
 40
3.5
 41
0.0
 71
     1
 72
     1
  1
38
  7
SLDTEXTSTYLE0
 73
     1
 44
1.0
  0
ENDBLK
  5
24B
330
240
100
AcDbEntity
  8
0
100
AcDbBlockEnd
  0
BLOCK
  5
25E
330
253
100
AcDbEntity
  8
0
100
AcDbBlockBegin
  2
*D8
 70
     1
 71
     0
 10
0.0
 20
0.0
 30
0.0
  3
*D8
  1

  0
INSERT
  5
261
330
253
100
AcDbEntity
  8
0
  6
Continuous
 62
     7
370
     0
100
AcDbBlockReference
  2
_Open30
 10
166.3935889173
 20
269.7835895868
 30
23.0179563492
 41
3.0
 42
3.0
 50
0.0000028454
  0
INSERT
  5
262
330
253
100
AcDbEntity
  8
0
  6
Continuous
 62
     7
370
     0
100
AcDbBlockReference
  2
_Open30
 10
173.3935884868
 20
269.7835899344
 30
23.0179563492
 41
3.0
 42
3.0
 50
180.0000028454
  0
LINE
  5
263
330
253
100
AcDbEntity
  8
0
  6
Continuous
 62
     7
370
     0
100
AcDbLine
 10
166.3935891412
 20
265.2750506139
 30
0.0
 11
166.3935888677
 21
270.7835895868
 31
0.0
  0
LINE
  5
264
330
253
100
AcDbEntity
  8
0
  6
Continuous
 62
     7
370
     0
100
AcDbLine
 10
173.3935887107
 20
265.2750509615
 30
0.0
 11
173.3935884371
 21
270.7835899344
 31
0.0
  0
LINE
  5
265
330
253
100
AcDbEntity
  8
0
  6
Continuous
 62
     7
370
     0
100
AcDbLine
 10
166.3935889173
 20
269.7835895868
 30
0.0
 11
161.3935889173
 21
269.7835893385
 31
0.0
  0
LINE
  5
266
330
253
100
AcDbEntity
  8
0
  6
Continuous
 62
     7
370
     0
100
AcDbLine
 10
166.3935889173
 20
269.7835895868
 30
0.0
 11
173.3935884868
 21
269.7835899344
 31
0.0
  0
LINE
  5
267
330
253
100
AcDbEntity
  8
0
  6
Continuous
 62
     7
370
     0
100
AcDbLine
 10
173.3935884868
 20
269.7835899344
 30
0.0
 11
178.3935884868
 21
269.7835901827
 31
0.0
  0
MTEXT
  5
268
330
253
100
AcDbEntity
  8
0
  6
Continuous
 62
     7
370
     0
100
AcDbMText
 10
168.8757133957
 20
273.85631675
 30
0.0
 40
3.5
 41
0.0
 71
     1
 72
     1
  1
7
  7
SLDTEXTSTYLE0
 11
0.9999999999999988
 21
4.966111359586213E-8
 31
0.0
 73
     1
 44
1.0
  0
ENDBLK
  5
25F
330
253
100
AcDbEntity
  8
0
100
AcDbBlockEnd
  0
BLOCK
  5
2C4
330
2BA
100
AcDbEntity
  8
0
100
AcDbBlockBegin
  2
*D9
 70
     1
 71
     0
 10
0.0
 20
0.0
 30
0.0
  3
*D9
  1

  0
INSERT
  5
2C6
330
2BA
100
AcDbEntity
  8
0
  6
Continuous
 62
     7
370
     0
100
AcDbBlockReference
  2
_Open30
 10
44.5075321068
 20
57.832663283
 30
48.450193834
 41
3.0
 42
3.0
 50
180.0
  0
INSERT
  5
2C7
330
2BA
100
AcDbEntity
  8
0
  6
Continuous
 62
     7
370
     0
100
AcDbBlockReference
  2
_Open30
 10
97.5075321068
 20
57.832663283
 30
48.450193834
 41
3.0
 42
3.0
 50
360.0
  0
LINE
  5
2C8
330
2BA
100
AcDbEntity
  8
0
  6
Continuous
 62
     7
370
     0
100
AcDbLine
 10
44.5075321068
 20
76.6466257669
 30
0.0
 11
44.5075321068
 21
56.832663283
 31
0.0
  0
LINE
  5
2C9
330
2BA
100
AcDbEntity
  8
0
  6
Continuous
 62
     7
370
     0
100
AcDbLine
 10
97.5075321068
 20
76.6466257669
 30
0.0
 11
97.5075321068
 21
56.832663283
 31
0.0
  0
LINE
  5
2CA
330
2BA
100
AcDbEntity
  8
0
  6
Continuous
 62
     7
370
     0
100
AcDbLine
 10
44.5075321068
 20
57.832663283
 30
0.0
 11
97.5075321068
 21
57.832663283
 31
0.0
  0
MTEXT
  5
2CB
330
2BA
100
AcDbEntity
  8
0
  6
Continuous
 62
     7
370
     0
100
AcDbMText
 10
68.9717818987
 20
61.9053903229
 30
0.0
 40
3.5
 41
0.0
 71
     1
 72
     1
  1
53
  7
SLDTEXTSTYLE0
 73
     1
 44
1.0
  0
ENDBLK
  5
2C5
330
2BA
100
AcDbEntity
  8
0
100
AcDbBlockEnd
  0
BLOCK
  5
2D8
330
2CD
100
AcDbEntity
  8
0
100
AcDbBlockBegin
  2
*D10
 70
     1
 71
     0
 10
0.0
 20
0.0
 30
0.0
  3
*D10
  1

  0
INSERT
  5
2DA
330
2CD
100
AcDbEntity
  8
0
  6
Continuous
 62
     7
370
     0
100
AcDbBlockReference
  2
_Open30
 10
131.3724349645
 20
77.6466257669
 30
48.450193834
 41
3.0
 42
3.0
 50
270.0
  0
INSERT
  5
2DB
330
2CD
100
AcDbEntity
  8
0
  6
Continuous
 62
     7
370
     0
100
AcDbBlockReference
  2
_Open30
 10
131.3724349645
 20
101.6466257669
 30
48.450193834
 41
3.0
 42
3.0
 50
90.0
  0
LINE
  5
2DC
330
2CD
100
AcDbEntity
  8
0
  6
Continuous
 62
     7
370
     0
100
AcDbLine
 10
98.5075321068
 20
77.6466257669
 30
0.0
 11
132.3724349645
 21
77.6466257669
 31
0.0
  0
LINE
  5
2DD
330
2CD
100
AcDbEntity
  8
0
  6
Continuous
 62
     7
370
     0
100
AcDbLine
 10
98.5075321068
 20
101.6466257669
 30
0.0
 11
132.3724349645
 21
101.6466257669
 31
0.0
  0
LINE
  5
2DE
330
2CD
100
AcDbEntity
  8
0
  6
Continuous
 62
     7
370
     0
100
AcDbLine
 10
131.3724349645
 20
77.6466257669
 30
0.0
 11
131.3724349645
 21
101.6466257669
 31
0.0
  0
MTEXT
  5
2DF
330
2CD
100
AcDbEntity
  8
0
  6
Continuous
 62
     7
370
     0
100
AcDbMText
 10
127.2997079247
 20
87.6108755588
 30
0.0
 40
3.5
 41
0.0
 71
     1
 72
     1
  1
24
  7
SLDTEXTSTYLE0
 11
6.123031769111886E-17
 21
1.0
 31
0.0
 73
     1
 44
1.0
  0
ENDBLK
  5
2D9
330
2CD
100
AcDbEntity
  8
0
100
AcDbBlockEnd
  0
BLOCK
  5
2EC
330
2E1
100
AcDbEntity
  8
0
100
AcDbBlockBegin
  2
*D11
 70
     1
 71
     0
 10
0.0
 20
0.0
 30
0.0
  3
*D11
  1

  0
INSERT
  5
2EF
330
2E1
100
AcDbEntity
  8
0
  6
Continuous
 62
     7
370
     0
100
AcDbBlockReference
  2
_Open30
 10
36.5075321068
 20
57.832663283
 30
48.450193834
 41
3.0
 42
3.0
 50
0.0
  0
INSERT
  5
2F0
330
2E1
100
AcDbEntity
  8
0
  6
Continuous
 62
     7
370
     0
100
AcDbBlockReference
  2
_Open30
 10
44.5075321068
 20
57.832663283
 30
48.450193834
 41
3.0
 42
3.0
 50
180.0
  0
LINE
  5
2F1
330
2E1
100
AcDbEntity
  8
0
  6
Continuous
 62
     7
370
     0
100
AcDbLine
 10
36.5075321068
 20
69.6466257669
 30
0.0
 11
36.5075321068
 21
56.832663283
 31
0.0
  0
LINE
  5
2F2
330
2E1
100
AcDbEntity
  8
0
  6
Continuous
 62
     7
370
     0
100
AcDbLine
 10
44.5075321068
 20
76.6466257669
 30
0.0
 11
44.5075321068
 21
56.832663283
 31
0.0
  0
LINE
  5
2F3
330
2E1
100
AcDbEntity
  8
0
  6
Continuous
 62
     7
370
     0
100
AcDbLine
 10
36.5075321068
 20
57.832663283
 30
0.0
 11
31.5075321068
 21
57.832663283
 31
0.0
  0
LINE
  5
2F4
330
2E1
100
AcDbEntity
  8
0
  6
Continuous
 62
     7
370
     0
100
AcDbLine
 10
36.5075321068
 20
57.832663283
 30
0.0
 11
44.5075321068
 21
57.832663283
 31
0.0
  0
LINE
  5
2F5
330
2E1
100
AcDbEntity
  8
0
  6
Continuous
 62
     7
370
     0
100
AcDbLine
 10
44.5075321068
 20
57.832663283
 30
0.0
 11
49.5075321068
 21
57.832663283
 31
0.0
  0
MTEXT
  5
2F6
330
2E1
100
AcDbEntity
  8
0
  6
Continuous
 62
     7
370
     0
100
AcDbMText
 10
39.4896570028
 20
61.9053903229
 30
0.0
 40
3.5
 41
0.0
 71
     1
 72
     1
  1
8
  7
SLDTEXTSTYLE0
 73
     1
 44
1.0
  0
ENDBLK
  5
2ED
330
2E1
100
AcDbEntity
  8
0
100
AcDbBlockEnd
  0
BLOCK
  5
302
330
2F8
100
AcDbEntity
  8
0
100
AcDbBlockBegin
  2
*D12
 70
     1
 71
     0
 10
0.0
 20
0.0
 30
0.0
  3
*D12
  1

  0
INSERT
  5
304
330
2F8
100
AcDbEntity
  8
0
  6
Continuous
 62
     7
370
     0
100
AcDbBlockReference
  2
_Open30
 10
109.5075321068
 20
57.832663283
 30
48.450193834
 41
3.0
 42
3.0
 50
180.0
  0
INSERT
  5
305
330
2F8
100
AcDbEntity
  8
0
  6
Continuous
 62
     7
370
     0
100
AcDbBlockReference
  2
_Open30
 10
97.5075321068
 20
57.832663283
 30
48.450193834
 41
3.0
 42
3.0
 50
360.0
  0
LINE
  5
306
330
2F8
100
AcDbEntity
  8
0
  6
Continuous
 62
     7
370
     0
100
AcDbLine
 10
109.5075321068
 20
70.001852391
 30
0.0
 11
109.5075321068
 21
56.832663283
 31
0.0
  0
LINE
  5
307
330
2F8
100
AcDbEntity
  8
0
  6
Continuous
 62
     7
370
     0
100
AcDbLine
 10
97.5075321068
 20
76.6466257669
 30
0.0
 11
97.5075321068
 21
56.832663283
 31
0.0
  0
LINE
  5
308
330
2F8
100
AcDbEntity
  8
0
  6
Continuous
 62
     7
370
     0
100
AcDbLine
 10
109.5075321068
 20
57.832663283
 30
0.0
 11
114.5075321068
 21
57.832663283
 31
0.0
  0
LINE
  5
309
330
2F8
100
AcDbEntity
  8
0
  6
Continuous
 62
     7
370
     0
100
AcDbLine
 10
109.5075321068
 20
57.832663283
 30
0.0
 11
97.5075321068
 21
57.832663283
 31
0.0
  0
LINE
  5
30A
330
2F8
100
AcDbEntity
  8
0
  6
Continuous
 62
     7
370
     0
100
AcDbLine
 10
97.5075321068
 20
57.832663283
 30
0.0
 11
92.5075321068
 21
57.832663283
 31
0.0
  0
MTEXT
  5
30B
330
2F8
100
AcDbEntity
  8
0
  6
Continuous
 62
     7
370
     0
100
AcDbMText
 10
101.4717818987
 20
61.9053903229
 30
0.0
 40
3.5
 41
0.0
 71
     1
 72
     1
  1
12
  7
SLDTEXTSTYLE0
 73
     1
 44
1.0
  0
ENDBLK
  5
303
330
2F8
100
AcDbEntity
  8
0
100
AcDbBlockEnd
  0
ENDSEC
  0
SECTION
  2
ENTITIES
  0
LINE
  5
2F
330
1F
100
AcDbEntity
  8
0
  6
Continuous
 62
     7
370
     0
100
AcDbLine
 10
20.2604743903
 20
285.0
 30
0.0
 11
196.7604743903
 21
285.0
 31
0.0
  0
LINE
  5
30
330
1F
100
AcDbEntity
  8
0
  6
Continuous
 62
     7
370
     0
100
AcDbLine
 10
20.2604743903
 20
285.0
 30
0.0
 11
20.2604743903
 21
10.0
 31
0.0
  0
LINE
  5
31
330
1F
100
AcDbEntity
  8
0
  6
Continuous
 62
     7
370
     0
100
AcDbLine
 10
20.2604743903
 20
10.0
 30
0.0
 11
196.7604743903
 21
10.0
 31
0.0
  0
LINE
  5
32
330
1F
100
AcDbEntity
  8
0
  6
Continuous
 62
     7
370
     0
100
AcDbLine
 10
196.7604743903
 20
285.0
 30
0.0
 11
196.7604743903
 21
10.0
 31
0.0
  0
LINE
  5
33
330
1F
100
AcDbEntity
  8
0
  6
Continuous
 62
     7
370
     0
100
AcDbLine
 10
127.0104743903
 20
50.75
 30
0.0
 11
196.7604743903
 21
50.75
 31
0.0
  0
LINE
  5
34
330
1F
100
AcDbEntity
  8
0
  6
Continuous
 62
     7
370
     0
100
AcDbLine
 10
127.0104743903
 20
50.75
 30
0.0
 11
127.0104743903
 21
10.0
 31
0.0
  0
LINE
  5
35
330
1F
100
AcDbEntity
  8
0
  6
Continuous
 62
     7
370
     0
100
AcDbLine
 10
127.0104743903
 20
22.75
 30
0.0
 11
196.7604743903
 21
22.75
 31
0.0
  0
LINE
  5
36
330
1F
100
AcDbEntity
  8
0
  6
Continuous
 62
     7
370
     0
100
AcDbLine
 10
127.0104743903
 20
36.75
 30
0.0
 11
196.7604743903
 21
36.75
 31
0.0
  0
MTEXT
  5
38
330
1F
100
AcDbEntity
  8
0
  6
Continuous
 62
     7
370
     0
100
AcDbMText
 10
152.7083483059
 20
29.8861654089
 30
0.0
 40
4.2333333333
 41
0.0
 71
     1
 72
     1
  1
GT-NT10R
  7
SLDTEXTSTYLE0
 73
     1
 44
1.0
  0
INSERT
  5
3E
330
1F
100
AcDbEntity
  8
0
  6
Continuous
 62
     7
370
     0
100
AcDbBlockReference
  2
SW_NOTE_0
 10
144.8999309298
 20
42.5598210987
 30
0.0
  0
MTEXT
  5
3F
330
1F
100
AcDbEntity
  8
0
  6
Continuous
 62
     7
370
     0
100
AcDbMText
 10
155.3647196137
 20
16.2918259049
 30
0.0
 40
4.2333333333
 41
0.0
 71
     1
 72
     1
  1
060226
  7
SLDTEXTSTYLE0
 73
     1
 44
1.0
  0
LINE
  5
40
330
1F
100
AcDbEntity
  8
0
  6
Continuous
 62
     7
370
     0
100
AcDbLine
 10
50.5075321068
 20
233.4611819789
 30
0.0
 11
50.5075307342
 21
230.4611819434
 31
0.0
  0
LINE
  5
41
330
1F
100
AcDbEntity
  8
0
  6
Continuous
 62
     7
370
     0
100
AcDbLine
 10
56.5075317177
 20
230.4611819434
 30
0.0
 11
56.5075321068
 21
233.4611819789
 31
0.0
  0
ARC
  5
42
330
1F
100
AcDbEntity
  8
0
  6
Continuous
 62
     7
370
     0
100
AcDbCircle
 10
51.0075321068
 20
233.4611819789
 30
0.0
 40
0.4999999999979252
100
AcDbArc
 50
90.0
 51
180.0
  0
ARC
  5
43
330
1F
100
AcDbEntity
  8
0
  6
Continuous
 62
     7
370
     0
100
AcDbCircle
 10
56.0075321068
 20
233.4611819789
 30
0.0
 40
0.4999999999979252
100
AcDbArc
 50
360.0
 51
90.0
  0
ARC
  5
44
330
1F
100
AcDbEntity
  8
0
  6
Continuous
 62
     7
370
     0
100
AcDbCircle
 10
79.0075321068
 20
233.4611819789
 30
0.0
 40
0.4999999999979252
100
AcDbArc
 50
90.0
 51
180.0
  0
ARC
  5
45
330
1F
100
AcDbEntity
  8
0
  6
Continuous
 62
     7
370
     0
100
AcDbCircle
 10
84.0075321068
 20
233.4611819789
 30
0.0
 40
0.4999999999979252
100
AcDbArc
 50
360.0
 51
90.0
  0
LINE
  5
46
330
1F
100
AcDbEntity
  8
0
  6
Continuous
 62
     7
370
     0
100
AcDbLine
 10
78.5075321068
 20
233.4611819789
 30
0.0
 11
78.5075315985
 21
230.4611819434
 31
0.0
  0
LINE
  5
47
330
1F
100
AcDbEntity
  8
0
  6
Continuous
 62
     7
370
     0
100
AcDbLine
 10
84.507532582
 20
230.4611819434
 30
0.0
 11
84.5075321068
 21
233.4611819789
 31
0.0
  0
LINE
  5
48
330
1F
100
AcDbEntity
  8
0
  6
Continuous
 62
     7
370
     0
100
AcDbLine
 10
98.5075321068
 20
193.4611819789
 30
0.0
 11
85.0075317326
 21
193.4611814666
 31
0.0
  0
LINE
  5
49
330
1F
100
AcDbEntity
  8
0
  6
Continuous
 62
     7
370
     0
100
AcDbLine
 10
85.0075317326
 20
161.4611820421
 30
0.0
 11
98.5075321068
 21
161.4611819789
 31
0.0
  0
LINE
  5
4A
330
1F
100
AcDbEntity
  8
0
  6
Continuous
 62
     7
370
     0
100
AcDbLine
 10
100.0075321068
 20
191.9611819789
 30
0.0
 11
98.5075321068
 21
193.4611819789
 31
0.0
  0
LINE
  5
4B
330
1F
100
AcDbEntity
  8
0
  6
Continuous
 62
     7
370
     0
100
AcDbLine
 10
98.5075321068
 20
161.4611819789
 30
0.0
 11
100.0075321068
 21
162.9611819789
 31
0.0
  0
LINE
  5
4C
330
1F
100
AcDbEntity
  8
0
  6
Continuous
 62
     7
370
     0
100
AcDbLine
 10
102.5075321068
 20
187.4611819789
 30
0.0
 11
100.0075320958
 21
187.4611823457
 31
0.0
  0
LINE
  5
4D
330
1F
100
AcDbEntity
  8
0
  6
Continuous
 62
     7
370
     0
100
AcDbLine
 10
100.0075320958
 20
167.4611818615
 30
0.0
 11
102.5075321068
 21
167.4611819789
 31
0.0
  0
LINE
  5
4E
330
1F
100
AcDbEntity
  8
0
  6
Continuous
 62
     7
370
     0
100
AcDbLine
 10
102.5075321068
 20
167.4611819789
 30
0.0
 11
103.5075321068
 21
168.4611819789
 31
0.0
  0
LINE
  5
4F
330
1F
100
AcDbEntity
  8
0
  6
Continuous
 62
     7
370
     0
100
AcDbLine
 10
103.5075321068
 20
186.4611819789
 30
0.0
 11
102.5075321068
 21
187.4611819789
 31
0.0
  0
LINE
  5
50
330
1F
100
AcDbEntity
  8
0
  6
Continuous
 62
     7
370
     0
100
AcDbLine
 10
110.1075321068
 20
182.9611819789
 30
0.0
 11
109.5075320232
 21
182.9611825395
 31
0.0
  0
LINE
  5
51
330
1F
100
AcDbEntity
  8
0
  6
Continuous
 62
     7
370
     0
100
AcDbLine
 10
109.5075320232
 20
171.9611816677
 30
0.0
 11
110.1075321068
 21
171.9611819789
 31
0.0
  0
LINE
  5
52
330
1F
100
AcDbEntity
  8
0
  6
Continuous
 62
     7
370
     0
100
AcDbLine
 10
106.6075321068
 20
181.4611819789
 30
0.0
 11
103.5075322038
 21
181.4611813623
 31
0.0
  0
LINE
  5
53
330
1F
100
AcDbEntity
  8
0
  6
Continuous
 62
     7
370
     0
100
AcDbLine
 10
103.5075322038
 20
173.4611819136
 30
0.0
 11
106.6075321068
 21
173.4611819789
 31
0.0
  0
LINE
  5
54
330
1F
100
AcDbEntity
  8
0
  6
Continuous
 62
     7
370
     0
100
AcDbLine
 10
106.6075321068
 20
173.4611819789
 30
0.0
 11
106.9075321068
 21
173.7611819789
 31
0.0
  0
LINE
  5
55
330
1F
100
AcDbEntity
  8
0
  6
Continuous
 62
     7
370
     0
100
AcDbLine
 10
106.9075321068
 20
181.1611819789
 30
0.0
 11
106.6075321068
 21
181.4611819789
 31
0.0
  0
LINE
  5
56
330
1F
100
AcDbEntity
  8
0
  6
Continuous
 62
     7
370
     0
100
AcDbLine
 10
111.1075321068
 20
174.4611819789
 30
0.0
 11
111.4075321068
 21
174.7611819789
 31
0.0
  0
LINE
  5
57
330
1F
100
AcDbEntity
  8
0
  6
Continuous
 62
     7
370
     0
100
AcDbLine
 10
111.4075321068
 20
180.1611819789
 30
0.0
 11
111.1075321068
 21
180.4611819789
 31
0.0
  0
LINE
  5
58
330
1F
100
AcDbEntity
  8
0
  6
Continuous
 62
     7
370
     0
100
AcDbLine
 10
111.1075321068
 20
180.4611819789
 30
0.0
 11
110.1075319352
 21
180.4611811984
 31
0.0
  0
LINE
  5
59
330
1F
100
AcDbEntity
  8
0
  6
Continuous
 62
     7
370
     0
100
AcDbLine
 10
110.1075319352
 20
174.4611820775
 30
0.0
 11
111.1075321068
 21
174.4611819789
 31
0.0
  0
LINE
  5
5A
330
1F
100
AcDbEntity
  8
0
  6
Continuous
 62
     7
370
     0
100
AcDbLine
 10
107.007532079
 20
180.4611811984
 30
0.0
 11
106.9075322489
 21
180.4611811984
 31
0.0
  0
LINE
  5
5B
330
1F
100
AcDbEntity
  8
0
  6
Continuous
 62
     7
370
     0
100
AcDbLine
 10
106.9075322489
 20
174.4611820775
 30
0.0
 11
107.007532079
 21
174.4611820775
 31
0.0
  0
LINE
  5
5C
330
1F
100
AcDbEntity
  8
0
  6
Continuous
 62
     7
370
     0
100
AcDbLine
 10
115.0075321068
 20
166.9611819789
 30
0.0
 11
112.5075325149
 21
166.9611817795
 31
0.0
  0
LINE
  5
5D
330
1F
100
AcDbEntity
  8
0
  6
Continuous
 62
     7
370
     0
100
AcDbLine
 10
112.5075325149
 20
162.9611820552
 30
0.0
 11
115.0075321068
 21
162.9611819789
 31
0.0
  0
LINE
  5
5E
330
1F
100
AcDbEntity
  8
0
  6
Continuous
 62
     7
370
     0
100
AcDbLine
 10
107.007532079
 20
166.9611817795
 30
0.0
 11
106.0075321068
 21
166.9611819789
 31
0.0
  0
LINE
  5
5F
330
1F
100
AcDbEntity
  8
0
  6
Continuous
 62
     7
370
     0
100
AcDbLine
 10
106.0075321068
 20
162.9611819789
 30
0.0
 11
107.007532079
 21
162.9611820552
 31
0.0
  0
LINE
  5
60
330
1F
100
AcDbEntity
  8
0
  6
Continuous
 62
     7
370
     0
100
AcDbLine
 10
113.6075321068
 20
175.6611819789
 30
0.0
 11
115.9075323271
 21
175.9611813921
 31
0.0
  0
LINE
  5
61
330
1F
100
AcDbEntity
  8
0
  6
Continuous
 62
     7
370
     0
100
AcDbLine
 10
115.9075323271
 20
178.9611818838
 30
0.0
 11
113.6075321068
 21
179.2611819789
 31
0.0
  0
LINE
  5
62
330
1F
100
AcDbEntity
  8
0
  6
Continuous
 62
     7
370
     0
100
AcDbLine
 10
116.1075321068
 20
175.6611819789
 30
0.0
 11
118.9075321068
 21
175.9611819789
 31
0.0
  0
LINE
  5
63
330
1F
100
AcDbEntity
  8
0
  6
Continuous
 62
     7
370
     0
100
AcDbLine
 10
118.9075321068
 20
178.9611819789
 30
0.0
 11
116.1075321068
 21
179.2611819789
 31
0.0
  0
LINE
  5
64
330
1F
100
AcDbEntity
  8
0
  6
Continuous
 62
     7
370
     0
100
AcDbLine
 10
113.6075321068
 20
179.2611819789
 30
0.0
 11
113.4075321068
 21
179.2611819789
 31
0.0
  0
LINE
  5
65
330
1F
100
AcDbEntity
  8
0
  6
Continuous
 62
     7
370
     0
100
AcDbLine
 10
113.4075321068
 20
175.6611819789
 30
0.0
 11
113.6075321068
 21
175.6611819789
 31
0.0
  0
LINE
  5
66
330
1F
100
AcDbEntity
  8
0
  6
Continuous
 62
     7
370
     0
100
AcDbLine
 10
116.1075321068
 20
179.2611819789
 30
0.0
 11
115.9075321068
 21
179.2611819789
 31
0.0
  0
LINE
  5
67
330
1F
100
AcDbEntity
  8
0
  6
Continuous
 62
     7
370
     0
100
AcDbLine
 10
115.9075321068
 20
175.6611819789
 30
0.0
 11
116.1075321068
 21
175.6611819789
 31
0.0
  0
LINE
  5
68
330
1F
100
AcDbEntity
  8
0
  6
Continuous
 62
     7
370
     0
100
AcDbLine
 10
113.4075319174
 20
178.9611818838
 30
0.0
 11
111.4075325209
 21
178.9611818838
 31
0.0
  0
LINE
  5
69
330
1F
100
AcDbEntity
  8
0
  6
Continuous
 62
     7
370
     0
100
AcDbLine
 10
111.4075325209
 20
175.9611813921
 30
0.0
 11
113.4075319174
 21
175.9611813921
 31
0.0
  0
LINE
  5
6A
330
1F
100
AcDbEntity
  8
0
  6
Continuous
 62
     7
370
     0
100
AcDbLine
 10
92.7075321068
 20
200.2611819789
 30
0.0
 11
92.5075321068
 21
200.2611819789
 31
0.0
  0
LINE
  5
6B
330
1F
100
AcDbEntity
  8
0
  6
Continuous
 62
     7
370
     0
100
AcDbLine
 10
92.5075321068
 20
196.6611819789
 30
0.0
 11
92.7075321068
 21
196.6611819789
 31
0.0
  0
LINE
  5
6C
330
1F
100
AcDbEntity
  8
0
  6
Continuous
 62
     7
370
     0
100
AcDbLine
 10
90.2075321068
 20
196.6611819789
 30
0.0
 11
92.5075320306
 21
196.9611811089
 31
0.0
  0
LINE
  5
6D
330
1F
100
AcDbEntity
  8
0
  6
Continuous
 62
     7
370
     0
100
AcDbLine
 10
92.5075320306
 20
199.9611834633
 30
0.0
 11
90.2075321068
 21
200.2611819789
 31
0.0
  0
LINE
  5
6E
330
1F
100
AcDbEntity
  8
0
  6
Continuous
 62
     7
370
     0
100
AcDbLine
 10
92.7075321068
 20
196.6611819789
 30
0.0
 11
95.5075321068
 21
196.9611819789
 31
0.0
  0
LINE
  5
6F
330
1F
100
AcDbEntity
  8
0
  6
Continuous
 62
     7
370
     0
100
AcDbLine
 10
95.5075321068
 20
199.9611819789
 30
0.0
 11
92.7075321068
 21
200.2611819789
 31
0.0
  0
LINE
  5
70
330
1F
100
AcDbEntity
  8
0
  6
Continuous
 62
     7
370
     0
100
AcDbLine
 10
90.2075321068
 20
200.2611819789
 30
0.0
 11
90.0075321068
 21
200.2611819789
 31
0.0
  0
LINE
  5
71
330
1F
100
AcDbEntity
  8
0
  6
Continuous
 62
     7
370
     0
100
AcDbLine
 10
90.0075321068
 20
196.6611819789
 30
0.0
 11
90.2075321068
 21
196.6611819789
 31
0.0
  0
LINE
  5
72
330
1F
100
AcDbEntity
  8
0
  6
Continuous
 62
     7
370
     0
100
AcDbLine
 10
90.0075325521
 20
199.9611834633
 30
0.0
 11
88.0075322243
 21
199.9611834633
 31
0.0
  0
LINE
  5
73
330
1F
100
AcDbEntity
  8
0
  6
Continuous
 62
     7
370
     0
100
AcDbLine
 10
88.0075322243
 20
196.9611811089
 30
0.0
 11
90.0075325521
 21
196.9611811089
 31
0.0
  0
LINE
  5
74
330
1F
100
AcDbEntity
  8
0
  6
Continuous
 62
     7
370
     0
100
AcDbLine
 10
38.5075321068
 20
249.2934095239
 30
0.0
 11
38.5075321068
 21
266.0516486103
 31
0.0
  0
LINE
  5
75
330
1F
100
AcDbEntity
  8
0
  6
Continuous
 62
     7
370
     0
100
AcDbLine
 10
38.5075321068
 20
266.0516486103
 30
0.0
 11
40.6644494983
 21
266.0516517806
 31
0.0
  0
ARC
  5
76
330
1F
100
AcDbEntity
  8
0
  6
Continuous
 62
     7
370
     0
100
AcDbCircle
 10
24.5074776277
 20
254.2637557042
 30
0.0
 40
20.00005584833596
100
AcDbArc
 50
0.0
 51
36.1139566691
  0
LINE
  5
77
330
1F
100
AcDbEntity
  8
0
  6
Continuous
 62
     7
370
     0
100
AcDbLine
 10
44.5075321068
 20
254.2637702125
 30
0.0
 11
44.5075321068
 21
249.2934095239
 31
0.0
  0
LINE
  5
78
330
1F
100
AcDbEntity
  8
0
  6
Continuous
 62
     7
370
     0
100
AcDbLine
 10
38.5075321068
 20
249.2934095239
 30
0.0
 11
44.5075321068
 21
249.2934095239
 31
0.0
  0
ARC
  5
79
330
1F
100
AcDbEntity
  8
0
  6
Continuous
 62
     7
370
     0
100
AcDbCircle
 10
46.5075321068
 20
246.4611819789
 30
0.0
 40
2.000000000004285
100
AcDbArc
 50
180.0
 51
269.9999999999
  0
LINE
  5
7A
330
1F
100
AcDbEntity
  8
0
  6
Continuous
 62
     7
370
     0
100
AcDbLine
 10
47.5075321051
 20
244.4611805129
 30
0.0
 11
46.5075338038
 21
244.4611805129
 31
0.0
  0
LINE
  5
7B
330
1F
100
AcDbEntity
  8
0
  6
Continuous
 62
     7
370
     0
100
AcDbLine
 10
47.5075321051
 20
236.4611792016
 30
0.0
 11
47.5075321051
 21
244.4611805129
 31
0.0
  0
LINE
  5
7C
330
1F
100
AcDbEntity
  8
0
  6
Continuous
 62
     7
370
     0
100
AcDbLine
 10
44.5075321068
 20
249.2934095239
 30
0.0
 11
44.507533476
 21
246.461184566
 31
0.0
  0
LINE
  5
7D
330
1F
100
AcDbEntity
  8
0
  6
Continuous
 62
     7
370
     0
100
AcDbLine
 10
38.5075321068
 20
240.4611819789
 30
0.0
 11
38.5075321068
 21
249.2934095239
 31
0.0
  0
LINE
  5
7E
330
1F
100
AcDbEntity
  8
0
  6
Continuous
 62
     7
370
     0
100
AcDbLine
 10
36.5075321068
 20
236.4611819789
 30
0.0
 11
36.5075284394
 21
156.4611819211
 31
0.0
  0
LINE
  5
7F
330
1F
100
AcDbEntity
  8
0
  6
Continuous
 62
     7
370
     0
100
AcDbLine
 10
36.5075321068
 20
236.4611819789
 30
0.0
 11
38.5075321068
 21
236.4611819789
 31
0.0
  0
LINE
  5
80
330
1F
100
AcDbEntity
  8
0
  6
Continuous
 62
     7
370
     0
100
AcDbLine
 10
38.5075321068
 20
236.4611819789
 30
0.0
 11
38.5075324925
 21
236.1611815739
 31
0.0
  0
LINE
  5
81
330
1F
100
AcDbEntity
  8
0
  6
Continuous
 62
     7
370
     0
100
AcDbLine
 10
38.5075324925
 20
236.1611815739
 30
0.0
 11
49.7075320932
 21
236.1611815739
 31
0.0
  0
LINE
  5
82
330
1F
100
AcDbEntity
  8
0
  6
Continuous
 62
     7
370
     0
100
AcDbLine
 10
49.7075320932
 20
236.1611815739
 30
0.0
 11
49.7075320932
 21
230.4611819434
 31
0.0
  0
LINE
  5
83
330
1F
100
AcDbEntity
  8
0
  6
Continuous
 62
     7
370
     0
100
AcDbLine
 10
49.7075320932
 20
230.4611819434
 30
0.0
 11
57.3075303587
 21
230.4611819434
 31
0.0
  0
LINE
  5
84
330
1F
100
AcDbEntity
  8
0
  6
Continuous
 62
     7
370
     0
100
AcDbLine
 10
57.3075303587
 20
230.4611819434
 30
0.0
 11
57.3075303587
 21
236.1611815739
 31
0.0
  0
LINE
  5
85
330
1F
100
AcDbEntity
  8
0
  6
Continuous
 62
     7
370
     0
100
AcDbLine
 10
57.3075303587
 20
236.1611815739
 30
0.0
 11
74.5348429086
 21
236.1611815739
 31
0.0
  0
LINE
  5
86
330
1F
100
AcDbEntity
  8
0
  6
Continuous
 62
     7
370
     0
100
AcDbLine
 10
74.5348429086
 20
236.1611815739
 30
0.0
 11
77.7075329575
 21
234.3294265318
 31
0.0
  0
LINE
  5
87
330
1F
100
AcDbEntity
  8
0
  6
Continuous
 62
     7
370
     0
100
AcDbLine
 10
77.7075329575
 20
234.3294265318
 30
0.0
 11
77.7075329575
 21
230.4611819434
 31
0.0
  0
LINE
  5
88
330
1F
100
AcDbEntity
  8
0
  6
Continuous
 62
     7
370
     0
100
AcDbLine
 10
77.7075329575
 20
230.4611819434
 30
0.0
 11
85.0075317326
 21
230.4611819434
 31
0.0
  0
LINE
  5
89
330
1F
100
AcDbEntity
  8
0
  6
Continuous
 62
     7
370
     0
100
AcDbLine
 10
85.0075317326
 20
225.9611802745
 30
0.0
 11
85.0075317326
 21
230.4611819434
 31
0.0
  0
LINE
  5
8A
330
1F
100
AcDbEntity
  8
0
  6
Continuous
 62
     7
370
     0
100
AcDbLine
 10
38.5075324925
 20
225.9611802745
 30
0.0
 11
85.0075317326
 21
225.9611802745
 31
0.0
  0
LINE
  5
8B
330
1F
100
AcDbEntity
  8
0
  6
Continuous
 62
     7
370
     0
100
AcDbLine
 10
85.0075317326
 20
225.4611792612
 30
0.0
 11
38.5075324925
 21
225.4611792612
 31
0.0
  0
LINE
  5
8C
330
1F
100
AcDbEntity
  8
0
  6
Continuous
 62
     7
370
     0
100
AcDbLine
 10
85.0075317326
 20
158.9611819816
 30
0.0
 11
85.0075317326
 21
225.4611792612
 31
0.0
  0
LINE
  5
8D
330
1F
100
AcDbEntity
  8
0
  6
Continuous
 62
     7
370
     0
100
AcDbLine
 10
85.0075317326
 20
158.9611819816
 30
0.0
 11
38.5075324925
 21
158.9611819816
 31
0.0
  0
LINE
  5
8E
330
1F
100
AcDbEntity
  8
0
  6
Continuous
 62
     7
370
     0
100
AcDbLine
 10
38.5075324925
 20
158.9611819816
 30
0.0
 11
38.5075324925
 21
156.4611819211
 31
0.0
  0
LINE
  5
8F
330
1F
100
AcDbEntity
  8
0
  6
Continuous
 62
     7
370
     0
100
AcDbLine
 10
36.5075284394
 20
156.4611819211
 30
0.0
 11
38.5075324925
 21
156.4611819211
 31
0.0
  0
CIRCLE
  5
90
330
1F
100
AcDbEntity
  8
0
  6
Continuous
 62
     7
370
     0
100
AcDbCircle
 10
45.5075321068
 20
167.4611819789
 30
0.0
 40
2.799999999996402
  0
LINE
  5
91
330
1F
100
AcDbEntity
  8
0
  6
Continuous
 62
     7
370
     0
100
AcDbLine
 10
38.5075324925
 20
225.9611802745
 30
0.0
 11
38.5075324925
 21
225.4611792612
 31
0.0
  0
LINE
  5
92
330
1F
100
AcDbEntity
  8
0
  6
Continuous
 62
     7
370
     0
100
AcDbLine
 10
57.3075303587
 20
236.1611815739
 30
0.0
 11
57.1575315448
 21
236.311184113
 31
0.0
  0
LINE
  5
93
330
1F
100
AcDbEntity
  8
0
  6
Continuous
 62
     7
370
     0
100
AcDbLine
 10
57.007532731
 20
230.4611819434
 30
0.0
 11
57.0075321068
 21
236.1611819789
 31
0.0
  0
LINE
  5
94
330
1F
100
AcDbEntity
  8
0
  6
Continuous
 62
     7
370
     0
100
AcDbLine
 10
57.1575315448
 20
236.311184113
 30
0.0
 11
57.0075321068
 21
236.1611819789
 31
0.0
  0
LINE
  5
95
330
1F
100
AcDbEntity
  8
0
  6
Continuous
 62
     7
370
     0
100
AcDbLine
 10
106.0075319151
 20
150.8611821207
 30
0.0
 11
109.3616340731
 21
150.8611819789
 31
0.0
  0
ARC
  5
96
330
1F
100
AcDbEntity
  8
0
  6
Continuous
 62
     7
370
     0
100
AcDbCircle
 10
106.0075321068
 20
151.8611819789
 30
0.0
 40
3.499999999997357
100
AcDbArc
 50
270.0
 51
343.3984504009
  0
LINE
  5
97
330
1F
100
AcDbEntity
  8
0
  6
Continuous
 62
     7
370
     0
100
AcDbLine
 10
106.0075321068
 20
148.3611819789
 30
0.0
 11
88.8376591506
 21
148.361181711
 31
0.0
  0
LINE
  5
98
330
1F
100
AcDbEntity
  8
0
  6
Continuous
 62
     7
370
     0
100
AcDbLine
 10
88.8376591506
 20
148.361181711
 30
0.0
 11
82.7754812094
 21
151.861181819
 31
0.0
  0
LINE
  5
99
330
1F
100
AcDbEntity
  8
0
  6
Continuous
 62
     7
370
     0
100
AcDbLine
 10
82.7754812094
 20
151.861181819
 30
0.0
 11
56.7395837757
 21
151.861181819
 31
0.0
  0
LINE
  5
9A
330
1F
100
AcDbEntity
  8
0
  6
Continuous
 62
     7
370
     0
100
AcDbLine
 10
56.7395837757
 20
151.861181819
 30
0.0
 11
50.6774039718
 21
148.361181711
 31
0.0
  0
LINE
  5
9B
330
1F
100
AcDbEntity
  8
0
  6
Continuous
 62
     7
370
     0
100
AcDbLine
 10
38.5075324925
 20
150.8611821207
 30
0.0
 11
50.0075334462
 21
150.8611821207
 31
0.0
  0
LINE
  5
9C
330
1F
100
AcDbEntity
  8
0
  6
Continuous
 62
     7
370
     0
100
AcDbLine
 10
50.0075334462
 20
150.8611821207
 30
0.0
 11
56.0697095248
 21
154.3611817631
 31
0.0
  0
LINE
  5
9D
330
1F
100
AcDbEntity
  8
0
  6
Continuous
 62
     7
370
     0
100
AcDbLine
 10
60.5075323733
 20
154.3611817631
 30
0.0
 11
56.0697095248
 21
154.3611817631
 31
0.0
  0
LINE
  5
9E
330
1F
100
AcDbEntity
  8
0
  6
Continuous
 62
     7
370
     0
100
AcDbLine
 10
60.5075321068
 20
156.4611819789
 30
0.0
 11
60.5075323733
 21
154.3611817631
 31
0.0
  0
LINE
  5
9F
330
1F
100
AcDbEntity
  8
0
  6
Continuous
 62
     7
370
     0
100
AcDbLine
 10
70.5075321068
 20
156.4611819789
 30
0.0
 11
60.5075321068
 21
156.4611819789
 31
0.0
  0
LINE
  5
A0
330
1F
100
AcDbEntity
  8
0
  6
Continuous
 62
     7
370
     0
100
AcDbLine
 10
70.5075321498
 20
154.3611817631
 30
0.0
 11
70.5075321068
 21
156.4611819789
 31
0.0
  0
LINE
  5
A1
330
1F
100
AcDbEntity
  8
0
  6
Continuous
 62
     7
370
     0
100
AcDbLine
 10
70.5075321498
 20
154.3611817631
 30
0.0
 11
83.4453535977
 21
154.3611817631
 31
0.0
  0
LINE
  5
A2
330
1F
100
AcDbEntity
  8
0
  6
Continuous
 62
     7
370
     0
100
AcDbLine
 10
83.4453535977
 20
154.3611817631
 30
0.0
 11
89.5075324702
 21
150.8611821207
 31
0.0
  0
LINE
  5
A3
330
1F
100
AcDbEntity
  8
0
  6
Continuous
 62
     7
370
     0
100
AcDbLine
 10
89.5075324702
 20
150.8611821207
 30
0.0
 11
106.0075319151
 21
150.8611821207
 31
0.0
  0
LINE
  5
A4
330
1F
100
AcDbEntity
  8
0
  6
Continuous
 62
     7
370
     0
100
AcDbLine
 10
50.6774039718
 20
148.361181711
 30
0.0
 11
38.5075324925
 21
148.361181711
 31
0.0
  0
LINE
  5
A5
330
1F
100
AcDbEntity
  8
0
  6
Continuous
 62
     7
370
     0
100
AcDbLine
 10
38.5075324925
 20
148.361181711
 30
0.0
 11
38.5075324925
 21
150.8611821207
 31
0.0
  0
LINE
  5
A6
330
1F
100
AcDbEntity
  8
0
  6
Continuous
 62
     7
370
     0
100
AcDbLine
 10
73.5075326416
 20
156.4611819211
 30
0.0
 11
73.5075326416
 21
154.3611817631
 31
0.0
  0
LINE
  5
A7
330
1F
100
AcDbEntity
  8
0
  6
Continuous
 62
     7
370
     0
100
AcDbLine
 10
72.165844502
 20
156.4611819789
 30
0.0
 11
70.5075321068
 21
156.4611819789
 31
0.0
  0
LINE
  5
A8
330
1F
100
AcDbEntity
  8
0
  6
Continuous
 62
     7
370
     0
100
AcDbLine
 10
57.5075337442
 20
156.4611819211
 30
0.0
 11
57.5075337442
 21
154.3611817631
 31
0.0
  0
LINE
  5
A9
330
1F
100
AcDbEntity
  8
0
  6
Continuous
 62
     7
370
     0
100
AcDbLine
 10
58.8492197116
 20
156.4611819789
 30
0.0
 11
60.5075321068
 21
156.4611819789
 31
0.0
  0
LINE
  5
AA
330
1F
100
AcDbEntity
  8
0
  6
Continuous
 62
     7
370
     0
100
AcDbLine
 10
57.3075321068
 20
236.4611819789
 30
0.0
 11
57.1575315448
 21
236.311184113
 31
0.0
  0
LINE
  5
AB
330
1F
100
AcDbEntity
  8
0
  6
Continuous
 62
     7
370
     0
100
AcDbLine
 10
74.6152272227
 20
236.4611792016
 30
0.0
 11
57.3075321068
 21
236.4611819789
 31
0.0
  0
LINE
  5
AC
330
1F
100
AcDbEntity
  8
0
  6
Continuous
 62
     7
370
     0
100
AcDbLine
 10
74.6152272227
 20
236.4611792016
 30
0.0
 11
74.5348429086
 21
236.1611815739
 31
0.0
  0
LINE
  5
AD
330
1F
100
AcDbEntity
  8
0
  6
Continuous
 62
     7
370
     0
100
AcDbLine
 10
77.8776278498
 20
234.4276326346
 30
0.0
 11
77.7075329575
 21
234.3294265318
 31
0.0
  0
LINE
  5
AE
330
1F
100
AcDbEntity
  8
0
  6
Continuous
 62
     7
370
     0
100
AcDbLine
 10
77.7477251145
 20
234.6526327181
 30
0.0
 11
74.6152272227
 21
236.4611792016
 31
0.0
  0
LINE
  5
AF
330
1F
100
AcDbEntity
  8
0
  6
Continuous
 62
     7
370
     0
100
AcDbLine
 10
77.7477251145
 20
234.6526327181
 30
0.0
 11
77.8776278498
 21
234.4276326346
 31
0.0
  0
LINE
  5
B0
330
1F
100
AcDbEntity
  8
0
  6
Continuous
 62
     7
370
     0
100
AcDbLine
 10
78.0075324478
 20
234.2026325512
 30
0.0
 11
77.8776278498
 21
234.4276326346
 31
0.0
  0
LINE
  5
B1
330
1F
100
AcDbEntity
  8
0
  6
Continuous
 62
     7
370
     0
100
AcDbLine
 10
78.0075324478
 20
234.2026325512
 30
0.0
 11
78.0075324478
 21
230.4611819434
 31
0.0
  0
LINE
  5
B2
330
1F
100
AcDbEntity
  8
0
  6
Continuous
 62
     7
370
     0
100
AcDbLine
 10
109.5075321068
 20
180.4737923347
 30
0.0
 11
109.5075320232
 21
151.861181819
 31
0.0
  0
ARC
  5
B3
330
1F
100
AcDbEntity
  8
0
  6
Continuous
 62
     7
370
     0
100
AcDbCircle
 10
106.0075321068
 20
151.8611819789
 30
0.0
 40
0.9999999999997726
100
AcDbArc
 50
270.0000013703
 51
0.0
  0
LINE
  5
B4
330
1F
100
AcDbEntity
  8
0
  6
Continuous
 62
     7
370
     0
100
AcDbLine
 10
107.007532079
 20
151.861181819
 30
0.0
 11
107.0075321068
 21
180.4737923347
 31
0.0
  0
LINE
  5
B5
330
1F
100
AcDbEntity
  8
0
  6
Continuous
 62
     7
370
     0
100
AcDbLine
 10
107.0075321068
 20
180.4737923347
 30
0.0
 11
109.5075321068
 21
180.4737923347
 31
0.0
  0
ARC
  5
B6
330
1F
100
AcDbEntity
  8
0
  6
Continuous
 62
     7
370
     0
100
AcDbCircle
 10
106.0075321068
 20
151.8611819789
 30
0.0
 40
3.499999999995699
100
AcDbArc
 50
343.398450401
 51
0.0
  0
LINE
  5
B7
330
1F
100
AcDbEntity
  8
0
  6
Continuous
 62
     7
370
     0
100
AcDbLine
 10
38.5075321068
 20
240.4611819789
 30
0.0
 11
38.5075321068
 21
236.4611819789
 31
0.0
  0
LINE
  5
B8
330
1F
100
AcDbEntity
  8
0
  6
Continuous
 62
     7
370
     0
100
AcDbLine
 10
38.5075321068
 20
240.4611819789
 30
0.0
 11
36.5075321068
 21
240.4611819789
 31
0.0
  0
LINE
  5
B9
330
1F
100
AcDbEntity
  8
0
  6
Continuous
 62
     7
370
     0
100
AcDbLine
 10
36.5075321068
 20
240.4611819789
 30
0.0
 11
36.5075321068
 21
236.4611819789
 31
0.0
  0
LINE
  5
BA
330
1F
100
AcDbEntity
  8
0
  6
Continuous
 62
     7
370
     0
100
AcDbLine
 10
49.8575309071
 20
236.311184113
 30
0.0
 11
49.7075320932
 21
236.1611815739
 31
0.0
  0
LINE
  5
BB
330
1F
100
AcDbEntity
  8
0
  6
Continuous
 62
     7
370
     0
100
AcDbLine
 10
50.0075321068
 20
236.1611819789
 30
0.0
 11
49.8575309071
 21
236.311184113
 31
0.0
  0
LINE
  5
BC
330
1F
100
AcDbEntity
  8
0
  6
Continuous
 62
     7
370
     0
100
AcDbLine
 10
50.0075321068
 20
236.1611819789
 30
0.0
 11
50.0075334462
 21
230.4611819434
 31
0.0
  0
CIRCLE
  5
BD
330
1F
100
AcDbEntity
  8
0
  6
Continuous
 62
     7
370
     0
100
AcDbCircle
 10
45.5075321068
 20
167.4611819789
 30
0.0
 40
2.500000000000604
  0
LINE
  5
BE
330
1F
100
AcDbEntity
  8
0
  6
Continuous
 62
     7
370
     0
100
AcDbLine
 10
49.7075321068
 20
236.4611819789
 30
0.0
 11
38.5075321068
 21
236.4611819789
 31
0.0
  0
LINE
  5
BF
330
1F
100
AcDbEntity
  8
0
  6
Continuous
 62
     7
370
     0
100
AcDbLine
 10
49.7075321068
 20
236.4611819789
 30
0.0
 11
49.8575309071
 21
236.311184113
 31
0.0
  0
LINE
  5
C0
330
1F
100
AcDbEntity
  8
0
  6
Continuous
 62
     7
370
     0
100
AcDbLine
 10
38.7075321528
 20
225.9611802745
 30
0.0
 11
38.7075321528
 21
225.4611792612
 31
0.0
  0
LINE
  5
C1
330
1F
100
AcDbEntity
  8
0
  6
Continuous
 62
     7
370
     0
100
AcDbLine
 10
84.8075320723
 20
225.9611802745
 30
0.0
 11
84.8075320723
 21
225.4611792612
 31
0.0
  0
LINE
  5
C2
330
1F
100
AcDbEntity
  8
0
  6
Continuous
 62
     7
370
     0
100
AcDbLine
 10
85.0075317326
 20
156.4611819211
 30
0.0
 11
72.165844502
 21
156.4611819789
 31
0.0
  0
LINE
  5
C3
330
1F
100
AcDbEntity
  8
0
  6
Continuous
 62
     7
370
     0
100
AcDbLine
 10
38.5075324925
 20
156.4611819211
 30
0.0
 11
58.8492197116
 21
156.4611819789
 31
0.0
  0
LINE
  5
C4
330
1F
100
AcDbEntity
  8
0
  6
Continuous
 62
     7
370
     0
100
AcDbLine
 10
85.0075317326
 20
156.4611819211
 30
0.0
 11
85.0075317326
 21
158.9611819816
 31
0.0
  0
CIRCLE
  5
C5
330
1F
100
AcDbEntity
  8
0
  6
Continuous
 62
     7
370
     0
100
AcDbCircle
 10
45.5075321068
 20
167.4611819789
 30
0.0
 40
1.950000000002667
  0
CIRCLE
  5
C6
330
1F
100
AcDbEntity
  8
0
  6
Continuous
 62
     7
370
     0
100
AcDbCircle
 10
45.5075321068
 20
167.4611819789
 30
0.0
 40
2.249999999998551
  0
LINE
  5
C7
330
1F
100
AcDbEntity
  8
0
  6
Continuous
 62
     7
370
     0
100
AcDbLine
 10
46.5075338038
 20
168.0385320085
 30
0.0
 11
45.5075317773
 21
168.6158821556
 31
0.0
  0
LINE
  5
C8
330
1F
100
AcDbEntity
  8
0
  6
Continuous
 62
     7
370
     0
100
AcDbLine
 10
45.5075317773
 20
168.6158821556
 30
0.0
 11
44.507533476
 21
168.0385320085
 31
0.0
  0
LINE
  5
C9
330
1F
100
AcDbEntity
  8
0
  6
Continuous
 62
     7
370
     0
100
AcDbLine
 10
44.507533476
 20
168.0385320085
 30
0.0
 11
44.507533476
 21
166.8838317144
 31
0.0
  0
LINE
  5
CA
330
1F
100
AcDbEntity
  8
0
  6
Continuous
 62
     7
370
     0
100
AcDbLine
 10
44.507533476
 20
166.8838317144
 30
0.0
 11
45.5075317773
 21
166.3064815673
 31
0.0
  0
LINE
  5
CB
330
1F
100
AcDbEntity
  8
0
  6
Continuous
 62
     7
370
     0
100
AcDbLine
 10
45.5075317773
 20
166.3064815673
 30
0.0
 11
46.5075338038
 21
166.8838317144
 31
0.0
  0
LINE
  5
CC
330
1F
100
AcDbEntity
  8
0
  6
Continuous
 62
     7
370
     0
100
AcDbLine
 10
46.5075338038
 20
166.8838317144
 30
0.0
 11
46.5075338038
 21
168.0385320085
 31
0.0
  0
LINE
  5
CD
330
1F
100
AcDbEntity
  8
0
  6
Continuous
 62
     7
370
     0
100
AcDbLine
 10
53.5075321068
 20
233.9611819789
 30
0.0
 11
56.0075321068
 21
233.9611819789
 31
0.0
  0
LINE
  5
CE
330
1F
100
AcDbEntity
  8
0
  6
Continuous
 62
     7
370
     0
100
AcDbLine
 10
51.0075321068
 20
233.9611819789
 30
0.0
 11
53.5075321068
 21
233.9611819789
 31
0.0
  0
LINE
  5
CF
330
1F
100
AcDbEntity
  8
0
  6
Continuous
 62
     7
370
     0
100
AcDbLine
 10
81.5075321068
 20
233.9611819789
 30
0.0
 11
84.0075321068
 21
233.9611819789
 31
0.0
  0
LINE
  5
D0
330
1F
100
AcDbEntity
  8
0
  6
Continuous
 62
     7
370
     0
100
AcDbLine
 10
79.0075321068
 20
233.9611819789
 30
0.0
 11
81.5075321068
 21
233.9611819789
 31
0.0
  0
LINE
  5
D1
330
1F
100
AcDbEntity
  8
0
  6
Continuous
 62
     7
370
     0
100
AcDbLine
 10
72.5075324776
 20
151.861181819
 30
0.0
 11
72.5075321068
 21
151.2611819789
 31
0.0
  0
LINE
  5
D2
330
1F
100
AcDbEntity
  8
0
  6
Continuous
 62
     7
370
     0
100
AcDbLine
 10
72.5075321068
 20
151.2611819789
 30
0.0
 11
71.0075321068
 21
151.2611819789
 31
0.0
  0
LINE
  5
D3
330
1F
100
AcDbEntity
  8
0
  6
Continuous
 62
     7
370
     0
100
AcDbLine
 10
71.0075313005
 20
151.861181819
 30
0.0
 11
71.0075321068
 21
151.2611819789
 31
0.0
  0
LINE
  5
D4
330
1F
100
AcDbEntity
  8
0
  6
Continuous
 62
     7
370
     0
100
AcDbLine
 10
71.0075321068
 20
151.2611819789
 30
0.0
 11
60.0075321068
 21
151.2611819789
 31
0.0
  0
LINE
  5
D5
330
1F
100
AcDbEntity
  8
0
  6
Continuous
 62
     7
370
     0
100
AcDbLine
 10
60.0075313601
 20
151.861181819
 30
0.0
 11
60.0075321068
 21
151.2611819789
 31
0.0
  0
LINE
  5
D6
330
1F
100
AcDbEntity
  8
0
  6
Continuous
 62
     7
370
     0
100
AcDbLine
 10
58.5075321068
 20
151.2611819789
 30
0.0
 11
58.5075320455
 21
151.861181819
 31
0.0
  0
LINE
  5
D7
330
1F
100
AcDbEntity
  8
0
  6
Continuous
 62
     7
370
     0
100
AcDbLine
 10
60.0075321068
 20
151.2611819789
 30
0.0
 11
58.5075321068
 21
151.2611819789
 31
0.0
  0
LINE
  5
D8
330
1F
100
AcDbEntity
  8
0
  6
Continuous
 62
     7
370
     0
100
AcDbLine
 10
65.5075313303
 20
149.2611820447
 30
0.0
 11
65.5075313303
 21
151.2611819069
 31
0.0
  0
LINE
  5
D9
330
1F
100
AcDbEntity
  8
0
  6
Continuous
 62
     7
370
     0
100
AcDbLine
 10
70.0075329992
 20
151.2611819069
 30
0.0
 11
70.0075329992
 21
149.2611820447
 31
0.0
  0
LINE
  5
DA
330
1F
100
AcDbEntity
  8
0
  6
Continuous
 62
     7
370
     0
100
AcDbLine
 10
70.0075329992
 20
149.2611820447
 30
0.0
 11
65.5075313303
 21
149.2611820447
 31
0.0
  0
LINE
  5
DB
330
1F
100
AcDbEntity
  8
0
  6
Continuous
 62
     7
370
     0
100
AcDbLine
 10
61.0075333866
 20
151.2611819069
 30
0.0
 11
61.0075333866
 21
149.2611820447
 31
0.0
  0
LINE
  5
DC
330
1F
100
AcDbEntity
  8
0
  6
Continuous
 62
     7
370
     0
100
AcDbLine
 10
65.5075313303
 20
149.2611820447
 30
0.0
 11
61.0075333866
 21
149.2611820447
 31
0.0
  0
LINE
  5
DD
330
1F
100
AcDbEntity
  8
0
  6
Continuous
 62
     7
370
     0
100
AcDbLine
 10
98.5075321068
 20
193.4611819789
 30
0.0
 11
98.5075321068
 21
184.2250566081
 31
0.0
  0
LINE
  5
DE
330
1F
100
AcDbEntity
  8
0
  6
Continuous
 62
     7
370
     0
100
AcDbLine
 10
98.5075321068
 20
184.2250566081
 30
0.0
 11
93.0075321068
 21
184.2250566081
 31
0.0
  0
LINE
  5
DF
330
1F
100
AcDbEntity
  8
0
  6
Continuous
 62
     7
370
     0
100
AcDbLine
 10
93.0075321068
 20
170.6973073497
 30
0.0
 11
98.5075321068
 21
170.6973073497
 31
0.0
  0
LINE
  5
E0
330
1F
100
AcDbEntity
  8
0
  6
Continuous
 62
     7
370
     0
100
AcDbLine
 10
98.5075321068
 20
170.6973073497
 30
0.0
 11
98.5075321068
 21
161.4611819789
 31
0.0
  0
LINE
  5
E1
330
1F
100
AcDbEntity
  8
0
  6
Continuous
 62
     7
370
     0
100
AcDbLine
 10
93.0075321068
 20
184.2250566081
 30
0.0
 11
93.0075321068
 21
170.6973073497
 31
0.0
  0
ARC
  5
E2
330
1F
100
AcDbEntity
  8
0
  6
Continuous
 62
     7
370
     0
100
AcDbCircle
 10
147.7716888377
 20
349.299116032
 30
0.0
 40
134.5891452771328
100
AcDbArc
 50
238.7784255519
 51
239.099834151
  0
LINE
  5
E3
330
1F
100
AcDbEntity
  8
0
  6
Continuous
 62
     7
370
     0
100
AcDbLine
 10
57.0075321068
 20
236.1611819789
 30
0.0
 11
50.0075321068
 21
236.1611819789
 31
0.0
  0
LINE
  5
E4
330
1F
100
AcDbEntity
  8
0
  6
Continuous
 62
     7
370
     0
100
AcDbLine
 10
57.3075321068
 20
236.4611819789
 30
0.0
 11
49.7075321068
 21
236.4611819789
 31
0.0
  0
LWPOLYLINE
  5
E5
330
1F
100
AcDbEntity
  8
0
  6
Continuous
 62
     7
370
     0
100
AcDbPolyline
 90
        5
 70
   128
 43
0.0
 10
79.0075326118
 20
233.9252846885
 10
78.8614043745
 20
234.0096476126
 10
78.392930493
 20
234.28012604
 10
77.8525007668
 20
234.5921414542
 10
77.7477251145
 20
234.6526327181
  0
LINE
  5
E6
330
1F
100
AcDbEntity
  8
0
  6
Continuous
 62
     7
370
     0
100
AcDbLine
 10
100.0075321068
 20
191.9611819789
 30
0.0
 11
100.0075321068
 21
177.4611819789
 31
0.0
  0
ARC
  5
E7
330
1F
100
AcDbEntity
  8
0
  6
Continuous
 62
     7
370
     0
100
AcDbCircle
 10
82.6750077045
 20
177.1656723751
 30
0.0
 40
17.33504335295589
100
AcDbArc
 50
0.9767675072
 51
24.0310695455
  0
ARC
  5
E8
330
1F
100
AcDbEntity
  8
0
  6
Continuous
 62
     7
370
     0
100
AcDbCircle
 10
82.6750014972
 20
177.756692196
 30
0.0
 40
17.33504954973179
100
AcDbArc
 50
335.9689348996
 51
359.0232347177
  0
LINE
  5
E9
330
1F
100
AcDbEntity
  8
0
  6
Continuous
 62
     7
370
     0
100
AcDbLine
 10
100.0075321068
 20
177.4611819789
 30
0.0
 11
100.0075321068
 21
162.9611819789
 31
0.0
  0
LINE
  5
EA
330
1F
100
AcDbEntity
  8
0
  6
Continuous
 62
     7
370
     0
100
AcDbLine
 10
85.0075317326
 20
230.4611819434
 30
0.0
 11
84.507532582
 21
230.7498546886
 31
0.0
  0
LINE
  5
EB
330
1F
100
AcDbEntity
  8
0
  6
Continuous
 62
     7
370
     0
100
AcDbLine
 10
41.4660798165
 20
156.4611819211
 30
0.0
 11
41.4660798165
 21
152.961181813
 31
0.0
  0
LINE
  5
EC
330
1F
100
AcDbEntity
  8
0
  6
Continuous
 62
     7
370
     0
100
AcDbLine
 10
43.4868076595
 20
152.961181813
 30
0.0
 11
43.4868076595
 21
156.4611819211
 31
0.0
  0
LINE
  5
ED
330
1F
100
AcDbEntity
  8
0
  6
Continuous
 62
     7
370
     0
100
AcDbLine
 10
43.4868076595
 20
152.961181813
 30
0.0
 11
41.4660798165
 21
152.961181813
 31
0.0
  0
LINE
  5
EE
330
1F
100
AcDbEntity
  8
0
  6
Continuous
 62
     7
370
     0
100
AcDbLine
 10
47.5282596203
 20
156.4611819211
 30
0.0
 11
47.5282596203
 21
152.961181813
 31
0.0
  0
LINE
  5
EF
330
1F
100
AcDbEntity
  8
0
  6
Continuous
 62
     7
370
     0
100
AcDbLine
 10
47.5282596203
 20
152.961181813
 30
0.0
 11
43.4868076595
 21
152.961181813
 31
0.0
  0
LINE
  5
F0
330
1F
100
AcDbEntity
  8
0
  6
Continuous
 62
     7
370
     0
100
AcDbLine
 10
49.5489837381
 20
156.4611819211
 30
0.0
 11
49.5489837381
 21
152.961181813
 31
0.0
  0
LINE
  5
F1
330
1F
100
AcDbEntity
  8
0
  6
Continuous
 62
     7
370
     0
100
AcDbLine
 10
49.5489837381
 20
152.961181813
 30
0.0
 11
47.5282596203
 21
152.961181813
 31
0.0
  0
LINE
  5
F2
330
1F
100
AcDbEntity
  8
0
  6
Continuous
 62
     7
370
     0
100
AcDbLine
 10
102.5075321068
 20
177.4611819789
 30
0.0
 11
102.5075321068
 21
167.4611819789
 31
0.0
  0
LINE
  5
F3
330
1F
100
AcDbEntity
  8
0
  6
Continuous
 62
     7
370
     0
100
AcDbLine
 10
102.5075321068
 20
187.4611819789
 30
0.0
 11
102.5075321068
 21
177.4611819789
 31
0.0
  0
LINE
  5
F4
330
1F
100
AcDbEntity
  8
0
  6
Continuous
 62
     7
370
     0
100
AcDbLine
 10
103.5075321068
 20
177.4611819789
 30
0.0
 11
103.5075321068
 21
168.4611819789
 31
0.0
  0
LINE
  5
F5
330
1F
100
AcDbEntity
  8
0
  6
Continuous
 62
     7
370
     0
100
AcDbLine
 10
103.5075321068
 20
186.4611819789
 30
0.0
 11
103.5075321068
 21
177.4611819789
 31
0.0
  0
LINE
  5
F6
330
1F
100
AcDbEntity
  8
0
  6
Continuous
 62
     7
370
     0
100
AcDbLine
 10
107.0075321068
 20
186.3611819789
 30
0.0
 11
109.5075321068
 21
186.3611819789
 31
0.0
  0
LINE
  5
F7
330
1F
100
AcDbEntity
  8
0
  6
Continuous
 62
     7
370
     0
100
AcDbLine
 10
109.5075321068
 20
180.4737923347
 30
0.0
 11
109.5075321068
 21
186.3611819789
 31
0.0
  0
LINE
  5
F8
330
1F
100
AcDbEntity
  8
0
  6
Continuous
 62
     7
370
     0
100
AcDbLine
 10
107.0075321068
 20
186.3611819789
 30
0.0
 11
107.0075321068
 21
180.4737923347
 31
0.0
  0
LINE
  5
F9
330
1F
100
AcDbEntity
  8
0
  6
Continuous
 62
     7
370
     0
100
AcDbLine
 10
110.1075321068
 20
180.2111819789
 30
0.0
 11
109.5075320232
 21
180.2111825544
 31
0.0
  0
LINE
  5
FA
330
1F
100
AcDbEntity
  8
0
  6
Continuous
 62
     7
370
     0
100
AcDbLine
 10
109.5075320232
 20
174.7111825842
 30
0.0
 11
110.1075321068
 21
174.7111819789
 31
0.0
  0
LINE
  5
FB
330
1F
100
AcDbEntity
  8
0
  6
Continuous
 62
     7
370
     0
100
AcDbLine
 10
110.1075321068
 20
174.7111819789
 30
0.0
 11
110.1075321068
 21
171.9611819789
 31
0.0
  0
LINE
  5
FC
330
1F
100
AcDbEntity
  8
0
  6
Continuous
 62
     7
370
     0
100
AcDbLine
 10
110.1075321068
 20
182.9611819789
 30
0.0
 11
110.1075321068
 21
180.2111819789
 31
0.0
  0
LINE
  5
FD
330
1F
100
AcDbEntity
  8
0
  6
Continuous
 62
     7
370
     0
100
AcDbLine
 10
109.5075320232
 20
178.9611818838
 30
0.0
 11
110.1075319352
 21
178.9611818838
 31
0.0
  0
LINE
  5
FE
330
1F
100
AcDbEntity
  8
0
  6
Continuous
 62
     7
370
     0
100
AcDbLine
 10
110.1075321068
 20
180.2111819789
 30
0.0
 11
110.1075319352
 21
178.9611818838
 31
0.0
  0
LINE
  5
FF
330
1F
100
AcDbEntity
  8
0
  6
Continuous
 62
     7
370
     0
100
AcDbLine
 10
110.1075319352
 20
175.9611813921
 30
0.0
 11
109.5075320232
 21
175.9611813921
 31
0.0
  0
LINE
  5
100
330
1F
100
AcDbEntity
  8
0
  6
Continuous
 62
     7
370
     0
100
AcDbLine
 10
110.1075319352
 20
175.9611813921
 30
0.0
 11
110.1075321068
 21
174.7111819789
 31
0.0
  0
LINE
  5
101
330
1F
100
AcDbEntity
  8
0
  6
Continuous
 62
     7
370
     0
100
AcDbLine
 10
106.6075321068
 20
177.4611819789
 30
0.0
 11
106.6075321068
 21
173.4611819789
 31
0.0
  0
LINE
  5
102
330
1F
100
AcDbEntity
  8
0
  6
Continuous
 62
     7
370
     0
100
AcDbLine
 10
106.6075321068
 20
181.4611819789
 30
0.0
 11
106.6075321068
 21
177.4611819789
 31
0.0
  0
LINE
  5
103
330
1F
100
AcDbEntity
  8
0
  6
Continuous
 62
     7
370
     0
100
AcDbLine
 10
106.9075321068
 20
177.4611819789
 30
0.0
 11
106.9075321068
 21
181.1611819789
 31
0.0
  0
LINE
  5
104
330
1F
100
AcDbEntity
  8
0
  6
Continuous
 62
     7
370
     0
100
AcDbLine
 10
106.9075321068
 20
173.7611819789
 30
0.0
 11
106.9075321068
 21
177.4611819789
 31
0.0
  0
LINE
  5
105
330
1F
100
AcDbEntity
  8
0
  6
Continuous
 62
     7
370
     0
100
AcDbLine
 10
109.5075320232
 20
166.9819083634
 30
0.0
 11
112.5075325149
 21
166.9819083634
 31
0.0
  0
LINE
  5
106
330
1F
100
AcDbEntity
  8
0
  6
Continuous
 62
     7
370
     0
100
AcDbLine
 10
112.5075325149
 20
169.0026334125
 30
0.0
 11
109.5075320232
 21
169.0026334125
 31
0.0
  0
LINE
  5
107
330
1F
100
AcDbEntity
  8
0
  6
Continuous
 62
     7
370
     0
100
AcDbLine
 10
112.5075325149
 20
169.0026334125
 30
0.0
 11
112.5075325149
 21
166.9819083634
 31
0.0
  0
LINE
  5
108
330
1F
100
AcDbEntity
  8
0
  6
Continuous
 62
     7
370
     0
100
AcDbLine
 10
109.5075320232
 20
162.9404559369
 30
0.0
 11
112.5075325149
 21
162.9404559369
 31
0.0
  0
LINE
  5
109
330
1F
100
AcDbEntity
  8
0
  6
Continuous
 62
     7
370
     0
100
AcDbLine
 10
112.5075325149
 20
166.9819083634
 30
0.0
 11
112.5075325149
 21
162.9404559369
 31
0.0
  0
LINE
  5
10A
330
1F
100
AcDbEntity
  8
0
  6
Continuous
 62
     7
370
     0
100
AcDbLine
 10
109.5075320232
 20
160.9197301894
 30
0.0
 11
112.5075325149
 21
160.9197301894
 31
0.0
  0
LINE
  5
10B
330
1F
100
AcDbEntity
  8
0
  6
Continuous
 62
     7
370
     0
100
AcDbLine
 10
112.5075325149
 20
162.9404559369
 30
0.0
 11
112.5075325149
 21
160.9197301894
 31
0.0
  0
LINE
  5
10C
330
1F
100
AcDbEntity
  8
0
  6
Continuous
 62
     7
370
     0
100
AcDbLine
 10
111.4075321068
 20
177.4611819789
 30
0.0
 11
111.4075321068
 21
174.7611819789
 31
0.0
  0
LINE
  5
10D
330
1F
100
AcDbEntity
  8
0
  6
Continuous
 62
     7
370
     0
100
AcDbLine
 10
111.4075321068
 20
180.1611819789
 30
0.0
 11
111.4075321068
 21
177.4611819789
 31
0.0
  0
LINE
  5
10E
330
1F
100
AcDbEntity
  8
0
  6
Continuous
 62
     7
370
     0
100
AcDbLine
 10
111.1075321068
 20
177.4611819789
 30
0.0
 11
111.1075321068
 21
174.4611819789
 31
0.0
  0
LINE
  5
10F
330
1F
100
AcDbEntity
  8
0
  6
Continuous
 62
     7
370
     0
100
AcDbLine
 10
111.1075321068
 20
180.4611819789
 30
0.0
 11
111.1075321068
 21
177.4611819789
 31
0.0
  0
LINE
  5
110
330
1F
100
AcDbEntity
  8
0
  6
Continuous
 62
     7
370
     0
100
AcDbLine
 10
115.0075321068
 20
166.9611819789
 30
0.0
 11
115.0075321068
 21
162.9611819789
 31
0.0
  0
LINE
  5
111
330
1F
100
AcDbEntity
  8
0
  6
Continuous
 62
     7
370
     0
100
AcDbLine
 10
106.0075321068
 20
162.9611819789
 30
0.0
 11
106.0075321068
 21
166.9611819789
 31
0.0
  0
LINE
  5
112
330
1F
100
AcDbEntity
  8
0
  6
Continuous
 62
     7
370
     0
100
AcDbLine
 10
113.6075321068
 20
177.4611819789
 30
0.0
 11
113.6075321068
 21
175.6611819789
 31
0.0
  0
LINE
  5
113
330
1F
100
AcDbEntity
  8
0
  6
Continuous
 62
     7
370
     0
100
AcDbLine
 10
113.6075321068
 20
179.2611819789
 30
0.0
 11
113.6075321068
 21
177.4611819789
 31
0.0
  0
LINE
  5
114
330
1F
100
AcDbEntity
  8
0
  6
Continuous
 62
     7
370
     0
100
AcDbLine
 10
118.9075321068
 20
178.9611819789
 30
0.0
 11
118.9075321068
 21
175.9611819789
 31
0.0
  0
LINE
  5
115
330
1F
100
AcDbEntity
  8
0
  6
Continuous
 62
     7
370
     0
100
AcDbLine
 10
116.1075321068
 20
177.4611819789
 30
0.0
 11
116.1075321068
 21
175.6611819789
 31
0.0
  0
LINE
  5
116
330
1F
100
AcDbEntity
  8
0
  6
Continuous
 62
     7
370
     0
100
AcDbLine
 10
116.1075321068
 20
179.2611819789
 30
0.0
 11
116.1075321068
 21
177.4611819789
 31
0.0
  0
LINE
  5
117
330
1F
100
AcDbEntity
  8
0
  6
Continuous
 62
     7
370
     0
100
AcDbLine
 10
113.4075321068
 20
179.2611819789
 30
0.0
 11
113.4075321068
 21
175.6611819789
 31
0.0
  0
LINE
  5
118
330
1F
100
AcDbEntity
  8
0
  6
Continuous
 62
     7
370
     0
100
AcDbLine
 10
115.9075321068
 20
179.2611819789
 30
0.0
 11
115.9075321068
 21
175.6611819789
 31
0.0
  0
LINE
  5
119
330
1F
100
AcDbEntity
  8
0
  6
Continuous
 62
     7
370
     0
100
AcDbLine
 10
85.0075317326
 20
196.4404563057
 30
0.0
 11
88.0075322243
 21
196.4404563057
 31
0.0
  0
LINE
  5
11A
330
1F
100
AcDbEntity
  8
0
  6
Continuous
 62
     7
370
     0
100
AcDbLine
 10
85.0075317326
 20
200.4819082665
 30
0.0
 11
88.0075322243
 21
200.4819082665
 31
0.0
  0
LINE
  5
11B
330
1F
100
AcDbEntity
  8
0
  6
Continuous
 62
     7
370
     0
100
AcDbLine
 10
88.0075322243
 20
200.4819082665
 30
0.0
 11
88.0075322243
 21
196.4404563057
 31
0.0
  0
LINE
  5
11C
330
1F
100
AcDbEntity
  8
0
  6
Continuous
 62
     7
370
     0
100
AcDbLine
 10
85.0075317326
 20
194.4197284627
 30
0.0
 11
88.0075322243
 21
194.4197284627
 31
0.0
  0
LINE
  5
11D
330
1F
100
AcDbEntity
  8
0
  6
Continuous
 62
     7
370
     0
100
AcDbLine
 10
88.0075322243
 20
196.4404563057
 30
0.0
 11
88.0075322243
 21
194.4197284627
 31
0.0
  0
LINE
  5
11E
330
1F
100
AcDbEntity
  8
0
  6
Continuous
 62
     7
370
     0
100
AcDbLine
 10
88.0075322243
 20
202.5026323843
 30
0.0
 11
85.0075317326
 21
202.5026323843
 31
0.0
  0
LINE
  5
11F
330
1F
100
AcDbEntity
  8
0
  6
Continuous
 62
     7
370
     0
100
AcDbLine
 10
88.0075322243
 20
202.5026323843
 30
0.0
 11
88.0075322243
 21
200.4819082665
 31
0.0
  0
LINE
  5
120
330
1F
100
AcDbEntity
  8
0
  6
Continuous
 62
     7
370
     0
100
AcDbLine
 10
92.5075321068
 20
200.2611819789
 30
0.0
 11
92.5075321068
 21
196.6611819789
 31
0.0
  0
LINE
  5
121
330
1F
100
AcDbEntity
  8
0
  6
Continuous
 62
     7
370
     0
100
AcDbLine
 10
92.7075321068
 20
200.2611819789
 30
0.0
 11
92.7075321068
 21
196.6611819789
 31
0.0
  0
LINE
  5
122
330
1F
100
AcDbEntity
  8
0
  6
Continuous
 62
     7
370
     0
100
AcDbLine
 10
90.2075321068
 20
198.4611819789
 30
0.0
 11
90.2075321068
 21
196.6611819789
 31
0.0
  0
LINE
  5
123
330
1F
100
AcDbEntity
  8
0
  6
Continuous
 62
     7
370
     0
100
AcDbLine
 10
90.2075321068
 20
200.2611819789
 30
0.0
 11
90.2075321068
 21
198.4611819789
 31
0.0
  0
LINE
  5
124
330
1F
100
AcDbEntity
  8
0
  6
Continuous
 62
     7
370
     0
100
AcDbLine
 10
95.5075321068
 20
198.4611819789
 30
0.0
 11
95.5075321068
 21
196.9611819789
 31
0.0
  0
LINE
  5
125
330
1F
100
AcDbEntity
  8
0
  6
Continuous
 62
     7
370
     0
100
AcDbLine
 10
95.5075321068
 20
199.9611819789
 30
0.0
 11
95.5075321068
 21
198.4611819789
 31
0.0
  0
LINE
  5
126
330
1F
100
AcDbEntity
  8
0
  6
Continuous
 62
     7
370
     0
100
AcDbLine
 10
90.0075321068
 20
200.2611819789
 30
0.0
 11
90.0075321068
 21
196.6611819789
 31
0.0
  0
LINE
  5
127
330
1F
100
AcDbEntity
  8
0
  6
Continuous
 62
     7
370
     0
100
AcDbLine
 10
50.5075321068
 20
233.4611819789
 30
0.0
 11
56.5075321068
 21
233.4611819789
 31
0.0
  0
LINE
  5
128
330
1F
100
AcDbEntity
  8
0
  6
Continuous
 62
     7
370
     0
100
AcDbLine
 10
78.5075321068
 20
233.4611819789
 30
0.0
 11
84.5075321068
 21
233.4611819789
 31
0.0
  0
DIMENSION
  5
129
330
1F
100
AcDbEntity
  8
0
  6
Continuous
 62
     7
370
     0
100
AcDbDimension
  2
*D2
 10
125.5678303222
 20
177.4611819789
 30
0.0
 11
125.5678303222
 21
187.9611819789
 31
0.0
 70
   160
 71
     1
 42
21.0
  3
SLDDIMSTYLE0
100
AcDbAlignedDimension
 13
97.5075321068
 23
198.4611819789
 33
0.0
 14
100.0075321068
 24
177.4611819789
 34
0.0
 50
90.0
100
AcDbRotatedDimension
1001
ACAD
1000
DSTYLE
1002
{
1070
    77
1070
     3
1070
   143
1040
0.0393700787
1070
    41
1040
3.0
1070
    44
1040
1.0
1070
    42
1040
1.0
1070
   147
1040
1.524
1070
    73
1070
     0
1070
    74
1070
     0
1070
   140
1040
3.5
1070
   284
1070
    12
1070
    78
1070
    12
1002
}
  0
DIMENSION
  5
145
330
1F
100
AcDbEntity
  8
0
  6
Continuous
 62
     7
370
     0
100
AcDbDimension
  2
*D4
 10
125.5678303222
 20
177.4611819789
 30
0.0
 11
125.5678303222
 21
162.9111819789
 31
0.0
 70
   160
 71
     1
 42
29.1
  3
SLDDIMSTYLE0
100
AcDbAlignedDimension
 13
106.0075321068
 23
148.3611819789
 33
0.0
 14
95.0075321068
 24
177.4611819789
 34
0.0
 50
90.0
100
AcDbRotatedDimension
1001
ACAD
1000
DSTYLE
1002
{
1070
    77
1070
     3
1070
   143
1040
0.0393700787
1070
    41
1040
3.0
1070
    44
1040
1.0
1070
    42
1040
1.0
1070
   147
1040
1.524
1070
    73
1070
     0
1070
    74
1070
     0
1070
   140
1040
3.5
1070
   284
1070
    12
1070
    78
1070
    12
1002
}
  0
DIMENSION
  5
159
330
1F
100
AcDbEntity
  8
0
  6
Continuous
 62
     7
370
     0
100
AcDbDimension
  2
*D5
 10
30.1286400573
 20
236.4611819789
 30
0.0
 11
30.1286400573
 21
192.4111819789
 31
0.0
 70
   160
  1
88
 71
     1
 42
88.1
  3
SLDDIMSTYLE0
100
AcDbAlignedDimension
 13
38.5075321068
 23
148.3611819789
 33
0.0
 14
36.5075321068
 24
236.4611819789
 34
0.0
 50
90.0
100
AcDbRotatedDimension
1001
ACAD
1000
DSTYLE
1002
{
1070
    77
1070
     3
1070
   143
1040
0.0393700787
1070
    41
1040
3.0
1070
    44
1040
1.0
1070
    42
1040
1.0
1070
   147
1040
1.524
1070
    73
1070
     0
1070
    74
1070
     0
1070
   140
1040
3.5
1070
   284
1070
    12
1070
    78
1070
    12
1002
}
  0
DIMENSION
  5
16D
330
1F
100
AcDbEntity
  8
0
  6
Continuous
 62
     7
370
     0
100
AcDbDimension
  2
*D6
 10
47.5075321068
 20
272.3272093346
 30
0.0
 11
42.0075321068
 21
272.3272093346
 31
0.0
 70
   160
 71
     1
 42
11.0
  3
SLDDIMSTYLE0
100
AcDbAlignedDimension
 13
36.5075321068
 23
240.4611819789
 33
0.0
 14
47.5075321068
 24
244.4611819789
 34
0.0
100
AcDbRotatedDimension
1001
ACAD
1000
DSTYLE
1002
{
1070
    77
1070
     3
1070
   143
1040
0.0393700787
1070
    41
1040
3.0
1070
    44
1040
1.0
1070
    42
1040
1.0
1070
   147
1040
1.524
1070
    73
1070
     0
1070
    74
1070
     0
1070
   140
1040
3.5
1070
   284
1070
    12
1070
    78
1070
    12
1002
}
  0
LINE
  5
182
330
1F
100
AcDbEntity
  8
0
  6
CENTERX2
 62
     7
370
     0
100
AcDbLine
 10
92.7075321068
 20
198.4611819789
 30
0.0
 11
97.5075321068
 21
198.4611819789
 31
0.0
  0
LINE
  5
183
330
1F
100
AcDbEntity
  8
0
  6
CENTERX2
 62
     7
370
     0
100
AcDbLine
 10
92.5075321068
 20
198.4611819789
 30
0.0
 11
92.7075321068
 21
198.4611819789
 31
0.0
  0
LINE
  5
184
330
1F
100
AcDbEntity
  8
0
  6
CENTERX2
 62
     7
370
     0
100
AcDbLine
 10
106.6075321068
 20
177.4611819789
 30
0.0
 11
106.9075321068
 21
177.4611819789
 31
0.0
  0
LINE
  5
185
330
1F
100
AcDbEntity
  8
0
  6
CENTERX2
 62
     7
370
     0
100
AcDbLine
 10
103.5075321068
 20
177.4611819789
 30
0.0
 11
106.6075321068
 21
177.4611819789
 31
0.0
  0
LINE
  5
186
330
1F
100
AcDbEntity
  8
0
  6
CENTERX2
 62
     7
370
     0
100
AcDbLine
 10
90.2075321068
 20
198.4611819789
 30
0.0
 11
92.5075321068
 21
198.4611819789
 31
0.0
  0
LINE
  5
187
330
1F
100
AcDbEntity
  8
0
  6
CENTERX2
 62
     7
370
     0
100
AcDbLine
 10
109.5075321068
 20
177.4611819789
 30
0.0
 11
120.9075321068
 21
177.4611819788
 31
0.0
  0
LINE
  5
188
330
1F
100
AcDbEntity
  8
0
  6
CENTERX2
 62
     7
370
     0
100
AcDbLine
 10
106.9075321068
 20
177.4611819789
 30
0.0
 11
107.0075321068
 21
177.4611819789
 31
0.0
  0
LINE
  5
189
330
1F
100
AcDbEntity
  8
0
  6
CENTERX2
 62
     7
370
     0
100
AcDbLine
 10
102.5075321068
 20
177.4611819789
 30
0.0
 11
103.5075321068
 21
177.4611819789
 31
0.0
  0
LINE
  5
18A
330
1F
100
AcDbEntity
  8
0
  6
CENTERX2
 62
     7
370
     0
100
AcDbLine
 10
90.0075321068
 20
198.4611819789
 30
0.0
 11
90.2075321068
 21
198.4611819789
 31
0.0
  0
LINE
  5
18B
330
1F
100
AcDbEntity
  8
0
  6
CENTERX2
 62
     7
370
     0
100
AcDbLine
 10
107.0075321068
 20
177.4611819789
 30
0.0
 11
109.5075321068
 21
177.4611819789
 31
0.0
  0
LINE
  5
18C
330
1F
100
AcDbEntity
  8
0
  6
CENTERX2
 62
     7
370
     0
100
AcDbLine
 10
100.0075321068
 20
177.4611819789
 30
0.0
 11
102.5075321068
 21
177.4611819789
 31
0.0
  0
LINE
  5
18D
330
1F
100
AcDbEntity
  8
0
  6
CENTERX2
 62
     7
370
     0
100
AcDbLine
 10
86.0075321068
 20
198.4611819789
 30
0.0
 11
90.0075321068
 21
198.4611819789
 31
0.0
  0
LINE
  5
18E
330
1F
100
AcDbEntity
  8
0
  6
CENTERX2
 62
     7
370
     0
100
AcDbLine
 10
96.5075321068
 20
177.4611819789
 30
0.0
 11
100.0075321068
 21
177.4611819789
 31
0.0
  0
LINE
  5
18F
330
1F
100
AcDbEntity
  8
0
  6
CENTERX2
 62
     7
370
     0
100
AcDbLine
 10
83.0075321068
 20
177.4611819789
 30
0.0
 11
95.0075321068
 21
177.4611819789
 31
0.0
  0
LINE
  5
190
330
1F
100
AcDbEntity
  8
0
  6
Continuous
 62
     7
370
     0
100
AcDbLine
 10
182.3935889571
 20
233.4611819789
 30
0.0
 11
182.3935891433
 21
230.4611819434
 31
0.0
  0
LINE
  5
191
330
1F
100
AcDbEntity
  8
0
  6
Continuous
 62
     7
370
     0
100
AcDbLine
 10
188.3935891955
 20
230.4611819434
 30
0.0
 11
188.3935889571
 21
233.4611819789
 31
0.0
  0
ARC
  5
192
330
1F
100
AcDbEntity
  8
0
  6
Continuous
 62
     7
370
     0
100
AcDbCircle
 10
182.8935889571
 20
233.4611819789
 30
0.0
 40
0.4999999999964097
100
AcDbArc
 50
89.9999841126
 51
180.0
  0
ARC
  5
193
330
1F
100
AcDbEntity
  8
0
  6
Continuous
 62
     7
370
     0
100
AcDbCircle
 10
187.8935889571
 20
233.4611819789
 30
0.0
 40
0.4999999999966747
100
AcDbArc
 50
360.0
 51
90.0000158874
  0
LINE
  5
194
330
1F
100
AcDbEntity
  8
0
  6
Continuous
 62
     7
370
     0
100
AcDbLine
 10
151.3935889571
 20
233.4611819789
 30
0.0
 11
151.3935887186
 21
230.4611819434
 31
0.0
  0
LINE
  5
195
330
1F
100
AcDbEntity
  8
0
  6
Continuous
 62
     7
370
     0
100
AcDbLine
 10
157.3935887708
 20
230.4611819434
 30
0.0
 11
157.3935889571
 21
233.4611819789
 31
0.0
  0
ARC
  5
196
330
1F
100
AcDbEntity
  8
0
  6
Continuous
 62
     7
370
     0
100
AcDbCircle
 10
151.8935889571
 20
233.4611819789
 30
0.0
 40
0.4999999999979252
100
AcDbArc
 50
90.0
 51
180.0
  0
ARC
  5
197
330
1F
100
AcDbEntity
  8
0
  6
Continuous
 62
     7
370
     0
100
AcDbCircle
 10
156.8935889571
 20
233.4611819789
 30
0.0
 40
0.4999999999979252
100
AcDbArc
 50
360.0
 51
90.0
  0
ARC
  5
198
330
1F
100
AcDbEntity
  8
0
  6
Continuous
 62
     7
370
     0
100
AcDbCircle
 10
171.0602557603
 20
242.3991379615
 30
0.0
 40
0.4999998487900753
100
AcDbArc
 50
263.9118317058
 51
353.910761989
  0
LINE
  5
199
330
1F
100
AcDbEntity
  8
0
  6
Continuous
 62
     7
370
     0
100
AcDbLine
 10
171.5574345531
 20
242.3461060193
 30
0.0
 11
171.7830337283
 21
244.4611805129
 31
0.0
  0
LINE
  5
19A
330
1F
100
AcDbEntity
  8
0
  6
Continuous
 62
     7
370
     0
100
AcDbLine
 10
159.30355442
 20
236.4611792016
 30
0.0
 11
158.4502571194
 21
244.4611805129
 31
0.0
  0
LINE
  5
19B
330
1F
100
AcDbEntity
  8
0
  6
Continuous
 62
     7
370
     0
100
AcDbLine
 10
158.4502571194
 20
244.4611805129
 30
0.0
 11
168.0041438366
 21
244.4611805129
 31
0.0
  0
LINE
  5
19C
330
1F
100
AcDbEntity
  8
0
  6
Continuous
 62
     7
370
     0
100
AcDbLine
 10
168.0041438366
 20
244.4611805129
 30
0.0
 11
168.229742951
 21
242.3461061737
 31
0.0
  0
ARC
  5
19D
330
1F
100
AcDbEntity
  8
0
  6
Continuous
 62
     7
370
     0
100
AcDbCircle
 10
168.7269217603
 20
242.3991379615
 30
0.0
 40
0.499999999995274
100
AcDbArc
 50
186.0893826405
 51
276.0267100941
  0
ARC
  5
19E
330
1F
100
AcDbEntity
  8
0
  6
Continuous
 62
     7
370
     0
100
AcDbCircle
 10
169.8935887603
 20
231.4611819615
 30
0.0
 40
10.50000000000463
100
AcDbArc
 50
83.9117169077
 51
96.0912097607
  0
LINE
  5
19F
330
1F
100
AcDbEntity
  8
0
  6
Continuous
 62
     7
370
     0
100
AcDbLine
 10
171.7830337283
 20
244.4611805129
 30
0.0
 11
181.3369207947
 21
244.4611805129
 31
0.0
  0
LINE
  5
1A0
330
1F
100
AcDbEntity
  8
0
  6
Continuous
 62
     7
370
     0
100
AcDbLine
 10
180.4836234941
 20
236.4611792016
 30
0.0
 11
181.3369207947
 21
244.4611805129
 31
0.0
  0
ARC
  5
1A1
330
1F
100
AcDbEntity
  8
0
  6
Continuous
 62
     7
370
     0
100
AcDbCircle
 10
171.3253990359
 20
244.8850346597
 30
0.0
 40
0.500007609619044
100
AcDbArc
 50
353.9117020827
 51
83.9108880562
  0
LWPOLYLINE
  5
1A2
330
1F
100
AcDbEntity
  8
0
  6
Continuous
 62
     7
370
     0
100
AcDbPolyline
 90
        4
 70
   128
 43
0.0
 10
171.3784373995
 20
245.3822212863
 10
171.41441928
 20
245.719561224
 10
171.453246351
 20
246.0835816908
 10
171.4935220942
 20
246.461184566
  0
LINE
  5
1A3
330
1F
100
AcDbEntity
  8
0
  6
Continuous
 62
     7
370
     0
100
AcDbLine
 10
181.5502458184
 20
246.461184566
 30
0.0
 11
171.4935220942
 21
246.461184566
 31
0.0
  0
LWPOLYLINE
  5
1A4
330
1F
100
AcDbEntity
  8
0
  6
Continuous
 62
     7
370
     0
100
AcDbPolyline
 90
        4
 70
   128
 43
0.0
 10
171.7830337283
 20
244.4611805129
 10
171.7875552994
 20
244.5035743165
 10
171.8009286259
 20
244.6289526868
 10
171.8225867652
 20
244.8320033598
  0
LWPOLYLINE
  5
1A5
330
1F
100
AcDbEntity
  8
0
  6
Continuous
 62
     7
370
     0
100
AcDbPolyline
 90
        9
 70
   128
 43
0.0
 10
181.3369207947
 20
244.4611805129
 10
181.3410195454
 20
244.4996106076
 10
181.3531593351
 20
244.6134256768
 10
181.3728726401
 20
244.7982447791
 10
181.3994022949
 20
245.0469675112
 10
181.4317285015
 20
245.3500422287
 10
181.4686098068
 20
245.6958162236
 10
181.5086278065
 20
246.0709976602
 10
181.5502458184
 20
246.461184566
  0
LWPOLYLINE
  5
1A6
330
1F
100
AcDbEntity
  8
0
  6
Continuous
 62
     7
370
     0
100
AcDbPolyline
 90
        4
 70
   128
 43
0.0
 10
168.2936558199
 20
246.461184566
 10
168.3339315631
 20
246.0835816908
 10
168.3727586341
 20
245.719561224
 10
168.4087405146
 20
245.3822212863
  0
ARC
  5
1A7
330
1F
100
AcDbEntity
  8
0
  6
Continuous
 62
     7
370
     0
100
AcDbCircle
 10
168.4617940752
 20
244.8850219716
 30
0.0
 40
0.5000218383592167
100
AcDbArc
 50
96.090689262
 51
186.0866618798
  0
LINE
  5
1A8
330
1F
100
AcDbEntity
  8
0
  6
Continuous
 62
     7
370
     0
100
AcDbLine
 10
158.2369320958
 20
246.461184566
 30
0.0
 11
168.2936558199
 21
246.461184566
 31
0.0
  0
LWPOLYLINE
  5
1A9
330
1F
100
AcDbEntity
  8
0
  6
Continuous
 62
     7
370
     0
100
AcDbPolyline
 90
        4
 70
   128
 43
0.0
 10
167.9645907997
 20
244.8320033598
 10
167.9862488226
 20
244.6289526868
 10
167.9996221491
 20
244.5035743165
 10
168.0041438366
 20
244.4611805129
  0
LWPOLYLINE
  5
1AA
330
1F
100
AcDbEntity
  8
0
  6
Continuous
 62
     7
370
     0
100
AcDbPolyline
 90
        9
 70
   128
 43
0.0
 10
158.2369320958
 20
246.461184566
 10
158.2785501076
 20
246.0709976602
 10
158.3185681074
 20
245.6958162236
 10
158.3554494126
 20
245.3500422287
 10
158.3877756192
 20
245.0469675112
 10
158.4143052741
 20
244.7982447791
 10
158.434018579
 20
244.6134256768
 10
158.4461583688
 20
244.4996106076
 10
158.4502571194
 20
244.4611805129
  0
LINE
  5
1AB
330
1F
100
AcDbEntity
  8
0
  6
Continuous
 62
     7
370
     0
100
AcDbLine
 10
158.0260156613
 20
254.2637702125
 30
0.0
 11
161.6285146146
 21
254.2637678432
 31
0.0
  0
LINE
  5
1AC
330
1F
100
AcDbEntity
  8
0
  6
Continuous
 62
     7
370
     0
100
AcDbLine
 10
161.6285146146
 20
254.2637678432
 30
0.0
 11
162.4293332851
 21
246.7557879734
 31
0.0
  0
LINE
  5
1AD
330
1F
100
AcDbEntity
  8
0
  6
Continuous
 62
     7
370
     0
100
AcDbLine
 10
162.4293332851
 20
246.7557879734
 30
0.0
 11
168.1966193418
 21
247.3709377098
 31
0.0
  0
ARC
  5
1AE
330
1F
100
AcDbEntity
  8
0
  6
Continuous
 62
     7
370
     0
100
AcDbCircle
 10
177.8220342452
 20
251.4146215295
 30
0.0
 40
19.99999999981207
100
AcDbArc
 50
171.8099275753
 51
186.0882757121
  0
LINE
  5
1AF
330
1F
100
AcDbEntity
  8
0
  6
Continuous
 62
     7
370
     0
100
AcDbLine
 10
168.1966193418
 20
247.3709377098
 30
0.0
 11
168.2936558199
 21
246.461184566
 31
0.0
  0
LINE
  5
1B0
330
1F
100
AcDbEntity
  8
0
  6
Continuous
 62
     7
370
     0
100
AcDbLine
 10
157.9348408882
 20
249.2934095239
 30
0.0
 11
158.2369320958
 21
246.461184566
 31
0.0
  0
LINE
  5
1B1
330
1F
100
AcDbEntity
  8
0
  6
Continuous
 62
     7
370
     0
100
AcDbLine
 10
171.5905585724
 20
247.3709377098
 30
0.0
 11
177.357844629
 21
246.7557879734
 31
0.0
  0
LINE
  5
1B2
330
1F
100
AcDbEntity
  8
0
  6
Continuous
 62
     7
370
     0
100
AcDbLine
 10
177.357844629
 20
246.7557879734
 30
0.0
 11
178.1586632995
 21
254.2637678432
 31
0.0
  0
LINE
  5
1B3
330
1F
100
AcDbEntity
  8
0
  6
Continuous
 62
     7
370
     0
100
AcDbLine
 10
178.1586632995
 20
254.2637678432
 30
0.0
 11
181.7611622528
 21
254.2637702125
 31
0.0
  0
ARC
  5
1B4
330
1F
100
AcDbEntity
  8
0
  6
Continuous
 62
     7
370
     0
100
AcDbCircle
 10
161.9651436687
 20
251.4146215295
 30
0.0
 40
20.00000000001991
100
AcDbArc
 50
353.9117242888
 51
8.1900724246
  0
LINE
  5
1B5
330
1F
100
AcDbEntity
  8
0
  6
Continuous
 62
     7
370
     0
100
AcDbLine
 10
171.4935220942
 20
246.461184566
 30
0.0
 11
171.5905585724
 21
247.3709377098
 31
0.0
  0
LINE
  5
1B6
330
1F
100
AcDbEntity
  8
0
  6
Continuous
 62
     7
370
     0
100
AcDbLine
 10
181.5502458184
 20
246.461184566
 30
0.0
 11
181.8523370259
 21
249.2934095239
 31
0.0
  0
LINE
  5
1B7
330
1F
100
AcDbEntity
  8
0
  6
Continuous
 62
     7
370
     0
100
AcDbLine
 10
175.5656447193
 20
266.0284134197
 30
0.0
 11
173.3935888323
 21
264.2750533867
 31
0.0
  0
ELLIPSE
  5
1B8
330
1F
100
AcDbEntity
  8
0
  6
Continuous
 62
     7
370
     0
100
AcDbEllipse
 10
158.0452163964
 20
254.2637702125
 30
0.0
 11
15.73078587447543
 21
14.14213562380394
 31
0.0
210
0.0
220
0.0
230
1.0
 40
0.8990101154
 41
5.497787143781782
 42
6.126658179458254
  0
LINE
  5
1B9
330
1F
100
AcDbEntity
  8
0
  6
Continuous
 62
     7
370
     0
100
AcDbLine
 10
173.3935888323
 20
264.2750533867
 30
0.0
 11
171.5905585724
 21
247.3709377098
 31
0.0
  0
LINE
  5
1BA
330
1F
100
AcDbEntity
  8
0
  6
Continuous
 62
     7
370
     0
100
AcDbLine
 10
164.1927483423
 20
266.0516517806
 30
0.0
 11
164.2215327291
 21
266.0284134197
 31
0.0
  0
ELLIPSE
  5
1BB
330
1F
100
AcDbEntity
  8
0
  6
Continuous
 62
     7
370
     0
100
AcDbEllipse
 10
181.7419615177
 20
254.2637702125
 30
0.0
 11
15.73078587449436
 21
-14.14213562379177
 31
0.0
210
0.0
220
0.0
230
1.0
 40
0.8990101154
 41
3.298119811888599
 42
3.926990816987096
  0
ARC
  5
1BC
330
1F
100
AcDbEntity
  8
0
  6
Continuous
 62
     7
370
     0
100
AcDbCircle
 10
177.8220494233
 20
251.4146176111
 30
0.0
 40
20.00001543090807
100
AcDbArc
 50
132.95819272
 51
171.809929454
  0
LINE
  5
1BD
330
1F
100
AcDbEntity
  8
0
  6
Continuous
 62
     7
370
     0
100
AcDbLine
 10
166.3935890819
 20
264.2750533867
 30
0.0
 11
164.2215327291
 21
266.0284134197
 31
0.0
  0
LINE
  5
1BE
330
1F
100
AcDbEntity
  8
0
  6
Continuous
 62
     7
370
     0
100
AcDbLine
 10
168.1966193418
 20
247.3709377098
 30
0.0
 11
166.3935890819
 21
264.2750533867
 31
0.0
  0
LINE
  5
1BF
330
1F
100
AcDbEntity
  8
0
  6
Continuous
 62
     7
370
     0
100
AcDbLine
 10
175.5944291061
 20
266.0516517806
 30
0.0
 11
175.5656447193
 21
266.0284134197
 31
0.0
  0
ARC
  5
1C0
330
1F
100
AcDbEntity
  8
0
  6
Continuous
 62
     7
370
     0
100
AcDbCircle
 10
161.9651289132
 20
251.4146172937
 30
0.0
 40
20.00001505798911
100
AcDbArc
 50
8.1900716184
 51
47.0418097617
  0
CIRCLE
  5
1C1
330
1F
100
AcDbEntity
  8
0
  6
Continuous
 62
     7
370
     0
100
AcDbCircle
 10
169.8935889571
 20
177.4611819789
 30
0.0
 40
1.500000000003013
  0
CIRCLE
  5
1C2
330
1F
100
AcDbEntity
  8
0
  6
Continuous
 62
     7
370
     0
100
AcDbCircle
 10
169.8935889571
 20
177.4611819789
 30
0.0
 40
1.00000000000054
  0
CIRCLE
  5
1C3
330
1F
100
AcDbEntity
  8
0
  6
Continuous
 62
     7
370
     0
100
AcDbCircle
 10
169.893588957
 20
177.4611819789
 30
0.0
 40
1.799999999996146
  0
CIRCLE
  5
1C4
330
1F
100
AcDbEntity
  8
0
  6
Continuous
 62
     7
370
     0
100
AcDbCircle
 10
169.8935889571
 20
164.9611819789
 30
0.0
 40
2.00000000000108
  0
LINE
  5
1C5
330
1F
100
AcDbEntity
  8
0
  6
Continuous
 62
     7
370
     0
100
AcDbLine
 10
166.393588849
 20
166.9819083634
 30
0.0
 11
166.393588849
 21
162.9404559369
 31
0.0
  0
LINE
  5
1C6
330
1F
100
AcDbEntity
  8
0
  6
Continuous
 62
     7
370
     0
100
AcDbLine
 10
169.8935889573
 20
169.0026334125
 30
0.0
 11
166.393588849
 21
166.9819083634
 31
0.0
  0
LINE
  5
1C7
330
1F
100
AcDbEntity
  8
0
  6
Continuous
 62
     7
370
     0
100
AcDbLine
 10
173.3935890651
 20
166.9819083634
 30
0.0
 11
169.8935889573
 21
169.0026334125
 31
0.0
  0
LINE
  5
1C8
330
1F
100
AcDbEntity
  8
0
  6
Continuous
 62
     7
370
     0
100
AcDbLine
 10
173.3935890651
 20
162.9404559369
 30
0.0
 11
173.3935890651
 21
166.9819083634
 31
0.0
  0
LINE
  5
1C9
330
1F
100
AcDbEntity
  8
0
  6
Continuous
 62
     7
370
     0
100
AcDbLine
 10
166.393588849
 20
162.9404559369
 30
0.0
 11
169.8935889569
 21
160.9197301894
 31
0.0
  0
LINE
  5
1CA
330
1F
100
AcDbEntity
  8
0
  6
Continuous
 62
     7
370
     0
100
AcDbLine
 10
169.8935889569
 20
160.9197301894
 30
0.0
 11
173.3935890651
 21
162.9404559369
 31
0.0
  0
CIRCLE
  5
1CB
330
1F
100
AcDbEntity
  8
0
  6
Continuous
 62
     7
370
     0
100
AcDbCircle
 10
169.8935889571
 20
177.4611819789
 30
0.0
 40
2.700000000002547
  0
CIRCLE
  5
1CC
330
1F
100
AcDbEntity
  8
0
  6
Continuous
 62
     7
370
     0
100
AcDbCircle
 10
169.8935889571
 20
177.4611819789
 30
0.0
 40
3.00000000000091
  0
LINE
  5
1CD
330
1F
100
AcDbEntity
  8
0
  6
Continuous
 62
     7
370
     0
100
AcDbLine
 10
165.1304492362
 20
180.2111819789
 30
0.0
 11
167.2955128296
 21
178.9611818838
 31
0.0
  0
ARC
  5
1CE
330
1F
100
AcDbEntity
  8
0
  6
Continuous
 62
     7
370
     0
100
AcDbCircle
 10
169.8935889571
 20
177.4611819789
 30
0.0
 40
5.500000000003047
100
AcDbArc
 50
210.0
 51
150.0
  0
LINE
  5
1CF
330
1F
100
AcDbEntity
  8
0
  6
Continuous
 62
     7
370
     0
100
AcDbLine
 10
167.2955128296
 20
175.9611813921
 30
0.0
 11
165.1304492362
 21
174.7111819789
 31
0.0
  0
LINE
  5
1D0
330
1F
100
AcDbEntity
  8
0
  6
Continuous
 62
     7
370
     0
100
AcDbLine
 10
150.8935889571
 20
150.8611819789
 30
0.0
 11
150.8935889571
 21
148.3611819789
 31
0.0
  0
LWPOLYLINE
  5
1D1
330
1F
100
AcDbEntity
  8
0
  6
Continuous
 62
     7
370
     0
100
AcDbPolyline
 90
        4
 70
   128
 43
0.0
 10
150.893589568
 20
150.8611821207
 10
151.0101427256
 20
151.1892912547
 10
151.1289198814
 20
151.523663533
 10
151.2488164871
 20
151.861181819
  0
LINE
  5
1D2
330
1F
100
AcDbEntity
  8
0
  6
Continuous
 62
     7
370
     0
100
AcDbLine
 10
151.2488164871
 20
151.861181819
 30
0.0
 11
188.5383614271
 21
151.861181819
 31
0.0
  0
LWPOLYLINE
  5
1D3
330
1F
100
AcDbEntity
  8
0
  6
Continuous
 62
     7
370
     0
100
AcDbPolyline
 90
        4
 70
   128
 43
0.0
 10
188.8935883461
 20
150.8611821207
 10
188.7770351885
 20
151.1892912547
 10
188.6582580327
 20
151.523663533
 10
188.5383614271
 20
151.861181819
  0
LINE
  5
1D4
330
1F
100
AcDbEntity
  8
0
  6
Continuous
 62
     7
370
     0
100
AcDbLine
 10
188.8935889571
 20
148.3611819789
 30
0.0
 11
188.8935889571
 21
150.8611819789
 31
0.0
  0
LINE
  5
1D5
330
1F
100
AcDbEntity
  8
0
  6
Continuous
 62
     7
370
     0
100
AcDbLine
 10
150.8935889571
 20
148.3611819789
 30
0.0
 11
188.8935889571
 21
148.3611819789
 31
0.0
  0
ARC
  5
1D6
330
1F
100
AcDbEntity
  8
0
  6
Continuous
 62
     7
370
     0
100
AcDbCircle
 10
169.8935889571
 20
177.4611819789
 30
0.0
 40
8.999999999999565
100
AcDbArc
 50
98.5490788306
 51
160.4436071338
  0
LINE
  5
1D7
330
1F
100
AcDbEntity
  8
0
  6
Continuous
 62
     7
370
     0
100
AcDbLine
 10
168.555680141
 20
186.3611819789
 30
0.0
 11
171.2314977731
 21
186.3611819789
 31
0.0
  0
ARC
  5
1D8
330
1F
100
AcDbEntity
  8
0
  6
Continuous
 62
     7
370
     0
100
AcDbCircle
 10
169.8935889571
 20
177.4611819789
 30
0.0
 40
8.99999999999957
100
AcDbArc
 50
19.5563928662
 51
81.4509211694
  0
LINE
  5
1D9
330
1F
100
AcDbEntity
  8
0
  6
Continuous
 62
     7
370
     0
100
AcDbLine
 10
161.4127765641
 20
180.4737923347
 30
0.0
 11
151.2488164871
 21
151.861181819
 31
0.0
  0
LINE
  5
1DA
330
1F
100
AcDbEntity
  8
0
  6
Continuous
 62
     7
370
     0
100
AcDbLine
 10
188.5383614271
 20
151.861181819
 30
0.0
 11
178.37440135
 21
180.4737923347
 31
0.0
  0
ARC
  5
1DB
330
1F
100
AcDbEntity
  8
0
  6
Continuous
 62
     7
370
     0
100
AcDbCircle
 10
169.8935889571
 20
177.4611819789
 30
0.0
 40
9.000000000003533
100
AcDbArc
 50
81.4509211694
 51
98.5490788309
  0
ARC
  5
1DC
330
1F
100
AcDbEntity
  8
0
  6
Continuous
 62
     7
370
     0
100
AcDbCircle
 10
169.8935889571
 20
177.4611819789
 30
0.0
 40
10.00000000000017
100
AcDbArc
 50
180.0
 51
186.285539897
  0
ARC
  5
1DD
330
1F
100
AcDbEntity
  8
0
  6
Continuous
 62
     7
370
     0
100
AcDbCircle
 10
169.8935889571
 20
177.4611819789
 30
0.0
 40
10.00000000000018
100
AcDbArc
 50
353.714460103
 51
180.0
  0
ARC
  5
1DE
330
1F
100
AcDbEntity
  8
0
  6
Continuous
 62
     7
370
     0
100
AcDbCircle
 10
169.8935889571
 20
177.4611819789
 30
0.0
 40
16.00000000000042
100
AcDbArc
 50
205.0078332347
 51
216.214740806
  0
ARC
  5
1DF
330
1F
100
AcDbEntity
  8
0
  6
Continuous
 62
     7
370
     0
100
AcDbCircle
 10
169.8935889571
 20
177.4611819789
 30
0.0
 40
15.99999999999921
100
AcDbArc
 50
323.785259194
 51
334.9921667653
  0
LINE
  5
1E0
330
1F
100
AcDbEntity
  8
0
  6
Continuous
 62
     7
370
     0
100
AcDbLine
 10
155.3935889571
 20
170.6973073497
 30
0.0
 11
155.3935889571
 21
177.4611819789
 31
0.0
  0
ARC
  5
1E1
330
1F
100
AcDbEntity
  8
0
  6
Continuous
 62
     7
370
     0
100
AcDbCircle
 10
169.8935889571
 20
177.4611819789
 30
0.0
 40
14.50000000000578
100
AcDbArc
 50
180.0
 51
212.0770928779
  0
ARC
  5
1E2
330
1F
100
AcDbEntity
  8
0
  6
Continuous
 62
     7
370
     0
100
AcDbCircle
 10
169.8935889571
 20
177.4611819789
 30
0.0
 40
14.50000000000584
100
AcDbArc
 50
327.9229071221
 51
360.0
  0
LINE
  5
1E3
330
1F
100
AcDbEntity
  8
0
  6
Continuous
 62
     7
370
     0
100
AcDbLine
 10
184.3935889571
 20
170.6973073497
 30
0.0
 11
184.3935889571
 21
177.4611819789
 31
0.0
  0
ARC
  5
1E4
330
1F
100
AcDbEntity
  8
0
  6
Continuous
 62
     7
370
     0
100
AcDbCircle
 10
169.8935889571
 20
177.4611819789
 30
0.0
 40
14.5000000000029
100
AcDbArc
 50
0.0
 51
180.0
  0
LINE
  5
1E5
330
1F
100
AcDbEntity
  8
0
  6
Continuous
 62
     7
370
     0
100
AcDbLine
 10
155.3935889571
 20
184.2250566081
 30
0.0
 11
155.3935889571
 21
177.4611819789
 31
0.0
  0
ARC
  5
1E6
330
1F
100
AcDbEntity
  8
0
  6
Continuous
 62
     7
370
     0
100
AcDbCircle
 10
169.8935889571
 20
177.4611819789
 30
0.0
 40
15.99999999999998
100
AcDbArc
 50
25.0078332347
 51
154.9921667653
  0
LINE
  5
1E7
330
1F
100
AcDbEntity
  8
0
  6
Continuous
 62
     7
370
     0
100
AcDbLine
 10
184.3935889571
 20
177.4611819789
 30
0.0
 11
184.3935889571
 21
184.2250566081
 31
0.0
  0
CIRCLE
  5
1E8
330
1F
100
AcDbEntity
  8
0
  6
Continuous
 62
     7
370
     0
100
AcDbCircle
 10
184.8935889571
 20
198.4611819789
 30
0.0
 40
1.500000000003041
  0
CIRCLE
  5
1E9
330
1F
100
AcDbEntity
  8
0
  6
Continuous
 62
     7
370
     0
100
AcDbCircle
 10
184.8935889571
 20
198.4611819789
 30
0.0
 40
1.000000000002615
  0
CIRCLE
  5
1EA
330
1F
100
AcDbEntity
  8
0
  6
Continuous
 62
     7
370
     0
100
AcDbCircle
 10
184.893588957
 20
198.4611819789
 30
0.0
 40
1.79999999999464
  0
ARC
  5
1EB
330
1F
100
AcDbEntity
  8
0
  6
Continuous
 62
     7
370
     0
100
AcDbCircle
 10
169.8935889571
 20
177.4611819789
 30
0.0
 40
15.99999999999958
100
AcDbArc
 50
334.9921667653
 51
25.0078332347
  0
ARC
  5
1EC
330
1F
100
AcDbEntity
  8
0
  6
Continuous
 62
     7
370
     0
100
AcDbCircle
 10
169.8935889571
 20
177.4611819789
 30
0.0
 40
15.99999999999955
100
AcDbArc
 50
154.9921667653
 51
205.0078332347
  0
LINE
  5
1ED
330
1F
100
AcDbEntity
  8
0
  6
Continuous
 62
     7
370
     0
100
AcDbLine
 10
188.8935883461
 20
154.3611817631
 30
0.0
 11
187.6502950607
 21
154.3611817631
 31
0.0
  0
LINE
  5
1EE
330
1F
100
AcDbEntity
  8
0
  6
Continuous
 62
     7
370
     0
100
AcDbLine
 10
152.1368828534
 20
154.3611817631
 30
0.0
 11
150.893589568
 21
154.3611817631
 31
0.0
  0
LINE
  5
1EF
330
1F
100
AcDbEntity
  8
0
  6
Continuous
 62
     7
370
     0
100
AcDbLine
 10
150.893589568
 20
154.3611817631
 30
0.0
 11
150.8935889571
 21
150.8611819789
 31
0.0
  0
LINE
  5
1F0
330
1F
100
AcDbEntity
  8
0
  6
Continuous
 62
     7
370
     0
100
AcDbLine
 10
188.8935889571
 20
150.8611819789
 30
0.0
 11
188.8935883461
 21
154.3611817631
 31
0.0
  0
LINE
  5
1F1
330
1F
100
AcDbEntity
  8
0
  6
Continuous
 62
     7
370
     0
100
AcDbLine
 10
181.3935889794
 20
200.4819082665
 30
0.0
 11
181.3935889794
 21
196.4404563057
 31
0.0
  0
LINE
  5
1F2
330
1F
100
AcDbEntity
  8
0
  6
Continuous
 62
     7
370
     0
100
AcDbLine
 10
184.8935886218
 20
202.5026323843
 30
0.0
 11
181.3935889794
 21
200.4819082665
 31
0.0
  0
LINE
  5
1F3
330
1F
100
AcDbEntity
  8
0
  6
Continuous
 62
     7
370
     0
100
AcDbLine
 10
188.3935891955
 20
200.4819082665
 30
0.0
 11
184.8935886218
 21
202.5026323843
 31
0.0
  0
LINE
  5
1F4
330
1F
100
AcDbEntity
  8
0
  6
Continuous
 62
     7
370
     0
100
AcDbLine
 10
188.3935891955
 20
196.4404563057
 30
0.0
 11
188.3935891955
 21
200.4819082665
 31
0.0
  0
LINE
  5
1F5
330
1F
100
AcDbEntity
  8
0
  6
Continuous
 62
     7
370
     0
100
AcDbLine
 10
184.8935886218
 20
194.4197284627
 30
0.0
 11
188.3935891955
 21
196.4404563057
 31
0.0
  0
LINE
  5
1F6
330
1F
100
AcDbEntity
  8
0
  6
Continuous
 62
     7
370
     0
100
AcDbLine
 10
181.3935889794
 20
196.4404563057
 30
0.0
 11
184.8935886218
 21
194.4197284627
 31
0.0
  0
LINE
  5
1F7
330
1F
100
AcDbEntity
  8
0
  6
Continuous
 62
     7
370
     0
100
AcDbLine
 10
188.8935883461
 20
158.9611819816
 30
0.0
 11
188.8935883461
 21
225.4611792612
 31
0.0
  0
LINE
  5
1F8
330
1F
100
AcDbEntity
  8
0
  6
Continuous
 62
     7
370
     0
100
AcDbLine
 10
188.8935883461
 20
158.9611819816
 30
0.0
 11
188.3935891955
 21
158.9611819816
 31
0.0
  0
LINE
  5
1F9
330
1F
100
AcDbEntity
  8
0
  6
Continuous
 62
     7
370
     0
100
AcDbLine
 10
188.3935891955
 20
158.9611819816
 30
0.0
 11
188.3935889571
 21
156.4611819789
 31
0.0
  0
LINE
  5
1FA
330
1F
100
AcDbEntity
  8
0
  6
Continuous
 62
     7
370
     0
100
AcDbLine
 10
188.3935889571
 20
156.4611819789
 30
0.0
 11
186.9043205796
 21
156.4611819211
 31
0.0
  0
LINE
  5
1FB
330
1F
100
AcDbEntity
  8
0
  6
Continuous
 62
     7
370
     0
100
AcDbLine
 10
152.8828573345
 20
156.4611819211
 30
0.0
 11
151.3935889571
 21
156.4611819789
 31
0.0
  0
LINE
  5
1FC
330
1F
100
AcDbEntity
  8
0
  6
Continuous
 62
     7
370
     0
100
AcDbLine
 10
151.3935889571
 20
156.4611819789
 30
0.0
 11
151.3935887186
 21
158.9611819816
 31
0.0
  0
LINE
  5
1FD
330
1F
100
AcDbEntity
  8
0
  6
Continuous
 62
     7
370
     0
100
AcDbLine
 10
150.893589568
 20
158.9611819816
 30
0.0
 11
151.3935887186
 21
158.9611819816
 31
0.0
  0
LINE
  5
1FE
330
1F
100
AcDbEntity
  8
0
  6
Continuous
 62
     7
370
     0
100
AcDbLine
 10
150.893589568
 20
158.9611819816
 30
0.0
 11
150.893589568
 21
225.4611792612
 31
0.0
  0
LINE
  5
1FF
330
1F
100
AcDbEntity
  8
0
  6
Continuous
 62
     7
370
     0
100
AcDbLine
 10
188.8935883461
 20
225.4611792612
 30
0.0
 11
150.893589568
 21
225.4611792612
 31
0.0
  0
LWPOLYLINE
  5
200
330
1F
100
AcDbEntity
  8
0
  6
Continuous
 62
     7
370
     0
100
AcDbPolyline
 90
        7
 70
   128
 43
0.0
 10
158.1935892744
 20
232.3953079629
 10
158.0570564537
 20
233.0648916411
 10
157.5540742768
 20
233.6899133968
 10
157.095528294
 20
234.0096476126
 10
156.5250634147
 20
234.28012604
 10
155.2858912318
 20
234.5921414542
 10
154.3935892104
 20
234.6526327181
  0
LINE
  5
201
330
1F
100
AcDbEntity
  8
0
  6
Continuous
 62
     7
370
     0
100
AcDbLine
 10
154.3935892104
 20
234.6526327181
 30
0.0
 11
151.1935890584
 21
234.6526327181
 31
0.0
  0
LINE
  5
202
330
1F
100
AcDbEntity
  8
0
  6
Continuous
 62
     7
370
     0
100
AcDbLine
 10
151.1935890584
 20
234.6526327181
 30
0.0
 11
151.1935890584
 21
236.4611792016
 31
0.0
  0
LINE
  5
203
330
1F
100
AcDbEntity
  8
0
  6
Continuous
 62
     7
370
     0
100
AcDbLine
 10
188.5935888557
 20
236.4611792016
 30
0.0
 11
151.1935890584
 21
236.4611792016
 31
0.0
  0
LINE
  5
204
330
1F
100
AcDbEntity
  8
0
  6
Continuous
 62
     7
370
     0
100
AcDbLine
 10
188.5935888557
 20
234.6526327181
 30
0.0
 11
188.5935888557
 21
236.4611792016
 31
0.0
  0
LINE
  5
205
330
1F
100
AcDbEntity
  8
0
  6
Continuous
 62
     7
370
     0
100
AcDbLine
 10
188.5935888557
 20
234.6526327181
 30
0.0
 11
185.3935887037
 21
234.6526327181
 31
0.0
  0
LWPOLYLINE
  5
206
330
1F
100
AcDbEntity
  8
0
  6
Continuous
 62
     7
370
     0
100
AcDbPolyline
 90
        7
 70
   128
 43
0.0
 10
185.3935887037
 20
234.6526327181
 10
184.2833208783
 20
234.5582264113
 10
183.2930511727
 20
234.2919352102
 10
182.4505870162
 20
233.8574098992
 10
181.8404021604
 20
233.2561778474
 10
181.5908887355
 20
232.5099723983
 10
181.5935886397
 20
232.3953079629
  0
LINE
  5
207
330
1F
100
AcDbEntity
  8
0
  6
Continuous
 62
     7
370
     0
100
AcDbLine
 10
181.5935886397
 20
232.3953079629
 30
0.0
 11
181.5935886397
 21
230.4611819434
 31
0.0
  0
LINE
  5
208
330
1F
100
AcDbEntity
  8
0
  6
Continuous
 62
     7
370
     0
100
AcDbLine
 10
158.1935892744
 20
230.4611819434
 30
0.0
 11
181.5935886397
 21
230.4611819434
 31
0.0
  0
LINE
  5
209
330
1F
100
AcDbEntity
  8
0
  6
Continuous
 62
     7
370
     0
100
AcDbLine
 10
158.1935892744
 20
230.4611819434
 30
0.0
 11
158.1935892744
 21
232.3953079629
 31
0.0
  0
LINE
  5
20A
330
1F
100
AcDbEntity
  8
0
  6
Continuous
 62
     7
370
     0
100
AcDbLine
 10
150.893589568
 20
230.4611819434
 30
0.0
 11
158.1935892744
 21
230.4611819434
 31
0.0
  0
LINE
  5
20B
330
1F
100
AcDbEntity
  8
0
  6
Continuous
 62
     7
370
     0
100
AcDbLine
 10
188.8935883461
 20
230.4611819434
 30
0.0
 11
181.5935886397
 21
230.4611819434
 31
0.0
  0
LINE
  5
20C
330
1F
100
AcDbEntity
  8
0
  6
Continuous
 62
     7
370
     0
100
AcDbLine
 10
188.8935883461
 20
225.9611802745
 30
0.0
 11
150.893589568
 21
225.9611802745
 31
0.0
  0
LINE
  5
20D
330
1F
100
AcDbEntity
  8
0
  6
Continuous
 62
     7
370
     0
100
AcDbLine
 10
150.893589568
 20
225.9611802745
 30
0.0
 11
150.893589568
 21
230.4611819434
 31
0.0
  0
LINE
  5
20E
330
1F
100
AcDbEntity
  8
0
  6
Continuous
 62
     7
370
     0
100
AcDbLine
 10
188.8935883461
 20
225.9611802745
 30
0.0
 11
188.8935883461
 21
230.4611819434
 31
0.0
  0
LINE
  5
20F
330
1F
100
AcDbEntity
  8
0
  6
Continuous
 62
     7
370
     0
100
AcDbLine
 10
181.5935886397
 20
232.3953079629
 30
0.0
 11
181.8935890614
 21
232.1354987669
 31
0.0
  0
LINE
  5
210
330
1F
100
AcDbEntity
  8
0
  6
Continuous
 62
     7
370
     0
100
AcDbLine
 10
181.8935890614
 20
230.4611819434
 30
0.0
 11
181.8935890614
 21
232.1354987669
 31
0.0
  0
LINE
  5
211
330
1F
100
AcDbEntity
  8
0
  6
Continuous
 62
     7
370
     0
100
AcDbLine
 10
158.1935892744
 20
232.3953079629
 30
0.0
 11
157.8935888527
 21
232.1354987669
 31
0.0
  0
LINE
  5
212
330
1F
100
AcDbEntity
  8
0
  6
Continuous
 62
     7
370
     0
100
AcDbLine
 10
157.8935888527
 20
230.4611819434
 30
0.0
 11
157.8935888527
 21
232.1354987669
 31
0.0
  0
LINE
  5
213
330
1F
100
AcDbEntity
  8
0
  6
Continuous
 62
     7
370
     0
100
AcDbLine
 10
151.0935892283
 20
225.9611802745
 30
0.0
 11
151.0935892283
 21
225.4611792612
 31
0.0
  0
LINE
  5
214
330
1F
100
AcDbEntity
  8
0
  6
Continuous
 62
     7
370
     0
100
AcDbLine
 10
188.6935886859
 20
225.9611802745
 30
0.0
 11
188.6935886859
 21
225.4611792612
 31
0.0
  0
LINE
  5
215
330
1F
100
AcDbEntity
  8
0
  6
Continuous
 62
     7
370
     0
100
AcDbLine
 10
182.8935892343
 20
233.9611819789
 30
0.0
 11
187.8935883786
 21
233.9611819789
 31
0.0
  0
LINE
  5
216
330
1F
100
AcDbEntity
  8
0
  6
Continuous
 62
     7
370
     0
100
AcDbLine
 10
151.8935889571
 20
233.9611819789
 30
0.0
 11
156.8935886559
 21
233.9611819789
 31
0.0
  0
LWPOLYLINE
  5
217
330
1F
100
AcDbEntity
  8
0
  6
Continuous
 62
     7
370
     0
100
AcDbPolyline
 90
        3
 70
   128
 43
0.0
 10
181.8935890614
 20
232.1354987669
 10
182.0889255895
 20
232.8058647561
 10
182.3935891433
 20
233.1285643029
  0
LWPOLYLINE
  5
218
330
1F
100
AcDbEntity
  8
0
  6
Continuous
 62
     7
370
     0
100
AcDbPolyline
 90
        3
 70
   128
 43
0.0
 10
183.8028506307
 20
233.9611815858
 10
184.8749696209
 20
234.1792302775
 10
185.3935887037
 20
234.2026325512
  0
LWPOLYLINE
  5
219
330
1F
100
AcDbEntity
  8
0
  6
Continuous
 62
     7
370
     0
100
AcDbPolyline
 90
        3
 70
   128
 43
0.0
 10
157.8935888527
 20
232.1354987669
 10
157.6982523246
 20
232.8058647561
 10
157.3935887708
 20
233.1285643029
  0
LWPOLYLINE
  5
21A
330
1F
100
AcDbEntity
  8
0
  6
Continuous
 62
     7
370
     0
100
AcDbPolyline
 90
        3
 70
   128
 43
0.0
 10
155.9843272834
 20
233.9611815858
 10
154.9122082932
 20
234.1792302775
 10
154.3935892104
 20
234.2026325512
  0
LINE
  5
21B
330
1F
100
AcDbEntity
  8
0
  6
Continuous
 62
     7
370
     0
100
AcDbLine
 10
154.3935892104
 20
234.2026325512
 30
0.0
 11
154.3935892104
 21
234.6526327181
 31
0.0
  0
LINE
  5
21C
330
1F
100
AcDbEntity
  8
0
  6
Continuous
 62
     7
370
     0
100
AcDbLine
 10
185.3935887037
 20
234.6526327181
 30
0.0
 11
185.3935887037
 21
234.2026325512
 31
0.0
  0
LINE
  5
21D
330
1F
100
AcDbEntity
  8
0
  6
Continuous
 62
     7
370
     0
100
AcDbLine
 10
185.3935887037
 20
234.2026325512
 30
0.0
 11
188.5935888557
 21
234.2026325512
 31
0.0
  0
LINE
  5
21E
330
1F
100
AcDbEntity
  8
0
  6
Continuous
 62
     7
370
     0
100
AcDbLine
 10
188.5935888557
 20
230.4611819434
 30
0.0
 11
188.5935888557
 21
234.2026325512
 31
0.0
  0
LINE
  5
21F
330
1F
100
AcDbEntity
  8
0
  6
Continuous
 62
     7
370
     0
100
AcDbLine
 10
188.8935883461
 20
234.3294265318
 30
0.0
 11
188.7234934537
 21
234.4276326346
 31
0.0
  0
LINE
  5
220
330
1F
100
AcDbEntity
  8
0
  6
Continuous
 62
     7
370
     0
100
AcDbLine
 10
188.7234934537
 20
234.4276326346
 30
0.0
 11
188.5935888557
 21
234.2026325512
 31
0.0
  0
LINE
  5
221
330
1F
100
AcDbEntity
  8
0
  6
Continuous
 62
     7
370
     0
100
AcDbLine
 10
188.8935883461
 20
230.4611819434
 30
0.0
 11
188.8935883461
 21
234.3294265318
 31
0.0
  0
LINE
  5
222
330
1F
100
AcDbEntity
  8
0
  6
Continuous
 62
     7
370
     0
100
AcDbLine
 10
151.1935890584
 20
234.2026325512
 30
0.0
 11
151.1935890584
 21
230.4611819434
 31
0.0
  0
LINE
  5
223
330
1F
100
AcDbEntity
  8
0
  6
Continuous
 62
     7
370
     0
100
AcDbLine
 10
154.3935892104
 20
234.2026325512
 30
0.0
 11
151.1935890584
 21
234.2026325512
 31
0.0
  0
LINE
  5
224
330
1F
100
AcDbEntity
  8
0
  6
Continuous
 62
     7
370
     0
100
AcDbLine
 10
151.1935890584
 20
234.6526327181
 30
0.0
 11
151.0636844604
 21
234.4276326346
 31
0.0
  0
LINE
  5
225
330
1F
100
AcDbEntity
  8
0
  6
Continuous
 62
     7
370
     0
100
AcDbLine
 10
151.1935890584
 20
234.2026325512
 30
0.0
 11
151.0636844604
 21
234.4276326346
 31
0.0
  0
LINE
  5
226
330
1F
100
AcDbEntity
  8
0
  6
Continuous
 62
     7
370
     0
100
AcDbLine
 10
151.0636844604
 20
234.4276326346
 30
0.0
 11
150.893589568
 21
234.3294265318
 31
0.0
  0
LINE
  5
227
330
1F
100
AcDbEntity
  8
0
  6
Continuous
 62
     7
370
     0
100
AcDbLine
 10
150.893589568
 20
234.3294265318
 30
0.0
 11
150.893589568
 21
230.4611819434
 31
0.0
  0
LINE
  5
228
330
1F
100
AcDbEntity
  8
0
  6
Continuous
 62
     7
370
     0
100
AcDbLine
 10
188.5935888557
 20
234.6526327181
 30
0.0
 11
188.7234934537
 21
234.4276326346
 31
0.0
  0
LINE
  5
229
330
1F
100
AcDbEntity
  8
0
  6
Continuous
 62
     7
370
     0
100
AcDbLine
 10
188.8935883461
 20
236.1611815739
 30
0.0
 11
188.5935888557
 21
236.4611792016
 31
0.0
  0
LINE
  5
22A
330
1F
100
AcDbEntity
  8
0
  6
Continuous
 62
     7
370
     0
100
AcDbLine
 10
188.8935883461
 20
234.3294265318
 30
0.0
 11
188.8935883461
 21
236.1611815739
 31
0.0
  0
LINE
  5
22B
330
1F
100
AcDbEntity
  8
0
  6
Continuous
 62
     7
370
     0
100
AcDbLine
 10
151.1935890584
 20
236.4611792016
 30
0.0
 11
150.893589568
 21
236.1611815739
 31
0.0
  0
LINE
  5
22C
330
1F
100
AcDbEntity
  8
0
  6
Continuous
 62
     7
370
     0
100
AcDbLine
 10
150.893589568
 20
236.1611815739
 30
0.0
 11
150.893589568
 21
234.3294265318
 31
0.0
  0
LINE
  5
22D
330
1F
100
AcDbEntity
  8
0
  6
Continuous
 62
     7
370
     0
100
AcDbLine
 10
188.3935889571
 20
156.4611819789
 30
0.0
 11
188.8935889571
 21
156.4611819789
 31
0.0
  0
LINE
  5
22E
330
1F
100
AcDbEntity
  8
0
  6
Continuous
 62
     7
370
     0
100
AcDbLine
 10
188.8935889571
 20
156.4611819789
 30
0.0
 11
188.8935883461
 21
154.3611817631
 31
0.0
  0
LINE
  5
22F
330
1F
100
AcDbEntity
  8
0
  6
Continuous
 62
     7
370
     0
100
AcDbLine
 10
151.3935889571
 20
156.4611819789
 30
0.0
 11
150.8935889571
 21
156.4611819789
 31
0.0
  0
LINE
  5
230
330
1F
100
AcDbEntity
  8
0
  6
Continuous
 62
     7
370
     0
100
AcDbLine
 10
150.893589568
 20
154.3611817631
 30
0.0
 11
150.8935889571
 21
156.4611819789
 31
0.0
  0
LINE
  5
231
330
1F
100
AcDbEntity
  8
0
  6
Continuous
 62
     7
370
     0
100
AcDbLine
 10
188.8935883461
 20
225.9611802745
 30
0.0
 11
188.8935883461
 21
225.4611792612
 31
0.0
  0
LINE
  5
232
330
1F
100
AcDbEntity
  8
0
  6
Continuous
 62
     7
370
     0
100
AcDbLine
 10
188.8935889571
 20
156.4611819789
 30
0.0
 11
188.8935883461
 21
158.9611819816
 31
0.0
  0
LINE
  5
233
330
1F
100
AcDbEntity
  8
0
  6
Continuous
 62
     7
370
     0
100
AcDbLine
 10
150.893589568
 20
225.9611802745
 30
0.0
 11
150.893589568
 21
225.4611792612
 31
0.0
  0
LINE
  5
234
330
1F
100
AcDbEntity
  8
0
  6
Continuous
 62
     7
370
     0
100
AcDbLine
 10
150.893589568
 20
158.9611819816
 30
0.0
 11
150.8935889571
 21
156.4611819789
 31
0.0
  0
ARC
  5
235
330
1F
100
AcDbEntity
  8
0
  6
Continuous
 62
     7
370
     0
100
AcDbCircle
 10
154.893588957
 20
236.4611819789
 30
0.0
 40
3.999999999992525
100
AcDbArc
 50
89.9999999999
 51
180.0
  0
LINE
  5
236
330
1F
100
AcDbEntity
  8
0
  6
Continuous
 62
     7
370
     0
100
AcDbLine
 10
184.8935889571
 20
240.4611819789
 30
0.0
 11
180.9102716787
 21
240.4611798573
 31
0.0
  0
LINE
  5
237
330
1F
100
AcDbEntity
  8
0
  6
Continuous
 62
     7
370
     0
100
AcDbLine
 10
158.8769062354
 20
240.4611798573
 30
0.0
 11
154.8935889571
 21
240.4611819789
 31
0.0
  0
ARC
  5
238
330
1F
100
AcDbEntity
  8
0
  6
Continuous
 62
     7
370
     0
100
AcDbCircle
 10
184.8935889571
 20
236.4611819789
 30
0.0
 40
3.999999999992582
100
AcDbArc
 50
360.0
 51
90.0000000001
  0
LINE
  5
239
330
1F
100
AcDbEntity
  8
0
  6
Continuous
 62
     7
370
     0
100
AcDbLine
 10
150.8935889571
 20
236.4611819789
 30
0.0
 11
150.893589568
 21
236.1611815739
 31
0.0
  0
LINE
  5
23A
330
1F
100
AcDbEntity
  8
0
  6
Continuous
 62
     7
370
     0
100
AcDbLine
 10
188.8935889571
 20
236.4611819789
 30
0.0
 11
188.8935883461
 21
236.1611815739
 31
0.0
  0
LINE
  5
23B
330
1F
100
AcDbEntity
  8
0
  6
Continuous
 62
     7
370
     0
100
AcDbLine
 10
182.3935889571
 20
233.4611819789
 30
0.0
 11
188.3935889571
 21
233.4611819789
 31
0.0
  0
LINE
  5
23C
330
1F
100
AcDbEntity
  8
0
  6
Continuous
 62
     7
370
     0
100
AcDbLine
 10
151.3935889571
 20
233.4611819789
 30
0.0
 11
157.3935889571
 21
233.4611819789
 31
0.0
  0
LINE
  5
23D
330
1F
100
AcDbEntity
  8
0
  6
Continuous
 62
     7
370
     0
100
AcDbLine
 10
185.3935887037
 20
233.9611815858
 30
0.0
 11
185.3935887037
 21
234.2026325512
 31
0.0
  0
LINE
  5
23E
330
1F
100
AcDbEntity
  8
0
  6
Continuous
 62
     7
370
     0
100
AcDbLine
 10
154.3935892104
 20
234.2026325512
 30
0.0
 11
154.3935892104
 21
233.9611815858
 31
0.0
  0
DIMENSION
  5
23F
330
1F
100
AcDbEntity
  8
0
  6
Continuous
 62
     7
370
     0
100
AcDbDimension
  2
*D7
 10
188.8935889571
 20
137.1792700245
 30
0.0
 11
169.8935889571
 21
137.1792700245
 31
0.0
 70
   160
 71
     1
 42
38.0
  3
SLDDIMSTYLE0
100
AcDbAlignedDimension
 13
150.8935889571
 23
148.3611819789
 33
0.0
 14
188.8935889571
 24
148.3611819789
 34
0.0
100
AcDbRotatedDimension
1001
ACAD
1000
DSTYLE
1002
{
1070
    77
1070
     3
1070
   143
1040
0.0393700787
1070
    41
1040
3.0
1070
    44
1040
1.0
1070
    42
1040
1.0
1070
   147
1040
1.524
1070
    73
1070
     0
1070
    74
1070
     0
1070
   140
1040
3.5
1070
   284
1070
    12
1070
    78
1070
    12
1002
}
  0
DIMENSION
  5
252
330
1F
100
AcDbEntity
  8
0
  6
Continuous
 62
     7
370
     0
100
AcDbDimension
  2
*D8
 10
173.3935884868
 20
269.7835899344
 30
0.0
 11
169.893588702
 21
269.7835897606
 31
0.0
 70
   160
 71
     1
 42
6.9999995694
  3
SLDDIMSTYLE0
100
AcDbAlignedDimension
 13
166.3935891909
 23
264.2750506139
 33
0.0
 14
173.3935887603
 24
264.2750509615
 34
0.0
 50
0.0000028454
100
AcDbRotatedDimension
1001
ACAD
1000
DSTYLE
1002
{
1070
    77
1070
     3
1070
   143
1040
0.0393700787
1070
    41
1040
3.0
1070
    44
1040
1.0
1070
    42
1040
1.0
1070
   147
1040
1.524
1070
    73
1070
     0
1070
    74
1070
     0
1070
   140
1040
3.5
1070
   284
1070
    12
1070
    78
1070
    12
1002
}
  0
LINE
  5
269
330
1F
100
AcDbEntity
  8
0
  6
Continuous
 62
     7
370
     0
100
AcDbLine
 10
115.0075321068
 20
91.6466257669
 30
0.0
 11
112.5075325149
 21
91.6466258619
 31
0.0
  0
LINE
  5
26A
330
1F
100
AcDbEntity
  8
0
  6
Continuous
 62
     7
370
     0
100
AcDbLine
 10
112.5075325149
 20
87.6466256719
 30
0.0
 11
115.0075321068
 21
87.6466257669
 31
0.0
  0
LINE
  5
26B
330
1F
100
AcDbEntity
  8
0
  6
Continuous
 62
     7
370
     0
100
AcDbLine
 10
109.5075320232
 20
84.1466257967
 30
0.0
 11
110.1075321068
 21
84.1466257669
 31
0.0
  0
LINE
  5
26C
330
1F
100
AcDbEntity
  8
0
  6
Continuous
 62
     7
370
     0
100
AcDbLine
 10
115.0075319934
 20
88.0292344059
 30
0.0
 11
115.9075323271
 21
88.1466257538
 31
0.0
  0
LINE
  5
26D
330
1F
100
AcDbEntity
  8
0
  6
Continuous
 62
     7
370
     0
100
AcDbLine
 10
115.9075323271
 20
91.1466257799
 30
0.0
 11
115.0075319934
 21
91.2640171278
 31
0.0
  0
LINE
  5
26E
330
1F
100
AcDbEntity
  8
0
  6
Continuous
 62
     7
370
     0
100
AcDbLine
 10
116.1075321068
 20
91.4466257669
 30
0.0
 11
115.9075321068
 21
91.4466257669
 31
0.0
  0
LINE
  5
26F
330
1F
100
AcDbEntity
  8
0
  6
Continuous
 62
     7
370
     0
100
AcDbLine
 10
115.9075321068
 20
87.8466257669
 30
0.0
 11
116.1075321068
 21
87.8466257669
 31
0.0
  0
LINE
  5
270
330
1F
100
AcDbEntity
  8
0
  6
Continuous
 62
     7
370
     0
100
AcDbLine
 10
116.1075321068
 20
87.8466257669
 30
0.0
 11
118.9075321068
 21
88.1466257669
 31
0.0
  0
LINE
  5
271
330
1F
100
AcDbEntity
  8
0
  6
Continuous
 62
     7
370
     0
100
AcDbLine
 10
118.9075321068
 20
91.1466257669
 30
0.0
 11
116.1075321068
 21
91.4466257669
 31
0.0
  0
LINE
  5
272
330
1F
100
AcDbEntity
  8
0
  6
Continuous
 62
     7
370
     0
100
AcDbLine
 10
50.6774039718
 20
70.6466263778
 30
0.0
 11
50.6774039718
 21
108.6466251559
 31
0.0
  0
LINE
  5
273
330
1F
100
AcDbEntity
  8
0
  6
Continuous
 62
     7
370
     0
100
AcDbLine
 10
38.5075324925
 20
70.6466263778
 30
0.0
 11
50.6774039718
 21
70.6466263778
 31
0.0
  0
LINE
  5
274
330
1F
100
AcDbEntity
  8
0
  6
Continuous
 62
     7
370
     0
100
AcDbLine
 10
38.5075324925
 20
70.6466263778
 30
0.0
 11
38.5075324925
 21
108.6466251559
 31
0.0
  0
LINE
  5
275
330
1F
100
AcDbEntity
  8
0
  6
Continuous
 62
     7
370
     0
100
AcDbLine
 10
50.6774039718
 20
108.6466251559
 30
0.0
 11
38.5075324925
 21
108.6466251559
 31
0.0
  0
CIRCLE
  5
276
330
1F
100
AcDbEntity
  8
0
  6
Continuous
 62
     7
370
     0
100
AcDbCircle
 10
44.5075321068
 20
101.6466257669
 30
0.0
 40
2.024999999996197
  0
CIRCLE
  5
277
330
1F
100
AcDbEntity
  8
0
  6
Continuous
 62
     7
370
     0
100
AcDbCircle
 10
44.5075321068
 20
77.6466257669
 30
0.0
 40
2.024999999996211
  0
ELLIPSE
  5
278
330
1F
100
AcDbEntity
  8
0
  6
Continuous
 62
     7
370
     0
100
AcDbEllipse
 10
106.0075321068
 20
108.2913991428
 30
0.0
 11
3.499999999995694
 21
0.0
 31
0.0
210
0.0
220
0.0
230
1.0
 40
0.3552266241
 41
0.0
 42
0.2897517014369745
  0
LINE
  5
279
330
1F
100
AcDbEntity
  8
0
  6
Continuous
 62
     7
370
     0
100
AcDbLine
 10
109.5075320232
 20
108.2913982369
 30
0.0
 11
109.5075320232
 21
71.0018532969
 31
0.0
  0
ELLIPSE
  5
27A
330
1F
100
AcDbEntity
  8
0
  6
Continuous
 62
     7
370
     0
100
AcDbEllipse
 10
106.0075321068
 20
71.001852391
 30
0.0
 11
3.499999999995694
 21
0.0
 31
0.0
210
0.0
220
0.0
230
1.0
 40
0.3552266241
 41
5.993433605742652
 42
6.283185307179586
  0
LINE
  5
27B
330
1F
100
AcDbEntity
  8
0
  6
Continuous
 62
     7
370
     0
100
AcDbLine
 10
106.0075321068
 20
108.6466257669
 30
0.0
 11
106.0075321068
 21
70.6466257669
 31
0.0
  0
LINE
  5
27C
330
1F
100
AcDbEntity
  8
0
  6
Continuous
 62
     7
370
     0
100
AcDbLine
 10
109.3616340731
 20
108.6466257669
 30
0.0
 11
106.0075321068
 21
108.6466257669
 31
0.0
  0
LINE
  5
27D
330
1F
100
AcDbEntity
  8
0
  6
Continuous
 62
     7
370
     0
100
AcDbLine
 10
106.0075321068
 20
70.6466257669
 30
0.0
 11
109.3616340731
 21
70.6466257669
 31
0.0
  0
LINE
  5
27E
330
1F
100
AcDbEntity
  8
0
  6
Continuous
 62
     7
370
     0
100
AcDbLine
 10
88.8376591506
 20
70.6466263778
 30
0.0
 11
88.8376591506
 21
108.6466251559
 31
0.0
  0
LINE
  5
27F
330
1F
100
AcDbEntity
  8
0
  6
Continuous
 62
     7
370
     0
100
AcDbLine
 10
82.7754812094
 20
70.6466263778
 30
0.0
 11
82.7754812094
 21
108.6466251559
 31
0.0
  0
LINE
  5
280
330
1F
100
AcDbEntity
  8
0
  6
Continuous
 62
     7
370
     0
100
AcDbLine
 10
88.8376591506
 20
108.6466251559
 30
0.0
 11
82.7754812094
 21
108.6466251559
 31
0.0
  0
LINE
  5
281
330
1F
100
AcDbEntity
  8
0
  6
Continuous
 62
     7
370
     0
100
AcDbLine
 10
82.7754812094
 20
70.6466263778
 30
0.0
 11
88.8376591506
 21
70.6466263778
 31
0.0
  0
CIRCLE
  5
282
330
1F
100
AcDbEntity
  8
0
  6
Continuous
 62
     7
370
     0
100
AcDbCircle
 10
97.5075321068
 20
101.6466257669
 30
0.0
 40
2.024999999995288
  0
CIRCLE
  5
283
330
1F
100
AcDbEntity
  8
0
  6
Continuous
 62
     7
370
     0
100
AcDbCircle
 10
97.5075321068
 20
77.6466257669
 30
0.0
 40
2.024999999995302
  0
LINE
  5
284
330
1F
100
AcDbEntity
  8
0
  6
Continuous
 62
     7
370
     0
100
AcDbLine
 10
106.0075321068
 20
108.6466257669
 30
0.0
 11
88.8376591506
 21
108.6466251559
 31
0.0
  0
LINE
  5
285
330
1F
100
AcDbEntity
  8
0
  6
Continuous
 62
     7
370
     0
100
AcDbLine
 10
88.8376591506
 20
70.6466263778
 30
0.0
 11
106.0075321068
 21
70.6466257669
 31
0.0
  0
CIRCLE
  5
286
330
1F
100
AcDbEntity
  8
0
  6
Continuous
 62
     7
370
     0
100
AcDbCircle
 10
44.5075321068
 20
77.6466257669
 30
0.0
 40
1.650000000000219
  0
CIRCLE
  5
287
330
1F
100
AcDbEntity
  8
0
  6
Continuous
 62
     7
370
     0
100
AcDbCircle
 10
97.5075321068
 20
77.6466257669
 30
0.0
 40
1.64999999999803
  0
LINE
  5
288
330
1F
100
AcDbEntity
  8
0
  6
Continuous
 62
     7
370
     0
100
AcDbLine
 10
56.7395837757
 20
70.6466263778
 30
0.0
 11
56.7395837757
 21
108.6466251559
 31
0.0
  0
LINE
  5
289
330
1F
100
AcDbEntity
  8
0
  6
Continuous
 62
     7
370
     0
100
AcDbLine
 10
56.7395837757
 20
108.6466251559
 30
0.0
 11
50.6774039718
 21
108.6466251559
 31
0.0
  0
LINE
  5
28A
330
1F
100
AcDbEntity
  8
0
  6
Continuous
 62
     7
370
     0
100
AcDbLine
 10
50.6774039718
 20
70.6466263778
 30
0.0
 11
56.7395837757
 21
70.6466263778
 31
0.0
  0
CIRCLE
  5
28B
330
1F
100
AcDbEntity
  8
0
  6
Continuous
 62
     7
370
     0
100
AcDbCircle
 10
44.5075321068
 20
101.6466257669
 30
0.0
 40
1.650000000000205
  0
CIRCLE
  5
28C
330
1F
100
AcDbEntity
  8
0
  6
Continuous
 62
     7
370
     0
100
AcDbCircle
 10
97.5075321068
 20
101.6466257669
 30
0.0
 40
1.649999999998016
  0
LINE
  5
28D
330
1F
100
AcDbEntity
  8
0
  6
Continuous
 62
     7
370
     0
100
AcDbLine
 10
70.0075329992
 20
75.5485496171
 30
0.0
 11
70.0075329992
 21
80.744701872
 31
0.0
  0
LINE
  5
28E
330
1F
100
AcDbEntity
  8
0
  6
Continuous
 62
     7
370
     0
100
AcDbLine
 10
61.0075333866
 20
75.5485496171
 30
0.0
 11
65.5075313303
 21
72.9504725583
 31
0.0
  0
LINE
  5
28F
330
1F
100
AcDbEntity
  8
0
  6
Continuous
 62
     7
370
     0
100
AcDbLine
 10
61.0075333866
 20
80.744701872
 30
0.0
 11
61.0075333866
 21
75.5485496171
 31
0.0
  0
LINE
  5
290
330
1F
100
AcDbEntity
  8
0
  6
Continuous
 62
     7
370
     0
100
AcDbLine
 10
65.5075313303
 20
83.3427779995
 30
0.0
 11
61.0075333866
 21
80.744701872
 31
0.0
  0
LINE
  5
291
330
1F
100
AcDbEntity
  8
0
  6
Continuous
 62
     7
370
     0
100
AcDbLine
 10
70.0075329992
 20
80.744701872
 30
0.0
 11
65.5075313303
 21
83.3427779995
 31
0.0
  0
LINE
  5
292
330
1F
100
AcDbEntity
  8
0
  6
Continuous
 62
     7
370
     0
100
AcDbLine
 10
65.5075313303
 20
72.9504725583
 30
0.0
 11
70.0075329992
 21
75.5485496171
 31
0.0
  0
LINE
  5
293
330
1F
100
AcDbEntity
  8
0
  6
Continuous
 62
     7
370
     0
100
AcDbLine
 10
61.0075333866
 20
103.7447019167
 30
0.0
 11
61.0075333866
 21
98.5485496618
 31
0.0
  0
LINE
  5
294
330
1F
100
AcDbEntity
  8
0
  6
Continuous
 62
     7
370
     0
100
AcDbLine
 10
65.5075313303
 20
106.3427789755
 30
0.0
 11
61.0075333866
 21
103.7447019167
 31
0.0
  0
LINE
  5
295
330
1F
100
AcDbEntity
  8
0
  6
Continuous
 62
     7
370
     0
100
AcDbLine
 10
70.0075329992
 20
103.7447019167
 30
0.0
 11
65.5075313303
 21
106.3427789755
 31
0.0
  0
LINE
  5
296
330
1F
100
AcDbEntity
  8
0
  6
Continuous
 62
     7
370
     0
100
AcDbLine
 10
70.0075329992
 20
98.5485496618
 30
0.0
 11
70.0075329992
 21
103.7447019167
 31
0.0
  0
LINE
  5
297
330
1F
100
AcDbEntity
  8
0
  6
Continuous
 62
     7
370
     0
100
AcDbLine
 10
61.0075333866
 20
98.5485496618
 30
0.0
 11
65.5075313303
 21
95.9504735343
 31
0.0
  0
LINE
  5
298
330
1F
100
AcDbEntity
  8
0
  6
Continuous
 62
     7
370
     0
100
AcDbLine
 10
65.5075313303
 20
95.9504735343
 30
0.0
 11
70.0075329992
 21
98.5485496618
 31
0.0
  0
LINE
  5
299
330
1F
100
AcDbEntity
  8
0
  6
Continuous
 62
     7
370
     0
100
AcDbLine
 10
72.5075321068
 20
73.1466257669
 30
0.0
 11
72.5075321068
 21
106.1466257669
 31
0.0
  0
ARC
  5
29A
330
1F
100
AcDbEntity
  8
0
  6
Continuous
 62
     7
370
     0
100
AcDbCircle
 10
71.0075321068
 20
73.1466257669
 30
0.0
 40
1.499999999996604
100
AcDbArc
 50
269.9999999999
 51
0.0
  0
ARC
  5
29B
330
1F
100
AcDbEntity
  8
0
  6
Continuous
 62
     7
370
     0
100
AcDbCircle
 10
60.0075321068
 20
73.1466257669
 30
0.0
 40
1.499999999996589
100
AcDbArc
 50
180.0
 51
270.0000000001
  0
LINE
  5
29C
330
1F
100
AcDbEntity
  8
0
  6
Continuous
 62
     7
370
     0
100
AcDbLine
 10
58.5075321068
 20
106.1466257669
 30
0.0
 11
58.5075321068
 21
73.1466257669
 31
0.0
  0
ARC
  5
29D
330
1F
100
AcDbEntity
  8
0
  6
Continuous
 62
     7
370
     0
100
AcDbCircle
 10
60.0075321068
 20
106.1466257669
 30
0.0
 40
1.499999999996092
100
AcDbArc
 50
89.9999999999
 51
180.0
  0
LINE
  5
29E
330
1F
100
AcDbEntity
  8
0
  6
Continuous
 62
     7
370
     0
100
AcDbLine
 10
71.0075321068
 20
107.6466257669
 30
0.0
 11
60.0075321068
 21
107.6466257669
 31
0.0
  0
ARC
  5
29F
330
1F
100
AcDbEntity
  8
0
  6
Continuous
 62
     7
370
     0
100
AcDbCircle
 10
71.0075321068
 20
106.1466257669
 30
0.0
 40
1.499999999996604
100
AcDbArc
 50
360.0
 51
90.0000000001
  0
LINE
  5
2A0
330
1F
100
AcDbEntity
  8
0
  6
Continuous
 62
     7
370
     0
100
AcDbLine
 10
60.0075321068
 20
71.6466257669
 30
0.0
 11
71.0075321068
 21
71.6466257669
 31
0.0
  0
LINE
  5
2A1
330
1F
100
AcDbEntity
  8
0
  6
Continuous
 62
     7
370
     0
100
AcDbLine
 10
82.7754812094
 20
108.6466251559
 30
0.0
 11
56.7395837757
 21
108.6466251559
 31
0.0
  0
LINE
  5
2A2
330
1F
100
AcDbEntity
  8
0
  6
Continuous
 62
     7
370
     0
100
AcDbLine
 10
56.7395837757
 20
70.6466263778
 30
0.0
 11
82.7754812094
 21
70.6466263778
 31
0.0
  0
LINE
  5
2A3
330
1F
100
AcDbEntity
  8
0
  6
Continuous
 62
     7
370
     0
100
AcDbLine
 10
43.4868076595
 20
78.1466257445
 30
0.0
 11
46.079952434
 21
78.1466257445
 31
0.0
  0
LINE
  5
2A4
330
1F
100
AcDbEntity
  8
0
  6
Continuous
 62
     7
370
     0
100
AcDbLine
 10
43.1968236121
 20
78.6488926656
 30
0.0
 11
43.4868076595
 21
78.1466257445
 31
0.0
  0
LINE
  5
2A5
330
1F
100
AcDbEntity
  8
0
  6
Continuous
 62
     7
370
     0
100
AcDbLine
 10
43.4868076595
 20
101.1466257892
 30
0.0
 11
43.1968236121
 21
100.6443588681
 31
0.0
  0
LINE
  5
2A6
330
1F
100
AcDbEntity
  8
0
  6
Continuous
 62
     7
370
     0
100
AcDbLine
 10
46.079952434
 20
101.1466257892
 30
0.0
 11
43.4868076595
 21
101.1466257892
 31
0.0
  0
LINE
  5
2A7
330
1F
100
AcDbEntity
  8
0
  6
Continuous
 62
     7
370
     0
100
AcDbLine
 10
36.5075284394
 20
70.6466263778
 30
0.0
 11
38.5075324925
 21
70.6466263778
 31
0.0
  0
LINE
  5
2A8
330
1F
100
AcDbEntity
  8
0
  6
Continuous
 62
     7
370
     0
100
AcDbLine
 10
36.5075284394
 20
70.6466263778
 30
0.0
 11
36.5075284394
 21
108.6466251559
 31
0.0
  0
LINE
  5
2A9
330
1F
100
AcDbEntity
  8
0
  6
Continuous
 62
     7
370
     0
100
AcDbLine
 10
36.5075284394
 20
108.6466251559
 30
0.0
 11
38.5075324925
 21
108.6466251559
 31
0.0
  0
LINE
  5
2AA
330
1F
100
AcDbEntity
  8
0
  6
Continuous
 62
     7
370
     0
100
AcDbLine
 10
109.5075320232
 20
86.1466256588
 30
0.0
 11
112.5075325149
 21
86.1466256588
 31
0.0
  0
LINE
  5
2AB
330
1F
100
AcDbEntity
  8
0
  6
Continuous
 62
     7
370
     0
100
AcDbLine
 10
109.5075320232
 20
89.6466257669
 30
0.0
 11
112.5075325149
 21
89.646625767
 31
0.0
  0
LINE
  5
2AC
330
1F
100
AcDbEntity
  8
0
  6
Continuous
 62
     7
370
     0
100
AcDbLine
 10
112.5075325149
 20
89.646625767
 30
0.0
 11
112.5075325149
 21
86.1466256588
 31
0.0
  0
LINE
  5
2AD
330
1F
100
AcDbEntity
  8
0
  6
Continuous
 62
     7
370
     0
100
AcDbLine
 10
109.5075320232
 20
93.1466258749
 30
0.0
 11
112.5075325149
 21
93.1466258749
 31
0.0
  0
LINE
  5
2AE
330
1F
100
AcDbEntity
  8
0
  6
Continuous
 62
     7
370
     0
100
AcDbLine
 10
112.5075325149
 20
93.1466258749
 30
0.0
 11
112.5075325149
 21
89.646625767
 31
0.0
  0
LINE
  5
2AF
330
1F
100
AcDbEntity
  8
0
  6
Continuous
 62
     7
370
     0
100
AcDbLine
 10
98.5075321068
 20
102.9590662417
 30
0.0
 11
98.5075321068
 21
100.334185292
 31
0.0
  0
LINE
  5
2B0
330
1F
100
AcDbEntity
  8
0
  6
Continuous
 62
     7
370
     0
100
AcDbLine
 10
98.5075321068
 20
78.9590662417
 30
0.0
 11
98.5075321068
 21
76.334185292
 31
0.0
  0
LINE
  5
2B1
330
1F
100
AcDbEntity
  8
0
  6
Continuous
 62
     7
370
     0
100
AcDbLine
 10
115.0075321068
 20
91.6466257669
 30
0.0
 11
115.0075321068
 21
87.6466257669
 31
0.0
  0
LINE
  5
2B2
330
1F
100
AcDbEntity
  8
0
  6
Continuous
 62
     7
370
     0
100
AcDbLine
 10
109.5075320232
 20
94.4097656443
 30
0.0
 11
110.1075321068
 21
94.4097654877
 31
0.0
  0
LINE
  5
2B3
330
1F
100
AcDbEntity
  8
0
  6
Continuous
 62
     7
370
     0
100
AcDbLine
 10
110.1075321068
 20
94.4097654877
 30
0.0
 11
110.1075321068
 21
93.1466257669
 31
0.0
  0
LINE
  5
2B4
330
1F
100
AcDbEntity
  8
0
  6
Continuous
 62
     7
370
     0
100
AcDbLine
 10
110.1075321068
 20
86.1466257669
 30
0.0
 11
110.1075321068
 21
84.1466257669
 31
0.0
  0
LINE
  5
2B5
330
1F
100
AcDbEntity
  8
0
  6
Continuous
 62
     7
370
     0
100
AcDbLine
 10
115.9075321068
 20
91.4466257669
 30
0.0
 11
115.9075321068
 21
87.8466257669
 31
0.0
  0
LINE
  5
2B6
330
1F
100
AcDbEntity
  8
0
  6
Continuous
 62
     7
370
     0
100
AcDbLine
 10
116.1075321068
 20
91.4466257669
 30
0.0
 11
116.1075321068
 21
87.8466257669
 31
0.0
  0
LINE
  5
2B7
330
1F
100
AcDbEntity
  8
0
  6
Continuous
 62
     7
370
     0
100
AcDbLine
 10
118.9075321068
 20
89.6466257669
 30
0.0
 11
118.9075321068
 21
88.1466257669
 31
0.0
  0
LINE
  5
2B8
330
1F
100
AcDbEntity
  8
0
  6
Continuous
 62
     7
370
     0
100
AcDbLine
 10
118.9075321068
 20
91.1466257669
 30
0.0
 11
118.9075321068
 21
89.6466257669
 31
0.0
  0
DIMENSION
  5
2B9
330
1F
100
AcDbEntity
  8
0
  6
Continuous
 62
     7
370
     0
100
AcDbDimension
  2
*D9
 10
97.5075321068
 20
57.832663283
 30
0.0
 11
71.0075321068
 21
57.832663283
 31
0.0
 70
   160
 71
     1
 42
53.0
  3
SLDDIMSTYLE0
100
AcDbAlignedDimension
 13
44.5075321068
 23
77.6466257669
 33
0.0
 14
97.5075321068
 24
77.6466257669
 34
0.0
 50
0.0
100
AcDbRotatedDimension
1001
ACAD
1000
DSTYLE
1002
{
1070
    77
1070
     3
1070
   143
1040
0.0393700787
1070
    41
1040
3.0
1070
    44
1040
1.0
1070
    42
1040
1.0
1070
   147
1040
1.524
1070
    73
1070
     0
1070
    74
1070
     0
1070
   140
1040
3.5
1070
   284
1070
    12
1070
    78
1070
    12
1002
}
  0
DIMENSION
  5
2CC
330
1F
100
AcDbEntity
  8
0
  6
Continuous
 62
     7
370
     0
100
AcDbDimension
  2
*D10
 10
131.3724349645
 20
101.6466257669
 30
0.0
 11
131.3724349645
 21
89.6466257669
 31
0.0
 70
   160
 71
     1
 42
24.0
  3
SLDDIMSTYLE0
100
AcDbAlignedDimension
 13
97.5075321068
 23
77.6466257669
 33
0.0
 14
97.5075321068
 24
101.6466257669
 34
0.0
 50
90.0
100
AcDbRotatedDimension
1001
ACAD
1000
DSTYLE
1002
{
1070
    77
1070
     3
1070
   143
1040
0.0393700787
1070
    41
1040
3.0
1070
    44
1040
1.0
1070
    42
1040
1.0
1070
   147
1040
1.524
1070
    73
1070
     0
1070
    74
1070
     0
1070
   140
1040
3.5
1070
   284
1070
    12
1070
    78
1070
    12
1002
}
  0
DIMENSION
  5
2E0
330
1F
100
AcDbEntity
  8
0
  6
Continuous
 62
     7
370
     0
100
AcDbDimension
  2
*D11
 10
44.5075321068
 20
57.832663283
 30
0.0
 11
40.5075321068
 21
57.832663283
 31
0.0
 70
   160
 71
     1
 42
8.0
  3
SLDDIMSTYLE0
100
AcDbAlignedDimension
 13
36.5075321068
 23
70.6466257669
 33
0.0
 14
44.5075321068
 24
77.6466257669
 34
0.0
100
AcDbRotatedDimension
1001
ACAD
1000
DSTYLE
1002
{
1070
    77
1070
     3
1070
   143
1040
0.0393700787
1070
    41
1040
3.0
1070
    44
1040
1.0
1070
    42
1040
1.0
1070
   147
1040
1.524
1070
    73
1070
     0
1070
    74
1070
     0
1070
   140
1040
3.5
1070
   284
1070
    12
1070
    78
1070
    12
1002
}
  0
DIMENSION
  5
2F7
330
1F
100
AcDbEntity
  8
0
  6
Continuous
 62
     7
370
     0
100
AcDbDimension
  2
*D12
 10
97.5075321068
 20
57.832663283
 30
0.0
 11
103.5075321068
 21
57.832663283
 31
0.0
 70
   160
 71
     1
 42
12.0
  3
SLDDIMSTYLE0
100
AcDbAlignedDimension
 13
109.5075321068
 23
71.001852391
 33
0.0
 14
97.5075321068
 24
77.6466257669
 34
0.0
100
AcDbRotatedDimension
1001
ACAD
1000
DSTYLE
1002
{
1070
    77
1070
     3
1070
   143
1040
0.0393700787
1070
    41
1040
3.0
1070
    44
1040
1.0
1070
    42
1040
1.0
1070
   147
1040
1.524
1070
    73
1070
     0
1070
    74
1070
     0
1070
   140
1040
3.5
1070
   284
1070
    12
1070
    78
1070
    12
1002
}
  0
MTEXT
  5
30C
330
1F
100
AcDbEntity
  8
0
  6
Continuous
 62
     7
370
     0
100
AcDbMText
 10
112.8150416545
 20
118.1386777132
 30
0.0
 40
3.5
 41
0.0
 71
     1
 72
     1
  1
4-M4
  7
SLDTEXTSTYLE0
 73
     1
 44
1.0
  0
LEADER
  5
30E
330
1F
100
AcDbEntity
  8
0
  6
Continuous
 62
     7
370
     0
100
AcDbLeader
  3
SLDDIMSTYLE1
 76
     3
 10
98.6373869775
 20
103.3271176506
 30
0.0
 10
112.3112913001
 20
114.065937685
 30
0.0
 10
120.9621370273
 20
114.065937685
 30
0.0
  0
ENDSEC
  0
SECTION
  2
OBJECTS
  0
DICTIONARY
  5
C
330
0
100
AcDbDictionary
281
     1
  3
ACAD_GROUP
350
D
  3
ACAD_LAYOUT
350
1A
  3
ACAD_MLINESTYLE
350
17
  3
ACAD_PLOTSETTINGS
350
19
  3
ACAD_PLOTSTYLENAME
350
E
  0
DICTIONARY
  5
D
102
{ACAD_REACTORS
330
C
102
}
330
C
100
AcDbDictionary
281
     1
  0
DICTIONARY
  5
1A
102
{ACAD_REACTORS
330
C
102
}
330
C
100
AcDbDictionary
281
     1
  3
Layout1
350
1E
  3
Layout2
350
26
  3
Model
350
22
  0
DICTIONARY
  5
17
102
{ACAD_REACTORS
330
C
102
}
330
C
100
AcDbDictionary
281
     1
  3
Standard
350
18
  0
DICTIONARY
  5
19
102
{ACAD_REACTORS
330
C
102
}
330
C
100
AcDbDictionary
281
     1
  0
ACDBDICTIONARYWDFLT
  5
E
102
{ACAD_REACTORS
330
C
102
}
330
C
100
AcDbDictionary
281
     1
  3
Normal
350
F
100
AcDbDictionaryWithDefault
340
F
  0
LAYOUT
  5
1E
102
{ACAD_REACTORS
330
1A
102
}
330
1A
100
AcDbPlotSettings
  1

  2

  4

  6

 40
0.0
 41
0.0
 42
0.0
 43
0.0
 44
0.0
 45
0.0
 46
0.0
 47
0.0
 48
0.0
 49
0.0
140
0.0
141
0.0
142
1.0
143
1.0
 70
   688
 72
     0
 73
     0
 74
     5
  7

 75
    16
147
1.0
148
0.0
149
0.0
100
AcDbLayout
  1
Layout1
 70
     1
 71
     1
 10
0.0
 20
0.0
 11
0.0
 21
0.0
 12
0.0
 22
0.0
 32
0.0
 14
0.0
 24
0.0
 34
0.0
 15
0.0
 25
0.0
 35
0.0
146
0.0
 13
0.0
 23
0.0
 33
0.0
 16
1.0
 26
0.0
 36
0.0
 17
0.0
 27
1.0
 37
0.0
 76
     0
330
1B
  0
LAYOUT
  5
26
102
{ACAD_REACTORS
330
1A
102
}
330
1A
100
AcDbPlotSettings
  1

  2

  4

  6

 40
0.0
 41
0.0
 42
0.0
 43
0.0
 44
0.0
 45
0.0
 46
0.0
 47
0.0
 48
0.0
 49
0.0
140
0.0
141
0.0
142
1.0
143
1.0
 70
   688
 72
     0
 73
     0
 74
     5
  7

 75
    16
147
1.0
148
0.0
149
0.0
100
AcDbLayout
  1
Layout2
 70
     1
 71
     2
 10
0.0
 20
0.0
 11
0.0
 21
0.0
 12
0.0
 22
0.0
 32
0.0
 14
0.0
 24
0.0
 34
0.0
 15
0.0
 25
0.0
 35
0.0
146
0.0
 13
0.0
 23
0.0
 33
0.0
 16
1.0
 26
0.0
 36
0.0
 17
0.0
 27
1.0
 37
0.0
 76
     0
330
23
  0
LAYOUT
  5
22
102
{ACAD_REACTORS
330
1A
102
}
330
1A
100
AcDbPlotSettings
  1

  2

  4

  6

 40
0.0
 41
0.0
 42
0.0
 43
0.0
 44
0.0
 45
0.0
 46
0.0
 47
0.0
 48
0.0
 49
0.0
140
0.0
141
0.0
142
1.0
143
1.0
 70
  1712
 72
     0
 73
     0
 74
     0
  7

 75
     0
147
1.0
148
0.0
149
0.0
100
AcDbLayout
  1
Model
 70
     1
 71
     0
 10
0.0
 20
0.0
 11
0.0
 21
0.0
 12
0.0
 22
0.0
 32
0.0
 14
0.0
 24
0.0
 34
0.0
 15
210.0
 25
297.0
 35
0.0
146
0.0
 13
0.0
 23
0.0
 33
0.0
 16
1.0
 26
0.0
 36
0.0
 17
0.0
 27
1.0
 37
0.0
 76
     0
330
1F
  0
MLINESTYLE
  5
18
102
{ACAD_REACTORS
330
17
102
}
330
17
100
AcDbMlineStyle
  2
Standard
 70
     0
  3

 62
   256
 51
90.0
 52
90.0
 71
     2
 49
0.5
 62
   256
  6
BYLAYER
 49
-0.5
 62
   256
  6
BYLAYER
  0
ACDBPLACEHOLDER
  5
F
102
{ACAD_REACTORS
330
E
102
}
330
E
  0
ENDSEC
  0
EOF
