  0
SECTION
  2
HEADER
  9
$ACADVER
  1
AC1015
  9
$ACADMAINTVER
 70
     6
  9
$DWGCODEPAGE
  3
DOS932
  9
$INSBASE
 10
0.0
 20
0.0
 30
0.0
  9
$EXTMIN
 10
0.0
 20
0.0
 30
0.0
  9
$EXTMAX
 10
210.0
 20
297.0
 30
0.0
  9
$LIMMIN
 10
0.0
 20
0.0
  9
$LIMMAX
 10
210.0
 20
297.0
  9
$ORTHOMODE
 70
     0
  9
$REGENMODE
 70
     1
  9
$FILLMODE
 70
     1
  9
$QTEXTMODE
 70
     0
  9
$MIRRTEXT
 70
     1
  9
$LTSCALE
 40
1.0
  9
$ATTMODE
 70
     1
  9
$TEXTSIZE
 40
3.5
  9
$TRACEWID
 40
1.0
  9
$TEXTSTYLE
  7
Standard
  9
$CLAYER
  8
0
  9
$CELTYPE
  6
ByLayer
  9
$CECOLOR
 62
   256
  9
$CELTSCALE
 40
1.0
  9
$DISPSILH
 70
     0
  9
$DIMSCALE
 40
1.0
  9
$DIMASZ
 40
3.0
  9
$DIMEXO
 40
1.0
  9
$DIMDLI
 40
3.75
  9
$DIMRND
 40
0.0
  9
$DIMDLE
 40
0.0
  9
$DIMEXE
 40
1.0
  9
$DIMTP
 40
0.0
  9
$DIMTM
 40
0.0
  9
$DIMTXT
 40
3.5
  9
$DIMCEN
 40
2.5
  9
$DIMTSZ
 40
0.0
  9
$DIMTOL
 70
     0
  9
$DIMLIM
 70
     0
  9
$DIMTIH
 70
     1
  9
$DIMTOH
 70
     1
  9
$DIMSE1
 70
     0
  9
$DIMSE2
 70
     0
  9
$DIMTAD
 70
     1
  9
$DIMZIN
 70
     0
  9
$DIMBLK
  1

  9
$DIMASO
 70
     1
  9
$DIMSHO
 70
     1
  9
$DIMPOST
  1

  9
$DIMAPOST
  1

  9
$DIMALT
 70
     0
  9
$DIMALTD
 70
     3
  9
$DIMALTF
 40
0.0393700787
  9
$DIMLFAC
 40
1.0
  9
$DIMTOFL
 70
     1
  9
$DIMTVP
 40
0.0
  9
$DIMTIX
 70
     0
  9
$DIMSOXD
 70
     0
  9
$DIMSAH
 70
     0
  9
$DIMBLK1
  1

  9
$DIMBLK2
  1

  9
$DIMSTYLE
  2
ISO-25
  9
$DIMCLRD
 70
     0
  9
$DIMCLRE
 70
     0
  9
$DIMCLRT
 70
     0
  9
$DIMTFAC
 40
1.0
  9
$DIMGAP
 40
1.524
  9
$DIMJUST
 70
     0
  9
$DIMSD1
 70
     0
  9
$DIMSD2
 70
     0
  9
$DIMTOLJ
 70
     0
  9
$DIMTZIN
 70
     0
  9
$DIMALTZ
 70
     0
  9
$DIMALTTZ
 70
     0
  9
$DIMUPT
 70
     0
  9
$DIMDEC
 70
     1
  9
$DIMTDEC
 70
     3
  9
$DIMALTU
 70
     2
  9
$DIMALTTD
 70
     3
  9
$DIMTXSTY
  7
Standard
  9
$DIMAUNIT
 70
     0
  9
$DIMADEC
 70
     2
  9
$DIMALTRND
 40
0.0
  9
$DIMAZIN
 70
     0
  9
$DIMDSEP
 70
    44
  9
$DIMATFIT
 70
     3
  9
$DIMFRAC
 70
     0
  9
$DIMLDRBLK
  1

  9
$DIMLUNIT
 70
     2
  9
$DIMLWD
 70
    -2
  9
$DIMLWE
 70
    -2
  9
$DIMTMOVE
 70
     0
  9
$LUNITS
 70
     2
  9
$LUPREC
 70
     1
  9
$SKETCHINC
 40
1.0
  9
$FILLETRAD
 40
10.0
  9
$AUNITS
 70
     0
  9
$AUPREC
 70
     2
  9
$MENU
  1
.
  9
$ELEVATION
 40
0.0
  9
$PELEVATION
 40
0.0
  9
$THICKNESS
 40
0.0
  9
$LIMCHECK
 70
     0
  9
$CHAMFERA
 40
10.0
  9
$CHAMFERB
 40
10.0
  9
$CHAMFERC
 40
20.0
  9
$CHAMFERD
 40
0.0
  9
$SKPOLY
 70
     0
  9
$TDCREATE
 40
2457372.744074363
  9
$TDUCREATE
 40
2457372.369074363
  9
$TDUPDATE
 40
2457372.744076146
  9
$TDUUPDATE
 40
2457372.369076146
  9
$TDINDWG
 40
0.0000000116
  9
$TDUSRTIMER
 40
0.0000000116
  9
$USRTIMER
 70
     1
  9
$ANGBASE
 50
0.0
  9
$ANGDIR
 70
     0
  9
$PDMODE
 70
     0
  9
$PDSIZE
 40
-1.0
  9
$PLINEWID
 40
0.0
  9
$SPLFRAME
 70
     0
  9
$SPLINETYPE
 70
     6
  9
$SPLINESEGS
 70
     8
  9
$HANDSEED
  5
2B4
  9
$SURFTAB1
 70
     6
  9
$SURFTAB2
 70
     6
  9
$SURFTYPE
 70
     6
  9
$SURFU
 70
     6
  9
$SURFV
 70
     6
  9
$UCSBASE
  2

  9
$UCSNAME
  2

  9
$UCSORG
 10
0.0
 20
0.0
 30
0.0
  9
$UCSXDIR
 10
1.0
 20
0.0
 30
0.0
  9
$UCSYDIR
 10
0.0
 20
1.0
 30
0.0
  9
$UCSORTHOREF
  2

  9
$UCSORTHOVIEW
 70
     0
  9
$UCSORGTOP
 10
0.0
 20
0.0
 30
0.0
  9
$UCSORGBOTTOM
 10
0.0
 20
0.0
 30
0.0
  9
$UCSORGLEFT
 10
0.0
 20
0.0
 30
0.0
  9
$UCSORGRIGHT
 10
0.0
 20
0.0
 30
0.0
  9
$UCSORGFRONT
 10
0.0
 20
0.0
 30
0.0
  9
$UCSORGBACK
 10
0.0
 20
0.0
 30
0.0
  9
$PUCSBASE
  2

  9
$PUCSNAME
  2

  9
$PUCSORG
 10
0.0
 20
0.0
 30
0.0
  9
$PUCSXDIR
 10
1.0
 20
0.0
 30
0.0
  9
$PUCSYDIR
 10
0.0
 20
1.0
 30
0.0
  9
$PUCSORTHOREF
  2

  9
$PUCSORTHOVIEW
 70
     0
  9
$PUCSORGTOP
 10
0.0
 20
0.0
 30
0.0
  9
$PUCSORGBOTTOM
 10
0.0
 20
0.0
 30
0.0
  9
$PUCSORGLEFT
 10
0.0
 20
0.0
 30
0.0
  9
$PUCSORGRIGHT
 10
0.0
 20
0.0
 30
0.0
  9
$PUCSORGFRONT
 10
0.0
 20
0.0
 30
0.0
  9
$PUCSORGBACK
 10
0.0
 20
0.0
 30
0.0
  9
$USERI1
 70
     0
  9
$USERI2
 70
     0
  9
$USERI3
 70
     0
  9
$USERI4
 70
     0
  9
$USERI5
 70
     0
  9
$USERR1
 40
0.0
  9
$USERR2
 40
0.0
  9
$USERR3
 40
0.0
  9
$USERR4
 40
0.0
  9
$USERR5
 40
0.0
  9
$WORLDVIEW
 70
     1
  9
$SHADEDGE
 70
     3
  9
$SHADEDIF
 70
    70
  9
$TILEMODE
 70
     1
  9
$MAXACTVP
 70
    64
  9
$PINSBASE
 10
0.0
 20
0.0
 30
0.0
  9
$PLIMCHECK
 70
     0
  9
$PEXTMIN
 10
1.0000000000E+20
 20
1.0000000000E+20
 30
1.0000000000E+20
  9
$PEXTMAX
 10
-1.0000000000E+20
 20
-1.0000000000E+20
 30
-1.0000000000E+20
  9
$PLIMMIN
 10
0.0
 20
0.0
  9
$PLIMMAX
 10
420.0
 20
297.0
  9
$UNITMODE
 70
     0
  9
$VISRETAIN
 70
     1
  9
$PLINEGEN
 70
     0
  9
$PSLTSCALE
 70
     1
  9
$TREEDEPTH
 70
  3020
  9
$CMLSTYLE
  2
Standard
  9
$CMLJUST
 70
     0
  9
$CMLSCALE
 40
20.0
  9
$PROXYGRAPHICS
 70
     1
  9
$MEASUREMENT
 70
     1
  9
$CELWEIGHT
370
    -1
  9
$ENDCAPS
280
     0
  9
$JOINSTYLE
280
     0
  9
$LWDISPLAY
290
     1
  9
$INSUNITS
 70
     4
  9
$HYPERLINKBASE
  1

  9
$STYLESHEET
  1

  9
$XEDIT
290
     1
  9
$CEPSNTYPE
380
     0
  9
$PSTYLEMODE
290
     1
  9
$FINGERPRINTGUID
  2
{CAA6A738-B968-43AF-B85A-B04399089D0E}
  9
$VERSIONGUID
  2
{FAEB1C32-E019-11D5-929B-00C0DF256EC4}
  9
$EXTNAMES
290
     1
  9
$PSVPSCALE
 40
0.0
  9
$OLESTARTUP
290
     0
  0
ENDSEC
  0
SECTION
  2
CLASSES
  0
CLASS
  1
ACDBDICTIONARYWDFLT
  2
AcDbDictionaryWithDefault
  3
ObjectDBX Classes
 90
        0
280
     0
281
     0
  0
CLASS
  1
VISUALSTYLE
  2
AcDbVisualStyle
  3
ObjectDBX Classes
 90
     4095
280
     0
281
     0
  0
CLASS
  1
MATERIAL
  2
AcDbMaterial
  3
ObjectDBX Classes
 90
     1153
280
     0
281
     0
  0
CLASS
  1
ACDBPLACEHOLDER
  2
AcDbPlaceHolder
  3
ObjectDBX Classes
 90
        0
280
     0
281
     0
  0
CLASS
  1
LAYOUT
  2
AcDbLayout
  3
ObjectDBX Classes
 90
        0
280
     0
281
     0
  0
ENDSEC
  0
SECTION
  2
TABLES
  0
TABLE
  2
VPORT
  5
8
330
0
100
AcDbSymbolTable
 70
     1
  0
VPORT
  5
29
330
8
100
AcDbSymbolTableRecord
100
AcDbViewportTableRecord
  2
*Active
 70
     0
 10
0.0
 20
0.0
 11
1.0
 21
1.0
 12
105.0
 22
148.5
 13
0.0
 23
0.0
 14
10.0
 24
10.0
 15
10.0
 25
10.0
 16
0.0
 26
0.0
 36
1.0
 17
0.0
 27
0.0
 37
0.0
 40
297.0
 41
0.7070707071
 42
50.0
 43
0.0
 44
0.0
 50
0.0
 51
0.0
 71
     0
 72
  2000
 73
     1
 74
     3
 75
     0
 76
     0
 77
     0
 78
     0
281
     0
 65
     1
110
0.0
120
0.0
130
0.0
111
1.0
121
0.0
131
0.0
112
0.0
122
1.0
132
0.0
 79
     0
146
0.0
  0
ENDTAB
  0
TABLE
  2
LTYPE
  5
5
330
0
100
AcDbSymbolTable
 70
     6
  0
LTYPE
  5
14
330
5
100
AcDbSymbolTableRecord
100
AcDbLinetypeTableRecord
  2
ByBlock
 70
     0
  3

 72
    65
 73
     0
 40
0.0
  0
LTYPE
  5
15
330
5
100
AcDbSymbolTableRecord
100
AcDbLinetypeTableRecord
  2
ByLayer
 70
     0
  3

 72
    65
 73
     0
 40
0.0
  0
LTYPE
  5
16
330
5
100
AcDbSymbolTableRecord
100
AcDbLinetypeTableRecord
  2
Continuous
 70
     0
  3
Solid line
 72
    65
 73
     0
 40
0.0
  0
LTYPE
  5
3F
330
5
100
AcDbSymbolTableRecord
100
AcDbLinetypeTableRecord
  2
HIDDEN
 70
     0
  3
Hidden __ __ __ __ __ __ __ __ __ __ __ __ __ __
 72
    65
 73
     2
 40
1.905
 49
1.27
 74
     0
 49
-0.635
 74
     0
  0
LTYPE
  5
40
330
5
100
AcDbSymbolTableRecord
100
AcDbLinetypeTableRecord
  2
PHANTOM
 70
     0
  3
Phantom ______  __  __  ______  __  __  ______
 72
    65
 73
     6
 40
12.7
 49
6.35
 74
     0
 49
-1.27
 74
     0
 49
1.27
 74
     0
 49
-1.27
 74
     0
 49
1.27
 74
     0
 49
-1.27
 74
     0
  0
LTYPE
  5
41
330
5
100
AcDbSymbolTableRecord
100
AcDbLinetypeTableRecord
  2
CENTER
 70
     0
  3
Center ____ _ ____ _ ____ _ ____ _ ____ _ ____
 72
    65
 73
     4
 40
10.16
 49
6.35
 74
     0
 49
-1.27
 74
     0
 49
1.27
 74
     0
 49
-1.27
 74
     0
  0
LTYPE
  5
42
330
5
100
AcDbSymbolTableRecord
100
AcDbLinetypeTableRecord
  2
CENTERX2
 70
     0
  3
Center (2x) ________  __  ________  __  _____
 72
    65
 73
     4
 40
20.32
 49
12.7
 74
     0
 49
-2.54
 74
     0
 49
2.54
 74
     0
 49
-2.54
 74
     0
  0
LTYPE
  5
43
330
5
100
AcDbSymbolTableRecord
100
AcDbLinetypeTableRecord
  2
DOT2
 70
     0
  3
Dot (.5x) ........................................
 72
    65
 73
     2
 40
0.635
 49
0.0
 74
     0
 49
-0.635
 74
     0
  0
ENDTAB
  0
TABLE
  2
LAYER
  5
2
330
0
100
AcDbSymbolTable
 70
     1
  0
LAYER
  5
10
330
2
100
AcDbSymbolTableRecord
100
AcDbLayerTableRecord
  2
0
 70
     0
 62
     7
  6
Continuous
370
    -3
390
F
  0
ENDTAB
  0
TABLE
  2
STYLE
  5
3
330
0
100
AcDbSymbolTable
 70
     2
  0
STYLE
  5
11
330
3
100
AcDbSymbolTableRecord
100
AcDbTextStyleTableRecord
  2
Standard
 70
     0
 40
0.0
 41
1.0
 50
0.0
 71
     0
 42
3.5
  3
txt
  4
bigfont
  0
STYLE
  5
4C
330
3
100
AcDbSymbolTableRecord
100
AcDbTextStyleTableRecord
  2
SLDTEXTSTYLE0
 70
     0
 40
0.0
 41
0.7
 50
0.0
 71
     0
 42
0.2
  3
TXT
  4
bigfont
  0
ENDTAB
  0
TABLE
  2
VIEW
  5
6
330
0
100
AcDbSymbolTable
 70
     0
  0
ENDTAB
  0
TABLE
  2
UCS
  5
7
330
0
100
AcDbSymbolTable
 70
     0
  0
ENDTAB
  0
TABLE
  2
APPID
  5
9
330
0
100
AcDbSymbolTable
 70
     1
  0
APPID
  5
12
330
9
100
AcDbSymbolTableRecord
100
AcDbRegAppTableRecord
  2
ACAD
 70
     0
  0
ENDTAB
  0
TABLE
  2
DIMSTYLE
  5
A
330
0
100
AcDbSymbolTable
 70
     5
100
AcDbDimStyleTable
  0
DIMSTYLE
105
27
330
A
100
AcDbSymbolTableRecord
100
AcDbDimStyleTableRecord
  2
ISO-25
 70
     0
 41
2.5
 42
0.625
 43
3.75
 44
1.25
 73
     0
 74
     0
 77
     1
 78
     8
140
2.5
141
2.5
143
0.0393700787
147
0.625
171
     3
172
     1
178
     0
271
     2
272
     2
274
     3
278
    44
283
     0
284
     8
340
11
  0
DIMSTYLE
105
150
102
{ACAD_REACTORS
330
14F
330
1D9
330
1E3
330
27E
330
288
102
}
330
A
100
AcDbSymbolTableRecord
100
AcDbDimStyleTableRecord
  2
SLDDIMSTYLE0
 70
     0
 41
3.0
 44
0.0
 45
0.000000001
 73
     0
 74
     0
 77
     3
 78
    12
 79
     3
140
3.5
147
0.875
173
     1
178
     0
271
     1
272
     3
276
     2
284
    12
340
4C
  0
DIMSTYLE
105
15B
102
{ACAD_REACTORS
330
15A
330
1CD
330
272
102
}
330
A
100
AcDbSymbolTableRecord
100
AcDbDimStyleTableRecord
  2
SLDDIMSTYLE1
 70
     0
 41
3.0
 44
0.0
 45
0.000000001
 73
     0
 74
     0
 77
     3
 78
    12
 79
     3
140
3.5
147
0.875
172
     1
173
     1
178
     0
271
     1
272
     3
276
     2
284
    12
289
     0
340
4C
  0
DIMSTYLE
105
16D
330
A
100
AcDbSymbolTableRecord
100
AcDbDimStyleTableRecord
  2
SLDDIMSTYLE2
 70
     0
 41
3.0
 44
0.0
 45
0.000000001
140
0.0
146
3.0
147
0.0
173
     1
178
     0
271
     0
272
     0
276
     2
340
11
341
16E
343
16E
344
16E
  0
DIMSTYLE
105
293
102
{ACAD_REACTORS
330
292
102
}
330
A
100
AcDbSymbolTableRecord
100
AcDbDimStyleTableRecord
  2
SLDDIMSTYLE3
 70
     0
 41
3.0
 44
0.0
 45
0.000000001
 78
    12
 79
     3
140
3.5
141
0.0
147
0.875
173
     1
178
     0
271
     1
272
     3
276
     2
284
    12
340
4C
  0
ENDTAB
  0
TABLE
  2
BLOCK_RECORD
  5
1
330
0
100
AcDbSymbolTable
 70
    14
  0
BLOCK_RECORD
  5
1F
330
1
100
AcDbSymbolTableRecord
100
AcDbBlockTableRecord
  2
*Model_Space
340
22
  0
BLOCK_RECORD
  5
1B
330
1
100
AcDbSymbolTableRecord
100
AcDbBlockTableRecord
  2
*Paper_Space
340
1E
  0
BLOCK_RECORD
  5
23
330
1
100
AcDbSymbolTableRecord
100
AcDbBlockTableRecord
  2
*Paper_Space0
340
26
  0
BLOCK_RECORD
  5
151
330
1
100
AcDbSymbolTableRecord
100
AcDbBlockTableRecord
  2
_D
340
0
  0
BLOCK_RECORD
  5
15C
330
1
100
AcDbSymbolTableRecord
100
AcDbBlockTableRecord
  2
_D_1
340
0
  0
BLOCK_RECORD
  5
167
330
1
100
AcDbSymbolTableRecord
100
AcDbBlockTableRecord
  2
SW_NOTE_0
340
0
102
{BLKREFS
331
16C
102
}
  0
BLOCK_RECORD
  5
16E
330
1
100
AcDbSymbolTableRecord
100
AcDbBlockTableRecord
  2
_OPEN30
340
0
  0
BLOCK_RECORD
  5
1CE
330
1
100
AcDbSymbolTableRecord
100
AcDbBlockTableRecord
  2
_D_2
340
0
  0
BLOCK_RECORD
  5
1DA
330
1
100
AcDbSymbolTableRecord
100
AcDbBlockTableRecord
  2
_D_3
340
0
  0
BLOCK_RECORD
  5
1E4
330
1
100
AcDbSymbolTableRecord
100
AcDbBlockTableRecord
  2
_D_4
340
0
  0
BLOCK_RECORD
  5
273
330
1
100
AcDbSymbolTableRecord
100
AcDbBlockTableRecord
  2
_D_5
340
0
  0
BLOCK_RECORD
  5
27F
330
1
100
AcDbSymbolTableRecord
100
AcDbBlockTableRecord
  2
_D_6
340
0
  0
BLOCK_RECORD
  5
289
330
1
100
AcDbSymbolTableRecord
100
AcDbBlockTableRecord
  2
_D_7
340
0
  0
BLOCK_RECORD
  5
294
330
1
100
AcDbSymbolTableRecord
100
AcDbBlockTableRecord
  2
_D_8
340
0
  0
BLOCK_RECORD
  5
29C
330
1
100
AcDbSymbolTableRecord
100
AcDbBlockTableRecord
  2
SW_CENTERMARKSYMBOL_0
340
0
102
{BLKREFS
331
2A7
102
}
  0
BLOCK_RECORD
  5
2A8
330
1
100
AcDbSymbolTableRecord
100
AcDbBlockTableRecord
  2
SW_CENTERMARKSYMBOL_1
340
0
102
{BLKREFS
331
2B3
102
}
  0
ENDTAB
  0
ENDSEC
  0
SECTION
  2
BLOCKS
  0
BLOCK
  5
20
330
1F
100
AcDbEntity
  8
0
100
AcDbBlockBegin
  2
*Model_Space
 70
     0
 10
0.0
 20
0.0
 30
0.0
  3
*Model_Space
  1

  0
ENDBLK
  5
21
330
1F
100
AcDbEntity
  8
0
100
AcDbBlockEnd
  0
BLOCK
  5
1C
330
1B
100
AcDbEntity
 67
     1
  8
0
100
AcDbBlockBegin
  2
*Paper_Space
 70
     0
 10
0.0
 20
0.0
 30
0.0
  3
*Paper_Space
  1

  0
ENDBLK
  5
1D
330
1B
100
AcDbEntity
 67
     1
  8
0
100
AcDbBlockEnd
  0
BLOCK
  5
24
330
23
100
AcDbEntity
  8
0
100
AcDbBlockBegin
  2
*Paper_Space0
 70
     0
 10
0.0
 20
0.0
 30
0.0
  3
*Paper_Space0
  1

  0
ENDBLK
  5
25
330
23
100
AcDbEntity
  8
0
100
AcDbBlockEnd
  0
BLOCK
  5
152
330
151
100
AcDbEntity
  8
0
100
AcDbBlockBegin
  2
_D
 70
     0
 10
0.0
 20
0.0
 30
0.0
  3
_D
  1

  0
SOLID
  5
154
330
151
100
AcDbEntity
  8
0
  6
Continuous
 62
     7
370
     0
100
AcDbTrace
 10
131.008651754
 20
139.6195448406
 30
0.0
 11
130.258651754
 21
136.6195448406
 31
0.0
 12
131.758651754
 22
136.6195448406
 32
0.0
 13
131.758651754
 23
136.6195448406
 33
0.0
  0
SOLID
  5
155
330
151
100
AcDbEntity
  8
0
  6
Continuous
 62
     7
370
     0
100
AcDbTrace
 10
131.008651754
 20
107.6195448406
 30
0.0
 11
131.758651754
 21
110.6195448406
 31
0.0
 12
130.258651754
 22
110.6195448406
 32
0.0
 13
130.258651754
 23
110.6195448406
 33
0.0
  0
LINE
  5
156
330
151
100
AcDbEntity
  8
0
  6
Continuous
 62
     7
370
     0
100
AcDbLine
 10
123.4707791032
 20
139.6195448406
 30
0.0
 11
132.008651754
 21
139.6195448406
 31
0.0
  0
LINE
  5
157
330
151
100
AcDbEntity
  8
0
  6
Continuous
 62
     7
370
     0
100
AcDbLine
 10
114.4707791032
 20
107.6195448406
 30
0.0
 11
132.008651754
 21
107.6195448406
 31
0.0
  0
LINE
  5
158
330
151
100
AcDbEntity
  8
0
  6
Continuous
 62
     7
370
     0
100
AcDbLine
 10
131.008651754
 20
139.6195448406
 30
0.0
 11
131.008651754
 21
107.6195448406
 31
0.0
  0
MTEXT
  5
159
330
151
100
AcDbEntity
  8
0
  6
Continuous
 62
     7
370
     0
100
AcDbMText
 10
126.4969148976
 20
121.5827393431
 30
0.1
 40
3.5
 41
0.0
 71
     1
 72
     1
  1
32
  7
SLDTEXTSTYLE0
 11
-6.156016597943509E-15
 21
1.0
 31
0.0
 73
     1
 44
1.0
  0
ENDBLK
  5
153
330
151
100
AcDbEntity
  8
0
100
AcDbBlockEnd
  0
BLOCK
  5
15D
330
15C
100
AcDbEntity
  8
0
100
AcDbBlockBegin
  2
_D_1
 70
     0
 10
0.0
 20
0.0
 30
0.0
  3
_D_1
  1

  0
SOLID
  5
15F
330
15C
100
AcDbEntity
  8
0
  6
Continuous
 62
     7
370
     0
100
AcDbTrace
 10
119.4207791032
 20
147.690371556
 30
0.0
 11
116.4207791032
 21
148.440371556
 31
0.0
 12
116.4207791032
 22
146.940371556
 32
0.0
 13
116.4207791032
 23
146.940371556
 33
0.0
  0
SOLID
  5
160
330
15C
100
AcDbEntity
  8
0
  6
Continuous
 62
     7
370
     0
100
AcDbTrace
 10
122.4707791032
 20
147.690371556
 30
0.0
 11
125.4707791032
 21
146.940371556
 31
0.0
 12
125.4707791032
 22
148.440371556
 32
0.0
 13
125.4707791032
 23
148.440371556
 33
0.0
  0
LINE
  5
161
330
15C
100
AcDbEntity
  8
0
  6
Continuous
 62
     7
370
     0
100
AcDbLine
 10
119.4207791032
 20
139.6195448406
 30
0.0
 11
119.4207791032
 21
148.690371556
 31
0.0
  0
LINE
  5
162
330
15C
100
AcDbEntity
  8
0
  6
Continuous
 62
     7
370
     0
100
AcDbLine
 10
122.4707791032
 20
140.6195448406
 30
0.0
 11
122.4707791032
 21
148.690371556
 31
0.0
  0
LINE
  5
163
330
15C
100
AcDbEntity
  8
0
  6
Continuous
 62
     7
370
     0
100
AcDbLine
 10
119.4207791032
 20
147.690371556
 30
0.0
 11
114.4207791032
 21
147.690371556
 31
0.0
  0
LINE
  5
164
330
15C
100
AcDbEntity
  8
0
  6
Continuous
 62
     7
370
     0
100
AcDbLine
 10
119.4207791032
 20
147.690371556
 30
0.0
 11
122.4707791032
 21
147.690371556
 31
0.0
  0
LINE
  5
165
330
15C
100
AcDbEntity
  8
0
  6
Continuous
 62
     7
370
     0
100
AcDbLine
 10
122.4707791032
 20
147.690371556
 30
0.0
 11
134.3231183737
 21
147.690371556
 31
0.0
  0
MTEXT
  5
166
330
15C
100
AcDbEntity
  8
0
  6
Continuous
 62
     7
370
     0
100
AcDbMText
 10
128.2127016484
 20
152.2021084123
 30
0.1
 40
3.5
 41
0.0
 71
     1
 72
     1
  1
3.1
  7
SLDTEXTSTYLE0
 73
     1
 44
1.0
  0
ENDBLK
  5
15E
330
15C
100
AcDbEntity
  8
0
100
AcDbBlockEnd
  0
BLOCK
  5
168
330
167
100
AcDbEntity
  8
0
100
AcDbBlockBegin
  2
SW_NOTE_0
 70
     0
 10
0.0
 20
0.0
 30
0.0
  3
SW_NOTE_0
  1

  0
MTEXT
  5
16A
330
167
100
AcDbEntity
  8
0
  6
Continuous
 62
     0
370
     0
100
AcDbMText
 10
-63.0927669608
 20
8.9660161643
 30
0.0
 40
3.5
 41
0.0
 71
     1
 72
     1
  1
φ6.6
  7
SLDTEXTSTYLE0
 73
     1
 44
1.0
  0
MTEXT
  5
16B
330
167
100
AcDbEntity
  8
0
  6
Continuous
 62
     0
370
     0
100
AcDbMText
 10
-63.0927669608
 20
4.466016358
 30
0.0
 40
3.5
 41
0.0
 71
     1
 72
     1
  1
φ13.6皿ザグリ深3.5サラモミ90°
  7
SLDTEXTSTYLE0
 73
     1
 44
1.0
  0
ENDBLK
  5
169
330
167
100
AcDbEntity
  8
0
100
AcDbBlockEnd
  0
BLOCK
  5
16F
330
16E
100
AcDbEntity
  8
0
100
AcDbBlockBegin
  2
_OPEN30
 70
     0
 10
0.0
 20
0.0
 30
0.0
  3
_OPEN30
  1

  0
LINE
  5
171
330
16E
100
AcDbEntity
  8
0
  6
ByBlock
 62
     0
370
    -2
100
AcDbLine
 10
-1.0
 20
0.267949
 30
0.0
 11
0.0
 21
0.0
 31
0.0
  0
LINE
  5
172
330
16E
100
AcDbEntity
  8
0
  6
ByBlock
 62
     0
370
    -2
100
AcDbLine
 10
0.0
 20
0.0
 30
0.0
 11
-1.0
 21
-0.267949
 31
0.0
  0
LINE
  5
173
330
16E
100
AcDbEntity
  8
0
  6
ByBlock
 62
     0
370
    -2
100
AcDbLine
 10
0.0
 20
0.0
 30
0.0
 11
-1.0
 21
0.0
 31
0.0
  0
ENDBLK
  5
170
330
16E
100
AcDbEntity
  8
0
100
AcDbBlockEnd
  0
BLOCK
  5
1CF
330
1CE
100
AcDbEntity
  8
0
100
AcDbBlockBegin
  2
_D_2
 70
     0
 10
0.0
 20
0.0
 30
0.0
  3
_D_2
  1

  0
SOLID
  5
1D1
330
1CE
100
AcDbEntity
  8
0
  6
Continuous
 62
     7
370
     0
100
AcDbTrace
 10
165.7494286311
 20
100.0145254111
 30
0.0
 11
162.7494286311
 21
100.7645254111
 31
0.0
 12
162.7494286311
 22
99.2645254111
 32
0.0
 13
162.7494286311
 23
99.2645254111
 33
0.0
  0
SOLID
  5
1D2
330
1CE
100
AcDbEntity
  8
0
  6
Continuous
 62
     7
370
     0
100
AcDbTrace
 10
168.2494286311
 20
100.0145254111
 30
0.0
 11
171.2494286311
 21
99.2645254111
 31
0.0
 12
171.2494286311
 22
100.7645254111
 32
0.0
 13
171.2494286311
 23
100.7645254111
 33
0.0
  0
LINE
  5
1D3
330
1CE
100
AcDbEntity
  8
0
  6
Continuous
 62
     7
370
     0
100
AcDbLine
 10
165.7494286311
 20
113.6195448406
 30
0.0
 11
165.7494286311
 21
99.0145254111
 31
0.0
  0
LINE
  5
1D4
330
1CE
100
AcDbEntity
  8
0
  6
Continuous
 62
     7
370
     0
100
AcDbLine
 10
168.2494286311
 20
106.6195448406
 30
0.0
 11
168.2494286311
 21
99.0145254111
 31
0.0
  0
LINE
  5
1D5
330
1CE
100
AcDbEntity
  8
0
  6
Continuous
 62
     7
370
     0
100
AcDbLine
 10
165.7494286311
 20
100.0145254111
 30
0.0
 11
155.1149198057
 21
100.0145254111
 31
0.0
  0
LINE
  5
1D6
330
1CE
100
AcDbEntity
  8
0
  6
Continuous
 62
     7
370
     0
100
AcDbLine
 10
165.7494286311
 20
100.0145254111
 30
0.0
 11
168.2494286311
 21
100.0145254111
 31
0.0
  0
LINE
  5
1D7
330
1CE
100
AcDbEntity
  8
0
  6
Continuous
 62
     7
370
     0
100
AcDbLine
 10
168.2494286311
 20
100.0145254111
 30
0.0
 11
173.2494286311
 21
100.0145254111
 31
0.0
  0
MTEXT
  5
1D8
330
1CE
100
AcDbEntity
  8
0
  6
Continuous
 62
     7
370
     0
100
AcDbMText
 10
155.1149198057
 20
104.5262622675
 30
-8.4
 40
3.5
 41
0.0
 71
     1
 72
     1
  1
2.5
  7
SLDTEXTSTYLE0
 73
     1
 44
1.0
  0
ENDBLK
  5
1D0
330
1CE
100
AcDbEntity
  8
0
100
AcDbBlockEnd
  0
BLOCK
  5
1DB
330
1DA
100
AcDbEntity
  8
0
100
AcDbBlockBegin
  2
_D_3
 70
     0
 10
0.0
 20
0.0
 30
0.0
  3
_D_3
  1

  0
SOLID
  5
1DD
330
1DA
100
AcDbEntity
  8
0
  6
Continuous
 62
     7
370
     0
100
AcDbTrace
 10
168.2494286311
 20
100.0145254111
 30
0.0
 11
171.2494286311
 21
99.2645254111
 31
0.0
 12
171.2494286311
 22
100.7645254111
 32
0.0
 13
171.2494286311
 23
100.7645254111
 33
0.0
  0
SOLID
  5
1DE
330
1DA
100
AcDbEntity
  8
0
  6
Continuous
 62
     7
370
     0
100
AcDbTrace
 10
184.2494286311
 20
100.0145254111
 30
0.0
 11
181.2494286311
 21
100.7645254111
 31
0.0
 12
181.2494286311
 22
99.2645254111
 32
0.0
 13
181.2494286311
 23
99.2645254111
 33
0.0
  0
LINE
  5
1DF
330
1DA
100
AcDbEntity
  8
0
  6
Continuous
 62
     7
370
     0
100
AcDbLine
 10
168.2494286311
 20
106.6195448406
 30
0.0
 11
168.2494286311
 21
99.0145254111
 31
0.0
  0
LINE
  5
1E0
330
1DA
100
AcDbEntity
  8
0
  6
Continuous
 62
     7
370
     0
100
AcDbLine
 10
184.2494286311
 20
106.6195448406
 30
0.0
 11
184.2494286311
 21
99.0145254111
 31
0.0
  0
LINE
  5
1E1
330
1DA
100
AcDbEntity
  8
0
  6
Continuous
 62
     7
370
     0
100
AcDbLine
 10
168.2494286311
 20
100.0145254111
 30
0.0
 11
184.2494286311
 21
100.0145254111
 31
0.0
  0
MTEXT
  5
1E2
330
1DA
100
AcDbEntity
  8
0
  6
Continuous
 62
     7
370
     0
100
AcDbMText
 10
174.2126231336
 20
104.5262622675
 30
-8.4
 40
3.5
 41
0.0
 71
     1
 72
     1
  1
16
  7
SLDTEXTSTYLE0
 73
     1
 44
1.0
  0
ENDBLK
  5
1DC
330
1DA
100
AcDbEntity
  8
0
100
AcDbBlockEnd
  0
BLOCK
  5
1E5
330
1E4
100
AcDbEntity
  8
0
100
AcDbBlockBegin
  2
_D_4
 70
     0
 10
0.0
 20
0.0
 30
0.0
  3
_D_4
  1

  0
SOLID
  5
1E7
330
1E4
100
AcDbEntity
  8
0
  6
Continuous
 62
     7
370
     0
100
AcDbTrace
 10
165.7494286311
 20
149.6195448406
 30
0.0
 11
168.7494286311
 21
148.8695448406
 31
0.0
 12
168.7494286311
 22
150.3695448406
 32
0.0
 13
168.7494286311
 23
150.3695448406
 33
0.0
  0
SOLID
  5
1E8
330
1E4
100
AcDbEntity
  8
0
  6
Continuous
 62
     7
370
     0
100
AcDbTrace
 10
186.7494286311
 20
149.6195448406
 30
0.0
 11
183.7494286311
 21
150.3695448406
 31
0.0
 12
183.7494286311
 22
148.8695448406
 32
0.0
 13
183.7494286311
 23
148.8695448406
 33
0.0
  0
LINE
  5
1E9
330
1E4
100
AcDbEntity
  8
0
  6
Continuous
 62
     7
370
     0
100
AcDbLine
 10
165.7494286311
 20
120.6195448406
 30
0.0
 11
165.7494286311
 21
150.6195448406
 31
0.0
  0
LINE
  5
1EA
330
1E4
100
AcDbEntity
  8
0
  6
Continuous
 62
     7
370
     0
100
AcDbLine
 10
186.7494286311
 20
120.6195448406
 30
0.0
 11
186.7494286311
 21
150.6195448406
 31
0.0
  0
LINE
  5
1EB
330
1E4
100
AcDbEntity
  8
0
  6
Continuous
 62
     7
370
     0
100
AcDbLine
 10
165.7494286311
 20
149.6195448406
 30
0.0
 11
186.7494286311
 21
149.6195448406
 31
0.0
  0
MTEXT
  5
1EC
330
1E4
100
AcDbEntity
  8
0
  6
Continuous
 62
     7
370
     0
100
AcDbMText
 10
174.2126231336
 20
154.131281697
 30
-8.4
 40
3.5
 41
0.0
 71
     1
 72
     1
  1
21
  7
SLDTEXTSTYLE0
 73
     1
 44
1.0
  0
ENDBLK
  5
1E6
330
1E4
100
AcDbEntity
  8
0
100
AcDbBlockEnd
  0
BLOCK
  5
274
330
273
100
AcDbEntity
  8
0
100
AcDbBlockBegin
  2
_D_5
 70
     0
 10
0.0
 20
0.0
 30
0.0
  3
_D_5
  1

  0
SOLID
  5
276
330
273
100
AcDbEntity
  8
0
  6
Continuous
 62
     7
370
     0
100
AcDbTrace
 10
29.4707791032
 20
209.8765438537
 30
0.0
 11
26.4707791032
 21
210.6265438537
 31
0.0
 12
26.4707791032
 22
209.1265438537
 32
0.0
 13
26.4707791032
 23
209.1265438537
 33
0.0
  0
SOLID
  5
277
330
273
100
AcDbEntity
  8
0
  6
Continuous
 62
     7
370
     0
100
AcDbTrace
 10
34.4707791032
 20
209.8765438537
 30
0.0
 11
37.4707791032
 21
209.1265438537
 31
0.0
 12
37.4707791032
 22
210.6265438537
 32
0.0
 13
37.4707791032
 23
210.6265438537
 33
0.0
  0
LINE
  5
278
330
273
100
AcDbEntity
  8
0
  6
Continuous
 62
     7
370
     0
100
AcDbLine
 10
29.4707791032
 20
203.1479487913
 30
0.0
 11
29.4707791032
 21
210.8765438537
 31
0.0
  0
LINE
  5
279
330
273
100
AcDbEntity
  8
0
  6
Continuous
 62
     7
370
     0
100
AcDbLine
 10
34.4707791032
 20
200.8979487913
 30
0.0
 11
34.4707791032
 21
210.8765438537
 31
0.0
  0
LINE
  5
27A
330
273
100
AcDbEntity
  8
0
  6
Continuous
 62
     7
370
     0
100
AcDbLine
 10
29.4707791032
 20
209.8765438537
 30
0.0
 11
24.4707791032
 21
209.8765438537
 31
0.0
  0
LINE
  5
27B
330
273
100
AcDbEntity
  8
0
  6
Continuous
 62
     7
370
     0
100
AcDbLine
 10
29.4707791032
 20
209.8765438537
 30
0.0
 11
34.4707791032
 21
209.8765438537
 31
0.0
  0
LINE
  5
27C
330
273
100
AcDbEntity
  8
0
  6
Continuous
 62
     7
370
     0
100
AcDbLine
 10
34.4707791032
 20
209.8765438537
 30
0.0
 11
39.4707791032
 21
209.8765438537
 31
0.0
  0
MTEXT
  5
27D
330
273
100
AcDbEntity
  8
0
  6
Continuous
 62
     7
370
     0
100
AcDbMText
 10
30.9523763544
 20
214.38828071
 30
-8.9
 40
3.5
 41
0.0
 71
     1
 72
     1
  1
5
  7
SLDTEXTSTYLE0
 73
     1
 44
1.0
  0
ENDBLK
  5
275
330
273
100
AcDbEntity
  8
0
100
AcDbBlockEnd
  0
BLOCK
  5
280
330
27F
100
AcDbEntity
  8
0
100
AcDbBlockBegin
  2
_D_6
 70
     0
 10
0.0
 20
0.0
 30
0.0
  3
_D_6
  1

  0
SOLID
  5
282
330
27F
100
AcDbEntity
  8
0
  6
Continuous
 62
     7
370
     0
100
AcDbTrace
 10
34.4707791032
 20
209.8765438537
 30
0.0
 11
37.4707791032
 21
209.1265438537
 31
0.0
 12
37.4707791032
 22
210.6265438537
 32
0.0
 13
37.4707791032
 23
210.6265438537
 33
0.0
  0
SOLID
  5
283
330
27F
100
AcDbEntity
  8
0
  6
Continuous
 62
     7
370
     0
100
AcDbTrace
 10
64.4707791032
 20
209.8765438537
 30
0.0
 11
61.4707791032
 21
210.6265438537
 31
0.0
 12
61.4707791032
 22
209.1265438537
 32
0.0
 13
61.4707791032
 23
209.1265438537
 33
0.0
  0
LINE
  5
284
330
27F
100
AcDbEntity
  8
0
  6
Continuous
 62
     7
370
     0
100
AcDbLine
 10
34.4707791032
 20
200.8979487913
 30
0.0
 11
34.4707791032
 21
210.8765438537
 31
0.0
  0
LINE
  5
285
330
27F
100
AcDbEntity
  8
0
  6
Continuous
 62
     7
370
     0
100
AcDbLine
 10
64.4707791032
 20
204.4479487913
 30
0.0
 11
64.4707791032
 21
210.8765438537
 31
0.0
  0
LINE
  5
286
330
27F
100
AcDbEntity
  8
0
  6
Continuous
 62
     7
370
     0
100
AcDbLine
 10
34.4707791032
 20
209.8765438537
 30
0.0
 11
64.4707791032
 21
209.8765438537
 31
0.0
  0
MTEXT
  5
287
330
27F
100
AcDbEntity
  8
0
  6
Continuous
 62
     7
370
     0
100
AcDbMText
 10
47.4339736057
 20
214.38828071
 30
-8.9
 40
3.5
 41
0.0
 71
     1
 72
     1
  1
30
  7
SLDTEXTSTYLE0
 73
     1
 44
1.0
  0
ENDBLK
  5
281
330
27F
100
AcDbEntity
  8
0
100
AcDbBlockEnd
  0
BLOCK
  5
28A
330
289
100
AcDbEntity
  8
0
100
AcDbBlockBegin
  2
_D_7
 70
     0
 10
0.0
 20
0.0
 30
0.0
  3
_D_7
  1

  0
SOLID
  5
28C
330
289
100
AcDbEntity
  8
0
  6
Continuous
 62
     7
370
     0
100
AcDbTrace
 10
29.4707791032
 20
219.1708495738
 30
0.0
 11
32.4707791032
 21
218.4208495738
 31
0.0
 12
32.4707791032
 22
219.9208495738
 32
0.0
 13
32.4707791032
 23
219.9208495738
 33
0.0
  0
SOLID
  5
28D
330
289
100
AcDbEntity
  8
0
  6
Continuous
 62
     7
370
     0
100
AcDbTrace
 10
122.4707791032
 20
219.1708495738
 30
0.0
 11
119.4707791032
 21
219.9208495738
 31
0.0
 12
119.4707791032
 22
218.4208495738
 32
0.0
 13
119.4707791032
 23
218.4208495738
 33
0.0
  0
LINE
  5
28E
330
289
100
AcDbEntity
  8
0
  6
Continuous
 62
     7
370
     0
100
AcDbLine
 10
29.4707791032
 20
203.1479487913
 30
0.0
 11
29.4707791032
 21
220.1708495738
 31
0.0
  0
LINE
  5
28F
330
289
100
AcDbEntity
  8
0
  6
Continuous
 62
     7
370
     0
100
AcDbLine
 10
122.4707791032
 20
205.6479487913
 30
0.0
 11
122.4707791032
 21
220.1708495738
 31
0.0
  0
LINE
  5
290
330
289
100
AcDbEntity
  8
0
  6
Continuous
 62
     7
370
     0
100
AcDbLine
 10
29.4707791032
 20
219.1708495738
 30
0.0
 11
122.4707791032
 21
219.1708495738
 31
0.0
  0
MTEXT
  5
291
330
289
100
AcDbEntity
  8
0
  6
Continuous
 62
     7
370
     0
100
AcDbMText
 10
73.9339736057
 20
223.6825864302
 30
-8.9
 40
3.5
 41
0.0
 71
     1
 72
     1
  1
93
  7
SLDTEXTSTYLE0
 73
     1
 44
1.0
  0
ENDBLK
  5
28B
330
289
100
AcDbEntity
  8
0
100
AcDbBlockEnd
  0
BLOCK
  5
295
330
294
100
AcDbEntity
  8
0
100
AcDbBlockBegin
  2
_D_8
 70
     0
 10
0.0
 20
0.0
 30
0.0
  3
_D_8
  1

  0
SOLID
  5
297
330
294
100
AcDbEntity
  8
0
  6
Continuous
 62
     7
370
     0
100
AcDbTrace
 10
35.5962809231
 20
191.0990562624
 30
0.0
 11
35.9316150964
 21
188.0249627387
 31
0.0
 12
37.3387962636
 22
188.5444251171
 32
0.0
 13
37.3387962636
 23
188.5444251171
 33
0.0
  0
LINE
  5
298
330
294
100
AcDbEntity
  8
0
  6
Continuous
 62
     7
370
     0
100
AcDbLine
 10
35.5962809231
 20
191.0990562624
 30
0.0
 11
42.8931055994
 21
171.3325540265
 31
0.0
  0
LINE
  5
299
330
294
100
AcDbEntity
  8
0
  6
Continuous
 62
     7
370
     0
100
AcDbLine
 10
42.8931055994
 20
171.3325540265
 30
0.0
 11
54.4609526069
 21
171.3325540265
 31
0.0
  0
MTEXT
  5
29A
330
294
100
AcDbEntity
  8
0
  6
Continuous
 62
     7
370
     0
100
AcDbMText
 10
44.4806055994
 20
175.8442913485
 30
-8.9
 40
3.5
 41
0.0
 71
     1
 72
     1
  1
%%c
  7
SLDTEXTSTYLE0
 73
     1
 44
1.0
  0
MTEXT
  5
29B
330
294
100
AcDbEntity
  8
0
  6
Continuous
 62
     7
370
     0
100
AcDbMText
 10
48.3505361145
 20
175.8442913485
 30
-8.9
 40
3.5
 41
0.0
 71
     1
 72
     1
  1
6.5
  7
SLDTEXTSTYLE0
 73
     1
 44
1.0
  0
ENDBLK
  5
296
330
294
100
AcDbEntity
  8
0
100
AcDbBlockEnd
  0
BLOCK
  5
29D
330
29C
100
AcDbEntity
  8
0
100
AcDbBlockBegin
  2
SW_CENTERMARKSYMBOL_0
 70
     0
 10
0.0
 20
0.0
 30
0.0
  3
SW_CENTERMARKSYMBOL_0
  1

  0
LINE
  5
29F
330
29C
100
AcDbEntity
  8
0
  6
Continuous
 62
     0
370
     0
100
AcDbLine
 10
0.0
 20
0.0
 30
0.0
 11
0.0
 21
2.5
 31
0.0
  0
LINE
  5
2A0
330
29C
100
AcDbEntity
  8
0
  6
Continuous
 62
     0
370
     0
100
AcDbLine
 10
0.0
 20
0.0
 30
0.0
 11
-2.5
 21
0.0
 31
0.0
  0
LINE
  5
2A1
330
29C
100
AcDbEntity
  8
0
  6
Continuous
 62
     0
370
     0
100
AcDbLine
 10
0.0
 20
0.0
 30
0.0
 11
0.0
 21
-2.5
 31
0.0
  0
LINE
  5
2A2
330
29C
100
AcDbEntity
  8
0
  6
Continuous
 62
     0
370
     0
100
AcDbLine
 10
0.0
 20
0.0
 30
0.0
 11
2.5
 21
0.0
 31
0.0
  0
LINE
  5
2A3
330
29C
100
AcDbEntity
  8
0
  6
Continuous
 62
     0
370
     0
100
AcDbLine
 10
0.0
 20
5.0
 30
0.0
 11
0.0
 21
5.75
 31
0.0
  0
LINE
  5
2A4
330
29C
100
AcDbEntity
  8
0
  6
Continuous
 62
     0
370
     0
100
AcDbLine
 10
-5.0
 20
0.0
 30
0.0
 11
-5.75
 21
0.0
 31
0.0
  0
LINE
  5
2A5
330
29C
100
AcDbEntity
  8
0
  6
Continuous
 62
     0
370
     0
100
AcDbLine
 10
0.0
 20
-5.0
 30
0.0
 11
0.0
 21
-5.75
 31
0.0
  0
LINE
  5
2A6
330
29C
100
AcDbEntity
  8
0
  6
Continuous
 62
     0
370
     0
100
AcDbLine
 10
5.0
 20
0.0
 30
0.0
 11
5.75
 21
0.0
 31
0.0
  0
ENDBLK
  5
29E
330
29C
100
AcDbEntity
  8
0
100
AcDbBlockEnd
  0
BLOCK
  5
2A9
330
2A8
100
AcDbEntity
  8
0
100
AcDbBlockBegin
  2
SW_CENTERMARKSYMBOL_1
 70
     0
 10
0.0
 20
0.0
 30
0.0
  3
SW_CENTERMARKSYMBOL_1
  1

  0
LINE
  5
2AB
330
2A8
100
AcDbEntity
  8
0
  6
Continuous
 62
     0
370
     0
100
AcDbLine
 10
0.0
 20
0.0
 30
0.0
 11
0.0
 21
2.5
 31
0.0
  0
LINE
  5
2AC
330
2A8
100
AcDbEntity
  8
0
  6
Continuous
 62
     0
370
     0
100
AcDbLine
 10
0.0
 20
0.0
 30
0.0
 11
-2.5
 21
0.0
 31
0.0
  0
LINE
  5
2AD
330
2A8
100
AcDbEntity
  8
0
  6
Continuous
 62
     0
370
     0
100
AcDbLine
 10
0.0
 20
0.0
 30
0.0
 11
0.0
 21
-2.5
 31
0.0
  0
LINE
  5
2AE
330
2A8
100
AcDbEntity
  8
0
  6
Continuous
 62
     0
370
     0
100
AcDbLine
 10
0.0
 20
0.0
 30
0.0
 11
2.5
 21
0.0
 31
0.0
  0
LINE
  5
2AF
330
2A8
100
AcDbEntity
  8
0
  6
Continuous
 62
     0
370
     0
100
AcDbLine
 10
0.0
 20
5.0
 30
0.0
 11
0.0
 21
9.3
 31
0.0
  0
LINE
  5
2B0
330
2A8
100
AcDbEntity
  8
0
  6
Continuous
 62
     0
370
     0
100
AcDbLine
 10
-5.0
 20
0.0
 30
0.0
 11
-9.3
 21
0.0
 31
0.0
  0
LINE
  5
2B1
330
2A8
100
AcDbEntity
  8
0
  6
Continuous
 62
     0
370
     0
100
AcDbLine
 10
0.0
 20
-5.0
 30
0.0
 11
0.0
 21
-9.3
 31
0.0
  0
LINE
  5
2B2
330
2A8
100
AcDbEntity
  8
0
  6
Continuous
 62
     0
370
     0
100
AcDbLine
 10
5.0
 20
0.0
 30
0.0
 11
9.3
 21
0.0
 31
0.0
  0
ENDBLK
  5
2AA
330
2A8
100
AcDbEntity
  8
0
100
AcDbBlockEnd
  0
ENDSEC
  0
SECTION
  2
ENTITIES
  0
LINE
  5
44
330
1F
100
AcDbEntity
  8
0
  6
Continuous
 62
     7
370
     0
100
AcDbLine
 10
20.2604743903
 20
285.0
 30
0.0
 11
196.7604743903
 21
285.0
 31
0.0
  0
LINE
  5
45
330
1F
100
AcDbEntity
  8
0
  6
Continuous
 62
     7
370
     0
100
AcDbLine
 10
20.2604743903
 20
285.0
 30
0.0
 11
20.2604743903
 21
10.0
 31
0.0
  0
LINE
  5
46
330
1F
100
AcDbEntity
  8
0
  6
Continuous
 62
     7
370
     0
100
AcDbLine
 10
20.2604743903
 20
10.0
 30
0.0
 11
196.7604743903
 21
10.0
 31
0.0
  0
LINE
  5
47
330
1F
100
AcDbEntity
  8
0
  6
Continuous
 62
     7
370
     0
100
AcDbLine
 10
196.7604743903
 20
285.0
 30
0.0
 11
196.7604743903
 21
10.0
 31
0.0
  0
LINE
  5
48
330
1F
100
AcDbEntity
  8
0
  6
Continuous
 62
     7
370
     0
100
AcDbLine
 10
127.0104743903
 20
50.75
 30
0.0
 11
196.7604743903
 21
50.75
 31
0.0
  0
LINE
  5
49
330
1F
100
AcDbEntity
  8
0
  6
Continuous
 62
     7
370
     0
100
AcDbLine
 10
127.0104743903
 20
50.75
 30
0.0
 11
127.0104743903
 21
10.0
 31
0.0
  0
LINE
  5
4A
330
1F
100
AcDbEntity
  8
0
  6
Continuous
 62
     7
370
     0
100
AcDbLine
 10
127.0104743903
 20
22.75
 30
0.0
 11
196.7604743903
 21
22.75
 31
0.0
  0
LINE
  5
4B
330
1F
100
AcDbEntity
  8
0
  6
Continuous
 62
     7
370
     0
100
AcDbLine
 10
127.0104743903
 20
36.75
 30
0.0
 11
196.7604743903
 21
36.75
 31
0.0
  0
MTEXT
  5
4D
330
1F
100
AcDbEntity
  8
0
  6
Continuous
 62
     7
370
     0
100
AcDbMText
 10
163.124603245
 20
30.4171580599
 30
0.0
 40
4.2333333333
 41
0.0
 71
     2
 72
     1
  1
HSL
  7
SLDTEXTSTYLE0
 73
     1
 44
1.0
  0
MTEXT
  5
4E
330
1F
100
AcDbEntity
  8
0
  6
Continuous
 62
     7
370
     0
100
AcDbMText
 10
160.7993078678
 20
43.9409716768
 30
0.0
 40
4.2333333333
 41
0.0
 71
     2
 72
     1
  1
自動交換用ハンガー
  7
SLDTEXTSTYLE0
 73
     1
 44
1.0
  0
MTEXT
  5
4F
330
1F
100
AcDbEntity
  8
0
  6
Continuous
 62
     7
370
     0
100
AcDbMText
 10
162.5045506083
 20
16.8228187305
 30
0.0
 40
4.2333333333
 41
0.0
 71
     2
 72
     1
  1
072600
  7
SLDTEXTSTYLE0
 73
     1
 44
1.0
  0
LINE
  5
50
330
1F
100
AcDbEntity
  8
0
  6
Continuous
 62
     7
370
     0
100
AcDbLine
 10
96.4707782687
 20
134.7695450701
 30
0.0
 11
95.4707799674
 21
134.7695450701
 31
0.0
  0
LINE
  5
51
330
1F
100
AcDbEntity
  8
0
  6
Continuous
 62
     7
370
     0
100
AcDbLine
 10
95.4707799674
 20
134.2195450731
 30
0.0
 11
85.4707783283
 21
134.2195450731
 31
0.0
  0
LINE
  5
52
330
1F
100
AcDbEntity
  8
0
  6
Continuous
 62
     7
370
     0
100
AcDbLine
 10
85.4707783283
 20
131.3195444115
 30
0.0
 11
95.4707799674
 21
131.3195444115
 31
0.0
  0
ARC
  5
53
330
1F
100
AcDbEntity
  8
0
  6
Continuous
 62
     7
370
     0
100
AcDbCircle
 10
110.2707791032
 20
122.3695448406
 30
0.0
 40
0.2000000000000028
100
AcDbArc
 50
0.0
 51
90.0
  0
ARC
  5
54
330
1F
100
AcDbEntity
  8
0
  6
Continuous
 62
     7
370
     0
100
AcDbCircle
 10
110.2707791032
 20
120.0695448406
 30
0.0
 40
0.2000000000000028
100
AcDbArc
 50
270.0
 51
0.0
  0
LINE
  5
55
330
1F
100
AcDbEntity
  8
0
  6
Continuous
 62
     7
370
     0
100
AcDbLine
 10
110.2707809032
 20
122.5695453055
 30
0.0
 11
109.5707802297
 21
122.5695453055
 31
0.0
  0
LINE
  5
56
330
1F
100
AcDbEntity
  8
0
  6
Continuous
 62
     7
370
     0
100
AcDbLine
 10
109.5707802297
 20
119.8695447698
 30
0.0
 11
110.2707809032
 21
119.8695447698
 31
0.0
  0
ARC
  5
57
330
1F
100
AcDbEntity
  8
0
  6
Continuous
 62
     7
370
     0
100
AcDbCircle
 10
80.0707791032
 20
120.0695448406
 30
0.0
 40
0.2000000000000028
100
AcDbArc
 50
180.0
 51
270.0
  0
ARC
  5
58
330
1F
100
AcDbEntity
  8
0
  6
Continuous
 62
     7
370
     0
100
AcDbCircle
 10
80.0707791032
 20
122.3695448406
 30
0.0
 40
0.2000000000000028
100
AcDbArc
 50
90.0
 51
180.0
  0
LINE
  5
59
330
1F
100
AcDbEntity
  8
0
  6
Continuous
 62
     7
370
     0
100
AcDbLine
 10
80.0707791196
 20
119.8695447698
 30
0.0
 11
80.7707788618
 21
119.8695447698
 31
0.0
  0
LINE
  5
5A
330
1F
100
AcDbEntity
  8
0
  6
Continuous
 62
     7
370
     0
100
AcDbLine
 10
80.7707788618
 20
122.5695453055
 30
0.0
 11
80.0707791196
 21
122.5695453055
 31
0.0
  0
SPLINE
  5
5B
330
1F
100
AcDbEntity
  8
0
  6
Continuous
 62
     7
370
     0
100
AcDbSpline
210
0.0
220
0.0
230
1.0
 70
     8
 71
     3
 72
    14
 73
    10
 74
     0
 42
0.00000001
 43
0.00000001
 12
1.0
 22
0.0
 32
0.0
 13
1.0
 23
0.0
 33
0.0
 40
0.0
 40
0.0
 40
0.0
 40
0.0
 40
0.2274140888966108
 40
0.4333084814968808
 40
0.6103742046774723
 40
0.7555650971001906
 40
0.8690101127332968
 40
0.9536210997884571
 40
0.9999999999999999
 40
0.9999999999999999
 40
0.9999999999999999
 40
0.9999999999999999
 10
64.7207283609895
 20
124.838286212842
 30
0.0
 10
64.75350294154953
 20
125.1086725140787
 30
0.0
 10
64.81595071601707
 20
125.6238590540811
 30
0.0
 10
64.91247769812917
 20
126.2398631161994
 30
0.0
 10
64.99346632306761
 20
126.6710020274255
 30
0.0
 10
65.0553677016684
 20
126.9370194493446
 30
0.0
 10
65.0940694068066
 20
127.0775702892059
 30
0.0
 10
65.11606143217415
 20
127.1405199065656
 30
0.0
 10
65.11557642962292
 20
127.1472413366993
 30
0.0
 10
65.11540470732133
 20
127.1496211581034
 30
0.0
  0
LWPOLYLINE
  5
5C
330
1F
100
AcDbEntity
  8
0
  6
Continuous
 62
     7
370
     0
100
AcDbPolyline
 90
       27
 70
   128
 43
0.0
 10
65.0091466223
 20
126.7289194681
 10
65.0773960361
 20
126.3505789854
 10
65.1593242501
 20
125.8142796747
 10
65.237918795
 20
125.2597366862
 10
65.3070748513
 20
124.7421159811
 10
65.3652128958
 20
124.2853115715
 10
65.4232976222
 20
123.807607352
 10
65.4818030735
 20
123.3031192266
 10
65.5485804155
 20
122.7668608941
 10
65.6232125321
 20
122.2450687952
 10
65.6952233249
 20
121.8098189153
 10
65.761423014
 20
121.4667122282
 10
65.8202529149
 20
121.2094571844
 10
65.8879405083
 20
120.9775196791
 10
66.0152335613
 20
120.7414089173
 10
66.2739078244
 20
120.6205581717
 10
66.4963350128
 20
120.7387620986
 10
66.6198079553
 20
120.9522081941
 10
66.6931342994
 20
121.1793763965
 10
66.7523667062
 20
121.4362402849
 10
66.8265303093
 20
121.8649443641
 10
66.9309864598
 20
122.5659243234
 10
66.9968013963
 20
123.0406073324
 10
67.0696243315
 20
123.5930678837
 10
67.1459137366
 20
124.2034762569
 10
67.2207284506
 20
124.8382862128
 10
67.2207284506
 20
124.8382862128
  0
SPLINE
  5
5D
330
1F
100
AcDbEntity
  8
0
  6
Continuous
 62
     7
370
     0
100
AcDbSpline
210
0.0
220
0.0
230
1.0
 70
     8
 71
     3
 72
    19
 73
    15
 74
     0
 42
0.00000001
 43
0.00000001
 12
1.0
 22
0.0
 32
0.0
 13
1.0
 23
0.0
 33
0.0
 40
0.0
 40
0.0
 40
0.0
 40
0.0
 40
0.0288181197093991
 40
0.1284231840348896
 40
0.2228193072702949
 40
0.304501959400004
 40
0.3743733441629877
 40
0.4426095675310347
 40
0.5354180472269595
 40
0.6599848881585064
 40
0.7351398212919367
 40
0.8179166419145618
 40
0.9068881495857671
 40
1.0
 40
1.0
 40
1.0
 40
1.0
 10
63.47077891317884
 20
120.8238658897681
 30
0.0
 10
63.48431369163801
 20
120.7950971297453
 30
0.0
 10
63.54462919322035
 20
120.6668939089898
 30
0.0
 10
63.78195132379582
 20
120.5770880242544
 30
0.0
 10
64.00231024067975
 20
120.7116317042712
 30
0.0
 10
64.12047307844189
 20
120.9333657033783
 30
0.0
 10
64.1944166010055
 20
121.1724246544897
 30
0.0
 10
64.26013344736509
 20
121.4573784409474
 30
0.0
 10
64.33377337166644
 20
121.900555198079
 30
0.0
 10
64.41617523674859
 20
122.455371150027
 30
0.0
 10
64.49899671236179
 20
123.0523858519734
 30
0.0
 10
64.5716533444332
 20
123.6040623643163
 30
0.0
 10
64.64822576863268
 20
124.2147611018279
 30
0.0
 10
64.69619722699564
 20
124.6273175074536
 30
0.0
 10
64.7207283609895
 20
124.838286212842
 30
0.0
  0
SPLINE
  5
5E
330
1F
100
AcDbEntity
  8
0
  6
Continuous
 62
     7
370
     0
100
AcDbSpline
210
0.0
220
0.0
230
1.0
 70
     8
 71
     3
 72
    15
 73
    11
 74
     0
 42
0.00000001
 43
0.00000001
 12
1.0
 22
0.0
 32
0.0
 13
1.0
 23
0.0
 33
0.0
 40
0.0
 40
0.0
 40
0.0
 40
0.0
 40
0.1757272893480786
 40
0.3470377869209063
 40
0.507005940205273
 40
0.650977517477313
 40
0.7811909266283167
 40
0.8985352361416075
 40
0.9993604718478089
 40
1.0
 40
1.0
 40
1.0
 40
1.0
 10
66.72082944627608
 20
124.8405111424727
 30
0.0
 10
66.68535337425473
 20
124.5372236224594
 30
0.0
 10
66.61529289833994
 20
123.9382715181127
 30
0.0
 10
66.50162455664545
 20
123.0669954781782
 30
0.0
 10
66.39595192707475
 20
122.3292361952065
 30
0.0
 10
66.31060664368036
 20
121.7604701361152
 30
0.0
 10
66.23104263256567
 20
121.3650010697887
 30
0.0
 10
66.17824931366837
 20
121.153450561934
 30
0.0
 10
66.12723121812577
 20
121.084856236684
 30
0.0
 10
66.14859086849737
 20
121.0929683803147
 30
0.0
 10
66.14872549747805
 20
121.0930195108159
 30
0.0
  0
LWPOLYLINE
  5
5F
330
1F
100
AcDbEntity
  8
0
  6
Continuous
 62
     7
370
     0
100
AcDbPolyline
 90
       33
 70
   128
 43
0.0
 10
66.2594745363
 20
121.5201813199
 10
66.2350285993
 20
121.6262449913
 10
66.1406200807
 20
122.1486135788
 10
66.0586980366
 20
122.6981590904
 10
65.9930728571
 20
123.209764383
 10
65.9413864333
 20
123.6546152674
 10
65.8851089384
 20
124.1242030107
 10
65.818479211
 20
124.6549618833
 10
65.7430160054
 20
125.2264251404
 10
65.664842884
 20
125.785925559
 10
65.5951342042
 20
126.2547403045
 10
65.5351051092
 20
126.6284511827
 10
65.4753173431
 20
126.9289861836
 10
65.4061752566
 20
127.1857117705
 10
65.3027178915
 20
127.4230081059
 10
65.1234490061
 20
127.5940603979
 10
64.9076205873
 20
127.599852293
 10
64.7232059119
 20
127.4269280426
 10
64.6466511962
 20
127.2578883387
 10
64.5701046297
 20
127.0075059898
 10
64.4887934168
 20
126.6505933769
 10
64.401263996
 20
126.1675191514
 10
64.309923836
 20
125.5558404543
 10
64.2208293275
 20
124.8405111425
 10
64.2208293275
 20
124.8405111425
 10
64.1124156964
 20
123.9313093416
 10
63.9992451025
 20
123.0622196041
 10
63.8945649107
 20
122.3248039775
 10
63.8074005683
 20
121.7651252106
 10
63.7319666994
 20
121.3795925893
 10
63.6705944044
 20
121.1619592674
 10
63.6483234548
 20
121.0928677052
 10
63.6487255534
 20
121.0930195108
  0
SPLINE
  5
60
330
1F
100
AcDbEntity
  8
0
  6
Continuous
 62
     7
370
     0
100
AcDbSpline
210
0.0
220
0.0
230
1.0
 70
     8
 71
     3
 72
    12
 73
     8
 74
     0
 42
0.00000001
 43
0.00000001
 12
1.0
 22
0.0
 32
0.0
 13
1.0
 23
0.0
 33
0.0
 40
0.0
 40
0.0
 40
0.0
 40
0.0
 40
0.0888482523315948
 40
0.4053465688528177
 40
0.6828810159765987
 40
0.9166745330398196
 40
1.0
 40
1.0
 40
1.0
 40
1.0
 10
63.75947447580973
 20
121.5201813198728
 30
0.0
 10
63.75141073051537
 20
121.5541603534726
 30
0.0
 10
63.71462203291696
 20
121.7091806754389
 30
0.0
 10
63.64371767884643
 20
122.1150391552029
 30
0.0
 10
63.56241739599808
 20
122.6581816390184
 30
0.0
 10
63.5062925025733
 20
123.0928613743928
 30
0.0
 10
63.47816866826836
 20
123.3373894133344
 30
0.0
 10
63.47077891317884
 20
123.4016410477562
 30
0.0
  0
SPLINE
  5
61
330
1F
100
AcDbEntity
  8
0
  6
Continuous
 62
     7
370
     0
100
AcDbSpline
210
0.0
220
0.0
230
1.0
 70
     8
 71
     3
 72
    15
 73
    11
 74
     0
 42
0.00000001
 43
0.00000001
 12
1.0
 22
0.0
 32
0.0
 13
1.0
 23
0.0
 33
0.0
 40
0.0
 40
0.0
 40
0.0
 40
0.0
 40
0.0365861870519463
 40
0.1848724648775522
 40
0.2795878977618374
 40
0.3917766568123859
 40
0.5218475379121572
 40
0.668731401633565
 40
0.8296601592936732
 40
1.0
 40
1.0
 40
1.0
 40
1.0
 10
67.47077910316865
 20
127.5981572859092
 30
0.0
 10
67.44923882409198
 20
127.6001645499134
 30
0.0
 10
67.3403943445784
 20
127.6103073899855
 30
0.0
 10
67.23225733363215
 20
127.4585677960572
 30
0.0
 10
67.14068078459579
 20
127.2557265915048
 30
0.0
 10
67.06518998155777
 20
127.0025360655409
 30
0.0
 10
66.98481736708828
 20
126.6467359980963
 30
0.0
 10
66.897987202817
 20
126.16383092205
 30
0.0
 10
66.80652584806933
 20
125.556013454007
 30
0.0
 10
66.74993085345646
 20
125.0834866195142
 30
0.0
 10
66.72082944627608
 20
124.8405111424727
 30
0.0
  0
SPLINE
  5
62
330
1F
100
AcDbEntity
  8
0
  6
Continuous
 62
     7
370
     0
100
AcDbSpline
210
0.0
220
0.0
230
1.0
 70
     8
 71
     3
 72
    10
 73
     6
 74
     0
 42
0.00000001
 43
0.00000001
 12
1.0
 22
0.0
 32
0.0
 13
1.0
 23
0.0
 33
0.0
 40
0.0
 40
0.0
 40
0.0
 40
0.0
 40
0.4117473223860014
 40
0.7845318984752699
 40
1.0
 40
1.0
 40
1.0
 40
1.0
 10
67.2207284506293
 20
124.838286212842
 30
0.0
 10
67.25345087812293
 20
125.1075031872779
 30
0.0
 10
67.31579928154554
 20
125.6204617241593
 30
0.0
 10
67.40374145342838
 20
126.1912641020878
 30
0.0
 10
67.45280709660227
 20
126.4437294315673
 30
0.0
 10
67.47077910316865
 20
126.5362036816878
 30
0.0
  0
LINE
  5
63
330
1F
100
AcDbEntity
  8
0
  6
Continuous
 62
     7
370
     0
100
AcDbLine
 10
102.3707775594
 20
135.219545237
 30
0.0
 11
102.3707775594
 21
135.5195447274
 31
0.0
  0
LINE
  5
64
330
1F
100
AcDbEntity
  8
0
  6
Continuous
 62
     7
370
     0
100
AcDbLine
 10
102.3707775594
 20
135.5195447274
 30
0.0
 11
115.4707795204
 21
135.5195447274
 31
0.0
  0
LINE
  5
65
330
1F
100
AcDbEntity
  8
0
  6
Continuous
 62
     7
370
     0
100
AcDbLine
 10
96.4707782687
 20
135.5195447274
 30
0.0
 11
97.0707791121
 21
135.5195447274
 31
0.0
  0
LINE
  5
66
330
1F
100
AcDbEntity
  8
0
  6
Continuous
 62
     7
370
     0
100
AcDbLine
 10
97.0707791121
 20
135.219545237
 30
0.0
 11
97.0707791121
 21
135.5195447274
 31
0.0
  0
LINE
  5
67
330
1F
100
AcDbEntity
  8
0
  6
Continuous
 62
     7
370
     0
100
AcDbLine
 10
97.0707791121
 20
135.219545237
 30
0.0
 11
102.3707775594
 21
135.219545237
 31
0.0
  0
LINE
  5
68
330
1F
100
AcDbEntity
  8
0
  6
Continuous
 62
     7
370
     0
100
AcDbLine
 10
115.4707795204
 20
135.5195447274
 30
0.0
 11
115.4707795204
 21
130.0195447572
 31
0.0
  0
LINE
  5
69
330
1F
100
AcDbEntity
  8
0
  6
Continuous
 62
     7
370
     0
100
AcDbLine
 10
96.4707782687
 20
135.5195447274
 30
0.0
 11
96.4707782687
 21
130.0195447572
 31
0.0
  0
LINE
  5
6A
330
1F
100
AcDbEntity
  8
0
  6
Continuous
 62
     7
370
     0
100
AcDbLine
 10
110.3707788707
 20
130.0195447572
 30
0.0
 11
115.4707795204
 21
130.0195447572
 31
0.0
  0
LINE
  5
6B
330
1F
100
AcDbEntity
  8
0
  6
Continuous
 62
     7
370
     0
100
AcDbLine
 10
95.4707799674
 20
130.0195447572
 30
0.0
 11
95.4707799674
 21
132.7695447423
 31
0.0
  0
LINE
  5
6C
330
1F
100
AcDbEntity
  8
0
  6
Continuous
 62
     7
370
     0
100
AcDbLine
 10
95.4707799674
 20
132.7695447423
 30
0.0
 11
96.4707782687
 21
132.7695447423
 31
0.0
  0
LINE
  5
6D
330
1F
100
AcDbEntity
  8
0
  6
Continuous
 62
     7
370
     0
100
AcDbLine
 10
95.4707799674
 20
132.7695447423
 30
0.0
 11
95.4707799674
 21
134.7695450701
 31
0.0
  0
LINE
  5
6E
330
1F
100
AcDbEntity
  8
0
  6
Continuous
 62
     7
370
     0
100
AcDbLine
 10
85.4707783283
 20
131.3195444115
 30
0.0
 11
85.4707783283
 21
134.2195450731
 31
0.0
  0
LINE
  5
6F
330
1F
100
AcDbEntity
  8
0
  6
Continuous
 62
     7
370
     0
100
AcDbLine
 10
95.3707782747
 20
129.6195445053
 30
0.0
 11
95.3707782747
 21
130.0195447572
 31
0.0
  0
LINE
  5
70
330
1F
100
AcDbEntity
  8
0
  6
Continuous
 62
     7
370
     0
100
AcDbLine
 10
96.3707784386
 20
129.6195445053
 30
0.0
 11
96.3707784386
 21
130.0195447572
 31
0.0
  0
LINE
  5
71
330
1F
100
AcDbEntity
  8
0
  6
Continuous
 62
     7
370
     0
100
AcDbLine
 10
96.3707784386
 20
130.0195447572
 30
0.0
 11
95.3707782747
 21
130.0195447572
 31
0.0
  0
LINE
  5
72
330
1F
100
AcDbEntity
  8
0
  6
Continuous
 62
     7
370
     0
100
AcDbLine
 10
90.3867664011
 20
129.4198642887
 30
0.0
 11
90.3707793177
 21
129.8195450969
 31
0.0
  0
LINE
  5
73
330
1F
100
AcDbEntity
  8
0
  6
Continuous
 62
     7
370
     0
100
AcDbLine
 10
91.4207784654
 20
129.4612252556
 30
0.0
 11
90.3867664011
 21
129.4198642887
 31
0.0
  0
LINE
  5
74
330
1F
100
AcDbEntity
  8
0
  6
Continuous
 62
     7
370
     0
100
AcDbLine
 10
90.3707793177
 20
129.8195450969
 30
0.0
 11
95.3707782747
 21
130.0195447572
 31
0.0
  0
LINE
  5
75
330
1F
100
AcDbEntity
  8
0
  6
Continuous
 62
     7
370
     0
100
AcDbLine
 10
106.8707792283
 20
130.7195454307
 30
0.0
 11
106.8707792283
 21
129.6195445053
 31
0.0
  0
LINE
  5
76
330
1F
100
AcDbEntity
  8
0
  6
Continuous
 62
     7
370
     0
100
AcDbLine
 10
108.8707795562
 20
130.7195454307
 30
0.0
 11
108.8707795562
 21
129.6195445053
 31
0.0
  0
LINE
  5
77
330
1F
100
AcDbEntity
  8
0
  6
Continuous
 62
     7
370
     0
100
AcDbLine
 10
108.8707795562
 20
130.7195454307
 30
0.0
 11
106.8707792283
 21
130.7195454307
 31
0.0
  0
LINE
  5
78
330
1F
100
AcDbEntity
  8
0
  6
Continuous
 62
     7
370
     0
100
AcDbLine
 10
97.0707791121
 20
130.919545091
 30
0.0
 11
97.0707791121
 21
129.6195445053
 31
0.0
  0
LINE
  5
79
330
1F
100
AcDbEntity
  8
0
  6
Continuous
 62
     7
370
     0
100
AcDbLine
 10
99.0707775773
 20
130.919545091
 30
0.0
 11
97.0707791121
 21
130.919545091
 31
0.0
  0
LINE
  5
7A
330
1F
100
AcDbEntity
  8
0
  6
Continuous
 62
     7
370
     0
100
AcDbLine
 10
99.0707775773
 20
130.919545091
 30
0.0
 11
99.0707775773
 21
129.6195445053
 31
0.0
  0
LINE
  5
7B
330
1F
100
AcDbEntity
  8
0
  6
Continuous
 62
     7
370
     0
100
AcDbLine
 10
110.3707788707
 20
129.6195445053
 30
0.0
 11
110.3707788707
 21
130.0195447572
 31
0.0
  0
LINE
  5
7C
330
1F
100
AcDbEntity
  8
0
  6
Continuous
 62
     7
370
     0
100
AcDbLine
 10
110.3707788707
 20
130.0195447572
 30
0.0
 11
108.8707795562
 21
130.0195447572
 31
0.0
  0
LINE
  5
7D
330
1F
100
AcDbEntity
  8
0
  6
Continuous
 62
     7
370
     0
100
AcDbLine
 10
106.8707792283
 20
130.0195447572
 30
0.0
 11
99.0707775773
 21
130.0195447572
 31
0.0
  0
LINE
  5
7E
330
1F
100
AcDbEntity
  8
0
  6
Continuous
 62
     7
370
     0
100
AcDbLine
 10
97.0707791121
 20
130.0195447572
 30
0.0
 11
96.3707784386
 21
130.0195447572
 31
0.0
  0
LINE
  5
7F
330
1F
100
AcDbEntity
  8
0
  6
Continuous
 62
     7
370
     0
100
AcDbLine
 10
110.7707781912
 20
129.6195445053
 30
0.0
 11
110.7707781912
 21
130.0195447572
 31
0.0
  0
LINE
  5
80
330
1F
100
AcDbEntity
  8
0
  6
Continuous
 62
     7
370
     0
100
AcDbLine
 10
100.9207790912
 20
135.5195447274
 30
0.0
 11
100.9207790912
 21
135.9195440479
 31
0.0
  0
LINE
  5
81
330
1F
100
AcDbEntity
  8
0
  6
Continuous
 62
     7
370
     0
100
AcDbLine
 10
102.3707775594
 20
135.9195440479
 30
0.0
 11
102.3707775594
 21
135.5195447274
 31
0.0
  0
LINE
  5
82
330
1F
100
AcDbEntity
  8
0
  6
Continuous
 62
     7
370
     0
100
AcDbLine
 10
100.9207790912
 20
135.9195440479
 30
0.0
 11
102.3707775594
 21
135.9195440479
 31
0.0
  0
LINE
  5
83
330
1F
100
AcDbEntity
  8
0
  6
Continuous
 62
     7
370
     0
100
AcDbLine
 10
100.9207790912
 20
135.5195447274
 30
0.0
 11
102.3707775594
 21
135.5195447274
 31
0.0
  0
LINE
  5
84
330
1F
100
AcDbEntity
  8
0
  6
Continuous
 62
     7
370
     0
100
AcDbLine
 10
98.5207794429
 20
135.5195447274
 30
0.0
 11
98.5207794429
 21
135.9195440479
 31
0.0
  0
LINE
  5
85
330
1F
100
AcDbEntity
  8
0
  6
Continuous
 62
     7
370
     0
100
AcDbLine
 10
97.0707791121
 20
135.9195440479
 30
0.0
 11
97.0707791121
 21
135.5195447274
 31
0.0
  0
LINE
  5
86
330
1F
100
AcDbEntity
  8
0
  6
Continuous
 62
     7
370
     0
100
AcDbLine
 10
97.0707791121
 20
135.9195440479
 30
0.0
 11
98.5207794429
 21
135.9195440479
 31
0.0
  0
LINE
  5
87
330
1F
100
AcDbEntity
  8
0
  6
Continuous
 62
     7
370
     0
100
AcDbLine
 10
97.0707791121
 20
135.5195447274
 30
0.0
 11
98.5207794429
 21
135.5195447274
 31
0.0
  0
LINE
  5
88
330
1F
100
AcDbEntity
  8
0
  6
Continuous
 62
     7
370
     0
100
AcDbLine
 10
100.9207790912
 20
135.9195440479
 30
0.0
 11
98.5207794429
 21
135.9195440479
 31
0.0
  0
LINE
  5
89
330
1F
100
AcDbEntity
  8
0
  6
Continuous
 62
     7
370
     0
100
AcDbLine
 10
100.9207790912
 20
135.5195447274
 30
0.0
 11
98.5207794429
 21
135.5195447274
 31
0.0
  0
LINE
  5
8A
330
1F
100
AcDbEntity
  8
0
  6
Continuous
 62
     7
370
     0
100
AcDbLine
 10
105.0707785608
 20
123.1195527531
 30
0.0
 11
85.2707786681
 21
123.1195527531
 31
0.0
  0
LINE
  5
8B
330
1F
100
AcDbEntity
  8
0
  6
Continuous
 62
     7
370
     0
100
AcDbLine
 10
105.0707785608
 20
123.1195527531
 30
0.0
 11
105.0707785608
 21
121.0766072787
 31
0.0
  0
LINE
  5
8C
330
1F
100
AcDbEntity
  8
0
  6
Continuous
 62
     7
370
     0
100
AcDbLine
 10
85.2707786681
 20
121.0766072787
 30
0.0
 11
105.0707785608
 21
121.0766072787
 31
0.0
  0
LINE
  5
8D
330
1F
100
AcDbEntity
  8
0
  6
Continuous
 62
     7
370
     0
100
AcDbLine
 10
85.2707786681
 20
121.0766072787
 30
0.0
 11
85.2707786681
 21
123.1195527531
 31
0.0
  0
LINE
  5
8E
330
1F
100
AcDbEntity
  8
0
  6
Continuous
 62
     7
370
     0
100
AcDbLine
 10
105.0707785608
 20
120.3624607466
 30
0.0
 11
85.2707786681
 21
120.3624607466
 31
0.0
  0
LINE
  5
8F
330
1F
100
AcDbEntity
  8
0
  6
Continuous
 62
     7
370
     0
100
AcDbLine
 10
105.0707785608
 20
118.7195448607
 30
0.0
 11
105.0707785608
 21
120.3624607466
 31
0.0
  0
LINE
  5
90
330
1F
100
AcDbEntity
  8
0
  6
Continuous
 62
     7
370
     0
100
AcDbLine
 10
85.2707786681
 20
118.7195448607
 30
0.0
 11
105.0707785608
 21
118.7195448607
 31
0.0
  0
LINE
  5
91
330
1F
100
AcDbEntity
  8
0
  6
Continuous
 62
     7
370
     0
100
AcDbLine
 10
85.2707786681
 20
120.3624607466
 30
0.0
 11
85.2707786681
 21
118.7195448607
 31
0.0
  0
SPLINE
  5
92
330
1F
100
AcDbEntity
  8
0
  6
Continuous
 62
     7
370
     0
100
AcDbSpline
210
0.0
220
0.0
230
1.0
 70
    24
 71
     3
 72
    11
 73
     7
 74
     0
 42
0.00000001
 43
0.00000001
 12
1.0
 22
0.0
 32
0.0
 13
1.0
 23
0.0
 33
0.0
 40
0.0
 40
0.0
 40
0.0
 40
0.0
 40
0.2499998892671609
 40
0.4999999999999999
 40
0.7500001107328391
 40
0.9999999999999999
 40
0.9999999999999999
 40
0.9999999999999999
 40
0.9999999999999999
 10
105.0707785607664
 20
121.0766072787447
 30
0.0
 10
105.0707785607664
 20
121.0246519201092
 30
0.0
 10
105.0707785607664
 20
120.920741156813
 30
0.0
 10
105.0707785607664
 20
120.7195340126855
 30
0.0
 10
105.0707785607664
 20
120.5183268685581
 30
0.0
 10
105.0707785607664
 20
120.4144161052618
 30
0.0
 10
105.0707785607664
 20
120.3624607466264
 30
0.0
  0
SPLINE
  5
93
330
1F
100
AcDbEntity
  8
0
  6
Continuous
 62
     7
370
     0
100
AcDbSpline
210
0.0
220
0.0
230
1.0
 70
    24
 71
     3
 72
    11
 73
     7
 74
     0
 42
0.00000001
 43
0.00000001
 12
1.0
 22
0.0
 32
0.0
 13
1.0
 23
0.0
 33
0.0
 40
0.0
 40
0.0
 40
0.0
 40
0.0
 40
0.2499998892671609
 40
0.4999999999999999
 40
0.7500001107328391
 40
0.9999999999999999
 40
0.9999999999999999
 40
0.9999999999999999
 40
0.9999999999999999
 10
85.27077866805475
 20
120.3624607466264
 30
0.0
 10
85.27077866805475
 20
120.4144161052618
 30
0.0
 10
85.27077866805475
 20
120.5183268685581
 30
0.0
 10
85.27077866805475
 20
120.7195340126855
 30
0.0
 10
85.27077866805475
 20
120.920741156813
 30
0.0
 10
85.27077866805475
 20
121.0246519201092
 30
0.0
 10
85.27077866805475
 20
121.0766072787447
 30
0.0
  0
LINE
  5
94
330
1F
100
AcDbEntity
  8
0
  6
Continuous
 62
     7
370
     0
100
AcDbLine
 10
85.2707786681
 20
123.6195444532
 30
0.0
 11
85.2707786681
 21
123.1195527531
 31
0.0
  0
LINE
  5
95
330
1F
100
AcDbEntity
  8
0
  6
Continuous
 62
     7
370
     0
100
AcDbLine
 10
85.2707786681
 20
118.7195448607
 30
0.0
 11
85.2707786681
 21
118.6618107773
 31
0.0
  0
LINE
  5
96
330
1F
100
AcDbEntity
  8
0
  6
Continuous
 62
     7
370
     0
100
AcDbLine
 10
85.2707786681
 20
118.6195268698
 30
0.0
 11
85.2707786681
 21
117.8195447598
 31
0.0
  0
LINE
  5
97
330
1F
100
AcDbEntity
  8
0
  6
Continuous
 62
     7
370
     0
100
AcDbLine
 10
105.0707785608
 20
123.1195527531
 30
0.0
 11
105.0707785608
 21
123.6195444532
 31
0.0
  0
LINE
  5
98
330
1F
100
AcDbEntity
  8
0
  6
Continuous
 62
     7
370
     0
100
AcDbLine
 10
105.0707785608
 20
117.8195447598
 30
0.0
 11
105.0707785608
 21
118.6195268698
 31
0.0
  0
LINE
  5
99
330
1F
100
AcDbEntity
  8
0
  6
Continuous
 62
     7
370
     0
100
AcDbLine
 10
105.0707785608
 20
118.6618107773
 30
0.0
 11
105.0707785608
 21
118.7195448607
 31
0.0
  0
LINE
  5
9A
330
1F
100
AcDbEntity
  8
0
  6
Continuous
 62
     7
370
     0
100
AcDbLine
 10
85.2707786681
 20
118.6618107773
 30
0.0
 11
105.0707785608
 21
118.6618107773
 31
0.0
  0
LINE
  5
9B
330
1F
100
AcDbEntity
  8
0
  6
Continuous
 62
     7
370
     0
100
AcDbLine
 10
84.7707795174
 20
116.4262094705
 30
0.0
 11
84.7707795174
 21
116.4240106179
 31
0.0
  0
LINE
  5
9C
330
1F
100
AcDbEntity
  8
0
  6
Continuous
 62
     7
370
     0
100
AcDbLine
 10
84.7707795174
 20
116.4262094705
 30
0.0
 11
105.570779574
 21
116.4262094705
 31
0.0
  0
LINE
  5
9D
330
1F
100
AcDbEntity
  8
0
  6
Continuous
 62
     7
370
     0
100
AcDbLine
 10
105.570779574
 20
116.4240107343
 30
0.0
 11
105.570779574
 21
116.4262094705
 31
0.0
  0
LINE
  5
9E
330
1F
100
AcDbEntity
  8
0
  6
Continuous
 62
     7
370
     0
100
AcDbLine
 10
105.570779574
 20
116.0730868748
 30
0.0
 11
84.7707795174
 21
116.0730868748
 31
0.0
  0
LINE
  5
9F
330
1F
100
AcDbEntity
  8
0
  6
Continuous
 62
     7
370
     0
100
AcDbLine
 10
105.570779574
 20
116.0730868748
 30
0.0
 11
105.570779574
 21
116.4240107343
 31
0.0
  0
LINE
  5
A0
330
1F
100
AcDbEntity
  8
0
  6
Continuous
 62
     7
370
     0
100
AcDbLine
 10
84.7707795174
 20
116.4240106179
 30
0.0
 11
84.7707795174
 21
116.0730868748
 31
0.0
  0
LINE
  5
A1
330
1F
100
AcDbEntity
  8
0
  6
Continuous
 62
     7
370
     0
100
AcDbLine
 10
81.2707789437
 20
116.4266771108
 30
0.0
 11
84.7707795174
 21
116.4266771108
 31
0.0
  0
LINE
  5
A2
330
1F
100
AcDbEntity
  8
0
  6
Continuous
 62
     7
370
     0
100
AcDbLine
 10
81.2707789437
 20
116.0731238948
 30
0.0
 11
84.7707795174
 21
116.0731238948
 31
0.0
  0
SPLINE
  5
A3
330
1F
100
AcDbEntity
  8
0
  6
Continuous
 62
     7
370
     0
100
AcDbSpline
210
0.0
220
0.0
230
1.0
 70
    24
 71
     3
 72
    11
 73
     7
 74
     0
 42
0.00000001
 43
0.00000001
 12
1.0
 22
0.0
 32
0.0
 13
1.0
 23
0.0
 33
0.0
 40
0.0
 40
0.0
 40
0.0
 40
0.0
 40
0.2499999577188637
 40
0.499999931885804
 40
0.7499994877408626
 40
1.0
 40
1.0
 40
1.0
 40
1.0
 10
81.27077894372623
 20
116.4266771108014
 30
0.0
 10
81.27077894372623
 20
116.3939389151638
 30
0.0
 10
81.27077894372623
 20
116.3284625217346
 30
0.0
 10
81.27077894372623
 20
116.2342649249342
 30
0.0
 10
81.27077894372623
 20
116.1464909649407
 30
0.0
 10
81.27077894372623
 20
116.0975796160518
 30
0.0
 10
81.27077894372623
 20
116.0731238948284
 30
0.0
  0
LINE
  5
A4
330
1F
100
AcDbEntity
  8
0
  6
Continuous
 62
     7
370
     0
100
AcDbLine
 10
85.2707693548
 20
122.1195539862
 30
0.0
 11
81.2707789437
 21
122.1195539862
 31
0.0
  0
LINE
  5
A5
330
1F
100
AcDbEntity
  8
0
  6
Continuous
 62
     7
370
     0
100
AcDbLine
 10
85.2707693548
 20
118.6195450306
 30
0.0
 11
85.2707693548
 21
118.6617926166
 31
0.0
  0
LINE
  5
A6
330
1F
100
AcDbEntity
  8
0
  6
Continuous
 62
     7
370
     0
100
AcDbLine
 10
84.7707795174
 20
118.6195450306
 30
0.0
 11
85.2707693548
 21
118.6195450306
 31
0.0
  0
LINE
  5
A7
330
1F
100
AcDbEntity
  8
0
  6
Continuous
 62
     7
370
     0
100
AcDbLine
 10
84.7707795174
 20
118.6195450306
 30
0.0
 11
84.7707795174
 21
117.8195447598
 31
0.0
  0
LINE
  5
A8
330
1F
100
AcDbEntity
  8
0
  6
Continuous
 62
     7
370
     0
100
AcDbLine
 10
85.2707786681
 20
117.8195447598
 30
0.0
 11
84.7707795174
 21
117.8195447598
 31
0.0
  0
LINE
  5
A9
330
1F
100
AcDbEntity
  8
0
  6
Continuous
 62
     7
370
     0
100
AcDbLine
 10
105.570779574
 20
117.8195447598
 30
0.0
 11
105.0707785608
 21
117.8195447598
 31
0.0
  0
LINE
  5
AA
330
1F
100
AcDbEntity
  8
0
  6
Continuous
 62
     7
370
     0
100
AcDbLine
 10
105.570779574
 20
117.8195447598
 30
0.0
 11
105.570779574
 21
118.6195450306
 31
0.0
  0
LINE
  5
AB
330
1F
100
AcDbEntity
  8
0
  6
Continuous
 62
     7
370
     0
100
AcDbLine
 10
105.0707897366
 20
118.6195450306
 30
0.0
 11
105.570779574
 21
118.6195450306
 31
0.0
  0
LINE
  5
AC
330
1F
100
AcDbEntity
  8
0
  6
Continuous
 62
     7
370
     0
100
AcDbLine
 10
105.0707897366
 20
118.6617926166
 30
0.0
 11
105.0707897366
 21
118.6195450306
 31
0.0
  0
LINE
  5
AD
330
1F
100
AcDbEntity
  8
0
  6
Continuous
 62
     7
370
     0
100
AcDbLine
 10
109.0707792164
 20
122.1195539862
 30
0.0
 11
105.0707897366
 21
122.1195539862
 31
0.0
  0
LINE
  5
AE
330
1F
100
AcDbEntity
  8
0
  6
Continuous
 62
     7
370
     0
100
AcDbLine
 10
109.0707792164
 20
116.4266771108
 30
0.0
 11
109.0707792164
 21
122.1195539862
 31
0.0
  0
LINE
  5
AF
330
1F
100
AcDbEntity
  8
0
  6
Continuous
 62
     7
370
     0
100
AcDbLine
 10
105.570779574
 20
116.4266771108
 30
0.0
 11
109.0707792164
 21
116.4266771108
 31
0.0
  0
LINE
  5
B0
330
1F
100
AcDbEntity
  8
0
  6
Continuous
 62
     7
370
     0
100
AcDbLine
 10
81.2707789437
 20
122.1195539862
 30
0.0
 11
81.2707789437
 21
116.4266771108
 31
0.0
  0
LINE
  5
B1
330
1F
100
AcDbEntity
  8
0
  6
Continuous
 62
     7
370
     0
100
AcDbLine
 10
105.570779574
 20
116.0731238948
 30
0.0
 11
109.0707792164
 21
116.0731238948
 31
0.0
  0
SPLINE
  5
B2
330
1F
100
AcDbEntity
  8
0
  6
Continuous
 62
     7
370
     0
100
AcDbSpline
210
0.0
220
0.0
230
1.0
 70
    24
 71
     3
 72
    11
 73
     7
 74
     0
 42
0.00000001
 43
0.00000001
 12
1.0
 22
0.0
 32
0.0
 13
1.0
 23
0.0
 33
0.0
 40
0.0
 40
0.0
 40
0.0
 40
0.0
 40
0.2500005122591374
 40
0.5000000681141961
 40
0.7500000422811363
 40
1.0
 40
1.0
 40
1.0
 40
1.0
 10
109.0707792164175
 20
116.0731238948284
 30
0.0
 10
109.0707792164175
 20
116.0975796160518
 30
0.0
 10
109.0707792164175
 20
116.1464909649407
 30
0.0
 10
109.0707792164175
 20
116.2342649249342
 30
0.0
 10
109.0707792164175
 20
116.3284625217346
 30
0.0
 10
109.0707792164175
 20
116.3939389151638
 30
0.0
 10
109.0707792164175
 20
116.4266771108014
 30
0.0
  0
LINE
  5
B3
330
1F
100
AcDbEntity
  8
0
  6
Continuous
 62
     7
370
     0
100
AcDbLine
 10
81.2707789437
 20
123.1195536845
 30
0.0
 11
81.2707789437
 21
122.1195539862
 31
0.0
  0
LINE
  5
B4
330
1F
100
AcDbEntity
  8
0
  6
Continuous
 62
     7
370
     0
100
AcDbLine
 10
81.2707789437
 20
116.0731238948
 30
0.0
 11
81.2707789437
 21
115.1659983613
 31
0.0
  0
SPLINE
  5
B5
330
1F
100
AcDbEntity
  8
0
  6
Continuous
 62
     7
370
     0
100
AcDbSpline
210
0.0
220
0.0
230
1.0
 70
    24
 71
     3
 72
    11
 73
     7
 74
     0
 42
0.00000001
 43
0.00000001
 12
1.0
 22
0.0
 32
0.0
 13
1.0
 23
0.0
 33
0.0
 40
0.0
 40
0.0
 40
0.0
 40
0.0
 40
0.2499994888378125
 40
0.4999995918672333
 40
0.749998399721799
 40
1.0
 40
1.0
 40
1.0
 40
1.0
 10
81.27077894372623
 20
115.1659983612699
 30
0.0
 10
81.27077894372623
 20
115.1440716735691
 30
0.0
 10
81.27077894372623
 20
115.1002182442986
 30
0.0
 10
81.27077894372623
 20
115.0546827341243
 30
0.0
 10
81.27077894372623
 20
115.0248041973017
 30
0.0
 10
81.27077894372623
 20
115.0213025576975
 30
0.0
 10
81.27077894372623
 20
115.0195517281173
 30
0.0
  0
SPLINE
  5
B6
330
1F
100
AcDbEntity
  8
0
  6
Continuous
 62
     7
370
     0
100
AcDbSpline
210
0.0
220
0.0
230
1.0
 70
    24
 71
     3
 72
    11
 73
     7
 74
     0
 42
0.00000001
 43
0.00000001
 12
1.0
 22
0.0
 32
0.0
 13
1.0
 23
0.0
 33
0.0
 40
0.0
 40
0.0
 40
0.0
 40
0.0
 40
0.2500016002782009
 40
0.5000004081327666
 40
0.7500005111621874
 40
1.0
 40
1.0
 40
1.0
 40
1.0
 10
109.0707792164175
 20
115.0195517281173
 30
0.0
 10
109.0707792164175
 20
115.0213025576975
 30
0.0
 10
109.0707792164175
 20
115.0248041973017
 30
0.0
 10
109.0707792164175
 20
115.0546827341243
 30
0.0
 10
109.0707792164175
 20
115.1002182442986
 30
0.0
 10
109.0707792164175
 20
115.1440716735691
 30
0.0
 10
109.0707792164175
 20
115.1659983612699
 30
0.0
  0
LINE
  5
B7
330
1F
100
AcDbEntity
  8
0
  6
Continuous
 62
     7
370
     0
100
AcDbLine
 10
109.0707792164
 20
115.1659983613
 30
0.0
 11
109.0707792164
 21
116.0731238948
 31
0.0
  0
LINE
  5
B8
330
1F
100
AcDbEntity
  8
0
  6
Continuous
 62
     7
370
     0
100
AcDbLine
 10
109.0707792164
 20
122.1195539862
 30
0.0
 11
109.0707792164
 21
123.1195536845
 31
0.0
  0
LINE
  5
B9
330
1F
100
AcDbEntity
  8
0
  6
Continuous
 62
     7
370
     0
100
AcDbLine
 10
105.570779574
 20
114.5195448431
 30
0.0
 11
105.570779574
 21
116.0730868748
 31
0.0
  0
SPLINE
  5
BA
330
1F
100
AcDbEntity
  8
0
  6
Continuous
 62
     7
370
     0
100
AcDbSpline
210
0.0
220
0.0
230
1.0
 70
    24
 71
     3
 72
     9
 73
     5
 74
     0
 42
0.00000001
 43
0.00000001
 12
1.0
 22
0.0
 32
0.0
 13
1.0
 23
0.0
 33
0.0
 40
0.0
 40
0.0
 40
0.0
 40
0.0
 40
0.5000004666195975
 40
1.0
 40
1.0
 40
1.0
 40
1.0
 10
105.5707795740453
 20
116.4240107342703
 30
0.0
 10
105.5707795740453
 20
116.3582780776465
 30
0.0
 10
105.5707795740453
 20
116.2268128870873
 30
0.0
 10
105.5707795740453
 20
116.1243288469857
 30
0.0
 10
105.5707795740453
 20
116.073086874756
 30
0.0
  0
LINE
  5
BB
330
1F
100
AcDbEntity
  8
0
  6
Continuous
 62
     7
370
     0
100
AcDbLine
 10
84.7707795174
 20
116.0730868748
 30
0.0
 11
84.7707795174
 21
114.5195448431
 31
0.0
  0
SPLINE
  5
BC
330
1F
100
AcDbEntity
  8
0
  6
Continuous
 62
     7
370
     0
100
AcDbSpline
210
0.0
220
0.0
230
1.0
 70
    24
 71
     3
 72
     9
 73
     5
 74
     0
 42
0.00000001
 43
0.00000001
 12
1.0
 22
0.0
 32
0.0
 13
1.0
 23
0.0
 33
0.0
 40
0.0
 40
0.0
 40
0.0
 40
0.0
 40
0.5000003194479576
 40
1.0
 40
1.0
 40
1.0
 40
1.0
 10
84.77077951742093
 20
116.424010617855
 30
0.0
 10
84.77077951742093
 20
116.3582780025516
 30
0.0
 10
84.77077951742093
 20
116.2268128559374
 30
0.0
 10
84.77077951742093
 20
116.1243288466576
 30
0.0
 10
84.77077951742093
 20
116.073086874756
 30
0.0
  0
LINE
  5
BD
330
1F
100
AcDbEntity
  8
0
  6
Continuous
 62
     7
370
     0
100
AcDbLine
 10
85.2707693548
 20
123.1195536845
 30
0.0
 11
81.2707789437
 21
123.1195536845
 31
0.0
  0
LINE
  5
BE
330
1F
100
AcDbEntity
  8
0
  6
Continuous
 62
     7
370
     0
100
AcDbLine
 10
109.0707792164
 20
123.1195536845
 30
0.0
 11
105.0707897366
 21
123.1195536845
 31
0.0
  0
LINE
  5
BF
330
1F
100
AcDbEntity
  8
0
  6
Continuous
 62
     7
370
     0
100
AcDbLine
 10
105.570779574
 20
114.5195448431
 30
0.0
 11
84.7707795174
 21
114.5195448431
 31
0.0
  0
LINE
  5
C0
330
1F
100
AcDbEntity
  8
0
  6
Continuous
 62
     7
370
     0
100
AcDbLine
 10
81.2707789437
 20
115.1659983613
 30
0.0
 11
84.7707795174
 21
115.1659983613
 31
0.0
  0
LINE
  5
C1
330
1F
100
AcDbEntity
  8
0
  6
Continuous
 62
     7
370
     0
100
AcDbLine
 10
105.570779574
 20
115.1659983613
 30
0.0
 11
109.0707792164
 21
115.1659983613
 31
0.0
  0
LINE
  5
C2
330
1F
100
AcDbEntity
  8
0
  6
Continuous
 62
     7
370
     0
100
AcDbLine
 10
84.7707795174
 20
115.0195517281
 30
0.0
 11
81.2707789437
 21
115.0195517281
 31
0.0
  0
LINE
  5
C3
330
1F
100
AcDbEntity
  8
0
  6
Continuous
 62
     7
370
     0
100
AcDbLine
 10
109.0707792164
 20
115.0195517281
 30
0.0
 11
105.570779574
 21
115.0195517281
 31
0.0
  0
LINE
  5
C4
330
1F
100
AcDbEntity
  8
0
  6
Continuous
 62
     7
370
     0
100
AcDbLine
 10
109.0707903923
 20
116.4266495204
 30
0.0
 11
109.0707903923
 21
122.119544673
 31
0.0
  0
LINE
  5
C5
330
1F
100
AcDbEntity
  8
0
  6
Continuous
 62
     7
370
     0
100
AcDbLine
 10
109.0707903923
 20
122.119544673
 30
0.0
 11
109.5707802297
 21
122.119544673
 31
0.0
  0
LINE
  5
C6
330
1F
100
AcDbEntity
  8
0
  6
Continuous
 62
     7
370
     0
100
AcDbLine
 10
109.5707802297
 20
119.4695449837
 30
0.0
 11
109.5707802297
 21
122.119544673
 31
0.0
  0
LINE
  5
C7
330
1F
100
AcDbEntity
  8
0
  6
Continuous
 62
     7
370
     0
100
AcDbLine
 10
109.5707802297
 20
119.4695449837
 30
0.0
 11
110.570778531
 21
119.4695449837
 31
0.0
  0
LINE
  5
C8
330
1F
100
AcDbEntity
  8
0
  6
Continuous
 62
     7
370
     0
100
AcDbLine
 10
110.570778531
 20
116.4266495204
 30
0.0
 11
110.570778531
 21
119.4695449837
 31
0.0
  0
LINE
  5
C9
330
1F
100
AcDbEntity
  8
0
  6
Continuous
 62
     7
370
     0
100
AcDbLine
 10
109.0707903923
 20
116.4266495204
 30
0.0
 11
110.570778531
 21
116.4266495204
 31
0.0
  0
LINE
  5
CA
330
1F
100
AcDbEntity
  8
0
  6
Continuous
 62
     7
370
     0
100
AcDbLine
 10
109.0707903923
 20
123.1195453026
 30
0.0
 11
109.5707802297
 21
123.1195453026
 31
0.0
  0
LINE
  5
CB
330
1F
100
AcDbEntity
  8
0
  6
Continuous
 62
     7
370
     0
100
AcDbLine
 10
109.5707802297
 20
122.119544673
 30
0.0
 11
109.5707802297
 21
123.1195453026
 31
0.0
  0
LINE
  5
CC
330
1F
100
AcDbEntity
  8
0
  6
Continuous
 62
     7
370
     0
100
AcDbLine
 10
109.0707903923
 20
122.119544673
 30
0.0
 11
109.0707903923
 21
123.1195453026
 31
0.0
  0
LINE
  5
CD
330
1F
100
AcDbEntity
  8
0
  6
Continuous
 62
     7
370
     0
100
AcDbLine
 10
110.570778531
 20
116.073096188
 30
0.0
 11
109.0707903923
 21
116.073096188
 31
0.0
  0
LINE
  5
CE
330
1F
100
AcDbEntity
  8
0
  6
Continuous
 62
     7
370
     0
100
AcDbLine
 10
110.570778531
 20
116.073096188
 30
0.0
 11
110.570778531
 21
116.4266495204
 31
0.0
  0
LINE
  5
CF
330
1F
100
AcDbEntity
  8
0
  6
Continuous
 62
     7
370
     0
100
AcDbLine
 10
109.0707903923
 20
116.4266495204
 30
0.0
 11
109.0707903923
 21
116.073096188
 31
0.0
  0
LINE
  5
D0
330
1F
100
AcDbEntity
  8
0
  6
Continuous
 62
     7
370
     0
100
AcDbLine
 10
109.0707903923
 20
114.7659915465
 30
0.0
 11
110.570778531
 21
114.7659915465
 31
0.0
  0
LINE
  5
D1
330
1F
100
AcDbEntity
  8
0
  6
Continuous
 62
     7
370
     0
100
AcDbLine
 10
110.570778531
 20
114.7659915465
 30
0.0
 11
110.570778531
 21
116.073096188
 31
0.0
  0
LINE
  5
D2
330
1F
100
AcDbEntity
  8
0
  6
Continuous
 62
     7
370
     0
100
AcDbLine
 10
109.0707903923
 20
114.7659915465
 30
0.0
 11
109.0707903923
 21
116.073096188
 31
0.0
  0
SPLINE
  5
D3
330
1F
100
AcDbEntity
  8
0
  6
Continuous
 62
     7
370
     0
100
AcDbSpline
210
0.0
220
0.0
230
1.0
 70
    24
 71
     3
 72
    19
 73
    15
 74
     0
 42
0.00000001
 43
0.00000001
 12
1.0
 22
0.0
 32
0.0
 13
1.0
 23
0.0
 33
0.0
 40
0.0
 40
0.0
 40
0.0
 40
0.0
 40
0.1197215653280972
 40
0.184935326429725
 40
0.2500001143373728
 40
0.3152137370364037
 40
0.3802785263720025
 40
0.4999999888628667
 40
0.6197214513537309
 40
0.6849351529336642
 40
0.750000022637273
 40
0.8152136453363039
 40
0.8802784346719027
 40
0.9999999999999999
 40
0.9999999999999999
 40
0.9999999999999999
 40
0.9999999999999999
 10
110.4707805634824
 20
120.0695448957486
 30
0.0
 10
110.4707805634824
 20
120.0849918225428
 30
0.0
 10
110.4707805634824
 20
120.1088528741519
 30
0.0
 10
110.4707805634824
 20
120.2520789493046
 30
0.0
 10
110.4707805634824
 20
120.4007697590099
 30
0.0
 10
110.4707805634825
 20
120.5837061710513
 30
0.0
 10
110.4707805634825
 20
120.8517165754739
 30
0.0
 10
110.4707805634824
 20
121.2195457398801
 30
0.0
 10
110.4707805634824
 20
121.5875500236206
 30
0.0
 10
110.4707805634824
 20
121.855541377865
 30
0.0
 10
110.4707805634824
 20
122.0385713560174
 30
0.0
 10
110.4707805634825
 20
122.1871088763048
 30
0.0
 10
110.4707805634824
 20
122.3302612447133
 30
0.0
 10
110.4707805634824
 20
122.3540998663157
 30
0.0
 10
110.4707805634824
 20
122.3695447139544
 30
0.0
  0
LINE
  5
D4
330
1F
100
AcDbEntity
  8
0
  6
Continuous
 62
     7
370
     0
100
AcDbLine
 10
110.570778531
 20
114.6195449406
 30
0.0
 11
109.0707903923
 21
114.6195449406
 31
0.0
  0
LINE
  5
D5
330
1F
100
AcDbEntity
  8
0
  6
Continuous
 62
     7
370
     0
100
AcDbLine
 10
110.570778531
 20
114.6195449406
 30
0.0
 11
110.570778531
 21
114.7659915465
 31
0.0
  0
LINE
  5
D6
330
1F
100
AcDbEntity
  8
0
  6
Continuous
 62
     7
370
     0
100
AcDbLine
 10
109.0707903923
 20
114.7659915465
 30
0.0
 11
109.0707903923
 21
114.6195449406
 31
0.0
  0
LINE
  5
D7
330
1F
100
AcDbEntity
  8
0
  6
Continuous
 62
     7
370
     0
100
AcDbLine
 10
110.570778531
 20
119.4695449837
 30
0.0
 11
110.570778531
 21
121.2195448049
 31
0.0
  0
LINE
  5
D8
330
1F
100
AcDbEntity
  8
0
  6
Continuous
 62
     7
370
     0
100
AcDbLine
 10
109.5707802297
 20
123.1195453026
 30
0.0
 11
110.570778531
 21
123.1195453026
 31
0.0
  0
LINE
  5
D9
330
1F
100
AcDbEntity
  8
0
  6
Continuous
 62
     7
370
     0
100
AcDbLine
 10
110.570778531
 20
121.2195448049
 30
0.0
 11
110.570778531
 21
123.1195453026
 31
0.0
  0
LINE
  5
DA
330
1F
100
AcDbEntity
  8
0
  6
Continuous
 62
     7
370
     0
100
AcDbLine
 10
81.2707686992
 20
122.119544673
 30
0.0
 11
81.2707686992
 21
116.4266495204
 31
0.0
  0
LINE
  5
DB
330
1F
100
AcDbEntity
  8
0
  6
Continuous
 62
     7
370
     0
100
AcDbLine
 10
79.7707786979
 20
116.4266495204
 30
0.0
 11
81.2707686992
 21
116.4266495204
 31
0.0
  0
LINE
  5
DC
330
1F
100
AcDbEntity
  8
0
  6
Continuous
 62
     7
370
     0
100
AcDbLine
 10
79.7707786979
 20
119.4695449837
 30
0.0
 11
79.7707786979
 21
116.4266495204
 31
0.0
  0
LINE
  5
DD
330
1F
100
AcDbEntity
  8
0
  6
Continuous
 62
     7
370
     0
100
AcDbLine
 10
79.7707786979
 20
119.4695449837
 30
0.0
 11
80.7707788618
 21
119.4695449837
 31
0.0
  0
LINE
  5
DE
330
1F
100
AcDbEntity
  8
0
  6
Continuous
 62
     7
370
     0
100
AcDbLine
 10
80.7707788618
 20
122.119544673
 30
0.0
 11
80.7707788618
 21
119.4695449837
 31
0.0
  0
LINE
  5
DF
330
1F
100
AcDbEntity
  8
0
  6
Continuous
 62
     7
370
     0
100
AcDbLine
 10
81.2707686992
 20
122.119544673
 30
0.0
 11
80.7707788618
 21
122.119544673
 31
0.0
  0
LINE
  5
E0
330
1F
100
AcDbEntity
  8
0
  6
Continuous
 62
     7
370
     0
100
AcDbLine
 10
81.2707686992
 20
123.1195453026
 30
0.0
 11
80.7707788618
 21
123.1195453026
 31
0.0
  0
LINE
  5
E1
330
1F
100
AcDbEntity
  8
0
  6
Continuous
 62
     7
370
     0
100
AcDbLine
 10
81.2707686992
 20
123.1195453026
 30
0.0
 11
81.2707686992
 21
122.119544673
 31
0.0
  0
LINE
  5
E2
330
1F
100
AcDbEntity
  8
0
  6
Continuous
 62
     7
370
     0
100
AcDbLine
 10
80.7707788618
 20
123.1195453026
 30
0.0
 11
80.7707788618
 21
122.119544673
 31
0.0
  0
LINE
  5
E3
330
1F
100
AcDbEntity
  8
0
  6
Continuous
 62
     7
370
     0
100
AcDbLine
 10
81.2707686992
 20
116.073096188
 30
0.0
 11
79.7707786979
 21
116.073096188
 31
0.0
  0
LINE
  5
E4
330
1F
100
AcDbEntity
  8
0
  6
Continuous
 62
     7
370
     0
100
AcDbLine
 10
79.7707786979
 20
116.4266495204
 30
0.0
 11
79.7707786979
 21
116.073096188
 31
0.0
  0
LINE
  5
E5
330
1F
100
AcDbEntity
  8
0
  6
Continuous
 62
     7
370
     0
100
AcDbLine
 10
81.2707686992
 20
116.073096188
 30
0.0
 11
81.2707686992
 21
116.4266495204
 31
0.0
  0
LINE
  5
E6
330
1F
100
AcDbEntity
  8
0
  6
Continuous
 62
     7
370
     0
100
AcDbLine
 10
79.7707786979
 20
114.7659915465
 30
0.0
 11
81.2707686992
 21
114.7659915465
 31
0.0
  0
LINE
  5
E7
330
1F
100
AcDbEntity
  8
0
  6
Continuous
 62
     7
370
     0
100
AcDbLine
 10
79.7707786979
 20
116.073096188
 30
0.0
 11
79.7707786979
 21
114.7659915465
 31
0.0
  0
LINE
  5
E8
330
1F
100
AcDbEntity
  8
0
  6
Continuous
 62
     7
370
     0
100
AcDbLine
 10
81.2707686992
 20
116.073096188
 30
0.0
 11
81.2707686992
 21
114.7659915465
 31
0.0
  0
SPLINE
  5
E9
330
1F
100
AcDbEntity
  8
0
  6
Continuous
 62
     7
370
     0
100
AcDbSpline
210
0.0
220
0.0
230
1.0
 70
    24
 71
     3
 72
    19
 73
    15
 74
     0
 42
0.00000001
 43
0.00000001
 12
1.0
 22
0.0
 32
0.0
 13
1.0
 23
0.0
 33
0.0
 40
0.0
 40
0.0
 40
0.0
 40
0.0
 40
0.1197215653280972
 40
0.184935326429725
 40
0.2500001143373728
 40
0.3152137370364037
 40
0.3802785263720025
 40
0.4999999888628667
 40
0.6197214513537309
 40
0.6849351529336642
 40
0.750000022637273
 40
0.8152136453363039
 40
0.8802784346719027
 40
0.9999999999999999
 40
0.9999999999999999
 40
0.9999999999999999
 40
0.9999999999999999
 10
79.8707794593064
 20
122.3695447139544
 30
0.0
 10
79.8707794593064
 20
122.3540977871602
 30
0.0
 10
79.8707794593064
 20
122.3302367355511
 30
0.0
 10
79.8707794593064
 20
122.1870106603984
 30
0.0
 10
79.8707794593064
 20
122.0383198506931
 30
0.0
 10
79.8707794593064
 20
121.8553834386517
 30
0.0
 10
79.8707794593064
 20
121.5873730342291
 30
0.0
 10
79.8707794593064
 20
121.2195438698229
 30
0.0
 10
79.8707794593064
 20
120.8515395860824
 30
0.0
 10
79.8707794593064
 20
120.583548231838
 30
0.0
 10
79.8707794593064
 20
120.4005182536856
 30
0.0
 10
79.8707794593064
 20
120.2519807333982
 30
0.0
 10
79.8707794593064
 20
120.1088283649897
 30
0.0
 10
79.8707794593064
 20
120.0849897433873
 30
0.0
 10
79.8707794593064
 20
120.0695448957486
 30
0.0
  0
LINE
  5
EA
330
1F
100
AcDbEntity
  8
0
  6
Continuous
 62
     7
370
     0
100
AcDbLine
 10
81.2707686992
 20
114.6195449406
 30
0.0
 11
79.7707786979
 21
114.6195449406
 31
0.0
  0
LINE
  5
EB
330
1F
100
AcDbEntity
  8
0
  6
Continuous
 62
     7
370
     0
100
AcDbLine
 10
79.7707786979
 20
114.7659915465
 30
0.0
 11
79.7707786979
 21
114.6195449406
 31
0.0
  0
LINE
  5
EC
330
1F
100
AcDbEntity
  8
0
  6
Continuous
 62
     7
370
     0
100
AcDbLine
 10
81.2707686992
 20
114.6195449406
 30
0.0
 11
81.2707686992
 21
114.7659915465
 31
0.0
  0
LINE
  5
ED
330
1F
100
AcDbEntity
  8
0
  6
Continuous
 62
     7
370
     0
100
AcDbLine
 10
79.7707786979
 20
121.2195448049
 30
0.0
 11
79.7707786979
 21
119.4695449837
 31
0.0
  0
LINE
  5
EE
330
1F
100
AcDbEntity
  8
0
  6
Continuous
 62
     7
370
     0
100
AcDbLine
 10
79.7707786979
 20
123.1195453026
 30
0.0
 11
80.7707788618
 21
123.1195453026
 31
0.0
  0
LINE
  5
EF
330
1F
100
AcDbEntity
  8
0
  6
Continuous
 62
     7
370
     0
100
AcDbLine
 10
79.7707786979
 20
123.1195453026
 30
0.0
 11
79.7707786979
 21
121.2195448049
 31
0.0
  0
LINE
  5
F0
330
1F
100
AcDbEntity
  8
0
  6
Continuous
 62
     7
370
     0
100
AcDbLine
 10
73.4707791553
 20
113.9195448656
 30
0.0
 11
73.4707791553
 21
114.6195448406
 31
0.0
  0
LINE
  5
F1
330
1F
100
AcDbEntity
  8
0
  6
Continuous
 62
     7
370
     0
100
AcDbLine
 10
113.4707791926
 20
115.1196411398
 30
0.0
 11
110.570778531
 21
115.1196411398
 31
0.0
  0
LINE
  5
F2
330
1F
100
AcDbEntity
  8
0
  6
Continuous
 62
     7
370
     0
100
AcDbLine
 10
79.7707786979
 20
115.1196411398
 30
0.0
 11
73.4707791553
 21
115.1196411398
 31
0.0
  0
LINE
  5
F3
330
1F
100
AcDbEntity
  8
0
  6
Continuous
 62
     7
370
     0
100
AcDbLine
 10
113.4707791926
 20
115.1196411398
 30
0.0
 11
113.4707791926
 21
113.9195448656
 31
0.0
  0
LINE
  5
F4
330
1F
100
AcDbEntity
  8
0
  6
Continuous
 62
     7
370
     0
100
AcDbLine
 10
113.4707791926
 20
113.9195448656
 30
0.0
 11
73.4707791553
 21
113.9195448656
 31
0.0
  0
LINE
  5
F5
330
1F
100
AcDbEntity
  8
0
  6
Continuous
 62
     7
370
     0
100
AcDbLine
 10
113.4707791926
 20
115.46963682
 30
0.0
 11
110.570778531
 21
115.46963682
 31
0.0
  0
LINE
  5
F6
330
1F
100
AcDbEntity
  8
0
  6
Continuous
 62
     7
370
     0
100
AcDbLine
 10
79.7707786979
 20
115.46963682
 30
0.0
 11
73.4707791553
 21
115.46963682
 31
0.0
  0
LINE
  5
F7
330
1F
100
AcDbEntity
  8
0
  6
Continuous
 62
     7
370
     0
100
AcDbLine
 10
113.4707791926
 20
115.46963682
 30
0.0
 11
113.4707791926
 21
115.1196411398
 31
0.0
  0
LINE
  5
F8
330
1F
100
AcDbEntity
  8
0
  6
Continuous
 62
     7
370
     0
100
AcDbLine
 10
73.4707791553
 20
113.6195447931
 30
0.0
 11
73.4707791553
 21
113.9195448656
 31
0.0
  0
LINE
  5
F9
330
1F
100
AcDbEntity
  8
0
  6
Continuous
 62
     7
370
     0
100
AcDbLine
 10
113.4707791926
 20
113.9195448656
 30
0.0
 11
113.4707791926
 21
113.6195447931
 31
0.0
  0
LINE
  5
FA
330
1F
100
AcDbEntity
  8
0
  6
Continuous
 62
     7
370
     0
100
AcDbLine
 10
113.4707791926
 20
116.1589018472
 30
0.0
 11
110.570778531
 21
116.1589018472
 31
0.0
  0
LINE
  5
FB
330
1F
100
AcDbEntity
  8
0
  6
Continuous
 62
     7
370
     0
100
AcDbLine
 10
79.7707786979
 20
116.1589018472
 30
0.0
 11
73.4707791553
 21
116.1589018472
 31
0.0
  0
LINE
  5
FC
330
1F
100
AcDbEntity
  8
0
  6
Continuous
 62
     7
370
     0
100
AcDbLine
 10
113.4707791926
 20
116.0327776039
 30
0.0
 11
110.570778531
 21
116.0327776039
 31
0.0
  0
LINE
  5
FD
330
1F
100
AcDbEntity
  8
0
  6
Continuous
 62
     7
370
     0
100
AcDbLine
 10
79.7707786979
 20
116.0327776039
 30
0.0
 11
73.4707791553
 21
116.0327776039
 31
0.0
  0
LINE
  5
FE
330
1F
100
AcDbEntity
  8
0
  6
Continuous
 62
     7
370
     0
100
AcDbLine
 10
113.4707791926
 20
116.1589018472
 30
0.0
 11
113.4707791926
 21
116.0327776039
 31
0.0
  0
LINE
  5
FF
330
1F
100
AcDbEntity
  8
0
  6
Continuous
 62
     7
370
     0
100
AcDbLine
 10
73.4707791553
 20
118.8195446909
 30
0.0
 11
79.7707786979
 21
118.8195446909
 31
0.0
  0
LINE
  5
100
330
1F
100
AcDbEntity
  8
0
  6
Continuous
 62
     7
370
     0
100
AcDbLine
 10
110.570778531
 20
118.8195446909
 30
0.0
 11
113.4707791926
 21
118.8195446909
 31
0.0
  0
LINE
  5
101
330
1F
100
AcDbEntity
  8
0
  6
Continuous
 62
     7
370
     0
100
AcDbLine
 10
113.4707791926
 20
118.8195446909
 30
0.0
 11
113.4707791926
 21
118.0008427642
 31
0.0
  0
LINE
  5
102
330
1F
100
AcDbEntity
  8
0
  6
Continuous
 62
     7
370
     0
100
AcDbLine
 10
113.4707791926
 20
118.0008427642
 30
0.0
 11
113.4707791926
 21
117.8827939026
 31
0.0
  0
LINE
  5
103
330
1F
100
AcDbEntity
  8
0
  6
Continuous
 62
     7
370
     0
100
AcDbLine
 10
73.4707791553
 20
119.1195446469
 30
0.0
 11
79.7707786979
 21
119.1195446469
 31
0.0
  0
LINE
  5
104
330
1F
100
AcDbEntity
  8
0
  6
Continuous
 62
     7
370
     0
100
AcDbLine
 10
110.570778531
 20
119.1195446469
 30
0.0
 11
113.4707791926
 21
119.1195446469
 31
0.0
  0
LINE
  5
105
330
1F
100
AcDbEntity
  8
0
  6
Continuous
 62
     7
370
     0
100
AcDbLine
 10
113.4707791926
 20
119.1195446469
 30
0.0
 11
113.4707791926
 21
118.8195446909
 31
0.0
  0
LINE
  5
106
330
1F
100
AcDbEntity
  8
0
  6
Continuous
 62
     7
370
     0
100
AcDbLine
 10
113.4707791926
 20
116.0327776039
 30
0.0
 11
113.4707791926
 21
115.46963682
 31
0.0
  0
LINE
  5
107
330
1F
100
AcDbEntity
  8
0
  6
Continuous
 62
     7
370
     0
100
AcDbLine
 10
113.4707791926
 20
117.0195456531
 30
0.0
 11
110.570778531
 21
117.0195456531
 31
0.0
  0
LINE
  5
108
330
1F
100
AcDbEntity
  8
0
  6
Continuous
 62
     7
370
     0
100
AcDbLine
 10
79.7707786979
 20
117.0195456531
 30
0.0
 11
73.4707791553
 21
117.0195456531
 31
0.0
  0
LINE
  5
109
330
1F
100
AcDbEntity
  8
0
  6
Continuous
 62
     7
370
     0
100
AcDbLine
 10
113.4707791926
 20
117.8827939026
 30
0.0
 11
113.4707791926
 21
117.0195456531
 31
0.0
  0
LINE
  5
10A
330
1F
100
AcDbEntity
  8
0
  6
Continuous
 62
     7
370
     0
100
AcDbLine
 10
113.4707791926
 20
117.0195456531
 30
0.0
 11
113.4707791926
 21
116.1589018472
 31
0.0
  0
LINE
  5
10B
330
1F
100
AcDbEntity
  8
0
  6
Continuous
 62
     7
370
     0
100
AcDbLine
 10
42.4707787306
 20
113.1195448276
 30
0.0
 11
55.4707789989
 21
113.1195448276
 31
0.0
  0
LINE
  5
10C
330
1F
100
AcDbEntity
  8
0
  6
Continuous
 62
     7
370
     0
100
AcDbLine
 10
42.4707787306
 20
129.6195445053
 30
0.0
 11
42.4707787306
 21
113.1195448276
 31
0.0
  0
LINE
  5
10D
330
1F
100
AcDbEntity
  8
0
  6
Continuous
 62
     7
370
     0
100
AcDbLine
 10
63.4707789132
 20
129.6195445053
 30
0.0
 11
42.4707787306
 21
129.6195445053
 31
0.0
  0
LINE
  5
10E
330
1F
100
AcDbEntity
  8
0
  6
Continuous
 62
     7
370
     0
100
AcDbLine
 10
63.4707789132
 20
118.1195449486
 30
0.0
 11
63.4707789132
 21
129.6195445053
 31
0.0
  0
LINE
  5
10F
330
1F
100
AcDbEntity
  8
0
  6
Continuous
 62
     7
370
     0
100
AcDbLine
 10
55.4707789989
 20
113.1195448276
 30
0.0
 11
55.4707789989
 21
118.1195449486
 31
0.0
  0
LINE
  5
110
330
1F
100
AcDbEntity
  8
0
  6
Continuous
 62
     7
370
     0
100
AcDbLine
 10
55.4707789989
 20
118.1195449486
 30
0.0
 11
63.4707789132
 21
118.1195449486
 31
0.0
  0
LINE
  5
111
330
1F
100
AcDbEntity
  8
0
  6
Continuous
 62
     7
370
     0
100
AcDbLine
 10
55.4707789989
 20
113.1195448276
 30
0.0
 11
55.4707789989
 21
113.6195447931
 31
0.0
  0
LINE
  5
112
330
1F
100
AcDbEntity
  8
0
  6
Continuous
 62
     7
370
     0
100
AcDbLine
 10
55.4707789989
 20
113.6195447931
 30
0.0
 11
113.4707791926
 21
113.6195447931
 31
0.0
  0
LINE
  5
113
330
1F
100
AcDbEntity
  8
0
  6
Continuous
 62
     7
370
     0
100
AcDbLine
 10
113.4707791926
 20
113.6195447931
 30
0.0
 11
113.4707791926
 21
107.6195446245
 31
0.0
  0
LINE
  5
114
330
1F
100
AcDbEntity
  8
0
  6
Continuous
 62
     7
370
     0
100
AcDbLine
 10
29.4707803251
 20
113.6195447931
 30
0.0
 11
29.4707803251
 21
107.6195446245
 31
0.0
  0
LINE
  5
115
330
1F
100
AcDbEntity
  8
0
  6
Continuous
 62
     7
370
     0
100
AcDbLine
 10
29.4707803251
 20
113.6195447931
 30
0.0
 11
42.4707787306
 21
113.6195447931
 31
0.0
  0
LINE
  5
116
330
1F
100
AcDbEntity
  8
0
  6
Continuous
 62
     7
370
     0
100
AcDbLine
 10
42.4707787306
 20
113.1195448276
 30
0.0
 11
42.4707787306
 21
113.6195447931
 31
0.0
  0
LINE
  5
117
330
1F
100
AcDbEntity
  8
0
  6
Continuous
 62
     7
370
     0
100
AcDbLine
 10
29.4707803251
 20
107.6195446245
 30
0.0
 11
113.4707791926
 21
107.6195446245
 31
0.0
  0
LINE
  5
118
330
1F
100
AcDbEntity
  8
0
  6
Continuous
 62
     7
370
     0
100
AcDbLine
 10
98.9207787634
 20
129.6195445053
 30
0.0
 11
98.9207787634
 21
126.119544863
 31
0.0
  0
LINE
  5
119
330
1F
100
AcDbEntity
  8
0
  6
Continuous
 62
     7
370
     0
100
AcDbLine
 10
98.9207787634
 20
126.119544863
 30
0.0
 11
101.4207801045
 21
126.119544863
 31
0.0
  0
LINE
  5
11A
330
1F
100
AcDbEntity
  8
0
  6
Continuous
 62
     7
370
     0
100
AcDbLine
 10
101.4207801045
 20
126.119544863
 30
0.0
 11
101.4207801045
 21
129.6195445053
 31
0.0
  0
LINE
  5
11B
330
1F
100
AcDbEntity
  8
0
  6
Continuous
 62
     7
370
     0
100
AcDbLine
 10
110.9707778515
 20
123.6195444532
 30
0.0
 11
110.9707778515
 21
129.6195445053
 31
0.0
  0
LINE
  5
11C
330
1F
100
AcDbEntity
  8
0
  6
Continuous
 62
     7
370
     0
100
AcDbLine
 10
73.4707791553
 20
123.6195444532
 30
0.0
 11
110.9707778515
 21
123.6195444532
 31
0.0
  0
LINE
  5
11D
330
1F
100
AcDbEntity
  8
0
  6
Continuous
 62
     7
370
     0
100
AcDbLine
 10
73.4707791553
 20
114.6195448406
 30
0.0
 11
73.4707791553
 21
123.6195444532
 31
0.0
  0
LINE
  5
11E
330
1F
100
AcDbEntity
  8
0
  6
Continuous
 62
     7
370
     0
100
AcDbLine
 10
67.4707791032
 20
114.6195448406
 30
0.0
 11
73.4707791553
 21
114.6195448406
 31
0.0
  0
LINE
  5
11F
330
1F
100
AcDbEntity
  8
0
  6
Continuous
 62
     7
370
     0
100
AcDbLine
 10
67.4707791032
 20
129.6195445053
 30
0.0
 11
67.4707791032
 21
114.6195448406
 31
0.0
  0
LINE
  5
120
330
1F
100
AcDbEntity
  8
0
  6
Continuous
 62
     7
370
     0
100
AcDbLine
 10
88.9207789869
 20
129.6195445053
 30
0.0
 11
88.9207789869
 21
126.119544863
 31
0.0
  0
LINE
  5
121
330
1F
100
AcDbEntity
  8
0
  6
Continuous
 62
     7
370
     0
100
AcDbLine
 10
88.9207789869
 20
126.119544863
 30
0.0
 11
91.4207784654
 21
126.119544863
 31
0.0
  0
LINE
  5
122
330
1F
100
AcDbEntity
  8
0
  6
Continuous
 62
     7
370
     0
100
AcDbLine
 10
91.4207784654
 20
126.119544863
 30
0.0
 11
91.4207784654
 21
129.6195445053
 31
0.0
  0
LINE
  5
123
330
1F
100
AcDbEntity
  8
0
  6
Continuous
 62
     7
370
     0
100
AcDbLine
 10
110.9707778515
 20
129.6195445053
 30
0.0
 11
101.4207801045
 21
129.6195445053
 31
0.0
  0
LINE
  5
124
330
1F
100
AcDbEntity
  8
0
  6
Continuous
 62
     7
370
     0
100
AcDbLine
 10
98.9207787634
 20
129.6195445053
 30
0.0
 11
91.4207784654
 21
129.6195445053
 31
0.0
  0
LINE
  5
125
330
1F
100
AcDbEntity
  8
0
  6
Continuous
 62
     7
370
     0
100
AcDbLine
 10
88.9207789869
 20
129.6195445053
 30
0.0
 11
67.4707791032
 21
129.6195445053
 31
0.0
  0
LINE
  5
126
330
1F
100
AcDbEntity
  8
0
  6
Continuous
 62
     7
370
     0
100
AcDbLine
 10
101.4207801045
 20
129.6195445053
 30
0.0
 11
98.9207787634
 21
129.6195445053
 31
0.0
  0
LINE
  5
127
330
1F
100
AcDbEntity
  8
0
  6
Continuous
 62
     7
370
     0
100
AcDbLine
 10
115.3841106416
 20
129.6195445053
 30
0.0
 11
115.3841106416
 21
123.6195444532
 31
0.0
  0
LINE
  5
128
330
1F
100
AcDbEntity
  8
0
  6
Continuous
 62
     7
370
     0
100
AcDbLine
 10
115.3841106416
 20
123.6195444532
 30
0.0
 11
110.9707778515
 21
123.6195444532
 31
0.0
  0
LINE
  5
129
330
1F
100
AcDbEntity
  8
0
  6
Continuous
 62
     7
370
     0
100
AcDbLine
 10
110.9707778515
 20
129.6195445053
 30
0.0
 11
115.3841106416
 21
129.6195445053
 31
0.0
  0
LINE
  5
12A
330
1F
100
AcDbEntity
  8
0
  6
Continuous
 62
     7
370
     0
100
AcDbLine
 10
116.4707778217
 20
119.6195447289
 30
0.0
 11
122.4707788051
 21
119.6195447289
 31
0.0
  0
LINE
  5
12B
330
1F
100
AcDbEntity
  8
0
  6
Continuous
 62
     7
370
     0
100
AcDbLine
 10
116.4707778217
 20
119.6195447289
 30
0.0
 11
116.4707778217
 21
114.6195448406
 31
0.0
  0
LINE
  5
12C
330
1F
100
AcDbEntity
  8
0
  6
Continuous
 62
     7
370
     0
100
AcDbLine
 10
122.4707788051
 20
114.6195448406
 30
0.0
 11
122.4707788051
 21
119.6195447289
 31
0.0
  0
LINE
  5
12D
330
1F
100
AcDbEntity
  8
0
  6
Continuous
 62
     7
370
     0
100
AcDbLine
 10
116.4707778217
 20
114.6195448406
 30
0.0
 11
122.4707788051
 21
114.6195448406
 31
0.0
  0
LINE
  5
12E
330
1F
100
AcDbEntity
  8
0
  6
Continuous
 62
     7
370
     0
100
AcDbLine
 10
90.3787793787
 20
129.6195445053
 30
0.0
 11
88.9207789869
 21
129.6195445053
 31
0.0
  0
LINE
  5
12F
330
1F
100
AcDbEntity
  8
0
  6
Continuous
 62
     7
370
     0
100
AcDbLine
 10
122.4707788051
 20
138.6195450492
 30
0.0
 11
119.4207793297
 21
138.6195450492
 31
0.0
  0
LINE
  5
130
330
1F
100
AcDbEntity
  8
0
  6
Continuous
 62
     7
370
     0
100
AcDbLine
 10
119.4207793297
 20
138.6195450492
 30
0.0
 11
120.4207776309
 21
139.6195452131
 31
0.0
  0
LINE
  5
131
330
1F
100
AcDbEntity
  8
0
  6
Continuous
 62
     7
370
     0
100
AcDbLine
 10
120.4207776309
 20
139.6195452131
 30
0.0
 11
122.4707788051
 21
139.6195452131
 31
0.0
  0
LINE
  5
132
330
1F
100
AcDbEntity
  8
0
  6
Continuous
 62
     7
370
     0
100
AcDbLine
 10
122.4707788051
 20
139.6195452131
 30
0.0
 11
122.4707788051
 21
138.6195450492
 31
0.0
  0
LINE
  5
133
330
1F
100
AcDbEntity
  8
0
  6
Continuous
 62
     7
370
     0
100
AcDbLine
 10
119.4207793297
 20
129.6195445053
 30
0.0
 11
119.4207793297
 21
138.6195450492
 31
0.0
  0
LINE
  5
134
330
1F
100
AcDbEntity
  8
0
  6
Continuous
 62
     7
370
     0
100
AcDbLine
 10
116.4707778217
 20
119.6195447289
 30
0.0
 11
116.4707778217
 21
123.6195444532
 31
0.0
  0
LINE
  5
135
330
1F
100
AcDbEntity
  8
0
  6
Continuous
 62
     7
370
     0
100
AcDbLine
 10
122.4707788051
 20
119.6195447289
 30
0.0
 11
122.4707788051
 21
138.6195450492
 31
0.0
  0
LINE
  5
136
330
1F
100
AcDbEntity
  8
0
  6
Continuous
 62
     7
370
     0
100
AcDbLine
 10
116.4707778217
 20
123.6195444532
 30
0.0
 11
115.3841106416
 21
123.6195444532
 31
0.0
  0
LINE
  5
137
330
1F
100
AcDbEntity
  8
0
  6
Continuous
 62
     7
370
     0
100
AcDbLine
 10
115.3841106416
 20
129.6195445053
 30
0.0
 11
119.4207793297
 21
129.6195445053
 31
0.0
  0
LINE
  5
138
330
1F
100
AcDbEntity
  8
0
  6
Continuous
 62
     8
370
     0
100
AcDbLine
 10
110.2707809032
 20
119.8695447698
 30
0.0
 11
110.2707809032
 21
122.5695453055
 31
0.0
  0
LINE
  5
139
330
1F
100
AcDbEntity
  8
0
  6
Continuous
 62
     8
370
     0
100
AcDbLine
 10
110.570778531
 20
121.2195448049
 30
0.0
 11
110.4707805635
 21
121.2195448049
 31
0.0
  0
LINE
  5
13A
330
1F
100
AcDbEntity
  8
0
  6
Continuous
 62
     8
370
     0
100
AcDbLine
 10
80.0707791196
 20
122.5695453055
 30
0.0
 11
80.0707791196
 21
119.8695447698
 31
0.0
  0
LINE
  5
13B
330
1F
100
AcDbEntity
  8
0
  6
Continuous
 62
     8
370
     0
100
AcDbLine
 10
79.7707786979
 20
121.2195448049
 30
0.0
 11
79.8707794593
 21
121.2195448049
 31
0.0
  0
LINE
  5
13C
330
1F
100
AcDbEntity
  8
0
  6
Continuous
 62
     8
370
     0
100
AcDbLine
 10
73.4707791553
 20
118.0008427642
 30
0.0
 11
79.7707786979
 21
118.0008427642
 31
0.0
  0
LINE
  5
13D
330
1F
100
AcDbEntity
  8
0
  6
Continuous
 62
     8
370
     0
100
AcDbLine
 10
84.7707795174
 20
118.0008427642
 30
0.0
 11
85.2707786681
 21
118.0008427642
 31
0.0
  0
LINE
  5
13E
330
1F
100
AcDbEntity
  8
0
  6
Continuous
 62
     8
370
     0
100
AcDbLine
 10
105.0707785608
 20
118.0008427642
 30
0.0
 11
105.570779574
 21
118.0008427642
 31
0.0
  0
LINE
  5
13F
330
1F
100
AcDbEntity
  8
0
  6
Continuous
 62
     8
370
     0
100
AcDbLine
 10
110.570778531
 20
118.0008427642
 30
0.0
 11
113.4707791926
 21
118.0008427642
 31
0.0
  0
LINE
  5
140
330
1F
100
AcDbEntity
  8
0
  6
Continuous
 62
     8
370
     0
100
AcDbLine
 10
73.4707791553
 20
117.8827939026
 30
0.0
 11
79.7707786979
 21
117.8827939026
 31
0.0
  0
LINE
  5
141
330
1F
100
AcDbEntity
  8
0
  6
Continuous
 62
     8
370
     0
100
AcDbLine
 10
84.7707795174
 20
117.8827939026
 30
0.0
 11
85.2707786681
 21
117.8827939026
 31
0.0
  0
LINE
  5
142
330
1F
100
AcDbEntity
  8
0
  6
Continuous
 62
     8
370
     0
100
AcDbLine
 10
105.0707785608
 20
117.8827939026
 30
0.0
 11
105.570779574
 21
117.8827939026
 31
0.0
  0
LINE
  5
143
330
1F
100
AcDbEntity
  8
0
  6
Continuous
 62
     8
370
     0
100
AcDbLine
 10
110.570778531
 20
117.8827939026
 30
0.0
 11
113.4707791926
 21
117.8827939026
 31
0.0
  0
LINE
  5
144
330
1F
100
AcDbEntity
  8
0
  6
HIDDEN
 62
     7
370
     0
100
AcDbLine
 10
61.170779095
 20
110.1195450343
 30
0.0
 11
67.7707791174
 21
110.1195450343
 31
0.0
  0
LINE
  5
145
330
1F
100
AcDbEntity
  8
0
  6
HIDDEN
 62
     7
370
     0
100
AcDbLine
 10
71.2707791672
 20
113.6195447931
 30
0.0
 11
57.6836768733
 21
113.6195447931
 31
0.0
  0
LINE
  5
146
330
1F
100
AcDbEntity
  8
0
  6
HIDDEN
 62
     7
370
     0
100
AcDbLine
 10
67.7707791174
 20
107.6195446245
 30
0.0
 11
61.1840639458
 21
107.6195446245
 31
0.0
  0
LINE
  5
147
330
1F
100
AcDbEntity
  8
0
  6
HIDDEN
 62
     7
370
     0
100
AcDbLine
 10
37.7207784177
 20
113.6195447931
 30
0.0
 11
31.2338633658
 21
113.6195447931
 31
0.0
  0
LINE
  5
148
330
1F
100
AcDbEntity
  8
0
  6
HIDDEN
 62
     7
370
     0
100
AcDbLine
 10
37.7207784177
 20
107.6195446245
 30
0.0
 11
31.2338633658
 21
107.6195446245
 31
0.0
  0
LINE
  5
149
330
1F
100
AcDbEntity
  8
0
  6
HIDDEN
 62
     7
370
     0
100
AcDbLine
 10
57.6707789869
 20
113.6195447931
 30
0.0
 11
61.170779095
 21
110.1195450343
 31
0.0
  0
LINE
  5
14A
330
1F
100
AcDbEntity
  8
0
  6
HIDDEN
 62
     7
370
     0
100
AcDbLine
 10
67.7707791174
 20
110.1195450343
 30
0.0
 11
71.2707791672
 21
113.6195447931
 31
0.0
  0
LINE
  5
14B
330
1F
100
AcDbEntity
  8
0
  6
HIDDEN
 62
     7
370
     0
100
AcDbLine
 10
61.170779095
 20
110.1195450343
 30
0.0
 11
61.170779095
 21
107.6195446245
 31
0.0
  0
LINE
  5
14C
330
1F
100
AcDbEntity
  8
0
  6
HIDDEN
 62
     7
370
     0
100
AcDbLine
 10
67.7707791174
 20
107.6195446245
 30
0.0
 11
67.7707791174
 21
110.1195450343
 31
0.0
  0
LINE
  5
14D
330
1F
100
AcDbEntity
  8
0
  6
HIDDEN
 62
     7
370
     0
100
AcDbLine
 10
31.2207801462
 20
113.6195447931
 30
0.0
 11
31.2207801462
 21
107.6195446245
 31
0.0
  0
LINE
  5
14E
330
1F
100
AcDbEntity
  8
0
  6
HIDDEN
 62
     7
370
     0
100
AcDbLine
 10
37.7207784177
 20
107.6195446245
 30
0.0
 11
37.7207784177
 21
113.6195447931
 31
0.0
  0
DIMENSION
  5
14F
330
1F
100
AcDbEntity
  8
0
  6
Continuous
 62
     7
370
     0
100
AcDbDimension
  2
_D
 10
131.008651754
 20
107.6195448406
 30
0.0
 11
131.008651754
 21
123.6195448406
 31
0.0
 70
   160
  1
<>
 71
     2
 42
-1.0
  3
SLDDIMSTYLE0
100
AcDbAlignedDimension
 13
122.4707791032
 23
139.6195448406
 33
0.0
 14
113.4707791032
 24
107.6195448406
 34
0.0
 50
90.0
100
AcDbRotatedDimension
  0
DIMENSION
  5
15A
330
1F
100
AcDbEntity
  8
0
  6
Continuous
 62
     7
370
     0
100
AcDbDimension
  2
_D_1
 10
122.4707791032
 20
147.690371556
 30
0.0
 11
131.267910011
 21
147.690371556
 31
0.0
 70
   160
  1
<>
 71
     2
 42
-1.0
  3
SLDDIMSTYLE1
100
AcDbAlignedDimension
 13
119.4207791032
 23
138.6195448406
 33
0.0
 14
122.4707791032
 24
139.6195448406
 34
0.0
100
AcDbRotatedDimension
  0
INSERT
  5
16C
102
{ACAD_REACTORS
330
174
102
}
330
1F
100
AcDbEntity
  8
0
  6
Continuous
 62
     7
370
     0
100
AcDbBlockReference
  2
SW_NOTE_0
 10
136.9458128079
 20
91.8719211823
 30
0.0
  0
LEADER
  5
174
330
1F
100
AcDbEntity
  8
0
  6
Continuous
 62
     7
370
     0
100
AcDbLeader
  3
SLDDIMSTYLE2
 73
     2
 76
     3
 10
64.5670110897
 20
107.6195448406
 30
0.0
 10
73.2684729064
 20
91.8719211823
 30
0.0
 10
136.9458128079
 20
91.8719211823
 30
0.0
340
16C
  0
LINE
  5
175
330
1F
100
AcDbEntity
  8
0
  6
CENTERX2
 62
     7
370
     0
100
AcDbLine
 10
34.4707791032
 20
105.6195448406
 30
0.0
 11
34.4707791032
 21
115.6195448406
 31
0.0
  0
LINE
  5
176
330
1F
100
AcDbEntity
  8
0
  6
CENTERX2
 62
     7
370
     0
100
AcDbLine
 10
64.4707791032
 20
112.1195448406
 30
0.0
 11
64.4707791032
 21
105.6195448406
 31
0.0
  0
LINE
  5
177
330
1F
100
AcDbEntity
  8
0
  6
Continuous
 62
     7
370
     0
100
AcDbLine
 10
185.1494321388
 20
123.1195536845
 30
0.0
 11
186.1494323028
 21
122.1195539862
 31
0.0
  0
LINE
  5
178
330
1F
100
AcDbEntity
  8
0
  6
Continuous
 62
     7
370
     0
100
AcDbLine
 10
166.3494249595
 20
122.1195539862
 30
0.0
 11
167.3494251234
 21
123.1195536845
 31
0.0
  0
LINE
  5
179
330
1F
100
AcDbEntity
  8
0
  6
Continuous
 62
     7
370
     0
100
AcDbLine
 10
171.0462043782
 20
114.5195448431
 30
0.0
 11
171.0462043782
 21
114.6195448406
 31
0.0
  0
LINE
  5
17A
330
1F
100
AcDbEntity
  8
0
  6
Continuous
 62
     7
370
     0
100
AcDbLine
 10
184.4494417099
 20
114.5195448431
 30
0.0
 11
181.452652884
 21
114.5195448431
 31
0.0
  0
LINE
  5
17B
330
1F
100
AcDbEntity
  8
0
  6
Continuous
 62
     7
370
     0
100
AcDbLine
 10
181.452652884
 20
114.6195448406
 30
0.0
 11
181.452652884
 21
114.5195448431
 31
0.0
  0
LINE
  5
17C
330
1F
100
AcDbEntity
  8
0
  6
Continuous
 62
     7
370
     0
100
AcDbLine
 10
184.54944154
 20
114.6195448406
 30
0.0
 11
184.4494417099
 21
114.5195448431
 31
0.0
  0
LINE
  5
17D
330
1F
100
AcDbEntity
  8
0
  6
Continuous
 62
     7
370
     0
100
AcDbLine
 10
168.0494155524
 20
114.5195448431
 30
0.0
 11
167.9494157222
 21
114.6195448406
 31
0.0
  0
LINE
  5
17E
330
1F
100
AcDbEntity
  8
0
  6
Continuous
 62
     7
370
     0
100
AcDbLine
 10
171.0462043782
 20
114.5195448431
 30
0.0
 11
168.0494155524
 21
114.5195448431
 31
0.0
  0
LINE
  5
17F
330
1F
100
AcDbEntity
  8
0
  6
Continuous
 62
     7
370
     0
100
AcDbLine
 10
186.2494284076
 20
121.0766072787
 30
0.0
 11
186.2494284076
 21
123.1195527531
 31
0.0
  0
LINE
  5
180
330
1F
100
AcDbEntity
  8
0
  6
Continuous
 62
     7
370
     0
100
AcDbLine
 10
186.2494284076
 20
120.3624607466
 30
0.0
 11
186.2494284076
 21
119.6195447289
 31
0.0
  0
LINE
  5
181
330
1F
100
AcDbEntity
  8
0
  6
Continuous
 62
     7
370
     0
100
AcDbLine
 10
186.2494284076
 20
120.3624607466
 30
0.0
 11
186.1494323028
 21
120.5097116932
 31
0.0
  0
LINE
  5
182
330
1F
100
AcDbEntity
  8
0
  6
Continuous
 62
     7
370
     0
100
AcDbLine
 10
186.1494323028
 20
120.9293563321
 30
0.0
 11
186.2494284076
 21
121.0766072787
 31
0.0
  0
LINE
  5
183
330
1F
100
AcDbEntity
  8
0
  6
Continuous
 62
     7
370
     0
100
AcDbLine
 10
166.2494288546
 20
121.0766072787
 30
0.0
 11
166.3494249595
 21
120.9293563321
 31
0.0
  0
LINE
  5
184
330
1F
100
AcDbEntity
  8
0
  6
Continuous
 62
     7
370
     0
100
AcDbLine
 10
166.3494249595
 20
120.5097116932
 30
0.0
 11
166.2494288546
 21
120.3624607466
 31
0.0
  0
LINE
  5
185
330
1F
100
AcDbEntity
  8
0
  6
Continuous
 62
     7
370
     0
100
AcDbLine
 10
166.2494288546
 20
123.1195527531
 30
0.0
 11
166.2494288546
 21
121.0766072787
 31
0.0
  0
LINE
  5
186
330
1F
100
AcDbEntity
  8
0
  6
Continuous
 62
     7
370
     0
100
AcDbLine
 10
166.2494288546
 20
123.1195527531
 30
0.0
 11
166.7494205547
 21
123.6195444532
 31
0.0
  0
LINE
  5
187
330
1F
100
AcDbEntity
  8
0
  6
Continuous
 62
     7
370
     0
100
AcDbLine
 10
185.7494367075
 20
123.6195444532
 30
0.0
 11
186.2494284076
 21
123.1195527531
 31
0.0
  0
LINE
  5
188
330
1F
100
AcDbEntity
  8
0
  6
Continuous
 62
     7
370
     0
100
AcDbLine
 10
166.2494288546
 20
119.6195447289
 30
0.0
 11
166.2494288546
 21
120.3624607466
 31
0.0
  0
LINE
  5
189
330
1F
100
AcDbEntity
  8
0
  6
Continuous
 62
     7
370
     0
100
AcDbLine
 10
168.1907344398
 20
121.9195450127
 30
0.0
 11
168.1994283361
 21
121.9195450127
 31
0.0
  0
LINE
  5
18A
330
1F
100
AcDbEntity
  8
0
  6
Continuous
 62
     7
370
     0
100
AcDbLine
 10
168.1907344398
 20
121.3782389119
 30
0.0
 11
168.1907344398
 21
121.9195450127
 31
0.0
  0
LINE
  5
18B
330
1F
100
AcDbEntity
  8
0
  6
Continuous
 62
     7
370
     0
100
AcDbLine
 10
167.649428339
 20
121.3782389119
 30
0.0
 11
168.1907344398
 21
121.3782389119
 31
0.0
  0
LINE
  5
18C
330
1F
100
AcDbEntity
  8
0
  6
Continuous
 62
     7
370
     0
100
AcDbLine
 10
167.649428339
 20
121.2195448049
 30
0.0
 11
167.649428339
 21
121.3782389119
 31
0.0
  0
LINE
  5
18D
330
1F
100
AcDbEntity
  8
0
  6
Continuous
 62
     7
370
     0
100
AcDbLine
 10
167.649428339
 20
121.0608506978
 30
0.0
 11
167.649428339
 21
121.2195448049
 31
0.0
  0
LINE
  5
18E
330
1F
100
AcDbEntity
  8
0
  6
Continuous
 62
     7
370
     0
100
AcDbLine
 10
168.1907344398
 20
121.0608506978
 30
0.0
 11
167.649428339
 21
121.0608506978
 31
0.0
  0
LINE
  5
18F
330
1F
100
AcDbEntity
  8
0
  6
Continuous
 62
     7
370
     0
100
AcDbLine
 10
168.1907344398
 20
120.5195450626
 30
0.0
 11
168.1907344398
 21
121.0608506978
 31
0.0
  0
LINE
  5
190
330
1F
100
AcDbEntity
  8
0
  6
Continuous
 62
     7
370
     0
100
AcDbLine
 10
168.1994283361
 20
120.5195450626
 30
0.0
 11
168.1907344398
 21
120.5195450626
 31
0.0
  0
LINE
  5
191
330
1F
100
AcDbEntity
  8
0
  6
Continuous
 62
     7
370
     0
100
AcDbLine
 10
184.3081228224
 20
121.9195450127
 30
0.0
 11
184.3081228224
 21
121.3782389119
 31
0.0
  0
LINE
  5
192
330
1F
100
AcDbEntity
  8
0
  6
Continuous
 62
     7
370
     0
100
AcDbLine
 10
184.2994289262
 20
121.9195450127
 30
0.0
 11
184.3081228224
 21
121.9195450127
 31
0.0
  0
LINE
  5
193
330
1F
100
AcDbEntity
  8
0
  6
Continuous
 62
     7
370
     0
100
AcDbLine
 10
184.3081228224
 20
120.5195450626
 30
0.0
 11
184.2994289262
 21
120.5195450626
 31
0.0
  0
LINE
  5
194
330
1F
100
AcDbEntity
  8
0
  6
Continuous
 62
     7
370
     0
100
AcDbLine
 10
184.3081228224
 20
121.0608506978
 30
0.0
 11
184.3081228224
 21
120.5195450626
 31
0.0
  0
LINE
  5
195
330
1F
100
AcDbEntity
  8
0
  6
Continuous
 62
     7
370
     0
100
AcDbLine
 10
184.8494289232
 20
121.0608506978
 30
0.0
 11
184.3081228224
 21
121.0608506978
 31
0.0
  0
LINE
  5
196
330
1F
100
AcDbEntity
  8
0
  6
Continuous
 62
     7
370
     0
100
AcDbLine
 10
184.8494289232
 20
121.2195448049
 30
0.0
 11
184.8494289232
 21
121.0608506978
 31
0.0
  0
LINE
  5
197
330
1F
100
AcDbEntity
  8
0
  6
Continuous
 62
     7
370
     0
100
AcDbLine
 10
184.8494289232
 20
121.3782389119
 30
0.0
 11
184.8494289232
 21
121.2195448049
 31
0.0
  0
LINE
  5
198
330
1F
100
AcDbEntity
  8
0
  6
Continuous
 62
     7
370
     0
100
AcDbLine
 10
184.3081228224
 20
121.3782389119
 30
0.0
 11
184.8494289232
 21
121.3782389119
 31
0.0
  0
ARC
  5
199
330
1F
100
AcDbEntity
  8
0
  6
Continuous
 62
     7
370
     0
100
AcDbCircle
 10
168.3494286311
 20
121.2195448406
 30
0.0
 40
1.35000000000001
100
AcDbArc
 50
96.3793702084
 51
263.6206297916
  0
ARC
  5
19A
330
1F
100
AcDbEntity
  8
0
  6
Continuous
 62
     7
370
     0
100
AcDbCircle
 10
184.1494286311
 20
121.2195448406
 30
0.0
 40
1.350000000000012
100
AcDbArc
 50
276.3793702084
 51
83.6206297916
  0
LINE
  5
19B
330
1F
100
AcDbEntity
  8
0
  6
Continuous
 62
     7
370
     0
100
AcDbLine
 10
184.2994289262
 20
121.3695450157
 30
0.0
 11
184.3081228224
 21
121.3782389119
 31
0.0
  0
LINE
  5
19C
330
1F
100
AcDbEntity
  8
0
  6
Continuous
 62
     7
370
     0
100
AcDbLine
 10
184.2994289262
 20
121.8899201073
 30
0.0
 11
184.3057116282
 21
121.9195450127
 31
0.0
  0
LINE
  5
19D
330
1F
100
AcDbEntity
  8
0
  6
Continuous
 62
     7
370
     0
100
AcDbLine
 10
184.8494289232
 20
121.3758281835
 30
0.0
 11
184.2994289262
 21
121.2591739774
 31
0.0
  0
LINE
  5
19E
330
1F
100
AcDbEntity
  8
0
  6
Continuous
 62
     7
370
     0
100
AcDbLine
 10
184.2994289262
 20
121.0695450597
 30
0.0
 11
184.3081228224
 21
121.0608506978
 31
0.0
  0
LINE
  5
19F
330
1F
100
AcDbEntity
  8
0
  6
Continuous
 62
     7
370
     0
100
AcDbLine
 10
184.2994289262
 20
121.1799156323
 30
0.0
 11
184.8494289232
 21
121.0632614263
 31
0.0
  0
LINE
  5
1A0
330
1F
100
AcDbEntity
  8
0
  6
Continuous
 62
     7
370
     0
100
AcDbLine
 10
184.3057116282
 20
120.5195450626
 30
0.0
 11
184.2994289262
 21
120.5491695024
 31
0.0
  0
LINE
  5
1A1
330
1F
100
AcDbEntity
  8
0
  6
Continuous
 62
     7
370
     0
100
AcDbLine
 10
168.1994283361
 20
121.3695450157
 30
0.0
 11
168.1907344398
 21
121.3782389119
 31
0.0
  0
LINE
  5
1A2
330
1F
100
AcDbEntity
  8
0
  6
Continuous
 62
     7
370
     0
100
AcDbLine
 10
168.193145634
 20
121.9195450127
 30
0.0
 11
168.1994283361
 21
121.8899201073
 31
0.0
  0
LINE
  5
1A3
330
1F
100
AcDbEntity
  8
0
  6
Continuous
 62
     7
370
     0
100
AcDbLine
 10
168.1994283361
 20
121.0695450597
 30
0.0
 11
168.1907344398
 21
121.0608506978
 31
0.0
  0
LINE
  5
1A4
330
1F
100
AcDbEntity
  8
0
  6
Continuous
 62
     7
370
     0
100
AcDbLine
 10
167.649428339
 20
121.0632614263
 30
0.0
 11
168.1994283361
 21
121.1799156323
 31
0.0
  0
LINE
  5
1A5
330
1F
100
AcDbEntity
  8
0
  6
Continuous
 62
     7
370
     0
100
AcDbLine
 10
168.1994283361
 20
121.2591739774
 30
0.0
 11
167.649428339
 21
121.3758281835
 31
0.0
  0
LINE
  5
1A6
330
1F
100
AcDbEntity
  8
0
  6
Continuous
 62
     7
370
     0
100
AcDbLine
 10
168.1994283361
 20
120.5491695024
 30
0.0
 11
168.193145634
 21
120.5195450626
 31
0.0
  0
LINE
  5
1A7
330
1F
100
AcDbEntity
  8
0
  6
Continuous
 62
     7
370
     0
100
AcDbLine
 10
184.2994289262
 20
121.1996545486
 30
0.0
 11
184.8494289232
 21
121.1411046267
 31
0.0
  0
LINE
  5
1A8
330
1F
100
AcDbEntity
  8
0
  6
Continuous
 62
     7
370
     0
100
AcDbLine
 10
185.1494349328
 20
123.1195453026
 30
0.0
 11
186.1494378907
 21
122.119544673
 31
0.0
  0
LINE
  5
1A9
330
1F
100
AcDbEntity
  8
0
  6
Continuous
 62
     7
370
     0
100
AcDbLine
 10
184.2994289262
 20
123.1195453026
 30
0.0
 11
185.1494349328
 21
123.1195453026
 31
0.0
  0
LINE
  5
1AA
330
1F
100
AcDbEntity
  8
0
  6
Continuous
 62
     7
370
     0
100
AcDbLine
 10
186.1494378907
 20
122.119544673
 30
0.0
 11
186.1494378907
 21
119.6195447289
 31
0.0
  0
LINE
  5
1AB
330
1F
100
AcDbEntity
  8
0
  6
Continuous
 62
     7
370
     0
100
AcDbLine
 10
166.3494193715
 20
122.119544673
 30
0.0
 11
167.3494223294
 21
123.1195453026
 31
0.0
  0
LINE
  5
1AC
330
1F
100
AcDbEntity
  8
0
  6
Continuous
 62
     7
370
     0
100
AcDbLine
 10
166.3494193715
 20
119.6195447289
 30
0.0
 11
166.3494193715
 21
122.119544673
 31
0.0
  0
LINE
  5
1AD
330
1F
100
AcDbEntity
  8
0
  6
Continuous
 62
     7
370
     0
100
AcDbLine
 10
167.3494223294
 20
123.1195453026
 30
0.0
 11
168.1994283361
 21
123.1195453026
 31
0.0
  0
LINE
  5
1AE
330
1F
100
AcDbEntity
  8
0
  6
Continuous
 62
     7
370
     0
100
AcDbLine
 10
180.4494284814
 20
113.6195447931
 30
0.0
 11
180.7494284374
 21
113.9195448656
 31
0.0
  0
LINE
  5
1AF
330
1F
100
AcDbEntity
  8
0
  6
Continuous
 62
     7
370
     0
100
AcDbLine
 10
171.7494288248
 20
113.9195448656
 30
0.0
 11
172.0494287809
 21
113.6195447931
 31
0.0
  0
LINE
  5
1B0
330
1F
100
AcDbEntity
  8
0
  6
Continuous
 62
     7
370
     0
100
AcDbLine
 10
171.7494288248
 20
114.6195448406
 30
0.0
 11
171.7494288248
 21
113.9195448656
 31
0.0
  0
LINE
  5
1B1
330
1F
100
AcDbEntity
  8
0
  6
Continuous
 62
     7
370
     0
100
AcDbLine
 10
172.0494287809
 20
113.6195447931
 30
0.0
 11
180.4494284814
 21
113.6195447931
 31
0.0
  0
LINE
  5
1B2
330
1F
100
AcDbEntity
  8
0
  6
Continuous
 62
     7
370
     0
100
AcDbLine
 10
180.7494284374
 20
113.9195448656
 30
0.0
 11
180.7494284374
 21
114.6195448406
 31
0.0
  0
LINE
  5
1B3
330
1F
100
AcDbEntity
  8
0
  6
Continuous
 62
     7
370
     0
100
AcDbLine
 10
168.2494282511
 20
113.6195447931
 30
0.0
 11
168.2494282511
 21
114.5195448431
 31
0.0
  0
LINE
  5
1B4
330
1F
100
AcDbEntity
  8
0
  6
Continuous
 62
     7
370
     0
100
AcDbLine
 10
184.2494290111
 20
113.6195447931
 30
0.0
 11
184.2494290111
 21
114.5195448431
 31
0.0
  0
LINE
  5
1B5
330
1F
100
AcDbEntity
  8
0
  6
Continuous
 62
     7
370
     0
100
AcDbLine
 10
168.2494282511
 20
113.6195447931
 30
0.0
 11
168.2494282511
 21
107.6195446245
 31
0.0
  0
LINE
  5
1B6
330
1F
100
AcDbEntity
  8
0
  6
Continuous
 62
     7
370
     0
100
AcDbLine
 10
168.2494282511
 20
107.6195446245
 30
0.0
 11
184.2494290111
 21
107.6195446245
 31
0.0
  0
LINE
  5
1B7
330
1F
100
AcDbEntity
  8
0
  6
Continuous
 62
     7
370
     0
100
AcDbLine
 10
184.2494290111
 20
113.6195447931
 30
0.0
 11
184.2494290111
 21
107.6195446245
 31
0.0
  0
LINE
  5
1B8
330
1F
100
AcDbEntity
  8
0
  6
Continuous
 62
     7
370
     0
100
AcDbLine
 10
168.2494282511
 20
113.6195447931
 30
0.0
 11
184.2494290111
 21
113.6195447931
 31
0.0
  0
LINE
  5
1B9
330
1F
100
AcDbEntity
  8
0
  6
Continuous
 62
     7
370
     0
100
AcDbLine
 10
165.7494287727
 20
114.6195448406
 30
0.0
 11
186.7494284895
 21
114.6195448406
 31
0.0
  0
LINE
  5
1BA
330
1F
100
AcDbEntity
  8
0
  6
Continuous
 62
     7
370
     0
100
AcDbLine
 10
165.7494287727
 20
114.6195448406
 30
0.0
 11
165.7494287727
 21
119.6195447289
 31
0.0
  0
LINE
  5
1BB
330
1F
100
AcDbEntity
  8
0
  6
Continuous
 62
     7
370
     0
100
AcDbLine
 10
165.7494287727
 20
119.6195447289
 30
0.0
 11
168.1994283361
 21
119.6195447289
 31
0.0
  0
LINE
  5
1BC
330
1F
100
AcDbEntity
  8
0
  6
Continuous
 62
     7
370
     0
100
AcDbLine
 10
168.1994283361
 20
119.6195447289
 30
0.0
 11
168.1994283361
 21
138.6195450492
 31
0.0
  0
LINE
  5
1BD
330
1F
100
AcDbEntity
  8
0
  6
Continuous
 62
     7
370
     0
100
AcDbLine
 10
169.1994285
 20
139.6195452131
 30
0.0
 11
168.1994283361
 21
138.6195450492
 31
0.0
  0
LINE
  5
1BE
330
1F
100
AcDbEntity
  8
0
  6
Continuous
 62
     7
370
     0
100
AcDbLine
 10
169.1994285
 20
139.6195452131
 30
0.0
 11
183.2994287622
 21
139.6195452131
 31
0.0
  0
LINE
  5
1BF
330
1F
100
AcDbEntity
  8
0
  6
Continuous
 62
     7
370
     0
100
AcDbLine
 10
184.2994289262
 20
138.6195450492
 30
0.0
 11
183.2994287622
 21
139.6195452131
 31
0.0
  0
LINE
  5
1C0
330
1F
100
AcDbEntity
  8
0
  6
Continuous
 62
     7
370
     0
100
AcDbLine
 10
184.2994289262
 20
138.6195450492
 30
0.0
 11
184.2994289262
 21
119.6195447289
 31
0.0
  0
LINE
  5
1C1
330
1F
100
AcDbEntity
  8
0
  6
Continuous
 62
     7
370
     0
100
AcDbLine
 10
184.2994289262
 20
119.6195447289
 30
0.0
 11
186.7494284895
 21
119.6195447289
 31
0.0
  0
LINE
  5
1C2
330
1F
100
AcDbEntity
  8
0
  6
Continuous
 62
     7
370
     0
100
AcDbLine
 10
186.7494284895
 20
114.6195448406
 30
0.0
 11
186.7494284895
 21
119.6195447289
 31
0.0
  0
LINE
  5
1C3
330
1F
100
AcDbEntity
  8
0
  6
Continuous
 62
     7
370
     0
100
AcDbLine
 10
186.7494284895
 20
123.6195444532
 30
0.0
 11
186.7494284895
 21
129.6195445053
 31
0.0
  0
LINE
  5
1C4
330
1F
100
AcDbEntity
  8
0
  6
Continuous
 62
     7
370
     0
100
AcDbLine
 10
186.7494284895
 20
123.6195444532
 30
0.0
 11
184.2994289262
 21
123.6195444532
 31
0.0
  0
LINE
  5
1C5
330
1F
100
AcDbEntity
  8
0
  6
Continuous
 62
     7
370
     0
100
AcDbLine
 10
184.2994289262
 20
129.6195445053
 30
0.0
 11
186.7494284895
 21
129.6195445053
 31
0.0
  0
LINE
  5
1C6
330
1F
100
AcDbEntity
  8
0
  6
Continuous
 62
     7
370
     0
100
AcDbLine
 10
165.7494287727
 20
123.6195444532
 30
0.0
 11
165.7494287727
 21
129.6195445053
 31
0.0
  0
LINE
  5
1C7
330
1F
100
AcDbEntity
  8
0
  6
Continuous
 62
     7
370
     0
100
AcDbLine
 10
168.1994283361
 20
123.6195444532
 30
0.0
 11
165.7494287727
 21
123.6195444532
 31
0.0
  0
LINE
  5
1C8
330
1F
100
AcDbEntity
  8
0
  6
Continuous
 62
     7
370
     0
100
AcDbLine
 10
165.7494287727
 20
129.6195445053
 30
0.0
 11
168.1994283361
 21
129.6195445053
 31
0.0
  0
LINE
  5
1C9
330
1F
100
AcDbEntity
  8
0
  6
Continuous
 62
     7
370
     0
100
AcDbLine
 10
165.7494287727
 20
119.6195447289
 30
0.0
 11
165.7494287727
 21
123.6195444532
 31
0.0
  0
LINE
  5
1CA
330
1F
100
AcDbEntity
  8
0
  6
Continuous
 62
     7
370
     0
100
AcDbLine
 10
186.7494284895
 20
119.6195447289
 30
0.0
 11
186.7494284895
 21
123.6195444532
 31
0.0
  0
SPLINE
  5
1CB
330
1F
100
AcDbEntity
  8
0
  6
Continuous
 62
     8
370
     0
100
AcDbSpline
210
0.0
220
0.0
230
1.0
 70
     8
 71
     3
 72
    19
 73
    15
 74
     0
 42
0.00000001
 43
0.00000001
 12
1.0
 22
0.0
 32
0.0
 13
1.0
 23
0.0
 33
0.0
 40
0.0
 40
0.0
 40
0.0
 40
0.0
 40
0.0844645279500769
 40
0.1557245009929764
 40
0.226821688979351
 40
0.2980815107878308
 40
0.3691787003345471
 40
0.4999999878303014
 40
0.6308212753260557
 40
0.7020811833287816
 40
0.773178460694727
 40
0.8444382825032066
 40
0.915535472049923
 40
0.9999999999999999
 40
0.9999999999999999
 40
0.9999999999999999
 40
0.9999999999999999
 10
168.1994283360645
 20
120.0981565222247
 30
0.0
 10
168.1064023865967
 20
120.1092373275536
 30
0.0
 10
167.9348934714124
 20
120.1296666476757
 30
0.0
 10
167.7136438389499
 20
120.2529440085457
 30
0.0
 10
167.5305320363311
 20
120.4005379828865
 30
0.0
 10
167.3811302936423
 20
120.5837666843742
 30
0.0
 10
167.2424995436228
 20
120.8516860221908
 30
0.0
 10
167.1715224348494
 20
121.2195457357285
 30
0.0
 10
167.2425347382587
 20
121.5875806046693
 30
0.0
 10
167.3812288884535
 20
121.8554807624229
 30
0.0
 10
167.5307843002848
 20
122.0388027540417
 30
0.0
 10
167.7138019406938
 20
122.1862423671621
 30
0.0
 10
167.9350701512519
 20
122.309451163863
 30
0.0
 10
168.106401470405
 20
122.3298546913964
 30
0.0
 10
168.1994283360645
 20
122.3409330874784
 30
0.0
  0
SPLINE
  5
1CC
330
1F
100
AcDbEntity
  8
0
  6
Continuous
 62
     8
370
     0
100
AcDbSpline
210
0.0
220
0.0
230
1.0
 70
     8
 71
     3
 72
    19
 73
    15
 74
     0
 42
0.00000001
 43
0.00000001
 12
1.0
 22
0.0
 32
0.0
 13
1.0
 23
0.0
 33
0.0
 40
0.0
 40
0.0
 40
0.0
 40
0.0
 40
0.0844645279500769
 40
0.1557245009929764
 40
0.226821688979351
 40
0.2980815107878308
 40
0.3691787003345471
 40
0.4999999878303014
 40
0.6308212753260557
 40
0.7020811833287816
 40
0.773178460694727
 40
0.8444382825032066
 40
0.915535472049923
 40
0.9999999999999999
 40
0.9999999999999999
 40
0.9999999999999999
 40
0.9999999999999999
 10
184.2994289261505
 20
122.3409330874784
 30
0.0
 10
184.3924548756183
 20
122.3298522821494
 30
0.0
 10
184.5639637908026
 20
122.3094229620273
 30
0.0
 10
184.7852134232651
 20
122.1861456011573
 30
0.0
 10
184.9683252258839
 20
122.0385516268165
 30
0.0
 10
185.1177269685726
 20
121.8553229253288
 30
0.0
 10
185.2563577185922
 20
121.5874035875122
 30
0.0
 10
185.3273348273656
 20
121.2195438739745
 30
0.0
 10
185.2563225239563
 20
120.8515090050338
 30
0.0
 10
185.1176283737614
 20
120.5836088472801
 30
0.0
 10
184.9680729619301
 20
120.4002868556613
 30
0.0
 10
184.7850553215212
 20
120.252847242541
 30
0.0
 10
184.5637871109631
 20
120.12963844584
 30
0.0
 10
184.39245579181
 20
120.1092349183066
 30
0.0
 10
184.2994289261505
 20
120.0981565222247
 30
0.0
  0
DIMENSION
  5
1CD
330
1F
100
AcDbEntity
  8
0
  6
Continuous
 62
     7
370
     0
100
AcDbDimension
  2
_D_2
 10
168.2494286311
 20
100.0145254111
 30
0.0
 11
158.1701281683
 21
100.0145254111
 31
0.0
 70
   160
  1
<>
 71
     2
 42
-1.0
  3
SLDDIMSTYLE1
100
AcDbAlignedDimension
 13
165.7494286311
 23
114.6195448406
 33
0.0
 14
168.2494286311
 24
107.6195448406
 34
0.0
100
AcDbRotatedDimension
  0
DIMENSION
  5
1D9
330
1F
100
AcDbEntity
  8
0
  6
Continuous
 62
     7
370
     0
100
AcDbDimension
  2
_D_3
 10
184.2494286311
 20
100.0145254111
 30
0.0
 11
176.2494286311
 21
100.0145254111
 31
0.0
 70
   160
  1
<>
 71
     2
 42
-1.0
  3
SLDDIMSTYLE0
100
AcDbAlignedDimension
 13
168.2494286311
 23
107.6195448406
 33
0.0
 14
184.2494286311
 24
107.6195448406
 34
0.0
100
AcDbRotatedDimension
  0
DIMENSION
  5
1E3
330
1F
100
AcDbEntity
  8
0
  6
Continuous
 62
     7
370
     0
100
AcDbDimension
  2
_D_4
 10
186.7494286311
 20
149.6195448406
 30
0.0
 11
176.2494286311
 21
149.6195448406
 31
0.0
 70
   160
  1
<>
 71
     2
 42
-1.0
  3
SLDDIMSTYLE0
100
AcDbAlignedDimension
 13
165.7494286311
 23
119.6195448406
 33
0.0
 14
186.7494286311
 24
119.6195448406
 34
0.0
100
AcDbRotatedDimension
  0
LINE
  5
1ED
330
1F
100
AcDbEntity
  8
0
  6
Continuous
 62
     7
370
     0
100
AcDbLine
 10
95.4707799674
 20
195.6979488359
 30
0.0
 11
85.4707783283
 21
195.6979488359
 31
0.0
  0
LINE
  5
1EE
330
1F
100
AcDbEntity
  8
0
  6
Continuous
 62
     7
370
     0
100
AcDbLine
 10
85.4707783283
 20
192.7979487563
 30
0.0
 11
95.4707799674
 21
192.7979487563
 31
0.0
  0
SPLINE
  5
1EF
330
1F
100
AcDbEntity
  8
0
  6
Continuous
 62
     7
370
     0
100
AcDbSpline
210
0.0
220
0.0
230
1.0
 70
     8
 71
     3
 72
    20
 73
    16
 74
     0
 42
0.00000001
 43
0.00000001
 12
1.0
 22
0.0
 32
0.0
 13
1.0
 23
0.0
 33
0.0
 40
0.0
 40
0.0
 40
0.0
 40
0.0
 40
0.1160628118397627
 40
0.221118419621224
 40
0.3111242298954621
 40
0.3855009676453524
 40
0.4531348641570855
 40
0.5179411057181231
 40
0.5789825252365421
 40
0.6483920076366063
 40
0.7309385696998978
 40
0.8239600586043783
 40
0.909761473038608
 40
0.9751767529816389
 40
1.0
 40
1.0
 40
1.0
 40
1.0
 10
64.69885718164723
 20
190.8788421760138
 30
0.0
 10
64.74318303631982
 20
190.9979251128858
 30
0.0
 10
64.82763095532331
 20
191.2247973589362
 30
0.0
 10
64.94957780174113
 20
191.8384277370716
 30
0.0
 10
65.05166170816811
 20
192.4899933709516
 30
0.0
 10
65.13124148064419
 20
193.1243149878988
 30
0.0
 10
65.20045657575218
 20
193.724338113801
 30
0.0
 10
65.27185088288697
 20
194.2970480125847
 30
0.0
 10
65.34549581464238
 20
194.8691038306519
 30
0.0
 10
65.426149371476
 20
195.4680356698771
 30
0.0
 10
65.51483593849495
 20
196.0935503869449
 30
0.0
 10
65.60027139269056
 20
196.650776086926
 30
0.0
 10
65.68052484222787
 20
197.0089785903626
 30
0.0
 10
65.7479266760871
 20
197.1671825221025
 30
0.0
 10
65.74214379041275
 20
197.1695762029345
 30
0.0
 10
65.7405530064715
 20
197.1702346681442
 30
0.0
  0
SPLINE
  5
1F0
330
1F
100
AcDbEntity
  8
0
  6
Continuous
 62
     7
370
     0
100
AcDbSpline
210
0.0
220
0.0
230
1.0
 70
     8
 71
     3
 72
    23
 73
    19
 74
     0
 42
0.00000001
 43
0.00000001
 12
1.0
 22
0.0
 32
0.0
 13
1.0
 23
0.0
 33
0.0
 40
0.0
 40
0.0
 40
0.0
 40
0.0
 40
0.0692773803870213
 40
0.1519330510564167
 40
0.2214919703972568
 40
0.279667591783817
 40
0.3330823261558613
 40
0.3930645949495171
 40
0.4597072262467242
 40
0.5303459403390347
 40
0.5936142998374139
 40
0.649121665686658
 40
0.6990015278497541
 40
0.7599641839907274
 40
0.8052437333636491
 40
0.8617908981921628
 40
0.9285759145029261
 40
1.0
 40
1.0
 40
1.0
 40
1.0
 10
65.62943830707799
 20
196.7496535843994
 30
0.0
 10
65.65572936247244
 20
196.6275293852282
 30
0.0
 10
65.71338859033668
 20
196.3596973441745
 30
0.0
 10
65.80011711652864
 20
195.8035476601972
 30
0.0
 10
65.87545590847391
 20
195.219348885664
 30
0.0
 10
65.93763372060371
 20
194.6786283630273
 30
0.0
 10
66.00246506640636
 20
194.1538547111629
 30
0.0
 10
66.0725364547474
 20
193.6017245030665
 30
0.0
 10
66.15026092950119
 20
193.0131921086337
 30
0.0
 10
66.2276814296385
 20
192.4540420543122
 30
0.0
 10
66.2954935000333
 20
191.9812530507808
 30
0.0
 10
66.35440224650343
 20
191.612394484018
 30
0.0
 10
66.41725690968062
 20
191.3112796121601
 30
0.0
 10
66.48505091718816
 20
191.0567328934546
 30
0.0
 10
66.5940700897248
 20
190.8228672059985
 30
0.0
 10
66.76010780756813
 20
190.6523246638764
 30
0.0
 10
67.02390228765776
 20
190.6280480159066
 30
0.0
 10
67.1392482751924
 20
190.7933941428853
 30
0.0
 10
67.19885709666404
 20
190.8788421760138
 30
0.0
  0
SPLINE
  5
1F1
330
1F
100
AcDbEntity
  8
0
  6
Continuous
 62
     7
370
     0
100
AcDbSpline
210
0.0
220
0.0
230
1.0
 70
     8
 71
     3
 72
    19
 73
    15
 74
     0
 42
0.00000001
 43
0.00000001
 12
1.0
 22
0.0
 32
0.0
 13
1.0
 23
0.0
 33
0.0
 40
0.0
 40
0.0
 40
0.0
 40
0.0
 40
0.0379036718414871
 40
0.1244341686621826
 40
0.2205729179285927
 40
0.3224764238448669
 40
0.4137474419655722
 40
0.4938224423661491
 40
0.5657791984035112
 40
0.6537240120343252
 40
0.7190443486621675
 40
0.8006193615713447
 40
0.8969635103335318
 40
1.0
 40
1.0
 40
1.0
 40
1.0
 10
63.47077891317884
 20
194.4140026507258
 30
0.0
 10
63.48055370068933
 20
194.3339882626134
 30
0.0
 10
63.51264340331243
 20
194.0713085964476
 30
0.0
 10
63.57268761476609
 20
193.6014550938991
 30
0.0
 10
63.65021551751665
 20
193.0132728056975
 30
0.0
 10
63.72769262890028
 20
192.454022371746
 30
0.0
 10
63.79549094283969
 20
191.9812574033858
 30
0.0
 10
63.85440275767041
 20
191.6123935136702
 30
0.0
 10
63.91725661324078
 20
191.3112799157043
 30
0.0
 10
63.98505113624975
 20
191.0567328410793
 30
0.0
 10
64.09407010438363
 20
190.8228672245896
 30
0.0
 10
64.26010782888577
 20
190.652324656741
 30
0.0
 10
64.52390214263559
 20
190.6280480264231
 30
0.0
 10
64.63924827925877
 20
190.7933941428105
 30
0.0
 10
64.69885718164723
 20
190.8788421760138
 30
0.0
  0
LWPOLYLINE
  5
1F2
330
1F
100
AcDbEntity
  8
0
  6
Continuous
 62
     7
370
     0
100
AcDbPolyline
 90
       34
 70
   128
 43
0.0
 10
66.8805212327
 20
191.5445615641
 10
66.8235391923
 20
191.8261800065
 10
66.7350116264
 20
192.4154444468
 10
66.6501399092
 20
193.0227957536
 10
66.5774060608
 20
193.5690418222
 10
66.5099189928
 20
194.0966203737
 10
66.4407045543
 20
194.6597160176
 10
66.3732033418
 20
195.2312698458
 10
66.2991973068
 20
195.7996724277
 10
66.2214877512
 20
196.304908638
 10
66.1446151053
 20
196.7230075142
 10
66.071852968
 20
197.0455068267
 10
65.9968337705
 20
197.2986098016
 10
65.8917862884
 20
197.5086677457
 10
65.6849655052
 20
197.6437409512
 10
65.5357428323
 20
197.6265745806
 10
65.3499599276
 20
197.4664532217
 10
65.2505286699
 20
197.2623941592
 10
65.1757935257
 20
197.0082481029
 10
65.116066412
 20
196.7319184086
 10
65.055876431
 20
196.3763508583
 10
64.9898410038
 20
195.9244511426
 10
64.9117123531
 20
195.3625791111
 10
64.835356242
 20
194.7889257908
 10
64.7675410574
 20
194.2599200383
 10
64.7102575013
 20
193.7980212724
 10
64.6433384818
 20
193.2382833665
 10
64.5999469989
 20
192.8797776681
 10
64.5449295835
 20
192.4736919218
 10
64.4782634181
 20
192.0454445398
 10
64.402174131
 20
191.6357983473
 10
64.3219569893
 20
191.2977936781
 10
64.2460439549
 20
191.0854707575
 10
64.2460439549
 20
191.0854707575
  0
SPLINE
  5
1F3
330
1F
100
AcDbEntity
  8
0
  6
Continuous
 62
     7
370
     0
100
AcDbSpline
210
0.0
220
0.0
230
1.0
 70
     8
 71
     3
 72
    20
 73
    16
 74
     0
 42
0.00000001
 43
0.00000001
 12
1.0
 22
0.0
 32
0.0
 13
1.0
 23
0.0
 33
0.0
 40
0.0
 40
0.0
 40
0.0
 40
0.0
 40
0.0678823074714073
 40
0.1744692299978412
 40
0.2684403335479289
 40
0.3465539037494654
 40
0.4195011674288295
 40
0.4970326404352766
 40
0.577790680648092
 40
0.6634235735419513
 40
0.748139626590122
 40
0.8298145504305323
 40
0.9071136580524574
 40
0.981571030447074
 40
0.9999999999999999
 40
0.9999999999999999
 40
0.9999999999999999
 40
0.9999999999999999
 10
64.38052111392598
 20
191.5445615640666
 30
0.0
 10
64.3613959407299
 20
191.6328786186564
 30
0.0
 10
64.31224094931338
 20
191.8598686707618
 30
0.0
 10
64.24060974167713
 20
192.3785199734578
 30
0.0
 10
64.1552689560066
 20
192.9786771134061
 30
0.0
 10
64.07892704622938
 20
193.5539807909942
 30
0.0
 10
64.00820891498209
 20
194.1072747934511
 30
0.0
 10
63.93858134957932
 20
194.6698558097825
 30
0.0
 10
63.87253088095768
 20
195.2485922125907
 30
0.0
 10
63.80038664412696
 20
195.807498363635
 30
0.0
 10
63.72255767486144
 20
196.310679878055
 30
0.0
 10
63.64656311221509
 20
196.7303111429682
 30
0.0
 10
63.57052250872842
 20
197.0497294401664
 30
0.0
 10
63.52483652818351
 20
197.2475452635366
 30
0.0
 10
63.47972850086446
 20
197.333630284937
 30
0.0
 10
63.47077891317884
 20
197.3507098491128
 30
0.0
  0
SPLINE
  5
1F4
330
1F
100
AcDbEntity
  8
0
  6
Continuous
 62
     7
370
     0
100
AcDbSpline
210
0.0
220
0.0
230
1.0
 70
     8
 71
     3
 72
    18
 73
    14
 74
     0
 42
0.00000001
 43
0.00000001
 12
1.0
 22
0.0
 32
0.0
 13
1.0
 23
0.0
 33
0.0
 40
0.0
 40
0.0
 40
0.0
 40
0.0
 40
0.0789413425292553
 40
0.178034001532401
 40
0.2663484637963993
 40
0.3430573152518034
 40
0.4379613401829809
 40
0.501569692972681
 40
0.5782651577021883
 40
0.6680290814235668
 40
0.7699097815007471
 40
0.8817289914218874
 40
1.0
 40
1.0
 40
1.0
 40
1.0
 10
67.47077910316865
 20
195.7873648834239
 30
0.0
 10
67.45122956614966
 20
195.6480166465896
 30
0.0
 10
67.40714009171101
 20
195.3337488191719
 30
0.0
 10
67.3379978607655
 20
194.8122925136005
 30
0.0
 10
67.27022267757492
 20
194.283788605675
 30
0.0
 10
67.20515306784391
 20
193.7601168421866
 30
0.0
 10
67.15003738436396
 20
193.2947739546594
 30
0.0
 10
67.09754989057896
 20
192.8519029220824
 30
0.0
 10
67.04203500001282
 20
192.4445041802992
 30
0.0
 10
66.9753195357324
 20
192.0152483716498
 30
0.0
 10
66.8993762122735
 20
191.6078535911813
 30
0.0
 10
66.81842240765226
 20
191.2619924040527
 30
0.0
 10
66.77061701087396
 20
191.1454010584524
 30
0.0
 10
66.74604407366122
 20
191.0854707575228
 30
0.0
  0
SPLINE
  5
1F5
330
1F
100
AcDbEntity
  8
0
  6
Continuous
 62
     7
370
     0
100
AcDbSpline
210
0.0
220
0.0
230
1.0
 70
     8
 71
     3
 72
    10
 73
     6
 74
     0
 42
0.00000001
 43
0.00000001
 12
1.0
 22
0.0
 32
0.0
 13
1.0
 23
0.0
 33
0.0
 40
0.0
 40
0.0
 40
0.0
 40
0.0
 40
0.4930376752499552
 40
0.939316466629822
 40
1.0
 40
1.0
 40
1.0
 40
1.0
 10
67.19885709666404
 20
190.8788421760138
 30
0.0
 10
67.24303428825412
 20
191.000515847589
 30
0.0
 10
67.32719897909439
 20
191.232323859437
 30
0.0
 10
67.42088896989362
 20
191.6718321266255
 30
0.0
 10
67.46544565534352
 20
191.9617976145718
 30
0.0
 10
67.47077910316865
 20
191.9965065653261
 30
0.0
  0
LINE
  5
1F6
330
1F
100
AcDbEntity
  8
0
  6
Continuous
 62
     7
370
     0
100
AcDbLine
 10
96.4707782687
 20
191.4979488692
 30
0.0
 11
97.0707791121
 21
191.4979488692
 31
0.0
  0
LINE
  5
1F7
330
1F
100
AcDbEntity
  8
0
  6
Continuous
 62
     7
370
     0
100
AcDbLine
 10
97.0707791121
 20
196.9979488394
 30
0.0
 11
96.4707782687
 21
196.9979488394
 31
0.0
  0
LINE
  5
1F8
330
1F
100
AcDbEntity
  8
0
  6
Continuous
 62
     7
370
     0
100
AcDbLine
 10
97.0707791121
 20
194.2479487888
 30
0.0
 11
97.0707791121
 21
191.4979488692
 31
0.0
  0
LINE
  5
1F9
330
1F
100
AcDbEntity
  8
0
  6
Continuous
 62
     7
370
     0
100
AcDbLine
 10
96.4707782687
 20
196.9979488394
 30
0.0
 11
96.4707782687
 21
191.4979488692
 31
0.0
  0
LINE
  5
1FA
330
1F
100
AcDbEntity
  8
0
  6
Continuous
 62
     7
370
     0
100
AcDbLine
 10
115.4707795204
 20
191.4979488692
 30
0.0
 11
115.4707795204
 21
196.9979488394
 31
0.0
  0
LINE
  5
1FB
330
1F
100
AcDbEntity
  8
0
  6
Continuous
 62
     7
370
     0
100
AcDbLine
 10
102.3707775594
 20
191.4979488692
 30
0.0
 11
115.4707795204
 21
191.4979488692
 31
0.0
  0
CIRCLE
  5
1FC
330
1F
100
AcDbEntity
  8
0
  6
Continuous
 62
     7
370
     0
100
AcDbCircle
 10
105.0707791032
 20
195.2479487913
 30
0.0
 40
0.5
  0
LINE
  5
1FD
330
1F
100
AcDbEntity
  8
0
  6
Continuous
 62
     7
370
     0
100
AcDbLine
 10
102.3707775594
 20
191.4979488692
 30
0.0
 11
102.3707775594
 21
194.2479487888
 31
0.0
  0
LINE
  5
1FE
330
1F
100
AcDbEntity
  8
0
  6
Continuous
 62
     7
370
     0
100
AcDbLine
 10
115.4707795204
 20
196.9979488394
 30
0.0
 11
102.3707775594
 21
196.9979488394
 31
0.0
  0
CIRCLE
  5
1FF
330
1F
100
AcDbEntity
  8
0
  6
Continuous
 62
     7
370
     0
100
AcDbCircle
 10
105.0707791032
 20
195.2479487913
 30
0.0
 40
0.3999999999999915
  0
LINE
  5
200
330
1F
100
AcDbEntity
  8
0
  6
Continuous
 62
     7
370
     0
100
AcDbLine
 10
97.0707791121
 20
191.4979488692
 30
0.0
 11
102.3707775594
 21
191.4979488692
 31
0.0
  0
LINE
  5
201
330
1F
100
AcDbEntity
  8
0
  6
Continuous
 62
     7
370
     0
100
AcDbLine
 10
95.4707799674
 20
192.2479487593
 30
0.0
 11
96.4707782687
 21
192.2479487593
 31
0.0
  0
LINE
  5
202
330
1F
100
AcDbEntity
  8
0
  6
Continuous
 62
     7
370
     0
100
AcDbLine
 10
95.4707799674
 20
196.2479487165
 30
0.0
 11
96.4707782687
 21
196.2479487165
 31
0.0
  0
LINE
  5
203
330
1F
100
AcDbEntity
  8
0
  6
Continuous
 62
     7
370
     0
100
AcDbLine
 10
95.4707799674
 20
192.2479487593
 30
0.0
 11
95.4707799674
 21
196.2479487165
 31
0.0
  0
LINE
  5
204
330
1F
100
AcDbEntity
  8
0
  6
Continuous
 62
     7
370
     0
100
AcDbLine
 10
85.4707783283
 20
194.2479487888
 30
0.0
 11
85.4707783283
 21
195.6979488359
 31
0.0
  0
LINE
  5
205
330
1F
100
AcDbEntity
  8
0
  6
Continuous
 62
     7
370
     0
100
AcDbLine
 10
85.4707783283
 20
192.7979487563
 30
0.0
 11
85.4707783283
 21
194.2479487888
 31
0.0
  0
LINE
  5
206
330
1F
100
AcDbEntity
  8
0
  6
Continuous
 62
     7
370
     0
100
AcDbLine
 10
97.0707791121
 20
194.2479487888
 30
0.0
 11
98.5207794429
 21
194.2479487888
 31
0.0
  0
LINE
  5
207
330
1F
100
AcDbEntity
  8
0
  6
Continuous
 62
     7
370
     0
100
AcDbLine
 10
97.0707791121
 20
197.4479487735
 30
0.0
 11
97.0707791121
 21
194.2479487888
 31
0.0
  0
LINE
  5
208
330
1F
100
AcDbEntity
  8
0
  6
Continuous
 62
     7
370
     0
100
AcDbLine
 10
102.3707775594
 20
197.4479487735
 30
0.0
 11
102.3707775594
 21
194.2479487888
 31
0.0
  0
LINE
  5
209
330
1F
100
AcDbEntity
  8
0
  6
Continuous
 62
     7
370
     0
100
AcDbLine
 10
100.9207790912
 20
194.2479487888
 30
0.0
 11
102.3707775594
 21
194.2479487888
 31
0.0
  0
ARC
  5
20A
330
1F
100
AcDbEntity
  8
0
  6
Continuous
 62
     7
370
     0
100
AcDbCircle
 10
99.7207791032
 20
194.2479487913
 30
0.0
 40
1.200000000000003
100
AcDbArc
 50
0.0
 51
180.0
  0
LINE
  5
20B
330
1F
100
AcDbEntity
  8
0
  6
Continuous
 62
     7
370
     0
100
AcDbLine
 10
97.0707791121
 20
197.4479487735
 30
0.0
 11
102.3707775594
 21
197.4479487735
 31
0.0
  0
LINE
  5
20C
330
1F
100
AcDbEntity
  8
0
  6
Continuous
 62
     7
370
     0
100
AcDbLine
 10
104.3707778872
 20
197.0479487545
 30
0.0
 11
104.3707778872
 21
197.4479487735
 31
0.0
  0
LINE
  5
20D
330
1F
100
AcDbEntity
  8
0
  6
Continuous
 62
     7
370
     0
100
AcDbLine
 10
102.3707775594
 20
197.0479487545
 30
0.0
 11
104.3707778872
 21
197.0479487545
 31
0.0
  0
LINE
  5
20E
330
1F
100
AcDbEntity
  8
0
  6
Continuous
 62
     7
370
     0
100
AcDbLine
 10
104.3707778872
 20
197.4479487735
 30
0.0
 11
102.3707775594
 21
197.4479487735
 31
0.0
  0
LINE
  5
20F
330
1F
100
AcDbEntity
  8
0
  6
Continuous
 62
     7
370
     0
100
AcDbLine
 10
99.0707775773
 20
191.4479487213
 30
0.0
 11
99.0707775773
 21
191.0479487023
 31
0.0
  0
LINE
  5
210
330
1F
100
AcDbEntity
  8
0
  6
Continuous
 62
     7
370
     0
100
AcDbLine
 10
99.0707775773
 20
191.0479487023
 30
0.0
 11
97.0707791121
 21
191.0479487023
 31
0.0
  0
LINE
  5
211
330
1F
100
AcDbEntity
  8
0
  6
Continuous
 62
     7
370
     0
100
AcDbLine
 10
97.0707791121
 20
191.0479487023
 30
0.0
 11
97.0707791121
 21
191.4479487213
 31
0.0
  0
LINE
  5
212
330
1F
100
AcDbEntity
  8
0
  6
Continuous
 62
     7
370
     0
100
AcDbLine
 10
97.0707791121
 20
191.4479487213
 30
0.0
 11
99.0707775773
 21
191.4479487213
 31
0.0
  0
LINE
  5
213
330
1F
100
AcDbEntity
  8
0
  6
Continuous
 62
     7
370
     0
100
AcDbLine
 10
106.8707792283
 20
197.4479487735
 30
0.0
 11
108.8707795562
 21
197.4479487735
 31
0.0
  0
LINE
  5
214
330
1F
100
AcDbEntity
  8
0
  6
Continuous
 62
     7
370
     0
100
AcDbLine
 10
108.8707795562
 20
197.4479487735
 30
0.0
 11
108.8707795562
 21
197.0479487545
 31
0.0
  0
LINE
  5
215
330
1F
100
AcDbEntity
  8
0
  6
Continuous
 62
     7
370
     0
100
AcDbLine
 10
108.8707795562
 20
197.0479487545
 30
0.0
 11
106.8707792283
 21
197.0479487545
 31
0.0
  0
LINE
  5
216
330
1F
100
AcDbEntity
  8
0
  6
Continuous
 62
     7
370
     0
100
AcDbLine
 10
106.8707792283
 20
197.0479487545
 30
0.0
 11
106.8707792283
 21
197.4479487735
 31
0.0
  0
LINE
  5
217
330
1F
100
AcDbEntity
  8
0
  6
Continuous
 62
     7
370
     0
100
AcDbLine
 10
108.8707795562
 20
191.4479487213
 30
0.0
 11
108.8707795562
 21
191.0479487023
 31
0.0
  0
LINE
  5
218
330
1F
100
AcDbEntity
  8
0
  6
Continuous
 62
     7
370
     0
100
AcDbLine
 10
108.8707795562
 20
191.0479487023
 30
0.0
 11
106.8707792283
 21
191.0479487023
 31
0.0
  0
LINE
  5
219
330
1F
100
AcDbEntity
  8
0
  6
Continuous
 62
     7
370
     0
100
AcDbLine
 10
106.8707792283
 20
191.0479487023
 30
0.0
 11
106.8707792283
 21
191.4479487213
 31
0.0
  0
LINE
  5
21A
330
1F
100
AcDbEntity
  8
0
  6
Continuous
 62
     7
370
     0
100
AcDbLine
 10
106.8707792283
 20
191.4479487213
 30
0.0
 11
108.8707795562
 21
191.4479487213
 31
0.0
  0
LINE
  5
21B
330
1F
100
AcDbEntity
  8
0
  6
Continuous
 62
     7
370
     0
100
AcDbLine
 10
108.8707795562
 20
197.0479487545
 30
0.0
 11
110.3707788707
 21
197.0479487545
 31
0.0
  0
LINE
  5
21C
330
1F
100
AcDbEntity
  8
0
  6
Continuous
 62
     7
370
     0
100
AcDbLine
 10
110.3707788707
 20
197.0479487545
 30
0.0
 11
110.3707788707
 21
196.9979488394
 31
0.0
  0
LINE
  5
21D
330
1F
100
AcDbEntity
  8
0
  6
Continuous
 62
     7
370
     0
100
AcDbLine
 10
110.3707788707
 20
191.4979488692
 30
0.0
 11
110.3707788707
 21
191.4479487213
 31
0.0
  0
LINE
  5
21E
330
1F
100
AcDbEntity
  8
0
  6
Continuous
 62
     7
370
     0
100
AcDbLine
 10
110.3707788707
 20
191.4479487213
 30
0.0
 11
108.8707795562
 21
191.4479487213
 31
0.0
  0
LINE
  5
21F
330
1F
100
AcDbEntity
  8
0
  6
Continuous
 62
     7
370
     0
100
AcDbLine
 10
106.8707792283
 20
191.4479487213
 30
0.0
 11
99.0707775773
 21
191.4479487213
 31
0.0
  0
LINE
  5
220
330
1F
100
AcDbEntity
  8
0
  6
Continuous
 62
     7
370
     0
100
AcDbLine
 10
97.0707791121
 20
191.4479487213
 30
0.0
 11
96.3707784386
 21
191.4479487213
 31
0.0
  0
LINE
  5
221
330
1F
100
AcDbEntity
  8
0
  6
Continuous
 62
     7
370
     0
100
AcDbLine
 10
96.3707784386
 20
191.4479487213
 30
0.0
 11
95.3707782747
 21
188.6479488212
 31
0.0
  0
LINE
  5
222
330
1F
100
AcDbEntity
  8
0
  6
Continuous
 62
     7
370
     0
100
AcDbLine
 10
95.3707782747
 20
192.7979487563
 30
0.0
 11
95.3707782747
 21
188.6479488212
 31
0.0
  0
LINE
  5
223
330
1F
100
AcDbEntity
  8
0
  6
Continuous
 62
     7
370
     0
100
AcDbLine
 10
96.0374450506
 20
196.2479487165
 30
0.0
 11
96.3707784386
 21
197.0479487545
 31
0.0
  0
LINE
  5
224
330
1F
100
AcDbEntity
  8
0
  6
Continuous
 62
     7
370
     0
100
AcDbLine
 10
96.3707784386
 20
197.0479487545
 30
0.0
 11
97.0707791121
 21
197.0479487545
 31
0.0
  0
LINE
  5
225
330
1F
100
AcDbEntity
  8
0
  6
Continuous
 62
     7
370
     0
100
AcDbLine
 10
104.3707778872
 20
197.0479487545
 30
0.0
 11
106.8707792283
 21
197.0479487545
 31
0.0
  0
LINE
  5
226
330
1F
100
AcDbEntity
  8
0
  6
Continuous
 62
     7
370
     0
100
AcDbLine
 10
90.3707793177
 20
192.6479487783
 30
0.0
 11
93.1707782866
 21
192.6479487783
 31
0.0
  0
LINE
  5
227
330
1F
100
AcDbEntity
  8
0
  6
Continuous
 62
     7
370
     0
100
AcDbLine
 10
90.3707793177
 20
192.7979487563
 30
0.0
 11
90.3707793177
 21
192.6479487783
 31
0.0
  0
LINE
  5
228
330
1F
100
AcDbEntity
  8
0
  6
Continuous
 62
     7
370
     0
100
AcDbLine
 10
90.3707793177
 20
188.6479488212
 30
0.0
 11
95.3707782747
 21
188.6479488212
 31
0.0
  0
LINE
  5
229
330
1F
100
AcDbEntity
  8
0
  6
Continuous
 62
     7
370
     0
100
AcDbLine
 10
90.3707793177
 20
189.6479489851
 30
0.0
 11
90.3707793177
 21
188.6479488212
 31
0.0
  0
LINE
  5
22A
330
1F
100
AcDbEntity
  8
0
  6
Continuous
 62
     7
370
     0
100
AcDbLine
 10
93.1707782866
 20
189.6479489851
 30
0.0
 11
90.3707793177
 21
189.6479489851
 31
0.0
  0
ARC
  5
22B
330
1F
100
AcDbEntity
  8
0
  6
Continuous
 62
     7
370
     0
100
AcDbCircle
 10
93.1707791032
 20
191.1479487913
 30
0.0
 40
1.500000000000028
100
AcDbArc
 50
270.0
 51
90.0
  0
CIRCLE
  5
22C
330
1F
100
AcDbEntity
  8
0
  6
Continuous
 62
     7
370
     0
100
AcDbCircle
 10
100.1707791032
 20
201.6479487913
 30
0.0
 40
1.499900000035623
  0
CIRCLE
  5
22D
330
1F
100
AcDbEntity
  8
0
  6
Continuous
 62
     7
370
     0
100
AcDbCircle
 10
90.1707791032
 20
201.6479487913
 30
0.0
 40
1.499899999987889
  0
CIRCLE
  5
22E
330
1F
100
AcDbEntity
  8
0
  6
Continuous
 62
     7
370
     0
100
AcDbCircle
 10
100.1707791032
 20
186.6479487913
 30
0.0
 40
1.499900000035638
  0
CIRCLE
  5
22F
330
1F
100
AcDbEntity
  8
0
  6
Continuous
 62
     7
370
     0
100
AcDbCircle
 10
90.1707791032
 20
186.6479487913
 30
0.0
 40
1.499899999987903
  0
CIRCLE
  5
230
330
1F
100
AcDbEntity
  8
0
  6
Continuous
 62
     7
370
     0
100
AcDbCircle
 10
90.1707791032
 20
201.6479487913
 30
0.0
 40
1.224999999956623
  0
CIRCLE
  5
231
330
1F
100
AcDbEntity
  8
0
  6
Continuous
 62
     7
370
     0
100
AcDbCircle
 10
100.1707791032
 20
201.6479487913
 30
0.0
 40
1.225000000004357
  0
CIRCLE
  5
232
330
1F
100
AcDbEntity
  8
0
  6
Continuous
 62
     7
370
     0
100
AcDbCircle
 10
100.1707791032
 20
186.6479487913
 30
0.0
 40
1.225000000004357
  0
CIRCLE
  5
233
330
1F
100
AcDbEntity
  8
0
  6
Continuous
 62
     7
370
     0
100
AcDbCircle
 10
90.1707791032
 20
186.6479487913
 30
0.0
 40
1.224999999956623
  0
LINE
  5
234
330
1F
100
AcDbEntity
  8
0
  6
Continuous
 62
     7
370
     0
100
AcDbLine
 10
63.4707789132
 20
186.1479484114
 30
0.0
 11
63.4707789132
 21
202.1479491713
 31
0.0
  0
LINE
  5
235
330
1F
100
AcDbEntity
  8
0
  6
Continuous
 62
     7
370
     0
100
AcDbLine
 10
63.4707789132
 20
186.1479484114
 30
0.0
 11
42.4707787306
 21
186.1479484114
 31
0.0
  0
LINE
  5
236
330
1F
100
AcDbEntity
  8
0
  6
Continuous
 62
     7
370
     0
100
AcDbLine
 10
42.4707787306
 20
186.1479484114
 30
0.0
 11
42.4707787306
 21
202.1479491713
 31
0.0
  0
LINE
  5
237
330
1F
100
AcDbEntity
  8
0
  6
Continuous
 62
     7
370
     0
100
AcDbLine
 10
63.4707789132
 20
202.1479491713
 30
0.0
 11
42.4707787306
 21
202.1479491713
 31
0.0
  0
CIRCLE
  5
238
330
1F
100
AcDbEntity
  8
0
  6
Continuous
 62
     7
370
     0
100
AcDbCircle
 10
48.9707791032
 20
194.1479487913
 30
0.0
 40
5.500000000000028
  0
CIRCLE
  5
239
330
1F
100
AcDbEntity
  8
0
  6
Continuous
 62
     7
370
     0
100
AcDbCircle
 10
48.9707791032
 20
194.1479487913
 30
0.0
 40
3.25
  0
LINE
  5
23A
330
1F
100
AcDbEntity
  8
0
  6
Continuous
 62
     7
370
     0
100
AcDbLine
 10
29.4707803251
 20
186.1479484114
 30
0.0
 11
42.4707787306
 21
186.1479484114
 31
0.0
  0
LINE
  5
23B
330
1F
100
AcDbEntity
  8
0
  6
Continuous
 62
     7
370
     0
100
AcDbLine
 10
29.4707803251
 20
202.1479491713
 30
0.0
 11
29.4707803251
 21
186.1479484114
 31
0.0
  0
LINE
  5
23C
330
1F
100
AcDbEntity
  8
0
  6
Continuous
 62
     7
370
     0
100
AcDbLine
 10
42.4707787306
 20
202.1479491713
 30
0.0
 11
29.4707803251
 21
202.1479491713
 31
0.0
  0
CIRCLE
  5
23D
330
1F
100
AcDbEntity
  8
0
  6
Continuous
 62
     7
370
     0
100
AcDbCircle
 10
34.4707791032
 20
194.1479487913
 30
0.0
 40
3.249999999999993
  0
ARC
  5
23E
330
1F
100
AcDbEntity
  8
0
  6
Continuous
 62
     7
370
     0
100
AcDbCircle
 10
64.4707791032
 20
194.1479487913
 30
0.0
 40
6.799999999999988
100
AcDbArc
 50
63.821031296
 51
98.4565193353
  0
ARC
  5
23F
330
1F
100
AcDbEntity
  8
0
  6
Continuous
 62
     7
370
     0
100
AcDbCircle
 10
64.4707791032
 20
194.1479487913
 30
0.0
 40
6.800000000000016
100
AcDbArc
 50
261.5434806647
 51
296.178968704
  0
LINE
  5
240
330
1F
100
AcDbEntity
  8
0
  6
Continuous
 62
     7
370
     0
100
AcDbLine
 10
63.4707789132
 20
186.1479484114
 30
0.0
 11
67.4707791032
 21
186.1479484114
 31
0.0
  0
LINE
  5
241
330
1F
100
AcDbEntity
  8
0
  6
Continuous
 62
     7
370
     0
100
AcDbLine
 10
67.4707791032
 20
202.1479491713
 30
0.0
 11
63.4707789132
 21
202.1479491713
 31
0.0
  0
ARC
  5
242
330
1F
100
AcDbEntity
  8
0
  6
Continuous
 62
     7
370
     0
100
AcDbCircle
 10
64.4707791032
 20
194.1479487913
 30
0.0
 40
3.299999999999987
100
AcDbArc
 50
24.8403038897
 51
60.8188576809
  0
ARC
  5
243
330
1F
100
AcDbEntity
  8
0
  6
Continuous
 62
     7
370
     0
100
AcDbCircle
 10
64.4707791032
 20
194.1479487913
 30
0.0
 40
3.299999999999983
100
AcDbArc
 50
75.7011828566
 51
107.2143349524
  0
LWPOLYLINE
  5
244
330
1F
100
AcDbEntity
  8
0
  6
Continuous
 62
     7
370
     0
100
AcDbPolyline
 90
        3
 70
   128
 43
0.0
 10
63.4707789132
 20
191.0031118068
 10
63.736460098
 20
190.9306865754
 10
64.0687911501
 20
190.8725243165
  0
ARC
  5
245
330
1F
100
AcDbEntity
  8
0
  6
Continuous
 62
     7
370
     0
100
AcDbCircle
 10
64.4707791032
 20
194.1479487913
 30
0.0
 40
3.299999999999983
100
AcDbArc
 50
272.8600844071
 51
305.865941628
  0
LWPOLYLINE
  5
246
330
1F
100
AcDbEntity
  8
0
  6
Continuous
 62
     7
370
     0
100
AcDbPolyline
 90
        3
 70
   128
 43
0.0
 10
66.8398314583
 20
191.850647946
 10
66.9559149383
 20
191.9767508852
 10
66.9783617914
 20
192.0027147616
  0
CIRCLE
  5
247
330
1F
100
AcDbEntity
  8
0
  6
Continuous
 62
     7
370
     0
100
AcDbCircle
 10
48.9707791032
 20
194.1479487913
 30
0.0
 40
2.499999999999986
  0
LINE
  5
248
330
1F
100
AcDbEntity
  8
0
  6
Continuous
 62
     7
370
     0
100
AcDbLine
 10
119.4207793297
 20
186.0979484963
 30
0.0
 11
119.4207793297
 21
202.1979490864
 31
0.0
  0
LINE
  5
249
330
1F
100
AcDbEntity
  8
0
  6
Continuous
 62
     7
370
     0
100
AcDbLine
 10
119.4207793297
 20
202.1979490864
 30
0.0
 11
120.4207776309
 21
201.1979489225
 31
0.0
  0
LINE
  5
24A
330
1F
100
AcDbEntity
  8
0
  6
Continuous
 62
     7
370
     0
100
AcDbLine
 10
120.4207776309
 20
201.1979489225
 30
0.0
 11
120.4207776309
 21
187.0979486602
 31
0.0
  0
LINE
  5
24B
330
1F
100
AcDbEntity
  8
0
  6
Continuous
 62
     7
370
     0
100
AcDbLine
 10
119.4207793297
 20
186.0979484963
 30
0.0
 11
120.4207776309
 21
187.0979486602
 31
0.0
  0
LINE
  5
24C
330
1F
100
AcDbEntity
  8
0
  6
Continuous
 62
     7
370
     0
100
AcDbLine
 10
119.4207793297
 20
202.1979490864
 30
0.0
 11
122.4707788051
 21
202.1979490864
 31
0.0
  0
LINE
  5
24D
330
1F
100
AcDbEntity
  8
0
  6
Continuous
 62
     7
370
     0
100
AcDbLine
 10
122.4707788051
 20
201.1979489225
 30
0.0
 11
120.4207776309
 21
201.1979489225
 31
0.0
  0
LINE
  5
24E
330
1F
100
AcDbEntity
  8
0
  6
Continuous
 62
     7
370
     0
100
AcDbLine
 10
122.4707788051
 20
202.1979490864
 30
0.0
 11
122.4707788051
 21
201.1979489225
 31
0.0
  0
LINE
  5
24F
330
1F
100
AcDbEntity
  8
0
  6
Continuous
 62
     7
370
     0
100
AcDbLine
 10
120.4207776309
 20
187.0979486602
 30
0.0
 11
122.4707788051
 21
187.0979486602
 31
0.0
  0
LINE
  5
250
330
1F
100
AcDbEntity
  8
0
  6
Continuous
 62
     7
370
     0
100
AcDbLine
 10
122.4707788051
 20
187.0979486602
 30
0.0
 11
122.4707788051
 21
201.1979489225
 31
0.0
  0
LINE
  5
251
330
1F
100
AcDbEntity
  8
0
  6
Continuous
 62
     7
370
     0
100
AcDbLine
 10
122.4707788051
 20
186.0979484963
 30
0.0
 11
119.4207793297
 21
186.0979484963
 31
0.0
  0
LINE
  5
252
330
1F
100
AcDbEntity
  8
0
  6
Continuous
 62
     7
370
     0
100
AcDbLine
 10
122.4707788051
 20
187.0979486602
 30
0.0
 11
122.4707788051
 21
186.0979484963
 31
0.0
  0
LINE
  5
253
330
1F
100
AcDbEntity
  8
0
  6
Continuous
 62
     7
370
     0
100
AcDbLine
 10
110.9707778515
 20
204.6479486498
 30
0.0
 11
101.4207801045
 21
204.6479486498
 31
0.0
  0
ARC
  5
254
330
1F
100
AcDbEntity
  8
0
  6
Continuous
 62
     7
370
     0
100
AcDbCircle
 10
115.3841111777
 20
180.8979487913
 30
0.0
 40
5.200000000000005
100
AcDbArc
 50
90.0
 51
148.0724728042
  0
LINE
  5
255
330
1F
100
AcDbEntity
  8
0
  6
Continuous
 62
     7
370
     0
100
AcDbLine
 10
110.9707778515
 20
183.6479489329
 30
0.0
 11
101.4207801045
 21
183.6479489329
 31
0.0
  0
ARC
  5
256
330
1F
100
AcDbEntity
  8
0
  6
Continuous
 62
     7
370
     0
100
AcDbCircle
 10
100.1707791032
 20
186.6479487913
 30
0.0
 40
3.250000000000037
100
AcDbArc
 50
292.619864948
 51
247.380135052
  0
LINE
  5
257
330
1F
100
AcDbEntity
  8
0
  6
Continuous
 62
     7
370
     0
100
AcDbLine
 10
98.9207787634
 20
183.6479489329
 30
0.0
 11
91.4207784654
 21
183.6479489329
 31
0.0
  0
ARC
  5
258
330
1F
100
AcDbEntity
  8
0
  6
Continuous
 62
     7
370
     0
100
AcDbCircle
 10
90.1707791032
 20
186.6479487913
 30
0.0
 40
3.250000000000013
100
AcDbArc
 50
292.619864948
 51
37.9798724449
  0
ARC
  5
259
330
1F
100
AcDbEntity
  8
0
  6
Continuous
 62
     7
370
     0
100
AcDbCircle
 10
90.1707791032
 20
186.6479487913
 30
0.0
 40
3.250000000000011
100
AcDbArc
 50
67.380135052
 51
247.380135052
  0
LINE
  5
25A
330
1F
100
AcDbEntity
  8
0
  6
Continuous
 62
     7
370
     0
100
AcDbLine
 10
88.9207789869
 20
183.6479489329
 30
0.0
 11
67.4707791032
 21
183.6479489329
 31
0.0
  0
LINE
  5
25B
330
1F
100
AcDbEntity
  8
0
  6
Continuous
 62
     7
370
     0
100
AcDbLine
 10
67.4707791032
 20
183.6479489329
 30
0.0
 11
67.4707791032
 21
204.6479486498
 31
0.0
  0
LINE
  5
25C
330
1F
100
AcDbEntity
  8
0
  6
Continuous
 62
     7
370
     0
100
AcDbLine
 10
88.9207789869
 20
204.6479486498
 30
0.0
 11
67.4707791032
 21
204.6479486498
 31
0.0
  0
ARC
  5
25D
330
1F
100
AcDbEntity
  8
0
  6
Continuous
 62
     7
370
     0
100
AcDbCircle
 10
90.1707791032
 20
201.6479487913
 30
0.0
 40
3.250000000000016
100
AcDbArc
 50
112.619864948
 51
67.380135052
  0
LINE
  5
25E
330
1F
100
AcDbEntity
  8
0
  6
Continuous
 62
     7
370
     0
100
AcDbLine
 10
98.9207787634
 20
204.6479486498
 30
0.0
 11
91.4207784654
 21
204.6479486498
 31
0.0
  0
CIRCLE
  5
25F
330
1F
100
AcDbEntity
  8
0
  6
Continuous
 62
     7
370
     0
100
AcDbCircle
 10
93.1707791032
 20
191.1479487913
 30
0.0
 40
1.250000000000028
  0
ARC
  5
260
330
1F
100
AcDbEntity
  8
0
  6
Continuous
 62
     7
370
     0
100
AcDbCircle
 10
115.3841111777
 20
207.3979487913
 30
0.0
 40
5.200000000000017
100
AcDbArc
 50
211.9275271958
 51
270.0
  0
ARC
  5
261
330
1F
100
AcDbEntity
  8
0
  6
Continuous
 62
     7
370
     0
100
AcDbCircle
 10
100.1707791032
 20
201.6479487913
 30
0.0
 40
3.250000000000011
100
AcDbArc
 50
112.619864948
 51
67.380135052
  0
LINE
  5
262
330
1F
100
AcDbEntity
  8
0
  6
Continuous
 62
     7
370
     0
100
AcDbLine
 10
115.3841106416
 20
186.0979484963
 30
0.0
 11
119.4207793297
 21
186.0979484963
 31
0.0
  0
LINE
  5
263
330
1F
100
AcDbEntity
  8
0
  6
Continuous
 62
     7
370
     0
100
AcDbLine
 10
119.4207793297
 20
202.1979490864
 30
0.0
 11
115.3841106416
 21
202.1979490864
 31
0.0
  0
CIRCLE
  5
264
330
1F
100
AcDbEntity
  8
0
  6
Continuous
 62
     7
370
     0
100
AcDbCircle
 10
100.1707791032
 20
201.6479487913
 30
0.0
 40
1.75
  0
LINE
  5
265
330
1F
100
AcDbEntity
  8
0
  6
Continuous
 62
     7
370
     0
100
AcDbLine
 10
98.9207787634
 20
204.6479486498
 30
0.0
 11
101.4207801045
 21
204.6479486498
 31
0.0
  0
CIRCLE
  5
266
330
1F
100
AcDbEntity
  8
0
  6
Continuous
 62
     7
370
     0
100
AcDbCircle
 10
90.1707791032
 20
201.6479487913
 30
0.0
 40
1.75
  0
LINE
  5
267
330
1F
100
AcDbEntity
  8
0
  6
Continuous
 62
     7
370
     0
100
AcDbLine
 10
88.9207789869
 20
204.6479486498
 30
0.0
 11
91.4207784654
 21
204.6479486498
 31
0.0
  0
CIRCLE
  5
268
330
1F
100
AcDbEntity
  8
0
  6
Continuous
 62
     7
370
     0
100
AcDbCircle
 10
100.1707791032
 20
186.6479487913
 30
0.0
 40
1.750000000000028
  0
LINE
  5
269
330
1F
100
AcDbEntity
  8
0
  6
Continuous
 62
     7
370
     0
100
AcDbLine
 10
98.9207787634
 20
183.6479489329
 30
0.0
 11
101.4207801045
 21
183.6479489329
 31
0.0
  0
CIRCLE
  5
26A
330
1F
100
AcDbEntity
  8
0
  6
Continuous
 62
     7
370
     0
100
AcDbCircle
 10
90.1707791032
 20
186.6479487913
 30
0.0
 40
1.750000000000028
  0
LINE
  5
26B
330
1F
100
AcDbEntity
  8
0
  6
Continuous
 62
     7
370
     0
100
AcDbLine
 10
88.9207789869
 20
183.6479489329
 30
0.0
 11
91.4207784654
 21
183.6479489329
 31
0.0
  0
LINE
  5
26C
330
1F
100
AcDbEntity
  8
0
  6
Continuous
 62
     7
370
     0
100
AcDbLine
 10
116.4707778217
 20
204.6479486498
 30
0.0
 11
122.4707788051
 21
204.6479486498
 31
0.0
  0
LINE
  5
26D
330
1F
100
AcDbEntity
  8
0
  6
Continuous
 62
     7
370
     0
100
AcDbLine
 10
116.4707778217
 20
202.1979490864
 30
0.0
 11
116.4707778217
 21
204.6479486498
 31
0.0
  0
LINE
  5
26E
330
1F
100
AcDbEntity
  8
0
  6
Continuous
 62
     7
370
     0
100
AcDbLine
 10
122.4707788051
 20
202.1979490864
 30
0.0
 11
122.4707788051
 21
204.6479486498
 31
0.0
  0
LINE
  5
26F
330
1F
100
AcDbEntity
  8
0
  6
Continuous
 62
     7
370
     0
100
AcDbLine
 10
116.4707778217
 20
183.6479489329
 30
0.0
 11
122.4707788051
 21
183.6479489329
 31
0.0
  0
LINE
  5
270
330
1F
100
AcDbEntity
  8
0
  6
Continuous
 62
     7
370
     0
100
AcDbLine
 10
116.4707778217
 20
183.6479489329
 30
0.0
 11
116.4707778217
 21
186.0979484963
 31
0.0
  0
LINE
  5
271
330
1F
100
AcDbEntity
  8
0
  6
Continuous
 62
     7
370
     0
100
AcDbLine
 10
122.4707788051
 20
183.6479489329
 30
0.0
 11
122.4707788051
 21
186.0979484963
 31
0.0
  0
DIMENSION
  5
272
330
1F
100
AcDbEntity
  8
0
  6
Continuous
 62
     7
370
     0
100
AcDbDimension
  2
_D_5
 10
34.4707791032
 20
209.8765438537
 30
0.0
 11
31.9707791032
 21
209.8765438537
 31
0.0
 70
   160
  1
<>
 71
     2
 42
-1.0
  3
SLDDIMSTYLE1
100
AcDbAlignedDimension
 13
29.4707791032
 23
202.1479487913
 33
0.0
 14
34.4707791032
 24
199.8979487913
 34
0.0
100
AcDbRotatedDimension
  0
DIMENSION
  5
27E
330
1F
100
AcDbEntity
  8
0
  6
Continuous
 62
     7
370
     0
100
AcDbDimension
  2
_D_6
 10
64.4707791032
 20
209.8765438537
 30
0.0
 11
49.4707791032
 21
209.8765438537
 31
0.0
 70
   160
  1
<>
 71
     2
 42
-1.0
  3
SLDDIMSTYLE0
100
AcDbAlignedDimension
 13
34.4707791032
 23
199.8979487913
 33
0.0
 14
64.4707791032
 24
203.4479487913
 34
0.0
100
AcDbRotatedDimension
  0
DIMENSION
  5
288
330
1F
100
AcDbEntity
  8
0
  6
Continuous
 62
     7
370
     0
100
AcDbDimension
  2
_D_7
 10
122.4707791032
 20
219.1708495738
 30
0.0
 11
75.9707791032
 21
219.1708495738
 31
0.0
 70
   160
  1
<>
 71
     2
 42
-1.0
  3
SLDDIMSTYLE0
100
AcDbAlignedDimension
 13
29.4707791032
 23
202.1479487913
 33
0.0
 14
122.4707791032
 24
204.6479487913
 34
0.0
100
AcDbRotatedDimension
  0
DIMENSION
  5
292
330
1F
100
AcDbEntity
  8
0
  6
Continuous
 62
     7
370
     0
100
AcDbDimension
  2
_D_8
 10
33.3452772832
 20
197.1968413203
 30
0.0
 11
49.4707791032
 21
173.8693596059
 31
0.0
 70
   163
  1
<>
 71
     1
 42
-1.0
  3
SLDDIMSTYLE3
100
AcDbDiametricDimension
 15
35.5962809231
 25
191.0990562624
 35
0.0
 40
0.0
  0
INSERT
  5
2A7
330
1F
100
AcDbEntity
  8
0
  6
Continuous
 62
     7
370
     0
100
AcDbBlockReference
  2
SW_CENTERMARKSYMBOL_0
 10
34.4707791032
 20
194.1479487913
 30
0.0
  0
INSERT
  5
2B3
330
1F
100
AcDbEntity
  8
0
  6
Continuous
 62
     7
370
     0
100
AcDbBlockReference
  2
SW_CENTERMARKSYMBOL_1
 10
64.4707791032
 20
194.1479487913
 30
0.0
  0
ENDSEC
  0
SECTION
  2
OBJECTS
  0
DICTIONARY
  5
C
330
0
100
AcDbDictionary
281
     1
  3
ACAD_GROUP
350
D
  3
ACAD_LAYOUT
350
1A
  3
ACAD_MLINESTYLE
350
17
  3
ACAD_PLOTSETTINGS
350
19
  3
ACAD_PLOTSTYLENAME
350
E
  0
DICTIONARY
  5
D
102
{ACAD_REACTORS
330
C
102
}
330
C
100
AcDbDictionary
281
     1
  0
DICTIONARY
  5
1A
102
{ACAD_REACTORS
330
C
102
}
330
C
100
AcDbDictionary
281
     1
  3
Layout1
350
1E
  3
Layout2
350
26
  3
Model
350
22
  0
DICTIONARY
  5
17
102
{ACAD_REACTORS
330
C
102
}
330
C
100
AcDbDictionary
281
     1
  3
Standard
350
18
  0
DICTIONARY
  5
19
102
{ACAD_REACTORS
330
C
102
}
330
C
100
AcDbDictionary
281
     1
  0
ACDBDICTIONARYWDFLT
  5
E
102
{ACAD_REACTORS
330
C
102
}
330
C
100
AcDbDictionary
281
     1
  3
Normal
350
F
100
AcDbDictionaryWithDefault
340
F
  0
LAYOUT
  5
1E
102
{ACAD_REACTORS
330
1A
102
}
330
1A
100
AcDbPlotSettings
  1

  2
none_device
  4

  6

 40
0.0
 41
0.0
 42
0.0
 43
0.0
 44
0.0
 45
0.0
 46
0.0
 47
0.0
 48
0.0
 49
0.0
140
0.0
141
0.0
142
1.0
143
1.0
 70
   688
 72
     0
 73
     0
 74
     5
  7

 75
    16
147
1.0
148
0.0
149
0.0
100
AcDbLayout
  1
Layout1
 70
     1
 71
     1
 10
0.0
 20
0.0
 11
420.0
 21
297.0
 12
0.0
 22
0.0
 32
0.0
 14
1.0000000000E+20
 24
1.0000000000E+20
 34
1.0000000000E+20
 15
-1.0000000000E+20
 25
-1.0000000000E+20
 35
-1.0000000000E+20
146
0.0
 13
0.0
 23
0.0
 33
0.0
 16
1.0
 26
0.0
 36
0.0
 17
0.0
 27
1.0
 37
0.0
 76
     0
330
1B
  0
LAYOUT
  5
26
102
{ACAD_REACTORS
330
1A
102
}
330
1A
100
AcDbPlotSettings
  1

  2
none_device
  4

  6

 40
0.0
 41
0.0
 42
0.0
 43
0.0
 44
0.0
 45
0.0
 46
0.0
 47
0.0
 48
0.0
 49
0.0
140
0.0
141
0.0
142
1.0
143
1.0
 70
   688
 72
     0
 73
     0
 74
     5
  7

 75
    16
147
1.0
148
0.0
149
0.0
100
AcDbLayout
  1
Layout2
 70
     1
 71
     2
 10
0.0
 20
0.0
 11
0.0
 21
0.0
 12
0.0
 22
0.0
 32
0.0
 14
0.0
 24
0.0
 34
0.0
 15
0.0
 25
0.0
 35
0.0
146
0.0
 13
0.0
 23
0.0
 33
0.0
 16
1.0
 26
0.0
 36
0.0
 17
0.0
 27
1.0
 37
0.0
 76
     0
330
23
  0
LAYOUT
  5
22
102
{ACAD_REACTORS
330
1A
102
}
330
1A
100
AcDbPlotSettings
  1

  2
none_device
  4

  6

 40
0.0
 41
0.0
 42
0.0
 43
0.0
 44
0.0
 45
0.0
 46
0.0
 47
0.0
 48
0.0
 49
0.0
140
0.0
141
0.0
142
1.0
143
1.0
 70
  1712
 72
     0
 73
     0
 74
     0
  7

 75
     0
147
1.0
148
0.0
149
0.0
100
AcDbLayout
  1
Model
 70
     1
 71
     0
 10
0.0
 20
0.0
 11
210.0
 21
297.0
 12
0.0
 22
0.0
 32
0.0
 14
0.0
 24
0.0
 34
0.0
 15
210.0
 25
297.0
 35
0.0
146
0.0
 13
0.0
 23
0.0
 33
0.0
 16
1.0
 26
0.0
 36
0.0
 17
0.0
 27
1.0
 37
0.0
 76
     0
330
1F
331
29
  0
MLINESTYLE
  5
18
102
{ACAD_REACTORS
330
17
102
}
330
17
100
AcDbMlineStyle
  2
Standard
 70
     0
  3

 62
   256
 51
90.0
 52
90.0
 71
     2
 49
0.5
 62
   256
  6
BYLAYER
 49
-0.5
 62
   256
  6
BYLAYER
  0
ACDBPLACEHOLDER
  5
F
102
{ACAD_REACTORS
330
E
102
}
330
E
  0
ENDSEC
  0
EOF
