  0
SECTION
  2
HEADER
  9
$ACADVER
  1
AC1015
  9
$ACADMAINTVER
 70
     6
  9
$DWGCODEPAGE
  3
DOS932
  9
$INSBASE
 10
0.0
 20
0.0
 30
0.0
  9
$EXTMIN
 10
0.0
 20
0.0
 30
0.0
  9
$EXTMAX
 10
210.0
 20
297.0
 30
0.0
  9
$LIMMIN
 10
0.0
 20
0.0
  9
$LIMMAX
 10
210.0
 20
297.0
  9
$ORTHOMODE
 70
     0
  9
$REGENMODE
 70
     1
  9
$FILLMODE
 70
     1
  9
$QTEXTMODE
 70
     0
  9
$MIRRTEXT
 70
     1
  9
$LTSCALE
 40
1.0
  9
$ATTMODE
 70
     1
  9
$TEXTSIZE
 40
3.5
  9
$TRACEWID
 40
1.0
  9
$TEXTSTYLE
  7
Standard
  9
$CLAYER
  8
0
  9
$CELTYPE
  6
ByLayer
  9
$CECOLOR
 62
   256
  9
$CELTSCALE
 40
1.0
  9
$DISPSILH
 70
     0
  9
$DIMSCALE
 40
1.0
  9
$DIMASZ
 40
3.0
  9
$DIMEXO
 40
1.0
  9
$DIMDLI
 40
3.75
  9
$DIMRND
 40
0.0
  9
$DIMDLE
 40
0.0
  9
$DIMEXE
 40
1.0
  9
$DIMTP
 40
0.0
  9
$DIMTM
 40
0.0
  9
$DIMTXT
 40
3.5
  9
$DIMCEN
 40
2.5
  9
$DIMTSZ
 40
0.0
  9
$DIMTOL
 70
     0
  9
$DIMLIM
 70
     0
  9
$DIMTIH
 70
     1
  9
$DIMTOH
 70
     1
  9
$DIMSE1
 70
     0
  9
$DIMSE2
 70
     0
  9
$DIMTAD
 70
     1
  9
$DIMZIN
 70
     0
  9
$DIMBLK
  1

  9
$DIMASO
 70
     1
  9
$DIMSHO
 70
     1
  9
$DIMPOST
  1

  9
$DIMAPOST
  1

  9
$DIMALT
 70
     0
  9
$DIMALTD
 70
     3
  9
$DIMALTF
 40
0.0393700787
  9
$DIMLFAC
 40
1.0
  9
$DIMTOFL
 70
     1
  9
$DIMTVP
 40
0.0
  9
$DIMTIX
 70
     0
  9
$DIMSOXD
 70
     0
  9
$DIMSAH
 70
     0
  9
$DIMBLK1
  1

  9
$DIMBLK2
  1

  9
$DIMSTYLE
  2
ISO-25
  9
$DIMCLRD
 70
     0
  9
$DIMCLRE
 70
     0
  9
$DIMCLRT
 70
     0
  9
$DIMTFAC
 40
1.0
  9
$DIMGAP
 40
1.524
  9
$DIMJUST
 70
     0
  9
$DIMSD1
 70
     0
  9
$DIMSD2
 70
     0
  9
$DIMTOLJ
 70
     0
  9
$DIMTZIN
 70
     0
  9
$DIMALTZ
 70
     0
  9
$DIMALTTZ
 70
     0
  9
$DIMUPT
 70
     0
  9
$DIMDEC
 70
     1
  9
$DIMTDEC
 70
     3
  9
$DIMALTU
 70
     2
  9
$DIMALTTD
 70
     3
  9
$DIMTXSTY
  7
Standard
  9
$DIMAUNIT
 70
     0
  9
$DIMADEC
 70
     2
  9
$DIMALTRND
 40
0.0
  9
$DIMAZIN
 70
     0
  9
$DIMDSEP
 70
    44
  9
$DIMATFIT
 70
     3
  9
$DIMFRAC
 70
     0
  9
$DIMLDRBLK
  1

  9
$DIMLUNIT
 70
     2
  9
$DIMLWD
 70
    -2
  9
$DIMLWE
 70
    -2
  9
$DIMTMOVE
 70
     0
  9
$LUNITS
 70
     2
  9
$LUPREC
 70
     1
  9
$SKETCHINC
 40
1.0
  9
$FILLETRAD
 40
10.0
  9
$AUNITS
 70
     0
  9
$AUPREC
 70
     2
  9
$MENU
  1
.
  9
$ELEVATION
 40
0.0
  9
$PELEVATION
 40
0.0
  9
$THICKNESS
 40
0.0
  9
$LIMCHECK
 70
     0
  9
$CHAMFERA
 40
0.0
  9
$CHAMFERB
 40
0.0
  9
$CHAMFERC
 40
0.0
  9
$CHAMFERD
 40
0.0
  9
$SKPOLY
 70
     0
  9
$TDCREATE
 40
2460164.460980498
  9
$TDUCREATE
 40
2460164.085980498
  9
$TDUPDATE
 40
2460164.460984768
  9
$TDUUPDATE
 40
2460164.085984768
  9
$TDINDWG
 40
0.0000000116
  9
$TDUSRTIMER
 40
0.0000000116
  9
$USRTIMER
 70
     1
  9
$ANGBASE
 50
0.0
  9
$ANGDIR
 70
     0
  9
$PDMODE
 70
     0
  9
$PDSIZE
 40
-1.0
  9
$PLINEWID
 40
0.0
  9
$SPLFRAME
 70
     0
  9
$SPLINETYPE
 70
     6
  9
$SPLINESEGS
 70
     8
  9
$HANDSEED
  5
4BA
  9
$SURFTAB1
 70
     6
  9
$SURFTAB2
 70
     6
  9
$SURFTYPE
 70
     6
  9
$SURFU
 70
     6
  9
$SURFV
 70
     6
  9
$UCSBASE
  2

  9
$UCSNAME
  2

  9
$UCSORG
 10
0.0
 20
0.0
 30
0.0
  9
$UCSXDIR
 10
1.0
 20
0.0
 30
0.0
  9
$UCSYDIR
 10
0.0
 20
1.0
 30
0.0
  9
$UCSORTHOREF
  2

  9
$UCSORTHOVIEW
 70
     0
  9
$UCSORGTOP
 10
0.0
 20
0.0
 30
0.0
  9
$UCSORGBOTTOM
 10
0.0
 20
0.0
 30
0.0
  9
$UCSORGLEFT
 10
0.0
 20
0.0
 30
0.0
  9
$UCSORGRIGHT
 10
0.0
 20
0.0
 30
0.0
  9
$UCSORGFRONT
 10
0.0
 20
0.0
 30
0.0
  9
$UCSORGBACK
 10
0.0
 20
0.0
 30
0.0
  9
$PUCSBASE
  2

  9
$PUCSNAME
  2

  9
$PUCSORG
 10
0.0
 20
0.0
 30
0.0
  9
$PUCSXDIR
 10
1.0
 20
0.0
 30
0.0
  9
$PUCSYDIR
 10
0.0
 20
1.0
 30
0.0
  9
$PUCSORTHOREF
  2

  9
$PUCSORTHOVIEW
 70
     0
  9
$PUCSORGTOP
 10
0.0
 20
0.0
 30
0.0
  9
$PUCSORGBOTTOM
 10
0.0
 20
0.0
 30
0.0
  9
$PUCSORGLEFT
 10
0.0
 20
0.0
 30
0.0
  9
$PUCSORGRIGHT
 10
0.0
 20
0.0
 30
0.0
  9
$PUCSORGFRONT
 10
0.0
 20
0.0
 30
0.0
  9
$PUCSORGBACK
 10
0.0
 20
0.0
 30
0.0
  9
$USERI1
 70
     0
  9
$USERI2
 70
     0
  9
$USERI3
 70
     0
  9
$USERI4
 70
     0
  9
$USERI5
 70
     0
  9
$USERR1
 40
0.0
  9
$USERR2
 40
0.0
  9
$USERR3
 40
0.0
  9
$USERR4
 40
0.0
  9
$USERR5
 40
0.0
  9
$WORLDVIEW
 70
     1
  9
$SHADEDGE
 70
     3
  9
$SHADEDIF
 70
    70
  9
$TILEMODE
 70
     1
  9
$MAXACTVP
 70
    64
  9
$PINSBASE
 10
0.0
 20
0.0
 30
0.0
  9
$PLIMCHECK
 70
     0
  9
$PEXTMIN
 10
1.0000000000E+20
 20
1.0000000000E+20
 30
1.0000000000E+20
  9
$PEXTMAX
 10
-1.0000000000E+20
 20
-1.0000000000E+20
 30
-1.0000000000E+20
  9
$PLIMMIN
 10
0.0
 20
0.0
  9
$PLIMMAX
 10
420.0
 20
297.0
  9
$UNITMODE
 70
     0
  9
$VISRETAIN
 70
     1
  9
$PLINEGEN
 70
     0
  9
$PSLTSCALE
 70
     1
  9
$TREEDEPTH
 70
  3020
  9
$CMLSTYLE
  2
Standard
  9
$CMLJUST
 70
     0
  9
$CMLSCALE
 40
20.0
  9
$PROXYGRAPHICS
 70
     1
  9
$MEASUREMENT
 70
     1
  9
$CELWEIGHT
370
    -1
  9
$ENDCAPS
280
     0
  9
$JOINSTYLE
280
     0
  9
$LWDISPLAY
290
     1
  9
$INSUNITS
 70
     4
  9
$HYPERLINKBASE
  1

  9
$STYLESHEET
  1

  9
$XEDIT
290
     1
  9
$CEPSNTYPE
380
     0
  9
$PSTYLEMODE
290
     1
  9
$FINGERPRINTGUID
  2
{38236ef1-ab46-406f-b919-af09e4f46e28}
  9
$VERSIONGUID
  2
{FAEB1C32-E019-11D5-929B-00C0DF256EC4}
  9
$EXTNAMES
290
     1
  9
$PSVPSCALE
 40
0.0
  9
$OLESTARTUP
290
     0
  0
ENDSEC
  0
SECTION
  2
CLASSES
  0
CLASS
  1
ACDBDICTIONARYWDFLT
  2
AcDbDictionaryWithDefault
  3
ObjectDBX Classes
 90
        0
280
     0
281
     0
  0
CLASS
  1
VISUALSTYLE
  2
AcDbVisualStyle
  3
ObjectDBX Classes
 90
     4095
280
     0
281
     0
  0
CLASS
  1
MATERIAL
  2
AcDbMaterial
  3
ObjectDBX Classes
 90
     1153
280
     0
281
     0
  0
CLASS
  1
SCALE
  2
AcDbScale
  3
ObjectDBX Classes
 90
     1153
280
     0
281
     0
  0
CLASS
  1
TABLESTYLE
  2
AcDbTableStyle
  3
ObjectDBX Classes
 90
     4095
280
     0
281
     0
  0
CLASS
  1
MLEADERSTYLE
  2
AcDbMLeaderStyle
  3
ACDB_MLEADERSTYLE_CLASS
 90
     4095
280
     0
281
     0
  0
CLASS
  1
SUN
  2
AcDbSun
  3
SCENEOE
 90
     1153
280
     0
281
     0
  0
CLASS
  1
ACDBPLACEHOLDER
  2
AcDbPlaceHolder
  3
ObjectDBX Classes
 90
        0
280
     0
281
     0
  0
CLASS
  1
LAYOUT
  2
AcDbLayout
  3
ObjectDBX Classes
 90
        0
280
     0
281
     0
  0
ENDSEC
  0
SECTION
  2
TABLES
  0
TABLE
  2
VPORT
  5
8
330
0
100
AcDbSymbolTable
 70
     1
  0
VPORT
  5
29
330
8
100
AcDbSymbolTableRecord
100
AcDbViewportTableRecord
  2
*Active
 70
     0
 10
0.0
 20
0.0
 11
1.0
 21
1.0
 12
105.0
 22
148.5
 13
0.0
 23
0.0
 14
10.0
 24
10.0
 15
10.0
 25
10.0
 16
0.0
 26
0.0
 36
1.0
 17
0.0
 27
0.0
 37
0.0
 40
297.0
 41
0.7070707071
 42
50.0
 43
0.0
 44
0.0
 50
0.0
 51
0.0
 71
     0
 72
  2000
 73
     1
 74
     3
 75
     0
 76
     0
 77
     0
 78
     0
281
     0
 65
     1
110
0.0
120
0.0
130
0.0
111
1.0
121
0.0
131
0.0
112
0.0
122
1.0
132
0.0
 79
     0
146
0.0
  0
ENDTAB
  0
TABLE
  2
LTYPE
  5
5
330
0
100
AcDbSymbolTable
 70
     6
  0
LTYPE
  5
14
330
5
100
AcDbSymbolTableRecord
100
AcDbLinetypeTableRecord
  2
ByBlock
 70
     0
  3

 72
    65
 73
     0
 40
0.0
  0
LTYPE
  5
15
330
5
100
AcDbSymbolTableRecord
100
AcDbLinetypeTableRecord
  2
ByLayer
 70
     0
  3

 72
    65
 73
     0
 40
0.0
  0
LTYPE
  5
16
330
5
100
AcDbSymbolTableRecord
100
AcDbLinetypeTableRecord
  2
Continuous
 70
     0
  3
Solid line
 72
    65
 73
     0
 40
0.0
  0
LTYPE
  5
6E
330
5
100
AcDbSymbolTableRecord
100
AcDbLinetypeTableRecord
  2
HIDDEN
 70
     0
  3
Hidden __ __ __ __ __ __ __ __ __ __ __ __ __ __
 72
    65
 73
     2
 40
1.905
 49
1.27
 74
     0
 49
-0.635
 74
     0
  0
LTYPE
  5
6F
330
5
100
AcDbSymbolTableRecord
100
AcDbLinetypeTableRecord
  2
PHANTOM
 70
     0
  3
Phantom ______  __  __  ______  __  __  ______
 72
    65
 73
     6
 40
12.7
 49
6.35
 74
     0
 49
-1.27
 74
     0
 49
1.27
 74
     0
 49
-1.27
 74
     0
 49
1.27
 74
     0
 49
-1.27
 74
     0
  0
LTYPE
  5
70
330
5
100
AcDbSymbolTableRecord
100
AcDbLinetypeTableRecord
  2
CENTER
 70
     0
  3
Center ____ _ ____ _ ____ _ ____ _ ____ _ ____
 72
    65
 73
     4
 40
10.16
 49
6.35
 74
     0
 49
-1.27
 74
     0
 49
1.27
 74
     0
 49
-1.27
 74
     0
  0
LTYPE
  5
71
330
5
100
AcDbSymbolTableRecord
100
AcDbLinetypeTableRecord
  2
CENTERX2
 70
     0
  3
Center (2x) ________  __  ________  __  _____
 72
    65
 73
     4
 40
20.32
 49
12.7
 74
     0
 49
-2.54
 74
     0
 49
2.54
 74
     0
 49
-2.54
 74
     0
  0
LTYPE
  5
72
330
5
100
AcDbSymbolTableRecord
100
AcDbLinetypeTableRecord
  2
DOT2
 70
     0
  3
Dot (.5x) ........................................
 72
    65
 73
     2
 40
0.635
 49
0.0
 74
     0
 49
-0.635
 74
     0
  0
ENDTAB
  0
TABLE
  2
LAYER
  5
2
330
0
100
AcDbSymbolTable
 70
     1
  0
LAYER
  5
10
330
2
100
AcDbSymbolTableRecord
100
AcDbLayerTableRecord
  2
0
 70
     0
 62
     7
  6
Continuous
370
    -3
390
F
  0
ENDTAB
  0
TABLE
  2
STYLE
  5
3
330
0
100
AcDbSymbolTable
 70
     2
  0
STYLE
  5
11
330
3
100
AcDbSymbolTableRecord
100
AcDbTextStyleTableRecord
  2
Standard
 70
     0
 40
0.0
 41
1.0
 50
0.0
 71
     0
 42
3.5
  3
txt
  4
bigfont
  0
STYLE
  5
7B
330
3
100
AcDbSymbolTableRecord
100
AcDbTextStyleTableRecord
  2
SLDTEXTSTYLE0
 70
     0
 40
0.0
 41
0.7
 50
0.0
 71
     0
 42
3.5
  3
TXT
  4
bigfont
  0
ENDTAB
  0
TABLE
  2
VIEW
  5
6
330
0
100
AcDbSymbolTable
 70
     0
  0
ENDTAB
  0
TABLE
  2
UCS
  5
7
330
0
100
AcDbSymbolTable
 70
     0
  0
ENDTAB
  0
TABLE
  2
APPID
  5
9
330
0
100
AcDbSymbolTable
 70
     1
  0
APPID
  5
12
330
9
100
AcDbSymbolTableRecord
100
AcDbRegAppTableRecord
  2
ACAD
 70
     0
  0
ENDTAB
  0
TABLE
  2
DIMSTYLE
  5
A
330
0
100
AcDbSymbolTable
 70
     9
100
AcDbDimStyleTable
  0
DIMSTYLE
105
27
330
A
100
AcDbSymbolTableRecord
100
AcDbDimStyleTableRecord
  2
ISO-25
 70
     0
 41
2.5
 42
0.625
 43
3.75
 44
1.25
 73
     0
 74
     0
 77
     1
 78
     8
140
2.5
141
2.5
143
0.0393700787
147
0.625
171
     3
172
     1
178
     0
271
     2
272
     2
274
     3
278
    44
283
     0
284
     8
340
11
  0
DIMSTYLE
105
1A1
102
{ACAD_REACTORS
330
1A0
330
1C2
330
1CC
330
1D6
330
1FA
330
316
330
320
330
32A
330
334
330
472
330
47C
330
48F
102
}
330
A
100
AcDbSymbolTableRecord
100
AcDbDimStyleTableRecord
  2
SLDDIMSTYLE0
 70
     0
 41
3.0
 44
0.0
 45
0.000000001
 73
     0
 74
     0
 77
     3
 78
    12
 79
     3
140
3.5
147
0.875
173
     1
178
     0
271
     1
272
     3
276
     2
284
    12
340
7B
  0
DIMSTYLE
105
1AE
102
{ACAD_REACTORS
330
1AD
330
210
102
}
330
A
100
AcDbSymbolTableRecord
100
AcDbDimStyleTableRecord
  2
SLDDIMSTYLE1
 70
     0
 41
1.5
 44
0.0
 45
0.000000001
 73
     0
 74
     0
 77
     3
 78
    12
 79
     3
140
3.5
147
0.875
172
     1
173
     1
178
     0
271
     1
272
     3
276
     2
284
    12
289
     0
340
7B
341
1AF
343
1AF
  0
DIMSTYLE
105
1E1
102
{ACAD_REACTORS
330
1E0
330
204
330
33E
330
35B
102
}
330
A
100
AcDbSymbolTableRecord
100
AcDbDimStyleTableRecord
  2
SLDDIMSTYLE2
 70
     0
 41
3.0
 44
0.0
 45
0.000000001
 73
     0
 74
     0
 77
     3
 78
    12
 79
     3
140
3.5
147
0.875
172
     1
173
     1
178
     0
271
     1
272
     3
276
     2
284
    12
289
     0
340
7B
  0
DIMSTYLE
105
1EE
102
{ACAD_REACTORS
330
1ED
102
}
330
A
100
AcDbSymbolTableRecord
100
AcDbDimStyleTableRecord
  2
SLDDIMSTYLE3
 70
     0
 41
3.0
 44
0.0
 45
0.000000001
 73
     0
 74
     0
 77
     3
 78
    12
 79
     3
140
3.5
147
0.875
173
     1
178
     0
271
     0
272
     3
276
     2
284
    12
340
7B
  0
DIMSTYLE
105
21F
102
{ACAD_REACTORS
330
21E
102
}
330
A
100
AcDbSymbolTableRecord
100
AcDbDimStyleTableRecord
  2
SLDDIMSTYLE4
 70
     0
 41
1.5
 44
0.0
 45
0.000000001
 73
     0
 74
     0
 77
     3
 78
    12
 79
     3
140
3.5
147
0.875
172
     1
173
     1
178
     0
271
     1
272
     3
276
     2
284
    12
289
     0
340
7B
341
1AF
343
1AF
344
1AF
  0
DIMSTYLE
105
231
330
A
100
AcDbSymbolTableRecord
100
AcDbDimStyleTableRecord
  2
SLDDIMSTYLE5
 70
     0
 41
3.0
 44
0.0
 45
0.000000001
146
3.0
147
0.0
173
     1
178
     0
271
     0
272
     0
276
     2
340
11
  0
DIMSTYLE
105
34D
102
{ACAD_REACTORS
330
34C
102
}
330
A
100
AcDbSymbolTableRecord
100
AcDbDimStyleTableRecord
  2
SLDDIMSTYLE6
 70
     0
 41
3.0
 44
0.0
 45
0.000000001
 73
     0
 74
     0
 77
     3
 78
    12
 79
     3
140
3.5
147
0.875
172
     1
173
     1
178
     0
271
     0
272
     3
276
     2
284
    12
289
     0
340
7B
  0
DIMSTYLE
105
487
102
{ACAD_REACTORS
330
486
102
}
330
A
100
AcDbSymbolTableRecord
100
AcDbDimStyleTableRecord
  2
SLDDIMSTYLE7
 70
     0
  3
<>
 41
3.0
 44
0.0
 45
0.000000001
 78
    12
 79
     3
140
3.5
141
0.0
147
0.875
173
     1
178
     0
271
     1
272
     3
276
     2
284
    12
340
7B
  0
ENDTAB
  0
TABLE
  2
BLOCK_RECORD
  5
1
330
0
100
AcDbSymbolTable
 70
    35
  0
BLOCK_RECORD
  5
1F
330
1
100
AcDbSymbolTableRecord
100
AcDbBlockTableRecord
  2
*Model_Space
340
22
  0
BLOCK_RECORD
  5
1B
330
1
100
AcDbSymbolTableRecord
100
AcDbBlockTableRecord
  2
*Paper_Space
340
1E
  0
BLOCK_RECORD
  5
23
330
1
100
AcDbSymbolTableRecord
100
AcDbBlockTableRecord
  2
*Paper_Space0
340
26
  0
BLOCK_RECORD
  5
1A2
330
1
100
AcDbSymbolTableRecord
100
AcDbBlockTableRecord
  2
_D
340
0
  0
BLOCK_RECORD
  5
1AF
330
1
100
AcDbSymbolTableRecord
100
AcDbBlockTableRecord
  2
_Dot
340
0
102
{BLKREFS
331
1B7
331
216
331
223
331
224
102
}
  0
BLOCK_RECORD
  5
1B4
330
1
100
AcDbSymbolTableRecord
100
AcDbBlockTableRecord
  2
_D_1
340
0
  0
BLOCK_RECORD
  5
1C3
330
1
100
AcDbSymbolTableRecord
100
AcDbBlockTableRecord
  2
_D_2
340
0
  0
BLOCK_RECORD
  5
1CD
330
1
100
AcDbSymbolTableRecord
100
AcDbBlockTableRecord
  2
_D_3
340
0
  0
BLOCK_RECORD
  5
1D7
330
1
100
AcDbSymbolTableRecord
100
AcDbBlockTableRecord
  2
_D_4
340
0
  0
BLOCK_RECORD
  5
1E2
330
1
100
AcDbSymbolTableRecord
100
AcDbBlockTableRecord
  2
_D_5
340
0
  0
BLOCK_RECORD
  5
1EF
330
1
100
AcDbSymbolTableRecord
100
AcDbBlockTableRecord
  2
_D_6
340
0
  0
BLOCK_RECORD
  5
1FB
330
1
100
AcDbSymbolTableRecord
100
AcDbBlockTableRecord
  2
_D_7
340
0
  0
BLOCK_RECORD
  5
205
330
1
100
AcDbSymbolTableRecord
100
AcDbBlockTableRecord
  2
_D_8
340
0
  0
BLOCK_RECORD
  5
211
330
1
100
AcDbSymbolTableRecord
100
AcDbBlockTableRecord
  2
_D_9
340
0
  0
BLOCK_RECORD
  5
220
330
1
100
AcDbSymbolTableRecord
100
AcDbBlockTableRecord
  2
_D_10
340
0
  0
BLOCK_RECORD
  5
22B
330
1
100
AcDbSymbolTableRecord
100
AcDbBlockTableRecord
  2
SW_NOTE_0
340
0
102
{BLKREFS
331
230
102
}
  0
BLOCK_RECORD
  5
234
330
1
100
AcDbSymbolTableRecord
100
AcDbBlockTableRecord
  2
SW_NOTE_0_1
340
0
102
{BLKREFS
331
239
102
}
  0
BLOCK_RECORD
  5
317
330
1
100
AcDbSymbolTableRecord
100
AcDbBlockTableRecord
  2
_D_11
340
0
  0
BLOCK_RECORD
  5
321
330
1
100
AcDbSymbolTableRecord
100
AcDbBlockTableRecord
  2
_D_12
340
0
  0
BLOCK_RECORD
  5
32B
330
1
100
AcDbSymbolTableRecord
100
AcDbBlockTableRecord
  2
_D_13
340
0
  0
BLOCK_RECORD
  5
335
330
1
100
AcDbSymbolTableRecord
100
AcDbBlockTableRecord
  2
_D_14
340
0
  0
BLOCK_RECORD
  5
33F
330
1
100
AcDbSymbolTableRecord
100
AcDbBlockTableRecord
  2
_D_15
340
0
  0
BLOCK_RECORD
  5
34E
330
1
100
AcDbSymbolTableRecord
100
AcDbBlockTableRecord
  2
_D_16
340
0
  0
BLOCK_RECORD
  5
35C
330
1
100
AcDbSymbolTableRecord
100
AcDbBlockTableRecord
  2
_D_17
340
0
  0
BLOCK_RECORD
  5
369
330
1
100
AcDbSymbolTableRecord
100
AcDbBlockTableRecord
  2
SW_CENTERMARKSYMBOL_0
340
0
102
{BLKREFS
331
374
102
}
  0
BLOCK_RECORD
  5
375
330
1
100
AcDbSymbolTableRecord
100
AcDbBlockTableRecord
  2
SW_CENTERMARKSYMBOL_1
340
0
102
{BLKREFS
331
380
102
}
  0
BLOCK_RECORD
  5
381
330
1
100
AcDbSymbolTableRecord
100
AcDbBlockTableRecord
  2
SW_CENTERMARKSYMBOL_2
340
0
102
{BLKREFS
331
38C
102
}
  0
BLOCK_RECORD
  5
38D
330
1
100
AcDbSymbolTableRecord
100
AcDbBlockTableRecord
  2
SW_CENTERMARKSYMBOL_3
340
0
102
{BLKREFS
331
398
102
}
  0
BLOCK_RECORD
  5
399
330
1
100
AcDbSymbolTableRecord
100
AcDbBlockTableRecord
  2
SW_CENTERMARKSYMBOL_4
340
0
102
{BLKREFS
331
3A4
102
}
  0
BLOCK_RECORD
  5
3A5
330
1
100
AcDbSymbolTableRecord
100
AcDbBlockTableRecord
  2
SW_CENTERMARKSYMBOL_5
340
0
102
{BLKREFS
331
3B0
102
}
  0
BLOCK_RECORD
  5
473
330
1
100
AcDbSymbolTableRecord
100
AcDbBlockTableRecord
  2
_D_18
340
0
  0
BLOCK_RECORD
  5
47D
330
1
100
AcDbSymbolTableRecord
100
AcDbBlockTableRecord
  2
_D_19
340
0
  0
BLOCK_RECORD
  5
488
330
1
100
AcDbSymbolTableRecord
100
AcDbBlockTableRecord
  2
_D_20
340
0
  0
BLOCK_RECORD
  5
490
330
1
100
AcDbSymbolTableRecord
100
AcDbBlockTableRecord
  2
_D_21
340
0
  0
BLOCK_RECORD
  5
499
330
1
100
AcDbSymbolTableRecord
100
AcDbBlockTableRecord
  2
SW_NOTE_0_2
340
0
102
{BLKREFS
331
49E
102
}
  0
BLOCK_RECORD
  5
4A1
330
1
100
AcDbSymbolTableRecord
100
AcDbBlockTableRecord
  2
SW_CENTERMARKSYMBOL_6
340
0
102
{BLKREFS
331
4AC
102
}
  0
BLOCK_RECORD
  5
4AD
330
1
100
AcDbSymbolTableRecord
100
AcDbBlockTableRecord
  2
SW_CENTERMARKSYMBOL_7
340
0
102
{BLKREFS
331
4B8
102
}
  0
ENDTAB
  0
ENDSEC
  0
SECTION
  2
BLOCKS
  0
BLOCK
  5
20
330
1F
100
AcDbEntity
  8
0
100
AcDbBlockBegin
  2
*Model_Space
 70
     0
 10
0.0
 20
0.0
 30
0.0
  3
*Model_Space
  1

  0
ENDBLK
  5
21
330
1F
100
AcDbEntity
  8
0
100
AcDbBlockEnd
  0
BLOCK
  5
1C
330
1B
100
AcDbEntity
 67
     1
  8
0
100
AcDbBlockBegin
  2
*Paper_Space
 70
     0
 10
0.0
 20
0.0
 30
0.0
  3
*Paper_Space
  1

  0
ENDBLK
  5
1D
330
1B
100
AcDbEntity
 67
     1
  8
0
100
AcDbBlockEnd
  0
BLOCK
  5
24
330
23
100
AcDbEntity
  8
0
100
AcDbBlockBegin
  2
*Paper_Space0
 70
     0
 10
0.0
 20
0.0
 30
0.0
  3
*Paper_Space0
  1

  0
ENDBLK
  5
25
330
23
100
AcDbEntity
  8
0
100
AcDbBlockEnd
  0
BLOCK
  5
1A3
330
1A2
100
AcDbEntity
  8
0
100
AcDbBlockBegin
  2
_D
 70
     0
 10
0.0
 20
0.0
 30
0.0
  3
_D
  1

  0
ARC
  5
1A5
330
1A2
100
AcDbEntity
  8
0
  6
Continuous
 62
     7
370
    18
100
AcDbCircle
 10
182.1564477072
 20
195.5437290597
 30
0.0
 40
4.554435549315966
100
AcDbArc
 50
243.4349488229
 51
296.5650511771
  0
ARC
  5
1A6
330
1A2
100
AcDbEntity
  8
0
  6
Continuous
 62
     7
370
    18
100
AcDbCircle
 10
182.1564477072
 20
195.5437290597
 30
0.0
 40
4.554435549315978
100
AcDbArc
 50
63.4349488229
 51
116.5650511771
  0
SOLID
  5
1A7
330
1A2
100
AcDbEntity
  8
0
  6
Continuous
 62
     7
370
    18
100
AcDbTrace
 10
184.1932532047
 20
221.000569917
 30
0.0
 11
183.4432532047
 21
218.000569917
 31
0.0
 12
184.9432532047
 22
218.000569917
 32
0.0
 13
184.9432532047
 23
218.000569917
 33
0.0
  0
SOLID
  5
1A8
330
1A2
100
AcDbEntity
  8
0
  6
Continuous
 62
     7
370
    18
100
AcDbTrace
 10
184.1932532047
 20
170.0868883187
 30
0.0
 11
184.9432532047
 21
173.0868883187
 31
0.0
 12
183.4432532047
 22
173.0868883187
 32
0.0
 13
183.4432532047
 23
173.0868883187
 33
0.0
  0
LINE
  5
1A9
330
1A2
100
AcDbEntity
  8
0
  6
Continuous
 62
     7
370
     0
100
AcDbLine
 10
177.1161619492
 20
221.000569917
 30
0.0
 11
185.1932532047
 21
221.000569917
 31
0.0
  0
LINE
  5
1AA
330
1A2
100
AcDbEntity
  8
0
  6
Continuous
 62
     7
370
     0
100
AcDbLine
 10
167.3161619502
 20
170.0868883187
 30
0.0
 11
185.1932532047
 21
170.0868883187
 31
0.0
  0
LINE
  5
1AB
330
1A2
100
AcDbEntity
  8
0
  6
Continuous
 62
     7
370
     0
100
AcDbLine
 10
184.1932532047
 20
221.000569917
 30
0.0
 11
184.1932532047
 21
170.0868883187
 31
0.0
  0
MTEXT
  5
1AC
330
1A2
100
AcDbEntity
  8
0
  6
Continuous
 62
     7
370
    18
100
AcDbMText
 10
179.6815163483
 20
191.4701180647
 30
0.0
 40
3.5
 41
0.0
 71
     1
 72
     1
  1
50.9
  7
SLDTEXTSTYLE0
 11
-7.044195017643634E-15
 21
1.0
 31
0.0
 73
     1
 44
1.0
  0
ENDBLK
  5
1A4
330
1A2
100
AcDbEntity
  8
0
100
AcDbBlockEnd
  0
BLOCK
  5
1B0
330
1AF
100
AcDbEntity
  8
0
100
AcDbBlockBegin
  2
_Dot
 70
     0
 10
0.0
 20
0.0
 30
0.0
  3
_Dot
  1

  0
LWPOLYLINE
  5
1B2
330
1AF
100
AcDbEntity
  8
0
  6
ByBlock
 62
     0
100
AcDbPolyline
 90
        2
 70
     1
 43
0.5
 10
-0.25
 20
0.0
 42
1.0
 10
0.25
 20
0.0
 42
1.0
  0
LINE
  5
1B3
330
1AF
100
AcDbEntity
  8
0
  6
ByBlock
 62
     0
370
    -2
100
AcDbLine
 10
-0.5
 20
0.0
 30
0.0
 11
-1.0
 21
0.0
 31
0.0
  0
ENDBLK
  5
1B1
330
1AF
100
AcDbEntity
  8
0
100
AcDbBlockEnd
  0
BLOCK
  5
1B5
330
1B4
100
AcDbEntity
  8
0
100
AcDbBlockBegin
  2
_D_1
 70
     0
 10
0.0
 20
0.0
 30
0.0
  3
_D_1
  1

  0
INSERT
  5
1B7
330
1B4
100
AcDbEntity
  8
0
  6
Continuous
 62
     7
370
    18
100
AcDbBlockReference
  2
_Dot
 10
174.1161619502
 20
228.3396848159
 30
0.0
 41
1.5
 42
1.5
 50
0.0
  0
SOLID
  5
1B8
330
1B4
100
AcDbEntity
  8
0
  6
Continuous
 62
     7
370
    18
100
AcDbTrace
 10
176.1161619492
 20
228.3396848159
 30
0.0
 11
179.1161619492
 21
227.5896848159
 31
0.0
 12
179.1161619492
 22
229.0896848159
 32
0.0
 13
179.1161619492
 23
229.0896848159
 33
0.0
  0
LINE
  5
1B9
330
1B4
100
AcDbEntity
  8
0
  6
Continuous
 62
     7
370
     0
100
AcDbLine
 10
174.1161619502
 20
222.0013108687
 30
0.0
 11
174.1161619502
 21
229.3396848159
 31
0.0
  0
LINE
  5
1BA
330
1B4
100
AcDbEntity
  8
0
  6
Continuous
 62
     7
370
     0
100
AcDbLine
 10
176.1161619492
 20
222.000569917
 30
0.0
 11
176.1161619492
 21
229.3396848159
 31
0.0
  0
LINE
  5
1BB
330
1B4
100
AcDbEntity
  8
0
  6
Continuous
 62
     7
370
     0
100
AcDbLine
 10
174.1161619502
 20
228.3396848159
 30
0.0
 11
169.1161619502
 21
228.3396848159
 31
0.0
  0
LINE
  5
1BC
330
1B4
100
AcDbEntity
  8
0
  6
Continuous
 62
     7
370
     0
100
AcDbLine
 10
174.1161619502
 20
228.3396848159
 30
0.0
 11
176.1161619492
 21
228.3396848159
 31
0.0
  0
LINE
  5
1BD
330
1B4
100
AcDbEntity
  8
0
  6
Continuous
 62
     7
370
     0
100
AcDbLine
 10
176.1161619492
 20
228.3396848159
 30
0.0
 11
181.1161619492
 21
228.3396848159
 31
0.0
  0
LINE
  5
1BE
330
1B4
100
AcDbEntity
  8
0
  6
Continuous
 62
     7
370
     0
100
AcDbLine
 10
175.1161619497
 20
228.3396848159
 30
0.0
 11
174.774818439
 21
234.8972649561
 31
0.0
  0
LINE
  5
1BF
330
1B4
100
AcDbEntity
  8
0
  6
Continuous
 62
     7
370
     0
100
AcDbLine
 10
174.774818439
 20
234.8972649561
 30
0.0
 11
146.2595428712
 21
234.8972649561
 31
0.0
  0
MTEXT
  5
1C0
330
1B4
100
AcDbEntity
  8
0
  6
Continuous
 62
     7
370
    18
100
AcDbMText
 10
146.2595428712
 20
239.4090018125
 30
0.0
 40
3.5
 41
0.0
 71
     1
 72
     1
  1
Maxストローク
  7
SLDTEXTSTYLE0
 73
     1
 44
1.0
  0
MTEXT
  5
1C1
330
1B4
100
AcDbEntity
  8
0
  6
Continuous
 62
     7
370
    18
100
AcDbMText
 10
172.7380141056
 20
239.4090018125
 30
0.0
 40
3.5
 41
0.0
 71
     1
 72
     1
  1
2
  7
SLDTEXTSTYLE0
 73
     1
 44
1.0
  0
ENDBLK
  5
1B6
330
1B4
100
AcDbEntity
  8
0
100
AcDbBlockEnd
  0
BLOCK
  5
1C4
330
1C3
100
AcDbEntity
  8
0
100
AcDbBlockBegin
  2
_D_2
 70
     0
 10
0.0
 20
0.0
 30
0.0
  3
_D_2
  1

  0
SOLID
  5
1C6
330
1C3
100
AcDbEntity
  8
0
  6
Continuous
 62
     7
370
    18
100
AcDbTrace
 10
92.0730681256
 20
170.0868883187
 30
0.0
 11
92.8230681256
 21
173.0868883187
 31
0.0
 12
91.3230681256
 22
173.0868883187
 32
0.0
 13
91.3230681256
 23
173.0868883187
 33
0.0
  0
SOLID
  5
1C7
330
1C3
100
AcDbEntity
  8
0
  6
Continuous
 62
     7
370
    18
100
AcDbTrace
 10
92.0730681256
 20
188.0868883187
 30
0.0
 11
91.3230681256
 21
185.0868883187
 31
0.0
 12
92.8230681256
 22
185.0868883187
 32
0.0
 13
92.8230681256
 23
185.0868883187
 33
0.0
  0
LINE
  5
1C8
330
1C3
100
AcDbEntity
  8
0
  6
Continuous
 62
     7
370
     0
100
AcDbLine
 10
112.8161619502
 20
170.0868883187
 30
0.0
 11
91.0730681256
 21
170.0868883187
 31
0.0
  0
LINE
  5
1C9
330
1C3
100
AcDbEntity
  8
0
  6
Continuous
 62
     7
370
     0
100
AcDbLine
 10
97.0179176639
 20
188.0868883187
 30
0.0
 11
91.0730681256
 21
188.0868883187
 31
0.0
  0
LINE
  5
1CA
330
1C3
100
AcDbEntity
  8
0
  6
Continuous
 62
     7
370
     0
100
AcDbLine
 10
92.0730681256
 20
170.0868883187
 30
0.0
 11
92.0730681256
 21
188.0868883187
 31
0.0
  0
MTEXT
  5
1CB
330
1C3
100
AcDbEntity
  8
0
  6
Continuous
 62
     7
370
    18
100
AcDbMText
 10
87.5613312692
 20
177.0500828212
 30
0.0
 40
3.5
 41
0.0
 71
     1
 72
     1
  1
18
  7
SLDTEXTSTYLE0
 11
6.123233995736766E-17
 21
1.0
 31
0.0
 73
     1
 44
1.0
  0
ENDBLK
  5
1C5
330
1C3
100
AcDbEntity
  8
0
100
AcDbBlockEnd
  0
BLOCK
  5
1CE
330
1CD
100
AcDbEntity
  8
0
100
AcDbBlockBegin
  2
_D_3
 70
     0
 10
0.0
 20
0.0
 30
0.0
  3
_D_3
  1

  0
SOLID
  5
1D0
330
1CD
100
AcDbEntity
  8
0
  6
Continuous
 62
     7
370
    18
100
AcDbTrace
 10
84.7849108071
 20
199.0863446217
 30
0.0
 11
84.0349108071
 21
196.0863446217
 31
0.0
 12
85.5349108071
 22
196.0863446217
 32
0.0
 13
85.5349108071
 23
196.0863446217
 33
0.0
  0
SOLID
  5
1D1
330
1CD
100
AcDbEntity
  8
0
  6
Continuous
 62
     7
370
    18
100
AcDbTrace
 10
84.7849108071
 20
170.0868883187
 30
0.0
 11
85.5349108071
 21
173.0868883187
 31
0.0
 12
84.0349108071
 22
173.0868883187
 32
0.0
 13
84.0349108071
 23
173.0868883187
 33
0.0
  0
LINE
  5
1D2
330
1CD
100
AcDbEntity
  8
0
  6
Continuous
 62
     7
370
     0
100
AcDbLine
 10
108.2023342056
 20
199.0863446217
 30
0.0
 11
83.7849108071
 21
199.0863446217
 31
0.0
  0
LINE
  5
1D3
330
1CD
100
AcDbEntity
  8
0
  6
Continuous
 62
     7
370
     0
100
AcDbLine
 10
112.8161619502
 20
170.0868883187
 30
0.0
 11
83.7849108071
 21
170.0868883187
 31
0.0
  0
LINE
  5
1D4
330
1CD
100
AcDbEntity
  8
0
  6
Continuous
 62
     7
370
     0
100
AcDbLine
 10
84.7849108071
 20
199.0863446217
 30
0.0
 11
84.7849108071
 21
170.0868883187
 31
0.0
  0
MTEXT
  5
1D5
330
1CD
100
AcDbEntity
  8
0
  6
Continuous
 62
     7
370
    18
100
AcDbMText
 10
80.2731739508
 20
182.5498109727
 30
0.0
 40
3.5
 41
0.0
 71
     1
 72
     1
  1
29
  7
SLDTEXTSTYLE0
 11
-7.044195017643634E-15
 21
1.0
 31
0.0
 73
     1
 44
1.0
  0
ENDBLK
  5
1CF
330
1CD
100
AcDbEntity
  8
0
100
AcDbBlockEnd
  0
BLOCK
  5
1D8
330
1D7
100
AcDbEntity
  8
0
100
AcDbBlockBegin
  2
_D_4
 70
     0
 10
0.0
 20
0.0
 30
0.0
  3
_D_4
  1

  0
SOLID
  5
1DA
330
1D7
100
AcDbEntity
  8
0
  6
Continuous
 62
     7
370
    18
100
AcDbTrace
 10
152.8161619502
 20
162.6750344595
 30
0.0
 11
149.8161619502
 21
163.4250344595
 31
0.0
 12
149.8161619502
 22
161.9250344595
 32
0.0
 13
149.8161619502
 23
161.9250344595
 33
0.0
  0
SOLID
  5
1DB
330
1D7
100
AcDbEntity
  8
0
  6
Continuous
 62
     7
370
    18
100
AcDbTrace
 10
132.8161619502
 20
162.6750344595
 30
0.0
 11
135.8161619502
 21
161.9250344595
 31
0.0
 12
135.8161619502
 22
163.4250344595
 32
0.0
 13
135.8161619502
 23
163.4250344595
 33
0.0
  0
LINE
  5
1DC
330
1D7
100
AcDbEntity
  8
0
  6
Continuous
 62
     7
370
     0
100
AcDbLine
 10
152.8161619502
 20
167.0868883187
 30
0.0
 11
152.8161619502
 21
161.6750344595
 31
0.0
  0
LINE
  5
1DD
330
1D7
100
AcDbEntity
  8
0
  6
Continuous
 62
     7
370
     0
100
AcDbLine
 10
132.8161619502
 20
167.0868883187
 30
0.0
 11
132.8161619502
 21
161.6750344595
 31
0.0
  0
LINE
  5
1DE
330
1D7
100
AcDbEntity
  8
0
  6
Continuous
 62
     7
370
     0
100
AcDbLine
 10
152.8161619502
 20
162.6750344595
 30
0.0
 11
132.8161619502
 21
162.6750344595
 31
0.0
  0
MTEXT
  5
1DF
330
1D7
100
AcDbEntity
  8
0
  6
Continuous
 62
     7
370
    18
100
AcDbMText
 10
140.7793564527
 20
167.1867713159
 30
0.0
 40
3.5
 41
0.0
 71
     1
 72
     1
  1
20
  7
SLDTEXTSTYLE0
 73
     1
 44
1.0
  0
ENDBLK
  5
1D9
330
1D7
100
AcDbEntity
  8
0
100
AcDbBlockEnd
  0
BLOCK
  5
1E3
330
1E2
100
AcDbEntity
  8
0
100
AcDbBlockBegin
  2
_D_5
 70
     0
 10
0.0
 20
0.0
 30
0.0
  3
_D_5
  1

  0
SOLID
  5
1E5
330
1E2
100
AcDbEntity
  8
0
  6
Continuous
 62
     7
370
    18
100
AcDbTrace
 10
166.3161619502
 20
146.1440928332
 30
0.0
 11
163.3161619502
 21
146.8940928332
 31
0.0
 12
163.3161619502
 22
145.3940928332
 32
0.0
 13
163.3161619502
 23
145.3940928332
 33
0.0
  0
SOLID
  5
1E6
330
1E2
100
AcDbEntity
  8
0
  6
Continuous
 62
     7
370
    18
100
AcDbTrace
 10
173.3161619502
 20
146.1440928332
 30
0.0
 11
176.3161619502
 21
145.3940928332
 31
0.0
 12
176.3161619502
 22
146.8940928332
 32
0.0
 13
176.3161619502
 23
146.8940928332
 33
0.0
  0
LINE
  5
1E7
330
1E2
100
AcDbEntity
  8
0
  6
Continuous
 62
     7
370
     0
100
AcDbLine
 10
166.3161619502
 20
174.0868883187
 30
0.0
 11
166.3161619502
 21
145.1440928332
 31
0.0
  0
LINE
  5
1E8
330
1E2
100
AcDbEntity
  8
0
  6
Continuous
 62
     7
370
     0
100
AcDbLine
 10
173.3161619502
 20
183.1868883187
 30
0.0
 11
173.3161619502
 21
145.1440928332
 31
0.0
  0
LINE
  5
1E9
330
1E2
100
AcDbEntity
  8
0
  6
Continuous
 62
     7
370
     0
100
AcDbLine
 10
166.3161619502
 20
146.1440928332
 30
0.0
 11
161.3161619502
 21
146.1440928332
 31
0.0
  0
LINE
  5
1EA
330
1E2
100
AcDbEntity
  8
0
  6
Continuous
 62
     7
370
     0
100
AcDbLine
 10
166.3161619502
 20
146.1440928332
 30
0.0
 11
173.3161619502
 21
146.1440928332
 31
0.0
  0
LINE
  5
1EB
330
1E2
100
AcDbEntity
  8
0
  6
Continuous
 62
     7
370
     0
100
AcDbLine
 10
173.3161619502
 20
146.1440928332
 30
0.0
 11
180.7067018215
 21
146.1440928332
 31
0.0
  0
MTEXT
  5
1EC
330
1E2
100
AcDbEntity
  8
0
  6
Continuous
 62
     7
370
    18
100
AcDbMText
 10
178.669896324
 20
150.6558296896
 30
0.0
 40
3.5
 41
0.0
 71
     1
 72
     1
  1
7
  7
SLDTEXTSTYLE0
 73
     1
 44
1.0
  0
ENDBLK
  5
1E4
330
1E2
100
AcDbEntity
  8
0
100
AcDbBlockEnd
  0
BLOCK
  5
1F0
330
1EF
100
AcDbEntity
  8
0
100
AcDbBlockBegin
  2
_D_6
 70
     0
 10
0.0
 20
0.0
 30
0.0
  3
_D_6
  1

  0
ARC
  5
1F2
330
1EF
100
AcDbEntity
  8
0
  6
Continuous
 62
     7
370
    18
100
AcDbCircle
 10
134.5529673895
 20
148.1808983307
 30
0.0
 40
4.554435549315978
100
AcDbArc
 50
153.4349488229
 51
206.5650511771
  0
ARC
  5
1F3
330
1EF
100
AcDbEntity
  8
0
  6
Continuous
 62
     7
370
    18
100
AcDbCircle
 10
130.4793563945
 20
148.1808983307
 30
0.0
 40
4.554435549315953
100
AcDbArc
 50
333.4349488229
 51
26.5650511771
  0
SOLID
  5
1F4
330
1EF
100
AcDbEntity
  8
0
  6
Continuous
 62
     7
370
    18
100
AcDbTrace
 10
166.3161619502
 20
146.1440928332
 30
0.0
 11
163.3161619502
 21
146.8940928332
 31
0.0
 12
163.3161619502
 22
145.3940928332
 32
0.0
 13
163.3161619502
 23
145.3940928332
 33
0.0
  0
SOLID
  5
1F5
330
1EF
100
AcDbEntity
  8
0
  6
Continuous
 62
     7
370
    18
100
AcDbTrace
 10
98.7161619502
 20
146.1440928332
 30
0.0
 11
101.7161619502
 21
145.3940928332
 31
0.0
 12
101.7161619502
 22
146.8940928332
 32
0.0
 13
101.7161619502
 23
146.8940928332
 33
0.0
  0
LINE
  5
1F6
330
1EF
100
AcDbEntity
  8
0
  6
Continuous
 62
     7
370
     0
100
AcDbLine
 10
166.3161619502
 20
174.0868883187
 30
0.0
 11
166.3161619502
 21
145.1440928332
 31
0.0
  0
LINE
  5
1F7
330
1EF
100
AcDbEntity
  8
0
  6
Continuous
 62
     7
370
     0
100
AcDbLine
 10
98.7161619502
 20
183.6471257081
 30
0.0
 11
98.7161619502
 21
145.1440928332
 31
0.0
  0
LINE
  5
1F8
330
1EF
100
AcDbEntity
  8
0
  6
Continuous
 62
     7
370
     0
100
AcDbLine
 10
166.3161619502
 20
146.1440928332
 30
0.0
 11
98.7161619502
 21
146.1440928332
 31
0.0
  0
MTEXT
  5
1F9
330
1EF
100
AcDbEntity
  8
0
  6
Continuous
 62
     7
370
    18
100
AcDbMText
 10
130.4793563945
 20
150.6558296896
 30
0.0
 40
3.5
 41
0.0
 71
     1
 72
     1
  1
68
  7
SLDTEXTSTYLE0
 73
     1
 44
1.0
  0
ENDBLK
  5
1F1
330
1EF
100
AcDbEntity
  8
0
100
AcDbBlockEnd
  0
BLOCK
  5
1FC
330
1FB
100
AcDbEntity
  8
0
100
AcDbBlockBegin
  2
_D_7
 70
     0
 10
0.0
 20
0.0
 30
0.0
  3
_D_7
  1

  0
SOLID
  5
1FE
330
1FB
100
AcDbEntity
  8
0
  6
Continuous
 62
     7
370
    18
100
AcDbTrace
 10
166.3161619502
 20
154.0867852411
 30
0.0
 11
163.3161619502
 21
154.8367852411
 31
0.0
 12
163.3161619502
 22
153.3367852411
 32
0.0
 13
163.3161619502
 23
153.3367852411
 33
0.0
  0
SOLID
  5
1FF
330
1FB
100
AcDbEntity
  8
0
  6
Continuous
 62
     7
370
    18
100
AcDbTrace
 10
113.8161619502
 20
154.0867852411
 30
0.0
 11
116.8161619502
 21
153.3367852411
 31
0.0
 12
116.8161619502
 22
154.8367852411
 32
0.0
 13
116.8161619502
 23
154.8367852411
 33
0.0
  0
LINE
  5
200
330
1FB
100
AcDbEntity
  8
0
  6
Continuous
 62
     7
370
     0
100
AcDbLine
 10
166.3161619502
 20
174.0868883187
 30
0.0
 11
166.3161619502
 21
153.0867852411
 31
0.0
  0
LINE
  5
201
330
1FB
100
AcDbEntity
  8
0
  6
Continuous
 62
     7
370
     0
100
AcDbLine
 10
113.8161619502
 20
169.0868883187
 30
0.0
 11
113.8161619502
 21
153.0867852411
 31
0.0
  0
LINE
  5
202
330
1FB
100
AcDbEntity
  8
0
  6
Continuous
 62
     7
370
     0
100
AcDbLine
 10
166.3161619502
 20
154.0867852411
 30
0.0
 11
113.8161619502
 21
154.0867852411
 31
0.0
  0
MTEXT
  5
203
330
1FB
100
AcDbEntity
  8
0
  6
Continuous
 62
     7
370
    18
100
AcDbMText
 10
135.9925509553
 20
158.5985220975
 30
0.0
 40
3.5
 41
0.0
 71
     1
 72
     1
  1
52.5
  7
SLDTEXTSTYLE0
 73
     1
 44
1.0
  0
ENDBLK
  5
1FD
330
1FB
100
AcDbEntity
  8
0
100
AcDbBlockEnd
  0
BLOCK
  5
206
330
205
100
AcDbEntity
  8
0
100
AcDbBlockBegin
  2
_D_8
 70
     0
 10
0.0
 20
0.0
 30
0.0
  3
_D_8
  1

  0
SOLID
  5
208
330
205
100
AcDbEntity
  8
0
  6
Continuous
 62
     7
370
    18
100
AcDbTrace
 10
166.3161619502
 20
162.6750344595
 30
0.0
 11
169.3161619502
 21
161.9250344595
 31
0.0
 12
169.3161619502
 22
163.4250344595
 32
0.0
 13
169.3161619502
 23
163.4250344595
 33
0.0
  0
SOLID
  5
209
330
205
100
AcDbEntity
  8
0
  6
Continuous
 62
     7
370
    18
100
AcDbTrace
 10
152.8161619502
 20
162.6750344595
 30
0.0
 11
149.8161619502
 21
163.4250344595
 31
0.0
 12
149.8161619502
 22
161.9250344595
 32
0.0
 13
149.8161619502
 23
161.9250344595
 33
0.0
  0
LINE
  5
20A
330
205
100
AcDbEntity
  8
0
  6
Continuous
 62
     7
370
     0
100
AcDbLine
 10
166.3161619502
 20
174.0868883187
 30
0.0
 11
166.3161619502
 21
161.6750344595
 31
0.0
  0
LINE
  5
20B
330
205
100
AcDbEntity
  8
0
  6
Continuous
 62
     7
370
     0
100
AcDbLine
 10
152.8161619502
 20
167.0868883187
 30
0.0
 11
152.8161619502
 21
161.6750344595
 31
0.0
  0
LINE
  5
20C
330
205
100
AcDbEntity
  8
0
  6
Continuous
 62
     7
370
     0
100
AcDbLine
 10
166.3161619502
 20
162.6750344595
 30
0.0
 11
171.3161619502
 21
162.6750344595
 31
0.0
  0
LINE
  5
20D
330
205
100
AcDbEntity
  8
0
  6
Continuous
 62
     7
370
     0
100
AcDbLine
 10
166.3161619502
 20
162.6750344595
 30
0.0
 11
152.8161619502
 21
162.6750344595
 31
0.0
  0
LINE
  5
20E
330
205
100
AcDbEntity
  8
0
  6
Continuous
 62
     7
370
     0
100
AcDbLine
 10
152.8161619502
 20
162.6750344595
 30
0.0
 11
147.8161619502
 21
162.6750344595
 31
0.0
  0
MTEXT
  5
20F
330
205
100
AcDbEntity
  8
0
  6
Continuous
 62
     7
370
    18
100
AcDbMText
 10
155.4925509553
 20
167.1867713159
 30
0.0
 40
3.5
 41
0.0
 71
     1
 72
     1
  1
13.5
  7
SLDTEXTSTYLE0
 73
     1
 44
1.0
  0
ENDBLK
  5
207
330
205
100
AcDbEntity
  8
0
100
AcDbBlockEnd
  0
BLOCK
  5
212
330
211
100
AcDbEntity
  8
0
100
AcDbBlockBegin
  2
_D_9
 70
     0
 10
0.0
 20
0.0
 30
0.0
  3
_D_9
  1

  0
ARC
  5
214
330
211
100
AcDbEntity
  8
0
  6
Continuous
 62
     7
370
    18
100
AcDbCircle
 10
143.0653437168
 20
230.3764903134
 30
0.0
 40
4.554435549315978
100
AcDbArc
 50
153.4349488229
 51
206.5650511771
  0
ARC
  5
215
330
211
100
AcDbEntity
  8
0
  6
Continuous
 62
     7
370
    18
100
AcDbCircle
 10
143.0653437168
 20
230.3764903134
 30
0.0
 40
4.554435549315953
100
AcDbArc
 50
333.4349488229
 51
26.5650511771
  0
INSERT
  5
216
330
211
100
AcDbEntity
  8
0
  6
Continuous
 62
     7
370
    18
100
AcDbBlockReference
  2
_Dot
 10
166.6161619502
 20
228.3396848159
 30
-0.1228527619
 41
1.5
 42
1.5
 50
180.0
  0
SOLID
  5
217
330
211
100
AcDbEntity
  8
0
  6
Continuous
 62
     7
370
    18
100
AcDbTrace
 10
152.8161619502
 20
228.3396848159
 30
0.0
 11
149.8161619502
 21
229.0896848159
 31
0.0
 12
149.8161619502
 22
227.5896848159
 32
0.0
 13
149.8161619502
 23
227.5896848159
 33
0.0
  0
LINE
  5
218
330
211
100
AcDbEntity
  8
0
  6
Continuous
 62
     7
370
     0
100
AcDbLine
 10
166.6161619502
 20
213.4964714237
 30
0.0
 11
166.6161619502
 21
229.3396848159
 31
0.0
  0
LINE
  5
219
330
211
100
AcDbEntity
  8
0
  6
Continuous
 62
     7
370
     0
100
AcDbLine
 10
152.8161619502
 20
177.5868883187
 30
0.0
 11
152.8161619502
 21
229.3396848159
 31
0.0
  0
LINE
  5
21A
330
211
100
AcDbEntity
  8
0
  6
Continuous
 62
     7
370
     0
100
AcDbLine
 10
166.6161619502
 20
228.3396848159
 30
0.0
 11
171.6161619502
 21
228.3396848159
 31
0.0
  0
LINE
  5
21B
330
211
100
AcDbEntity
  8
0
  6
Continuous
 62
     7
370
     0
100
AcDbLine
 10
166.6161619502
 20
228.3396848159
 30
0.0
 11
152.8161619502
 21
228.3396848159
 31
0.0
  0
LINE
  5
21C
330
211
100
AcDbEntity
  8
0
  6
Continuous
 62
     7
370
     0
100
AcDbLine
 10
152.8161619502
 20
228.3396848159
 30
0.0
 11
138.5109081643
 21
228.3396848159
 31
0.0
  0
MTEXT
  5
21D
330
211
100
AcDbEntity
  8
0
  6
Continuous
 62
     7
370
    18
100
AcDbMText
 10
138.9917327219
 20
232.8514216723
 30
0.0
 40
3.5
 41
0.0
 71
     1
 72
     1
  1
13.8
  7
SLDTEXTSTYLE0
 73
     1
 44
1.0
  0
ENDBLK
  5
213
330
211
100
AcDbEntity
  8
0
100
AcDbBlockEnd
  0
BLOCK
  5
221
330
220
100
AcDbEntity
  8
0
100
AcDbBlockBegin
  2
_D_10
 70
     0
 10
0.0
 20
0.0
 30
0.0
  3
_D_10
  1

  0
INSERT
  5
223
330
220
100
AcDbEntity
  8
0
  6
Continuous
 62
     7
370
    18
100
AcDbBlockReference
  2
_Dot
 10
166.6161619502
 20
228.3396848159
 30
-0.1228527619
 41
1.5
 42
1.5
 50
0.0
  0
INSERT
  5
224
330
220
100
AcDbEntity
  8
0
  6
Continuous
 62
     7
370
    18
100
AcDbBlockReference
  2
_Dot
 10
174.1161619502
 20
228.3396848159
 30
-0.1228527619
 41
1.5
 42
1.5
 50
180.0
  0
LINE
  5
225
330
220
100
AcDbEntity
  8
0
  6
Continuous
 62
     7
370
     0
100
AcDbLine
 10
166.6161619502
 20
213.4964714237
 30
0.0
 11
166.6161619502
 21
229.3396848159
 31
0.0
  0
LINE
  5
226
330
220
100
AcDbEntity
  8
0
  6
Continuous
 62
     7
370
     0
100
AcDbLine
 10
174.1161619502
 20
222.0013108687
 30
0.0
 11
174.1161619502
 21
229.3396848159
 31
0.0
  0
LINE
  5
227
330
220
100
AcDbEntity
  8
0
  6
Continuous
 62
     7
370
     0
100
AcDbLine
 10
166.6161619502
 20
228.3396848159
 30
0.0
 11
161.6161619502
 21
228.3396848159
 31
0.0
  0
LINE
  5
228
330
220
100
AcDbEntity
  8
0
  6
Continuous
 62
     7
370
     0
100
AcDbLine
 10
166.6161619502
 20
228.3396848159
 30
0.0
 11
174.1161619502
 21
228.3396848159
 31
0.0
  0
LINE
  5
229
330
220
100
AcDbEntity
  8
0
  6
Continuous
 62
     7
370
     0
100
AcDbLine
 10
174.1161619502
 20
228.3396848159
 30
0.0
 11
179.1161619502
 21
228.3396848159
 31
0.0
  0
MTEXT
  5
22A
330
220
100
AcDbEntity
  8
0
  6
Continuous
 62
     7
370
    18
100
AcDbMText
 10
167.3109535876
 20
232.8514216723
 30
0.0
 40
3.5
 41
0.0
 71
     1
 72
     1
  1
7.5
  7
SLDTEXTSTYLE0
 73
     1
 44
1.0
  0
ENDBLK
  5
222
330
220
100
AcDbEntity
  8
0
100
AcDbBlockEnd
  0
BLOCK
  5
22C
330
22B
100
AcDbEntity
  8
0
100
AcDbBlockBegin
  2
SW_NOTE_0
 70
     0
 10
0.0
 20
0.0
 30
0.0
  3
SW_NOTE_0
  1

  0
LINE
  5
22E
330
22B
100
AcDbEntity
  8
0
  6
Continuous
 62
     0
370
     0
100
AcDbLine
 10
-20.4930545092
 20
0.0
 30
0.0
 11
0.0
 21
0.0
 31
0.0
  0
MTEXT
  5
22F
330
22B
100
AcDbEntity
  8
0
  6
Continuous
 62
     0
370
     0
100
AcDbMText
 10
-20.9925827955
 20
4.5738977576
 30
0.0
 40
3.5
 41
0.0
 71
     1
 72
     1
  1
カット配管
  7
SLDTEXTSTYLE0
 73
     1
 44
1.0
  0
ENDBLK
  5
22D
330
22B
100
AcDbEntity
  8
0
100
AcDbBlockEnd
  0
BLOCK
  5
235
330
234
100
AcDbEntity
  8
0
100
AcDbBlockBegin
  2
SW_NOTE_0_1
 70
     0
 10
0.0
 20
0.0
 30
0.0
  3
SW_NOTE_0_1
  1

  0
LINE
  5
237
330
234
100
AcDbEntity
  8
0
  6
Continuous
 62
     0
370
     0
100
AcDbLine
 10
-28.6402755678
 20
0.0
 30
0.0
 11
0.0
 21
0.0
 31
0.0
  0
MTEXT
  5
238
330
234
100
AcDbEntity
  8
0
  6
Continuous
 62
     0
370
     0
100
AcDbMText
 10
-29.1025428773
 20
4.6021055227
 30
0.0
 40
3.5
 41
0.0
 71
     1
 72
     1
  1
プッシュ配管　
  7
SLDTEXTSTYLE0
 73
     1
 44
1.0
  0
ENDBLK
  5
236
330
234
100
AcDbEntity
  8
0
100
AcDbBlockEnd
  0
BLOCK
  5
318
330
317
100
AcDbEntity
  8
0
100
AcDbBlockBegin
  2
_D_11
 70
     0
 10
0.0
 20
0.0
 30
0.0
  3
_D_11
  1

  0
SOLID
  5
31A
330
317
100
AcDbEntity
  8
0
  6
Continuous
 62
     7
370
    18
100
AcDbTrace
 10
36.2178423467
 20
161.6232880446
 30
0.0
 11
39.2178423467
 21
160.8732880446
 31
0.0
 12
39.2178423467
 22
162.3732880446
 32
0.0
 13
39.2178423467
 23
162.3732880446
 33
0.0
  0
SOLID
  5
31B
330
317
100
AcDbEntity
  8
0
  6
Continuous
 62
     7
370
    18
100
AcDbTrace
 10
56.2178423467
 20
161.6232880446
 30
0.0
 11
53.2178423467
 21
162.3732880446
 31
0.0
 12
53.2178423467
 22
160.8732880446
 32
0.0
 13
53.2178423467
 23
160.8732880446
 33
0.0
  0
LINE
  5
31C
330
317
100
AcDbEntity
  8
0
  6
Continuous
 62
     7
370
     0
100
AcDbLine
 10
36.2178423467
 20
169.0868883187
 30
0.0
 11
36.2178423467
 21
160.6232880446
 31
0.0
  0
LINE
  5
31D
330
317
100
AcDbEntity
  8
0
  6
Continuous
 62
     7
370
     0
100
AcDbLine
 10
56.2178423467
 20
169.0868883187
 30
0.0
 11
56.2178423467
 21
160.6232880446
 31
0.0
  0
LINE
  5
31E
330
317
100
AcDbEntity
  8
0
  6
Continuous
 62
     7
370
     0
100
AcDbLine
 10
36.2178423467
 20
161.6232880446
 30
0.0
 11
56.2178423467
 21
161.6232880446
 31
0.0
  0
MTEXT
  5
31F
330
317
100
AcDbEntity
  8
0
  6
Continuous
 62
     7
370
    18
100
AcDbMText
 10
44.1810368492
 20
166.135024901
 30
0.0
 40
3.5
 41
0.0
 71
     1
 72
     1
  1
20
  7
SLDTEXTSTYLE0
 73
     1
 44
1.0
  0
ENDBLK
  5
319
330
317
100
AcDbEntity
  8
0
100
AcDbBlockEnd
  0
BLOCK
  5
322
330
321
100
AcDbEntity
  8
0
100
AcDbBlockBegin
  2
_D_12
 70
     0
 10
0.0
 20
0.0
 30
0.0
  3
_D_12
  1

  0
SOLID
  5
324
330
321
100
AcDbEntity
  8
0
  6
Continuous
 62
     7
370
    18
100
AcDbTrace
 10
66.4679454244
 20
203.0868883187
 30
0.0
 11
65.7179454244
 21
200.0868883187
 31
0.0
 12
67.2179454244
 22
200.0868883187
 32
0.0
 13
67.2179454244
 23
200.0868883187
 33
0.0
  0
SOLID
  5
325
330
321
100
AcDbEntity
  8
0
  6
Continuous
 62
     7
370
    18
100
AcDbTrace
 10
66.4679454244
 20
170.0868883187
 30
0.0
 11
67.2179454244
 21
173.0868883187
 31
0.0
 12
65.7179454244
 22
173.0868883187
 32
0.0
 13
65.7179454244
 23
173.0868883187
 33
0.0
  0
LINE
  5
326
330
321
100
AcDbEntity
  8
0
  6
Continuous
 62
     7
370
     0
100
AcDbLine
 10
54.2178423467
 20
203.0868883187
 30
0.0
 11
67.4679454244
 21
203.0868883187
 31
0.0
  0
LINE
  5
327
330
321
100
AcDbEntity
  8
0
  6
Continuous
 62
     7
370
     0
100
AcDbLine
 10
57.2178423467
 20
170.0868883187
 30
0.0
 11
67.4679454244
 21
170.0868883187
 31
0.0
  0
LINE
  5
328
330
321
100
AcDbEntity
  8
0
  6
Continuous
 62
     7
370
     0
100
AcDbLine
 10
66.4679454244
 20
203.0868883187
 30
0.0
 11
66.4679454244
 21
170.0868883187
 31
0.0
  0
MTEXT
  5
329
330
321
100
AcDbEntity
  8
0
  6
Continuous
 62
     7
370
    18
100
AcDbMText
 10
61.956208568
 20
184.5500828212
 30
0.0
 40
3.5
 41
0.0
 71
     1
 72
     1
  1
33
  7
SLDTEXTSTYLE0
 11
-7.044195017643634E-15
 21
1.0
 31
0.0
 73
     1
 44
1.0
  0
ENDBLK
  5
323
330
321
100
AcDbEntity
  8
0
100
AcDbBlockEnd
  0
BLOCK
  5
32C
330
32B
100
AcDbEntity
  8
0
100
AcDbBlockBegin
  2
_D_13
 70
     0
 10
0.0
 20
0.0
 30
0.0
  3
_D_13
  1

  0
SOLID
  5
32E
330
32B
100
AcDbEntity
  8
0
  6
Continuous
 62
     7
370
    18
100
AcDbTrace
 10
73.8055945354
 20
211.0868883224
 30
0.0
 11
73.0555945354
 21
208.0868883224
 31
0.0
 12
74.5555945354
 22
208.0868883224
 32
0.0
 13
74.5555945354
 23
208.0868883224
 33
0.0
  0
SOLID
  5
32F
330
32B
100
AcDbEntity
  8
0
  6
Continuous
 62
     7
370
    18
100
AcDbTrace
 10
73.8055945354
 20
170.0868883187
 30
0.0
 11
74.5555945354
 21
173.0868883187
 31
0.0
 12
73.0555945354
 22
173.0868883187
 32
0.0
 13
73.0555945354
 23
173.0868883187
 33
0.0
  0
LINE
  5
330
330
32B
100
AcDbEntity
  8
0
  6
Continuous
 62
     7
370
     0
100
AcDbLine
 10
54.3885536049
 20
211.0868883224
 30
0.0
 11
74.8055945354
 21
211.0868883224
 31
0.0
  0
LINE
  5
331
330
32B
100
AcDbEntity
  8
0
  6
Continuous
 62
     7
370
     0
100
AcDbLine
 10
57.2178423467
 20
170.0868883187
 30
0.0
 11
74.8055945354
 21
170.0868883187
 31
0.0
  0
LINE
  5
332
330
32B
100
AcDbEntity
  8
0
  6
Continuous
 62
     7
370
     0
100
AcDbLine
 10
73.8055945354
 20
211.0868883224
 30
0.0
 11
73.8055945354
 21
170.0868883187
 31
0.0
  0
MTEXT
  5
333
330
32B
100
AcDbEntity
  8
0
  6
Continuous
 62
     7
370
    18
100
AcDbMText
 10
69.293857679
 20
188.550082824
 30
0.0
 40
3.5
 41
0.0
 71
     1
 72
     1
  1
41
  7
SLDTEXTSTYLE0
 11
-7.044195017643634E-15
 21
1.0
 31
0.0
 73
     1
 44
1.0
  0
ENDBLK
  5
32D
330
32B
100
AcDbEntity
  8
0
100
AcDbBlockEnd
  0
BLOCK
  5
336
330
335
100
AcDbEntity
  8
0
100
AcDbBlockBegin
  2
_D_14
 70
     0
 10
0.0
 20
0.0
 30
0.0
  3
_D_14
  1

  0
SOLID
  5
338
330
335
100
AcDbEntity
  8
0
  6
Continuous
 62
     7
370
    18
100
AcDbTrace
 10
30.1166781209
 20
206.0868883187
 30
0.0
 11
29.3666781209
 21
203.0868883187
 31
0.0
 12
30.8666781209
 22
203.0868883187
 32
0.0
 13
30.8666781209
 23
203.0868883187
 33
0.0
  0
SOLID
  5
339
330
335
100
AcDbEntity
  8
0
  6
Continuous
 62
     7
370
    18
100
AcDbTrace
 10
30.1166781209
 20
170.0868883187
 30
0.0
 11
30.8666781209
 21
173.0868883187
 31
0.0
 12
29.3666781209
 22
173.0868883187
 32
0.0
 13
29.3666781209
 23
173.0868883187
 33
0.0
  0
LINE
  5
33A
330
335
100
AcDbEntity
  8
0
  6
Continuous
 62
     7
370
     0
100
AcDbLine
 10
40.4678423467
 20
206.0868883187
 30
0.0
 11
29.1166781209
 21
206.0868883187
 31
0.0
  0
LINE
  5
33B
330
335
100
AcDbEntity
  8
0
  6
Continuous
 62
     7
370
     0
100
AcDbLine
 10
35.2178423467
 20
170.0868883187
 30
0.0
 11
29.1166781209
 21
170.0868883187
 31
0.0
  0
LINE
  5
33C
330
335
100
AcDbEntity
  8
0
  6
Continuous
 62
     7
370
     0
100
AcDbLine
 10
30.1166781209
 20
206.0868883187
 30
0.0
 11
30.1166781209
 21
170.0868883187
 31
0.0
  0
MTEXT
  5
33D
330
335
100
AcDbEntity
  8
0
  6
Continuous
 62
     7
370
    18
100
AcDbMText
 10
25.6049412645
 20
186.0500828212
 30
0.0
 40
3.5
 41
0.0
 71
     1
 72
     1
  1
36
  7
SLDTEXTSTYLE0
 11
-7.044195017643634E-15
 21
1.0
 31
0.0
 73
     1
 44
1.0
  0
ENDBLK
  5
337
330
335
100
AcDbEntity
  8
0
100
AcDbBlockEnd
  0
BLOCK
  5
340
330
33F
100
AcDbEntity
  8
0
100
AcDbBlockBegin
  2
_D_15
 70
     0
 10
0.0
 20
0.0
 30
0.0
  3
_D_15
  1

  0
ARC
  5
342
330
33F
100
AcDbEntity
  8
0
  6
Continuous
 62
     7
370
    18
100
AcDbCircle
 10
71.7687890371
 20
217.0625021724
 30
0.0
 40
4.554435549315984
100
AcDbArc
 50
243.4349488303
 51
296.5650511844
  0
ARC
  5
343
330
33F
100
AcDbEntity
  8
0
  6
Continuous
 62
     7
370
    18
100
AcDbCircle
 10
71.7687890374
 20
215.0256969078
 30
0.0
 40
4.55443554931596
100
AcDbArc
 50
63.4349488303
 51
116.5650511844
  0
SOLID
  5
344
330
33F
100
AcDbEntity
  8
0
  6
Continuous
 62
     7
370
    18
100
AcDbTrace
 10
73.8055945341
 20
221.0013108721
 30
0.0
 11
74.5555945337
 21
224.0013108722
 31
0.0
 12
73.0555945337
 22
224.001310872
 32
0.0
 13
73.0555945337
 23
224.001310872
 33
0.0
  0
SOLID
  5
345
330
33F
100
AcDbEntity
  8
0
  6
Continuous
 62
     7
370
    18
100
AcDbTrace
 10
73.8055945354
 20
211.086888325
 30
0.0
 11
73.0555945358
 21
208.0868883249
 31
0.0
 12
74.5555945358
 22
208.0868883251
 32
0.0
 13
74.5555945358
 23
208.0868883251
 33
0.0
  0
LINE
  5
346
330
33F
100
AcDbEntity
  8
0
  6
Continuous
 62
     7
370
     0
100
AcDbLine
 10
48.8178423467
 20
221.0013108689
 30
0.0
 11
74.8055945341
 21
221.0013108722
 31
0.0
  0
LINE
  5
347
330
33F
100
AcDbEntity
  8
0
  6
Continuous
 62
     7
370
     0
100
AcDbLine
 10
54.3885536049
 20
211.0868883225
 30
0.0
 11
74.8055945354
 21
211.0868883252
 31
0.0
  0
LINE
  5
348
330
33F
100
AcDbEntity
  8
0
  6
Continuous
 62
     7
370
     0
100
AcDbLine
 10
73.8055945341
 20
221.0013108721
 30
0.0
 11
73.8055945335
 21
226.0013108721
 31
0.0
  0
LINE
  5
349
330
33F
100
AcDbEntity
  8
0
  6
Continuous
 62
     7
370
     0
100
AcDbLine
 10
73.8055945341
 20
221.0013108721
 30
0.0
 11
73.8055945354
 21
211.086888325
 31
0.0
  0
LINE
  5
34A
330
33F
100
AcDbEntity
  8
0
  6
Continuous
 62
     7
370
     0
100
AcDbLine
 10
73.8055945354
 20
211.086888325
 30
0.0
 11
73.805594536
 21
206.086888325
 31
0.0
  0
MTEXT
  5
34B
330
33F
100
AcDbEntity
  8
0
  6
Continuous
 62
     7
370
    18
100
AcDbMText
 10
69.2938576788
 20
212.9888911771
 30
0.0
 40
3.5
 41
0.0
 71
     1
 72
     1
  1
9.9
  7
SLDTEXTSTYLE0
 11
-1.286046212265594E-10
 21
1.0
 31
0.0
 73
     1
 44
1.0
  0
ENDBLK
  5
341
330
33F
100
AcDbEntity
  8
0
100
AcDbBlockEnd
  0
BLOCK
  5
34F
330
34E
100
AcDbEntity
  8
0
100
AcDbBlockBegin
  2
_D_16
 70
     0
 10
0.0
 20
0.0
 30
0.0
  3
_D_16
  1

  0
ARC
  5
351
330
34E
100
AcDbEntity
  8
0
  6
Continuous
 62
     7
370
    18
100
AcDbCircle
 10
59.2762186439
 20
229.564327127
 30
0.0
 40
4.554435549315966
100
AcDbArc
 50
153.4349488229
 51
206.5650511771
  0
ARC
  5
352
330
34E
100
AcDbEntity
  8
0
  6
Continuous
 62
     7
370
    18
100
AcDbCircle
 10
53.1658021514
 20
229.564327127
 30
0.0
 40
4.554435549315966
100
AcDbArc
 50
333.4349488229
 51
26.5650511771
  0
SOLID
  5
353
330
34E
100
AcDbEntity
  8
0
  6
Continuous
 62
     7
370
    18
100
AcDbTrace
 10
44.6178423467
 20
227.5275216295
 30
0.0
 11
41.6178423467
 21
228.2775216295
 31
0.0
 12
41.6178423467
 22
226.7775216295
 32
0.0
 13
41.6178423467
 23
226.7775216295
 33
0.0
  0
SOLID
  5
354
330
34E
100
AcDbEntity
  8
0
  6
Continuous
 62
     7
370
    18
100
AcDbTrace
 10
47.8178423467
 20
227.5275216295
 30
0.0
 11
50.8178423467
 21
226.7775216295
 31
0.0
 12
50.8178423467
 22
228.2775216295
 32
0.0
 13
50.8178423467
 23
228.2775216295
 33
0.0
  0
LINE
  5
355
330
34E
100
AcDbEntity
  8
0
  6
Continuous
 62
     7
370
     0
100
AcDbLine
 10
44.6178423467
 20
222.0013108687
 30
0.0
 11
44.6178423467
 21
228.5275216295
 31
0.0
  0
LINE
  5
356
330
34E
100
AcDbEntity
  8
0
  6
Continuous
 62
     7
370
     0
100
AcDbLine
 10
47.8178423467
 20
222.0013108687
 30
0.0
 11
47.8178423467
 21
228.5275216295
 31
0.0
  0
LINE
  5
357
330
34E
100
AcDbEntity
  8
0
  6
Continuous
 62
     7
370
     0
100
AcDbLine
 10
44.6178423467
 20
227.5275216295
 30
0.0
 11
39.6178423467
 21
227.5275216295
 31
0.0
  0
LINE
  5
358
330
34E
100
AcDbEntity
  8
0
  6
Continuous
 62
     7
370
     0
100
AcDbLine
 10
44.6178423467
 20
227.5275216295
 30
0.0
 11
47.8178423467
 21
227.5275216295
 31
0.0
  0
LINE
  5
359
330
34E
100
AcDbEntity
  8
0
  6
Continuous
 62
     7
370
     0
100
AcDbLine
 10
47.8178423467
 20
227.5275216295
 30
0.0
 11
57.7202375876
 21
227.5275216295
 31
0.0
  0
MTEXT
  5
35A
330
34E
100
AcDbEntity
  8
0
  6
Continuous
 62
     7
370
    18
100
AcDbMText
 10
55.2026076489
 20
232.0392584859
 30
0.0
 40
3.5
 41
0.0
 71
     1
 72
     1
  1
3
  7
SLDTEXTSTYLE0
 73
     1
 44
1.0
  0
ENDBLK
  5
350
330
34E
100
AcDbEntity
  8
0
100
AcDbBlockEnd
  0
BLOCK
  5
35D
330
35C
100
AcDbEntity
  8
0
100
AcDbBlockBegin
  2
_D_17
 70
     0
 10
0.0
 20
0.0
 30
0.0
  3
_D_17
  1

  0
ARC
  5
35F
330
35C
100
AcDbEntity
  8
0
  6
Continuous
 62
     7
370
    18
100
AcDbCircle
 10
46.2178422885
 20
237.4456464529
 30
0.0
 40
4.554435549315966
100
AcDbArc
 50
153.4349488229
 51
206.5650511771
  0
ARC
  5
360
330
35C
100
AcDbEntity
  8
0
  6
Continuous
 62
     7
370
    18
100
AcDbCircle
 10
46.2178422885
 20
237.4456464529
 30
0.0
 40
4.554435549315966
100
AcDbArc
 50
333.4349488229
 51
26.5650511771
  0
SOLID
  5
361
330
35C
100
AcDbEntity
  8
0
  6
Continuous
 62
     7
370
    18
100
AcDbTrace
 10
40.4101173844
 20
235.4088409554
 30
0.0
 11
37.4101173844
 21
236.1588409554
 31
0.0
 12
37.4101173844
 22
234.6588409554
 32
0.0
 13
37.4101173844
 23
234.6588409554
 33
0.0
  0
SOLID
  5
362
330
35C
100
AcDbEntity
  8
0
  6
Continuous
 62
     7
370
    18
100
AcDbTrace
 10
52.025567309
 20
235.4088409554
 30
0.0
 11
55.025567309
 21
234.6588409554
 31
0.0
 12
55.025567309
 22
236.1588409554
 32
0.0
 13
55.025567309
 23
236.1588409554
 33
0.0
  0
LINE
  5
363
330
35C
100
AcDbEntity
  8
0
  6
Continuous
 62
     7
370
     0
100
AcDbLine
 10
40.4101173844
 20
210.8378683449
 30
0.0
 11
40.4101173844
 21
236.4088409554
 31
0.0
  0
LINE
  5
364
330
35C
100
AcDbEntity
  8
0
  6
Continuous
 62
     7
370
     0
100
AcDbLine
 10
52.025567309
 20
210.8378683449
 30
0.0
 11
52.025567309
 21
236.4088409554
 31
0.0
  0
LINE
  5
365
330
35C
100
AcDbEntity
  8
0
  6
Continuous
 62
     7
370
     0
100
AcDbLine
 10
40.4101173844
 20
235.4088409554
 30
0.0
 11
35.4101173844
 21
235.4088409554
 31
0.0
  0
LINE
  5
366
330
35C
100
AcDbEntity
  8
0
  6
Continuous
 62
     7
370
     0
100
AcDbLine
 10
40.4101173844
 20
235.4088409554
 30
0.0
 11
52.025567309
 21
235.4088409554
 31
0.0
  0
LINE
  5
367
330
35C
100
AcDbEntity
  8
0
  6
Continuous
 62
     7
370
     0
100
AcDbLine
 10
52.025567309
 20
235.4088409554
 30
0.0
 11
57.025567309
 21
235.4088409554
 31
0.0
  0
MTEXT
  5
368
330
35C
100
AcDbEntity
  8
0
  6
Continuous
 62
     7
370
    18
100
AcDbMText
 10
42.1442312935
 20
239.9205778118
 30
0.0
 40
3.5
 41
0.0
 71
     1
 72
     1
  1
11.6
  7
SLDTEXTSTYLE0
 73
     1
 44
1.0
  0
ENDBLK
  5
35E
330
35C
100
AcDbEntity
  8
0
100
AcDbBlockEnd
  0
BLOCK
  5
36A
330
369
100
AcDbEntity
  8
0
100
AcDbBlockBegin
  2
SW_CENTERMARKSYMBOL_0
 70
     0
 10
0.0
 20
0.0
 30
0.0
  3
SW_CENTERMARKSYMBOL_0
  1

  0
LINE
  5
36C
330
369
100
AcDbEntity
  8
0
  6
Continuous
 62
     0
370
    18
100
AcDbLine
 10
0.0
 20
0.0
 30
0.0
 11
0.0
 21
2.5
 31
0.0
  0
LINE
  5
36D
330
369
100
AcDbEntity
  8
0
  6
Continuous
 62
     0
370
    18
100
AcDbLine
 10
0.0
 20
0.0
 30
0.0
 11
-2.5
 21
0.0
 31
0.0
  0
LINE
  5
36E
330
369
100
AcDbEntity
  8
0
  6
Continuous
 62
     0
370
    18
100
AcDbLine
 10
0.0
 20
0.0
 30
0.0
 11
0.0
 21
-2.5
 31
0.0
  0
LINE
  5
36F
330
369
100
AcDbEntity
  8
0
  6
Continuous
 62
     0
370
    18
100
AcDbLine
 10
0.0
 20
0.0
 30
0.0
 11
2.5
 21
0.0
 31
0.0
  0
LINE
  5
370
330
369
100
AcDbEntity
  8
0
  6
Continuous
 62
     0
370
    18
100
AcDbLine
 10
0.0
 20
5.0
 30
0.0
 11
0.0
 21
6.5
 31
0.0
  0
LINE
  5
371
330
369
100
AcDbEntity
  8
0
  6
Continuous
 62
     0
370
    18
100
AcDbLine
 10
-5.0
 20
0.0
 30
0.0
 11
-6.5
 21
0.0
 31
0.0
  0
LINE
  5
372
330
369
100
AcDbEntity
  8
0
  6
Continuous
 62
     0
370
    18
100
AcDbLine
 10
0.0
 20
-5.0
 30
0.0
 11
0.0
 21
-6.5
 31
0.0
  0
LINE
  5
373
330
369
100
AcDbEntity
  8
0
  6
Continuous
 62
     0
370
    18
100
AcDbLine
 10
5.0
 20
0.0
 30
0.0
 11
6.5
 21
0.0
 31
0.0
  0
ENDBLK
  5
36B
330
369
100
AcDbEntity
  8
0
100
AcDbBlockEnd
  0
BLOCK
  5
376
330
375
100
AcDbEntity
  8
0
100
AcDbBlockBegin
  2
SW_CENTERMARKSYMBOL_1
 70
     0
 10
0.0
 20
0.0
 30
0.0
  3
SW_CENTERMARKSYMBOL_1
  1

  0
LINE
  5
378
330
375
100
AcDbEntity
  8
0
  6
Continuous
 62
     0
370
    18
100
AcDbLine
 10
0.0
 20
0.0
 30
0.0
 11
0.0
 21
2.5
 31
0.0
  0
LINE
  5
379
330
375
100
AcDbEntity
  8
0
  6
Continuous
 62
     0
370
    18
100
AcDbLine
 10
0.0
 20
0.0
 30
0.0
 11
-2.5
 21
0.0
 31
0.0
  0
LINE
  5
37A
330
375
100
AcDbEntity
  8
0
  6
Continuous
 62
     0
370
    18
100
AcDbLine
 10
0.0
 20
0.0
 30
0.0
 11
0.0
 21
-2.5
 31
0.0
  0
LINE
  5
37B
330
375
100
AcDbEntity
  8
0
  6
Continuous
 62
     0
370
    18
100
AcDbLine
 10
0.0
 20
0.0
 30
0.0
 11
2.5
 21
0.0
 31
0.0
  0
LINE
  5
37C
330
375
100
AcDbEntity
  8
0
  6
Continuous
 62
     0
370
    18
100
AcDbLine
 10
0.0
 20
2.5
 30
0.0
 11
0.0
 21
4.75
 31
0.0
  0
LINE
  5
37D
330
375
100
AcDbEntity
  8
0
  6
Continuous
 62
     0
370
    18
100
AcDbLine
 10
-2.5
 20
0.0
 30
0.0
 11
-4.75
 21
0.0
 31
0.0
  0
LINE
  5
37E
330
375
100
AcDbEntity
  8
0
  6
Continuous
 62
     0
370
    18
100
AcDbLine
 10
0.0
 20
-2.5
 30
0.0
 11
0.0
 21
-4.75
 31
0.0
  0
LINE
  5
37F
330
375
100
AcDbEntity
  8
0
  6
Continuous
 62
     0
370
    18
100
AcDbLine
 10
2.5
 20
0.0
 30
0.0
 11
4.75
 21
0.0
 31
0.0
  0
ENDBLK
  5
377
330
375
100
AcDbEntity
  8
0
100
AcDbBlockEnd
  0
BLOCK
  5
382
330
381
100
AcDbEntity
  8
0
100
AcDbBlockBegin
  2
SW_CENTERMARKSYMBOL_2
 70
     0
 10
0.0
 20
0.0
 30
0.0
  3
SW_CENTERMARKSYMBOL_2
  1

  0
LINE
  5
384
330
381
100
AcDbEntity
  8
0
  6
Continuous
 62
     0
370
    18
100
AcDbLine
 10
0.0
 20
0.0
 30
0.0
 11
0.0
 21
2.5
 31
0.0
  0
LINE
  5
385
330
381
100
AcDbEntity
  8
0
  6
Continuous
 62
     0
370
    18
100
AcDbLine
 10
0.0
 20
0.0
 30
0.0
 11
-2.5
 21
0.0
 31
0.0
  0
LINE
  5
386
330
381
100
AcDbEntity
  8
0
  6
Continuous
 62
     0
370
    18
100
AcDbLine
 10
0.0
 20
0.0
 30
0.0
 11
0.0
 21
-2.5
 31
0.0
  0
LINE
  5
387
330
381
100
AcDbEntity
  8
0
  6
Continuous
 62
     0
370
    18
100
AcDbLine
 10
0.0
 20
0.0
 30
0.0
 11
2.5
 21
0.0
 31
0.0
  0
LINE
  5
388
330
381
100
AcDbEntity
  8
0
  6
Continuous
 62
     0
370
    18
100
AcDbLine
 10
0.0
 20
2.5
 30
0.0
 11
0.0
 21
4.75
 31
0.0
  0
LINE
  5
389
330
381
100
AcDbEntity
  8
0
  6
Continuous
 62
     0
370
    18
100
AcDbLine
 10
-2.5
 20
0.0
 30
0.0
 11
-4.75
 21
0.0
 31
0.0
  0
LINE
  5
38A
330
381
100
AcDbEntity
  8
0
  6
Continuous
 62
     0
370
    18
100
AcDbLine
 10
0.0
 20
-2.5
 30
0.0
 11
0.0
 21
-4.75
 31
0.0
  0
LINE
  5
38B
330
381
100
AcDbEntity
  8
0
  6
Continuous
 62
     0
370
    18
100
AcDbLine
 10
2.5
 20
0.0
 30
0.0
 11
4.75
 21
0.0
 31
0.0
  0
ENDBLK
  5
383
330
381
100
AcDbEntity
  8
0
100
AcDbBlockEnd
  0
BLOCK
  5
38E
330
38D
100
AcDbEntity
  8
0
100
AcDbBlockBegin
  2
SW_CENTERMARKSYMBOL_3
 70
     0
 10
0.0
 20
0.0
 30
0.0
  3
SW_CENTERMARKSYMBOL_3
  1

  0
LINE
  5
390
330
38D
100
AcDbEntity
  8
0
  6
Continuous
 62
     0
370
    18
100
AcDbLine
 10
0.0
 20
0.0
 30
0.0
 11
0.0
 21
2.5
 31
0.0
  0
LINE
  5
391
330
38D
100
AcDbEntity
  8
0
  6
Continuous
 62
     0
370
    18
100
AcDbLine
 10
0.0
 20
0.0
 30
0.0
 11
-2.5
 21
0.0
 31
0.0
  0
LINE
  5
392
330
38D
100
AcDbEntity
  8
0
  6
Continuous
 62
     0
370
    18
100
AcDbLine
 10
0.0
 20
0.0
 30
0.0
 11
0.0
 21
-2.5
 31
0.0
  0
LINE
  5
393
330
38D
100
AcDbEntity
  8
0
  6
Continuous
 62
     0
370
    18
100
AcDbLine
 10
0.0
 20
0.0
 30
0.0
 11
2.5
 21
0.0
 31
0.0
  0
LINE
  5
394
330
38D
100
AcDbEntity
  8
0
  6
Continuous
 62
     0
370
    18
100
AcDbLine
 10
0.0
 20
5.0
 30
0.0
 11
0.0
 21
6.5
 31
0.0
  0
LINE
  5
395
330
38D
100
AcDbEntity
  8
0
  6
Continuous
 62
     0
370
    18
100
AcDbLine
 10
-5.0
 20
0.0
 30
0.0
 11
-6.5
 21
0.0
 31
0.0
  0
LINE
  5
396
330
38D
100
AcDbEntity
  8
0
  6
Continuous
 62
     0
370
    18
100
AcDbLine
 10
0.0
 20
-5.0
 30
0.0
 11
0.0
 21
-6.5
 31
0.0
  0
LINE
  5
397
330
38D
100
AcDbEntity
  8
0
  6
Continuous
 62
     0
370
    18
100
AcDbLine
 10
5.0
 20
0.0
 30
0.0
 11
6.5
 21
0.0
 31
0.0
  0
ENDBLK
  5
38F
330
38D
100
AcDbEntity
  8
0
100
AcDbBlockEnd
  0
BLOCK
  5
39A
330
399
100
AcDbEntity
  8
0
100
AcDbBlockBegin
  2
SW_CENTERMARKSYMBOL_4
 70
     0
 10
0.0
 20
0.0
 30
0.0
  3
SW_CENTERMARKSYMBOL_4
  1

  0
LINE
  5
39C
330
399
100
AcDbEntity
  8
0
  6
Continuous
 62
     0
370
    18
100
AcDbLine
 10
0.0
 20
0.0
 30
0.0
 11
0.0
 21
2.5
 31
0.0
  0
LINE
  5
39D
330
399
100
AcDbEntity
  8
0
  6
Continuous
 62
     0
370
    18
100
AcDbLine
 10
0.0
 20
0.0
 30
0.0
 11
-2.5
 21
0.0
 31
0.0
  0
LINE
  5
39E
330
399
100
AcDbEntity
  8
0
  6
Continuous
 62
     0
370
    18
100
AcDbLine
 10
0.0
 20
0.0
 30
0.0
 11
0.0
 21
-2.5
 31
0.0
  0
LINE
  5
39F
330
399
100
AcDbEntity
  8
0
  6
Continuous
 62
     0
370
    18
100
AcDbLine
 10
0.0
 20
0.0
 30
0.0
 11
2.5
 21
0.0
 31
0.0
  0
LINE
  5
3A0
330
399
100
AcDbEntity
  8
0
  6
Continuous
 62
     0
370
    18
100
AcDbLine
 10
0.0
 20
5.0
 30
0.0
 11
0.0
 21
5.25
 31
0.0
  0
LINE
  5
3A1
330
399
100
AcDbEntity
  8
0
  6
Continuous
 62
     0
370
    18
100
AcDbLine
 10
-5.0
 20
0.0
 30
0.0
 11
-5.25
 21
0.0
 31
0.0
  0
LINE
  5
3A2
330
399
100
AcDbEntity
  8
0
  6
Continuous
 62
     0
370
    18
100
AcDbLine
 10
0.0
 20
-5.0
 30
0.0
 11
0.0
 21
-5.25
 31
0.0
  0
LINE
  5
3A3
330
399
100
AcDbEntity
  8
0
  6
Continuous
 62
     0
370
    18
100
AcDbLine
 10
5.0
 20
0.0
 30
0.0
 11
5.25
 21
0.0
 31
0.0
  0
ENDBLK
  5
39B
330
399
100
AcDbEntity
  8
0
100
AcDbBlockEnd
  0
BLOCK
  5
3A6
330
3A5
100
AcDbEntity
  8
0
100
AcDbBlockBegin
  2
SW_CENTERMARKSYMBOL_5
 70
     0
 10
0.0
 20
0.0
 30
0.0
  3
SW_CENTERMARKSYMBOL_5
  1

  0
LINE
  5
3A8
330
3A5
100
AcDbEntity
  8
0
  6
Continuous
 62
     0
370
    18
100
AcDbLine
 10
0.0
 20
0.0
 30
0.0
 11
0.0
 21
2.5
 31
0.0
  0
LINE
  5
3A9
330
3A5
100
AcDbEntity
  8
0
  6
Continuous
 62
     0
370
    18
100
AcDbLine
 10
0.0
 20
0.0
 30
0.0
 11
-2.5
 21
0.0
 31
0.0
  0
LINE
  5
3AA
330
3A5
100
AcDbEntity
  8
0
  6
Continuous
 62
     0
370
    18
100
AcDbLine
 10
0.0
 20
0.0
 30
0.0
 11
0.0
 21
-2.5
 31
0.0
  0
LINE
  5
3AB
330
3A5
100
AcDbEntity
  8
0
  6
Continuous
 62
     0
370
    18
100
AcDbLine
 10
0.0
 20
0.0
 30
0.0
 11
2.5
 21
0.0
 31
0.0
  0
LINE
  5
3AC
330
3A5
100
AcDbEntity
  8
0
  6
Continuous
 62
     0
370
    18
100
AcDbLine
 10
0.0
 20
2.5
 30
0.0
 11
0.0
 21
4.75
 31
0.0
  0
LINE
  5
3AD
330
3A5
100
AcDbEntity
  8
0
  6
Continuous
 62
     0
370
    18
100
AcDbLine
 10
-2.5
 20
0.0
 30
0.0
 11
-4.75
 21
0.0
 31
0.0
  0
LINE
  5
3AE
330
3A5
100
AcDbEntity
  8
0
  6
Continuous
 62
     0
370
    18
100
AcDbLine
 10
0.0
 20
-2.5
 30
0.0
 11
0.0
 21
-4.75
 31
0.0
  0
LINE
  5
3AF
330
3A5
100
AcDbEntity
  8
0
  6
Continuous
 62
     0
370
    18
100
AcDbLine
 10
2.5
 20
0.0
 30
0.0
 11
4.75
 21
0.0
 31
0.0
  0
ENDBLK
  5
3A7
330
3A5
100
AcDbEntity
  8
0
100
AcDbBlockEnd
  0
BLOCK
  5
474
330
473
100
AcDbEntity
  8
0
100
AcDbBlockBegin
  2
_D_18
 70
     0
 10
0.0
 20
0.0
 30
0.0
  3
_D_18
  1

  0
SOLID
  5
476
330
473
100
AcDbEntity
  8
0
  6
Continuous
 62
     7
370
    18
100
AcDbTrace
 10
174.1161619502
 20
81.2540781958
 30
0.0
 11
171.1161619502
 21
82.0040781958
 31
0.0
 12
171.1161619502
 22
80.5040781958
 32
0.0
 13
171.1161619502
 23
80.5040781958
 33
0.0
  0
SOLID
  5
477
330
473
100
AcDbEntity
  8
0
  6
Continuous
 62
     7
370
    18
100
AcDbTrace
 10
152.8161619502
 20
81.2540781958
 30
0.0
 11
155.8161619502
 21
80.5040781958
 31
0.0
 12
155.8161619502
 22
82.0040781958
 32
0.0
 13
155.8161619502
 23
82.0040781958
 33
0.0
  0
LINE
  5
478
330
473
100
AcDbEntity
  8
0
  6
Continuous
 62
     7
370
     0
100
AcDbLine
 10
174.1161619502
 20
97.664180913
 30
0.0
 11
174.1161619502
 21
80.2540781958
 31
0.0
  0
LINE
  5
479
330
473
100
AcDbEntity
  8
0
  6
Continuous
 62
     7
370
     0
100
AcDbLine
 10
152.8161619502
 20
96.1084757497
 30
0.0
 11
152.8161619502
 21
80.2540781958
 31
0.0
  0
LINE
  5
47A
330
473
100
AcDbEntity
  8
0
  6
Continuous
 62
     7
370
     0
100
AcDbLine
 10
174.1161619502
 20
81.2540781958
 30
0.0
 11
152.8161619502
 21
81.2540781958
 31
0.0
  0
MTEXT
  5
47B
330
473
100
AcDbEntity
  8
0
  6
Continuous
 62
     7
370
    18
100
AcDbMText
 10
159.3925509553
 20
85.7658150521
 30
0.0
 40
3.5
 41
0.0
 71
     1
 72
     1
  1
21.3
  7
SLDTEXTSTYLE0
 73
     1
 44
1.0
  0
ENDBLK
  5
475
330
473
100
AcDbEntity
  8
0
100
AcDbBlockEnd
  0
BLOCK
  5
47E
330
47D
100
AcDbEntity
  8
0
100
AcDbBlockBegin
  2
_D_19
 70
     0
 10
0.0
 20
0.0
 30
0.0
  3
_D_19
  1

  0
SOLID
  5
480
330
47D
100
AcDbEntity
  8
0
  6
Continuous
 62
     7
370
    18
100
AcDbTrace
 10
132.8161619502
 20
81.2540781958
 30
0.0
 11
135.8161619502
 21
80.5040781958
 31
0.0
 12
135.8161619502
 22
82.0040781958
 32
0.0
 13
135.8161619502
 23
82.0040781958
 33
0.0
  0
SOLID
  5
481
330
47D
100
AcDbEntity
  8
0
  6
Continuous
 62
     7
370
    18
100
AcDbTrace
 10
152.8161619502
 20
81.2540781958
 30
0.0
 11
149.8161619502
 21
82.0040781958
 31
0.0
 12
149.8161619502
 22
80.5040781958
 32
0.0
 13
149.8161619502
 23
80.5040781958
 33
0.0
  0
LINE
  5
482
330
47D
100
AcDbEntity
  8
0
  6
Continuous
 62
     7
370
     0
100
AcDbLine
 10
132.8161619502
 20
96.1084757497
 30
0.0
 11
132.8161619502
 21
80.2540781958
 31
0.0
  0
LINE
  5
483
330
47D
100
AcDbEntity
  8
0
  6
Continuous
 62
     7
370
     0
100
AcDbLine
 10
152.8161619502
 20
96.1084757497
 30
0.0
 11
152.8161619502
 21
80.2540781958
 31
0.0
  0
LINE
  5
484
330
47D
100
AcDbEntity
  8
0
  6
Continuous
 62
     7
370
     0
100
AcDbLine
 10
132.8161619502
 20
81.2540781958
 30
0.0
 11
152.8161619502
 21
81.2540781958
 31
0.0
  0
MTEXT
  5
485
330
47D
100
AcDbEntity
  8
0
  6
Continuous
 62
     7
370
    18
100
AcDbMText
 10
140.7793564527
 20
85.7658150521
 30
0.0
 40
3.5
 41
0.0
 71
     1
 72
     1
  1
20
  7
SLDTEXTSTYLE0
 73
     1
 44
1.0
  0
ENDBLK
  5
47F
330
47D
100
AcDbEntity
  8
0
100
AcDbBlockEnd
  0
BLOCK
  5
489
330
488
100
AcDbEntity
  8
0
100
AcDbBlockBegin
  2
_D_20
 70
     0
 10
0.0
 20
0.0
 30
0.0
  3
_D_20
  1

  0
SOLID
  5
48B
330
488
100
AcDbEntity
  8
0
  6
Continuous
 62
     7
370
    18
100
AcDbTrace
 10
133.9828881392
 20
102.4252019386
 30
0.0
 11
136.6345385686
 21
104.0161921963
 31
0.0
 12
135.5738783968
 22
105.0768523681
 32
0.0
 13
135.5738783968
 23
105.0768523681
 33
0.0
  0
LINE
  5
48C
330
488
100
AcDbEntity
  8
0
  6
Continuous
 62
     7
370
     0
100
AcDbLine
 10
133.9828881392
 20
102.4252019386
 30
0.0
 11
148.0851457962
 21
116.5274595957
 31
0.0
  0
LINE
  5
48D
330
488
100
AcDbEntity
  8
0
  6
Continuous
 62
     7
370
     0
100
AcDbLine
 10
148.0851457962
 20
116.5274595957
 30
0.0
 11
172.0775046387
 21
116.5274595957
 31
0.0
  0
MTEXT
  5
48E
330
488
100
AcDbEntity
  8
0
  6
Continuous
 62
     7
370
    18
100
AcDbMText
 10
149.6726457962
 20
121.0391964521
 30
0.0
 40
3.5
 41
0.0
 71
     1
 72
     1
  1
2-M4 取付用
  7
SLDTEXTSTYLE0
 73
     1
 44
1.0
  0
ENDBLK
  5
48A
330
488
100
AcDbEntity
  8
0
100
AcDbBlockEnd
  0
BLOCK
  5
491
330
490
100
AcDbEntity
  8
0
100
AcDbBlockBegin
  2
_D_21
 70
     0
 10
0.0
 20
0.0
 30
0.0
  3
_D_21
  1

  0
SOLID
  5
493
330
490
100
AcDbEntity
  8
0
  6
Continuous
 62
     7
370
    18
100
AcDbTrace
 10
113.8161619502
 20
81.2540781958
 30
0.0
 11
116.8161619502
 21
80.5040781958
 31
0.0
 12
116.8161619502
 22
82.0040781958
 32
0.0
 13
116.8161619502
 23
82.0040781958
 33
0.0
  0
SOLID
  5
494
330
490
100
AcDbEntity
  8
0
  6
Continuous
 62
     7
370
    18
100
AcDbTrace
 10
132.8161619502
 20
81.2540781958
 30
0.0
 11
129.8161619502
 21
82.0040781958
 31
0.0
 12
129.8161619502
 22
80.5040781958
 32
0.0
 13
129.8161619502
 23
80.5040781958
 33
0.0
  0
LINE
  5
495
330
490
100
AcDbEntity
  8
0
  6
Continuous
 62
     7
370
     0
100
AcDbLine
 10
113.8161619502
 20
90.2584757497
 30
0.0
 11
113.8161619502
 21
80.2540781958
 31
0.0
  0
LINE
  5
496
330
490
100
AcDbEntity
  8
0
  6
Continuous
 62
     7
370
     0
100
AcDbLine
 10
132.8161619502
 20
96.1084757497
 30
0.0
 11
132.8161619502
 21
80.2540781958
 31
0.0
  0
LINE
  5
497
330
490
100
AcDbEntity
  8
0
  6
Continuous
 62
     7
370
     0
100
AcDbLine
 10
113.8161619502
 20
81.2540781958
 30
0.0
 11
132.8161619502
 21
81.2540781958
 31
0.0
  0
MTEXT
  5
498
330
490
100
AcDbEntity
  8
0
  6
Continuous
 62
     7
370
    18
100
AcDbMText
 10
121.2793564527
 20
85.7658150521
 30
0.0
 40
3.5
 41
0.0
 71
     1
 72
     1
  1
19
  7
SLDTEXTSTYLE0
 73
     1
 44
1.0
  0
ENDBLK
  5
492
330
490
100
AcDbEntity
  8
0
100
AcDbBlockEnd
  0
BLOCK
  5
49A
330
499
100
AcDbEntity
  8
0
100
AcDbBlockBegin
  2
SW_NOTE_0_2
 70
     0
 10
0.0
 20
0.0
 30
0.0
  3
SW_NOTE_0_2
  1

  0
LINE
  5
49C
330
499
100
AcDbEntity
  8
0
  6
Continuous
 62
     0
370
     0
100
AcDbLine
 10
-28.6402755678
 20
0.0
 30
0.0
 11
0.0
 21
0.0
 31
0.0
  0
MTEXT
  5
49D
330
499
100
AcDbEntity
  8
0
  6
Continuous
 62
     0
370
     0
100
AcDbMText
 10
-29.1156460311
 20
4.5905853714
 30
0.0
 40
3.5
 41
0.0
 71
     1
 72
     1
  1
ストローク調整
  7
SLDTEXTSTYLE0
 73
     1
 44
1.0
  0
ENDBLK
  5
49B
330
499
100
AcDbEntity
  8
0
100
AcDbBlockEnd
  0
BLOCK
  5
4A2
330
4A1
100
AcDbEntity
  8
0
100
AcDbBlockBegin
  2
SW_CENTERMARKSYMBOL_6
 70
     0
 10
0.0
 20
0.0
 30
0.0
  3
SW_CENTERMARKSYMBOL_6
  1

  0
LINE
  5
4A4
330
4A1
100
AcDbEntity
  8
0
  6
Continuous
 62
     0
370
    18
100
AcDbLine
 10
0.0
 20
0.0
 30
0.0
 11
0.0
 21
2.5
 31
0.0
  0
LINE
  5
4A5
330
4A1
100
AcDbEntity
  8
0
  6
Continuous
 62
     0
370
    18
100
AcDbLine
 10
0.0
 20
0.0
 30
0.0
 11
-2.5
 21
0.0
 31
0.0
  0
LINE
  5
4A6
330
4A1
100
AcDbEntity
  8
0
  6
Continuous
 62
     0
370
    18
100
AcDbLine
 10
0.0
 20
0.0
 30
0.0
 11
0.0
 21
-2.5
 31
0.0
  0
LINE
  5
4A7
330
4A1
100
AcDbEntity
  8
0
  6
Continuous
 62
     0
370
    18
100
AcDbLine
 10
0.0
 20
0.0
 30
0.0
 11
2.5
 21
0.0
 31
0.0
  0
LINE
  5
4A8
330
4A1
100
AcDbEntity
  8
0
  6
Continuous
 62
     0
370
    18
100
AcDbLine
 10
0.0
 20
2.5
 30
0.0
 11
0.0
 21
4.15
 31
0.0
  0
LINE
  5
4A9
330
4A1
100
AcDbEntity
  8
0
  6
Continuous
 62
     0
370
    18
100
AcDbLine
 10
-2.5
 20
0.0
 30
0.0
 11
-4.15
 21
0.0
 31
0.0
  0
LINE
  5
4AA
330
4A1
100
AcDbEntity
  8
0
  6
Continuous
 62
     0
370
    18
100
AcDbLine
 10
0.0
 20
-2.5
 30
0.0
 11
0.0
 21
-4.15
 31
0.0
  0
LINE
  5
4AB
330
4A1
100
AcDbEntity
  8
0
  6
Continuous
 62
     0
370
    18
100
AcDbLine
 10
2.5
 20
0.0
 30
0.0
 11
4.15
 21
0.0
 31
0.0
  0
ENDBLK
  5
4A3
330
4A1
100
AcDbEntity
  8
0
100
AcDbBlockEnd
  0
BLOCK
  5
4AE
330
4AD
100
AcDbEntity
  8
0
100
AcDbBlockBegin
  2
SW_CENTERMARKSYMBOL_7
 70
     0
 10
0.0
 20
0.0
 30
0.0
  3
SW_CENTERMARKSYMBOL_7
  1

  0
LINE
  5
4B0
330
4AD
100
AcDbEntity
  8
0
  6
Continuous
 62
     0
370
    18
100
AcDbLine
 10
0.0
 20
0.0
 30
0.0
 11
0.0
 21
2.5
 31
0.0
  0
LINE
  5
4B1
330
4AD
100
AcDbEntity
  8
0
  6
Continuous
 62
     0
370
    18
100
AcDbLine
 10
0.0
 20
0.0
 30
0.0
 11
-2.5
 21
0.0
 31
0.0
  0
LINE
  5
4B2
330
4AD
100
AcDbEntity
  8
0
  6
Continuous
 62
     0
370
    18
100
AcDbLine
 10
0.0
 20
0.0
 30
0.0
 11
0.0
 21
-2.5
 31
0.0
  0
LINE
  5
4B3
330
4AD
100
AcDbEntity
  8
0
  6
Continuous
 62
     0
370
    18
100
AcDbLine
 10
0.0
 20
0.0
 30
0.0
 11
2.5
 21
0.0
 31
0.0
  0
LINE
  5
4B4
330
4AD
100
AcDbEntity
  8
0
  6
Continuous
 62
     0
370
    18
100
AcDbLine
 10
0.0
 20
2.5
 30
0.0
 11
0.0
 21
4.15
 31
0.0
  0
LINE
  5
4B5
330
4AD
100
AcDbEntity
  8
0
  6
Continuous
 62
     0
370
    18
100
AcDbLine
 10
-2.5
 20
0.0
 30
0.0
 11
-4.15
 21
0.0
 31
0.0
  0
LINE
  5
4B6
330
4AD
100
AcDbEntity
  8
0
  6
Continuous
 62
     0
370
    18
100
AcDbLine
 10
0.0
 20
-2.5
 30
0.0
 11
0.0
 21
-4.15
 31
0.0
  0
LINE
  5
4B7
330
4AD
100
AcDbEntity
  8
0
  6
Continuous
 62
     0
370
    18
100
AcDbLine
 10
2.5
 20
0.0
 30
0.0
 11
4.15
 21
0.0
 31
0.0
  0
ENDBLK
  5
4AF
330
4AD
100
AcDbEntity
  8
0
100
AcDbBlockEnd
  0
ENDSEC
  0
SECTION
  2
ENTITIES
  0
LINE
  5
73
330
1F
100
AcDbEntity
  8
0
  6
Continuous
 62
     7
370
    18
100
AcDbLine
 10
20.2604743903
 20
285.0
 30
0.0
 11
196.7604743903
 21
285.0
 31
0.0
  0
LINE
  5
74
330
1F
100
AcDbEntity
  8
0
  6
Continuous
 62
     7
370
    18
100
AcDbLine
 10
20.2604743903
 20
285.0
 30
0.0
 11
20.2604743903
 21
10.0
 31
0.0
  0
LINE
  5
75
330
1F
100
AcDbEntity
  8
0
  6
Continuous
 62
     7
370
    18
100
AcDbLine
 10
20.2604743903
 20
10.0
 30
0.0
 11
196.7604743903
 21
10.0
 31
0.0
  0
LINE
  5
76
330
1F
100
AcDbEntity
  8
0
  6
Continuous
 62
     7
370
    18
100
AcDbLine
 10
196.7604743903
 20
285.0
 30
0.0
 11
196.7604743903
 21
10.0
 31
0.0
  0
LINE
  5
77
330
1F
100
AcDbEntity
  8
0
  6
Continuous
 62
     7
370
    18
100
AcDbLine
 10
127.0104743903
 20
50.75
 30
0.0
 11
196.7604743903
 21
50.75
 31
0.0
  0
LINE
  5
78
330
1F
100
AcDbEntity
  8
0
  6
Continuous
 62
     7
370
    18
100
AcDbLine
 10
127.0104743903
 20
50.75
 30
0.0
 11
127.0104743903
 21
10.0
 31
0.0
  0
LINE
  5
79
330
1F
100
AcDbEntity
  8
0
  6
Continuous
 62
     7
370
    18
100
AcDbLine
 10
127.0104743903
 20
22.75
 30
0.0
 11
196.7604743903
 21
22.75
 31
0.0
  0
LINE
  5
7A
330
1F
100
AcDbEntity
  8
0
  6
Continuous
 62
     7
370
    18
100
AcDbLine
 10
127.0104743903
 20
36.75
 30
0.0
 11
196.7604743903
 21
36.75
 31
0.0
  0
MTEXT
  5
7C
330
1F
100
AcDbEntity
  8
0
  6
Continuous
 62
     7
370
     0
100
AcDbMText
 10
162.8585497835
 20
30.4171582345
 30
0.0
 40
4.2333333333
 41
0.0
 71
     2
 72
     1
  1
HNW-10R
  7
SLDTEXTSTYLE0
 73
     1
 44
1.0
  0
MTEXT
  5
7D
330
1F
100
AcDbEntity
  8
0
  6
Continuous
 62
     7
370
     0
100
AcDbMText
 10
160.0804011513
 20
43.9643957194
 30
0.0
 40
3.7041666667
 41
0.0
 71
     2
 72
     1
  1
ミニエアニッパー・本体・逆刃付
  7
SLDTEXTSTYLE0
 73
     1
 44
1.0
  0
MTEXT
  5
7E
330
1F
100
AcDbEntity
  8
0
  6
Continuous
 62
     7
370
     0
100
AcDbMText
 10
162.9102443018
 20
16.8228189052
 30
0.0
 40
4.2333333333
 41
0.0
 71
     2
 72
     1
  1
073303
  7
SLDTEXTSTYLE0
 73
     1
 44
1.0
  0
ARC
  5
7F
330
1F
100
AcDbEntity
  8
0
  6
Continuous
 62
     7
370
    18
100
AcDbCircle
 10
125.2411619502
 20
202.2118883187
 30
0.0
 40
0.1250000000000142
100
AcDbArc
 50
90.0
 51
180.0
  0
LINE
  5
80
330
1F
100
AcDbEntity
  8
0
  6
Continuous
 62
     7
370
    18
100
AcDbLine
 10
127.6161619502
 20
202.3368883187
 30
0.0
 11
125.2411619502
 21
202.3368883187
 31
0.0
  0
ARC
  5
81
330
1F
100
AcDbEntity
  8
0
  6
Continuous
 62
     7
370
    18
100
AcDbCircle
 10
125.2411619502
 20
197.9618883187
 30
0.0
 40
0.1250000000000142
100
AcDbArc
 50
180.0
 51
270.0
  0
LINE
  5
82
330
1F
100
AcDbEntity
  8
0
  6
Continuous
 62
     7
370
    18
100
AcDbLine
 10
125.2411619502
 20
197.8368883187
 30
0.0
 11
127.6161619502
 21
197.8368883187
 31
0.0
  0
ARC
  5
83
330
1F
100
AcDbEntity
  8
0
  6
Continuous
 62
     7
370
    18
100
AcDbCircle
 10
127.7161619502
 20
201.4368883187
 30
0.0
 40
0.1000000000000227
100
AcDbArc
 50
180.0
 51
270.0
  0
LINE
  5
84
330
1F
100
AcDbEntity
  8
0
  6
Continuous
 62
     7
370
    18
100
AcDbLine
 10
113.3161619502
 20
184.5868883187
 30
0.0
 11
113.8161619502
 21
184.5868883187
 31
0.0
  0
LINE
  5
85
330
1F
100
AcDbEntity
  8
0
  6
Continuous
 62
     7
370
    18
100
AcDbLine
 10
113.8161619502
 20
191.5868883187
 30
0.0
 11
113.3161619502
 21
191.5868883187
 31
0.0
  0
LINE
  5
86
330
1F
100
AcDbEntity
  8
0
  6
Continuous
 62
     7
370
    18
100
AcDbLine
 10
111.4161619502
 20
185.3368883187
 30
0.0
 11
111.6617820529
 21
184.9114618215
 31
0.0
  0
LINE
  5
87
330
1F
100
AcDbEntity
  8
0
  6
Continuous
 62
     7
370
    18
100
AcDbLine
 10
111.6617820356
 20
191.2623147859
 30
0.0
 11
111.4161619502
 21
190.8368883187
 31
0.0
  0
LINE
  5
88
330
1F
100
AcDbEntity
  8
0
  6
Continuous
 62
     7
370
    18
100
AcDbLine
 10
107.9781087007
 20
189.5868883187
 30
0.0
 11
107.8161619503
 21
189.3063883187
 31
0.0
  0
LINE
  5
89
330
1F
100
AcDbEntity
  8
0
  6
Continuous
 62
     7
370
    18
100
AcDbLine
 10
123.3161619502
 20
189.5868883187
 30
0.0
 11
115.8161619502
 21
189.5868883187
 31
0.0
  0
LINE
  5
8A
330
1F
100
AcDbEntity
  8
0
  6
Continuous
 62
     7
370
    18
100
AcDbLine
 10
111.4161619502
 20
189.5868883187
 30
0.0
 11
107.9781087008
 21
189.5868883187
 31
0.0
  0
LINE
  5
8B
330
1F
100
AcDbEntity
  8
0
  6
Continuous
 62
     7
370
    18
100
AcDbLine
 10
123.8161619502
 20
189.0868883188
 30
0.0
 11
123.3161619502
 21
189.5868883187
 31
0.0
  0
LINE
  5
8C
330
1F
100
AcDbEntity
  8
0
  6
Continuous
 62
     7
370
    18
100
AcDbLine
 10
123.3161619502
 20
186.5868883187
 30
0.0
 11
123.8161619502
 21
187.0868883187
 31
0.0
  0
LINE
  5
8D
330
1F
100
AcDbEntity
  8
0
  6
Continuous
 62
     7
370
    18
100
AcDbLine
 10
107.9781087007
 20
186.5868883187
 30
0.0
 11
111.4161619502
 21
186.5868883187
 31
0.0
  0
LINE
  5
8E
330
1F
100
AcDbEntity
  8
0
  6
Continuous
 62
     7
370
    18
100
AcDbLine
 10
115.8161619502
 20
186.5868883187
 30
0.0
 11
123.3161619502
 21
186.5868883187
 31
0.0
  0
LINE
  5
8F
330
1F
100
AcDbEntity
  8
0
  6
Continuous
 62
     7
370
    18
100
AcDbLine
 10
107.8161619503
 20
186.8673883187
 30
0.0
 11
107.9781087007
 21
186.5868883188
 31
0.0
  0
LINE
  5
90
330
1F
100
AcDbEntity
  8
0
  6
Continuous
 62
     7
370
    18
100
AcDbLine
 10
109.7705738565
 20
192.0868883187
 30
0.0
 11
100.8161619502
 21
192.0868883187
 31
0.0
  0
LINE
  5
91
330
1F
100
AcDbEntity
  8
0
  6
Continuous
 62
     7
370
    18
100
AcDbLine
 10
110.1345440908
 20
191.0868883188
 30
0.0
 11
109.7705738565
 21
192.0868883187
 31
0.0
  0
ARC
  5
92
330
1F
100
AcDbEntity
  8
0
  6
Continuous
 62
     7
370
    18
100
AcDbCircle
 10
99.2161619502
 20
191.5368883187
 30
0.0
 40
0.5
100
AcDbArc
 50
90.0
 51
180.0
  0
LINE
  5
93
330
1F
100
AcDbEntity
  8
0
  6
Continuous
 62
     7
370
    18
100
AcDbLine
 10
100.2161619502
 20
192.0368883187
 30
0.0
 11
99.2161619502
 21
192.0368883187
 31
0.0
  0
LINE
  5
94
330
1F
100
AcDbEntity
  8
0
  6
Continuous
 62
     7
370
    18
100
AcDbLine
 10
111.5604995175
 20
191.0868883187
 30
0.0
 11
110.1345440908
 21
191.0868883187
 31
0.0
  0
LINE
  5
95
330
1F
100
AcDbEntity
  8
0
  6
Continuous
 62
     7
370
    18
100
AcDbLine
 10
100.8161619502
 20
190.2868883187
 30
0.0
 11
100.2161619502
 21
190.2868883187
 31
0.0
  0
LINE
  5
96
330
1F
100
AcDbEntity
  8
0
  6
Continuous
 62
     7
370
    18
100
AcDbLine
 10
109.7705738565
 20
184.0868883187
 30
0.0
 11
110.1345440908
 21
185.0868883187
 31
0.0
  0
LINE
  5
97
330
1F
100
AcDbEntity
  8
0
  6
Continuous
 62
     7
370
    18
100
AcDbLine
 10
100.8161619502
 20
184.0868883187
 30
0.0
 11
109.7705738565
 21
184.0868883187
 31
0.0
  0
ARC
  5
98
330
1F
100
AcDbEntity
  8
0
  6
Continuous
 62
     7
370
    18
100
AcDbCircle
 10
99.2161619502
 20
184.6368883187
 30
0.0
 40
0.5
100
AcDbArc
 50
180.0
 51
270.0
  0
LINE
  5
99
330
1F
100
AcDbEntity
  8
0
  6
Continuous
 62
     7
370
    18
100
AcDbLine
 10
99.2161619502
 20
184.1368883187
 30
0.0
 11
100.2161619502
 21
184.1368883187
 31
0.0
  0
LINE
  5
9A
330
1F
100
AcDbEntity
  8
0
  6
Continuous
 62
     7
370
    18
100
AcDbLine
 10
110.1345440908
 20
185.0868883187
 30
0.0
 11
111.5604995175
 21
185.0868883187
 31
0.0
  0
LINE
  5
9B
330
1F
100
AcDbEntity
  8
0
  6
Continuous
 62
     7
370
    18
100
AcDbLine
 10
100.2161619502
 20
185.8868883187
 30
0.0
 11
100.8161619502
 21
185.8868883187
 31
0.0
  0
LINE
  5
9C
330
1F
100
AcDbEntity
  8
0
  6
Continuous
 62
     7
370
    18
100
AcDbLine
 10
127.6161619502
 20
183.3368883187
 30
0.0
 11
125.2411619502
 21
183.3368883187
 31
0.0
  0
ARC
  5
9D
330
1F
100
AcDbEntity
  8
0
  6
Continuous
 62
     7
370
    18
100
AcDbCircle
 10
125.2411619502
 20
183.2118883187
 30
0.0
 40
0.1250000000000142
100
AcDbArc
 50
90.0
 51
180.0
  0
ARC
  5
9E
330
1F
100
AcDbEntity
  8
0
  6
Continuous
 62
     7
370
    18
100
AcDbCircle
 10
169.8911619502
 20
178.9618883187
 30
0.0
 40
0.125
100
AcDbArc
 50
270.0
 51
0.0
  0
LINE
  5
9F
330
1F
100
AcDbEntity
  8
0
  6
Continuous
 62
     7
370
    18
100
AcDbLine
 10
167.5161619502
 20
178.8368883187
 30
0.0
 11
169.8911619502
 21
178.8368883187
 31
0.0
  0
LINE
  5
A0
330
1F
100
AcDbEntity
  8
0
  6
Continuous
 62
     7
370
    18
100
AcDbLine
 10
123.8161619502
 20
186.5868883187
 30
0.0
 11
124.6161619502
 21
186.5868883187
 31
0.0
  0
ARC
  5
A1
330
1F
100
AcDbEntity
  8
0
  6
Continuous
 62
     7
370
    18
100
AcDbCircle
 10
169.8911619502
 20
183.2118883187
 30
0.0
 40
0.1250000000000284
100
AcDbArc
 50
0.0
 51
90.0
  0
LINE
  5
A2
330
1F
100
AcDbEntity
  8
0
  6
Continuous
 62
     7
370
    18
100
AcDbLine
 10
169.8911619502
 20
183.3368883187
 30
0.0
 11
167.5161619502
 21
183.3368883187
 31
0.0
  0
LINE
  5
A3
330
1F
100
AcDbEntity
  8
0
  6
Continuous
 62
     7
370
    18
100
AcDbLine
 10
125.2411619502
 20
178.8368883187
 30
0.0
 11
127.6161619502
 21
178.8368883187
 31
0.0
  0
ARC
  5
A4
330
1F
100
AcDbEntity
  8
0
  6
Continuous
 62
     7
370
    18
100
AcDbCircle
 10
125.2411619502
 20
178.9618883187
 30
0.0
 40
0.1250000000000142
100
AcDbArc
 50
180.0
 51
270.0
  0
LINE
  5
A5
330
1F
100
AcDbEntity
  8
0
  6
Continuous
 62
     7
370
    18
100
AcDbLine
 10
124.6161619502
 20
189.5868883187
 30
0.0
 11
123.8161619502
 21
189.5868883187
 31
0.0
  0
ARC
  5
A6
330
1F
100
AcDbEntity
  8
0
  6
Continuous
 62
     7
370
    18
100
AcDbCircle
 10
124.1161619502
 20
194.0868883187
 30
0.0
 40
0.5
100
AcDbArc
 50
270.0
 51
0.0
  0
ARC
  5
A7
330
1F
100
AcDbEntity
  8
0
  6
Continuous
 62
     7
370
    18
100
AcDbCircle
 10
124.1161619502
 20
182.0868883187
 30
0.0
 40
0.5
100
AcDbArc
 50
0.0
 51
90.0
  0
ARC
  5
A8
330
1F
100
AcDbEntity
  8
0
  6
Continuous
 62
     7
370
    18
100
AcDbCircle
 10
117.9161619502
 20
193.2868883187
 30
0.0
 40
0.2999999999999829
100
AcDbArc
 50
90.0
 51
180.0
  0
ARC
  5
A9
330
1F
100
AcDbEntity
  8
0
  6
Continuous
 62
     7
370
    18
100
AcDbCircle
 10
117.9161619502
 20
182.8868883187
 30
0.0
 40
0.2999999999999829
100
AcDbArc
 50
180.0
 51
270.0
  0
LINE
  5
AA
330
1F
100
AcDbEntity
  8
0
  6
Continuous
 62
     7
370
    18
100
AcDbLine
 10
124.1161619502
 20
193.5868883187
 30
0.0
 11
117.9161619502
 21
193.5868883187
 31
0.0
  0
LINE
  5
AB
330
1F
100
AcDbEntity
  8
0
  6
Continuous
 62
     7
370
    18
100
AcDbLine
 10
117.9161619502
 20
182.5868883187
 30
0.0
 11
124.1161619502
 21
182.5868883187
 31
0.0
  0
LINE
  5
AC
330
1F
100
AcDbEntity
  8
0
  6
Continuous
 62
     7
370
    18
100
AcDbLine
 10
112.1161619502
 20
195.0868883187
 30
0.0
 11
121.0705738565
 21
195.0868883187
 31
0.0
  0
LINE
  5
AD
330
1F
100
AcDbEntity
  8
0
  6
Continuous
 62
     7
370
    18
100
AcDbLine
 10
121.0705738565
 20
195.0868883187
 30
0.0
 11
121.4345440908
 21
196.0868883187
 31
0.0
  0
LINE
  5
AE
330
1F
100
AcDbEntity
  8
0
  6
Continuous
 62
     7
370
    18
100
AcDbLine
 10
110.5161619502
 20
195.1368883187
 30
0.0
 11
111.5161619502
 21
195.1368883187
 31
0.0
  0
ARC
  5
AF
330
1F
100
AcDbEntity
  8
0
  6
Continuous
 62
     7
370
    18
100
AcDbCircle
 10
110.5161619502
 20
195.6368883187
 30
0.0
 40
0.5
100
AcDbArc
 50
180.0
 51
270.0
  0
LINE
  5
B0
330
1F
100
AcDbEntity
  8
0
  6
Continuous
 62
     7
370
    18
100
AcDbLine
 10
121.4345440908
 20
196.0868883187
 30
0.0
 11
123.6161619502
 21
196.0868883187
 31
0.0
  0
LINE
  5
B1
330
1F
100
AcDbEntity
  8
0
  6
Continuous
 62
     7
370
    18
100
AcDbLine
 10
123.6161619502
 20
196.3368883187
 30
0.0
 11
124.1161619502
 21
196.3368883187
 31
0.0
  0
LINE
  5
B2
330
1F
100
AcDbEntity
  8
0
  6
Continuous
 62
     7
370
    18
100
AcDbLine
 10
116.0161619502
 20
191.0868883187
 30
0.0
 11
115.8161619502
 21
190.8868883188
 31
0.0
  0
LINE
  5
B3
330
1F
100
AcDbEntity
  8
0
  6
Continuous
 62
     7
370
    18
100
AcDbLine
 10
115.8161619502
 20
185.2868883187
 30
0.0
 11
116.0161619502
 21
185.0868883187
 31
0.0
  0
LINE
  5
B4
330
1F
100
AcDbEntity
  8
0
  6
Continuous
 62
     7
370
    18
100
AcDbLine
 10
117.6161619502
 20
191.0868883187
 30
0.0
 11
116.0161619502
 21
191.0868883187
 31
0.0
  0
LINE
  5
B5
330
1F
100
AcDbEntity
  8
0
  6
Continuous
 62
     7
370
    18
100
AcDbLine
 10
116.0161619502
 20
185.0868883187
 30
0.0
 11
117.6161619502
 21
185.0868883187
 31
0.0
  0
LINE
  5
B6
330
1F
100
AcDbEntity
  8
0
  6
Continuous
 62
     7
370
    18
100
AcDbLine
 10
124.1161619502
 20
196.5868883187
 30
0.0
 11
124.6161619502
 21
196.5868883187
 31
0.0
  0
LINE
  5
B7
330
1F
100
AcDbEntity
  8
0
  6
Continuous
 62
     7
370
    18
100
AcDbLine
 10
111.5161619502
 20
196.8868883187
 30
0.0
 11
112.1161619502
 21
196.8868883187
 31
0.0
  0
LINE
  5
B8
330
1F
100
AcDbEntity
  8
0
  6
Continuous
 62
     7
370
    18
100
AcDbLine
 10
121.0705738565
 20
203.0868883187
 30
0.0
 11
112.1161619502
 21
203.0868883187
 31
0.0
  0
LINE
  5
B9
330
1F
100
AcDbEntity
  8
0
  6
Continuous
 62
     7
370
    18
100
AcDbLine
 10
111.5161619502
 20
203.0368883187
 30
0.0
 11
110.5161619502
 21
203.0368883187
 31
0.0
  0
LINE
  5
BA
330
1F
100
AcDbEntity
  8
0
  6
Continuous
 62
     7
370
    18
100
AcDbLine
 10
121.4345440908
 20
202.0868883188
 30
0.0
 11
121.0705738565
 21
203.0868883187
 31
0.0
  0
ARC
  5
BB
330
1F
100
AcDbEntity
  8
0
  6
Continuous
 62
     7
370
    18
100
AcDbCircle
 10
110.5161619502
 20
202.5368883187
 30
0.0
 40
0.5000000000000284
100
AcDbArc
 50
90.0
 51
180.0
  0
LINE
  5
BC
330
1F
100
AcDbEntity
  8
0
  6
Continuous
 62
     7
370
    18
100
AcDbLine
 10
123.6161619502
 20
202.0868883187
 30
0.0
 11
121.4345440908
 21
202.0868883187
 31
0.0
  0
LINE
  5
BD
330
1F
100
AcDbEntity
  8
0
  6
Continuous
 62
     7
370
    18
100
AcDbLine
 10
124.1161619502
 20
201.8368883187
 30
0.0
 11
123.6161619502
 21
201.8368883187
 31
0.0
  0
LINE
  5
BE
330
1F
100
AcDbEntity
  8
0
  6
Continuous
 62
     7
370
    18
100
AcDbLine
 10
124.6161619502
 20
201.5868883187
 30
0.0
 11
124.1161619502
 21
201.5868883187
 31
0.0
  0
LINE
  5
BF
330
1F
100
AcDbEntity
  8
0
  6
Continuous
 62
     7
370
    18
100
AcDbLine
 10
112.1161619502
 20
201.2868883187
 30
0.0
 11
111.5161619502
 21
201.2868883187
 31
0.0
  0
LINE
  5
C0
330
1F
100
AcDbEntity
  8
0
  6
Continuous
 62
     7
370
    18
100
AcDbLine
 10
173.3872699363
 20
211.5050571225
 30
0.0
 11
173.1161619502
 21
211.5050571225
 31
0.0
  0
SPLINE
  5
C1
330
1F
100
AcDbEntity
  8
0
  6
Continuous
 62
     7
370
    18
100
AcDbSpline
210
0.0
220
0.0
230
1.0
 70
     8
 71
     3
 72
    11
 73
     7
 74
     0
 42
0.00000001
 43
0.00000001
 40
0.0
 40
0.0
 40
0.0
 40
0.0
 40
0.0528261027320846
 40
0.4173723491895281
 40
0.777889168871672
 40
1.0
 40
1.0
 40
1.0
 40
1.0
 10
172.3155295927817
 20
211.0868883224118
 30
0.0
 10
172.3232706825668
 20
211.1015050764123
 30
0.0
 10
172.3844320528328
 20
211.2169901990924
 30
0.0
 10
172.5896868050559
 20
211.3679721357831
 30
0.0
 10
172.8633344442666
 20
211.4896634426941
 30
0.0
 10
173.0463806128773
 20
211.5008084092973
 30
0.0
 10
173.1161619502176
 20
211.505057122505
 30
0.0
  0
LINE
  5
C2
330
1F
100
AcDbEntity
  8
0
  6
Continuous
 62
     7
370
    18
100
AcDbLine
 10
166.6161619502
 20
212.0126999368
 30
0.0
 11
166.6161619502
 21
211.0868883224
 31
0.0
  0
LINE
  5
C3
330
1F
100
AcDbEntity
  8
0
  6
Continuous
 62
     7
370
    18
100
AcDbLine
 10
170.5903665381
 20
212.0126999368
 30
0.0
 11
166.6161619502
 21
212.0126999368
 31
0.0
  0
ELLIPSE
  5
C4
330
1F
100
AcDbEntity
  8
0
  6
Continuous
 62
     7
370
    18
100
AcDbEllipse
 10
185.6695863307
 20
209.8378683449
 30
0.0
 11
3.141994925266204
 21
21.8932823974435
 31
0.0
210
0.0
220
0.0
230
1.0
 40
0.6888292499
 41
1.144153067080013
 42
1.570315182167767
  0
LINE
  5
C5
330
1F
100
AcDbEntity
  8
0
  6
Continuous
 62
     7
370
    18
100
AcDbLine
 10
173.2409025275
 20
220.8679775354
 30
0.0
 11
174.072080205
 21
220.8679775354
 31
0.0
  0
ELLIPSE
  5
C6
330
1F
100
AcDbEntity
  8
0
  6
Continuous
 62
     7
370
    18
100
AcDbEllipse
 10
177.2018841126
 20
209.8378683449
 30
0.0
 11
0.426895138423447
 21
21.9998727839336
 31
0.0
210
0.0
220
0.0
230
1.0
 40
0.1752570442
 41
1.04901725738488
 42
1.498343048841271
  0
LINE
  5
C7
330
1F
100
AcDbEntity
  8
0
  6
Continuous
 62
     7
370
    18
100
AcDbLine
 10
174.1161619502
 20
220.8946442021
 30
0.0
 11
174.072080205
 21
220.8679775354
 31
0.0
  0
LINE
  5
C8
330
1F
100
AcDbEntity
  8
0
  6
Continuous
 62
     7
370
    18
100
AcDbLine
 10
174.1161619502
 20
211.9459906721
 30
0.0
 11
174.1161619502
 21
220.8946442021
 31
0.0
  0
LINE
  5
C9
330
1F
100
AcDbEntity
  8
0
  6
Continuous
 62
     7
370
    18
100
AcDbLine
 10
173.3872699363
 20
211.5050571225
 30
0.0
 11
174.1161619502
 21
211.9459906721
 31
0.0
  0
LINE
  5
CA
330
1F
100
AcDbEntity
  8
0
  6
Continuous
 62
     7
370
    18
100
AcDbLine
 10
166.6161619502
 20
212.4964714237
 30
0.0
 11
170.6637250431
 21
212.4964714237
 31
0.0
  0
LINE
  5
CB
330
1F
100
AcDbEntity
  8
0
  6
Continuous
 62
     7
370
    18
100
AcDbLine
 10
166.6161619502
 20
212.0126999368
 30
0.0
 11
166.6161619502
 21
212.4964714237
 31
0.0
  0
LINE
  5
CC
330
1F
100
AcDbEntity
  8
0
  6
Continuous
 62
     7
370
    18
100
AcDbLine
 10
174.1161619502
 20
221.0013108687
 30
0.0
 11
174.1161619502
 21
220.8946442021
 31
0.0
  0
LINE
  5
CD
330
1F
100
AcDbEntity
  8
0
  6
Continuous
 62
     7
370
    18
100
AcDbLine
 10
173.2409025275
 20
220.8679775354
 30
0.0
 11
174.1161619502
 21
221.0013108687
 31
0.0
  0
ARC
  5
CE
330
1F
100
AcDbEntity
  8
0
  6
Continuous
 62
     7
370
    18
100
AcDbCircle
 10
125.210040324
 20
200.4362567448
 30
0.0
 40
0.4945587323921455
100
AcDbArc
 50
259.0575744502
 51
273.6078966367
  0
SPLINE
  5
CF
330
1F
100
AcDbEntity
  8
0
  6
Continuous
 62
     7
370
    18
100
AcDbSpline
210
0.0
220
0.0
230
1.0
 70
    24
 71
     3
 72
    14
 73
    10
 74
     0
 42
0.00000001
 43
0.00000001
 40
0.0
 40
0.0
 40
0.0
 40
0.0
 40
0.0389003183012784
 40
0.2690288575654025
 40
0.3943169553793895
 40
0.5194502288677859
 40
0.64473825692209
 40
0.7698714607358762
 40
1.0
 40
1.0
 40
1.0
 40
1.0
 10
125.1161619502176
 20
202.190825129891
 30
0.0
 10
125.1161619502176
 20
202.1975127172691
 30
0.0
 10
125.1161619502176
 20
202.2437630841236
 30
0.0
 10
125.1161619502176
 20
202.0753904760625
 30
0.0
 10
125.1161619502176
 20
201.7988208912037
 30
0.0
 10
125.1161619502176
 20
201.4989944254909
 30
0.0
 10
125.1161619502176
 20
201.1450915569178
 30
0.0
 10
125.1161619502176
 20
200.6335907650503
 30
0.0
 10
125.1161619502176
 20
200.2191517660739
 30
0.0
 10
125.1161619502176
 20
199.9506898691575
 30
0.0
  0
LINE
  5
D0
330
1F
100
AcDbEntity
  8
0
  6
Continuous
 62
     7
370
    18
100
AcDbLine
 10
127.6161619502
 20
202.3368883187
 30
0.0
 11
127.6161619502
 21
200.0868883187
 31
0.0
  0
LINE
  5
D1
330
1F
100
AcDbEntity
  8
0
  6
Continuous
 62
     7
370
    18
100
AcDbLine
 10
127.6161619502
 20
199.9426781957
 30
0.0
 11
125.2411619502
 21
199.9426781957
 31
0.0
  0
SPLINE
  5
D2
330
1F
100
AcDbEntity
  8
0
  6
Continuous
 62
     7
370
    18
100
AcDbSpline
210
0.0
220
0.0
230
1.0
 70
    24
 71
     3
 72
    13
 73
     9
 74
     0
 42
0.00000001
 43
0.00000001
 40
0.0
 40
0.0
 40
0.0
 40
0.0
 40
0.2495431556321068
 40
0.3854010869929186
 40
0.5210911323947508
 40
0.656948988111377
 40
0.7926389579598692
 40
1.0
 40
1.0
 40
1.0
 40
1.0
 10
125.1161619502176
 20
199.9506898691575
 30
0.0
 10
125.1161619502176
 20
199.6858342297091
 30
0.0
 10
125.1161619502176
 20
199.2767841354237
 30
0.0
 10
125.1161619502176
 20
198.7996244932557
 30
0.0
 10
125.1161619502176
 20
198.4795320332763
 30
0.0
 10
125.1161619502176
 20
198.228073114072
 30
0.0
 10
125.1161619502176
 20
198.0109040997817
 30
0.0
 10
125.1161619502176
 20
197.9934823064549
 30
0.0
 10
125.1161619502176
 20
197.9829515075554
 30
0.0
  0
LINE
  5
D3
330
1F
100
AcDbEntity
  8
0
  6
Continuous
 62
     7
370
    18
100
AcDbLine
 10
113.3161619502
 20
184.9114618382
 30
0.0
 11
113.3161619502
 21
184.5868883187
 31
0.0
  0
LINE
  5
D4
330
1F
100
AcDbEntity
  8
0
  6
Continuous
 62
     7
370
    18
100
AcDbLine
 10
113.3161619502
 20
191.5868883187
 30
0.0
 11
113.3161619502
 21
191.2623147993
 31
0.0
  0
SPLINE
  5
D5
330
1F
100
AcDbEntity
  8
0
  6
Continuous
 62
     7
370
    18
100
AcDbSpline
210
0.0
220
0.0
230
1.0
 70
     8
 71
     3
 72
     8
 73
     4
 74
     0
 42
0.00000001
 43
0.00000001
 40
0.0
 40
0.0
 40
0.0
 40
0.0
 40
1.0
 40
1.0
 40
1.0
 40
1.0
 10
111.6617820058297
 20
186.4991751753875
 30
0.0
 10
111.5120353443074
 20
187.0179128532481
 30
0.0
 10
111.416161950202
 20
187.5449847538209
 30
0.0
 10
111.416161950202
 20
188.0868883187232
 30
0.0
  0
SPLINE
  5
D6
330
1F
100
AcDbEntity
  8
0
  6
Continuous
 62
     7
370
    18
100
AcDbSpline
210
0.0
220
0.0
230
1.0
 70
     8
 71
     3
 72
     8
 73
     4
 74
     0
 42
0.00000001
 43
0.00000001
 40
0.0
 40
0.0
 40
0.0
 40
0.0
 40
1.0
 40
1.0
 40
1.0
 40
1.0
 10
111.416161950202
 20
188.0868883187232
 30
0.0
 10
111.416161950202
 20
188.6287918845982
 30
0.0
 10
111.5120353531589
 20
189.1558637842045
 30
0.0
 10
111.6617820152673
 20
189.6746014620569
 30
0.0
  0
LINE
  5
D7
330
1F
100
AcDbEntity
  8
0
  6
Continuous
 62
     7
370
    18
100
AcDbLine
 10
111.6617820529
 20
189.6746015423
 30
0.0
 11
113.8161619502
 21
189.674601559
 31
0.0
  0
LINE
  5
D8
330
1F
100
AcDbEntity
  8
0
  6
Continuous
 62
     7
370
    18
100
AcDbLine
 10
113.8161619502
 20
186.4991750785
 30
0.0
 11
111.6617820289
 21
186.4991751282
 31
0.0
  0
LINE
  5
D9
330
1F
100
AcDbEntity
  8
0
  6
Continuous
 62
     7
370
    18
100
AcDbLine
 10
113.8161619502
 20
189.674601559
 30
0.0
 11
113.8161619502
 21
186.4991750785
 31
0.0
  0
SPLINE
  5
DA
330
1F
100
AcDbEntity
  8
0
  6
Continuous
 62
     7
370
    18
100
AcDbSpline
210
0.0
220
0.0
230
1.0
 70
     8
 71
     3
 72
     8
 73
     4
 74
     0
 42
0.00000001
 43
0.00000001
 40
0.0
 40
0.0
 40
0.0
 40
0.0
 40
1.0
 40
1.0
 40
1.0
 40
1.0
 10
111.6617820624885
 20
189.6746015256741
 30
0.0
 10
111.5120353770284
 20
189.9339703850049
 30
0.0
 10
111.416161950202
 20
190.1975063729486
 30
0.0
 10
111.416161950202
 20
190.4684581791304
 30
0.0
  0
SPLINE
  5
DB
330
1F
100
AcDbEntity
  8
0
  6
Continuous
 62
     7
370
    18
100
AcDbSpline
210
0.0
220
0.0
230
1.0
 70
     8
 71
     3
 72
     8
 73
     4
 74
     0
 42
0.00000001
 43
0.00000001
 40
0.0
 40
0.0
 40
0.0
 40
0.0
 40
1.0
 40
1.0
 40
1.0
 40
1.0
 10
111.416161950202
 20
190.4684581791304
 30
0.0
 10
111.416161950202
 20
190.7394099638971
 30
0.0
 10
111.5120353544602
 20
191.0029459153871
 30
0.0
 10
111.6617820182411
 20
191.2623147559481
 30
0.0
  0
LINE
  5
DC
330
1F
100
AcDbEntity
  8
0
  6
Continuous
 62
     7
370
    18
100
AcDbLine
 10
113.8161619502
 20
191.2623147993
 30
0.0
 11
111.6617820356
 21
191.2623147859
 31
0.0
  0
LINE
  5
DD
330
1F
100
AcDbEntity
  8
0
  6
Continuous
 62
     7
370
    18
100
AcDbLine
 10
113.8161619502
 20
190.2571890391
 30
0.0
 11
113.8161619502
 21
189.674601559
 31
0.0
  0
SPLINE
  5
DE
330
1F
100
AcDbEntity
  8
0
  6
Continuous
 62
     7
370
    18
100
AcDbSpline
210
0.0
220
0.0
230
1.0
 70
     8
 71
     3
 72
     8
 73
     4
 74
     0
 42
0.00000001
 43
0.00000001
 40
0.0
 40
0.0
 40
0.0
 40
0.0
 40
1.0
 40
1.0
 40
1.0
 40
1.0
 10
111.6617820624866
 20
184.9114618048629
 30
0.0
 10
111.5120353770273
 20
185.1708306641932
 30
0.0
 10
111.416161950202
 20
185.4343666521348
 30
0.0
 10
111.416161950202
 20
185.705318458316
 30
0.0
  0
SPLINE
  5
DF
330
1F
100
AcDbEntity
  8
0
  6
Continuous
 62
     7
370
    18
100
AcDbSpline
210
0.0
220
0.0
230
1.0
 70
     8
 71
     3
 72
     8
 73
     4
 74
     0
 42
0.00000001
 43
0.00000001
 40
0.0
 40
0.0
 40
0.0
 40
0.0
 40
1.0
 40
1.0
 40
1.0
 40
1.0
 10
111.416161950202
 20
185.705318458316
 30
0.0
 10
111.416161950202
 20
185.97627026247
 30
0.0
 10
111.5120353781486
 20
186.2398062543815
 30
0.0
 10
111.6617820624879
 20
186.4991751117712
 30
0.0
  0
LINE
  5
E0
330
1F
100
AcDbEntity
  8
0
  6
Continuous
 62
     7
370
    18
100
AcDbLine
 10
113.8161619502
 20
184.9114618382
 30
0.0
 11
111.6617820529
 21
184.9114618215
 31
0.0
  0
LINE
  5
E1
330
1F
100
AcDbEntity
  8
0
  6
Continuous
 62
     7
370
    18
100
AcDbLine
 10
113.8161619502
 20
186.4991750785
 30
0.0
 11
113.8161619502
 21
186.3548375112
 31
0.0
  0
LINE
  5
E2
330
1F
100
AcDbEntity
  8
0
  6
Continuous
 62
     7
370
    18
100
AcDbLine
 10
111.4161619502
 20
190.4684581791
 30
0.0
 11
111.4161619502
 21
188.0868883187
 31
0.0
  0
LINE
  5
E3
330
1F
100
AcDbEntity
  8
0
  6
Continuous
 62
     7
370
    18
100
AcDbLine
 10
111.4161619502
 20
188.0868883187
 30
0.0
 11
111.4161619502
 21
185.7053184583
 31
0.0
  0
LINE
  5
E4
330
1F
100
AcDbEntity
  8
0
  6
Continuous
 62
     7
370
    18
100
AcDbLine
 10
111.4161619502
 20
185.7053184583
 30
0.0
 11
111.4161619502
 21
185.3368883187
 31
0.0
  0
LINE
  5
E5
330
1F
100
AcDbEntity
  8
0
  6
Continuous
 62
     7
370
    18
100
AcDbLine
 10
111.4161619502
 20
190.8368883187
 30
0.0
 11
111.4161619502
 21
190.4684581791
 31
0.0
  0
LINE
  5
E6
330
1F
100
AcDbEntity
  8
0
  6
Continuous
 62
     7
370
    18
100
AcDbLine
 10
107.8161619503
 20
189.3063883187
 30
0.0
 11
107.8161619503
 21
187.540516474
 31
0.0
  0
LINE
  5
E7
330
1F
100
AcDbEntity
  8
0
  6
Continuous
 62
     7
370
    18
100
AcDbLine
 10
107.9781087007
 20
189.5868883187
 30
0.0
 11
107.9781087007
 21
187.4148442293
 31
0.0
  0
LINE
  5
E8
330
1F
100
AcDbEntity
  8
0
  6
Continuous
 62
     7
370
    18
100
AcDbLine
 10
107.9781087007
 20
187.4148442293
 30
0.0
 11
107.8161619503
 21
187.540516474
 31
0.0
  0
LINE
  5
E9
330
1F
100
AcDbEntity
  8
0
  6
Continuous
 62
     7
370
    18
100
AcDbLine
 10
123.3161619502
 20
187.4148442293
 30
0.0
 11
123.3161619502
 21
189.5868883187
 31
0.0
  0
LINE
  5
EA
330
1F
100
AcDbEntity
  8
0
  6
Continuous
 62
     7
370
    18
100
AcDbLine
 10
123.8161619502
 20
187.6388589257
 30
0.0
 11
123.3161619502
 21
187.4148442293
 31
0.0
  0
LINE
  5
EB
330
1F
100
AcDbEntity
  8
0
  6
Continuous
 62
     7
370
    18
100
AcDbLine
 10
123.3161619502
 20
186.5868883187
 30
0.0
 11
123.3161619502
 21
187.4148442293
 31
0.0
  0
LINE
  5
EC
330
1F
100
AcDbEntity
  8
0
  6
Continuous
 62
     7
370
    18
100
AcDbLine
 10
107.9781087007
 20
187.4148442293
 30
0.0
 11
107.9781087007
 21
186.5868883187
 31
0.0
  0
LINE
  5
ED
330
1F
100
AcDbEntity
  8
0
  6
Continuous
 62
     7
370
    18
100
AcDbLine
 10
107.8161619503
 20
187.540516474
 30
0.0
 11
107.8161619503
 21
186.8673883187
 31
0.0
  0
LINE
  5
EE
330
1F
100
AcDbEntity
  8
0
  6
Continuous
 62
     7
370
    18
100
AcDbLine
 10
109.7705738565
 20
184.0987577557
 30
0.0
 11
109.7705738565
 21
186.5868883187
 31
0.0
  0
LINE
  5
EF
330
1F
100
AcDbEntity
  8
0
  6
Continuous
 62
     7
370
    18
100
AcDbLine
 10
109.7705738565
 20
189.5868883187
 30
0.0
 11
109.7705738565
 21
192.0868883187
 31
0.0
  0
LINE
  5
F0
330
1F
100
AcDbEntity
  8
0
  6
Continuous
 62
     7
370
    18
100
AcDbLine
 10
100.8161619502
 20
184.0987577557
 30
0.0
 11
109.7705738565
 21
184.0987577557
 31
0.0
  0
LINE
  5
F1
330
1F
100
AcDbEntity
  8
0
  6
Continuous
 62
     7
370
    18
100
AcDbLine
 10
100.8161619502
 20
192.0868883187
 30
0.0
 11
100.8161619502
 21
184.0987577557
 31
0.0
  0
LINE
  5
F2
330
1F
100
AcDbEntity
  8
0
  6
Continuous
 62
     7
370
    18
100
AcDbLine
 10
110.1345440908
 20
185.0957903964
 30
0.0
 11
110.1345440908
 21
186.5868883187
 31
0.0
  0
LINE
  5
F3
330
1F
100
AcDbEntity
  8
0
  6
Continuous
 62
     7
370
    18
100
AcDbLine
 10
110.1345440908
 20
189.5868883187
 30
0.0
 11
110.1345440908
 21
191.0868883188
 31
0.0
  0
LINE
  5
F4
330
1F
100
AcDbEntity
  8
0
  6
Continuous
 62
     7
370
    18
100
AcDbLine
 10
109.7705738566
 20
184.0987577559
 30
0.0
 11
110.1345440908
 21
185.0957903967
 31
0.0
  0
ARC
  5
F5
330
1F
100
AcDbEntity
  8
0
  6
Continuous
 62
     7
370
    18
100
AcDbCircle
 10
99.2154212111
 20
184.6478686519
 30
0.0
 40
0.4992598136233796
100
AcDbArc
 50
180.0852613316
 51
270.0850083304
  0
LINE
  5
F6
330
1F
100
AcDbEntity
  8
0
  6
Continuous
 62
     7
370
    18
100
AcDbLine
 10
98.7161619502
 20
191.5223201649
 30
0.0
 11
98.7161619502
 21
184.6471257081
 31
0.0
  0
LINE
  5
F7
330
1F
100
AcDbEntity
  8
0
  6
Continuous
 62
     7
370
    18
100
AcDbLine
 10
100.2161619502
 20
192.0368883187
 30
0.0
 11
100.2161619502
 21
184.1486093878
 31
0.0
  0
LINE
  5
F8
330
1F
100
AcDbEntity
  8
0
  6
Continuous
 62
     7
370
    18
100
AcDbLine
 10
99.2161619502
 20
184.1486093878
 30
0.0
 11
100.2161619502
 21
184.1486093878
 31
0.0
  0
LINE
  5
F9
330
1F
100
AcDbEntity
  8
0
  6
Continuous
 62
     7
370
    18
100
AcDbLine
 10
100.8161619502
 20
185.8934165091
 30
0.0
 11
100.2161619502
 21
185.8934165091
 31
0.0
  0
LINE
  5
FA
330
1F
100
AcDbEntity
  8
0
  6
Continuous
 62
     7
370
    18
100
AcDbLine
 10
110.1345440908
 20
185.0868883187
 30
0.0
 11
110.1345440908
 21
185.0957903964
 31
0.0
  0
LINE
  5
FB
330
1F
100
AcDbEntity
  8
0
  6
Continuous
 62
     7
370
    18
100
AcDbLine
 10
109.7705738565
 20
184.0868883187
 30
0.0
 11
109.7705738565
 21
184.0987577557
 31
0.0
  0
LINE
  5
FC
330
1F
100
AcDbEntity
  8
0
  6
Continuous
 62
     7
370
    18
100
AcDbLine
 10
100.8161619502
 20
184.0868883187
 30
0.0
 11
100.8161619502
 21
184.0987577557
 31
0.0
  0
LINE
  5
FD
330
1F
100
AcDbEntity
  8
0
  6
Continuous
 62
     7
370
    18
100
AcDbLine
 10
100.2161619502
 20
184.1486093878
 30
0.0
 11
100.2161619502
 21
184.1368883187
 31
0.0
  0
LINE
  5
FE
330
1F
100
AcDbEntity
  8
0
  6
Continuous
 62
     7
370
    18
100
AcDbLine
 10
127.6161619502
 20
184.2208629149
 30
0.0
 11
127.6161619502
 21
181.0868883187
 31
0.0
  0
SPLINE
  5
FF
330
1F
100
AcDbEntity
  8
0
  6
Continuous
 62
     7
370
    18
100
AcDbSpline
210
0.0
220
0.0
230
1.0
 70
     8
 71
     3
 72
    18
 73
    14
 74
     0
 42
0.00000001
 43
0.00000001
 40
0.0
 40
0.0
 40
0.0
 40
0.0
 40
0.0592742532914631
 40
0.1218896436040401
 40
0.1883592731393463
 40
0.2591124153087329
 40
0.3345051852566698
 40
0.4148319903881094
 40
0.50033626296288
 40
0.6161749147723682
 40
0.7492989168555281
 40
0.8532822939531893
 40
1.0
 40
1.0
 40
1.0
 40
1.0
 10
127.6161619502176
 20
184.2208629149388
 30
0.0
 10
127.6168962341546
 20
184.2329077690634
 30
0.0
 10
127.6184061917233
 20
184.2576764147231
 30
0.0
 10
127.6299405240442
 20
184.3011010822908
 30
0.0
 10
127.6481056490871
 20
184.3505426192736
 30
0.0
 10
127.6736632114659
 20
184.4067037794358
 30
0.0
 10
127.7063776343803
 20
184.4696475139939
 30
0.0
 10
127.7463051110771
 20
184.5395059786812
 30
0.0
 10
127.7980343140012
 20
184.6236832318401
 30
0.0
 10
127.8652786457511
 20
184.7263639181922
 30
0.0
 10
127.9407804704357
 20
184.8374158065818
 30
0.0
 10
128.0262413533367
 20
184.9593548601176
 30
0.0
 10
128.0829653725531
 20
185.0398059537225
 30
0.0
 10
128.1161619502176
 20
185.0868883187232
 30
0.0
  0
LINE
  5
100
330
1F
100
AcDbEntity
  8
0
  6
Continuous
 62
     7
370
    18
100
AcDbLine
 10
128.1161619502
 20
181.0868883187
 30
0.0
 11
128.1161619502
 21
185.0868883187
 31
0.0
  0
LINE
  5
101
330
1F
100
AcDbEntity
  8
0
  6
Continuous
 62
     7
370
    18
100
AcDbLine
 10
128.1161619502
 20
181.0868883187
 30
0.0
 11
127.6161619502
 21
181.0868883187
 31
0.0
  0
LINE
  5
102
330
1F
100
AcDbEntity
  8
0
  6
Continuous
 62
     7
370
    18
100
AcDbLine
 10
125.1161619502
 20
184.0868883187
 30
0.0
 11
127.6161619502
 21
184.0868883187
 31
0.0
  0
LINE
  5
103
330
1F
100
AcDbEntity
  8
0
  6
Continuous
 62
     7
370
    18
100
AcDbLine
 10
125.1161619502
 20
185.0868883187
 30
0.0
 11
125.1161619502
 21
184.0868883187
 31
0.0
  0
LINE
  5
104
330
1F
100
AcDbEntity
  8
0
  6
Continuous
 62
     7
370
    18
100
AcDbLine
 10
128.1161619502
 20
185.0868883187
 30
0.0
 11
125.1161619502
 21
185.0868883187
 31
0.0
  0
LINE
  5
105
330
1F
100
AcDbEntity
  8
0
  6
Continuous
 62
     7
370
    18
100
AcDbLine
 10
125.1161619502
 20
196.0868883187
 30
0.0
 11
128.1161619502
 21
196.0868883187
 31
0.0
  0
LINE
  5
106
330
1F
100
AcDbEntity
  8
0
  6
Continuous
 62
     7
370
    18
100
AcDbLine
 10
128.1161619502
 20
196.0868883187
 30
0.0
 11
128.1161619502
 21
200.0868883187
 31
0.0
  0
LINE
  5
107
330
1F
100
AcDbEntity
  8
0
  6
Continuous
 62
     7
370
    18
100
AcDbLine
 10
128.1161619502
 20
200.0868883187
 30
0.0
 11
137.6161619502
 21
200.0868883187
 31
0.0
  0
LINE
  5
108
330
1F
100
AcDbEntity
  8
0
  6
Continuous
 62
     7
370
    18
100
AcDbLine
 10
137.6161619502
 20
200.0868883187
 30
0.0
 11
137.6161619502
 21
181.0868883187
 31
0.0
  0
LINE
  5
109
330
1F
100
AcDbEntity
  8
0
  6
Continuous
 62
     7
370
    18
100
AcDbLine
 10
137.6161619502
 20
181.0868883187
 30
0.0
 11
128.1161619502
 21
181.0868883187
 31
0.0
  0
LINE
  5
10A
330
1F
100
AcDbEntity
  8
0
  6
Continuous
 62
     7
370
    18
100
AcDbLine
 10
125.1161619502
 20
185.0868883187
 30
0.0
 11
125.1161619502
 21
196.0868883187
 31
0.0
  0
LINE
  5
10B
330
1F
100
AcDbEntity
  8
0
  6
Continuous
 62
     7
370
    18
100
AcDbLine
 10
125.1161619502
 20
197.0868883187
 30
0.0
 11
125.1161619502
 21
196.0868883187
 31
0.0
  0
LINE
  5
10C
330
1F
100
AcDbEntity
  8
0
  6
Continuous
 62
     7
370
    18
100
AcDbLine
 10
127.6161619502
 20
197.0868883187
 30
0.0
 11
125.1161619502
 21
197.0868883187
 31
0.0
  0
SPLINE
  5
10D
330
1F
100
AcDbEntity
  8
0
  6
Continuous
 62
     7
370
    18
100
AcDbSpline
210
0.0
220
0.0
230
1.0
 70
     8
 71
     3
 72
    16
 73
    12
 74
     0
 42
0.00000001
 43
0.00000001
 40
0.0
 40
0.0
 40
0.0
 40
0.0
 40
0.1047781356529066
 40
0.1881745339543406
 40
0.2501877036453501
 40
0.3824717648853581
 40
0.499959726730986
 40
0.6461138259987617
 40
0.7769821865485619
 40
0.8941912147578519
 40
1.0
 40
1.0
 40
1.0
 40
1.0
 10
128.1161619502176
 20
196.0868883187232
 30
0.0
 10
128.0924578213248
 20
196.1204759274163
 30
0.0
 10
128.0498867889297
 20
196.180797029458
 30
0.0
 10
127.9937515141128
 20
196.2605806450445
 30
0.0
 10
127.9322286115041
 20
196.3485010731621
 30
0.0
 10
127.8656256299598
 20
196.4466767439129
 30
0.0
 10
127.7862017329996
 20
196.5682180161944
 30
0.0
 10
127.7155591148898
 20
196.6853224105976
 30
0.0
 10
127.6595698052697
 20
196.7944414643224
 30
0.0
 10
127.6234662450248
 20
196.8842408041624
 30
0.0
 10
127.6185123031503
 20
196.9308163675552
 30
0.0
 10
127.6161619502176
 20
196.9529137225076
 30
0.0
  0
LINE
  5
10E
330
1F
100
AcDbEntity
  8
0
  6
Continuous
 62
     7
370
    18
100
AcDbLine
 10
127.6161619502
 20
200.0868883187
 30
0.0
 11
127.6161619502
 21
196.9529137225
 31
0.0
  0
LINE
  5
10F
330
1F
100
AcDbEntity
  8
0
  6
Continuous
 62
     7
370
    18
100
AcDbLine
 10
127.6161619502
 20
200.0868883187
 30
0.0
 11
128.1161619502
 21
200.0868883187
 31
0.0
  0
SPLINE
  5
110
330
1F
100
AcDbEntity
  8
0
  6
Continuous
 62
     7
370
    18
100
AcDbSpline
210
0.0
220
0.0
230
1.0
 70
    24
 71
     3
 72
     8
 73
     4
 74
     0
 42
0.00000001
 43
0.00000001
 40
0.0
 40
0.0
 40
0.0
 40
0.0
 40
1.0
 40
1.0
 40
1.0
 40
1.0
 10
173.3161619502176
 20
211.0868883222277
 30
0.0
 10
173.3161619502176
 20
209.2890637932651
 30
0.0
 10
173.3161619502176
 20
206.762729957655
 30
0.0
 10
173.3161619502176
 20
204.1168883187232
 30
0.0
  0
LINE
  5
111
330
1F
100
AcDbEntity
  8
0
  6
Continuous
 62
     7
370
    18
100
AcDbLine
 10
173.3161619502
 20
204.1168883187
 30
0.0
 11
172.8161619502
 21
204.1168883187
 31
0.0
  0
LINE
  5
112
330
1F
100
AcDbEntity
  8
0
  6
Continuous
 62
     7
370
    18
100
AcDbLine
 10
172.8161619502
 20
204.1168883187
 30
0.0
 11
172.8161619502
 21
211.0868883224
 31
0.0
  0
SPLINE
  5
113
330
1F
100
AcDbEntity
  8
0
  6
Continuous
 62
     7
370
    18
100
AcDbSpline
210
0.0
220
0.0
230
1.0
 70
    24
 71
     3
 72
    12
 73
     8
 74
     0
 42
0.00000001
 43
0.00000001
 40
0.0
 40
0.0
 40
0.0
 40
0.0
 40
0.2499999999999994
 40
0.2499999999999994
 40
0.4999999999999989
 40
0.4999999999999989
 40
1.0
 40
1.0
 40
1.0
 40
1.0
 10
172.8161619502176
 20
211.0868883224118
 30
0.0
 10
172.8975833799864
 20
211.0868883224118
 30
0.0
 10
172.9758497625562
 20
211.0868883224044
 30
0.0
 10
173.1074729638617
 20
211.0868883223804
 30
0.0
 10
173.1602742766083
 20
211.0868883223643
 30
0.0
 10
173.2820881038713
 20
211.0868883223107
 30
0.0
 10
173.3161619502175
 20
211.0868883222689
 30
0.0
 10
173.3161619502176
 20
211.0868883222275
 30
0.0
  0
LINE
  5
114
330
1F
100
AcDbEntity
  8
0
  6
Continuous
 62
     7
370
    18
100
AcDbLine
 10
128.1161619502
 20
203.0868883187
 30
0.0
 11
128.1161619502
 21
200.0868883187
 31
0.0
  0
SPLINE
  5
115
330
1F
100
AcDbEntity
  8
0
  6
Continuous
 62
     7
370
    18
100
AcDbSpline
210
0.0
220
0.0
230
1.0
 70
    24
 71
     3
 72
    10
 73
     6
 74
     0
 42
0.00000001
 43
0.00000001
 40
0.0
 40
0.0
 40
0.0
 40
0.0
 40
0.5
 40
0.5
 40
0.9999999999999999
 40
0.9999999999999999
 40
0.9999999999999999
 40
0.9999999999999999
 10
127.6161619502176
 20
200.0868883187232
 30
0.0
 10
127.6161619502176
 20
200.7499107787232
 30
0.0
 10
127.6161619502176
 20
201.3858275941446
 30
0.0
 10
127.6161619502176
 20
202.3234829492345
 30
0.0
 10
127.6161619502176
 20
202.5868883187232
 30
0.0
 10
127.6161619502176
 20
202.5868883187232
 30
0.0
  0
ARC
  5
116
330
1F
100
AcDbEntity
  8
0
  6
Continuous
 62
     7
370
    18
100
AcDbCircle
 10
128.1161619502
 20
202.5868883187
 30
0.0
 40
0.5000000000000142
100
AcDbArc
 50
90.0
 51
180.0
  0
SPLINE
  5
117
330
1F
100
AcDbEntity
  8
0
  6
Continuous
 62
     7
370
    18
100
AcDbSpline
210
0.0
220
0.0
230
1.0
 70
    24
 71
     3
 72
     8
 73
     4
 74
     0
 42
0.00000001
 43
0.00000001
 40
0.0
 40
0.0
 40
0.0
 40
0.0
 40
1.0
 40
1.0
 40
1.0
 40
1.0
 10
127.6161619502176
 20
178.5868883187232
 30
0.0
 10
127.6161619502176
 20
178.5868883187232
 30
0.0
 10
127.6161619502176
 20
179.7071007939154
 30
0.0
 10
127.6161619502176
 20
181.0868883187232
 30
0.0
  0
LINE
  5
118
330
1F
100
AcDbEntity
  8
0
  6
Continuous
 62
     7
370
    18
100
AcDbLine
 10
128.1161619502
 20
181.0868883187
 30
0.0
 11
128.1161619502
 21
178.0868883187
 31
0.0
  0
ARC
  5
119
330
1F
100
AcDbEntity
  8
0
  6
Continuous
 62
     7
370
    18
100
AcDbCircle
 10
128.1161619502
 20
178.5868883187
 30
0.0
 40
0.5000000000000142
100
AcDbArc
 50
180.0
 51
270.0
  0
LINE
  5
11A
330
1F
100
AcDbEntity
  8
0
  6
Continuous
 62
     7
370
    18
100
AcDbLine
 10
125.1161619502
 20
196.0868883187
 30
0.0
 11
124.6161619502
 21
196.0868883187
 31
0.0
  0
SPLINE
  5
11B
330
1F
100
AcDbEntity
  8
0
  6
Continuous
 62
     7
370
    18
100
AcDbSpline
210
0.0
220
0.0
230
1.0
 70
    24
 71
     3
 72
    16
 73
    12
 74
     0
 42
0.00000001
 43
0.00000001
 40
0.0
 40
0.0
 40
0.0
 40
0.0
 40
0.0801150698540419
 40
0.1597406165935234
 40
0.2401518739708309
 40
0.3697805865980204
 40
0.5000923147437386
 40
0.629721334126959
 40
0.7600333706109939
 40
0.8798503072454489
 40
1.0
 40
1.0
 40
1.0
 40
1.0
 10
124.6161619502176
 20
196.0868883187232
 30
0.0
 10
124.6161619502176
 20
196.1078492457386
 30
0.0
 10
124.6161619502176
 20
196.1496430232627
 30
0.0
 10
124.6161619502176
 20
196.2114901441916
 30
0.0
 10
124.6161619502176
 20
196.2836583472852
 30
0.0
 10
124.6161619502176
 20
196.3633636476615
 30
0.0
 10
124.6161619502176
 20
196.4426866956781
 30
0.0
 10
124.6161619502176
 20
196.507907267133
 30
0.0
 10
124.6161619502176
 20
196.5534465602597
 30
0.0
 10
124.6161619502176
 20
196.5819088005607
 30
0.0
 10
124.6161619502176
 20
196.5852269456043
 30
0.0
 10
124.6161619502176
 20
196.5868883187232
 30
0.0
  0
ARC
  5
11C
330
1F
100
AcDbEntity
  8
0
  6
Continuous
 62
     7
370
    18
100
AcDbCircle
 10
125.1161619502
 20
196.5868883187
 30
0.0
 40
0.5
100
AcDbArc
 50
90.0
 51
180.0
  0
ARC
  5
11D
330
1F
100
AcDbEntity
  8
0
  6
Continuous
 62
     7
370
    18
100
AcDbCircle
 10
125.1161619502
 20
184.5868883187
 30
0.0
 40
0.5
100
AcDbArc
 50
180.0
 51
270.0
  0
SPLINE
  5
11E
330
1F
100
AcDbEntity
  8
0
  6
Continuous
 62
     7
370
    18
100
AcDbSpline
210
0.0
220
0.0
230
1.0
 70
    24
 71
     3
 72
    16
 73
    12
 74
     0
 42
0.00000001
 43
0.00000001
 40
0.0
 40
0.0
 40
0.0
 40
0.0
 40
0.0801150698541481
 40
0.1597406165936302
 40
0.2401518739708294
 40
0.3697805865977752
 40
0.5000923147437181
 40
0.6297213341268375
 40
0.760033370611003
 40
0.8798503072457092
 40
1.0
 40
1.0
 40
1.0
 40
1.0
 10
124.6161619502176
 20
184.5868883187232
 30
0.0
 10
124.6161619502176
 20
184.5876293922358
 30
0.0
 10
124.6161619502176
 20
184.5891070111166
 30
0.0
 10
124.6161619502176
 20
184.6013541998665
 30
0.0
 10
124.6161619502176
 20
184.624730660928
 30
0.0
 10
124.6161619502176
 20
184.6658564649841
 30
0.0
 10
124.6161619502176
 20
184.7308128438758
 30
0.0
 10
124.6161619502176
 20
184.8102696531854
 30
0.0
 10
124.6161619502176
 20
184.8991446054382
 30
0.0
 10
124.6161619502176
 20
184.9925652077267
 30
0.0
 10
124.6161619502176
 20
185.055418229452
 30
0.0
 10
124.6161619502176
 20
185.0868883187232
 30
0.0
  0
LINE
  5
11F
330
1F
100
AcDbEntity
  8
0
  6
Continuous
 62
     7
370
    18
100
AcDbLine
 10
124.6161619502
 20
185.0868883187
 30
0.0
 11
125.1161619502
 21
185.0868883187
 31
0.0
  0
LINE
  5
120
330
1F
100
AcDbEntity
  8
0
  6
Continuous
 62
     7
370
    18
100
AcDbLine
 10
172.8161619502
 20
184.1868883187
 30
0.0
 11
173.3161619502
 21
184.1868883187
 31
0.0
  0
LINE
  5
121
330
1F
100
AcDbEntity
  8
0
  6
Continuous
 62
     7
370
    18
100
AcDbLine
 10
172.8161619502
 20
184.1868883187
 30
0.0
 11
172.8161619502
 21
204.1168883187
 31
0.0
  0
LINE
  5
122
330
1F
100
AcDbEntity
  8
0
  6
Continuous
 62
     7
370
    18
100
AcDbLine
 10
173.3161619502
 20
200.8010311617
 30
0.0
 11
173.3161619502
 21
204.1168883187
 31
0.0
  0
SPLINE
  5
123
330
1F
100
AcDbEntity
  8
0
  6
Continuous
 62
     7
370
    18
100
AcDbSpline
210
0.0
220
0.0
230
1.0
 70
     8
 71
     3
 72
    16
 73
    12
 74
     0
 42
0.00000001
 43
0.00000001
 40
0.0
 40
0.0
 40
0.0
 40
0.0
 40
0.1131337265370036
 40
0.2247596633571395
 40
0.3352955713431001
 40
0.4451720926396274
 40
0.5548279073603716
 40
0.6647044286569002
 40
0.7752403366428599
 40
0.8868662734629964
 40
0.9999999999999999
 40
0.9999999999999999
 40
0.9999999999999999
 40
0.9999999999999999
 10
173.3161619502176
 20
200.8010311617391
 30
0.0
 10
173.3157754196036
 20
200.7482917183933
 30
0.0
 10
173.3150075098622
 20
200.6435157166221
 30
0.0
 10
173.3111339478296
 20
200.4843846236435
 30
0.0
 10
173.3077477715206
 20
200.3254202927162
 30
0.0
 10
173.3057092606628
 20
200.1663948083424
 30
0.0
 10
173.3057092606629
 20
200.0073818290954
 30
0.0
 10
173.3077477715207
 20
199.8483563447216
 30
0.0
 10
173.3111339478298
 20
199.6893920137944
 30
0.0
 10
173.3150075098623
 20
199.5302609208159
 30
0.0
 10
173.3157754196036
 20
199.4254849190447
 30
0.0
 10
173.3161619502176
 20
199.372745475699
 30
0.0
  0
LINE
  5
124
330
1F
100
AcDbEntity
  8
0
  6
Continuous
 62
     7
370
    18
100
AcDbLine
 10
173.3161619502
 20
184.1868883187
 30
0.0
 11
173.3161619502
 21
199.3727454757
 31
0.0
  0
LINE
  5
125
330
1F
100
AcDbEntity
  8
0
  6
Continuous
 62
     7
370
    18
100
AcDbLine
 10
167.5161619502
 20
184.1868883187
 30
0.0
 11
172.8161619502
 21
184.1868883187
 31
0.0
  0
LINE
  5
126
330
1F
100
AcDbEntity
  8
0
  6
Continuous
 62
     7
370
    18
100
AcDbLine
 10
167.5161619502
 20
179.5868883187
 30
0.0
 11
167.5161619502
 21
184.1868883187
 31
0.0
  0
LINE
  5
127
330
1F
100
AcDbEntity
  8
0
  6
Continuous
 62
     7
370
    18
100
AcDbLine
 10
167.5161619502
 20
179.5868883187
 30
0.0
 11
166.3161619502
 21
179.5868883187
 31
0.0
  0
LINE
  5
128
330
1F
100
AcDbEntity
  8
0
  6
Continuous
 62
     7
370
    18
100
AcDbLine
 10
166.3161619502
 20
176.0868883187
 30
0.0
 11
166.3161619502
 21
179.5868883187
 31
0.0
  0
LINE
  5
129
330
1F
100
AcDbEntity
  8
0
  6
Continuous
 62
     7
370
    18
100
AcDbLine
 10
166.3161619502
 20
176.0868883187
 30
0.0
 11
138.1161619502
 21
176.0868883187
 31
0.0
  0
LINE
  5
12A
330
1F
100
AcDbEntity
  8
0
  6
Continuous
 62
     7
370
    18
100
AcDbLine
 10
138.1161619502
 20
200.0868883187
 30
0.0
 11
138.1161619502
 21
176.0868883187
 31
0.0
  0
LINE
  5
12B
330
1F
100
AcDbEntity
  8
0
  6
Continuous
 62
     7
370
    18
100
AcDbLine
 10
166.3161619502
 20
200.0868883187
 30
0.0
 11
138.1161619502
 21
200.0868883187
 31
0.0
  0
LINE
  5
12C
330
1F
100
AcDbEntity
  8
0
  6
Continuous
 62
     7
370
    18
100
AcDbLine
 10
166.3161619502
 20
204.1168883187
 30
0.0
 11
166.3161619502
 21
200.0868883187
 31
0.0
  0
LINE
  5
12D
330
1F
100
AcDbEntity
  8
0
  6
Continuous
 62
     7
370
    18
100
AcDbLine
 10
172.8161619502
 20
204.1168883187
 30
0.0
 11
166.3161619502
 21
204.1168883187
 31
0.0
  0
LINE
  5
12E
330
1F
100
AcDbEntity
  8
0
  6
Continuous
 62
     7
370
    18
100
AcDbLine
 10
167.5161619502
 20
183.6868883187
 30
0.0
 11
172.8161619502
 21
183.6868883187
 31
0.0
  0
LINE
  5
12F
330
1F
100
AcDbEntity
  8
0
  6
Continuous
 62
     7
370
    18
100
AcDbLine
 10
172.8161619502
 20
183.6868883187
 30
0.0
 11
172.8161619502
 21
184.1868883187
 31
0.0
  0
LINE
  5
130
330
1F
100
AcDbEntity
  8
0
  6
Continuous
 62
     7
370
    18
100
AcDbLine
 10
166.3161619502
 20
204.1168883187
 30
0.0
 11
166.3161619502
 21
211.0868883224
 31
0.0
  0
LINE
  5
131
330
1F
100
AcDbEntity
  8
0
  6
Continuous
 62
     7
370
    18
100
AcDbLine
 10
166.3161619502
 20
211.0868883224
 30
0.0
 11
172.1161619502
 21
211.0868883224
 31
0.0
  0
LINE
  5
132
330
1F
100
AcDbEntity
  8
0
  6
Continuous
 62
     7
370
    18
100
AcDbLine
 10
172.8161619502
 20
211.0868883224
 30
0.0
 11
172.1161619502
 21
211.0868883224
 31
0.0
  0
LINE
  5
133
330
1F
100
AcDbEntity
  8
0
  6
Continuous
 62
     7
370
    18
100
AcDbLine
 10
166.3161619502
 20
170.0868883187
 30
0.0
 11
166.3161619502
 21
174.5868883187
 31
0.0
  0
LINE
  5
134
330
1F
100
AcDbEntity
  8
0
  6
Continuous
 62
     7
370
    18
100
AcDbLine
 10
164.3161619502
 20
174.5868883187
 30
0.0
 11
164.3161619502
 21
170.0868883187
 31
0.0
  0
LINE
  5
135
330
1F
100
AcDbEntity
  8
0
  6
Continuous
 62
     7
370
    18
100
AcDbLine
 10
166.3161619502
 20
174.5868883187
 30
0.0
 11
164.3161619502
 21
174.5868883187
 31
0.0
  0
LINE
  5
136
330
1F
100
AcDbEntity
  8
0
  6
Continuous
 62
     7
370
    18
100
AcDbLine
 10
164.3161619502
 20
170.0868883187
 30
0.0
 11
166.3161619502
 21
170.0868883187
 31
0.0
  0
LINE
  5
137
330
1F
100
AcDbEntity
  8
0
  6
Continuous
 62
     7
370
    18
100
AcDbLine
 10
115.8161619502
 20
175.5868883187
 30
0.0
 11
115.8161619502
 21
187.0868883187
 31
0.0
  0
ARC
  5
138
330
1F
100
AcDbEntity
  8
0
  6
Continuous
 62
     7
370
    18
100
AcDbCircle
 10
116.8161619502
 20
175.5868883187
 30
0.0
 40
1.0
100
AcDbArc
 50
180.0
 51
270.0
  0
LINE
  5
139
330
1F
100
AcDbEntity
  8
0
  6
Continuous
 62
     7
370
    18
100
AcDbLine
 10
164.3161619502
 20
174.5868883187
 30
0.0
 11
116.8161619502
 21
174.5868883187
 31
0.0
  0
LINE
  5
13A
330
1F
100
AcDbEntity
  8
0
  6
Continuous
 62
     7
370
    18
100
AcDbLine
 10
113.8161619502
 20
186.3548375112
 30
0.0
 11
113.8161619502
 21
170.0868883187
 31
0.0
  0
LINE
  5
13B
330
1F
100
AcDbEntity
  8
0
  6
Continuous
 62
     7
370
    18
100
AcDbLine
 10
115.8161619502
 20
187.0868883187
 30
0.0
 11
113.8161619502
 21
187.0868883187
 31
0.0
  0
LINE
  5
13C
330
1F
100
AcDbEntity
  8
0
  6
Continuous
 62
     7
370
    18
100
AcDbLine
 10
113.8161619502
 20
170.0868883187
 30
0.0
 11
164.3161619502
 21
170.0868883187
 31
0.0
  0
LINE
  5
13D
330
1F
100
AcDbEntity
  8
0
  6
Continuous
 62
     7
370
    18
100
AcDbLine
 10
137.6161619502
 20
203.0868883187
 30
0.0
 11
128.1161619502
 21
203.0868883187
 31
0.0
  0
LINE
  5
13E
330
1F
100
AcDbEntity
  8
0
  6
Continuous
 62
     7
370
    18
100
AcDbLine
 10
137.6161619502
 20
203.0868883187
 30
0.0
 11
137.6161619502
 21
200.0868883187
 31
0.0
  0
LINE
  5
13F
330
1F
100
AcDbEntity
  8
0
  6
Continuous
 62
     7
370
    18
100
AcDbLine
 10
124.6161619502
 20
196.0868883187
 30
0.0
 11
124.6161619502
 21
185.0868883187
 31
0.0
  0
LINE
  5
140
330
1F
100
AcDbEntity
  8
0
  6
Continuous
 62
     7
370
    18
100
AcDbLine
 10
137.6161619502
 20
181.0868883187
 30
0.0
 11
137.6161619502
 21
178.0868883187
 31
0.0
  0
LINE
  5
141
330
1F
100
AcDbEntity
  8
0
  6
Continuous
 62
     7
370
    18
100
AcDbLine
 10
128.1161619502
 20
178.0868883187
 30
0.0
 11
137.6161619502
 21
178.0868883187
 31
0.0
  0
ARC
  5
142
330
1F
100
AcDbEntity
  8
0
  6
Continuous
 62
     7
370
    18
100
AcDbCircle
 10
172.8161619502
 20
184.1868883187
 30
0.0
 40
0.5
100
AcDbArc
 50
270.0
 51
0.0
  0
LINE
  5
143
330
1F
100
AcDbEntity
  8
0
  6
Continuous
 62
     7
370
    18
100
AcDbLine
 10
138.1161619502
 20
203.0868883187
 30
0.0
 11
138.1161619502
 21
200.0868883187
 31
0.0
  0
LINE
  5
144
330
1F
100
AcDbEntity
  8
0
  6
Continuous
 62
     7
370
    18
100
AcDbLine
 10
166.3161619502
 20
203.0868883187
 30
0.0
 11
138.1161619502
 21
203.0868883187
 31
0.0
  0
LINE
  5
145
330
1F
100
AcDbEntity
  8
0
  6
Continuous
 62
     7
370
    18
100
AcDbLine
 10
166.3161619502
 20
178.0868883187
 30
0.0
 11
167.5161619502
 21
178.0868883187
 31
0.0
  0
LINE
  5
146
330
1F
100
AcDbEntity
  8
0
  6
Continuous
 62
     7
370
    18
100
AcDbLine
 10
167.5161619502
 20
178.0868883187
 30
0.0
 11
167.5161619502
 21
179.5868883187
 31
0.0
  0
LINE
  5
147
330
1F
100
AcDbEntity
  8
0
  6
Continuous
 62
     7
370
    18
100
AcDbLine
 10
138.1161619502
 20
175.0868883187
 30
0.0
 11
166.3161619502
 21
175.0868883187
 31
0.0
  0
LINE
  5
148
330
1F
100
AcDbEntity
  8
0
  6
Continuous
 62
     7
370
    18
100
AcDbLine
 10
138.1161619502
 20
176.0868883187
 30
0.0
 11
138.1161619502
 21
175.0868883187
 31
0.0
  0
LINE
  5
149
330
1F
100
AcDbEntity
  8
0
  6
Continuous
 62
     7
370
    18
100
AcDbLine
 10
166.3161619502
 20
175.0868883187
 30
0.0
 11
166.3161619502
 21
176.0868883187
 31
0.0
  0
LINE
  5
14A
330
1F
100
AcDbEntity
  8
0
  6
Continuous
 62
     7
370
    18
100
AcDbLine
 10
115.8161619502
 20
194.0868883187
 30
0.0
 11
113.8161619502
 21
194.0868883187
 31
0.0
  0
LINE
  5
14B
330
1F
100
AcDbEntity
  8
0
  6
Continuous
 62
     7
370
    18
100
AcDbLine
 10
115.8161619502
 20
187.0868883187
 30
0.0
 11
115.8161619502
 21
194.0868883187
 31
0.0
  0
LINE
  5
14C
330
1F
100
AcDbEntity
  8
0
  6
Continuous
 62
     7
370
    18
100
AcDbLine
 10
113.8161619502
 20
194.0868883187
 30
0.0
 11
113.8161619502
 21
190.2571890391
 31
0.0
  0
LINE
  5
14D
330
1F
100
AcDbEntity
  8
0
  6
Continuous
 62
     7
370
    18
100
AcDbLine
 10
137.6161619502
 20
199.5868883187
 30
0.0
 11
138.1161619502
 21
199.5868883187
 31
0.0
  0
LINE
  5
14E
330
1F
100
AcDbEntity
  8
0
  6
Continuous
 62
     7
370
    18
100
AcDbLine
 10
138.1161619502
 20
202.5868883187
 30
0.0
 11
137.6161619502
 21
202.5868883187
 31
0.0
  0
LINE
  5
14F
330
1F
100
AcDbEntity
  8
0
  6
Continuous
 62
     7
370
    18
100
AcDbLine
 10
138.1161619502
 20
181.5868883187
 30
0.0
 11
137.6161619502
 21
181.5868883187
 31
0.0
  0
LINE
  5
150
330
1F
100
AcDbEntity
  8
0
  6
Continuous
 62
     7
370
    18
100
AcDbLine
 10
137.6161619502
 20
178.5868883187
 30
0.0
 11
138.1161619502
 21
178.5868883187
 31
0.0
  0
LINE
  5
151
330
1F
100
AcDbEntity
  8
0
  6
Continuous
 62
     7
370
    18
100
AcDbLine
 10
125.2411619502
 20
179.3246173273
 30
0.0
 11
127.6161619502
 21
179.3246173273
 31
0.0
  0
ARC
  5
152
330
1F
100
AcDbEntity
  8
0
  6
Continuous
 62
     7
370
    18
100
AcDbCircle
 10
125.2290823147
 20
179.4379440865
 30
0.0
 40
0.1139687323185508
100
AcDbArc
 50
187.7774117197
 51
276.0842529691
  0
SPLINE
  5
153
330
1F
100
AcDbEntity
  8
0
  6
Continuous
 62
     7
370
    18
100
AcDbSpline
210
0.0
220
0.0
230
1.0
 70
    24
 71
     3
 72
    17
 73
    13
 74
     0
 42
0.00000001
 43
0.00000001
 40
0.0
 40
0.0
 40
0.0
 40
0.0
 40
0.0464200290811653
 40
0.1292918769591263
 40
0.2120613162424286
 40
0.3642799886444827
 40
0.5164986610465371
 40
0.5993705550670898
 40
0.682140040436683
 40
0.7650118883148014
 40
0.8477813275979459
 40
1.0
 40
1.0
 40
1.0
 40
1.0
 10
125.1161619502176
 20
183.2012600189459
 30
0.0
 10
125.1161619502176
 20
183.2026843978957
 30
0.0
 10
125.1161619502176
 20
183.2066516644306
 30
0.0
 10
125.1161619502176
 20
183.117134190893
 30
0.0
 10
125.1161619502176
 20
182.8922673503426
 30
0.0
 10
125.1161619502176
 20
182.4396910910232
 30
0.0
 10
125.1161619502176
 20
181.8260535984918
 30
0.0
 10
125.1161619502176
 20
181.2788292228114
 30
0.0
 10
125.1161619502176
 20
180.8421016135381
 30
0.0
 10
125.1161619502176
 20
180.4171727194773
 30
0.0
 10
125.1161619502176
 20
179.9019794504974
 30
0.0
 10
125.1161619502176
 20
179.6110057981595
 30
0.0
 10
125.1161619502176
 20
179.4225212712394
 30
0.0
  0
ARC
  5
154
330
1F
100
AcDbEntity
  8
0
  6
Continuous
 62
     7
370
    18
100
AcDbCircle
 10
169.9068638772
 20
182.5635260212
 30
0.0
 40
0.1115419629478111
100
AcDbArc
 50
11.5119798487
 51
98.0924907933
  0
SPLINE
  5
155
330
1F
100
AcDbEntity
  8
0
  6
Continuous
 62
     7
370
    18
100
AcDbSpline
210
0.0
220
0.0
230
1.0
 70
    24
 71
     3
 72
    14
 73
    10
 74
     0
 42
0.00000001
 43
0.00000001
 40
0.0
 40
0.0
 40
0.0
 40
0.0
 40
0.2500000000000002
 40
0.2500000000000002
 40
0.5000000000000001
 40
0.5000000000000001
 40
0.75
 40
0.75
 40
1.0
 40
1.0
 40
1.0
 40
1.0
 10
170.0161619502176
 20
182.5857867653641
 30
0.0
 10
170.0161619502176
 20
182.2878790589415
 30
0.0
 10
170.0161619502176
 20
181.9087204625406
 30
0.0
 10
170.0161619502176
 20
181.0839264584287
 30
0.0
 10
170.0161619502176
 20
180.656739073655
 30
0.0
 10
170.0161619502176
 20
179.8809721848435
 30
0.0
 10
170.0161619502176
 20
179.5497441228476
 30
0.0
 10
170.0161619502176
 20
179.084484938405
 30
0.0
 10
170.0161619502176
 20
178.9608601865958
 30
0.0
 10
170.0161619502176
 20
178.9618947572929
 30
0.0
  0
LINE
  5
156
330
1F
100
AcDbEntity
  8
0
  6
Continuous
 62
     7
370
    18
100
AcDbLine
 10
169.8911619502
 20
182.6739572622
 30
0.0
 11
167.5161619502
 21
182.6739572622
 31
0.0
  0
SPLINE
  5
157
330
1F
100
AcDbEntity
  8
0
  6
Continuous
 62
     7
370
    18
100
AcDbSpline
210
0.0
220
0.0
230
1.0
 70
    24
 71
     3
 72
    15
 73
    11
 74
     0
 42
0.00000001
 43
0.00000001
 40
0.0
 40
0.0
 40
0.0
 40
0.0
 40
0.140246222297002
 40
0.280492444594004
 40
0.4207386668910064
 40
0.5609848891880088
 40
0.7012311114850105
 40
0.8414773337820128
 40
0.981723556079015
 40
1.0
 40
1.0
 40
1.0
 40
1.0
 10
123.8161619502176
 20
189.5004703680755
 30
0.0
 10
123.8161619502176
 20
189.4135427717821
 30
0.0
 10
123.8161619502176
 20
189.2396875791954
 30
0.0
 10
123.8161619502176
 20
188.745843011346
 30
0.0
 10
123.8161619502176
 20
188.1667076789787
 30
0.0
 10
123.8161619502176
 20
187.5728626583115
 30
0.0
 10
123.8161619502176
 20
187.0524759278543
 30
0.0
 10
123.8161619502176
 20
186.7113168489342
 30
0.0
 10
123.8161619502176
 20
186.5594008995812
 30
0.0
 10
123.8161619502176
 20
186.5957012747864
 30
0.0
 10
123.8161619502176
 20
186.5998864287936
 30
0.0
  0
LINE
  5
158
330
1F
100
AcDbEntity
  8
0
  6
Continuous
 62
     7
370
    18
100
AcDbLine
 10
123.8161619502
 20
189.5004703681
 30
0.0
 11
124.6161619502
 21
189.5004703681
 31
0.0
  0
SPLINE
  5
159
330
1F
100
AcDbEntity
  8
0
  6
Continuous
 62
     7
370
    18
100
AcDbSpline
210
0.0
220
0.0
230
1.0
 70
    24
 71
     3
 72
     9
 73
     5
 74
     0
 42
0.00000001
 43
0.00000001
 40
0.0
 40
0.0
 40
0.0
 40
0.0
 40
0.8753689423194952
 40
1.0
 40
1.0
 40
1.0
 40
1.0
 10
170.0161619502176
 20
182.5857867653641
 30
0.0
 10
170.0161619502176
 20
182.7656462536271
 30
0.0
 10
170.0161619502176
 20
182.9711133196467
 30
0.0
 10
170.0161619502176
 20
183.0586599510528
 30
0.0
 10
170.0161619502176
 20
183.0695709803212
 30
0.0
  0
LINE
  5
15A
330
1F
100
AcDbEntity
  8
0
  6
Continuous
 62
     7
370
    18
100
AcDbLine
 10
125.1161619502
 20
179.4225212712
 30
0.0
 11
125.1161619502
 21
179.0731225893
 31
0.0
  0
SPLINE
  5
15B
330
1F
100
AcDbEntity
  8
0
  6
Continuous
 62
     7
370
    18
100
AcDbSpline
210
0.0
220
0.0
230
1.0
 70
    24
 71
     3
 72
     8
 73
     4
 74
     0
 42
0.00000001
 43
0.00000001
 40
0.0
 40
0.0
 40
0.0
 40
0.0
 40
1.0
 40
1.0
 40
1.0
 40
1.0
 10
125.6161619502176
 20
183.3003856096317
 30
0.0
 10
125.6161619502176
 20
183.552619491876
 30
0.0
 10
125.6161619502176
 20
183.8153621894007
 30
0.0
 10
125.6161619502176
 20
184.0868883187232
 30
0.0
  0
SPLINE
  5
15C
330
1F
100
AcDbEntity
  8
0
  6
Continuous
 62
     7
370
    18
100
AcDbSpline
210
0.0
220
0.0
230
1.0
 70
     8
 71
     3
 72
    13
 73
     9
 74
     0
 42
0.00000001
 43
0.00000001
 40
0.0
 40
0.0
 40
0.0
 40
0.0
 40
0.0543875037256258
 40
0.1105805650677795
 40
0.2429913984675675
 40
0.4844043323060847
 40
0.9648379759668028
 40
1.0
 40
1.0
 40
1.0
 40
1.0
 10
125.6161619502176
 20
183.699621724715
 30
0.0
 10
125.6038866530762
 20
183.6990582665001
 30
0.0
 10
125.5789285431928
 20
183.6979126443712
 30
0.0
 10
125.5288812606105
 20
183.6847912642869
 30
0.0
 10
125.4613326889188
 20
183.6449145022665
 30
0.0
 10
125.3909744418961
 20
183.5385636291248
 30
0.0
 10
125.3579662400407
 20
183.4294253157052
 30
0.0
 10
125.3738714910676
 20
183.3427961583425
 30
0.0
 10
125.3749561798149
 20
183.3368883187232
 30
0.0
  0
LINE
  5
15D
330
1F
100
AcDbEntity
  8
0
  6
Continuous
 62
     7
370
    18
100
AcDbLine
 10
124.6161619502
 20
181.5868883187
 30
0.0
 11
125.1161619502
 21
181.5868883187
 31
0.0
  0
SPLINE
  5
15E
330
1F
100
AcDbEntity
  8
0
  6
Continuous
 62
     7
370
    18
100
AcDbSpline
210
0.0
220
0.0
230
1.0
 70
    24
 71
     3
 72
    22
 73
    18
 74
     0
 42
0.00000001
 43
0.00000001
 40
0.0
 40
0.0
 40
0.0
 40
0.0
 40
0.0345506350787149
 40
0.068855061074818
 40
0.103012730871093
 40
0.1371243809823124
 40
0.1712911549757514
 40
0.2056137090959928
 40
0.2401913391762151
 40
0.3700530874459611
 40
0.500028626467601
 40
0.6298904259554089
 40
0.7598660162387576
 40
0.8201490091753886
 40
0.8799053264716638
 40
0.9396755782491154
 40
1.0
 40
1.0
 40
1.0
 40
1.0
 10
124.6161619502176
 20
181.5868883187232
 30
0.0
 10
124.6161619502176
 20
181.641116872562
 30
0.0
 10
124.6161619502176
 20
181.7491875455919
 30
0.0
 10
124.6161619502176
 20
181.9104144535421
 30
0.0
 10
124.6161619502176
 20
182.0700241087925
 30
0.0
 10
124.6161619502176
 20
182.2280138027527
 30
0.0
 10
124.6161619502176
 20
182.3843750371527
 30
0.0
 10
124.6161619502176
 20
182.5391199204143
 30
0.0
 10
124.6161619502176
 20
182.8321327197102
 30
0.0
 10
124.6161619502176
 20
183.2461769793806
 30
0.0
 10
124.6161619502176
 20
183.7223916411701
 30
0.0
 10
124.6161619502176
 20
184.1128762452275
 30
0.0
 10
124.6161619502176
 20
184.3446703366697
 30
0.0
 10
124.6161619502176
 20
184.4725405433092
 30
0.0
 10
124.6161619502176
 20
184.5383478218208
 30
0.0
 10
124.6161619502176
 20
184.5794081843095
 30
0.0
 10
124.6161619502176
 20
184.5843872819985
 30
0.0
 10
124.6161619502176
 20
184.5868883187232
 30
0.0
  0
LINE
  5
15F
330
1F
100
AcDbEntity
  8
0
  6
Continuous
 62
     7
370
    18
100
AcDbLine
 10
124.6161619502
 20
199.5868883187
 30
0.0
 11
125.1161619502
 21
199.5868883187
 31
0.0
  0
SPLINE
  5
160
330
1F
100
AcDbEntity
  8
0
  6
Continuous
 62
     7
370
    18
100
AcDbSpline
210
0.0
220
0.0
230
1.0
 70
    24
 71
     3
 72
    22
 73
    18
 74
     0
 42
0.00000001
 43
0.00000001
 40
0.0
 40
0.0
 40
0.0
 40
0.0
 40
0.0345506350786899
 40
0.0688550610747768
 40
0.1030127308710436
 40
0.1371243809822626
 40
0.1712911549757099
 40
0.2056137090959679
 40
0.2401913391762127
 40
0.3700530874462866
 40
0.5000286264676167
 40
0.6298904259559047
 40
0.7598660162387627
 40
0.8201490091754774
 40
0.879905326471782
 40
0.9396755782492053
 40
1.0
 40
1.0
 40
1.0
 40
1.0
 10
124.6161619502176
 20
196.5868883187232
 30
0.0
 10
124.6161619502176
 20
196.5877084314545
 30
0.0
 10
124.6161619502176
 20
196.589342812764
 30
0.0
 10
124.6161619502176
 20
196.6027109276853
 30
0.0
 10
124.6161619502176
 20
196.6240962713171
 30
0.0
 10
124.6161619502176
 20
196.6542669875299
 30
0.0
 10
124.6161619502176
 20
196.6930134881028
 30
0.0
 10
124.6161619502176
 20
196.7404049556958
 30
0.0
 10
124.6161619502176
 20
196.8475264445439
 30
0.0
 10
124.6161619502176
 20
197.0608541315008
 30
0.0
 10
124.6161619502176
 20
197.4511122178508
 30
0.0
 10
124.6161619502176
 20
197.9274727079194
 30
0.0
 10
124.6161619502176
 20
198.3775474156269
 30
0.0
 10
124.6161619502176
 20
198.748970063327
 30
0.0
 10
124.6161619502176
 20
199.0237526171535
 30
0.0
 10
124.6161619502176
 20
199.3036366727884
 30
0.0
 10
124.6161619502176
 20
199.492181094277
 30
0.0
 10
124.6161619502176
 20
199.5868883187232
 30
0.0
  0
SPLINE
  5
161
330
1F
100
AcDbEntity
  8
0
  6
Continuous
 62
     7
370
    18
100
AcDbSpline
210
0.0
220
0.0
230
1.0
 70
    24
 71
     3
 72
    15
 73
    11
 74
     0
 42
0.00000001
 43
0.00000001
 40
0.0
 40
0.0
 40
0.0
 40
0.0
 40
0.0649889396786313
 40
0.2232069040418038
 40
0.3847824806135833
 40
0.5463580571853628
 40
0.6255288986704093
 40
0.7047791624202039
 40
0.8566819294662004
 40
1.0
 40
1.0
 40
1.0
 40
1.0
 10
117.6161619502176
 20
189.5868883187232
 30
0.0
 10
117.6161619502176
 20
189.7261038050368
 30
0.0
 10
117.6161619502176
 20
190.2042445140309
 30
0.0
 10
117.6161619502176
 20
190.9562329886972
 30
0.0
 10
117.6161619502176
 20
191.7906458346839
 30
0.0
 10
117.6161619502176
 20
192.3545623182092
 30
0.0
 10
117.6161619502176
 20
192.7121986131849
 30
0.0
 10
117.6161619502176
 20
192.9955059765493
 30
0.0
 10
117.6161619502176
 20
193.2355115477641
 30
0.0
 10
117.6161619502176
 20
193.2700979734473
 30
0.0
 10
117.6161619502176
 20
193.2868883187232
 30
0.0
  0
SPLINE
  5
162
330
1F
100
AcDbEntity
  8
0
  6
Continuous
 62
     7
370
    18
100
AcDbSpline
210
0.0
220
0.0
230
1.0
 70
    24
 71
     3
 72
    15
 73
    11
 74
     0
 42
0.00000001
 43
0.00000001
 40
0.0
 40
0.0
 40
0.0
 40
0.0
 40
0.1433180705337989
 40
0.2952208375797946
 40
0.4534388019429658
 40
0.6150143785147443
 40
0.7765899550865232
 40
0.8557607965717616
 40
0.935011060321361
 40
1.0
 40
1.0
 40
1.0
 40
1.0
 10
117.6161619502176
 20
182.8868883187232
 30
0.0
 10
117.6161619502176
 20
182.9037582762048
 30
0.0
 10
117.6161619502176
 20
182.9385086950396
 30
0.0
 10
117.6161619502176
 20
183.2278214770009
 30
0.0
 10
117.6161619502176
 20
183.7075412449171
 30
0.0
 10
117.6161619502176
 20
184.3839502765728
 30
0.0
 10
117.6161619502176
 20
185.0786779344888
 30
0.0
 10
117.6161619502176
 20
185.6915144775656
 30
0.0
 10
117.6161619502176
 20
186.1378426895279
 30
0.0
 10
117.6161619502176
 20
186.447408997847
 30
0.0
 10
117.6161619502176
 20
186.5868883187232
 30
0.0
  0
LINE
  5
163
330
1F
100
AcDbEntity
  8
0
  6
Continuous
 62
     7
370
    18
100
AcDbLine
 10
162.8161619502
 20
174.8568883187
 30
0.0
 11
142.8161619502
 21
174.8568883187
 31
0.0
  0
LINE
  5
164
330
1F
100
AcDbEntity
  8
0
  6
Continuous
 62
     7
370
    18
100
AcDbLine
 10
142.8161619502
 20
174.8568883187
 30
0.0
 11
142.8161619502
 21
175.0868883187
 31
0.0
  0
LINE
  5
165
330
1F
100
AcDbEntity
  8
0
  6
Continuous
 62
     7
370
    18
100
AcDbLine
 10
162.8161619502
 20
175.0868883187
 30
0.0
 11
162.8161619502
 21
174.8568883187
 31
0.0
  0
LINE
  5
166
330
1F
100
AcDbEntity
  8
0
  6
Continuous
 62
     7
370
    18
100
AcDbLine
 10
112.1161619502
 20
203.0858009247
 30
0.0
 11
121.0705738565
 21
203.0858009247
 31
0.0
  0
LINE
  5
167
330
1F
100
AcDbEntity
  8
0
  6
Continuous
 62
     7
370
    18
100
AcDbLine
 10
121.0705738565
 20
203.0858009247
 30
0.0
 11
121.0705738565
 21
195.0868883187
 31
0.0
  0
SPLINE
  5
168
330
1F
100
AcDbEntity
  8
0
  6
Continuous
 62
     7
370
    18
100
AcDbSpline
210
0.0
220
0.0
230
1.0
 70
    24
 71
     3
 72
    23
 73
    19
 74
     0
 42
0.00000001
 43
0.00000001
 40
0.0
 40
0.0
 40
0.0
 40
0.0
 40
0.0629663452768884
 40
0.1259326905537765
 40
0.1888990358306649
 40
0.2518653811075531
 40
0.3148317263844417
 40
0.3777980716613301
 40
0.4407644169382184
 40
0.5037307622151065
 40
0.5666971074919948
 40
0.629663452768883
 40
0.6926297980457715
 40
0.75559614332266
 40
0.8185624885995482
 40
0.8815288338764367
 40
0.944495179153325
 40
1.0
 40
1.0
 40
1.0
 40
1.0
 10
112.1161619502176
 20
203.0858009246684
 30
0.0
 10
112.1161619502176
 20
203.0648141322825
 30
0.0
 10
112.1161619502176
 20
203.0228405475107
 30
0.0
 10
112.1161619502176
 20
202.767446382259
 30
0.0
 10
112.1161619502176
 20
202.3816438708724
 30
0.0
 10
112.1161619502176
 20
201.8662693579221
 30
0.0
 10
112.1161619502176
 20
201.2448769278235
 30
0.0
 10
112.1161619502176
 20
200.540342049133
 30
0.0
 10
112.1161619502176
 20
199.7800082474282
 30
0.0
 10
112.1161619502176
 20
198.9930244371709
 30
0.0
 10
112.1161619502176
 20
198.2096464680972
 30
0.0
 10
112.1161619502176
 20
197.4599993903586
 30
0.0
 10
112.1161619502176
 20
196.7727981209984
 30
0.0
 10
112.1161619502176
 20
196.1748055442768
 30
0.0
 10
112.1161619502176
 20
195.6876792798444
 30
0.0
 10
112.1161619502176
 20
195.3350767908526
 30
0.0
 10
112.1161619502176
 20
195.1209281497852
 30
0.0
 10
112.1161619502176
 20
195.1032209426324
 30
0.0
 10
112.1161619502176
 20
195.0949249547321
 30
0.0
  0
LINE
  5
169
330
1F
100
AcDbEntity
  8
0
  6
Continuous
 62
     7
370
    18
100
AcDbLine
 10
125.1161619502
 20
203.0868883187
 30
0.0
 11
125.1161619502
 21
202.0868883187
 31
0.0
  0
LINE
  5
16A
330
1F
100
AcDbEntity
  8
0
  6
Continuous
 62
     7
370
    18
100
AcDbLine
 10
128.1161619502
 20
203.0868883187
 30
0.0
 11
125.1161619502
 21
203.0868883187
 31
0.0
  0
LINE
  5
16B
330
1F
100
AcDbEntity
  8
0
  6
Continuous
 62
     7
370
    18
100
AcDbLine
 10
125.1161619502
 20
179.0868883187
 30
0.0
 11
125.1161619502
 21
178.0868883187
 31
0.0
  0
LINE
  5
16C
330
1F
100
AcDbEntity
  8
0
  6
Continuous
 62
     7
370
    18
100
AcDbLine
 10
125.1161619502
 20
178.0868883187
 30
0.0
 11
128.1161619502
 21
178.0868883187
 31
0.0
  0
ARC
  5
16D
330
1F
100
AcDbEntity
  8
0
  6
Continuous
 62
     7
370
    18
100
AcDbCircle
 10
125.1161619502
 20
202.5868883187
 30
0.0
 40
0.5
100
AcDbArc
 50
90.0
 51
180.0
  0
LINE
  5
16E
330
1F
100
AcDbEntity
  8
0
  6
Continuous
 62
     7
370
    18
100
AcDbLine
 10
124.6161619502
 20
202.0868883187
 30
0.0
 11
125.1161619502
 21
202.0868883187
 31
0.0
  0
SPLINE
  5
16F
330
1F
100
AcDbEntity
  8
0
  6
Continuous
 62
     7
370
    18
100
AcDbSpline
210
0.0
220
0.0
230
1.0
 70
    24
 71
     3
 72
    16
 73
    12
 74
     0
 42
0.00000001
 43
0.00000001
 40
0.0
 40
0.0
 40
0.0
 40
0.0
 40
0.0801150698539933
 40
0.1597406165934716
 40
0.2401518739708214
 40
0.3697805865973997
 40
0.5000923147437109
 40
0.6297213341263975
 40
0.7600333706109921
 40
0.879850307245453
 40
1.0
 40
1.0
 40
1.0
 40
1.0
 10
124.6161619502176
 20
202.0868883187232
 30
0.0
 10
124.6161619502176
 20
202.1078492457386
 30
0.0
 10
124.6161619502176
 20
202.1496430232627
 30
0.0
 10
124.6161619502176
 20
202.2114901441916
 30
0.0
 10
124.6161619502176
 20
202.283658347285
 30
0.0
 10
124.6161619502176
 20
202.3633636476614
 30
0.0
 10
124.6161619502176
 20
202.4426866956779
 30
0.0
 10
124.6161619502176
 20
202.507907267133
 30
0.0
 10
124.6161619502176
 20
202.5534465602597
 30
0.0
 10
124.6161619502176
 20
202.5819088005608
 30
0.0
 10
124.6161619502176
 20
202.5852269456043
 30
0.0
 10
124.6161619502176
 20
202.5868883187232
 30
0.0
  0
ARC
  5
170
330
1F
100
AcDbEntity
  8
0
  6
Continuous
 62
     7
370
    18
100
AcDbCircle
 10
125.1161619502
 20
178.5868883187
 30
0.0
 40
0.5
100
AcDbArc
 50
180.0
 51
270.0
  0
LINE
  5
171
330
1F
100
AcDbEntity
  8
0
  6
Continuous
 62
     7
370
    18
100
AcDbLine
 10
125.1161619502
 20
179.0868883187
 30
0.0
 11
124.6161619502
 21
179.0868883187
 31
0.0
  0
SPLINE
  5
172
330
1F
100
AcDbEntity
  8
0
  6
Continuous
 62
     7
370
    18
100
AcDbSpline
210
0.0
220
0.0
230
1.0
 70
    24
 71
     3
 72
    16
 73
    12
 74
     0
 42
0.00000001
 43
0.00000001
 40
0.0
 40
0.0
 40
0.0
 40
0.0
 40
0.0801150698540355
 40
0.1597406165935201
 40
0.2401518739708266
 40
0.3697805865978352
 40
0.5000923147437268
 40
0.6297213341268225
 40
0.7600333706109963
 40
0.8798503072455008
 40
1.0
 40
1.0
 40
1.0
 40
1.0
 10
124.6161619502176
 20
178.5868883187232
 30
0.0
 10
124.6161619502176
 20
178.5876293922358
 30
0.0
 10
124.6161619502176
 20
178.5891070111166
 30
0.0
 10
124.6161619502176
 20
178.6013541998666
 30
0.0
 10
124.6161619502176
 20
178.6247306609279
 30
0.0
 10
124.6161619502176
 20
178.6658564649841
 30
0.0
 10
124.6161619502176
 20
178.7308128438758
 30
0.0
 10
124.6161619502176
 20
178.8102696531855
 30
0.0
 10
124.6161619502176
 20
178.8991446054381
 30
0.0
 10
124.6161619502176
 20
178.9925652077267
 30
0.0
 10
124.6161619502176
 20
179.055418229452
 30
0.0
 10
124.6161619502176
 20
179.0868883187232
 30
0.0
  0
LINE
  5
173
330
1F
100
AcDbEntity
  8
0
  6
Continuous
 62
     7
370
    18
100
AcDbLine
 10
124.6161619502
 20
179.0868883187
 30
0.0
 11
124.6161619502
 21
181.5868883187
 31
0.0
  0
LINE
  5
174
330
1F
100
AcDbEntity
  8
0
  6
Continuous
 62
     7
370
    18
100
AcDbLine
 10
124.6161619502
 20
199.5868883187
 30
0.0
 11
124.6161619502
 21
202.0868883187
 31
0.0
  0
LINE
  5
175
330
1F
100
AcDbEntity
  8
0
  6
Continuous
 62
     7
370
    18
100
AcDbLine
 10
121.0705738565
 20
203.0858009248
 30
0.0
 11
121.4345440907
 21
202.0860727733
 31
0.0
  0
LINE
  5
176
330
1F
100
AcDbEntity
  8
0
  6
Continuous
 62
     7
370
    18
100
AcDbLine
 10
121.4345440908
 20
202.0860727732
 30
0.0
 11
121.4345440908
 21
196.0868883187
 31
0.0
  0
LINE
  5
177
330
1F
100
AcDbEntity
  8
0
  6
Continuous
 62
     7
370
    18
100
AcDbLine
 10
110.5161619502
 20
203.0358145171
 30
0.0
 11
111.5161619502
 21
203.0358145171
 31
0.0
  0
SPLINE
  5
178
330
1F
100
AcDbEntity
  8
0
  6
Continuous
 62
     7
370
    18
100
AcDbSpline
210
0.0
220
0.0
230
1.0
 70
    24
 71
     3
 72
    23
 73
    19
 74
     0
 42
0.00000001
 43
0.00000001
 40
0.0
 40
0.0
 40
0.0
 40
0.0
 40
0.0629663452768884
 40
0.1259326905537765
 40
0.1888990358306649
 40
0.251865381107553
 40
0.3148317263844417
 40
0.3777980716613301
 40
0.4407644169382183
 40
0.5037307622151064
 40
0.5666971074919946
 40
0.629663452768883
 40
0.6926297980457715
 40
0.7555961433226599
 40
0.818562488599548
 40
0.8815288338764367
 40
0.9444951791533249
 40
0.9999999999999999
 40
0.9999999999999999
 40
0.9999999999999999
 40
0.9999999999999999
 10
111.5161619502176
 20
203.0358145170941
 30
0.0
 10
111.5161619502176
 20
203.015090059613
 30
0.0
 10
111.5161619502176
 20
202.9736411446509
 30
0.0
 10
111.5161619502176
 20
202.7214394064649
 30
0.0
 10
111.5161619502176
 20
202.3404594264706
 30
0.0
 10
111.5161619502176
 20
201.8315270949321
 30
0.0
 10
111.5161619502176
 20
201.2179020702097
 30
0.0
 10
111.5161619502176
 20
200.5221738775028
 30
0.0
 10
111.5161619502176
 20
199.7713442483194
 30
0.0
 10
111.5161619502176
 20
198.9941977356903
 30
0.0
 10
111.5161619502176
 20
198.22061199123
 30
0.0
 10
111.5161619502176
 20
197.4803355019631
 30
0.0
 10
111.5161619502176
 20
196.80172424847
 30
0.0
 10
111.5161619502176
 20
196.2112065789574
 30
0.0
 10
111.5161619502176
 20
195.7301693928304
 30
0.0
 10
111.5161619502176
 20
195.381974434951
 30
0.0
 10
111.5161619502176
 20
195.1705026518969
 30
0.0
 10
111.5161619502176
 20
195.1530167848336
 30
0.0
 10
111.5161619502176
 20
195.144824496782
 30
0.0
  0
ARC
  5
179
330
1F
100
AcDbEntity
  8
0
  6
Continuous
 62
     7
370
    18
100
AcDbCircle
 10
110.5160939973
 20
202.53588247
 30
0.0
 40
0.4999320517300497
100
AcDbArc
 50
89.9922121139
 51
179.9922099962
  0
SPLINE
  5
17A
330
1F
100
AcDbEntity
  8
0
  6
Continuous
 62
     7
370
    18
100
AcDbSpline
210
0.0
220
0.0
230
1.0
 70
    24
 71
     3
 72
    25
 73
    21
 74
     0
 42
0.00000001
 43
0.00000001
 40
0.0
 40
0.0
 40
0.0
 40
0.0
 40
0.0604421117554886
 40
0.1208598838193457
 40
0.1538254826993599
 40
0.1864319515875376
 40
0.2518684184036018
 40
0.3173547193888273
 40
0.3827911637629388
 40
0.4432455684151299
 40
0.5036506161221661
 40
0.5641050100026326
 40
0.6245100444045351
 40
0.6574756432844718
 40
0.6900821121726227
 40
0.7555185789887969
 40
0.8210048799738605
 40
0.8864413243481268
 40
0.9468830017103296
 40
1.0
 40
1.0
 40
1.0
 40
1.0
 10
110.0161619502176
 20
202.5359504413509
 30
0.0
 10
110.0161619502176
 20
202.5194377829047
 30
0.0
 10
110.0161619502176
 20
202.4864191155652
 30
0.0
 10
110.0161619502176
 20
202.3116724453245
 30
0.0
 10
110.0161619502176
 20
202.1159784132522
 30
0.0
 10
110.0161619502176
 20
201.869203195271
 30
0.0
 10
110.0161619502176
 20
201.4848409516976
 30
0.0
 10
110.0161619502176
 20
200.926691065287
 30
0.0
 10
110.0161619502176
 20
200.3058591709956
 30
0.0
 10
110.0161619502176
 20
199.6575895790246
 30
0.0
 10
110.0161619502176
 20
199.0057853439171
 30
0.0
 10
110.0161619502176
 20
198.3570785101782
 30
0.0
 10
110.0161619502176
 20
197.8287517201942
 30
0.0
 10
110.0161619502176
 20
197.4218834154548
 30
0.0
 10
110.0161619502176
 20
197.0216956362844
 30
0.0
 10
110.0161619502176
 20
196.5742446940797
 30
0.0
 10
110.0161619502176
 20
196.1376652316922
 30
0.0
 10
110.0161619502176
 20
195.8384010656925
 30
0.0
 10
110.0161619502176
 20
195.6626232776416
 30
0.0
 10
110.0161619502176
 20
195.6494719639381
 30
0.0
 10
110.0161619502176
 20
195.6433204453201
 30
0.0
  0
LINE
  5
17B
330
1F
100
AcDbEntity
  8
0
  6
Continuous
 62
     7
370
    18
100
AcDbLine
 10
121.4345440908
 20
202.0860727732
 30
0.0
 11
123.6161619502
 21
202.0860727732
 31
0.0
  0
SPLINE
  5
17C
330
1F
100
AcDbEntity
  8
0
  6
Continuous
 62
     7
370
    18
100
AcDbSpline
210
0.0
220
0.0
230
1.0
 70
    24
 71
     3
 72
    23
 73
    19
 74
     0
 42
0.00000001
 43
0.00000001
 40
0.0
 40
0.0
 40
0.0
 40
0.0
 40
0.0629663452768884
 40
0.1259326905537766
 40
0.1888990358306649
 40
0.2518653811075533
 40
0.3148317263844417
 40
0.3777980716613298
 40
0.4407644169382183
 40
0.5037307622151066
 40
0.566697107491995
 40
0.6296634527688834
 40
0.6926297980457715
 40
0.7555961433226597
 40
0.8185624885995483
 40
0.8815288338764363
 40
0.9444951791533251
 40
1.0
 40
1.0
 40
1.0
 40
1.0
 10
123.6161619502176
 20
202.0860727731821
 30
0.0
 10
123.6161619502176
 20
202.0703326788927
 30
0.0
 10
123.6161619502176
 20
202.0388524903138
 30
0.0
 10
123.6161619502176
 20
201.8473068663751
 30
0.0
 10
123.6161619502176
 20
201.5579549828351
 30
0.0
 10
123.6161619502176
 20
201.1714240981224
 30
0.0
 10
123.6161619502176
 20
200.7053797755484
 30
0.0
 10
123.6161619502176
 20
200.1769786165305
 30
0.0
 10
123.6161619502176
 20
199.6067282652519
 30
0.0
 10
123.6161619502176
 20
199.016490407559
 30
0.0
 10
123.6161619502176
 20
198.4289569307537
 30
0.0
 10
123.6161619502176
 20
197.8667216224497
 30
0.0
 10
123.6161619502176
 20
197.3513206704296
 30
0.0
 10
123.6161619502176
 20
196.9028262378884
 30
0.0
 10
123.6161619502176
 20
196.5374815395641
 30
0.0
 10
123.6161619502176
 20
196.2730296728203
 30
0.0
 10
123.6161619502176
 20
196.1124181920197
 30
0.0
 10
123.6161619502176
 20
196.0991377866551
 30
0.0
 10
123.6161619502176
 20
196.0929157957299
 30
0.0
  0
LINE
  5
17D
330
1F
100
AcDbEntity
  8
0
  6
Continuous
 62
     7
370
    18
100
AcDbLine
 10
162.8161616627
 20
174.8568883187
 30
0.0
 11
162.8161613252
 21
174.5868883187
 31
0.0
  0
LINE
  5
17E
330
1F
100
AcDbEntity
  8
0
  6
Continuous
 62
     7
370
    18
100
AcDbLine
 10
156.8161669502
 20
174.5868883187
 30
0.0
 11
156.8161669502
 21
174.8568883187
 31
0.0
  0
LINE
  5
17F
330
1F
100
AcDbEntity
  8
0
  6
Continuous
 62
     7
370
    18
100
AcDbLine
 10
142.8161638252
 20
174.5868883187
 30
0.0
 11
142.8161641627
 21
174.8568883187
 31
0.0
  0
LINE
  5
180
330
1F
100
AcDbEntity
  8
0
  6
Continuous
 62
     7
370
    18
100
AcDbLine
 10
148.8161569502
 20
174.5868883187
 30
0.0
 11
148.8161569502
 21
174.8568883187
 31
0.0
  0
LINE
  5
181
330
1F
100
AcDbEntity
  8
0
  6
Continuous
 62
     7
370
    18
100
AcDbLine
 10
124.1161619502
 20
201.8361407353
 30
0.0
 11
123.6161619502
 21
201.8361407353
 31
0.0
  0
LINE
  5
182
330
1F
100
AcDbEntity
  8
0
  6
Continuous
 62
     7
370
    18
100
AcDbLine
 10
124.1161619502
 20
196.342413506
 30
0.0
 11
124.1161619502
 21
201.8361407353
 31
0.0
  0
LINE
  5
183
330
1F
100
AcDbEntity
  8
0
  6
Continuous
 62
     7
370
    18
100
AcDbLine
 10
116.0161619502
 20
189.5868883187
 30
0.0
 11
116.0161619502
 21
191.0868883187
 31
0.0
  0
LINE
  5
184
330
1F
100
AcDbEntity
  8
0
  6
Continuous
 62
     7
370
    18
100
AcDbLine
 10
116.0161619502
 20
185.0868883187
 30
0.0
 11
116.0161619502
 21
186.5868883187
 31
0.0
  0
LINE
  5
185
330
1F
100
AcDbEntity
  8
0
  6
Continuous
 62
     7
370
    18
100
AcDbLine
 10
124.6161619502
 20
201.5862086974
 30
0.0
 11
124.1161619502
 21
201.5862086974
 31
0.0
  0
LINE
  5
186
330
1F
100
AcDbEntity
  8
0
  6
Continuous
 62
     7
370
    18
100
AcDbLine
 10
112.1161619502
 20
201.286290252
 30
0.0
 11
111.5161619502
 21
201.286290252
 31
0.0
  0
LINE
  5
187
330
1F
100
AcDbEntity
  8
0
  6
Continuous
 62
     7
370
    18
100
AcDbLine
 10
121.0705738565
 20
203.0868883187
 30
0.0
 11
121.0705738565
 21
203.0858009247
 31
0.0
  0
LINE
  5
188
330
1F
100
AcDbEntity
  8
0
  6
Continuous
 62
     7
370
    18
100
AcDbLine
 10
121.4345440908
 20
202.0868883188
 30
0.0
 11
121.4345440908
 21
202.0860727732
 31
0.0
  0
LINE
  5
189
330
1F
100
AcDbEntity
  8
0
  6
Continuous
 62
     8
370
    18
100
AcDbLine
 10
125.2411619502
 20
202.3368883187
 30
0.0
 11
125.2411619502
 21
199.9426781957
 31
0.0
  0
LINE
  5
18A
330
1F
100
AcDbEntity
  8
0
  6
Continuous
 62
     8
370
    18
100
AcDbLine
 10
125.2411619502
 20
199.9426781957
 30
0.0
 11
125.2411619502
 21
197.8368883187
 31
0.0
  0
LINE
  5
18B
330
1F
100
AcDbEntity
  8
0
  6
Continuous
 62
     8
370
    18
100
AcDbLine
 10
123.3161619502
 20
187.4148442293
 30
0.0
 11
115.8161619502
 21
187.4148442293
 31
0.0
  0
LINE
  5
18C
330
1F
100
AcDbEntity
  8
0
  6
Continuous
 62
     8
370
    18
100
AcDbLine
 10
111.4161619502
 20
187.4148442293
 30
0.0
 11
107.9781087007
 21
187.4148442293
 31
0.0
  0
LINE
  5
18D
330
1F
100
AcDbEntity
  8
0
  6
Continuous
 62
     8
370
    18
100
AcDbLine
 10
99.2161619502
 20
192.0368883187
 30
0.0
 11
99.2161619502
 21
184.1486093878
 31
0.0
  0
LINE
  5
18E
330
1F
100
AcDbEntity
  8
0
  6
Continuous
 62
     8
370
    18
100
AcDbLine
 10
110.1345440908
 20
185.0957903965
 30
0.0
 11
111.5553599005
 21
185.0957903965
 31
0.0
  0
LINE
  5
18F
330
1F
100
AcDbEntity
  8
0
  6
Continuous
 62
     8
370
    18
100
AcDbLine
 10
99.2161619502
 20
184.1486093878
 30
0.0
 11
99.2161619502
 21
184.1368883187
 31
0.0
  0
LINE
  5
190
330
1F
100
AcDbEntity
  8
0
  6
Continuous
 62
     8
370
    18
100
AcDbLine
 10
125.2411619502
 20
183.3368883187
 30
0.0
 11
125.2411619502
 21
179.3246173273
 31
0.0
  0
LINE
  5
191
330
1F
100
AcDbEntity
  8
0
  6
Continuous
 62
     8
370
    18
100
AcDbLine
 10
169.8911619502
 20
178.8368883187
 30
0.0
 11
169.8911619502
 21
182.6739572622
 31
0.0
  0
LINE
  5
192
330
1F
100
AcDbEntity
  8
0
  6
Continuous
 62
     8
370
    18
100
AcDbLine
 10
169.8911619502
 20
182.6739572622
 30
0.0
 11
169.8911619502
 21
183.3368883187
 31
0.0
  0
LINE
  5
193
330
1F
100
AcDbEntity
  8
0
  6
Continuous
 62
     8
370
    18
100
AcDbLine
 10
125.2411619502
 20
179.3246173273
 30
0.0
 11
125.2411619502
 21
178.8368883187
 31
0.0
  0
LINE
  5
194
330
1F
100
AcDbEntity
  8
0
  6
Continuous
 62
     8
370
    18
100
AcDbLine
 10
125.1161619502
 20
197.0868883187
 30
0.0
 11
125.1161619502
 21
197.8781347738
 31
0.0
  0
LINE
  5
195
330
1F
100
AcDbEntity
  8
0
  6
Continuous
 62
     8
370
    18
100
AcDbLine
 10
125.1161619502
 20
183.3002217365
 30
0.0
 11
125.1161619502
 21
184.0868883187
 31
0.0
  0
LINE
  5
196
330
1F
100
AcDbEntity
  8
0
  6
Continuous
 62
     8
370
    18
100
AcDbLine
 10
124.1161619502
 20
189.5868883187
 30
0.0
 11
124.1161619502
 21
193.5868883187
 31
0.0
  0
LINE
  5
197
330
1F
100
AcDbEntity
  8
0
  6
Continuous
 62
     8
370
    18
100
AcDbLine
 10
124.1161619502
 20
182.5868883187
 30
0.0
 11
124.1161619502
 21
186.5868883187
 31
0.0
  0
LINE
  5
198
330
1F
100
AcDbEntity
  8
0
  6
Continuous
 62
     8
370
    18
100
AcDbLine
 10
117.9161619502
 20
189.5868883187
 30
0.0
 11
117.9161619502
 21
193.5868883187
 31
0.0
  0
LINE
  5
199
330
1F
100
AcDbEntity
  8
0
  6
Continuous
 62
     8
370
    18
100
AcDbLine
 10
117.9161619502
 20
182.5868883187
 30
0.0
 11
117.9161619502
 21
186.5868883187
 31
0.0
  0
LINE
  5
19A
330
1F
100
AcDbEntity
  8
0
  6
Continuous
 62
     8
370
    18
100
AcDbLine
 10
110.5161619502
 20
203.0358145171
 30
0.0
 11
110.5161619502
 21
195.1368883187
 31
0.0
  0
LINE
  5
19B
330
1F
100
AcDbEntity
  8
0
  6
Continuous
 62
     8
370
    18
100
AcDbLine
 10
110.5161619502
 20
203.0368883187
 30
0.0
 11
110.5161619502
 21
203.0358145171
 31
0.0
  0
LINE
  5
19C
330
1F
100
AcDbEntity
  8
0
  6
Continuous
 62
     7
370
    18
100
AcDbLine
 10
166.3161619502
 20
200.0868883187
 30
0.0
 11
166.3161619502
 21
179.5868883187
 31
0.0
  0
LINE
  5
19D
330
1F
100
AcDbEntity
  8
0
  6
CENTER
 62
     7
370
    18
100
AcDbLine
 10
176.1161619492
 20
221.000569917
 30
0.0
 11
176.1161619492
 21
211.9452508082
 31
0.0
  0
LINE
  5
19E
330
1F
100
AcDbEntity
  8
0
  6
CENTER
 62
     7
370
    18
100
AcDbLine
 10
176.1161619492
 20
221.000569917
 30
0.0
 11
175.0793281521
 21
220.8672756559
 31
0.0
  0
SPLINE
  5
19F
330
1F
100
AcDbEntity
  8
0
  6
CENTER
 62
     7
370
    18
100
AcDbSpline
210
0.0
220
0.0
230
1.0
 70
     8
 71
     3
 72
     8
 73
     4
 74
     0
 42
0.00000001
 43
0.00000001
 40
-0.1231827350459263
 40
-0.1231827350459263
 40
-0.1231827350459263
 40
-0.1231827350459263
 40
0.1630221212527324
 40
0.1630221212527324
 40
0.1630221212527324
 40
0.1630221212527324
 10
175.0793281520934
 20
220.8672756559299
 30
0.0
 10
174.7337492140177
 20
220.2104278969757
 30
0.0
 10
174.4119183005382
 20
219.5265804836019
 30
0.0
 10
174.1161619492157
 20
218.8209502011719
 30
0.0
  0
DIMENSION
  5
1A0
330
1F
100
AcDbEntity
  8
0
  6
Continuous
 62
     7
370
    18
100
AcDbDimension
  2
_D
 10
184.1932532047
 20
170.0868883187
 30
0.0
 11
184.1932532047
 21
195.5437291179
 31
0.0
 70
   160
  1
(<>)
 71
     2
 42
-1.0
  3
SLDDIMSTYLE0
100
AcDbAlignedDimension
 13
176.1161619492
 23
221.000569917
 33
0.0
 14
166.3161619502
 24
170.0868883187
 34
0.0
 50
90.0
100
AcDbRotatedDimension
  0
DIMENSION
  5
1AD
330
1F
100
AcDbEntity
  8
0
  6
Continuous
 62
     7
370
    18
100
AcDbDimension
  2
_D_1
 10
176.1161619492
 20
228.3396848159
 30
0.0
 11
175.1161619497
 21
228.3396848159
 31
0.0
 70
   160
  1
Maxストローク<>
 71
     2
 42
-1.0
  3
SLDDIMSTYLE1
100
AcDbAlignedDimension
 13
174.1161619502
 23
221.0013108687
 33
0.0
 14
176.1161619492
 24
221.000569917
 34
0.0
100
AcDbRotatedDimension
  0
DIMENSION
  5
1C2
330
1F
100
AcDbEntity
  8
0
  6
Continuous
 62
     7
370
    18
100
AcDbDimension
  2
_D_2
 10
92.0730681256
 20
188.0868883187
 30
0.0
 11
92.0730681256
 21
179.0868883187
 31
0.0
 70
   160
  1
<>
 71
     2
 42
-1.0
  3
SLDDIMSTYLE0
100
AcDbAlignedDimension
 13
113.8161619502
 23
170.0868883187
 33
0.0
 14
98.0179176639
 24
188.0868883187
 34
0.0
 50
90.0
100
AcDbRotatedDimension
  0
DIMENSION
  5
1CC
330
1F
100
AcDbEntity
  8
0
  6
Continuous
 62
     7
370
    18
100
AcDbDimension
  2
_D_3
 10
84.7849108071
 20
170.0868883187
 30
0.0
 11
84.7849108071
 21
184.5866164702
 31
0.0
 70
   160
  1
<>
 71
     2
 42
-1.0
  3
SLDDIMSTYLE0
100
AcDbAlignedDimension
 13
109.2023342056
 23
199.0863446217
 33
0.0
 14
113.8161619502
 24
170.0868883187
 34
0.0
 50
90.0
100
AcDbRotatedDimension
  0
DIMENSION
  5
1D6
330
1F
100
AcDbEntity
  8
0
  6
Continuous
 62
     7
370
    18
100
AcDbDimension
  2
_D_4
 10
132.8161619502
 20
162.6750344595
 30
0.0
 11
142.8161619502
 21
162.6750344595
 31
0.0
 70
   160
  1
<>
 71
     2
 42
-1.0
  3
SLDDIMSTYLE0
100
AcDbAlignedDimension
 13
152.8161619502
 23
168.0868883187
 33
0.0
 14
132.8161619502
 24
168.0868883187
 34
0.0
100
AcDbRotatedDimension
  0
DIMENSION
  5
1E0
330
1F
100
AcDbEntity
  8
0
  6
Continuous
 62
     7
370
    18
100
AcDbDimension
  2
_D_5
 10
173.3161619502
 20
146.1440928332
 30
0.0
 11
179.6882990727
 21
146.1440928332
 31
0.0
 70
   160
  1
<>
 71
     2
 42
-1.0
  3
SLDDIMSTYLE2
100
AcDbAlignedDimension
 13
166.3161619502
 23
175.0868883187
 33
0.0
 14
173.3161619502
 24
184.1868883187
 34
0.0
 50
0.0
100
AcDbRotatedDimension
  0
DIMENSION
  5
1ED
330
1F
100
AcDbEntity
  8
0
  6
Continuous
 62
     7
370
    18
100
AcDbDimension
  2
_D_6
 10
98.7161619502
 20
146.1440928332
 30
0.0
 11
132.5161619502
 21
146.1440928332
 31
0.0
 70
   160
  1
(<>)
 71
     2
 42
-1.0
  3
SLDDIMSTYLE3
100
AcDbAlignedDimension
 13
166.3161619502
 23
175.0868883187
 33
0.0
 14
98.7161619502
 24
184.6471257081
 34
0.0
100
AcDbRotatedDimension
  0
DIMENSION
  5
1FA
330
1F
100
AcDbEntity
  8
0
  6
Continuous
 62
     7
370
    18
100
AcDbDimension
  2
_D_7
 10
113.8161619502
 20
154.0867852411
 30
0.0
 11
140.0661619502
 21
154.0867852411
 31
0.0
 70
   160
  1
<>
 71
     2
 42
-1.0
  3
SLDDIMSTYLE0
100
AcDbAlignedDimension
 13
166.3161619502
 23
175.0868883187
 33
0.0
 14
113.8161619502
 24
170.0868883187
 34
0.0
100
AcDbRotatedDimension
  0
DIMENSION
  5
204
330
1F
100
AcDbEntity
  8
0
  6
Continuous
 62
     7
370
    18
100
AcDbDimension
  2
_D_8
 10
152.8161619502
 20
162.6750344595
 30
0.0
 11
159.5661619502
 21
162.6750344595
 31
0.0
 70
   160
  1
<>
 71
     2
 42
-1.0
  3
SLDDIMSTYLE2
100
AcDbAlignedDimension
 13
166.3161619502
 23
175.0868883187
 33
0.0
 14
152.8161619502
 24
168.0868883187
 34
0.0
100
AcDbRotatedDimension
  0
DIMENSION
  5
210
330
1F
100
AcDbEntity
  8
0
  6
Continuous
 62
     7
370
    18
100
AcDbDimension
  2
_D_9
 10
152.8161619502
 20
228.3396848159
 30
0.0
 11
143.065343775
 21
228.3396848159
 31
0.0
 70
   160
  1
(<>)
 71
     2
 42
-1.0
  3
SLDDIMSTYLE1
100
AcDbAlignedDimension
 13
166.6161619502
 23
212.4964714237
 33
0.0
 14
152.8161619502
 24
176.5868883187
 34
0.0
100
AcDbRotatedDimension
  0
DIMENSION
  5
21E
330
1F
100
AcDbEntity
  8
0
  6
Continuous
 62
     7
370
    18
100
AcDbDimension
  2
_D_10
 10
174.1161619502
 20
228.3396848159
 30
0.0
 11
170.3661619502
 21
228.3396848159
 31
0.0
 70
   160
  1
<>
 71
     2
 42
-1.0
  3
SLDDIMSTYLE4
100
AcDbAlignedDimension
 13
166.6161619502
 23
212.4964714237
 33
0.0
 14
174.1161619502
 24
221.0013108687
 34
0.0
100
AcDbRotatedDimension
  0
INSERT
  5
230
330
1F
100
AcDbEntity
  8
0
  6
Continuous
 62
     7
370
     0
100
AcDbBlockReference
  2
SW_NOTE_0
 10
109.6805545092
 20
216.8750001937
 30
0.0
  0
LEADER
  5
232
330
1F
100
AcDbEntity
  8
0
  6
Continuous
 62
     7
370
     0
100
AcDbLeader
  3
SLDDIMSTYLE5
 76
     2
 10
116.5070393807
 20
203.0868883187
 30
0.0
 10
109.6805545092
 20
216.8750001937
 30
0.0
  0
MTEXT
  5
233
330
1F
100
AcDbEntity
  8
0
  6
Continuous
 62
     7
370
     0
100
AcDbMText
 10
89.0447151498
 20
216.5229784732
 30
0.0
 40
3.5
 41
0.0
 71
     1
 72
     1
  1
KQ2S04-M3G
  7
SLDTEXTSTYLE0
 73
     1
 44
1.0
  0
INSERT
  5
239
330
1F
100
AcDbEntity
  8
0
  6
Continuous
 62
     7
370
     0
100
AcDbBlockReference
  2
SW_NOTE_0_1
 10
97.3277755678
 20
159.7500001937
 30
0.0
  0
LEADER
  5
23A
330
1F
100
AcDbEntity
  8
0
  6
Continuous
 62
     7
370
     0
100
AcDbLeader
  3
SLDDIMSTYLE5
 76
     2
 10
103.4205968185
 20
184.0868883187
 30
0.0
 10
97.3277755678
 20
159.7500001937
 30
0.0
  0
MTEXT
  5
23B
330
1F
100
AcDbEntity
  8
0
  6
Continuous
 62
     7
370
     0
100
AcDbMText
 10
68.6992616152
 20
159.5190262593
 30
0.0
 40
3.5
 41
0.0
 71
     1
 72
     1
  1
KQ2S04-M3G
  7
SLDTEXTSTYLE0
 73
     1
 44
1.0
  0
LINE
  5
23C
330
1F
100
AcDbEntity
  8
0
  6
CENTERX2
 62
     7
370
    18
100
AcDbLine
 10
109.2023342056
 20
199.0863446217
 30
0.0
 11
125.9564122668
 21
199.0863446217
 31
0.0
  0
LINE
  5
23D
330
1F
100
AcDbEntity
  8
0
  6
CENTERX2
 62
     7
370
    18
100
AcDbLine
 10
125.2379009263
 20
188.0868883187
 30
0.0
 11
98.0179176639
 21
188.0868883187
 31
0.0
  0
LINE
  5
23E
330
1F
100
AcDbEntity
  8
0
  6
CENTERX2
 62
     7
370
    18
100
AcDbLine
 10
152.8161619502
 20
176.5868883187
 30
0.0
 11
152.8161619502
 21
168.0868883187
 31
0.0
  0
LINE
  5
23F
330
1F
100
AcDbEntity
  8
0
  6
CENTERX2
 62
     7
370
    18
100
AcDbLine
 10
132.8161619502
 20
176.5868883187
 30
0.0
 11
132.8161619502
 21
168.0868883187
 31
0.0
  0
CIRCLE
  5
240
330
1F
100
AcDbEntity
  8
0
  6
Continuous
 62
     7
370
    18
100
AcDbCircle
 10
46.2178423467
 20
206.0868883187
 30
0.0
 40
2.250000000000002
  0
LINE
  5
241
330
1F
100
AcDbEntity
  8
0
  6
Continuous
 62
     7
370
    18
100
AcDbLine
 10
45.0273615951
 20
212.4964714237
 30
0.0
 11
45.0806949284
 21
211.9993240054
 31
0.0
  0
ARC
  5
242
330
1F
100
AcDbEntity
  8
0
  6
Continuous
 62
     7
370
    18
100
AcDbCircle
 10
45.5778423467
 20
212.0526573387
 30
0.0
 40
0.5000000000000214
100
AcDbArc
 50
186.1231988663
 51
276.1231988663
  0
ARC
  5
243
330
1F
100
AcDbEntity
  8
0
  6
Continuous
 62
     7
370
    18
100
AcDbCircle
 10
46.2178423467
 20
206.0868883187
 30
0.0
 40
5.500000000000016
100
AcDbArc
 50
351.1231988663
 51
96.1231988663
  0
LINE
  5
244
330
1F
100
AcDbEntity
  8
0
  6
Continuous
 62
     7
370
    18
100
AcDbLine
 10
51.6519656924
 20
205.2381813825
 30
0.0
 11
51.3159745437
 21
203.0868883187
 31
0.0
  0
ARC
  5
245
330
1F
100
AcDbEntity
  8
0
  6
Continuous
 62
     7
370
    18
100
AcDbCircle
 10
46.2178423467
 20
206.0868883187
 30
0.0
 40
5.500000000000003
100
AcDbArc
 50
186.1231988663
 51
213.0557311509
  0
LINE
  5
246
330
1F
100
AcDbEntity
  8
0
  6
Continuous
 62
     7
370
    18
100
AcDbLine
 10
40.7492207451
 20
205.5002216521
 30
0.0
 11
40.5356309778
 21
207.4912016782
 31
0.0
  0
LINE
  5
247
330
1F
100
AcDbEntity
  8
0
  6
Continuous
 62
     7
370
    18
100
AcDbLine
 10
40.5178788614
 20
212.0126999368
 30
0.0
 11
45.0273615951
 21
212.4964714237
 31
0.0
  0
ARC
  5
248
330
1F
100
AcDbEntity
  8
0
  6
Continuous
 62
     7
370
    18
100
AcDbCircle
 10
62.4101173844
 20
209.8378683449
 30
0.0
 40
22.00000000000002
100
AcDbArc
 50
174.3267033818
 51
186.1231988663
  0
LINE
  5
249
330
1F
100
AcDbEntity
  8
0
  6
Continuous
 62
     7
370
    18
100
AcDbLine
 10
44.6178423467
 20
221.0013108687
 30
0.0
 11
43.3749738009
 21
220.8679775354
 31
0.0
  0
LINE
  5
24A
330
1F
100
AcDbEntity
  8
0
  6
Continuous
 62
     7
370
    18
100
AcDbLine
 10
44.6178423467
 20
221.0013108687
 30
0.0
 11
45.4178423467
 21
213.5440995937
 31
0.0
  0
ARC
  5
24B
330
1F
100
AcDbEntity
  8
0
  6
Continuous
 62
     7
370
    18
100
AcDbCircle
 10
45.4711756801
 20
213.0469521754
 30
0.0
 40
0.5000000000000214
100
AcDbArc
 50
96.1231988663
 51
186.1231988663
  0
LINE
  5
24C
330
1F
100
AcDbEntity
  8
0
  6
Continuous
 62
     7
370
    18
100
AcDbLine
 10
44.9740282617
 20
212.9936188421
 30
0.0
 11
45.0273615951
 21
212.4964714237
 31
0.0
  0
ARC
  5
24D
330
1F
100
AcDbEntity
  8
0
  6
Continuous
 62
     7
370
    18
100
AcDbCircle
 10
62.4101173844
 20
209.8378683449
 30
0.0
 40
22.00000000000003
100
AcDbArc
 50
149.9094127989
 51
174.3267033818
  0
ARC
  5
24E
330
1F
100
AcDbEntity
  8
0
  6
Continuous
 62
     7
370
    18
100
AcDbCircle
 10
30.025567309
 20
209.8378683449
 30
0.0
 40
22.0
100
AcDbArc
 50
354.9290265599
 51
5.6732966182
  0
ARC
  5
24F
330
1F
100
AcDbEntity
  8
0
  6
Continuous
 62
     7
370
    18
100
AcDbCircle
 10
46.2178423467
 20
206.0868883187
 30
0.0
 40
6.000000000000017
100
AcDbArc
 50
17.5217511592
 51
79.1007702072
  0
LINE
  5
250
330
1F
100
AcDbEntity
  8
0
  6
Continuous
 62
     7
370
    18
100
AcDbLine
 10
47.3549897651
 20
211.9993240054
 30
0.0
 11
47.4083230984
 21
212.4964714237
 31
0.0
  0
LINE
  5
251
330
1F
100
AcDbEntity
  8
0
  6
Continuous
 62
     7
370
    18
100
AcDbLine
 10
51.917805832
 20
212.0126999368
 30
0.0
 11
47.4083230984
 21
212.4964714237
 31
0.0
  0
ARC
  5
252
330
1F
100
AcDbEntity
  8
0
  6
Continuous
 62
     7
370
    18
100
AcDbCircle
 10
46.8578423467
 20
212.0526573387
 30
0.0
 40
0.5000000000000098
100
AcDbArc
 50
351.4887856705
 51
353.8768011337
  0
LINE
  5
253
330
1F
100
AcDbEntity
  8
0
  6
Continuous
 62
     7
370
    18
100
AcDbLine
 10
51.9000537157
 20
207.4912016782
 30
0.0
 11
51.6864639484
 21
205.5002216521
 31
0.0
  0
ARC
  5
254
330
1F
100
AcDbEntity
  8
0
  6
Continuous
 62
     7
370
    18
100
AcDbCircle
 10
30.025567309
 20
209.8378683449
 30
0.0
 40
22.0
100
AcDbArc
 50
353.8768011337
 51
354.9290265599
  0
ARC
  5
255
330
1F
100
AcDbEntity
  8
0
  6
Continuous
 62
     7
370
    18
100
AcDbCircle
 10
46.8578423467
 20
212.0526573387
 30
0.0
 40
0.5000000000000214
100
AcDbArc
 50
263.8768011337
 51
351.4887856705
  0
LINE
  5
256
330
1F
100
AcDbEntity
  8
0
  6
Continuous
 62
     7
370
    18
100
AcDbLine
 10
41.1197101497
 20
203.0868883187
 30
0.0
 11
40.783719001
 21
205.2381813825
 31
0.0
  0
ARC
  5
257
330
1F
100
AcDbEntity
  8
0
  6
Continuous
 62
     7
370
    18
100
AcDbCircle
 10
46.9645090134
 20
213.0469521754
 30
0.0
 40
0.5000000000000222
100
AcDbArc
 50
353.8768011337
 51
83.8768011337
  0
LINE
  5
258
330
1F
100
AcDbEntity
  8
0
  6
Continuous
 62
     7
370
    18
100
AcDbLine
 10
47.0178423467
 20
213.5440995937
 30
0.0
 11
47.8178423467
 21
221.0013108687
 31
0.0
  0
LINE
  5
259
330
1F
100
AcDbEntity
  8
0
  6
Continuous
 62
     7
370
    18
100
AcDbLine
 10
49.0607108926
 20
220.8679775354
 30
0.0
 11
47.8178423467
 21
221.0013108687
 31
0.0
  0
ARC
  5
25A
330
1F
100
AcDbEntity
  8
0
  6
Continuous
 62
     7
370
    18
100
AcDbCircle
 10
30.025567309
 20
209.8378683449
 30
0.0
 40
22.0
100
AcDbArc
 50
5.6732966182
 51
30.0905872011
  0
LINE
  5
25B
330
1F
100
AcDbEntity
  8
0
  6
Continuous
 62
     7
370
    18
100
AcDbLine
 10
47.4616564317
 20
212.9936188421
 30
0.0
 11
47.4083230984
 21
212.4964714237
 31
0.0
  0
LINE
  5
25C
330
1F
100
AcDbEntity
  8
0
  6
Continuous
 62
     7
370
    18
100
AcDbLine
 10
53.142168482
 20
198.9086346111
 30
0.0
 11
52.1596077714
 21
199.5632969542
 31
0.0
  0
LINE
  5
25D
330
1F
100
AcDbEntity
  8
0
  6
Continuous
 62
     7
370
    18
100
AcDbLine
 10
54.2004030573
 20
199.4322259756
 30
0.0
 11
53.142168482
 21
198.9086346111
 31
0.0
  0
LINE
  5
25E
330
1F
100
AcDbEntity
  8
0
  6
Continuous
 62
     7
370
    18
100
AcDbLine
 10
54.276076922
 20
200.6104796833
 30
0.0
 11
54.2004030573
 21
199.4322259756
 31
0.0
  0
LINE
  5
25F
330
1F
100
AcDbEntity
  8
0
  6
Continuous
 62
     7
370
    18
100
AcDbLine
 10
53.2935162115
 20
201.2651420263
 30
0.0
 11
54.276076922
 21
200.6104796833
 31
0.0
  0
LINE
  5
260
330
1F
100
AcDbEntity
  8
0
  6
Continuous
 62
     7
370
    18
100
AcDbLine
 10
52.2352816362
 20
200.7415506618
 30
0.0
 11
53.2935162115
 21
201.2651420263
 31
0.0
  0
LINE
  5
261
330
1F
100
AcDbEntity
  8
0
  6
Continuous
 62
     7
370
    18
100
AcDbLine
 10
52.1596077714
 20
199.5632969542
 30
0.0
 11
52.2352816362
 21
200.7415506618
 31
0.0
  0
SPLINE
  5
262
330
1F
100
AcDbEntity
  8
0
  6
Continuous
 62
     7
370
    18
100
AcDbSpline
210
0.0
220
0.0
230
1.0
 70
     8
 71
     3
 72
    10
 73
     6
 74
     0
 42
0.00000001
 43
0.00000001
 40
0.0
 40
0.0
 40
0.0
 40
0.0
 40
0.4999999999999999
 40
0.4999999999999999
 40
0.9999999999999999
 40
0.9999999999999999
 40
0.9999999999999999
 40
0.9999999999999999
 10
55.33847314493295
 20
199.9506898691575
 30
0.0
 10
55.26330317628938
 20
198.7802819011177
 30
0.0
 10
54.25205186519253
 20
197.8910875518651
 30
0.0
 10
51.91123592911294
 20
198.0414274891523
 30
0.0
 10
51.02204157986036
 20
199.0526788002491
 30
0.0
 10
51.09721154850394
 20
200.2230867682889
 30
0.0
  0
SPLINE
  5
263
330
1F
100
AcDbEntity
  8
0
  6
Continuous
 62
     7
370
    18
100
AcDbSpline
210
0.0
220
0.0
230
1.0
 70
     8
 71
     3
 72
    14
 73
    10
 74
     0
 42
0.00000001
 43
0.00000001
 40
0.0
 40
0.0
 40
0.0
 40
0.0
 40
0.2499999999999999
 40
0.2499999999999999
 40
0.5
 40
0.5
 40
0.7500000000000001
 40
0.7500000000000001
 40
1.0
 40
1.0
 40
1.0
 40
1.0
 10
51.09721154850394
 20
200.2230867682889
 30
0.0
 10
51.13333260093565
 20
200.7854971077225
 30
0.0
 10
51.39141117024199
 20
201.3105648601039
 30
0.0
 10
52.23786238212391
 20
202.0548503075136
 30
0.0
 10
52.79163045685059
 20
202.2436401693694
 30
0.0
 10
53.91645113571775
 20
202.171398064506
 30
0.0
 10
54.44151888809912
 20
201.9133194951997
 30
0.0
 10
55.18580433550884
 20
201.0668682833177
 30
0.0
 10
55.37459419736465
 20
200.5131002085911
 30
0.0
 10
55.33847314493295
 20
199.9506898691575
 30
0.0
  0
ARC
  5
264
330
1F
100
AcDbEntity
  8
0
  6
Continuous
 62
     7
370
    18
100
AcDbCircle
 10
53.2178423467
 20
200.0868883187
 30
0.0
 40
2.250000000000001
100
AcDbArc
 50
176.3252004468
 51
356.3252004468
  0
LINE
  5
265
330
1F
100
AcDbEntity
  8
0
  6
Continuous
 62
     7
370
    18
100
AcDbLine
 10
51.0972115485
 20
200.2230867683
 30
0.0
 11
50.9724685604
 21
200.2310984418
 31
0.0
  0
LINE
  5
266
330
1F
100
AcDbEntity
  8
0
  6
Continuous
 62
     7
370
    18
100
AcDbLine
 10
55.4632161331
 20
199.9426781957
 30
0.0
 11
55.3384731449
 21
199.9506898692
 31
0.0
  0
ARC
  5
267
330
1F
100
AcDbEntity
  8
0
  6
Continuous
 62
     7
370
    18
100
AcDbCircle
 10
53.2178423467
 20
200.0868883187
 30
0.0
 40
2.250000000000001
100
AcDbArc
 50
356.3252004468
 51
176.3252004468
  0
ARC
  5
268
330
1F
100
AcDbEntity
  8
0
  6
Continuous
 62
     7
370
    18
100
AcDbCircle
 10
53.2178423467
 20
200.0868883187
 30
0.0
 40
1.022499999966315
100
AcDbArc
 50
116.3252004468
 51
176.3252004468
  0
ARC
  5
269
330
1F
100
AcDbEntity
  8
0
  6
Continuous
 62
     7
370
    18
100
AcDbCircle
 10
53.2178423467
 20
200.0868883187
 30
0.0
 40
1.022499999966297
100
AcDbArc
 50
176.3252004468
 51
236.3252004468
  0
ARC
  5
26A
330
1F
100
AcDbEntity
  8
0
  6
Continuous
 62
     7
370
    18
100
AcDbCircle
 10
53.2178423467
 20
200.0868883187
 30
0.0
 40
1.022499999966278
100
AcDbArc
 50
236.3252004468
 51
296.3252004468
  0
ARC
  5
26B
330
1F
100
AcDbEntity
  8
0
  6
Continuous
 62
     7
370
    18
100
AcDbCircle
 10
53.2178423467
 20
200.0868883187
 30
0.0
 40
1.022499999966321
100
AcDbArc
 50
56.3252004468
 51
116.3252004468
  0
ARC
  5
26C
330
1F
100
AcDbEntity
  8
0
  6
Continuous
 62
     7
370
    18
100
AcDbCircle
 10
53.2178423467
 20
200.0868883187
 30
0.0
 40
1.022499999987031
100
AcDbArc
 50
296.3252004468
 51
356.3252004465
  0
ARC
  5
26D
330
1F
100
AcDbEntity
  8
0
  6
Continuous
 62
     7
370
    18
100
AcDbCircle
 10
53.2178423467
 20
200.0868883187
 30
0.0
 40
1.022499999987031
100
AcDbArc
 50
356.3252004465
 51
56.3252004468
  0
LINE
  5
26E
330
1F
100
AcDbEntity
  8
0
  6
Continuous
 62
     7
370
    18
100
AcDbLine
 10
54.2382399896
 20
200.0213528295
 30
0.0
 11
53.2178423468
 21
200.0868883187
 31
0.0
  0
LINE
  5
26F
330
1F
100
AcDbEntity
  8
0
  6
Continuous
 62
     7
370
    18
100
AcDbLine
 10
53.2178423466
 20
200.0868883187
 30
0.0
 11
52.1974447038
 21
200.152423808
 31
0.0
  0
ARC
  5
270
330
1F
100
AcDbEntity
  8
0
  6
Continuous
 62
     7
370
    18
100
AcDbCircle
 10
53.7178423467
 20
188.0868883187
 30
0.0
 40
2.749999999999327
100
AcDbArc
 50
180.0
 51
240.0
  0
SPLINE
  5
271
330
1F
100
AcDbEntity
  8
0
  6
Continuous
 62
     7
370
    18
100
AcDbSpline
210
0.0
220
0.0
230
1.0
 70
    24
 71
     3
 72
     8
 73
     4
 74
     0
 42
0.00000001
 43
0.00000001
 40
0.0
 40
0.0
 40
0.0
 40
0.0
 40
1.0
 40
1.0
 40
1.0
 40
1.0
 10
50.96784228900616
 20
186.4991751117719
 30
0.0
 10
51.41708233126814
 20
186.2398062524412
 30
0.0
 10
51.87354005200913
 20
185.9762702644977
 30
0.0
 10
52.34284234671843
 20
185.705318458316
 30
0.0
  0
SPLINE
  5
272
330
1F
100
AcDbEntity
  8
0
  6
Continuous
 62
     7
370
    18
100
AcDbSpline
210
0.0
220
0.0
230
1.0
 70
    24
 71
     3
 72
     8
 73
     4
 74
     0
 42
0.00000001
 43
0.00000001
 40
0.0
 40
0.0
 40
0.0
 40
0.0
 40
1.0
 40
1.0
 40
1.0
 40
1.0
 10
50.96784234671846
 20
188.0868883187232
 30
0.0
 10
50.96784234671846
 20
187.544984752848
 30
0.0
 10
50.96784234671846
 20
187.0179128532415
 30
0.0
 10
50.96784234671846
 20
186.4991751753888
 30
0.0
  0
SPLINE
  5
273
330
1F
100
AcDbEntity
  8
0
  6
Continuous
 62
     7
370
    18
100
AcDbSpline
210
0.0
220
0.0
230
1.0
 70
     8
 71
     3
 72
     8
 73
     4
 74
     0
 42
0.00000001
 43
0.00000001
 40
0.0
 40
0.0
 40
0.0
 40
0.0
 40
1.0
 40
1.0
 40
1.0
 40
1.0
 10
50.96784233228216
 20
189.6746014620859
 30
0.0
 10
50.96784233228216
 20
189.1558637842167
 30
0.0
 10
50.96784234671846
 20
188.6287918836337
 30
0.0
 10
50.96784234671846
 20
188.0868883187232
 30
0.0
  0
SPLINE
  5
274
330
1F
100
AcDbEntity
  8
0
  6
Continuous
 62
     7
370
    18
100
AcDbSpline
210
0.0
220
0.0
230
1.0
 70
    24
 71
     3
 72
     8
 73
     4
 74
     0
 42
0.00000001
 43
0.00000001
 40
0.0
 40
0.0
 40
0.0
 40
0.0
 40
1.0
 40
1.0
 40
1.0
 40
1.0
 10
52.34284234671845
 20
190.4684581791304
 30
0.0
 10
51.87354005552262
 20
190.1975063749772
 30
0.0
 10
51.41708232787903
 20
189.9339703830485
 30
0.0
 10
50.9678422889809
 20
189.6746015256599
 30
0.0
  0
ARC
  5
275
330
1F
100
AcDbEntity
  8
0
  6
Continuous
 62
     7
370
    18
100
AcDbCircle
 10
53.7178423467
 20
188.0868883187
 30
0.0
 40
2.749999999999324
100
AcDbArc
 50
120.0
 51
180.0
  0
ARC
  5
276
330
1F
100
AcDbEntity
  8
0
  6
Continuous
 62
     7
370
    18
100
AcDbCircle
 10
53.7178423467
 20
188.0868883187
 30
0.0
 40
2.749999999999327
100
AcDbArc
 50
60.0
 51
120.0
  0
ARC
  5
277
330
1F
100
AcDbEntity
  8
0
  6
Continuous
 62
     7
370
    18
100
AcDbCircle
 10
53.7178423467
 20
188.0868883187
 30
0.0
 40
2.749999999999327
100
AcDbArc
 50
0.0
 51
60.0
  0
ARC
  5
278
330
1F
100
AcDbEntity
  8
0
  6
Continuous
 62
     7
370
    18
100
AcDbCircle
 10
53.7178423467
 20
188.0868883187
 30
0.0
 40
2.749999999999349
100
AcDbArc
 50
300.0
 51
0.0
  0
ARC
  5
279
330
1F
100
AcDbEntity
  8
0
  6
Continuous
 62
     7
370
    18
100
AcDbCircle
 10
53.7178423467
 20
188.0868883187
 30
0.0
 40
2.749999999999349
100
AcDbArc
 50
240.0
 51
300.0
  0
SPLINE
  5
27A
330
1F
100
AcDbEntity
  8
0
  6
Continuous
 62
     7
370
    18
100
AcDbSpline
210
0.0
220
0.0
230
1.0
 70
    24
 71
     3
 72
     8
 73
     4
 74
     0
 42
0.00000001
 43
0.00000001
 40
0.0
 40
0.0
 40
0.0
 40
0.0
 40
1.0
 40
1.0
 40
1.0
 40
1.0
 10
52.34284234671845
 20
190.4684581791304
 30
0.0
 10
52.81214464123038
 20
190.7394099851982
 30
0.0
 10
53.26860233285603
 20
191.0029459563319
 30
0.0
 10
53.71784237558027
 20
191.2623148159295
 30
0.0
  0
SPLINE
  5
27B
330
1F
100
AcDbEntity
  8
0
  6
Continuous
 62
     7
370
    18
100
AcDbSpline
210
0.0
220
0.0
230
1.0
 70
    24
 71
     3
 72
     8
 73
     4
 74
     0
 42
0.00000001
 43
0.00000001
 40
0.0
 40
0.0
 40
0.0
 40
0.0
 40
1.0
 40
1.0
 40
1.0
 40
1.0
 10
55.09284234671848
 20
190.4684581791304
 30
0.0
 10
54.62354008910114
 20
190.7394099638971
 30
0.0
 10
54.1670824314994
 20
191.0029459153871
 30
0.0
 10
53.71784242174762
 20
191.262314755948
 30
0.0
  0
SPLINE
  5
27C
330
1F
100
AcDbEntity
  8
0
  6
Continuous
 62
     7
370
    18
100
AcDbSpline
210
0.0
220
0.0
230
1.0
 70
    24
 71
     3
 72
     8
 73
     4
 74
     0
 42
0.00000001
 43
0.00000001
 40
0.0
 40
0.0
 40
0.0
 40
0.0
 40
1.0
 40
1.0
 40
1.0
 40
1.0
 10
56.46784240443137
 20
189.6746015256741
 30
0.0
 10
56.0186023621693
 20
189.9339703850049
 30
0.0
 10
55.56214464142789
 20
190.1975063729486
 30
0.0
 10
55.09284234671848
 20
190.4684581791304
 30
0.0
  0
SPLINE
  5
27D
330
1F
100
AcDbEntity
  8
0
  6
Continuous
 62
     7
370
    18
100
AcDbSpline
210
0.0
220
0.0
230
1.0
 70
    24
 71
     3
 72
     8
 73
     4
 74
     0
 42
0.00000001
 43
0.00000001
 40
0.0
 40
0.0
 40
0.0
 40
0.0
 40
1.0
 40
1.0
 40
1.0
 40
1.0
 10
56.46784234671846
 20
188.0868883187232
 30
0.0
 10
56.46784234671846
 20
188.6287918845981
 30
0.0
 10
56.46784234671846
 20
189.1558637842045
 30
0.0
 10
56.46784234671846
 20
189.6746014620569
 30
0.0
  0
SPLINE
  5
27E
330
1F
100
AcDbEntity
  8
0
  6
Continuous
 62
     7
370
    18
100
AcDbSpline
210
0.0
220
0.0
230
1.0
 70
    24
 71
     3
 72
     8
 73
     4
 74
     0
 42
0.00000001
 43
0.00000001
 40
0.0
 40
0.0
 40
0.0
 40
0.0
 40
1.0
 40
1.0
 40
1.0
 40
1.0
 10
53.71784228901114
 20
184.9114618048629
 30
0.0
 10
54.16708233127239
 20
185.1708306641932
 30
0.0
 10
54.62354005201007
 20
185.4343666521347
 30
0.0
 10
55.09284234671848
 20
185.705318458316
 30
0.0
  0
SPLINE
  5
27F
330
1F
100
AcDbEntity
  8
0
  6
Continuous
 62
     7
370
    18
100
AcDbSpline
210
0.0
220
0.0
230
1.0
 70
    24
 71
     3
 72
     8
 73
     4
 74
     0
 42
0.00000001
 43
0.00000001
 40
0.0
 40
0.0
 40
0.0
 40
0.0
 40
1.0
 40
1.0
 40
1.0
 40
1.0
 10
52.34284234671843
 20
185.705318458316
 30
0.0
 10
52.81214460116939
 20
185.4343666753774
 30
0.0
 10
53.26860225585111
 20
185.1708307255732
 30
0.0
 10
53.71784226277313
 20
184.9114618866461
 30
0.0
  0
SPLINE
  5
280
330
1F
100
AcDbEntity
  8
0
  6
Continuous
 62
     7
370
    18
100
AcDbSpline
210
0.0
220
0.0
230
1.0
 70
     8
 71
     3
 72
     8
 73
     4
 74
     0
 42
0.00000001
 43
0.00000001
 40
0.0
 40
0.0
 40
0.0
 40
0.0
 40
1.0
 40
1.0
 40
1.0
 40
1.0
 10
56.4678423611346
 20
186.4991751753875
 30
0.0
 10
56.4678423611346
 20
187.0179128532481
 30
0.0
 10
56.46784234671846
 20
187.5449847538209
 30
0.0
 10
56.46784234671846
 20
188.0868883187232
 30
0.0
  0
SPLINE
  5
281
330
1F
100
AcDbEntity
  8
0
  6
Continuous
 62
     7
370
    18
100
AcDbSpline
210
0.0
220
0.0
230
1.0
 70
    24
 71
     3
 72
     8
 73
     4
 74
     0
 42
0.00000001
 43
0.00000001
 40
0.0
 40
0.0
 40
0.0
 40
0.0
 40
1.0
 40
1.0
 40
1.0
 40
1.0
 10
55.09284234671848
 20
185.705318458316
 30
0.0
 10
55.56214463791566
 20
185.97627026247
 30
0.0
 10
56.01860236552946
 20
186.2398062543815
 30
0.0
 10
56.4678424044295
 20
186.4991751117712
 30
0.0
  0
ARC
  5
282
330
1F
100
AcDbEntity
  8
0
  6
Continuous
 62
     7
370
    18
100
AcDbCircle
 10
53.7178423467
 20
188.0868883187
 30
0.0
 40
1.219499999999473
100
AcDbArc
 50
153.3826780279
 51
333.3826780262
  0
ARC
  5
283
330
1F
100
AcDbEntity
  8
0
  6
Continuous
 62
     7
370
    18
100
AcDbCircle
 10
53.7178423467
 20
188.0868883187
 30
0.0
 40
1.219499999999473
100
AcDbArc
 50
333.3826780262
 51
153.3826780279
  0
LINE
  5
284
330
1F
100
AcDbEntity
  8
0
  6
Continuous
 62
     7
370
    18
100
AcDbLine
 10
54.4409858993
 20
188.563400021
 30
0.0
 11
53.6667428836
 21
188.951404857
 31
0.0
  0
LINE
  5
285
330
1F
100
AcDbEntity
  8
0
  6
Continuous
 62
     7
370
    18
100
AcDbLine
 10
52.9435993311
 20
188.4748931547
 30
0.0
 11
52.9946987942
 21
187.6103766164
 31
0.0
  0
LINE
  5
286
330
1F
100
AcDbEntity
  8
0
  6
Continuous
 62
     7
370
    18
100
AcDbLine
 10
54.4920853624
 20
187.6988834828
 30
0.0
 11
53.7689418098
 21
187.2223717805
 31
0.0
  0
LINE
  5
287
330
1F
100
AcDbEntity
  8
0
  6
Continuous
 62
     7
370
    18
100
AcDbLine
 10
54.4920853624
 20
187.6988834828
 30
0.0
 11
54.4409858993
 21
188.563400021
 31
0.0
  0
LINE
  5
288
330
1F
100
AcDbEntity
  8
0
  6
Continuous
 62
     7
370
    18
100
AcDbLine
 10
53.7689418098
 20
187.2223717805
 30
0.0
 11
52.9946987942
 21
187.6103766164
 31
0.0
  0
LINE
  5
289
330
1F
100
AcDbEntity
  8
0
  6
Continuous
 62
     7
370
    18
100
AcDbLine
 10
52.9435993311
 20
188.4748931547
 30
0.0
 11
53.6667428836
 21
188.951404857
 31
0.0
  0
LINE
  5
28A
330
1F
100
AcDbEntity
  8
0
  6
Continuous
 62
     7
370
    18
100
AcDbLine
 10
52.6275863872
 20
188.6332601634
 30
0.0
 11
52.3768141062
 21
188.7589324081
 31
0.0
  0
LINE
  5
28B
330
1F
100
AcDbEntity
  8
0
  6
Continuous
 62
     7
370
    18
100
AcDbLine
 10
55.0588705872
 20
187.4148442293
 30
0.0
 11
54.8080983062
 21
187.540516474
 31
0.0
  0
ARC
  5
28C
330
1F
100
AcDbEntity
  8
0
  6
Continuous
 62
     7
370
    18
100
AcDbCircle
 10
53.7178423467
 20
188.0868883187
 30
0.0
 40
1.500000000003834
100
AcDbArc
 50
153.3826780279
 51
333.3826780275
  0
ARC
  5
28D
330
1F
100
AcDbEntity
  8
0
  6
Continuous
 62
     7
370
    18
100
AcDbCircle
 10
53.7178423467
 20
188.0868883187
 30
0.0
 40
1.500000000003834
100
AcDbArc
 50
333.3826780275
 51
153.3826780279
  0
LINE
  5
28E
330
1F
100
AcDbEntity
  8
0
  6
Continuous
 62
     7
370
    18
100
AcDbLine
 10
38.3394308465
 20
199.297964007
 30
0.0
 11
38.095408101
 21
200.453152837
 31
0.0
  0
LINE
  5
28F
330
1F
100
AcDbEntity
  8
0
  6
Continuous
 62
     7
370
    18
100
AcDbLine
 10
39.4618650922
 20
198.9316994887
 30
0.0
 11
38.3394308465
 21
199.297964007
 31
0.0
  0
LINE
  5
290
330
1F
100
AcDbEntity
  8
0
  6
Continuous
 62
     7
370
    18
100
AcDbLine
 10
40.3402765924
 20
199.7206238004
 30
0.0
 11
39.4618650922
 21
198.9316994887
 31
0.0
  0
LINE
  5
291
330
1F
100
AcDbEntity
  8
0
  6
Continuous
 62
     7
370
    18
100
AcDbLine
 10
40.0962538469
 20
200.8758126305
 30
0.0
 11
40.3402765924
 21
199.7206238004
 31
0.0
  0
LINE
  5
292
330
1F
100
AcDbEntity
  8
0
  6
Continuous
 62
     7
370
    18
100
AcDbLine
 10
38.9738196012
 20
201.2420771487
 30
0.0
 11
40.0962538469
 21
200.8758126305
 31
0.0
  0
LINE
  5
293
330
1F
100
AcDbEntity
  8
0
  6
Continuous
 62
     7
370
    18
100
AcDbLine
 10
38.095408101
 20
200.453152837
 30
0.0
 11
38.9738196012
 21
201.2420771487
 31
0.0
  0
SPLINE
  5
294
330
1F
100
AcDbEntity
  8
0
  6
Continuous
 62
     7
370
    18
100
AcDbSpline
210
0.0
220
0.0
230
1.0
 70
     8
 71
     3
 72
    10
 73
     6
 74
     0
 42
0.00000001
 43
0.00000001
 40
0.0
 40
0.0
 40
0.0
 40
0.0
 40
0.5
 40
0.5
 40
1.0
 40
1.0
 40
1.0
 40
1.0
 10
40.63775486817685
 20
198.5059160130184
 30
0.0
 10
39.76519252238562
 20
197.7222449796477
 30
0.0
 10
38.42054107438427
 20
197.7944134514736
 30
0.0
 10
36.85319900764296
 20
199.539538143056
 30
0.0
 10
36.92536747946882
 20
200.8841895910574
 30
0.0
 10
37.79792982526005
 20
201.667860624428
 30
0.0
  0
SPLINE
  5
295
330
1F
100
AcDbEntity
  8
0
  6
Continuous
 62
     7
370
    18
100
AcDbSpline
210
0.0
220
0.0
230
1.0
 70
     8
 71
     3
 72
    14
 73
    10
 74
     0
 42
0.00000001
 43
0.00000001
 40
0.0
 40
0.0
 40
0.0
 40
0.0
 40
0.2500000000000001
 40
0.2500000000000001
 40
0.5000000000000001
 40
0.5000000000000001
 40
0.7500000000000001
 40
0.7500000000000001
 40
0.9999999999999999
 40
0.9999999999999999
 40
0.9999999999999999
 40
0.9999999999999999
 10
37.79792982526005
 20
201.667860624428
 30
0.0
 10
38.21721788418817
 20
202.0444341816129
 30
0.0
 10
38.76896966669597
 20
202.2390380434078
 30
0.0
 10
39.89448795797511
 20
202.1786306157325
 30
0.0
 10
40.42224109523841
 20
201.9260888991097
 30
0.0
 10
41.17538820960814
 20
201.0875127812535
 30
0.0
 10
41.36999207140305
 20
200.5357609987457
 30
0.0
 10
41.30958464372772
 20
199.4102427074666
 30
0.0
 10
41.05704292710496
 20
198.8824895702032
 30
0.0
 10
40.63775486817685
 20
198.5059160130184
 30
0.0
  0
ARC
  5
296
330
1F
100
AcDbEntity
  8
0
  6
Continuous
 62
     7
370
    18
100
AcDbCircle
 10
39.2178423467
 20
200.0868883187
 30
0.0
 40
2.25
100
AcDbArc
 50
131.9278392603
 51
311.9278392603
  0
LINE
  5
297
330
1F
100
AcDbEntity
  8
0
  6
Continuous
 62
     7
370
    18
100
AcDbLine
 10
37.7979298253
 20
201.6678606244
 30
0.0
 11
37.7144055593
 21
201.7608589954
 31
0.0
  0
LINE
  5
298
330
1F
100
AcDbEntity
  8
0
  6
Continuous
 62
     7
370
    18
100
AcDbLine
 10
40.7212791341
 20
198.4129176421
 30
0.0
 11
40.6377548682
 21
198.505916013
 31
0.0
  0
ARC
  5
299
330
1F
100
AcDbEntity
  8
0
  6
Continuous
 62
     7
370
    18
100
AcDbCircle
 10
39.2178423467
 20
200.0868883187
 30
0.0
 40
2.25
100
AcDbArc
 50
311.9278392603
 51
131.9278392603
  0
ARC
  5
29A
330
1F
100
AcDbEntity
  8
0
  6
Continuous
 62
     7
370
    18
100
AcDbCircle
 10
39.2178423467
 20
200.0868883187
 30
0.0
 40
1.022499999982179
100
AcDbArc
 50
191.9278392603
 51
251.9278392603
  0
ARC
  5
29B
330
1F
100
AcDbEntity
  8
0
  6
Continuous
 62
     7
370
    18
100
AcDbCircle
 10
39.2178423467
 20
200.0868883187
 30
0.0
 40
1.022499999999998
100
AcDbArc
 50
131.9278392603
 51
191.9278392603
  0
ARC
  5
29C
330
1F
100
AcDbEntity
  8
0
  6
Continuous
 62
     7
370
    18
100
AcDbCircle
 10
39.2178423467
 20
200.0868883187
 30
0.0
 40
1.022499999999998
100
AcDbArc
 50
71.9278392603
 51
131.9278392603
  0
ARC
  5
29D
330
1F
100
AcDbEntity
  8
0
  6
Continuous
 62
     7
370
    18
100
AcDbCircle
 10
39.2178423467
 20
200.0868883187
 30
0.0
 40
1.022499999982172
100
AcDbArc
 50
311.9278392616
 51
11.9278392603
  0
ARC
  5
29E
330
1F
100
AcDbEntity
  8
0
  6
Continuous
 62
     7
370
    18
100
AcDbCircle
 10
39.2178423467
 20
200.0868883187
 30
0.0
 40
1.022499999982172
100
AcDbArc
 50
11.9278392603
 51
71.9278392603
  0
ARC
  5
29F
330
1F
100
AcDbEntity
  8
0
  6
Continuous
 62
     7
370
    18
100
AcDbCircle
 10
39.2178423467
 20
200.0868883187
 30
0.0
 40
1.022499999982165
100
AcDbArc
 50
251.9278392603
 51
311.9278392616
  0
LINE
  5
2A0
330
1F
100
AcDbEntity
  8
0
  6
Continuous
 62
     7
370
    18
100
AcDbLine
 10
39.2178423468
 20
200.0868883186
 30
0.0
 11
38.5346138511
 21
200.8476149929
 31
0.0
  0
LINE
  5
2A1
330
1F
100
AcDbEntity
  8
0
  6
Continuous
 62
     7
370
    18
100
AcDbLine
 10
39.9010708423
 20
199.3261616446
 30
0.0
 11
39.2178423467
 21
200.0868883189
 31
0.0
  0
SPLINE
  5
2A2
330
1F
100
AcDbEntity
  8
0
  6
Continuous
 62
     7
370
    18
100
AcDbSpline
210
0.0
220
0.0
230
1.0
 70
     8
 71
     3
 72
    28
 73
    24
 74
     0
 42
0.00000001
 43
0.00000001
 40
0.0
 40
0.0
 40
0.0
 40
0.0
 40
0.0201456005670775
 40
0.0401354407850585
 40
0.0600488055410652
 40
0.0799658930315672
 40
0.0999668566717532
 40
0.1201308496592782
 40
0.185077954005881
 40
0.2500933558535395
 40
0.3150404909385654
 40
0.3800559235563779
 40
0.4400086149454729
 40
0.5000289243169626
 40
0.5599816346079888
 40
0.6200019580901353
 40
0.6849490624367165
 40
0.7499644642843956
 40
0.8149115993694707
 40
0.8799270319872378
 40
0.9200435693954361
 40
0.9598539322787806
 40
1.0
 40
1.0
 40
1.0
 40
1.0
 10
46.41029223119132
 20
185.5943067168561
 30
0.0
 10
46.35769356934144
 20
185.5911776783084
 30
0.0
 10
46.25290292430605
 20
185.5849437940949
 30
0.0
 10
46.09576810524332
 20
185.5880258050031
 30
0.0
 10
45.93975679819007
 20
185.6003283846775
 30
0.0
 10
45.78481403986781
 20
185.6227131570548
 30
0.0
 10
45.63094694612494
 20
185.6549639163645
 30
0.0
 10
45.36591462613013
 20
185.728044762209
 30
0.0
 10
45.00127060580623
 20
185.8816590053487
 30
0.0
 10
44.58056620462359
 20
186.1753236380697
 30
0.0
 10
44.22556522024171
 20
186.5461708616354
 30
0.0
 10
43.96285605419926
 20
186.9717128657759
 30
0.0
 10
43.79039854099081
 20
187.4266186773562
 30
0.0
 10
43.71086037807805
 20
187.8931497788545
 30
0.0
 10
43.71779257913168
 20
188.3665302389252
 30
0.0
 10
43.81829216540079
 20
188.8423621263035
 30
0.0
 10
44.01258863276355
 20
189.3033575544243
 30
0.0
 10
44.30629693683071
 20
189.724208611013
 30
0.0
 10
44.67707223189629
 20
190.0790913248184
 30
0.0
 10
45.05838054521579
 20
190.3146462254208
 30
0.0
 10
45.40927482579592
 20
190.4594793313821
 30
0.0
 10
45.71292930742699
 20
190.5442464626527
 30
0.0
 10
45.9209469498824
 20
190.5676959496284
 30
0.0
 10
46.02539246224557
 20
190.5794699205903
 30
0.0
  0
SPLINE
  5
2A3
330
1F
100
AcDbEntity
  8
0
  6
Continuous
 62
     7
370
    18
100
AcDbSpline
210
0.0
220
0.0
230
1.0
 70
     8
 71
     3
 72
    28
 73
    24
 74
     0
 42
0.00000001
 43
0.00000001
 40
0.0
 40
0.0
 40
0.0
 40
0.0
 40
0.0201456005670844
 40
0.0401354407850694
 40
0.0600488055410775
 40
0.0799658930315781
 40
0.0999668566717601
 40
0.1201308496592787
 40
0.1850779540058934
 40
0.2500933558535395
 40
0.3150404909386144
 40
0.3800559235563799
 40
0.4400086149454988
 40
0.5000289243169618
 40
0.5599816346079244
 40
0.6200019580901336
 40
0.6849490624366624
 40
0.7499644642843952
 40
0.8149115993693806
 40
0.8799270319872348
 40
0.9200435693953672
 40
0.9598539322787119
 40
1.0
 40
1.0
 40
1.0
 40
1.0
 10
46.02539246224557
 20
190.5794699205903
 30
0.0
 10
46.07799112409547
 20
190.582598959138
 30
0.0
 10
46.18278176913089
 20
190.5888328433515
 30
0.0
 10
46.33991658819364
 20
190.5857508324432
 30
0.0
 10
46.49592789524691
 20
190.5734482527688
 30
0.0
 10
46.65087065356916
 20
190.5510634803915
 30
0.0
 10
46.804737747312
 20
190.5188127210818
 30
0.0
 10
47.06977006730681
 20
190.4457318752373
 30
0.0
 10
47.43441408763069
 20
190.2921176320976
 30
0.0
 10
47.85511848881341
 20
189.9984529993765
 30
0.0
 10
48.21011947319536
 20
189.6276057758109
 30
0.0
 10
48.47282863923773
 20
189.2020637716703
 30
0.0
 10
48.64528615244593
 20
188.74715796009
 30
0.0
 10
48.72482431535887
 20
188.2806268585919
 30
0.0
 10
48.71789211430517
 20
187.8072463985213
 30
0.0
 10
48.61739252803619
 20
187.3314145111431
 30
0.0
 10
48.42309606067347
 20
186.8704190830221
 30
0.0
 10
48.12938775660644
 20
186.4495680264336
 30
0.0
 10
47.75861246154069
 20
186.0946853126282
 30
0.0
 10
47.37730414822143
 20
185.8591304120258
 30
0.0
 10
47.02640986764137
 20
185.7142973060642
 30
0.0
 10
46.72275538601027
 20
185.6295301747937
 30
0.0
 10
46.51473774355467
 20
185.606080687818
 30
0.0
 10
46.41029223119132
 20
185.5943067168561
 30
0.0
  0
SPLINE
  5
2A4
330
1F
100
AcDbEntity
  8
0
  6
Continuous
 62
     7
370
    18
100
AcDbSpline
210
0.0
220
0.0
230
1.0
 70
     8
 71
     3
 72
    10
 73
     6
 74
     0
 42
0.00000001
 43
0.00000001
 40
0.0
 40
0.0
 40
0.0
 40
0.0
 40
0.5
 40
0.5
 40
1.0
 40
1.0
 40
1.0
 40
1.0
 10
45.95226150614587
 20
191.5266509292998
 30
0.0
 10
47.85071812149537
 20
191.6732289815598
 30
0.0
 10
49.51102690503505
 20
190.2509257746453
 30
0.0
 10
49.80418300955505
 20
186.4540125439462
 30
0.0
 10
48.38187980264051
 20
184.7937037604066
 30
0.0
 10
46.48342318729102
 20
184.6471257081466
 30
0.0
  0
SPLINE
  5
2A5
330
1F
100
AcDbEntity
  8
0
  6
Continuous
 62
     7
370
    18
100
AcDbSpline
210
0.0
220
0.0
230
1.0
 70
     8
 71
     3
 72
    10
 73
     6
 74
     0
 42
0.00000001
 43
0.00000001
 40
0.0
 40
0.0
 40
0.0
 40
0.0
 40
0.5
 40
0.5
 40
1.0
 40
1.0
 40
1.0
 40
1.0
 10
46.48342318729102
 20
184.6471257081466
 30
0.0
 10
44.58496657194153
 20
184.5005476558866
 30
0.0
 10
42.92465778840184
 20
185.9228508628011
 30
0.0
 10
42.63150168388184
 20
189.7197640935001
 30
0.0
 10
44.05380489079638
 20
191.3800728770398
 30
0.0
 10
45.95226150614587
 20
191.5266509292998
 30
0.0
  0
LINE
  5
2A6
330
1F
100
AcDbEntity
  8
0
  6
Continuous
 62
     7
370
    18
100
AcDbLine
 10
46.4834231873
 20
184.6471257081
 30
0.0
 11
46.5219131642
 21
184.1486093878
 31
0.0
  0
ARC
  5
2A7
330
1F
100
AcDbEntity
  8
0
  6
Continuous
 62
     7
370
    18
100
AcDbCircle
 10
46.2178423467
 20
188.0868883187
 30
0.0
 40
3.949999999999997
100
AcDbArc
 50
94.4149942818
 51
274.4149942818
  0
LINE
  5
2A8
330
1F
100
AcDbEntity
  8
0
  6
Continuous
 62
     7
370
    18
100
AcDbLine
 10
45.9137715293
 20
192.0251672497
 30
0.0
 11
45.9522615061
 21
191.5266509293
 31
0.0
  0
ARC
  5
2A9
330
1F
100
AcDbEntity
  8
0
  6
Continuous
 62
     7
370
    18
100
AcDbCircle
 10
46.2178423467
 20
188.0868883187
 30
0.0
 40
3.949999999999997
100
AcDbArc
 50
274.4149942818
 51
94.4149942818
  0
LINE
  5
2AA
330
1F
100
AcDbEntity
  8
0
  6
Continuous
 62
     7
370
    18
100
AcDbLine
 10
46.4102922312
 20
185.5943067169
 30
0.0
 11
46.3718022543
 21
186.0928230372
 31
0.0
  0
LINE
  5
2AB
330
1F
100
AcDbEntity
  8
0
  6
Continuous
 62
     7
370
    18
100
AcDbLine
 10
46.0638824391
 20
190.0809536002
 30
0.0
 11
46.0253924622
 21
190.5794699206
 31
0.0
  0
ARC
  5
2AC
330
1F
100
AcDbEntity
  8
0
  6
Continuous
 62
     7
370
    18
100
AcDbCircle
 10
46.2178423467
 20
188.0868883187
 30
0.0
 40
2.000000000000021
100
AcDbArc
 50
94.4149942818
 51
274.4149942818
  0
ARC
  5
2AD
330
1F
100
AcDbEntity
  8
0
  6
Continuous
 62
     7
370
    18
100
AcDbCircle
 10
46.2178423467
 20
188.0868883187
 30
0.0
 40
2.000000000000021
100
AcDbArc
 50
274.4149942818
 51
94.4149942818
  0
ARC
  5
2AE
330
1F
100
AcDbEntity
  8
0
  6
Continuous
 62
     7
370
    18
100
AcDbCircle
 10
46.2178423467
 20
188.0868883187
 30
0.0
 40
4.000000000000013
100
AcDbArc
 50
274.4149942818
 51
94.4149942818
  0
ARC
  5
2AF
330
1F
100
AcDbEntity
  8
0
  6
Continuous
 62
     7
370
    18
100
AcDbCircle
 10
46.2178423467
 20
188.0868883187
 30
0.0
 40
4.000000000000013
100
AcDbArc
 50
94.4149942818
 51
274.4149942818
  0
LINE
  5
2B0
330
1F
100
AcDbEntity
  8
0
  6
Continuous
 62
     7
370
    18
100
AcDbLine
 10
46.9658280113
 20
189.6491038754
 30
0.0
 11
47.9447535373
 21
188.2202215099
 31
0.0
  0
LINE
  5
2B1
330
1F
100
AcDbEntity
  8
0
  6
Continuous
 62
     7
370
    18
100
AcDbLine
 10
45.2389168207
 20
189.5157706843
 30
0.0
 11
46.9658280113
 21
189.6491038754
 31
0.0
  0
LINE
  5
2B2
330
1F
100
AcDbEntity
  8
0
  6
Continuous
 62
     7
370
    18
100
AcDbLine
 10
44.4909311561
 20
187.9535551276
 30
0.0
 11
45.2389168207
 21
189.5157706843
 31
0.0
  0
LINE
  5
2B3
330
1F
100
AcDbEntity
  8
0
  6
Continuous
 62
     7
370
    18
100
AcDbLine
 10
45.4698566821
 20
186.524672762
 30
0.0
 11
44.4909311561
 21
187.9535551276
 31
0.0
  0
LINE
  5
2B4
330
1F
100
AcDbEntity
  8
0
  6
Continuous
 62
     7
370
    18
100
AcDbLine
 10
47.1967678727
 20
186.6580059532
 30
0.0
 11
45.4698566821
 21
186.524672762
 31
0.0
  0
LINE
  5
2B5
330
1F
100
AcDbEntity
  8
0
  6
Continuous
 62
     7
370
    18
100
AcDbLine
 10
47.9447535373
 20
188.2202215099
 30
0.0
 11
47.1967678727
 21
186.6580059532
 31
0.0
  0
ARC
  5
2B6
330
1F
100
AcDbEntity
  8
0
  6
Continuous
 62
     7
370
    18
100
AcDbCircle
 10
46.2178423467
 20
188.0868883187
 30
0.0
 40
0.750000000000008
100
AcDbArc
 50
274.4149942818
 51
94.4149942818
  0
ARC
  5
2B7
330
1F
100
AcDbEntity
  8
0
  6
Continuous
 62
     7
370
    18
100
AcDbCircle
 10
46.2178423467
 20
188.0868883187
 30
0.0
 40
0.750000000000008
100
AcDbArc
 50
94.4149942818
 51
274.4149942818
  0
SPLINE
  5
2B8
330
1F
100
AcDbEntity
  8
0
  6
Continuous
 62
     7
370
    18
100
AcDbSpline
210
0.0
220
0.0
230
1.0
 70
     8
 71
     3
 72
    28
 73
    24
 74
     0
 42
0.00000001
 43
0.00000001
 40
0.0
 40
0.0
 40
0.0
 40
0.0
 40
0.0201456005669861
 40
0.0401354407849123
 40
0.0600488055409009
 40
0.0799658930314208
 40
0.0999668566716594
 40
0.1201308496592705
 40
0.1850779540056736
 40
0.250093355853537
 40
0.3150404909386368
 40
0.380055923556382
 40
0.4400086149455658
 40
0.5000289243169616
 40
0.5599816346078706
 40
0.6200019580901317
 40
0.6849490624366223
 40
0.7499644642843959
 40
0.8149115993693109
 40
0.879927031987231
 40
0.9200435693952905
 40
0.9598539322786351
 40
1.0
 40
1.0
 40
1.0
 40
1.0
 10
46.27613166423203
 20
201.5862086974389
 30
0.0
 10
46.3287791312309
 20
201.5840513079954
 30
0.0
 10
46.43366700921607
 20
201.5797532094615
 30
0.0
 10
46.58970209563301
 20
201.5609409273077
 30
0.0
 10
46.74369537262323
 20
201.5330670679251
 30
0.0
 10
46.8956151873058
 20
201.4952688365147
 30
0.0
 10
47.0454761246701
 20
201.4477620636781
 30
0.0
 10
47.30185136449877
 20
201.3484913375104
 30
0.0
 10
47.64926703979545
 20
201.1591109113524
 30
0.0
 10
48.03842710153218
 20
200.8247674411981
 30
0.0
 10
48.35448032250461
 20
200.4202137072491
 30
0.0
 10
48.57322553089885
 20
199.9704886389958
 30
0.0
 10
48.6992309281142
 20
199.5005912766453
 30
0.0
 10
48.73161974208369
 20
199.0284381735589
 30
0.0
 10
48.67728707472118
 20
198.5581349983142
 30
0.0
 10
48.52961232302263
 20
198.0947687073556
 30
0.0
 10
48.29009948870674
 20
197.6555631698493
 30
0.0
 10
47.95569787132707
 20
197.2662615669714
 30
0.0
 10
47.55122755521455
 20
196.9503188136554
 30
0.0
 10
47.14823454737991
 20
196.7541587345353
 30
0.0
 10
46.78459331995684
 20
196.6452161696467
 30
0.0
 10
46.47397306711334
 20
196.5913035618267
 30
0.0
 10
46.2646526591939
 20
196.5888166278251
 30
0.0
 10
46.15955302920487
 20
196.5875679400074
 30
0.0
  0
SPLINE
  5
2B9
330
1F
100
AcDbEntity
  8
0
  6
Continuous
 62
     7
370
    18
100
AcDbSpline
210
0.0
220
0.0
230
1.0
 70
     8
 71
     3
 72
    28
 73
    24
 74
     0
 42
0.00000001
 43
0.00000001
 40
0.0
 40
0.0
 40
0.0
 40
0.0
 40
0.0201456005670678
 40
0.040135440785043
 40
0.0600488055410477
 40
0.0799658930315516
 40
0.0999668566717431
 40
0.1201308496592773
 40
0.1850779540057694
 40
0.2500933558535351
 40
0.3150404909385492
 40
0.3800559235563806
 40
0.440008614945521
 40
0.500028924316961
 40
0.5599816346078047
 40
0.6200019580901291
 40
0.684949062436385
 40
0.7499644642843886
 40
0.814911599369121
 40
0.8799270319872308
 40
0.9200435693952829
 40
0.9598539322786274
 40
1.0
 40
1.0
 40
1.0
 40
1.0
 10
46.15955302920487
 20
196.5875679400074
 30
0.0
 10
46.1069055622058
 20
196.589725329451
 30
0.0
 10
46.00201768422029
 20
196.5940234279849
 30
0.0
 10
45.84598259780297
 20
196.6128357101387
 30
0.0
 10
45.69198932081262
 20
196.6407095695213
 30
0.0
 10
45.54006950613017
 20
196.6785078009316
 30
0.0
 10
45.39020856876623
 20
196.7260145737682
 30
0.0
 10
45.13383332893781
 20
196.8252852999364
 30
0.0
 10
44.78641765364155
 20
197.0146657260944
 30
0.0
 10
44.39725759190468
 20
197.3490091962482
 30
0.0
 10
44.0812043709324
 20
197.753562930197
 30
0.0
 10
43.86245916253821
 20
198.2032879984503
 30
0.0
 10
43.73645376532267
 20
198.6731853608009
 30
0.0
 10
43.70406495135321
 20
199.1453384638872
 30
0.0
 10
43.75839761871583
 20
199.6156416391319
 30
0.0
 10
43.90607237041392
 20
200.0790079300901
 30
0.0
 10
44.14558520473009
 20
200.5182134675964
 30
0.0
 10
44.47998682210907
 20
200.9075150704742
 30
0.0
 10
44.8844571382217
 20
201.2234578237911
 30
0.0
 10
45.28745014605655
 20
201.4196179029108
 30
0.0
 10
45.65109137348003
 20
201.5285604677997
 30
0.0
 10
45.96171162632353
 20
201.5824730756196
 30
0.0
 10
46.171032034243
 20
201.5849600096212
 30
0.0
 10
46.27613166423203
 20
201.5862086974389
 30
0.0
  0
SPLINE
  5
2BA
330
1F
100
AcDbEntity
  8
0
  6
Continuous
 62
     7
370
    18
100
AcDbSpline
210
0.0
220
0.0
230
1.0
 70
     8
 71
     3
 72
    10
 73
     6
 74
     0
 42
0.00000001
 43
0.00000001
 40
0.0
 40
0.0
 40
0.0
 40
0.0
 40
0.5
 40
0.5
 40
1.0
 40
1.0
 40
1.0
 40
1.0
 10
46.2982816048872
 20
202.5359504413509
 30
0.0
 10
44.39469244925174
 20
202.5803460753213
 30
0.0
 10
42.81317585806114
 20
201.0709167325274
 30
0.0
 10
42.72438459012032
 20
197.2637384212564
 30
0.0
 10
44.23381393291425
 20
195.6822218300659
 30
0.0
 10
46.13740308854972
 20
195.6378261960955
 30
0.0
  0
SPLINE
  5
2BB
330
1F
100
AcDbEntity
  8
0
  6
Continuous
 62
     7
370
    18
100
AcDbSpline
210
0.0
220
0.0
230
1.0
 70
     8
 71
     3
 72
    10
 73
     6
 74
     0
 42
0.00000001
 43
0.00000001
 40
0.0
 40
0.0
 40
0.0
 40
0.0
 40
0.5
 40
0.5
 40
1.0
 40
1.0
 40
1.0
 40
1.0
 10
46.13740308854972
 20
195.6378261960954
 30
0.0
 10
48.04099224418518
 20
195.593430562125
 30
0.0
 10
49.62250883537578
 20
197.102859904919
 30
0.0
 10
49.71130010331659
 20
200.9100382161899
 30
0.0
 10
48.20187076052267
 20
202.4915548073805
 30
0.0
 10
46.2982816048872
 20
202.5359504413509
 30
0.0
  0
ARC
  5
2BC
330
1F
100
AcDbEntity
  8
0
  6
Continuous
 62
     7
370
    18
100
AcDbCircle
 10
46.2178423467
 20
199.0868883187
 30
0.0
 40
3.950000000000012
100
AcDbArc
 50
88.6639861797
 51
268.6639861797
  0
LINE
  5
2BD
330
1F
100
AcDbEntity
  8
0
  6
Continuous
 62
     7
370
    18
100
AcDbLine
 10
46.2982816049
 20
202.5359504414
 30
0.0
 11
46.3099394684
 21
203.0358145171
 31
0.0
  0
LINE
  5
2BE
330
1F
100
AcDbEntity
  8
0
  6
Continuous
 62
     7
370
    18
100
AcDbLine
 10
46.125745225
 20
195.1379621204
 30
0.0
 11
46.1374030885
 21
195.6378261961
 31
0.0
  0
ARC
  5
2BF
330
1F
100
AcDbEntity
  8
0
  6
Continuous
 62
     7
370
    18
100
AcDbCircle
 10
46.2178423467
 20
199.0868883187
 30
0.0
 40
3.950000000000012
100
AcDbArc
 50
268.6639861797
 51
88.6639861797
  0
LINE
  5
2C0
330
1F
100
AcDbEntity
  8
0
  6
Continuous
 62
     7
370
    18
100
AcDbLine
 10
46.2761316642
 20
201.5862086974
 30
0.0
 11
46.2644738007
 21
201.0863446217
 31
0.0
  0
ARC
  5
2C1
330
1F
100
AcDbEntity
  8
0
  6
Continuous
 62
     7
370
    18
100
AcDbCircle
 10
46.2178423467
 20
199.0868883187
 30
0.0
 40
2.000000000000024
100
AcDbArc
 50
88.6639861797
 51
268.6639861797
  0
LINE
  5
2C2
330
1F
100
AcDbEntity
  8
0
  6
Continuous
 62
     7
370
    18
100
AcDbLine
 10
46.1712108927
 20
197.0874320158
 30
0.0
 11
46.1595530292
 21
196.58756794
 31
0.0
  0
ARC
  5
2C3
330
1F
100
AcDbEntity
  8
0
  6
Continuous
 62
     7
370
    18
100
AcDbCircle
 10
46.2178423467
 20
199.0868883187
 30
0.0
 40
2.000000000000024
100
AcDbArc
 50
268.6639861797
 51
88.6639861797
  0
SPLINE
  5
2C4
330
1F
100
AcDbEntity
  8
0
  6
Continuous
 62
     7
370
    18
100
AcDbSpline
210
0.0
220
0.0
230
1.0
 70
     8
 71
     3
 72
    22
 73
    18
 74
     0
 42
0.00000001
 43
0.00000001
 40
0.0
 40
0.0
 40
0.0
 40
0.0
 40
0.125
 40
0.125
 40
0.25
 40
0.25
 40
0.375
 40
0.375
 40
0.5
 40
0.5
 40
0.625
 40
0.625
 40
0.75
 40
0.75
 40
0.875
 40
0.875
 40
1.0
 40
1.0
 40
1.0
 40
1.0
 10
46.12457943869673
 20
195.087975712778
 30
0.0
 10
46.64803587474611
 20
195.0757676266658
 30
0.0
 10
47.17371373690247
 20
195.1676453352842
 30
0.0
 10
48.15027877634918
 20
195.5457239447857
 30
0.0
 10
48.6007817169978
 20
195.8317760878806
 30
0.0
 10
49.35832574912085
 20
196.5547904381026
 30
0.0
 10
49.6650687793673
 20
196.991468169957
 30
0.0
 10
50.08826259242969
 20
197.9493458802196
 30
0.0
 10
50.20454686655142
 20
198.4701689746521
 30
0.0
 10
50.22896303877587
 20
199.5170818467508
 30
0.0
 10
50.13708533015745
 20
200.0427597089072
 30
0.0
 10
49.75900672065595
 20
201.0193247483539
 30
0.0
 10
49.472954577561
 20
201.4698276890025
 30
0.0
 10
48.74994022733902
 20
202.2273717211256
 30
0.0
 10
48.31326249548463
 20
202.534114751372
 30
0.0
 10
47.35538478522206
 20
202.9573085644344
 30
0.0
 10
46.83456169078956
 20
203.0735928385562
 30
0.0
 10
46.31110525474018
 20
203.0858009246683
 30
0.0
  0
SPLINE
  5
2C5
330
1F
100
AcDbEntity
  8
0
  6
Continuous
 62
     7
370
    18
100
AcDbSpline
210
0.0
220
0.0
230
1.0
 70
     8
 71
     3
 72
    22
 73
    18
 74
     0
 42
0.00000001
 43
0.00000001
 40
0.0
 40
0.0
 40
0.0
 40
0.0
 40
0.125
 40
0.125
 40
0.25
 40
0.25
 40
0.375
 40
0.375
 40
0.5
 40
0.5
 40
0.625
 40
0.625
 40
0.75
 40
0.75
 40
0.875
 40
0.875
 40
1.0
 40
1.0
 40
1.0
 40
1.0
 10
46.31110525474018
 20
203.0858009246683
 30
0.0
 10
45.78764881869081
 20
203.0980090107806
 30
0.0
 10
45.26197095653444
 20
203.0061313021622
 30
0.0
 10
44.28540591708772
 20
202.6280526926606
 30
0.0
 10
43.8349029764391
 20
202.3420005495657
 30
0.0
 10
43.07735894431607
 20
201.6189861993437
 30
0.0
 10
42.77061591406963
 20
201.1823084674893
 30
0.0
 10
42.34742210100723
 20
200.2244307572268
 30
0.0
 10
42.2311378268855
 20
199.7036076627943
 30
0.0
 10
42.20672165466105
 20
198.6566947906955
 30
0.0
 10
42.29859936327947
 20
198.1310169285392
 30
0.0
 10
42.67667797278097
 20
197.1544518890925
 30
0.0
 10
42.96273011587591
 20
196.7039489484438
 30
0.0
 10
43.68574446609789
 20
195.9464049163208
 30
0.0
 10
44.12242219795229
 20
195.6396618860744
 30
0.0
 10
45.08029990821486
 20
195.216468073012
 30
0.0
 10
45.60112300264736
 20
195.1001837988902
 30
0.0
 10
46.12457943869673
 20
195.087975712778
 30
0.0
  0
LINE
  5
2C6
330
1F
100
AcDbEntity
  8
0
  6
Continuous
 62
     7
370
    18
100
AcDbLine
 10
56.2178423467
 20
186.3548375428
 30
0.0
 11
56.2178423467
 21
170.0868883187
 31
0.0
  0
LINE
  5
2C7
330
1F
100
AcDbEntity
  8
0
  6
Continuous
 62
     7
370
    18
100
AcDbLine
 10
36.2178423467
 20
187.0868883187
 30
0.0
 11
36.2178423467
 21
170.0868883187
 31
0.0
  0
ARC
  5
2C8
330
1F
100
AcDbEntity
  8
0
  6
Continuous
 62
     7
370
    18
100
AcDbCircle
 10
43.2178423467
 20
187.0868883187
 30
0.0
 40
7.0
100
AcDbArc
 50
90.0
 51
180.0
  0
LINE
  5
2C9
330
1F
100
AcDbEntity
  8
0
  6
Continuous
 62
     7
370
    18
100
AcDbLine
 10
43.2178423467
 20
194.0868883187
 30
0.0
 11
49.2178423467
 21
194.0868883187
 31
0.0
  0
ARC
  5
2CA
330
1F
100
AcDbEntity
  8
0
  6
Continuous
 62
     7
370
    18
100
AcDbCircle
 10
49.2178423467
 20
187.0868883187
 30
0.0
 40
7.000000000000004
100
AcDbArc
 50
27.4177626273
 51
90.0
  0
LINE
  5
2CB
330
1F
100
AcDbEntity
  8
0
  6
Continuous
 62
     7
370
    18
100
AcDbLine
 10
36.2178423467
 20
170.0868883187
 30
0.0
 11
56.2178423467
 21
170.0868883187
 31
0.0
  0
LINE
  5
2CC
330
1F
100
AcDbEntity
  8
0
  6
Continuous
 62
     7
370
    18
100
AcDbLine
 10
45.3170787801
 20
197.6074881034
 30
0.0
 11
44.4862623946
 21
199.1272723425
 31
0.0
  0
LINE
  5
2CD
330
1F
100
AcDbEntity
  8
0
  6
Continuous
 62
     7
370
    18
100
AcDbLine
 10
47.0486587323
 20
197.5671040796
 30
0.0
 11
45.3170787801
 21
197.6074881034
 31
0.0
  0
LINE
  5
2CE
330
1F
100
AcDbEntity
  8
0
  6
Continuous
 62
     7
370
    18
100
AcDbLine
 10
47.9494222988
 20
199.0465042949
 30
0.0
 11
47.0486587323
 21
197.5671040796
 31
0.0
  0
LINE
  5
2CF
330
1F
100
AcDbEntity
  8
0
  6
Continuous
 62
     7
370
    18
100
AcDbLine
 10
47.1186059133
 20
200.5662885341
 30
0.0
 11
47.9494222988
 21
199.0465042949
 31
0.0
  0
LINE
  5
2D0
330
1F
100
AcDbEntity
  8
0
  6
Continuous
 62
     7
370
    18
100
AcDbLine
 10
45.3870259612
 20
200.6066725578
 30
0.0
 11
47.1186059133
 21
200.5662885341
 31
0.0
  0
LINE
  5
2D1
330
1F
100
AcDbEntity
  8
0
  6
Continuous
 62
     7
370
    18
100
AcDbLine
 10
44.4862623946
 20
199.1272723425
 30
0.0
 11
45.3870259612
 21
200.6066725578
 31
0.0
  0
SPLINE
  5
2D2
330
1F
100
AcDbEntity
  8
0
  6
Continuous
 62
     7
370
    18
100
AcDbSpline
210
0.0
220
0.0
230
1.0
 70
     8
 71
     3
 72
    21
 73
    17
 74
     0
 42
0.00000001
 43
0.00000001
 40
0.0
 40
0.0
 40
0.0
 40
0.0
 40
0.0301973277238682
 40
0.0601525417109888
 40
0.0901357624982996
 40
0.120416361121214
 40
0.1854522368463172
 40
0.2507163621022827
 40
0.3803234256651831
 40
0.5000647389598383
 40
0.6198060522544926
 40
0.7494131158173951
 40
0.8144490941450008
 40
0.8797133223555961
 40
0.9398010163569738
 40
1.0
 40
1.0
 40
1.0
 40
1.0
 10
46.20035555146438
 20
198.3370922051085
 30
0.0
 10
46.17674166433575
 20
198.338269297314
 30
0.0
 10
46.12970321962791
 20
198.3406140441286
 30
0.0
 10
46.06003331862377
 20
198.3525098146253
 30
0.0
 10
45.99170379058928
 20
198.3705696810745
 30
0.0
 10
45.89964276802639
 20
198.404586622351
 30
0.0
 10
45.78848650564859
 20
198.4652479883865
 30
0.0
 10
45.63311843136475
 20
198.5982385862109
 30
0.0
 10
45.49844695749251
 20
198.8132291164669
 30
0.0
 10
45.45019563868343
 20
199.1047866372988
 30
0.0
 10
45.51198938589783
 20
199.3938072055777
 30
0.0
 10
45.65642076586207
 20
199.6020552605711
 30
0.0
 10
45.81779497664369
 20
199.7278753790762
 30
0.0
 10
45.95268083788396
 20
199.793144787239
 30
0.0
 10
46.09373455762094
 20
199.8324962223411
 30
0.0
 10
46.18810184421092
 20
199.8352875015053
 30
0.0
 10
46.23532914197253
 20
199.8366844323379
 30
0.0
  0
SPLINE
  5
2D3
330
1F
100
AcDbEntity
  8
0
  6
Continuous
 62
     7
370
    18
100
AcDbSpline
210
0.0
220
0.0
230
1.0
 70
     8
 71
     3
 72
    21
 73
    17
 74
     0
 42
0.00000001
 43
0.00000001
 40
0.0
 40
0.0
 40
0.0
 40
0.0
 40
0.0301973277237117
 40
0.0601525417107804
 40
0.0901357624981415
 40
0.1204163611212037
 40
0.1854522368461043
 40
0.2507163621022805
 40
0.3803234256651812
 40
0.5000647389598348
 40
0.6198060522544875
 40
0.7494131158173885
 40
0.8144490941448033
 40
0.8797133223555972
 40
0.9398010163569729
 40
1.0
 40
1.0
 40
1.0
 40
1.0
 10
46.23532914197253
 20
199.8366844323379
 30
0.0
 10
46.25894302910104
 20
199.8355073401324
 30
0.0
 10
46.30598147380871
 20
199.8331625933177
 30
0.0
 10
46.37565137481273
 20
199.821266822821
 30
0.0
 10
46.44398090284733
 20
199.8032069563718
 30
0.0
 10
46.5360419254103
 20
199.7691900150955
 30
0.0
 10
46.64719818778826
 20
199.7085286490601
 30
0.0
 10
46.80256626207202
 20
199.5755380512355
 30
0.0
 10
46.93723773594441
 20
199.3605475209795
 30
0.0
 10
46.98548905475349
 20
199.0689900001476
 30
0.0
 10
46.92369530753909
 20
198.7799694318687
 30
0.0
 10
46.77926392757488
 20
198.5717213768755
 30
0.0
 10
46.61788971679345
 20
198.4459012583701
 30
0.0
 10
46.48300385555309
 20
198.3806318502075
 30
0.0
 10
46.34195013581598
 20
198.3412804151053
 30
0.0
 10
46.247582849226
 20
198.338489135941
 30
0.0
 10
46.20035555146438
 20
198.3370922051085
 30
0.0
  0
SPLINE
  5
2D4
330
1F
100
AcDbEntity
  8
0
  6
Continuous
 62
     7
370
    18
100
AcDbSpline
210
0.0
220
0.0
230
1.0
 70
     8
 71
     3
 72
    16
 73
    12
 74
     0
 42
0.00000001
 43
0.00000001
 40
0.0
 40
0.0
 40
0.0
 40
0.0
 40
0.0801150698539426
 40
0.1597406165934296
 40
0.2401518739708272
 40
0.3697805865969815
 40
0.5000923147436972
 40
0.6297213341262275
 40
0.7600333706110046
 40
0.8798503072456554
 40
1.0
 40
1.0
 40
1.0
 40
1.0
 10
37.21784234671846
 20
196.5868883187232
 30
0.0
 10
37.19688141970309
 20
196.5861472452106
 30
0.0
 10
37.155087642179
 20
196.5846696263298
 30
0.0
 10
37.09324052125008
 20
196.5724224375798
 30
0.0
 10
37.02107231815678
 20
196.5490459765186
 30
0.0
 10
36.94136701778044
 20
196.5079201724623
 30
0.0
 10
36.86204396976386
 20
196.4429637935708
 30
0.0
 10
36.7968233983085
 20
196.3635069842612
 30
0.0
 10
36.751284105182
 20
196.2746320320084
 30
0.0
 10
36.72282186488094
 20
196.1812114297197
 30
0.0
 10
36.71950371983736
 20
196.1183584079944
 30
0.0
 10
36.71784234671846
 20
196.0868883187232
 30
0.0
  0
LINE
  5
2D5
330
1F
100
AcDbEntity
  8
0
  6
Continuous
 62
     7
370
    18
100
AcDbLine
 10
39.7178423467
 20
196.5868883187
 30
0.0
 11
37.2178423467
 21
196.5868883187
 31
0.0
  0
SPLINE
  5
2D6
330
1F
100
AcDbEntity
  8
0
  6
Continuous
 62
     7
370
    18
100
AcDbSpline
210
0.0
220
0.0
230
1.0
 70
     8
 71
     3
 72
    16
 73
    12
 74
     0
 42
0.00000001
 43
0.00000001
 40
0.0
 40
0.0
 40
0.0
 40
0.0
 40
0.0795967564406364
 40
0.1592228021817538
 40
0.2401290705273522
 40
0.3686016048456976
 40
0.5000688888697162
 40
0.6285427552727546
 40
0.7600114017983444
 40
0.87928210526794
 40
1.0
 40
1.0
 40
1.0
 40
1.0
 10
43.21784234671846
 20
202.5868883187232
 30
0.0
 10
43.19701675891422
 20
202.5861434601018
 30
0.0
 10
43.15535792009273
 20
202.5846534687725
 30
0.0
 10
43.09353581165546
 20
202.5723520245131
 30
0.0
 10
43.02145432120187
 20
202.5492642520483
 30
0.0
 10
42.94164388068354
 20
202.5080611032143
 30
0.0
 10
42.86246932021562
 20
202.4433969875577
 30
0.0
 10
42.79698761274589
 20
202.3637709017295
 30
0.0
 10
42.75147539661121
 20
202.2750404418469
 30
0.0
 10
42.72271949077639
 20
202.1813854828047
 30
0.0
 10
42.71947458393768
 20
202.1185137508392
 30
0.0
 10
42.71784234671846
 20
202.0868883187232
 30
0.0
  0
SPLINE
  5
2D7
330
1F
100
AcDbEntity
  8
0
  6
Continuous
 62
     7
370
    18
100
AcDbSpline
210
0.0
220
0.0
230
1.0
 70
     8
 71
     3
 72
    16
 73
    12
 74
     0
 42
0.00000001
 43
0.00000001
 40
0.0
 40
0.0
 40
0.0
 40
0.0
 40
0.0801150698539933
 40
0.1597406165934716
 40
0.2401518739708214
 40
0.3697805865973997
 40
0.5000923147437109
 40
0.6297213341263975
 40
0.7600333706109921
 40
0.879850307245453
 40
1.0
 40
1.0
 40
1.0
 40
1.0
 10
49.71784234671845
 20
202.0868883187232
 30
0.0
 10
49.71710127320583
 20
202.1078492457385
 30
0.0
 10
49.71562365432509
 20
202.1496430232627
 30
0.0
 10
49.7033764655751
 20
202.2114901441916
 30
0.0
 10
49.6800000045138
 20
202.283658347285
 30
0.0
 10
49.63887420045757
 20
202.3633636476613
 30
0.0
 10
49.57391782156601
 20
202.4426866956779
 30
0.0
 10
49.49446101225634
 20
202.507907267133
 30
0.0
 10
49.40558606000365
 20
202.5534465602596
 30
0.0
 10
49.31216545771502
 20
202.5819088005607
 30
0.0
 10
49.2493124359897
 20
202.5852269456043
 30
0.0
 10
49.21784234671845
 20
202.5868883187232
 30
0.0
  0
LINE
  5
2D8
330
1F
100
AcDbEntity
  8
0
  6
Continuous
 62
     7
370
    18
100
AcDbLine
 10
55.2178423467
 20
196.5868883187
 30
0.0
 11
52.7178423467
 21
196.5868883187
 31
0.0
  0
SPLINE
  5
2D9
330
1F
100
AcDbEntity
  8
0
  6
Continuous
 62
     7
370
    18
100
AcDbSpline
210
0.0
220
0.0
230
1.0
 70
     8
 71
     3
 72
    16
 73
    12
 74
     0
 42
0.00000001
 43
0.00000001
 40
0.0
 40
0.0
 40
0.0
 40
0.0
 40
0.0801150698540419
 40
0.1597406165935234
 40
0.2401518739708309
 40
0.3697805865980204
 40
0.5000923147437386
 40
0.629721334126959
 40
0.7600333706109939
 40
0.8798503072454489
 40
1.0
 40
1.0
 40
1.0
 40
1.0
 10
55.71784234671846
 20
196.0868883187232
 30
0.0
 10
55.71710127320583
 20
196.1078492457386
 30
0.0
 10
55.71562365432509
 20
196.1496430232627
 30
0.0
 10
55.70337646557511
 20
196.2114901441916
 30
0.0
 10
55.68000000451373
 20
196.2836583472851
 30
0.0
 10
55.6388742004576
 20
196.3633636476615
 30
0.0
 10
55.57391782156579
 20
196.4426866956781
 30
0.0
 10
55.49446101225615
 20
196.507907267133
 30
0.0
 10
55.40558606000353
 20
196.5534465602597
 30
0.0
 10
55.31216545771503
 20
196.5819088005607
 30
0.0
 10
55.2493124359897
 20
196.5852269456043
 30
0.0
 10
55.21784234671846
 20
196.5868883187232
 30
0.0
  0
LINE
  5
2DA
330
1F
100
AcDbEntity
  8
0
  6
Continuous
 62
     7
370
    18
100
AcDbLine
 10
37.2178423467
 20
196.5868883187
 30
0.0
 11
37.2178423467
 21
197.0868883187
 31
0.0
  0
LINE
  5
2DB
330
1F
100
AcDbEntity
  8
0
  6
Continuous
 62
     7
370
    18
100
AcDbLine
 10
39.7178423467
 20
197.0868883187
 30
0.0
 11
37.2178423467
 21
197.0868883187
 31
0.0
  0
LINE
  5
2DC
330
1F
100
AcDbEntity
  8
0
  6
Continuous
 62
     7
370
    18
100
AcDbLine
 10
39.7178423467
 20
196.5868883187
 30
0.0
 11
39.7178423467
 21
197.0868883187
 31
0.0
  0
LINE
  5
2DD
330
1F
100
AcDbEntity
  8
0
  6
Continuous
 62
     7
370
    18
100
AcDbLine
 10
42.2178423467
 20
202.0868883187
 30
0.0
 11
42.2178423467
 21
199.5868883187
 31
0.0
  0
LINE
  5
2DE
330
1F
100
AcDbEntity
  8
0
  6
Continuous
 62
     7
370
    18
100
AcDbLine
 10
42.2178423467
 20
202.0868883187
 30
0.0
 11
42.7178423467
 21
202.0868883187
 31
0.0
  0
LINE
  5
2DF
330
1F
100
AcDbEntity
  8
0
  6
Continuous
 62
     7
370
    18
100
AcDbLine
 10
49.7178423467
 20
202.0868883187
 30
0.0
 11
50.2178423467
 21
202.0868883187
 31
0.0
  0
LINE
  5
2E0
330
1F
100
AcDbEntity
  8
0
  6
Continuous
 62
     7
370
    18
100
AcDbLine
 10
50.2178423467
 20
199.5868883187
 30
0.0
 11
50.2178423467
 21
202.0868883187
 31
0.0
  0
LINE
  5
2E1
330
1F
100
AcDbEntity
  8
0
  6
Continuous
 62
     7
370
    18
100
AcDbLine
 10
55.2178423467
 20
197.0868883187
 30
0.0
 11
52.7178423467
 21
197.0868883187
 31
0.0
  0
LINE
  5
2E2
330
1F
100
AcDbEntity
  8
0
  6
Continuous
 62
     7
370
    18
100
AcDbLine
 10
55.2178423467
 20
197.0868883187
 30
0.0
 11
55.2178423467
 21
196.5868883187
 31
0.0
  0
LINE
  5
2E3
330
1F
100
AcDbEntity
  8
0
  6
Continuous
 62
     7
370
    18
100
AcDbLine
 10
52.7178423467
 20
197.0868883187
 30
0.0
 11
52.7178423467
 21
196.5868883187
 31
0.0
  0
LINE
  5
2E4
330
1F
100
AcDbEntity
  8
0
  6
Continuous
 62
     7
370
    18
100
AcDbLine
 10
36.2178423467
 20
196.0868883187
 30
0.0
 11
36.2178423467
 21
187.0868883187
 31
0.0
  0
LINE
  5
2E5
330
1F
100
AcDbEntity
  8
0
  6
Continuous
 62
     7
370
    18
100
AcDbLine
 10
36.2178423467
 20
196.0868883187
 30
0.0
 11
36.7178423467
 21
196.0868883187
 31
0.0
  0
LINE
  5
2E6
330
1F
100
AcDbEntity
  8
0
  6
Continuous
 62
     7
370
    18
100
AcDbLine
 10
43.2178423467
 20
203.0868883187
 30
0.0
 11
43.2178423467
 21
202.5868883187
 31
0.0
  0
LINE
  5
2E7
330
1F
100
AcDbEntity
  8
0
  6
Continuous
 62
     7
370
    18
100
AcDbLine
 10
49.2178423467
 20
203.0868883187
 30
0.0
 11
46.4762781413
 21
203.0868883187
 31
0.0
  0
LINE
  5
2E8
330
1F
100
AcDbEntity
  8
0
  6
Continuous
 62
     7
370
    18
100
AcDbLine
 10
46.0289927946
 20
203.0868883187
 30
0.0
 11
43.2178423467
 21
203.0868883187
 31
0.0
  0
LINE
  5
2E9
330
1F
100
AcDbEntity
  8
0
  6
Continuous
 62
     7
370
    18
100
AcDbLine
 10
49.2178423467
 20
203.0868883187
 30
0.0
 11
49.2178423467
 21
202.5868883187
 31
0.0
  0
LINE
  5
2EA
330
1F
100
AcDbEntity
  8
0
  6
Continuous
 62
     7
370
    18
100
AcDbLine
 10
56.2178423467
 20
189.8189391263
 30
0.0
 11
56.2178423467
 21
196.0868883187
 31
0.0
  0
LINE
  5
2EB
330
1F
100
AcDbEntity
  8
0
  6
Continuous
 62
     7
370
    18
100
AcDbLine
 10
56.2178423467
 20
196.0868883187
 30
0.0
 11
55.7178423467
 21
196.0868883187
 31
0.0
  0
ARC
  5
2EC
330
1F
100
AcDbEntity
  8
0
  6
Continuous
 62
     7
370
    18
100
AcDbCircle
 10
39.7178423467
 20
199.5868883187
 30
0.0
 40
2.5
100
AcDbArc
 50
270.0
 51
0.0
  0
ARC
  5
2ED
330
1F
100
AcDbEntity
  8
0
  6
Continuous
 62
     7
370
    18
100
AcDbCircle
 10
52.7178423467
 20
199.5868883187
 30
0.0
 40
2.5
100
AcDbArc
 50
180.0
 51
270.0
  0
ARC
  5
2EE
330
1F
100
AcDbEntity
  8
0
  6
Continuous
 62
     7
370
    18
100
AcDbCircle
 10
37.2178423467
 20
196.0868883187
 30
0.0
 40
1.0
100
AcDbArc
 50
90.0
 51
180.0
  0
ARC
  5
2EF
330
1F
100
AcDbEntity
  8
0
  6
Continuous
 62
     7
370
    18
100
AcDbCircle
 10
43.2178423467
 20
202.0868883187
 30
0.0
 40
1.0
100
AcDbArc
 50
90.0
 51
180.0
  0
ARC
  5
2F0
330
1F
100
AcDbEntity
  8
0
  6
Continuous
 62
     7
370
    18
100
AcDbCircle
 10
49.2178423467
 20
202.0868883187
 30
0.0
 40
1.0
100
AcDbArc
 50
0.0
 51
90.0
  0
ARC
  5
2F1
330
1F
100
AcDbEntity
  8
0
  6
Continuous
 62
     7
370
    18
100
AcDbCircle
 10
55.2178423467
 20
196.0868883187
 30
0.0
 40
1.0
100
AcDbArc
 50
0.0
 51
90.0
  0
LINE
  5
2F2
330
1F
100
AcDbEntity
  8
0
  6
Continuous
 62
     7
370
    18
100
AcDbLine
 10
36.2178423467
 20
200.0868883187
 30
0.0
 11
36.7178423467
 21
200.0868883187
 31
0.0
  0
LINE
  5
2F3
330
1F
100
AcDbEntity
  8
0
  6
Continuous
 62
     7
370
    18
100
AcDbLine
 10
36.7178423467
 20
196.9529137225
 30
0.0
 11
36.7178423467
 21
200.0868883187
 31
0.0
  0
LINE
  5
2F4
330
1F
100
AcDbEntity
  8
0
  6
Continuous
 62
     7
370
    18
100
AcDbLine
 10
36.2178423467
 20
200.0868883187
 30
0.0
 11
36.2178423467
 21
196.0868883187
 31
0.0
  0
SPLINE
  5
2F5
330
1F
100
AcDbEntity
  8
0
  6
Continuous
 62
     7
370
    18
100
AcDbSpline
210
0.0
220
0.0
230
1.0
 70
     8
 71
     3
 72
     8
 73
     4
 74
     0
 42
0.00000001
 43
0.00000001
 40
0.0
 40
0.0
 40
0.0
 40
0.0
 40
1.0
 40
1.0
 40
1.0
 40
1.0
 10
39.21784234671846
 20
202.5868883187232
 30
0.0
 10
37.83805482191071
 20
202.5868883187232
 30
0.0
 10
36.71784234671846
 20
201.4666758435309
 30
0.0
 10
36.71784234671846
 20
200.0868883187232
 30
0.0
  0
LINE
  5
2F6
330
1F
100
AcDbEntity
  8
0
  6
Continuous
 62
     7
370
    18
100
AcDbLine
 10
39.2178423467
 20
202.5868883187
 30
0.0
 11
42.3518169429
 21
202.5868883187
 31
0.0
  0
SPLINE
  5
2F7
330
1F
100
AcDbEntity
  8
0
  6
Continuous
 62
     7
370
    18
100
AcDbSpline
210
0.0
220
0.0
230
1.0
 70
     8
 71
     3
 72
    10
 73
     6
 74
     0
 42
0.00000001
 43
0.00000001
 40
0.0
 40
0.0
 40
0.0
 40
0.0
 40
0.5
 40
0.5
 40
0.9999999999999999
 40
0.9999999999999999
 40
0.9999999999999999
 40
0.9999999999999999
 10
55.71784234671846
 20
200.0868883187232
 30
0.0
 10
55.71784234671846
 20
200.7499107787232
 30
0.0
 10
55.4544369772298
 20
201.3858275941446
 30
0.0
 10
54.51678162213984
 20
202.3234829492345
 30
0.0
 10
53.88086480671846
 20
202.5868883187232
 30
0.0
 10
53.21784234671846
 20
202.5868883187232
 30
0.0
  0
LINE
  5
2F8
330
1F
100
AcDbEntity
  8
0
  6
Continuous
 62
     7
370
    18
100
AcDbLine
 10
55.7178423467
 20
200.0868883187
 30
0.0
 11
55.7178423467
 21
196.9529137225
 31
0.0
  0
LINE
  5
2F9
330
1F
100
AcDbEntity
  8
0
  6
Continuous
 62
     7
370
    18
100
AcDbLine
 10
50.0838677505
 20
202.5868883187
 30
0.0
 11
53.2178423467
 21
202.5868883187
 31
0.0
  0
LINE
  5
2FA
330
1F
100
AcDbEntity
  8
0
  6
Continuous
 62
     7
370
    18
100
AcDbLine
 10
53.2178423467
 20
203.0868883187
 30
0.0
 11
53.2178423467
 21
202.5868883187
 31
0.0
  0
LINE
  5
2FB
330
1F
100
AcDbEntity
  8
0
  6
Continuous
 62
     7
370
    18
100
AcDbLine
 10
53.2178423467
 20
203.0868883187
 30
0.0
 11
49.2178423467
 21
203.0868883187
 31
0.0
  0
LINE
  5
2FC
330
1F
100
AcDbEntity
  8
0
  6
Continuous
 62
     7
370
    18
100
AcDbLine
 10
39.2178423467
 20
203.0868883187
 30
0.0
 11
39.2178423467
 21
202.5868883187
 31
0.0
  0
LINE
  5
2FD
330
1F
100
AcDbEntity
  8
0
  6
Continuous
 62
     7
370
    18
100
AcDbLine
 10
43.2178423467
 20
203.0868883187
 30
0.0
 11
39.2178423467
 21
203.0868883187
 31
0.0
  0
LINE
  5
2FE
330
1F
100
AcDbEntity
  8
0
  6
Continuous
 62
     7
370
    18
100
AcDbLine
 10
55.7178423467
 20
200.0868883187
 30
0.0
 11
56.2178423467
 21
200.0868883187
 31
0.0
  0
LINE
  5
2FF
330
1F
100
AcDbEntity
  8
0
  6
Continuous
 62
     7
370
    18
100
AcDbLine
 10
56.2178423467
 20
196.0868883187
 30
0.0
 11
56.2178423467
 21
200.0868883187
 31
0.0
  0
ARC
  5
300
330
1F
100
AcDbEntity
  8
0
  6
Continuous
 62
     7
370
    18
100
AcDbCircle
 10
53.2178423467
 20
200.0868883187
 30
0.0
 40
3.0
100
AcDbArc
 50
0.0
 51
90.0
  0
ARC
  5
301
330
1F
100
AcDbEntity
  8
0
  6
Continuous
 62
     7
370
    18
100
AcDbCircle
 10
39.2178423467
 20
200.0868883187
 30
0.0
 40
3.0
100
AcDbArc
 50
90.0
 51
180.0
  0
LINE
  5
302
330
1F
100
AcDbEntity
  8
0
  6
Continuous
 62
     7
370
    18
100
AcDbLine
 10
39.0471310867
 20
211.0868883206
 30
0.0
 11
39.0471310867
 21
209.2179568368
 31
0.0
  0
ARC
  5
303
330
1F
100
AcDbEntity
  8
0
  6
Continuous
 62
     7
370
    18
100
AcDbCircle
 10
46.2178423467
 20
204.1168883187
 30
0.0
 40
8.800000000000132
100
AcDbArc
 50
144.5728840438
 51
180.0
  0
LINE
  5
304
330
1F
100
AcDbEntity
  8
0
  6
Continuous
 62
     7
370
    18
100
AcDbLine
 10
37.4178423467
 20
204.1168883187
 30
0.0
 11
37.4178423467
 21
202.4868883187
 31
0.0
  0
ARC
  5
305
330
1F
100
AcDbEntity
  8
0
  6
Continuous
 62
     7
370
    18
100
AcDbCircle
 10
46.2178423467
 20
204.1168883187
 30
0.0
 40
10.0
100
AcDbArc
 50
135.8131935936
 51
180.0
  0
LINE
  5
306
330
1F
100
AcDbEntity
  8
0
  6
Continuous
 62
     7
370
    18
100
AcDbLine
 10
36.2178423467
 20
200.0868883187
 30
0.0
 11
36.2178423467
 21
204.1168883187
 31
0.0
  0
LINE
  5
307
330
1F
100
AcDbEntity
  8
0
  6
Continuous
 62
     7
370
    18
100
AcDbLine
 10
55.0178423467
 20
202.4868883187
 30
0.0
 11
55.0178423467
 21
204.1168883187
 31
0.0
  0
ARC
  5
308
330
1F
100
AcDbEntity
  8
0
  6
Continuous
 62
     7
370
    18
100
AcDbCircle
 10
46.2178423467
 20
204.1168883187
 30
0.0
 40
8.800000000000004
100
AcDbArc
 50
0.0
 51
35.4271159764
  0
LINE
  5
309
330
1F
100
AcDbEntity
  8
0
  6
Continuous
 62
     7
370
    18
100
AcDbLine
 10
53.3885536049
 20
209.2179568393
 30
0.0
 11
53.3885536049
 21
211.0868883224
 31
0.0
  0
ARC
  5
30A
330
1F
100
AcDbEntity
  8
0
  6
Continuous
 62
     7
370
    18
100
AcDbCircle
 10
46.2178423467
 20
204.1168883187
 30
0.0
 40
10.00000000000001
100
AcDbArc
 50
0.0
 51
44.1868064211
  0
LINE
  5
30B
330
1F
100
AcDbEntity
  8
0
  6
Continuous
 62
     7
370
    18
100
AcDbLine
 10
56.2178423467
 20
204.1168883187
 30
0.0
 11
56.2178423467
 21
200.0868883187
 31
0.0
  0
LINE
  5
30C
330
1F
100
AcDbEntity
  8
0
  6
Continuous
 62
     7
370
    18
100
AcDbLine
 10
39.0471310867
 20
211.0868883206
 30
0.0
 11
40.4456017033
 21
211.0868883191
 31
0.0
  0
LINE
  5
30D
330
1F
100
AcDbEntity
  8
0
  6
Continuous
 62
     7
370
    18
100
AcDbLine
 10
51.9900829899
 20
211.0868883221
 30
0.0
 11
53.3885536049
 21
211.0868883224
 31
0.0
  0
LINE
  5
30E
330
1F
100
AcDbEntity
  8
0
  6
Continuous
 62
     8
370
    18
100
AcDbLine
 10
55.7178423467
 20
196.0868883187
 30
0.0
 11
55.7178423467
 21
190.1076142609
 31
0.0
  0
LINE
  5
30F
330
1F
100
AcDbEntity
  8
0
  6
Continuous
 62
     8
370
    18
100
AcDbLine
 10
36.7178423467
 20
189.5588352879
 30
0.0
 11
36.7178423467
 21
196.0868883187
 31
0.0
  0
SPLINE
  5
310
330
1F
100
AcDbEntity
  8
0
  6
Continuous
 62
     8
370
    18
100
AcDbSpline
210
0.0
220
0.0
230
1.0
 70
     8
 71
     3
 72
    14
 73
    10
 74
     0
 42
0.00000001
 43
0.00000001
 40
0.0
 40
0.0
 40
0.0
 40
0.0
 40
0.0787060443602136
 40
0.2688240788739564
 40
0.4587757441098811
 40
0.5534352740007618
 40
0.6491427285453188
 40
0.8245307378913509
 40
0.9999999999999999
 40
0.9999999999999999
 40
0.9999999999999999
 40
0.9999999999999999
 10
42.34251211480056
 20
198.1646645082434
 30
0.0
 10
42.30559556274987
 20
198.0885297987491
 30
0.0
 10
42.17950539799949
 20
197.8284882312113
 30
0.0
 10
41.84940637722769
 20
197.4536324714021
 30
0.0
 10
41.45729096379124
 20
197.1260004305026
 30
0.0
 10
41.10378993452471
 20
196.9199207584433
 30
0.0
 10
40.7462073426775
 20
196.7579595180461
 30
0.0
 10
40.28343821351948
 20
196.6167847077677
 30
0.0
 10
39.9064034073349
 20
196.5968553201773
 30
0.0
 10
39.71784234671846
 20
196.5868883187232
 30
0.0
  0
LINE
  5
311
330
1F
100
AcDbEntity
  8
0
  6
Continuous
 62
     8
370
    18
100
AcDbLine
 10
42.7178423467
 20
202.0868883187
 30
0.0
 11
42.7178423467
 21
200.9845351323
 31
0.0
  0
LINE
  5
312
330
1F
100
AcDbEntity
  8
0
  6
Continuous
 62
     8
370
    18
100
AcDbLine
 10
43.2178423467
 20
202.5868883187
 30
0.0
 11
44.3177448536
 21
202.5868883187
 31
0.0
  0
LINE
  5
313
330
1F
100
AcDbEntity
  8
0
  6
Continuous
 62
     8
370
    18
100
AcDbLine
 10
48.1154891603
 20
202.5868883187
 30
0.0
 11
49.2178423467
 21
202.5868883187
 31
0.0
  0
LINE
  5
314
330
1F
100
AcDbEntity
  8
0
  6
Continuous
 62
     8
370
    18
100
AcDbLine
 10
49.7178423467
 20
200.9869858119
 30
0.0
 11
49.7178423467
 21
202.0868883187
 31
0.0
  0
SPLINE
  5
315
330
1F
100
AcDbEntity
  8
0
  6
Continuous
 62
     8
370
    18
100
AcDbSpline
210
0.0
220
0.0
230
1.0
 70
     8
 71
     3
 72
    13
 73
     9
 74
     0
 42
0.00000001
 43
0.00000001
 40
0.0
 40
0.0
 40
0.0
 40
0.0
 40
0.1769104268545018
 40
0.3539028786125019
 40
0.5455049536666603
 40
0.7372749191454674
 40
0.9288770697685769
 40
1.0
 40
1.0
 40
1.0
 40
1.0
 10
52.71784234671846
 20
196.5868883187232
 30
0.0
 10
52.52933839995123
 20
196.596913094349
 30
0.0
 10
52.1522431061526
 20
196.6169672936097
 30
0.0
 10
51.59232785174357
 20
196.7871897798924
 30
0.0
 10
51.05826916480034
 20
197.0602415013866
 30
0.0
 10
50.58382559856166
 20
197.4519760042084
 30
0.0
 10
50.26960688934676
 20
197.8254831858193
 30
0.0
 10
50.13248381999127
 20
198.0691768319722
 30
0.0
 10
50.09536290841645
 20
198.1351477173433
 30
0.0
  0
DIMENSION
  5
316
330
1F
100
AcDbEntity
  8
0
  6
Continuous
 62
     7
370
    18
100
AcDbDimension
  2
_D_11
 10
56.2178423467
 20
161.6232880446
 30
0.0
 11
46.2178423467
 21
161.6232880446
 31
0.0
 70
   160
  1
<>
 71
     2
 42
-1.0
  3
SLDDIMSTYLE0
100
AcDbAlignedDimension
 13
36.2178423467
 23
170.0868883187
 33
0.0
 14
56.2178423467
 24
170.0868883187
 34
0.0
100
AcDbRotatedDimension
  0
DIMENSION
  5
320
330
1F
100
AcDbEntity
  8
0
  6
Continuous
 62
     7
370
    18
100
AcDbDimension
  2
_D_12
 10
66.4679454244
 20
170.0868883187
 30
0.0
 11
66.4679454244
 21
186.5868883187
 31
0.0
 70
   160
  1
<>
 71
     2
 42
-1.0
  3
SLDDIMSTYLE0
100
AcDbAlignedDimension
 13
53.2178423467
 23
203.0868883187
 33
0.0
 14
56.2178423467
 24
170.0868883187
 34
0.0
 50
90.0
100
AcDbRotatedDimension
  0
DIMENSION
  5
32A
330
1F
100
AcDbEntity
  8
0
  6
Continuous
 62
     7
370
    18
100
AcDbDimension
  2
_D_13
 10
73.8055945354
 20
170.0868883187
 30
0.0
 11
73.8055945354
 21
190.5868883215
 31
0.0
 70
   160
  1
<>
 71
     2
 42
-1.0
  3
SLDDIMSTYLE0
100
AcDbAlignedDimension
 13
53.3885536049
 23
211.0868883224
 33
0.0
 14
56.2178423467
 24
170.0868883187
 34
0.0
 50
90.0
100
AcDbRotatedDimension
  0
DIMENSION
  5
334
330
1F
100
AcDbEntity
  8
0
  6
Continuous
 62
     7
370
    18
100
AcDbDimension
  2
_D_14
 10
30.1166781209
 20
170.0868883187
 30
0.0
 11
30.1166781209
 21
188.0868883187
 31
0.0
 70
   160
  1
<>
 71
     2
 42
-1.0
  3
SLDDIMSTYLE0
100
AcDbAlignedDimension
 13
41.4678423467
 23
206.0868883187
 33
0.0
 14
36.2178423467
 24
170.0868883187
 34
0.0
 50
90.0
100
AcDbRotatedDimension
  0
DIMENSION
  5
33E
330
1F
100
AcDbEntity
  8
0
  6
Continuous
 62
     7
370
    18
100
AcDbDimension
  2
_D_15
 10
73.8055945354
 20
211.086888325
 30
0.0
 11
73.8055945347
 21
216.0440995986
 31
0.0
 70
   160
  1
(<>)
 71
     2
 42
-1.0
  3
SLDDIMSTYLE2
100
AcDbAlignedDimension
 13
47.8178423467
 23
221.0013108687
 33
0.0
 14
53.3885536049
 24
211.0868883224
 34
0.0
 50
90.0
100
AcDbRotatedDimension
  0
DIMENSION
  5
34C
330
1F
100
AcDbEntity
  8
0
  6
Continuous
 62
     7
370
    18
100
AcDbDimension
  2
_D_16
 10
47.8178423467
 20
227.5275216295
 30
0.0
 11
56.2210103394
 21
227.5275216295
 31
0.0
 70
   160
  1
(<>)
 71
     2
 42
-1.0
  3
SLDDIMSTYLE6
100
AcDbAlignedDimension
 13
44.6178423467
 23
221.0013108687
 33
0.0
 14
47.8178423467
 24
221.0013108687
 34
0.0
100
AcDbRotatedDimension
  0
DIMENSION
  5
35B
330
1F
100
AcDbEntity
  8
0
  6
Continuous
 62
     7
370
    18
100
AcDbDimension
  2
_D_17
 10
52.025567309
 20
235.4088409554
 30
0.0
 11
46.2178423467
 21
235.4088409554
 31
0.0
 70
   160
  1
(<>)
 71
     2
 42
-1.0
  3
SLDDIMSTYLE2
100
AcDbAlignedDimension
 13
40.4101173844
 23
209.8378683449
 33
0.0
 14
52.025567309
 24
209.8378683449
 34
0.0
100
AcDbRotatedDimension
  0
INSERT
  5
374
330
1F
100
AcDbEntity
  8
0
  6
Continuous
 62
     7
370
    18
100
AcDbBlockReference
  2
SW_CENTERMARKSYMBOL_0
 10
46.2178423467
 20
199.0868883187
 30
0.0
  0
INSERT
  5
380
330
1F
100
AcDbEntity
  8
0
  6
Continuous
 62
     7
370
    18
100
AcDbBlockReference
  2
SW_CENTERMARKSYMBOL_1
 10
53.2178423467
 20
200.0868883187
 30
0.0
  0
INSERT
  5
38C
330
1F
100
AcDbEntity
  8
0
  6
Continuous
 62
     7
370
    18
100
AcDbBlockReference
  2
SW_CENTERMARKSYMBOL_2
 10
39.2178423467
 20
200.0868883187
 30
0.0
  0
INSERT
  5
398
330
1F
100
AcDbEntity
  8
0
  6
Continuous
 62
     7
370
    18
100
AcDbBlockReference
  2
SW_CENTERMARKSYMBOL_3
 10
46.2178423467
 20
188.0868883187
 30
0.0
  0
INSERT
  5
3A4
330
1F
100
AcDbEntity
  8
0
  6
Continuous
 62
     7
370
    18
100
AcDbBlockReference
  2
SW_CENTERMARKSYMBOL_4
 10
53.7178423467
 20
188.0868883187
 30
0.0
  0
INSERT
  5
3B0
330
1F
100
AcDbEntity
  8
0
  6
Continuous
 62
     7
370
    18
100
AcDbBlockReference
  2
SW_CENTERMARKSYMBOL_5
 10
46.2178423467
 20
206.0868883187
 30
0.0
  0
LINE
  5
3B1
330
1F
100
AcDbEntity
  8
0
  6
Continuous
 62
     7
370
    18
100
AcDbLine
 10
113.8161619502
 20
104.7584757497
 30
0.0
 11
113.3161619502
 21
104.7584757497
 31
0.0
  0
LINE
  5
3B2
330
1F
100
AcDbEntity
  8
0
  6
Continuous
 62
     7
370
    18
100
AcDbLine
 10
113.3161619502
 20
97.7584757497
 30
0.0
 11
113.8161619502
 21
97.7584757497
 31
0.0
  0
LINE
  5
3B3
330
1F
100
AcDbEntity
  8
0
  6
Continuous
 62
     7
370
    18
100
AcDbLine
 10
107.9781087007
 20
107.2584757497
 30
0.0
 11
111.4161619503
 21
107.2584757497
 31
0.0
  0
LINE
  5
3B4
330
1F
100
AcDbEntity
  8
0
  6
Continuous
 62
     7
370
    18
100
AcDbLine
 10
107.8161619503
 20
107.5389757497
 30
0.0
 11
107.9781087007
 21
107.2584757498
 31
0.0
  0
LINE
  5
3B5
330
1F
100
AcDbEntity
  8
0
  6
Continuous
 62
     7
370
    18
100
AcDbLine
 10
111.4161619503
 20
110.2584757497
 30
0.0
 11
107.9781087008
 21
110.2584757497
 31
0.0
  0
LINE
  5
3B6
330
1F
100
AcDbEntity
  8
0
  6
Continuous
 62
     7
370
    18
100
AcDbLine
 10
107.9781087007
 20
110.2584757496
 30
0.0
 11
107.8161619503
 21
109.9779757497
 31
0.0
  0
LINE
  5
3B7
330
1F
100
AcDbEntity
  8
0
  6
Continuous
 62
     7
370
    18
100
AcDbLine
 10
100.8161619502
 20
97.2584757497
 30
0.0
 11
109.7705738565
 21
97.2584757497
 31
0.0
  0
LINE
  5
3B8
330
1F
100
AcDbEntity
  8
0
  6
Continuous
 62
     7
370
    18
100
AcDbLine
 10
109.7705738565
 20
97.2584757497
 30
0.0
 11
110.1345440908
 21
98.2584757497
 31
0.0
  0
LINE
  5
3B9
330
1F
100
AcDbEntity
  8
0
  6
Continuous
 62
     7
370
    18
100
AcDbLine
 10
110.1345440908
 20
104.2584757497
 30
0.0
 11
109.7705738565
 21
105.2584757497
 31
0.0
  0
LINE
  5
3BA
330
1F
100
AcDbEntity
  8
0
  6
Continuous
 62
     7
370
    18
100
AcDbLine
 10
109.7705738565
 20
105.2584757497
 30
0.0
 11
100.8161619502
 21
105.2584757497
 31
0.0
  0
ARC
  5
3BB
330
1F
100
AcDbEntity
  8
0
  6
Continuous
 62
     7
370
    18
100
AcDbCircle
 10
99.2161619502
 20
97.8084757497
 30
0.0
 40
0.5
100
AcDbArc
 50
180.0
 51
270.0
  0
LINE
  5
3BC
330
1F
100
AcDbEntity
  8
0
  6
Continuous
 62
     7
370
    18
100
AcDbLine
 10
99.2161619502
 20
97.3084757497
 30
0.0
 11
100.2161619502
 21
97.3084757497
 31
0.0
  0
ARC
  5
3BD
330
1F
100
AcDbEntity
  8
0
  6
Continuous
 62
     7
370
    18
100
AcDbCircle
 10
99.2161619502
 20
104.7084757497
 30
0.0
 40
0.5
100
AcDbArc
 50
90.0
 51
180.0
  0
LINE
  5
3BE
330
1F
100
AcDbEntity
  8
0
  6
Continuous
 62
     7
370
    18
100
AcDbLine
 10
100.2161619502
 20
105.2084757497
 30
0.0
 11
99.2161619502
 21
105.2084757497
 31
0.0
  0
LINE
  5
3BF
330
1F
100
AcDbEntity
  8
0
  6
Continuous
 62
     7
370
    18
100
AcDbLine
 10
110.1345440908
 20
98.2584757497
 30
0.0
 11
112.3161619502
 21
98.2584757497
 31
0.0
  0
LINE
  5
3C0
330
1F
100
AcDbEntity
  8
0
  6
Continuous
 62
     7
370
    18
100
AcDbLine
 10
112.3161619502
 20
104.2584757497
 30
0.0
 11
110.1345440908
 21
104.2584757497
 31
0.0
  0
LINE
  5
3C1
330
1F
100
AcDbEntity
  8
0
  6
Continuous
 62
     7
370
    18
100
AcDbLine
 10
112.3161619502
 20
98.5084757497
 30
0.0
 11
112.8161619502
 21
98.5084757497
 31
0.0
  0
LINE
  5
3C2
330
1F
100
AcDbEntity
  8
0
  6
Continuous
 62
     7
370
    18
100
AcDbLine
 10
112.8161619502
 20
104.0084757497
 30
0.0
 11
112.3161619502
 21
104.0084757497
 31
0.0
  0
LINE
  5
3C3
330
1F
100
AcDbEntity
  8
0
  6
Continuous
 62
     7
370
    18
100
AcDbLine
 10
112.8161619502
 20
98.7584757497
 30
0.0
 11
113.3161619502
 21
98.7584757497
 31
0.0
  0
LINE
  5
3C4
330
1F
100
AcDbEntity
  8
0
  6
Continuous
 62
     7
370
    18
100
AcDbLine
 10
113.3161619502
 20
103.7584757497
 30
0.0
 11
112.8161619502
 21
103.7584757497
 31
0.0
  0
LINE
  5
3C5
330
1F
100
AcDbEntity
  8
0
  6
Continuous
 62
     7
370
    18
100
AcDbLine
 10
100.2161619502
 20
99.0584757497
 30
0.0
 11
100.8161619502
 21
99.0584757497
 31
0.0
  0
LINE
  5
3C6
330
1F
100
AcDbEntity
  8
0
  6
Continuous
 62
     7
370
    18
100
AcDbLine
 10
100.8161619502
 20
103.4584757497
 30
0.0
 11
100.2161619502
 21
103.4584757497
 31
0.0
  0
ARC
  5
3C7
330
1F
100
AcDbEntity
  8
0
  6
Continuous
 62
     7
370
    18
100
AcDbCircle
 10
169.8911619502
 20
110.3834757497
 30
0.0
 40
0.125
100
AcDbArc
 50
0.0
 51
90.0
  0
ARC
  5
3C8
330
1F
100
AcDbEntity
  8
0
  6
Continuous
 62
     7
370
    18
100
AcDbCircle
 10
169.8911619502
 20
96.3834757497
 30
0.0
 40
0.125
100
AcDbArc
 50
0.0
 51
90.0
  0
LINE
  5
3C9
330
1F
100
AcDbEntity
  8
0
  6
Continuous
 62
     7
370
    18
100
AcDbLine
 10
169.8911619502
 20
96.5084757497
 30
0.0
 11
167.5161619502
 21
96.5084757497
 31
0.0
  0
LINE
  5
3CA
330
1F
100
AcDbEntity
  8
0
  6
Continuous
 62
     7
370
    18
100
AcDbLine
 10
169.8911619502
 20
110.5084757497
 30
0.0
 11
167.5161619502
 21
110.5084757497
 31
0.0
  0
ARC
  5
3CB
330
1F
100
AcDbEntity
  8
0
  6
Continuous
 62
     7
370
    18
100
AcDbCircle
 10
169.8911619502
 20
106.1334757497
 30
0.0
 40
0.125
100
AcDbArc
 50
270.0
 51
0.0
  0
ARC
  5
3CC
330
1F
100
AcDbEntity
  8
0
  6
Continuous
 62
     7
370
    18
100
AcDbCircle
 10
169.8911619502
 20
92.1334757497
 30
0.0
 40
0.125
100
AcDbArc
 50
270.0
 51
0.0
  0
LINE
  5
3CD
330
1F
100
AcDbEntity
  8
0
  6
Continuous
 62
     7
370
    18
100
AcDbLine
 10
167.5161619502
 20
92.0084757497
 30
0.0
 11
169.8911619502
 21
92.0084757497
 31
0.0
  0
LINE
  5
3CE
330
1F
100
AcDbEntity
  8
0
  6
Continuous
 62
     7
370
    18
100
AcDbLine
 10
167.5161619502
 20
106.0084757497
 30
0.0
 11
169.8911619502
 21
106.0084757497
 31
0.0
  0
LINE
  5
3CF
330
1F
100
AcDbEntity
  8
0
  6
Continuous
 62
     7
370
    18
100
AcDbLine
 10
113.8161619502
 20
105.2584757497
 30
0.0
 11
112.1161619502
 21
105.2584757497
 31
0.0
  0
LINE
  5
3D0
330
1F
100
AcDbEntity
  8
0
  6
Continuous
 62
     7
370
    18
100
AcDbLine
 10
112.1161619502
 20
97.2584757497
 30
0.0
 11
113.8161619502
 21
97.2584757497
 31
0.0
  0
LINE
  5
3D1
330
1F
100
AcDbEntity
  8
0
  6
Continuous
 62
     7
370
    18
100
AcDbLine
 10
111.5161619502
 20
105.2084757497
 30
0.0
 11
110.5161619502
 21
105.2084757497
 31
0.0
  0
LINE
  5
3D2
330
1F
100
AcDbEntity
  8
0
  6
Continuous
 62
     7
370
    18
100
AcDbLine
 10
110.5161619502
 20
97.3084757497
 30
0.0
 11
111.5161619502
 21
97.3084757497
 31
0.0
  0
ARC
  5
3D3
330
1F
100
AcDbEntity
  8
0
  6
Continuous
 62
     7
370
    18
100
AcDbCircle
 10
110.5161619502
 20
104.7084757497
 30
0.0
 40
0.5
100
AcDbArc
 50
90.0
 51
180.0
  0
ARC
  5
3D4
330
1F
100
AcDbEntity
  8
0
  6
Continuous
 62
     7
370
    18
100
AcDbCircle
 10
110.5161619502
 20
97.8084757497
 30
0.0
 40
0.5
100
AcDbArc
 50
180.0
 51
270.0
  0
LINE
  5
3D5
330
1F
100
AcDbEntity
  8
0
  6
Continuous
 62
     7
370
    18
100
AcDbLine
 10
173.3872699363
 20
95.5140126165
 30
0.0
 11
173.3161619502
 21
95.5140126165
 31
0.0
  0
ELLIPSE
  5
3D6
330
1F
100
AcDbEntity
  8
0
  6
Continuous
 62
     7
370
    18
100
AcDbEllipse
 10
177.2018841126
 20
117.4507507874
 30
0.0
 11
3.858366568868832
 21
21.99988734631879
 31
0.0
210
0.0
220
0.0
230
1.0
 40
0.0182471478
 41
3.220646878348076
 42
3.66997266980426
  0
LINE
  5
3D7
330
1F
100
AcDbEntity
  8
0
  6
Continuous
 62
     7
370
    18
100
AcDbLine
 10
174.1161619502
 20
100.1213283314
 30
0.0
 11
174.1161619502
 21
99.624180913
 31
0.0
  0
LINE
  5
3D8
330
1F
100
AcDbEntity
  8
0
  6
Continuous
 62
     7
370
    18
100
AcDbLine
 10
173.3872699363
 20
95.5140126165
 30
0.0
 11
174.1161619502
 21
99.624180913
 31
0.0
  0
LINE
  5
3D9
330
1F
100
AcDbEntity
  8
0
  6
Continuous
 62
     7
370
    18
100
AcDbLine
 10
174.1161619502
 20
100.1213283314
 30
0.0
 11
173.3161619502
 21
100.1213283314
 31
0.0
  0
LINE
  5
3DA
330
1F
100
AcDbEntity
  8
0
  6
Continuous
 62
     7
370
    18
100
AcDbLine
 10
174.1161619502
 20
98.664180913
 30
0.0
 11
174.1161619502
 21
99.624180913
 31
0.0
  0
LINE
  5
3DB
330
1F
100
AcDbEntity
  8
0
  6
Continuous
 62
     7
370
    18
100
AcDbLine
 10
174.072080205
 20
98.4156072039
 30
0.0
 11
174.1161619502
 21
98.664180913
 31
0.0
  0
ELLIPSE
  5
3DC
330
1F
100
AcDbEntity
  8
0
  6
Continuous
 62
     7
370
    18
100
AcDbEllipse
 10
174.1161619502
 20
100.511809083
 30
0.0
 11
0.3492024126998672
 21
0.4996920733915147
 31
0.0
210
0.0
220
0.0
230
1.0
 40
0.0502434552
 41
3.851282676256014
 42
4.640616476243624
  0
LINE
  5
3DD
330
1F
100
AcDbEntity
  8
0
  6
Continuous
 62
     7
370
    18
100
AcDbLine
 10
174.1161619502
 20
100.4584757497
 30
0.0
 11
174.1161619502
 21
100.1213283314
 31
0.0
  0
LINE
  5
3DE
330
1F
100
AcDbEntity
  8
0
  6
Continuous
 62
     7
370
    18
100
AcDbLine
 10
173.3872699363
 20
107.0029388829
 30
0.0
 11
173.3161619502
 21
107.0029388829
 31
0.0
  0
ELLIPSE
  5
3DF
330
1F
100
AcDbEntity
  8
0
  6
Continuous
 62
     7
370
    18
100
AcDbEllipse
 10
177.2018841126
 20
85.066200712
 30
0.0
 11
-3.858366568868576
 21
21.99988734631849
 31
0.0
210
0.0
220
0.0
230
1.0
 40
0.0182471478
 41
5.754805290966363
 42
6.204131082422905
  0
LINE
  5
3E0
330
1F
100
AcDbEntity
  8
0
  6
Continuous
 62
     7
370
    18
100
AcDbLine
 10
173.3872699363
 20
107.0029388829
 30
0.0
 11
174.1161619502
 21
102.8927705864
 31
0.0
  0
LINE
  5
3E1
330
1F
100
AcDbEntity
  8
0
  6
Continuous
 62
     7
370
    18
100
AcDbLine
 10
174.1161619502
 20
102.8927705864
 30
0.0
 11
174.1161619502
 21
102.395623168
 31
0.0
  0
LINE
  5
3E2
330
1F
100
AcDbEntity
  8
0
  6
Continuous
 62
     7
370
    18
100
AcDbLine
 10
174.1161619502
 20
102.395623168
 30
0.0
 11
173.3161619502
 21
102.395623168
 31
0.0
  0
LINE
  5
3E3
330
1F
100
AcDbEntity
  8
0
  6
Continuous
 62
     7
370
    18
100
AcDbLine
 10
174.1161619502
 20
103.8527705864
 30
0.0
 11
174.072080205
 21
104.1013442955
 31
0.0
  0
LINE
  5
3E4
330
1F
100
AcDbEntity
  8
0
  6
Continuous
 62
     7
370
    18
100
AcDbLine
 10
174.1161619502
 20
102.8927705864
 30
0.0
 11
174.1161619502
 21
103.8527705864
 31
0.0
  0
ELLIPSE
  5
3E5
330
1F
100
AcDbEntity
  8
0
  6
Continuous
 62
     7
370
    18
100
AcDbEllipse
 10
174.1161619502
 20
102.0051424164
 30
0.0
 11
-0.3492024126998388
 21
0.4996920733915005
 31
0.0
210
0.0
220
0.0
230
1.0
 40
0.0502434552
 41
4.784161484525821
 42
5.573495284514957
  0
LINE
  5
3E6
330
1F
100
AcDbEntity
  8
0
  6
Continuous
 62
     7
370
    18
100
AcDbLine
 10
174.1161619502
 20
102.395623168
 30
0.0
 11
174.1161619502
 21
102.0584757497
 31
0.0
  0
LINE
  5
3E7
330
1F
100
AcDbEntity
  8
0
  6
Continuous
 62
     7
370
    18
100
AcDbLine
 10
113.8161619502
 20
97.7688615071
 30
0.0
 11
113.3161619502
 21
97.7688615071
 31
0.0
  0
LINE
  5
3E8
330
1F
100
AcDbEntity
  8
0
  6
Continuous
 62
     7
370
    18
100
AcDbLine
 10
113.3161619502
 20
104.7584757497
 30
0.0
 11
113.3161619502
 21
97.7688615071
 31
0.0
  0
LINE
  5
3E9
330
1F
100
AcDbEntity
  8
0
  6
Continuous
 62
     7
370
    18
100
AcDbLine
 10
113.3161619502
 20
97.7688615071
 30
0.0
 11
113.3161619502
 21
97.7584757497
 31
0.0
  0
SPLINE
  5
3EA
330
1F
100
AcDbEntity
  8
0
  6
Continuous
 62
     7
370
    18
100
AcDbSpline
210
0.0
220
0.0
230
1.0
 70
     8
 71
     3
 72
     8
 73
     4
 74
     0
 42
0.00000001
 43
0.00000001
 40
0.0
 40
0.0
 40
0.0
 40
0.0
 40
1.0
 40
1.0
 40
1.0
 40
1.0
 10
111.6617820624883
 20
106.0084756919791
 30
0.0
 10
111.5120353770283
 20
106.4577157342411
 30
0.0
 10
111.416161950202
 20
106.914173454982
 30
0.0
 10
111.416161950202
 20
107.3834757496914
 30
0.0
  0
SPLINE
  5
3EB
330
1F
100
AcDbEntity
  8
0
  6
Continuous
 62
     7
370
    18
100
AcDbSpline
210
0.0
220
0.0
230
1.0
 70
     8
 71
     3
 72
     8
 73
     4
 74
     0
 42
0.00000001
 43
0.00000001
 40
0.0
 40
0.0
 40
0.0
 40
0.0
 40
1.0
 40
1.0
 40
1.0
 40
1.0
 10
111.416161950202
 20
107.3834757496914
 30
0.0
 10
111.416161950202
 20
107.8527780041423
 30
0.0
 10
111.5120353531596
 20
108.309235658824
 30
0.0
 10
111.6617820152691
 20
108.758475665746
 30
0.0
  0
LINE
  5
3EC
330
1F
100
AcDbEntity
  8
0
  6
Continuous
 62
     7
370
    18
100
AcDbLine
 10
113.8161619502
 20
108.7584757497
 30
0.0
 11
111.6617820529
 21
108.7584757208
 31
0.0
  0
LINE
  5
3ED
330
1F
100
AcDbEntity
  8
0
  6
Continuous
 62
     7
370
    18
100
AcDbLine
 10
113.8161619502
 20
106.0084757497
 30
0.0
 11
111.6617820529
 21
106.0084757208
 31
0.0
  0
SPLINE
  5
3EE
330
1F
100
AcDbEntity
  8
0
  6
Continuous
 62
     7
370
    18
100
AcDbSpline
210
0.0
220
0.0
230
1.0
 70
     8
 71
     3
 72
     8
 73
     4
 74
     0
 42
0.00000001
 43
0.00000001
 40
0.0
 40
0.0
 40
0.0
 40
0.0
 40
1.0
 40
1.0
 40
1.0
 40
1.0
 10
111.6617820624866
 20
108.7584756919841
 30
0.0
 10
111.5120353770273
 20
109.2077157342453
 30
0.0
 10
111.416161950202
 20
109.664173454983
 30
0.0
 10
111.416161950202
 20
110.1334757496914
 30
0.0
  0
SPLINE
  5
3EF
330
1F
100
AcDbEntity
  8
0
  6
Continuous
 62
     7
370
    18
100
AcDbSpline
210
0.0
220
0.0
230
1.0
 70
     8
 71
     3
 72
     8
 73
     4
 74
     0
 42
0.00000001
 43
0.00000001
 40
0.0
 40
0.0
 40
0.0
 40
0.0
 40
1.0
 40
1.0
 40
1.0
 40
1.0
 10
111.416161950202
 20
110.1334757496914
 30
0.0
 10
111.416161950202
 20
110.6027780408886
 30
0.0
 10
111.5120353781486
 20
111.0592357685024
 30
0.0
 10
111.6617820624879
 20
111.5084758074024
 30
0.0
  0
LINE
  5
3F0
330
1F
100
AcDbEntity
  8
0
  6
Continuous
 62
     7
370
    18
100
AcDbLine
 10
113.8161619502
 20
111.5084757497
 30
0.0
 11
111.6617820289
 21
111.5084757497
 31
0.0
  0
LINE
  5
3F1
330
1F
100
AcDbEntity
  8
0
  6
Continuous
 62
     7
370
    18
100
AcDbLine
 10
113.8161619502
 20
111.5084757497
 30
0.0
 11
113.8161619502
 21
111.2584757497
 31
0.0
  0
LINE
  5
3F2
330
1F
100
AcDbEntity
  8
0
  6
Continuous
 62
     7
370
    18
100
AcDbLine
 10
111.4161619502
 20
110.1334757497
 30
0.0
 11
111.4161619502
 21
107.3834757497
 31
0.0
  0
SPLINE
  5
3F3
330
1F
100
AcDbEntity
  8
0
  6
Continuous
 62
     7
370
    18
100
AcDbSpline
210
0.0
220
0.0
230
1.0
 70
    24
 71
     3
 72
     8
 73
     4
 74
     0
 42
0.00000001
 43
0.00000001
 40
0.0
 40
0.0
 40
0.0
 40
0.0
 40
1.0
 40
1.0
 40
1.0
 40
1.0
 10
111.416161950202
 20
106.0084757496914
 30
0.0
 10
111.416161950202
 20
106.0084757496914
 30
0.0
 10
111.512035353159
 20
106.0084757496914
 30
0.0
 10
111.6617820152675
 20
106.0084757496914
 30
0.0
  0
LINE
  5
3F4
330
1F
100
AcDbEntity
  8
0
  6
Continuous
 62
     7
370
    18
100
AcDbLine
 10
111.4161619502
 20
107.3834757497
 30
0.0
 11
111.4161619502
 21
106.0084757497
 31
0.0
  0
SPLINE
  5
3F5
330
1F
100
AcDbEntity
  8
0
  6
Continuous
 62
     7
370
    18
100
AcDbSpline
210
0.0
220
0.0
230
1.0
 70
     8
 71
     3
 72
     8
 73
     4
 74
     0
 42
0.00000001
 43
0.00000001
 40
0.0
 40
0.0
 40
0.0
 40
0.0
 40
1.0
 40
1.0
 40
1.0
 40
1.0
 10
111.6617820058297
 20
111.5084757641075
 30
0.0
 10
111.5120353443074
 20
111.5084757641075
 30
0.0
 10
111.416161950202
 20
111.5084757496914
 30
0.0
 10
111.416161950202
 20
111.5084757496914
 30
0.0
  0
LINE
  5
3F6
330
1F
100
AcDbEntity
  8
0
  6
Continuous
 62
     7
370
    18
100
AcDbLine
 10
111.4161619502
 20
111.5084757497
 30
0.0
 11
111.4161619502
 21
110.1334757497
 31
0.0
  0
LINE
  5
3F7
330
1F
100
AcDbEntity
  8
0
  6
Continuous
 62
     7
370
    18
100
AcDbLine
 10
107.9781087007
 20
110.0995039902
 30
0.0
 11
107.9781087007
 21
107.2584757497
 31
0.0
  0
LINE
  5
3F8
330
1F
100
AcDbEntity
  8
0
  6
Continuous
 62
     7
370
    18
100
AcDbLine
 10
107.8161619503
 20
109.8487317092
 30
0.0
 11
107.8161619503
 21
107.5389757497
 31
0.0
  0
LINE
  5
3F9
330
1F
100
AcDbEntity
  8
0
  6
Continuous
 62
     7
370
    18
100
AcDbLine
 10
107.9781087007
 20
110.0995039902
 30
0.0
 11
107.8161619503
 21
109.8487317092
 31
0.0
  0
LINE
  5
3FA
330
1F
100
AcDbEntity
  8
0
  6
Continuous
 62
     7
370
    18
100
AcDbLine
 10
107.9781087007
 20
110.2584757497
 30
0.0
 11
107.9781087007
 21
110.0995039902
 31
0.0
  0
LINE
  5
3FB
330
1F
100
AcDbEntity
  8
0
  6
Continuous
 62
     7
370
    18
100
AcDbLine
 10
107.8161619503
 20
109.9779757497
 30
0.0
 11
107.8161619503
 21
109.8487317092
 31
0.0
  0
LINE
  5
3FC
330
1F
100
AcDbEntity
  8
0
  6
Continuous
 62
     7
370
    18
100
AcDbLine
 10
100.8161619502
 20
101.5663955648
 30
0.0
 11
109.7705738565
 21
101.5663955648
 31
0.0
  0
LINE
  5
3FD
330
1F
100
AcDbEntity
  8
0
  6
Continuous
 62
     7
370
    18
100
AcDbLine
 10
109.7705738565
 20
97.2584757497
 30
0.0
 11
109.7705738565
 21
101.5663955648
 31
0.0
  0
LINE
  5
3FE
330
1F
100
AcDbEntity
  8
0
  6
Continuous
 62
     7
370
    18
100
AcDbLine
 10
100.8161619502
 20
97.2584757497
 30
0.0
 11
100.8161619502
 21
101.5663955648
 31
0.0
  0
LINE
  5
3FF
330
1F
100
AcDbEntity
  8
0
  6
Continuous
 62
     7
370
    18
100
AcDbLine
 10
109.7705738566
 20
101.5663955648
 30
0.0
 11
110.1345440908
 21
101.489415611
 31
0.0
  0
LINE
  5
400
330
1F
100
AcDbEntity
  8
0
  6
Continuous
 62
     7
370
    18
100
AcDbLine
 10
110.1345440908
 20
98.2584757497
 30
0.0
 11
110.1345440908
 21
101.4894156111
 31
0.0
  0
LINE
  5
401
330
1F
100
AcDbEntity
  8
0
  6
Continuous
 62
     7
370
    18
100
AcDbLine
 10
110.1345440908
 20
101.4894156111
 30
0.0
 11
110.1345440908
 21
104.2584757497
 31
0.0
  0
LINE
  5
402
330
1F
100
AcDbEntity
  8
0
  6
Continuous
 62
     7
370
    18
100
AcDbLine
 10
109.7705738565
 20
101.5663955648
 30
0.0
 11
109.7705738565
 21
105.2584757497
 31
0.0
  0
LINE
  5
403
330
1F
100
AcDbEntity
  8
0
  6
Continuous
 62
     7
370
    18
100
AcDbLine
 10
100.8161619502
 20
105.2584757497
 30
0.0
 11
100.8161619502
 21
101.5663955648
 31
0.0
  0
ARC
  5
404
330
1F
100
AcDbEntity
  8
0
  6
Continuous
 62
     7
370
    18
100
AcDbCircle
 10
99.0919026894
 20
99.9098797205
 30
0.0
 40
1.657331611307779
100
AcDbArc
 50
85.7001855921
 51
103.1037043596
  0
SPLINE
  5
405
330
1F
100
AcDbEntity
  8
0
  6
Continuous
 62
     7
370
    18
100
AcDbSpline
210
0.0
220
0.0
230
1.0
 70
    24
 71
     3
 72
    17
 73
    13
 74
     0
 42
0.00000001
 43
0.00000001
 40
0.0
 40
0.0
 40
0.0
 40
0.0
 40
0.1143984358845243
 40
0.228750804175602
 40
0.2911446028092935
 40
0.352858678181402
 40
0.4767099010485756
 40
0.6006554447595535
 40
0.7245066251509389
 40
0.8389283277301163
 40
0.9532566127044785
 40
1.0
 40
1.0
 40
1.0
 40
1.0
 10
98.7161619502176
 20
101.524056590264
 30
0.0
 10
98.7161619502176
 20
101.3069732435226
 30
0.0
 10
98.71616195021763
 20
100.8728939682576
 30
0.0
 10
98.7161619502176
 20
100.3298765707057
 30
0.0
 10
98.7161619502176
 20
99.90537318140888
 30
0.0
 10
98.7161619502176
 20
99.4825153980743
 30
0.0
 10
98.71616195021763
 20
98.99850578807931
 30
0.0
 10
98.7161619502176
 20
98.50940732049858
 30
0.0
 10
98.7161619502176
 20
98.14503730015589
 30
0.0
 10
98.7161619502176
 20
97.91320501057474
 30
0.0
 10
98.7161619502176
 20
97.80737939894586
 30
0.0
 10
98.71616195021763
 20
97.81953269346215
 30
0.0
 10
98.7161619502176
 20
97.82305960880663
 30
0.0
  0
LINE
  5
406
330
1F
100
AcDbEntity
  8
0
  6
Continuous
 62
     7
370
    18
100
AcDbLine
 10
99.2161619502
 20
101.5625465672
 30
0.0
 11
100.2161619502
 21
101.5625465672
 31
0.0
  0
LINE
  5
407
330
1F
100
AcDbEntity
  8
0
  6
Continuous
 62
     7
370
    18
100
AcDbLine
 10
100.2161619502
 20
101.5625465672
 30
0.0
 11
100.2161619502
 21
97.3084757497
 31
0.0
  0
SPLINE
  5
408
330
1F
100
AcDbEntity
  8
0
  6
Continuous
 62
     7
370
    18
100
AcDbSpline
210
0.0
220
0.0
230
1.0
 70
    24
 71
     3
 72
    16
 73
    12
 74
     0
 42
0.00000001
 43
0.00000001
 40
0.0
 40
0.0
 40
0.0
 40
0.0
 40
0.0746579548738397
 40
0.2007768837479389
 40
0.2696053524607427
 40
0.3376839980778906
 40
0.4743079928471907
 40
0.611036035765242
 40
0.7476599836781731
 40
0.8738554189388371
 40
1.0
 40
1.0
 40
1.0
 40
1.0
 10
98.7161619502176
 20
104.6938918905761
 30
0.0
 10
98.7161619502176
 20
104.6957570571352
 30
0.0
 10
98.71616195021757
 20
104.7007730307182
 30
0.0
 10
98.71616195021763
 20
104.5920512313461
 30
0.0
 10
98.7161619502176
 20
104.4393599563169
 30
0.0
 10
98.7161619502176
 20
104.2336156200421
 30
0.0
 10
98.7161619502176
 20
103.8961856216335
 30
0.0
 10
98.71616195021763
 20
103.3845106287385
 30
0.0
 10
98.7161619502176
 20
102.7969645159892
 30
0.0
 10
98.7161619502176
 20
102.1698815889182
 30
0.0
 10
98.7161619502176
 20
101.7393026648925
 30
0.0
 10
98.7161619502176
 20
101.524056590264
 30
0.0
  0
LINE
  5
409
330
1F
100
AcDbEntity
  8
0
  6
Continuous
 62
     7
370
    18
100
AcDbLine
 10
100.2161619502
 20
105.2084757497
 30
0.0
 11
100.2161619502
 21
101.5625465672
 31
0.0
  0
LINE
  5
40A
330
1F
100
AcDbEntity
  8
0
  6
Continuous
 62
     7
370
    18
100
AcDbLine
 10
110.1345440908
 20
101.4894156111
 30
0.0
 11
112.3161619502
 21
101.4894156111
 31
0.0
  0
LINE
  5
40B
330
1F
100
AcDbEntity
  8
0
  6
Continuous
 62
     7
370
    18
100
AcDbLine
 10
112.3161619502
 20
98.2584757497
 30
0.0
 11
112.3161619502
 21
101.4894156111
 31
0.0
  0
LINE
  5
40C
330
1F
100
AcDbEntity
  8
0
  6
Continuous
 62
     7
370
    18
100
AcDbLine
 10
112.3161619502
 20
101.4894156111
 30
0.0
 11
112.3161619502
 21
104.2584757497
 31
0.0
  0
LINE
  5
40D
330
1F
100
AcDbEntity
  8
0
  6
Continuous
 62
     7
370
    18
100
AcDbLine
 10
112.3161619502
 20
101.4701706226
 30
0.0
 11
112.8161619502
 21
101.4701706226
 31
0.0
  0
LINE
  5
40E
330
1F
100
AcDbEntity
  8
0
  6
Continuous
 62
     7
370
    18
100
AcDbLine
 10
112.8161619502
 20
98.5084757497
 30
0.0
 11
112.8161619502
 21
101.4701706226
 31
0.0
  0
LINE
  5
40F
330
1F
100
AcDbEntity
  8
0
  6
Continuous
 62
     7
370
    18
100
AcDbLine
 10
112.8161619502
 20
101.4701706226
 30
0.0
 11
112.8161619502
 21
104.0084757497
 31
0.0
  0
LINE
  5
410
330
1F
100
AcDbEntity
  8
0
  6
Continuous
 62
     7
370
    18
100
AcDbLine
 10
113.3161619502
 20
101.4509256342
 30
0.0
 11
112.8161619502
 21
101.4509256342
 31
0.0
  0
LINE
  5
411
330
1F
100
AcDbEntity
  8
0
  6
Continuous
 62
     7
370
    18
100
AcDbLine
 10
100.8161619502
 20
101.427831648
 30
0.0
 11
100.2161619502
 21
101.427831648
 31
0.0
  0
ARC
  5
412
330
1F
100
AcDbEntity
  8
0
  6
Continuous
 62
     7
370
    18
100
AcDbCircle
 10
145.8161619502
 20
101.2584757497
 30
0.0
 40
3.350000000068576
100
AcDbArc
 50
270.0
 51
90.0
  0
ARC
  5
413
330
1F
100
AcDbEntity
  8
0
  6
Continuous
 62
     7
370
    18
100
AcDbCircle
 10
145.8161619502
 20
101.2584757497
 30
0.0
 40
3.350000000068576
100
AcDbArc
 50
90.0
 51
270.0
  0
ARC
  5
414
330
1F
100
AcDbEntity
  8
0
  6
Continuous
 62
     7
370
    18
100
AcDbCircle
 10
159.8161619502
 20
101.2584757497
 30
0.0
 40
3.350000000068576
100
AcDbArc
 50
270.0
 51
90.0
  0
ARC
  5
415
330
1F
100
AcDbEntity
  8
0
  6
Continuous
 62
     7
370
    18
100
AcDbCircle
 10
159.8161619502
 20
101.2584757497
 30
0.0
 40
3.350000000068576
100
AcDbArc
 50
90.0
 51
270.0
  0
ARC
  5
416
330
1F
100
AcDbEntity
  8
0
  6
Continuous
 62
     7
370
    18
100
AcDbCircle
 10
132.8161619502
 20
101.2584757497
 30
0.0
 40
1.650000000000006
100
AcDbArc
 50
270.0
 51
90.0
  0
ARC
  5
417
330
1F
100
AcDbEntity
  8
0
  6
Continuous
 62
     7
370
    18
100
AcDbCircle
 10
132.8161619502
 20
101.2584757497
 30
0.0
 40
1.650000000000006
100
AcDbArc
 50
90.0
 51
270.0
  0
ARC
  5
418
330
1F
100
AcDbEntity
  8
0
  6
Continuous
 62
     7
370
    18
100
AcDbCircle
 10
152.8161619502
 20
101.2584757497
 30
0.0
 40
1.650000000000006
100
AcDbArc
 50
270.0
 51
90.0
  0
ARC
  5
419
330
1F
100
AcDbEntity
  8
0
  6
Continuous
 62
     7
370
    18
100
AcDbCircle
 10
152.8161619502
 20
101.2584757497
 30
0.0
 40
1.650000000000006
100
AcDbArc
 50
90.0
 51
270.0
  0
LINE
  5
41A
330
1F
100
AcDbEntity
  8
0
  6
Continuous
 62
     7
370
    18
100
AcDbLine
 10
164.3161619502
 20
91.2584757497
 30
0.0
 11
113.8161619502
 21
91.2584757497
 31
0.0
  0
LINE
  5
41B
330
1F
100
AcDbEntity
  8
0
  6
Continuous
 62
     7
370
    18
100
AcDbLine
 10
113.8161619502
 20
91.2584757497
 30
0.0
 11
113.8161619502
 21
111.2584757497
 31
0.0
  0
LINE
  5
41C
330
1F
100
AcDbEntity
  8
0
  6
Continuous
 62
     7
370
    18
100
AcDbLine
 10
113.8161619502
 20
111.2584757497
 30
0.0
 11
164.3161619502
 21
111.2584757497
 31
0.0
  0
LINE
  5
41D
330
1F
100
AcDbEntity
  8
0
  6
Continuous
 62
     7
370
    18
100
AcDbLine
 10
164.3161619502
 20
111.2584757497
 30
0.0
 11
166.3161619502
 21
109.2584757497
 31
0.0
  0
LINE
  5
41E
330
1F
100
AcDbEntity
  8
0
  6
Continuous
 62
     7
370
    18
100
AcDbLine
 10
166.3161619502
 20
109.2584757497
 30
0.0
 11
166.3161619502
 21
93.2584757497
 31
0.0
  0
LINE
  5
41F
330
1F
100
AcDbEntity
  8
0
  6
Continuous
 62
     7
370
    18
100
AcDbLine
 10
166.3161619502
 20
93.2584757497
 30
0.0
 11
164.3161619502
 21
91.2584757497
 31
0.0
  0
LINE
  5
420
330
1F
100
AcDbEntity
  8
0
  6
Continuous
 62
     7
370
    18
100
AcDbLine
 10
145.8161619502
 20
104.2584757498
 30
0.0
 11
145.8161619502
 21
104.6084757498
 31
0.0
  0
LINE
  5
421
330
1F
100
AcDbEntity
  8
0
  6
Continuous
 62
     7
370
    18
100
AcDbLine
 10
145.8161619502
 20
97.9084757496
 30
0.0
 11
145.8161619502
 21
98.2584757496
 31
0.0
  0
LINE
  5
422
330
1F
100
AcDbEntity
  8
0
  6
Continuous
 62
     7
370
    18
100
AcDbLine
 10
159.8161619502
 20
104.2584757498
 30
0.0
 11
159.8161619502
 21
104.6084757498
 31
0.0
  0
LINE
  5
423
330
1F
100
AcDbEntity
  8
0
  6
Continuous
 62
     7
370
    18
100
AcDbLine
 10
159.8161619502
 20
97.9084757496
 30
0.0
 11
159.8161619502
 21
98.2584757496
 31
0.0
  0
LINE
  5
424
330
1F
100
AcDbEntity
  8
0
  6
Continuous
 62
     7
370
    18
100
AcDbLine
 10
145.0181862563
 20
100.4238691805
 30
0.0
 11
144.6943836122
 21
101.5322396876
 31
0.0
  0
LINE
  5
425
330
1F
100
AcDbEntity
  8
0
  6
Continuous
 62
     7
370
    18
100
AcDbLine
 10
146.1399645944
 20
100.1501052426
 30
0.0
 11
145.0181862563
 21
100.4238691805
 31
0.0
  0
LINE
  5
426
330
1F
100
AcDbEntity
  8
0
  6
Continuous
 62
     7
370
    18
100
AcDbLine
 10
146.9379402882
 20
100.9847118118
 30
0.0
 11
146.1399645944
 21
100.1501052426
 31
0.0
  0
LINE
  5
427
330
1F
100
AcDbEntity
  8
0
  6
Continuous
 62
     7
370
    18
100
AcDbLine
 10
146.6141376441
 20
102.0930823189
 30
0.0
 11
146.9379402882
 21
100.9847118118
 31
0.0
  0
LINE
  5
428
330
1F
100
AcDbEntity
  8
0
  6
Continuous
 62
     7
370
    18
100
AcDbLine
 10
145.4923593061
 20
102.3668462568
 30
0.0
 11
146.6141376441
 21
102.0930823189
 31
0.0
  0
LINE
  5
429
330
1F
100
AcDbEntity
  8
0
  6
Continuous
 62
     7
370
    18
100
AcDbLine
 10
144.6943836122
 20
101.5322396876
 30
0.0
 11
145.4923593061
 21
102.3668462568
 31
0.0
  0
ARC
  5
42A
330
1F
100
AcDbEntity
  8
0
  6
Continuous
 62
     7
370
    18
100
AcDbCircle
 10
145.8161619502
 20
101.2584757497
 30
0.0
 40
3.000000000000013
100
AcDbArc
 50
46.2853517439
 51
226.2853517439
  0
ARC
  5
42B
330
1F
100
AcDbEntity
  8
0
  6
Continuous
 62
     7
370
    18
100
AcDbCircle
 10
145.8161619502
 20
101.2584757497
 30
0.0
 40
3.000000000000013
100
AcDbArc
 50
226.2853517439
 51
46.2853517439
  0
LINE
  5
42C
330
1F
100
AcDbEntity
  8
0
  6
Continuous
 62
     7
370
    18
100
AcDbLine
 10
158.6614614118
 20
101.2584757497
 30
0.0
 11
159.238811681
 21
102.2584757497
 31
0.0
  0
LINE
  5
42D
330
1F
100
AcDbEntity
  8
0
  6
Continuous
 62
     7
370
    18
100
AcDbLine
 10
159.238811681
 20
100.2584757497
 30
0.0
 11
158.6614614118
 21
101.2584757497
 31
0.0
  0
LINE
  5
42E
330
1F
100
AcDbEntity
  8
0
  6
Continuous
 62
     7
370
    18
100
AcDbLine
 10
160.3935122194
 20
100.2584757497
 30
0.0
 11
159.238811681
 21
100.2584757497
 31
0.0
  0
LINE
  5
42F
330
1F
100
AcDbEntity
  8
0
  6
Continuous
 62
     7
370
    18
100
AcDbLine
 10
160.9708624886
 20
101.2584757497
 30
0.0
 11
160.3935122194
 21
100.2584757497
 31
0.0
  0
LINE
  5
430
330
1F
100
AcDbEntity
  8
0
  6
Continuous
 62
     7
370
    18
100
AcDbLine
 10
160.3935122194
 20
102.2584757497
 30
0.0
 11
160.9708624886
 21
101.2584757497
 31
0.0
  0
LINE
  5
431
330
1F
100
AcDbEntity
  8
0
  6
Continuous
 62
     7
370
    18
100
AcDbLine
 10
159.238811681
 20
102.2584757497
 30
0.0
 11
160.3935122194
 21
102.2584757497
 31
0.0
  0
ARC
  5
432
330
1F
100
AcDbEntity
  8
0
  6
Continuous
 62
     7
370
    18
100
AcDbCircle
 10
159.8161619502
 20
101.2584757497
 30
0.0
 40
3.0
100
AcDbArc
 50
0.0
 51
180.0
  0
ARC
  5
433
330
1F
100
AcDbEntity
  8
0
  6
Continuous
 62
     7
370
    18
100
AcDbCircle
 10
159.8161619502
 20
101.2584757497
 30
0.0
 40
3.0
100
AcDbArc
 50
180.0
 51
0.0
  0
SPLINE
  5
434
330
1F
100
AcDbEntity
  8
0
  6
Continuous
 62
     7
370
    18
100
AcDbSpline
210
0.0
220
0.0
230
1.0
 70
    24
 71
     3
 72
     8
 73
     4
 74
     0
 42
0.00000001
 43
0.00000001
 40
0.0
 40
0.0
 40
0.0
 40
0.0
 40
1.0
 40
1.0
 40
1.0
 40
1.0
 10
144.6943836122026
 20
101.5322396875899
 30
0.0
 10
144.7317762234698
 20
101.5231142229932
 30
0.0
 10
145.1057023361415
 20
101.4318595770271
 30
0.0
 10
145.8161619502176
 20
101.2584757496914
 30
0.0
  0
SPLINE
  5
435
330
1F
100
AcDbEntity
  8
0
  6
Continuous
 62
     7
370
    18
100
AcDbSpline
210
0.0
220
0.0
230
1.0
 70
    24
 71
     3
 72
     8
 73
     4
 74
     0
 42
0.00000001
 43
0.00000001
 40
0.0
 40
0.0
 40
0.0
 40
0.0
 40
1.0
 40
1.0
 40
1.0
 40
1.0
 10
145.01818625635
 20
100.4238691805046
 30
0.0
 10
145.0447854461455
 20
100.4516893994774
 30
0.0
 10
145.3107773441014
 20
100.7298915892064
 30
0.0
 10
145.8161619502176
 20
101.2584757496914
 30
0.0
  0
SPLINE
  5
436
330
1F
100
AcDbEntity
  8
0
  6
Continuous
 62
     7
370
    18
100
AcDbSpline
210
0.0
220
0.0
230
1.0
 70
    24
 71
     3
 72
     8
 73
     4
 74
     0
 42
0.00000001
 43
0.00000001
 40
0.0
 40
0.0
 40
0.0
 40
0.0
 40
1.0
 40
1.0
 40
1.0
 40
1.0
 10
146.139964594365
 20
100.1501052426061
 30
0.0
 10
146.1291711728934
 20
100.1870509261756
 30
0.0
 10
146.0212369581776
 20
100.5565077618707
 30
0.0
 10
145.8161619502176
 20
101.2584757496914
 30
0.0
  0
SPLINE
  5
437
330
1F
100
AcDbEntity
  8
0
  6
Continuous
 62
     7
370
    18
100
AcDbSpline
210
0.0
220
0.0
230
1.0
 70
    24
 71
     3
 72
     8
 73
     4
 74
     0
 42
0.00000001
 43
0.00000001
 40
0.0
 40
0.0
 40
0.0
 40
0.0
 40
1.0
 40
1.0
 40
1.0
 40
1.0
 10
146.9379402882326
 20
100.9847118117929
 30
0.0
 10
146.9005476769654
 20
100.9938372763895
 30
0.0
 10
146.5266215642937
 20
101.0850919223557
 30
0.0
 10
145.8161619502176
 20
101.2584757496914
 30
0.0
  0
SPLINE
  5
438
330
1F
100
AcDbEntity
  8
0
  6
Continuous
 62
     7
370
    18
100
AcDbSpline
210
0.0
220
0.0
230
1.0
 70
    24
 71
     3
 72
     8
 73
     4
 74
     0
 42
0.00000001
 43
0.00000001
 40
0.0
 40
0.0
 40
0.0
 40
0.0
 40
1.0
 40
1.0
 40
1.0
 40
1.0
 10
145.4923593060702
 20
102.3668462567767
 30
0.0
 10
145.5031527275418
 20
102.3299005732072
 30
0.0
 10
145.6110869422576
 20
101.9604437375121
 30
0.0
 10
145.8161619502176
 20
101.2584757496914
 30
0.0
  0
SPLINE
  5
439
330
1F
100
AcDbEntity
  8
0
  6
Continuous
 62
     7
370
    18
100
AcDbSpline
210
0.0
220
0.0
230
1.0
 70
    24
 71
     3
 72
     8
 73
     4
 74
     0
 42
0.00000001
 43
0.00000001
 40
0.0
 40
0.0
 40
0.0
 40
0.0
 40
1.0
 40
1.0
 40
1.0
 40
1.0
 10
146.6141376440852
 20
102.0930823188782
 30
0.0
 10
146.5875384542896
 20
102.0652620999053
 30
0.0
 10
146.3215465563337
 20
101.7870599101764
 30
0.0
 10
145.8161619502176
 20
101.2584757496914
 30
0.0
  0
SPLINE
  5
43A
330
1F
100
AcDbEntity
  8
0
  6
Continuous
 62
     7
370
    18
100
AcDbSpline
210
0.0
220
0.0
230
1.0
 70
    24
 71
     3
 72
     8
 73
     4
 74
     0
 42
0.00000001
 43
0.00000001
 40
0.0
 40
0.0
 40
0.0
 40
0.0
 40
1.0
 40
1.0
 40
1.0
 40
1.0
 10
160.3935122194071
 20
100.2584757496914
 30
0.0
 10
160.3742672104341
 20
100.2918090830247
 30
0.0
 10
160.1818171207042
 20
100.6251424163581
 30
0.0
 10
159.8161619502175
 20
101.2584757496914
 30
0.0
  0
SPLINE
  5
43B
330
1F
100
AcDbEntity
  8
0
  6
Continuous
 62
     7
370
    18
100
AcDbSpline
210
0.0
220
0.0
230
1.0
 70
    24
 71
     3
 72
     8
 73
     4
 74
     0
 42
0.00000001
 43
0.00000001
 40
0.0
 40
0.0
 40
0.0
 40
0.0
 40
1.0
 40
1.0
 40
1.0
 40
1.0
 10
160.9708624885967
 20
101.2584757496914
 30
0.0
 10
160.9323724706508
 20
101.2584757496914
 30
0.0
 10
160.547472291191
 20
101.2584757496914
 30
0.0
 10
159.8161619502175
 20
101.2584757496914
 30
0.0
  0
SPLINE
  5
43C
330
1F
100
AcDbEntity
  8
0
  6
Continuous
 62
     7
370
    18
100
AcDbSpline
210
0.0
220
0.0
230
1.0
 70
    24
 71
     3
 72
     8
 73
     4
 74
     0
 42
0.00000001
 43
0.00000001
 40
0.0
 40
0.0
 40
0.0
 40
0.0
 40
1.0
 40
1.0
 40
1.0
 40
1.0
 10
160.3935122194071
 20
102.2584757496914
 30
0.0
 10
160.3742672104341
 20
102.2251424163581
 30
0.0
 10
160.1818171207042
 20
101.8918090830247
 30
0.0
 10
159.8161619502175
 20
101.2584757496914
 30
0.0
  0
SPLINE
  5
43D
330
1F
100
AcDbEntity
  8
0
  6
Continuous
 62
     7
370
    18
100
AcDbSpline
210
0.0
220
0.0
230
1.0
 70
    24
 71
     3
 72
     8
 73
     4
 74
     0
 42
0.00000001
 43
0.00000001
 40
0.0
 40
0.0
 40
0.0
 40
0.0
 40
1.0
 40
1.0
 40
1.0
 40
1.0
 10
159.2388116810278
 20
100.2584757496914
 30
0.0
 10
159.2580566900008
 20
100.2918090830247
 30
0.0
 10
159.4505067797307
 20
100.6251424163581
 30
0.0
 10
159.8161619502175
 20
101.2584757496914
 30
0.0
  0
SPLINE
  5
43E
330
1F
100
AcDbEntity
  8
0
  6
Continuous
 62
     7
370
    18
100
AcDbSpline
210
0.0
220
0.0
230
1.0
 70
    24
 71
     3
 72
     8
 73
     4
 74
     0
 42
0.00000001
 43
0.00000001
 40
0.0
 40
0.0
 40
0.0
 40
0.0
 40
1.0
 40
1.0
 40
1.0
 40
1.0
 10
159.2388116810278
 20
102.2584757496914
 30
0.0
 10
159.2580566900008
 20
102.2251424163581
 30
0.0
 10
159.4505067797307
 20
101.8918090830247
 30
0.0
 10
159.8161619502175
 20
101.2584757496914
 30
0.0
  0
SPLINE
  5
43F
330
1F
100
AcDbEntity
  8
0
  6
Continuous
 62
     7
370
    18
100
AcDbSpline
210
0.0
220
0.0
230
1.0
 70
    24
 71
     3
 72
     8
 73
     4
 74
     0
 42
0.00000001
 43
0.00000001
 40
0.0
 40
0.0
 40
0.0
 40
0.0
 40
1.0
 40
1.0
 40
1.0
 40
1.0
 10
158.6614614118382
 20
101.2584757496914
 30
0.0
 10
158.6999514297842
 20
101.2584757496914
 30
0.0
 10
159.084851609244
 20
101.2584757496914
 30
0.0
 10
159.8161619502175
 20
101.2584757496914
 30
0.0
  0
LINE
  5
440
330
1F
100
AcDbEntity
  8
0
  6
Continuous
 62
     7
370
    18
100
AcDbLine
 10
166.3161619502
 20
110.2584757497
 30
0.0
 11
166.3161619502
 21
109.2584757497
 31
0.0
  0
LINE
  5
441
330
1F
100
AcDbEntity
  8
0
  6
Continuous
 62
     7
370
    18
100
AcDbLine
 10
166.3161619502
 20
93.2584757497
 30
0.0
 11
166.3161619502
 21
92.2584757497
 31
0.0
  0
LINE
  5
442
330
1F
100
AcDbEntity
  8
0
  6
Continuous
 62
     7
370
    18
100
AcDbLine
 10
164.3161619502
 20
91.2584757497
 30
0.0
 11
166.3161619502
 21
91.2584757497
 31
0.0
  0
LINE
  5
443
330
1F
100
AcDbEntity
  8
0
  6
Continuous
 62
     7
370
    18
100
AcDbLine
 10
166.3161619502
 20
91.2584757497
 30
0.0
 11
166.3161619502
 21
92.2584757497
 31
0.0
  0
LINE
  5
444
330
1F
100
AcDbEntity
  8
0
  6
Continuous
 62
     7
370
    18
100
AcDbLine
 10
166.3161619502
 20
111.2584757497
 30
0.0
 11
164.3161619502
 21
111.2584757497
 31
0.0
  0
LINE
  5
445
330
1F
100
AcDbEntity
  8
0
  6
Continuous
 62
     7
370
    18
100
AcDbLine
 10
166.3161619502
 20
110.2584757497
 30
0.0
 11
166.3161619502
 21
111.2584757497
 31
0.0
  0
LINE
  5
446
330
1F
100
AcDbEntity
  8
0
  6
Continuous
 62
     7
370
    18
100
AcDbLine
 10
167.5161619502
 20
92.7584757497
 30
0.0
 11
166.3161619502
 21
92.7584757497
 31
0.0
  0
LINE
  5
447
330
1F
100
AcDbEntity
  8
0
  6
Continuous
 62
     7
370
    18
100
AcDbLine
 10
167.5161619502
 20
91.2584757497
 30
0.0
 11
167.5161619502
 21
92.7584757497
 31
0.0
  0
LINE
  5
448
330
1F
100
AcDbEntity
  8
0
  6
Continuous
 62
     7
370
    18
100
AcDbLine
 10
167.5161619502
 20
91.2584757497
 30
0.0
 11
166.3161619502
 21
91.2584757497
 31
0.0
  0
LINE
  5
449
330
1F
100
AcDbEntity
  8
0
  6
Continuous
 62
     7
370
    18
100
AcDbLine
 10
166.3161619502
 20
109.7584757497
 30
0.0
 11
167.5161619502
 21
109.7584757497
 31
0.0
  0
LINE
  5
44A
330
1F
100
AcDbEntity
  8
0
  6
Continuous
 62
     7
370
    18
100
AcDbLine
 10
167.5161619502
 20
92.7584757497
 30
0.0
 11
167.5161619502
 21
109.7584757497
 31
0.0
  0
LINE
  5
44B
330
1F
100
AcDbEntity
  8
0
  6
Continuous
 62
     7
370
    18
100
AcDbLine
 10
167.5161619502
 20
109.7584757497
 30
0.0
 11
167.5161619502
 21
111.2584757497
 31
0.0
  0
LINE
  5
44C
330
1F
100
AcDbEntity
  8
0
  6
Continuous
 62
     7
370
    18
100
AcDbLine
 10
167.5161619502
 20
111.2584757497
 30
0.0
 11
166.3161619502
 21
111.2584757497
 31
0.0
  0
ARC
  5
44D
330
1F
100
AcDbEntity
  8
0
  6
Continuous
 62
     7
370
    18
100
AcDbCircle
 10
169.9067100233
 20
106.7741138488
 30
0.0
 40
0.1116281361203638
100
AcDbArc
 50
261.9935525022
 51
348.6679312944
  0
SPLINE
  5
44E
330
1F
100
AcDbEntity
  8
0
  6
Continuous
 62
     7
370
    18
100
AcDbSpline
210
0.0
220
0.0
230
1.0
 70
    24
 71
     3
 72
    17
 73
    13
 74
     0
 42
0.00000001
 43
0.00000001
 40
0.0
 40
0.0
 40
0.0
 40
0.0
 40
0.159462239722092
 40
0.2462777244584564
 40
0.3329859272657977
 40
0.4198013636644468
 40
0.5065095181917544
 40
0.6659717579138467
 40
0.8254339976359387
 40
0.9122494823722266
 40
0.9989576851796478
 40
1.0
 40
1.0
 40
1.0
 40
1.0
 10
170.0161619502176
 20
106.7521794818019
 30
0.0
 10
170.0161619502176
 20
106.9608895854539
 30
0.0
 10
170.0161619502176
 20
107.2832270208772
 30
0.0
 10
170.0161619502176
 20
107.8202076910944
 30
0.0
 10
170.0161619502176
 20
108.2531317994701
 30
0.0
 10
170.0161619502176
 20
108.6876265584191
 30
0.0
 10
170.0161619502176
 20
109.2195245717938
 30
0.0
 10
170.0161619502176
 20
109.7926127371701
 30
0.0
 10
170.0161619502176
 20
110.1865287802227
 30
0.0
 10
170.0161619502176
 20
110.3470598440961
 30
0.0
 10
170.0161619502176
 20
110.3976722557824
 30
0.0
 10
170.0161619502176
 20
110.3831294694396
 30
0.0
 10
170.0161619502176
 20
110.3829567278747
 30
0.0
  0
ARC
  5
44F
330
1F
100
AcDbEntity
  8
0
  6
Continuous
 62
     7
370
    18
100
AcDbCircle
 10
169.9067100233
 20
92.7741138488
 30
0.0
 40
0.1116281361202934
100
AcDbArc
 50
261.9935525022
 51
348.6679312944
  0
SPLINE
  5
450
330
1F
100
AcDbEntity
  8
0
  6
Continuous
 62
     7
370
    18
100
AcDbSpline
210
0.0
220
0.0
230
1.0
 70
    24
 71
     3
 72
    17
 73
    13
 74
     0
 42
0.00000001
 43
0.00000001
 40
0.0
 40
0.0
 40
0.0
 40
0.0
 40
0.1594622397220984
 40
0.2462777244587559
 40
0.3329859272657831
 40
0.419801363664058
 40
0.5065095181917454
 40
0.6659717579138442
 40
0.8254339976359426
 40
0.9122494823721377
 40
0.9989576851796478
 40
1.0
 40
1.0
 40
1.0
 40
1.0
 10
170.0161619502176
 20
92.75217948180195
 30
0.0
 10
170.0161619502176
 20
92.9608895854538
 30
0.0
 10
170.0161619502176
 20
93.28322702087743
 30
0.0
 10
170.0161619502176
 20
93.8202076910951
 30
0.0
 10
170.0161619502176
 20
94.25313179946994
 30
0.0
 10
170.0161619502176
 20
94.6876265584185
 30
0.0
 10
170.0161619502176
 20
95.21952457179324
 30
0.0
 10
170.0161619502176
 20
95.79261273717003
 30
0.0
 10
170.0161619502176
 20
96.18652878022289
 30
0.0
 10
170.0161619502176
 20
96.3470598440956
 30
0.0
 10
170.0161619502176
 20
96.39767225578234
 30
0.0
 10
170.0161619502176
 20
96.38312946943958
 30
0.0
 10
170.0161619502176
 20
96.3829567278747
 30
0.0
  0
LINE
  5
451
330
1F
100
AcDbEntity
  8
0
  6
Continuous
 62
     7
370
    18
100
AcDbLine
 10
167.5161619502
 20
92.663573819
 30
0.0
 11
169.8911619502
 21
92.663573819
 31
0.0
  0
LINE
  5
452
330
1F
100
AcDbEntity
  8
0
  6
Continuous
 62
     7
370
    18
100
AcDbLine
 10
167.5161619502
 20
106.663573819
 30
0.0
 11
169.8911619502
 21
106.663573819
 31
0.0
  0
SPLINE
  5
453
330
1F
100
AcDbEntity
  8
0
  6
Continuous
 62
     7
370
    18
100
AcDbSpline
210
0.0
220
0.0
230
1.0
 70
    24
 71
     3
 72
    10
 73
     6
 74
     0
 42
0.00000001
 43
0.00000001
 40
0.0
 40
0.0
 40
0.0
 40
0.0
 40
0.2583967376618579
 40
0.5196103188686276
 40
1.0
 40
1.0
 40
1.0
 40
1.0
 10
170.0161619502176
 20
106.133994771508
 30
0.0
 10
170.0161619502176
 20
106.1422579401341
 30
0.0
 10
170.0161619502176
 20
106.1588743561289
 30
0.0
 10
170.0161619502176
 20
106.3261973441387
 30
0.0
 10
170.0161619502176
 20
106.5847174482662
 30
0.0
 10
170.0161619502176
 20
106.7521794818019
 30
0.0
  0
SPLINE
  5
454
330
1F
100
AcDbEntity
  8
0
  6
Continuous
 62
     7
370
    18
100
AcDbSpline
210
0.0
220
0.0
230
1.0
 70
    24
 71
     3
 72
    10
 73
     6
 74
     0
 42
0.00000001
 43
0.00000001
 40
0.0
 40
0.0
 40
0.0
 40
0.0
 40
0.2583967376617137
 40
0.5196103188686257
 40
1.0
 40
1.0
 40
1.0
 40
1.0
 10
170.0161619502176
 20
92.13399477150804
 30
0.0
 10
170.0161619502176
 20
92.14225794013416
 30
0.0
 10
170.0161619502176
 20
92.15887435612893
 30
0.0
 10
170.0161619502176
 20
92.32619734413865
 30
0.0
 10
170.0161619502176
 20
92.58471744826622
 30
0.0
 10
170.0161619502176
 20
92.75217948180195
 30
0.0
  0
LINE
  5
455
330
1F
100
AcDbEntity
  8
0
  6
Continuous
 62
     7
370
    18
100
AcDbLine
 10
172.8161619502
 20
110.7584757497
 30
0.0
 11
172.8161619502
 21
91.7584757497
 31
0.0
  0
LINE
  5
456
330
1F
100
AcDbEntity
  8
0
  6
Continuous
 62
     7
370
    18
100
AcDbLine
 10
172.8161619502
 20
91.7584757497
 30
0.0
 11
167.5161619502
 21
91.7584757497
 31
0.0
  0
LINE
  5
457
330
1F
100
AcDbEntity
  8
0
  6
Continuous
 62
     7
370
    18
100
AcDbLine
 10
167.5161619502
 20
110.7584757497
 30
0.0
 11
172.8161619502
 21
110.7584757497
 31
0.0
  0
LINE
  5
458
330
1F
100
AcDbEntity
  8
0
  6
Continuous
 62
     7
370
    18
100
AcDbLine
 10
173.3161619502
 20
91.7584757497
 30
0.0
 11
173.3161619502
 21
110.7584757497
 31
0.0
  0
LINE
  5
459
330
1F
100
AcDbEntity
  8
0
  6
Continuous
 62
     7
370
    18
100
AcDbLine
 10
173.3161619502
 20
91.7584757497
 30
0.0
 11
172.8161619502
 21
91.7584757497
 31
0.0
  0
LINE
  5
45A
330
1F
100
AcDbEntity
  8
0
  6
Continuous
 62
     7
370
    18
100
AcDbLine
 10
172.8161619502
 20
110.7584757497
 30
0.0
 11
173.3161619502
 21
110.7584757497
 31
0.0
  0
LINE
  5
45B
330
1F
100
AcDbEntity
  8
0
  6
Continuous
 62
     7
370
    18
100
AcDbLine
 10
172.8161619502
 20
110.7584757497
 30
0.0
 11
172.8161619502
 21
111.2584757497
 31
0.0
  0
LINE
  5
45C
330
1F
100
AcDbEntity
  8
0
  6
Continuous
 62
     7
370
    18
100
AcDbLine
 10
167.5161619502
 20
111.2584757497
 30
0.0
 11
172.8161619502
 21
111.2584757497
 31
0.0
  0
LINE
  5
45D
330
1F
100
AcDbEntity
  8
0
  6
Continuous
 62
     7
370
    18
100
AcDbLine
 10
172.8161619502
 20
91.2584757497
 30
0.0
 11
172.8161619502
 21
91.7584757497
 31
0.0
  0
LINE
  5
45E
330
1F
100
AcDbEntity
  8
0
  6
Continuous
 62
     7
370
    18
100
AcDbLine
 10
172.8161619502
 20
91.2584757497
 30
0.0
 11
167.5161619502
 21
91.2584757497
 31
0.0
  0
ARC
  5
45F
330
1F
100
AcDbEntity
  8
0
  6
Continuous
 62
     7
370
    18
100
AcDbCircle
 10
172.8161619502
 20
91.7584757497
 30
0.0
 40
0.5
100
AcDbArc
 50
270.0
 51
0.0
  0
ARC
  5
460
330
1F
100
AcDbEntity
  8
0
  6
Continuous
 62
     7
370
    18
100
AcDbCircle
 10
172.8161619502
 20
110.7584757497
 30
0.0
 40
0.5
100
AcDbArc
 50
0.0
 51
90.0
  0
SPLINE
  5
461
330
1F
100
AcDbEntity
  8
0
  6
Continuous
 62
     7
370
    18
100
AcDbSpline
210
0.0
220
0.0
230
1.0
 70
    24
 71
     3
 72
    12
 73
     8
 74
     0
 42
0.00000001
 43
0.00000001
 40
0.0
 40
0.0
 40
0.0
 40
0.0
 40
0.0324427761793244
 40
0.3062210189170593
 40
0.579999261654795
 40
0.8537775043925311
 40
1.0
 40
1.0
 40
1.0
 40
1.0
 10
112.1161619502176
 20
105.2504391136825
 30
0.0
 10
112.1161619502176
 20
105.2530425064541
 30
0.0
 10
112.1161619502176
 20
105.2776154216304
 30
0.0
 10
112.1161619502176
 20
105.1788806570889
 30
0.0
 10
112.1161619502176
 20
104.939912876242
 30
0.0
 10
112.1161619502176
 20
104.6234467184849
 30
0.0
 10
112.1161619502176
 20
104.3527265021883
 30
0.0
 10
112.1161619502176
 20
104.2584757496914
 30
0.0
  0
SPLINE
  5
462
330
1F
100
AcDbEntity
  8
0
  6
Continuous
 62
     7
370
    18
100
AcDbSpline
210
0.0
220
0.0
230
1.0
 70
    24
 71
     3
 72
    11
 73
     7
 74
     0
 42
0.00000001
 43
0.00000001
 40
0.0
 40
0.0
 40
0.0
 40
0.0
 40
0.2129853738415505
 40
0.4861121066001343
 40
0.759238839358721
 40
1.0
 40
1.0
 40
1.0
 40
1.0
 10
112.1161619502176
 20
98.2584757496914
 30
0.0
 10
112.1161619502176
 20
98.12658920460456
 30
0.0
 10
112.1161619502176
 20
97.82557489029735
 30
0.0
 10
112.1161619502176
 20
97.50897063732221
 30
0.0
 10
112.1161619502176
 20
97.29201797526444
 30
0.0
 10
112.1161619502176
 20
97.27464961891272
 30
0.0
 10
112.1161619502176
 20
97.26651238570024
 30
0.0
  0
SPLINE
  5
463
330
1F
100
AcDbEntity
  8
0
  6
Continuous
 62
     7
370
    18
100
AcDbSpline
210
0.0
220
0.0
230
1.0
 70
    24
 71
     3
 72
    12
 73
     8
 74
     0
 42
0.00000001
 43
0.00000001
 40
0.0
 40
0.0
 40
0.0
 40
0.0
 40
0.0331159514299094
 40
0.3125749884418778
 40
0.5920340254538471
 40
0.8714930624658161
 40
1.0
 40
1.0
 40
1.0
 40
1.0
 10
111.5161619502176
 20
105.2005395716326
 30
0.0
 10
111.5161619502176
 20
105.2031101273796
 30
0.0
 10
111.5161619502176
 20
105.2273731003037
 30
0.0
 10
111.5161619502176
 20
105.1300163961474
 30
0.0
 10
111.5161619502176
 20
104.8933946521637
 30
0.0
 10
111.5161619502176
 20
104.5919764044528
 30
0.0
 10
111.5161619502176
 20
104.3383626309187
 30
0.0
 10
111.5161619502176
 20
104.2584757496914
 30
0.0
  0
SPLINE
  5
464
330
1F
100
AcDbEntity
  8
0
  6
Continuous
 62
     7
370
    18
100
AcDbSpline
210
0.0
220
0.0
230
1.0
 70
    24
 71
     3
 72
    11
 73
     7
 74
     0
 42
0.00000001
 43
0.00000001
 40
0.0
 40
0.0
 40
0.0
 40
0.0
 40
0.1957209062950939
 40
0.4748391256881724
 40
0.7539573450812542
 40
1.0
 40
1.0
 40
1.0
 40
1.0
 10
111.5161619502176
 20
98.2584757496914
 30
0.0
 10
111.5161619502176
 20
98.14167493421859
 30
0.0
 10
111.5161619502176
 20
97.85830409689399
 30
0.0
 10
111.5161619502176
 20
97.5562509682354
 30
0.0
 10
111.5161619502176
 20
97.3415099133024
 30
0.0
 10
111.5161619502176
 20
97.32441912009863
 30
0.0
 10
111.5161619502176
 20
97.31641192775012
 30
0.0
  0
SPLINE
  5
465
330
1F
100
AcDbEntity
  8
0
  6
Continuous
 62
     7
370
    18
100
AcDbSpline
210
0.0
220
0.0
230
1.0
 70
    24
 71
     3
 72
     9
 73
     5
 74
     0
 42
0.00000001
 43
0.00000001
 40
0.0
 40
0.0
 40
0.0
 40
0.0
 40
0.8030359370700944
 40
1.0
 40
1.0
 40
1.0
 40
1.0
 10
110.0161619502176
 20
104.7075378723191
 30
0.0
 10
110.0161619502176
 20
104.6984536874631
 30
0.0
 10
110.0161619502176
 20
104.6871413856884
 30
0.0
 10
110.0161619502176
 20
104.6007449923671
 30
0.0
 10
110.0161619502176
 20
104.5837280077161
 30
0.0
  0
SPLINE
  5
466
330
1F
100
AcDbEntity
  8
0
  6
Continuous
 62
     7
370
    18
100
AcDbSpline
210
0.0
220
0.0
230
1.0
 70
    24
 71
     3
 72
     9
 73
     5
 74
     0
 42
0.00000001
 43
0.00000001
 40
0.0
 40
0.0
 40
0.0
 40
0.0
 40
0.3194478241601448
 40
1.0
 40
1.0
 40
1.0
 40
1.0
 10
110.0161619502176
 20
97.93322349166672
 30
0.0
 10
110.0161619502176
 20
97.90405618895281
 30
0.0
 10
110.0161619502176
 20
97.81275081603123
 30
0.0
 10
110.0161619502176
 20
97.81076504670163
 30
0.0
 10
110.0161619502176
 20
97.80941362706366
 30
0.0
  0
LINE
  5
467
330
1F
100
AcDbEntity
  8
0
  6
Continuous
 62
     8
370
    18
100
AcDbLine
 10
111.4161619502
 20
110.0995039902
 30
0.0
 11
107.9781087007
 21
110.0995039902
 31
0.0
  0
LINE
  5
468
330
1F
100
AcDbEntity
  8
0
  6
Continuous
 62
     8
370
    18
100
AcDbLine
 10
99.2161619502
 20
101.5625465672
 30
0.0
 11
99.2161619502
 21
97.3084757497
 31
0.0
  0
LINE
  5
469
330
1F
100
AcDbEntity
  8
0
  6
Continuous
 62
     8
370
    18
100
AcDbLine
 10
99.2161619502
 20
105.2084757497
 30
0.0
 11
99.2161619502
 21
101.5625465672
 31
0.0
  0
LINE
  5
46A
330
1F
100
AcDbEntity
  8
0
  6
Continuous
 62
     8
370
    18
100
AcDbLine
 10
166.3161619502
 20
92.2584757497
 30
0.0
 11
165.3161619502
 21
92.2584757497
 31
0.0
  0
LINE
  5
46B
330
1F
100
AcDbEntity
  8
0
  6
Continuous
 62
     8
370
    18
100
AcDbLine
 10
165.3161619502
 20
110.2584757497
 30
0.0
 11
166.3161619502
 21
110.2584757497
 31
0.0
  0
LINE
  5
46C
330
1F
100
AcDbEntity
  8
0
  6
Continuous
 62
     8
370
    18
100
AcDbLine
 10
169.8911619502
 20
106.663573819
 30
0.0
 11
169.8911619502
 21
110.5084757497
 31
0.0
  0
LINE
  5
46D
330
1F
100
AcDbEntity
  8
0
  6
Continuous
 62
     8
370
    18
100
AcDbLine
 10
169.8911619502
 20
92.663573819
 30
0.0
 11
169.8911619502
 21
96.5084757497
 31
0.0
  0
LINE
  5
46E
330
1F
100
AcDbEntity
  8
0
  6
Continuous
 62
     8
370
    18
100
AcDbLine
 10
169.8911619502
 20
106.0084757497
 30
0.0
 11
169.8911619502
 21
106.663573819
 31
0.0
  0
LINE
  5
46F
330
1F
100
AcDbEntity
  8
0
  6
Continuous
 62
     8
370
    18
100
AcDbLine
 10
169.8911619502
 20
92.0084757497
 30
0.0
 11
169.8911619502
 21
92.663573819
 31
0.0
  0
LINE
  5
470
330
1F
100
AcDbEntity
  8
0
  6
Continuous
 62
     8
370
    18
100
AcDbLine
 10
110.5161619502
 20
105.2084757497
 30
0.0
 11
110.5161619502
 21
104.2584757497
 31
0.0
  0
LINE
  5
471
330
1F
100
AcDbEntity
  8
0
  6
Continuous
 62
     8
370
    18
100
AcDbLine
 10
110.5161619502
 20
98.2584757497
 30
0.0
 11
110.5161619502
 21
97.3084757497
 31
0.0
  0
DIMENSION
  5
472
330
1F
100
AcDbEntity
  8
0
  6
Continuous
 62
     7
370
    18
100
AcDbDimension
  2
_D_18
 10
152.8161619502
 20
81.2540781958
 30
0.0
 11
163.4661619502
 21
81.2540781958
 31
0.0
 70
   160
  1
<>
 71
     2
 42
-1.0
  3
SLDDIMSTYLE0
100
AcDbAlignedDimension
 13
174.1161619502
 23
98.664180913
 33
0.0
 14
152.8161619502
 24
97.1084757497
 34
0.0
100
AcDbRotatedDimension
  0
DIMENSION
  5
47C
330
1F
100
AcDbEntity
  8
0
  6
Continuous
 62
     7
370
    18
100
AcDbDimension
  2
_D_19
 10
152.8161619502
 20
81.2540781958
 30
0.0
 11
142.8161619502
 21
81.2540781958
 31
0.0
 70
   160
  1
<>
 71
     2
 42
-1.0
  3
SLDDIMSTYLE0
100
AcDbAlignedDimension
 13
132.8161619502
 23
97.1084757497
 33
0.0
 14
152.8161619502
 24
97.1084757497
 34
0.0
100
AcDbRotatedDimension
  0
DIMENSION
  5
486
330
1F
100
AcDbEntity
  8
0
  6
Continuous
 62
     7
370
    18
100
AcDbDimension
  2
_D_20
 10
132.8161619502
 20
101.2584757497
 30
0.0
 11
160.8750752175
 21
118.5642650932
 31
0.0
 70
   164
  1
2-M4 取付用
 71
     1
 42
-1.0
  3
SLDDIMSTYLE7
100
AcDbRadialDimension
 15
133.9828881392
 25
102.4252019386
 35
0.0
 40
0.0
  0
DIMENSION
  5
48F
330
1F
100
AcDbEntity
  8
0
  6
Continuous
 62
     7
370
    18
100
AcDbDimension
  2
_D_21
 10
132.8161619502
 20
81.2540781958
 30
0.0
 11
123.3161619502
 21
81.2540781958
 31
0.0
 70
   160
  1
<>
 71
     2
 42
-1.0
  3
SLDDIMSTYLE0
100
AcDbAlignedDimension
 13
113.8161619502
 23
91.2584757497
 33
0.0
 14
132.8161619502
 24
97.1084757497
 34
0.0
100
AcDbRotatedDimension
  0
INSERT
  5
49E
330
1F
100
AcDbEntity
  8
0
  6
Continuous
 62
     7
370
     0
100
AcDbBlockReference
  2
SW_NOTE_0_2
 10
97.2027755678
 20
115.8750001937
 30
0.0
  0
LEADER
  5
49F
330
1F
100
AcDbEntity
  8
0
  6
Continuous
 62
     7
370
     0
100
AcDbLeader
  3
SLDDIMSTYLE5
 76
     2
 10
107.8161619503
 20
108.7597033196
 30
0.0
 10
97.2027755678
 20
115.8750001937
 30
0.0
  0
MTEXT
  5
4A0
330
1F
100
AcDbEntity
  8
0
  6
Continuous
 62
     7
370
     0
100
AcDbMText
 10
68.0871295367
 20
116.096976168
 30
0.0
 40
3.5
 41
0.0
 71
     1
 72
     1
  1
ストッパーネジ
  7
SLDTEXTSTYLE0
 73
     1
 44
1.0
  0
INSERT
  5
4AC
330
1F
100
AcDbEntity
  8
0
  6
Continuous
 62
     7
370
    18
100
AcDbBlockReference
  2
SW_CENTERMARKSYMBOL_6
 10
132.8161619502
 20
101.2584757497
 30
0.0
  0
INSERT
  5
4B8
330
1F
100
AcDbEntity
  8
0
  6
Continuous
 62
     7
370
    18
100
AcDbBlockReference
  2
SW_CENTERMARKSYMBOL_7
 10
152.8161619502
 20
101.2584757497
 30
0.0
  0
ENDSEC
  0
SECTION
  2
OBJECTS
  0
DICTIONARY
  5
C
330
0
100
AcDbDictionary
281
     1
  3
ACAD_GROUP
350
D
  3
ACAD_LAYOUT
350
1A
  3
ACAD_MLINESTYLE
350
17
  3
ACAD_PLOTSETTINGS
350
19
  3
ACAD_PLOTSTYLENAME
350
E
  3
ACAD_SCALELIST
350
47
  3
DWGPROPS
350
4B9
  0
DICTIONARY
  5
D
102
{ACAD_REACTORS
330
C
102
}
330
C
100
AcDbDictionary
281
     1
  0
DICTIONARY
  5
1A
102
{ACAD_REACTORS
330
C
102
}
330
C
100
AcDbDictionary
281
     1
  3
Layout1
350
1E
  3
Layout2
350
26
  3
Model
350
22
  0
DICTIONARY
  5
17
102
{ACAD_REACTORS
330
C
102
}
330
C
100
AcDbDictionary
281
     1
  3
Standard
350
18
  0
DICTIONARY
  5
19
102
{ACAD_REACTORS
330
C
102
}
330
C
100
AcDbDictionary
281
     1
  0
ACDBDICTIONARYWDFLT
  5
E
102
{ACAD_REACTORS
330
C
102
}
330
C
100
AcDbDictionary
281
     1
  3
Normal
350
F
100
AcDbDictionaryWithDefault
340
F
  0
DICTIONARY
  5
47
102
{ACAD_REACTORS
330
C
102
}
330
C
100
AcDbDictionary
281
     1
  3
A0
350
48
  3
A1
350
49
  3
A2
350
4A
  3
A3
350
4B
  3
A4
350
4C
  3
A5
350
4D
  3
A6
350
4E
  3
A7
350
4F
  3
A8
350
50
  3
A9
350
51
  3
B0
350
52
  3
B1
350
53
  3
B2
350
54
  3
B3
350
55
  3
B4
350
56
  3
B5
350
57
  3
B6
350
58
  3
B7
350
59
  3
B8
350
5A
  3
B9
350
5B
  3
C0
350
5C
  3
C1
350
5D
  3
C2
350
5E
  3
C3
350
5F
  3
C4
350
60
  3
C5
350
61
  3
C6
350
62
  3
C7
350
63
  3
C8
350
64
  3
C9
350
65
  3
D0
350
66
  3
D1
350
67
  3
D2
350
68
  0
XRECORD
  5
4B9
102
{ACAD_REACTORS
330
C
102
}
330
C
100
AcDbXrecord
280
     1
  1
DWGPROPS COOKIE
  2

  3

  4

  6

  7

  8
STAR050C
  9

300
=
301
=
302
=
303
=
304
=
305
=
306
=
307
=
308
=
309
=
 40
0.0
 41
2460164.085980498
 42
2460164.085984768
  1

 90
        0
  0
LAYOUT
  5
1E
102
{ACAD_REACTORS
330
1A
102
}
330
1A
100
AcDbPlotSettings
  1

  2
none_device
  4

  6

 40
0.0
 41
0.0
 42
0.0
 43
0.0
 44
0.0
 45
0.0
 46
0.0
 47
0.0
 48
0.0
 49
0.0
140
0.0
141
0.0
142
1.0
143
1.0
 70
   688
 72
     1
 73
     0
 74
     5
  7

 75
    16
147
1.0
148
0.0
149
0.0
100
AcDbLayout
  1
Layout1
 70
     1
 71
     1
 10
0.0
 20
0.0
 11
420.0
 21
297.0
 12
0.0
 22
0.0
 32
0.0
 14
1.0000000000E+20
 24
1.0000000000E+20
 34
1.0000000000E+20
 15
-1.0000000000E+20
 25
-1.0000000000E+20
 35
-1.0000000000E+20
146
0.0
 13
0.0
 23
0.0
 33
0.0
 16
1.0
 26
0.0
 36
0.0
 17
0.0
 27
1.0
 37
0.0
 76
     0
330
1B
  0
LAYOUT
  5
26
102
{ACAD_REACTORS
330
1A
102
}
330
1A
100
AcDbPlotSettings
  1

  2
none_device
  4

  6

 40
0.0
 41
0.0
 42
0.0
 43
0.0
 44
0.0
 45
0.0
 46
0.0
 47
0.0
 48
0.0
 49
0.0
140
0.0
141
0.0
142
1.0
143
1.0
 70
   688
 72
     1
 73
     0
 74
     5
  7

 75
    16
147
1.0
148
0.0
149
0.0
100
AcDbLayout
  1
Layout2
 70
     1
 71
     2
 10
0.0
 20
0.0
 11
0.0
 21
0.0
 12
0.0
 22
0.0
 32
0.0
 14
0.0
 24
0.0
 34
0.0
 15
0.0
 25
0.0
 35
0.0
146
0.0
 13
0.0
 23
0.0
 33
0.0
 16
1.0
 26
0.0
 36
0.0
 17
0.0
 27
1.0
 37
0.0
 76
     0
330
23
  0
LAYOUT
  5
22
102
{ACAD_REACTORS
330
1A
102
}
330
1A
100
AcDbPlotSettings
  1

  2
none_device
  4
Letter_(8.50_x_11.00_Inches)
  6

 40
6.35
 41
6.35
 42
6.35000508
 43
6.35000508
 44
215.9
 45
279.4
 46
0.0
 47
0.0
 48
0.0
 49
0.0
140
0.0
141
0.0
142
1.0
143
1.0
 70
  1712
 72
     1
 73
     0
 74
     0
  7

 75
     0
147
1.0
148
0.0
149
0.0
100
AcDbLayout
  1
Model
 70
     1
 71
     0
 10
0.0
 20
0.0
 11
210.0
 21
297.0
 12
0.0
 22
0.0
 32
0.0
 14
0.0
 24
0.0
 34
0.0
 15
210.0
 25
297.0
 35
0.0
146
0.0
 13
0.0
 23
0.0
 33
0.0
 16
1.0
 26
0.0
 36
0.0
 17
0.0
 27
1.0
 37
0.0
 76
     0
330
1F
331
29
  0
MLINESTYLE
  5
18
102
{ACAD_REACTORS
330
17
102
}
330
17
100
AcDbMlineStyle
  2
Standard
 70
     0
  3

 62
   256
 51
90.0
 52
90.0
 71
     2
 49
0.5
 62
   256
  6
BYLAYER
 49
-0.5
 62
   256
  6
BYLAYER
  0
ACDBPLACEHOLDER
  5
F
102
{ACAD_REACTORS
330
E
102
}
330
E
  0
SCALE
  5
48
102
{ACAD_REACTORS
330
47
102
}
330
47
100
AcDbScale
 70
     0
300
1:1
140
1.0
141
1.0
290
     1
  0
SCALE
  5
49
102
{ACAD_REACTORS
330
47
102
}
330
47
100
AcDbScale
 70
     0
300
1:2
140
1.0
141
2.0
290
     0
  0
SCALE
  5
4A
102
{ACAD_REACTORS
330
47
102
}
330
47
100
AcDbScale
 70
     0
300
1:4
140
1.0
141
4.0
290
     0
  0
SCALE
  5
4B
102
{ACAD_REACTORS
330
47
102
}
330
47
100
AcDbScale
 70
     0
300
1:5
140
1.0
141
5.0
290
     0
  0
SCALE
  5
4C
102
{ACAD_REACTORS
330
47
102
}
330
47
100
AcDbScale
 70
     0
300
1:8
140
1.0
141
8.0
290
     0
  0
SCALE
  5
4D
102
{ACAD_REACTORS
330
47
102
}
330
47
100
AcDbScale
 70
     0
300
1:10
140
1.0
141
10.0
290
     0
  0
SCALE
  5
4E
102
{ACAD_REACTORS
330
47
102
}
330
47
100
AcDbScale
 70
     0
300
1:16
140
1.0
141
16.0
290
     0
  0
SCALE
  5
4F
102
{ACAD_REACTORS
330
47
102
}
330
47
100
AcDbScale
 70
     0
300
1:20
140
1.0
141
20.0
290
     0
  0
SCALE
  5
50
102
{ACAD_REACTORS
330
47
102
}
330
47
100
AcDbScale
 70
     0
300
1:30
140
1.0
141
30.0
290
     0
  0
SCALE
  5
51
102
{ACAD_REACTORS
330
47
102
}
330
47
100
AcDbScale
 70
     0
300
1:40
140
1.0
141
40.0
290
     0
  0
SCALE
  5
52
102
{ACAD_REACTORS
330
47
102
}
330
47
100
AcDbScale
 70
     0
300
1:50
140
1.0
141
50.0
290
     0
  0
SCALE
  5
53
102
{ACAD_REACTORS
330
47
102
}
330
47
100
AcDbScale
 70
     0
300
1:100
140
1.0
141
100.0
290
     0
  0
SCALE
  5
54
102
{ACAD_REACTORS
330
47
102
}
330
47
100
AcDbScale
 70
     0
300
2:1
140
2.0
141
1.0
290
     0
  0
SCALE
  5
55
102
{ACAD_REACTORS
330
47
102
}
330
47
100
AcDbScale
 70
     0
300
4:1
140
4.0
141
1.0
290
     0
  0
SCALE
  5
56
102
{ACAD_REACTORS
330
47
102
}
330
47
100
AcDbScale
 70
     0
300
8:1
140
8.0
141
1.0
290
     0
  0
SCALE
  5
57
102
{ACAD_REACTORS
330
47
102
}
330
47
100
AcDbScale
 70
     0
300
10:1
140
10.0
141
1.0
290
     0
  0
SCALE
  5
58
102
{ACAD_REACTORS
330
47
102
}
330
47
100
AcDbScale
 70
     0
300
100:1
140
100.0
141
1.0
290
     0
  0
SCALE
  5
59
102
{ACAD_REACTORS
330
47
102
}
330
47
100
AcDbScale
 70
     0
300
1/128" = 1'-0"
140
0.0078125
141
12.0
290
     0
  0
SCALE
  5
5A
102
{ACAD_REACTORS
330
47
102
}
330
47
100
AcDbScale
 70
     0
300
1/64" = 1'-0"
140
0.015625
141
12.0
290
     0
  0
SCALE
  5
5B
102
{ACAD_REACTORS
330
47
102
}
330
47
100
AcDbScale
 70
     0
300
1/32" = 1'-0"
140
0.03125
141
12.0
290
     0
  0
SCALE
  5
5C
102
{ACAD_REACTORS
330
47
102
}
330
47
100
AcDbScale
 70
     0
300
1/16" = 1'-0"
140
0.0625
141
12.0
290
     0
  0
SCALE
  5
5D
102
{ACAD_REACTORS
330
47
102
}
330
47
100
AcDbScale
 70
     0
300
3/32" = 1'-0"
140
0.09375
141
12.0
290
     0
  0
SCALE
  5
5E
102
{ACAD_REACTORS
330
47
102
}
330
47
100
AcDbScale
 70
     0
300
1/8" = 1'-0"
140
0.125
141
12.0
290
     0
  0
SCALE
  5
5F
102
{ACAD_REACTORS
330
47
102
}
330
47
100
AcDbScale
 70
     0
300
3/16" = 1'-0"
140
0.1875
141
12.0
290
     0
  0
SCALE
  5
60
102
{ACAD_REACTORS
330
47
102
}
330
47
100
AcDbScale
 70
     0
300
1/4" = 1'-0"
140
0.25
141
12.0
290
     0
  0
SCALE
  5
61
102
{ACAD_REACTORS
330
47
102
}
330
47
100
AcDbScale
 70
     0
300
3/8" = 1'-0"
140
0.375
141
12.0
290
     0
  0
SCALE
  5
62
102
{ACAD_REACTORS
330
47
102
}
330
47
100
AcDbScale
 70
     0
300
1/2" = 1'-0"
140
0.5
141
12.0
290
     0
  0
SCALE
  5
63
102
{ACAD_REACTORS
330
47
102
}
330
47
100
AcDbScale
 70
     0
300
3/4" = 1'-0"
140
0.75
141
12.0
290
     0
  0
SCALE
  5
64
102
{ACAD_REACTORS
330
47
102
}
330
47
100
AcDbScale
 70
     0
300
1" = 1'-0"
140
1.0
141
12.0
290
     0
  0
SCALE
  5
65
102
{ACAD_REACTORS
330
47
102
}
330
47
100
AcDbScale
 70
     0
300
1-1/2" = 1'-0"
140
1.5
141
12.0
290
     0
  0
SCALE
  5
66
102
{ACAD_REACTORS
330
47
102
}
330
47
100
AcDbScale
 70
     0
300
3" = 1'-0"
140
3.0
141
12.0
290
     0
  0
SCALE
  5
67
102
{ACAD_REACTORS
330
47
102
}
330
47
100
AcDbScale
 70
     0
300
6" = 1'-0"
140
6.0
141
12.0
290
     0
  0
SCALE
  5
68
102
{ACAD_REACTORS
330
47
102
}
330
47
100
AcDbScale
 70
     0
300
1'-0" = 1'-0"
140
12.0
141
12.0
290
     0
  0
ENDSEC
  0
EOF
