  0
SECTION
  2
HEADER
  9
$ACADVER
  1
AC1015
  9
$ACADMAINTVER
 70
     6
  9
$DWGCODEPAGE
  3
DOS932
  9
$INSBASE
 10
0.0
 20
0.0
 30
0.0
  9
$EXTMIN
 10
0.0
 20
0.0
 30
0.0
  9
$EXTMAX
 10
210.0
 20
297.0
 30
0.0
  9
$LIMMIN
 10
0.0
 20
0.0
  9
$LIMMAX
 10
210.0
 20
297.0
  9
$ORTHOMODE
 70
     0
  9
$REGENMODE
 70
     1
  9
$FILLMODE
 70
     1
  9
$QTEXTMODE
 70
     0
  9
$MIRRTEXT
 70
     1
  9
$LTSCALE
 40
1.0
  9
$ATTMODE
 70
     1
  9
$TEXTSIZE
 40
3.5
  9
$TRACEWID
 40
1.0
  9
$TEXTSTYLE
  7
Standard
  9
$CLAYER
  8
0
  9
$CELTYPE
  6
ByLayer
  9
$CECOLOR
 62
   256
  9
$CELTSCALE
 40
1.0
  9
$DISPSILH
 70
     0
  9
$DIMSCALE
 40
1.0
  9
$DIMASZ
 40
3.0
  9
$DIMEXO
 40
1.0
  9
$DIMDLI
 40
3.75
  9
$DIMRND
 40
0.0
  9
$DIMDLE
 40
0.0
  9
$DIMEXE
 40
1.0
  9
$DIMTP
 40
0.0
  9
$DIMTM
 40
0.0
  9
$DIMTXT
 40
3.5
  9
$DIMCEN
 40
2.5
  9
$DIMTSZ
 40
0.0
  9
$DIMTOL
 70
     0
  9
$DIMLIM
 70
     0
  9
$DIMTIH
 70
     1
  9
$DIMTOH
 70
     1
  9
$DIMSE1
 70
     0
  9
$DIMSE2
 70
     0
  9
$DIMTAD
 70
     1
  9
$DIMZIN
 70
     0
  9
$DIMBLK
  1

  9
$DIMASO
 70
     1
  9
$DIMSHO
 70
     1
  9
$DIMPOST
  1

  9
$DIMAPOST
  1

  9
$DIMALT
 70
     0
  9
$DIMALTD
 70
     3
  9
$DIMALTF
 40
0.0393700787
  9
$DIMLFAC
 40
1.0
  9
$DIMTOFL
 70
     1
  9
$DIMTVP
 40
0.0
  9
$DIMTIX
 70
     0
  9
$DIMSOXD
 70
     0
  9
$DIMSAH
 70
     0
  9
$DIMBLK1
  1

  9
$DIMBLK2
  1

  9
$DIMSTYLE
  2
ISO-25
  9
$DIMCLRD
 70
     0
  9
$DIMCLRE
 70
     0
  9
$DIMCLRT
 70
     0
  9
$DIMTFAC
 40
1.0
  9
$DIMGAP
 40
1.524
  9
$DIMJUST
 70
     0
  9
$DIMSD1
 70
     0
  9
$DIMSD2
 70
     0
  9
$DIMTOLJ
 70
     0
  9
$DIMTZIN
 70
     0
  9
$DIMALTZ
 70
     0
  9
$DIMALTTZ
 70
     0
  9
$DIMUPT
 70
     0
  9
$DIMDEC
 70
     1
  9
$DIMTDEC
 70
     3
  9
$DIMALTU
 70
     2
  9
$DIMALTTD
 70
     3
  9
$DIMTXSTY
  7
Standard
  9
$DIMAUNIT
 70
     0
  9
$DIMADEC
 70
     2
  9
$DIMALTRND
 40
0.0
  9
$DIMAZIN
 70
     0
  9
$DIMDSEP
 70
    44
  9
$DIMATFIT
 70
     3
  9
$DIMFRAC
 70
     0
  9
$DIMLDRBLK
  1

  9
$DIMLUNIT
 70
     2
  9
$DIMLWD
 70
    -2
  9
$DIMLWE
 70
    -2
  9
$DIMTMOVE
 70
     0
  9
$LUNITS
 70
     2
  9
$LUPREC
 70
     1
  9
$SKETCHINC
 40
1.0
  9
$FILLETRAD
 40
10.0
  9
$AUNITS
 70
     0
  9
$AUPREC
 70
     2
  9
$MENU
  1
.
  9
$ELEVATION
 40
0.0
  9
$PELEVATION
 40
0.0
  9
$THICKNESS
 40
0.0
  9
$LIMCHECK
 70
     0
  9
$CHAMFERA
 40
0.0
  9
$CHAMFERB
 40
0.0
  9
$CHAMFERC
 40
0.0
  9
$CHAMFERD
 40
0.0
  9
$SKPOLY
 70
     0
  9
$TDCREATE
 40
2458900.760088993
  9
$TDUCREATE
 40
2458900.385088993
  9
$TDUPDATE
 40
2458900.760091424
  9
$TDUUPDATE
 40
2458900.385091424
  9
$TDINDWG
 40
0.0000000116
  9
$TDUSRTIMER
 40
0.0000000116
  9
$USRTIMER
 70
     1
  9
$ANGBASE
 50
0.0
  9
$ANGDIR
 70
     0
  9
$PDMODE
 70
     0
  9
$PDSIZE
 40
-1.0
  9
$PLINEWID
 40
0.0
  9
$SPLFRAME
 70
     0
  9
$SPLINETYPE
 70
     6
  9
$SPLINESEGS
 70
     8
  9
$HANDSEED
  5
2A9
  9
$SURFTAB1
 70
     6
  9
$SURFTAB2
 70
     6
  9
$SURFTYPE
 70
     6
  9
$SURFU
 70
     6
  9
$SURFV
 70
     6
  9
$UCSBASE
  2

  9
$UCSNAME
  2

  9
$UCSORG
 10
0.0
 20
0.0
 30
0.0
  9
$UCSXDIR
 10
1.0
 20
0.0
 30
0.0
  9
$UCSYDIR
 10
0.0
 20
1.0
 30
0.0
  9
$UCSORTHOREF
  2

  9
$UCSORTHOVIEW
 70
     0
  9
$UCSORGTOP
 10
0.0
 20
0.0
 30
0.0
  9
$UCSORGBOTTOM
 10
0.0
 20
0.0
 30
0.0
  9
$UCSORGLEFT
 10
0.0
 20
0.0
 30
0.0
  9
$UCSORGRIGHT
 10
0.0
 20
0.0
 30
0.0
  9
$UCSORGFRONT
 10
0.0
 20
0.0
 30
0.0
  9
$UCSORGBACK
 10
0.0
 20
0.0
 30
0.0
  9
$PUCSBASE
  2

  9
$PUCSNAME
  2

  9
$PUCSORG
 10
0.0
 20
0.0
 30
0.0
  9
$PUCSXDIR
 10
1.0
 20
0.0
 30
0.0
  9
$PUCSYDIR
 10
0.0
 20
1.0
 30
0.0
  9
$PUCSORTHOREF
  2

  9
$PUCSORTHOVIEW
 70
     0
  9
$PUCSORGTOP
 10
0.0
 20
0.0
 30
0.0
  9
$PUCSORGBOTTOM
 10
0.0
 20
0.0
 30
0.0
  9
$PUCSORGLEFT
 10
0.0
 20
0.0
 30
0.0
  9
$PUCSORGRIGHT
 10
0.0
 20
0.0
 30
0.0
  9
$PUCSORGFRONT
 10
0.0
 20
0.0
 30
0.0
  9
$PUCSORGBACK
 10
0.0
 20
0.0
 30
0.0
  9
$USERI1
 70
     0
  9
$USERI2
 70
     0
  9
$USERI3
 70
     0
  9
$USERI4
 70
     0
  9
$USERI5
 70
     0
  9
$USERR1
 40
0.0
  9
$USERR2
 40
0.0
  9
$USERR3
 40
0.0
  9
$USERR4
 40
0.0
  9
$USERR5
 40
0.0
  9
$WORLDVIEW
 70
     1
  9
$SHADEDGE
 70
     3
  9
$SHADEDIF
 70
    70
  9
$TILEMODE
 70
     1
  9
$MAXACTVP
 70
    64
  9
$PINSBASE
 10
0.0
 20
0.0
 30
0.0
  9
$PLIMCHECK
 70
     0
  9
$PEXTMIN
 10
1.0000000000E+20
 20
1.0000000000E+20
 30
1.0000000000E+20
  9
$PEXTMAX
 10
-1.0000000000E+20
 20
-1.0000000000E+20
 30
-1.0000000000E+20
  9
$PLIMMIN
 10
0.0
 20
0.0
  9
$PLIMMAX
 10
420.0
 20
297.0
  9
$UNITMODE
 70
     0
  9
$VISRETAIN
 70
     1
  9
$PLINEGEN
 70
     0
  9
$PSLTSCALE
 70
     1
  9
$TREEDEPTH
 70
  3020
  9
$CMLSTYLE
  2
Standard
  9
$CMLJUST
 70
     0
  9
$CMLSCALE
 40
20.0
  9
$PROXYGRAPHICS
 70
     1
  9
$MEASUREMENT
 70
     1
  9
$CELWEIGHT
370
    -1
  9
$ENDCAPS
280
     0
  9
$JOINSTYLE
280
     0
  9
$LWDISPLAY
290
     1
  9
$INSUNITS
 70
     4
  9
$HYPERLINKBASE
  1

  9
$STYLESHEET
  1

  9
$XEDIT
290
     1
  9
$CEPSNTYPE
380
     0
  9
$PSTYLEMODE
290
     1
  9
$FINGERPRINTGUID
  2
{23BCE58F-D986-4355-8A1E-D8588C3BFD50}
  9
$VERSIONGUID
  2
{FAEB1C32-E019-11D5-929B-00C0DF256EC4}
  9
$EXTNAMES
290
     1
  9
$PSVPSCALE
 40
0.0
  9
$OLESTARTUP
290
     0
  0
ENDSEC
  0
SECTION
  2
CLASSES
  0
CLASS
  1
ACDBDICTIONARYWDFLT
  2
AcDbDictionaryWithDefault
  3
ObjectDBX Classes
 90
        0
280
     0
281
     0
  0
CLASS
  1
VISUALSTYLE
  2
AcDbVisualStyle
  3
ObjectDBX Classes
 90
     4095
280
     0
281
     0
  0
CLASS
  1
MATERIAL
  2
AcDbMaterial
  3
ObjectDBX Classes
 90
     1153
280
     0
281
     0
  0
CLASS
  1
SCALE
  2
AcDbScale
  3
ObjectDBX Classes
 90
     1153
280
     0
281
     0
  0
CLASS
  1
TABLESTYLE
  2
AcDbTableStyle
  3
ObjectDBX Classes
 90
     4095
280
     0
281
     0
  0
CLASS
  1
MLEADERSTYLE
  2
AcDbMLeaderStyle
  3
ACDB_MLEADERSTYLE_CLASS
 90
     4095
280
     0
281
     0
  0
CLASS
  1
SUN
  2
AcDbSun
  3
SCENEOE
 90
     1153
280
     0
281
     0
  0
CLASS
  1
ACDBPLACEHOLDER
  2
AcDbPlaceHolder
  3
ObjectDBX Classes
 90
        0
280
     0
281
     0
  0
CLASS
  1
LAYOUT
  2
AcDbLayout
  3
ObjectDBX Classes
 90
        0
280
     0
281
     0
  0
ENDSEC
  0
SECTION
  2
TABLES
  0
TABLE
  2
VPORT
  5
8
330
0
100
AcDbSymbolTable
 70
     1
  0
VPORT
  5
29
330
8
100
AcDbSymbolTableRecord
100
AcDbViewportTableRecord
  2
*Active
 70
     0
 10
0.0
 20
0.0
 11
1.0
 21
1.0
 12
105.0
 22
148.5
 13
0.0
 23
0.0
 14
10.0
 24
10.0
 15
10.0
 25
10.0
 16
0.0
 26
0.0
 36
1.0
 17
0.0
 27
0.0
 37
0.0
 40
297.0
 41
0.7070707071
 42
50.0
 43
0.0
 44
0.0
 50
0.0
 51
0.0
 71
     0
 72
  2000
 73
     1
 74
     3
 75
     0
 76
     0
 77
     0
 78
     0
281
     0
 65
     1
110
0.0
120
0.0
130
0.0
111
1.0
121
0.0
131
0.0
112
0.0
122
1.0
132
0.0
 79
     0
146
0.0
  0
ENDTAB
  0
TABLE
  2
LTYPE
  5
5
330
0
100
AcDbSymbolTable
 70
     6
  0
LTYPE
  5
14
330
5
100
AcDbSymbolTableRecord
100
AcDbLinetypeTableRecord
  2
ByBlock
 70
     0
  3

 72
    65
 73
     0
 40
0.0
  0
LTYPE
  5
15
330
5
100
AcDbSymbolTableRecord
100
AcDbLinetypeTableRecord
  2
ByLayer
 70
     0
  3

 72
    65
 73
     0
 40
0.0
  0
LTYPE
  5
16
330
5
100
AcDbSymbolTableRecord
100
AcDbLinetypeTableRecord
  2
Continuous
 70
     0
  3
Solid line
 72
    65
 73
     0
 40
0.0
  0
LTYPE
  5
6E
330
5
100
AcDbSymbolTableRecord
100
AcDbLinetypeTableRecord
  2
HIDDEN
 70
     0
  3
Hidden __ __ __ __ __ __ __ __ __ __ __ __ __ __
 72
    65
 73
     2
 40
1.905
 49
1.27
 74
     0
 49
-0.635
 74
     0
  0
LTYPE
  5
6F
330
5
100
AcDbSymbolTableRecord
100
AcDbLinetypeTableRecord
  2
PHANTOM
 70
     0
  3
Phantom ______  __  __  ______  __  __  ______
 72
    65
 73
     6
 40
12.7
 49
6.35
 74
     0
 49
-1.27
 74
     0
 49
1.27
 74
     0
 49
-1.27
 74
     0
 49
1.27
 74
     0
 49
-1.27
 74
     0
  0
LTYPE
  5
70
330
5
100
AcDbSymbolTableRecord
100
AcDbLinetypeTableRecord
  2
CENTER
 70
     0
  3
Center ____ _ ____ _ ____ _ ____ _ ____ _ ____
 72
    65
 73
     4
 40
10.16
 49
6.35
 74
     0
 49
-1.27
 74
     0
 49
1.27
 74
     0
 49
-1.27
 74
     0
  0
LTYPE
  5
71
330
5
100
AcDbSymbolTableRecord
100
AcDbLinetypeTableRecord
  2
CENTERX2
 70
     0
  3
Center (2x) ________  __  ________  __  _____
 72
    65
 73
     4
 40
20.32
 49
12.7
 74
     0
 49
-2.54
 74
     0
 49
2.54
 74
     0
 49
-2.54
 74
     0
  0
LTYPE
  5
72
330
5
100
AcDbSymbolTableRecord
100
AcDbLinetypeTableRecord
  2
DOT2
 70
     0
  3
Dot (.5x) ........................................
 72
    65
 73
     2
 40
0.635
 49
0.0
 74
     0
 49
-0.635
 74
     0
  0
ENDTAB
  0
TABLE
  2
LAYER
  5
2
330
0
100
AcDbSymbolTable
 70
     1
  0
LAYER
  5
10
330
2
100
AcDbSymbolTableRecord
100
AcDbLayerTableRecord
  2
0
 70
     0
 62
     7
  6
Continuous
370
    -3
390
F
  0
ENDTAB
  0
TABLE
  2
STYLE
  5
3
330
0
100
AcDbSymbolTable
 70
     3
  0
STYLE
  5
11
330
3
100
AcDbSymbolTableRecord
100
AcDbTextStyleTableRecord
  2
Standard
 70
     0
 40
0.0
 41
1.0
 50
0.0
 71
     0
 42
3.5
  3
txt
  4
bigfont
  0
STYLE
  5
7B
330
3
100
AcDbSymbolTableRecord
100
AcDbTextStyleTableRecord
  2
SLDTEXTSTYLE0
 70
     0
 40
0.0
 41
0.7
 50
0.0
 71
     0
 42
3.5
  3
TXT
  4
bigfont
  0
STYLE
  5
1FB
330
3
100
AcDbSymbolTableRecord
100
AcDbTextStyleTableRecord
  2
SLDTEXTSTYLE1
 70
     0
 40
0.0
 41
0.6
 50
0.0
 71
     0
 42
3.5
  3
TXT
  4
bigfont
  0
ENDTAB
  0
TABLE
  2
VIEW
  5
6
330
0
100
AcDbSymbolTable
 70
     0
  0
ENDTAB
  0
TABLE
  2
UCS
  5
7
330
0
100
AcDbSymbolTable
 70
     0
  0
ENDTAB
  0
TABLE
  2
APPID
  5
9
330
0
100
AcDbSymbolTable
 70
     1
  0
APPID
  5
12
330
9
100
AcDbSymbolTableRecord
100
AcDbRegAppTableRecord
  2
ACAD
 70
     0
  0
ENDTAB
  0
TABLE
  2
DIMSTYLE
  5
A
330
0
100
AcDbSymbolTable
 70
     8
100
AcDbDimStyleTable
  0
DIMSTYLE
105
27
330
A
100
AcDbSymbolTableRecord
100
AcDbDimStyleTableRecord
  2
ISO-25
 70
     0
 41
2.5
 42
0.625
 43
3.75
 44
1.25
 73
     0
 74
     0
 77
     1
 78
     8
140
2.5
141
2.5
143
0.0393700787
147
0.625
171
     3
172
     1
178
     0
271
     2
272
     2
274
     3
278
    44
283
     0
284
     8
340
11
  0
DIMSTYLE
105
151
102
{ACAD_REACTORS
330
150
330
15D
330
1DD
330
1FD
330
241
330
24D
102
}
330
A
100
AcDbSymbolTableRecord
100
AcDbDimStyleTableRecord
  2
SLDDIMSTYLE0
 70
     0
 41
3.0
 44
0.0
 45
0.000000001
 73
     0
 74
     0
 77
     3
 78
    12
 79
     3
140
3.5
147
0.875
172
     1
173
     1
178
     0
271
     1
272
     3
276
     2
284
    12
289
     0
340
7B
  0
DIMSTYLE
105
1B4
102
{ACAD_REACTORS
330
1B3
330
1BE
330
1E9
330
209
330
235
102
}
330
A
100
AcDbSymbolTableRecord
100
AcDbDimStyleTableRecord
  2
SLDDIMSTYLE1
 70
     0
 41
3.0
 44
0.0
 45
0.000000001
 73
     0
 74
     0
 77
     3
 78
    12
 79
     3
140
3.5
147
0.875
173
     1
178
     0
271
     1
272
     3
276
     2
284
    12
340
7B
  0
DIMSTYLE
105
1C9
102
{ACAD_REACTORS
330
1C8
330
1D3
102
}
330
A
100
AcDbSymbolTableRecord
100
AcDbDimStyleTableRecord
  2
SLDDIMSTYLE2
 70
     0
 41
3.0
 44
0.0
 45
0.000000001
 73
     0
 74
     0
 77
     3
 78
    12
 79
     3
140
3.5
147
0.875
173
     1
178
     0
271
     0
272
     3
276
     2
284
    12
340
7B
  0
DIMSTYLE
105
1F4
102
{ACAD_REACTORS
330
1F3
102
}
330
A
100
AcDbSymbolTableRecord
100
AcDbDimStyleTableRecord
  2
SLDDIMSTYLE3
 70
     0
  3
<>
 41
3.0
 44
0.0
 45
0.000000001
 78
    12
 79
     3
140
3.5
141
0.0
147
0.875
173
     1
178
     0
271
     1
272
     3
276
     2
284
    12
340
7B
  0
DIMSTYLE
105
214
102
{ACAD_REACTORS
330
213
102
}
330
A
100
AcDbSymbolTableRecord
100
AcDbDimStyleTableRecord
  2
SLDDIMSTYLE4
 70
     0
 41
3.0
 44
0.0
 45
0.000000001
 73
     0
 74
     0
 77
     3
 78
    12
 79
     3
140
3.5
147
0.875
172
     1
173
     1
178
     0
271
     1
272
     3
276
     2
284
    12
289
     0
340
7B
344
215
  0
DIMSTYLE
105
229
102
{ACAD_REACTORS
330
228
102
}
330
A
100
AcDbSymbolTableRecord
100
AcDbDimStyleTableRecord
  2
SLDDIMSTYLE5
 70
     0
 41
1.5
 44
0.0
 45
0.000000001
 73
     0
 74
     0
 77
     3
 78
    12
 79
     3
140
3.5
147
0.875
172
     1
173
     1
178
     0
271
     1
272
     3
276
     2
284
    12
289
     0
340
7B
341
215
343
215
  0
DIMSTYLE
105
25F
330
A
100
AcDbSymbolTableRecord
100
AcDbDimStyleTableRecord
  2
SLDDIMSTYLE6
 70
     0
 41
3.0
 44
0.0
 45
0.000000001
146
3.0
147
0.0
173
     1
178
     0
271
     0
272
     0
276
     2
340
11
  0
ENDTAB
  0
TABLE
  2
BLOCK_RECORD
  5
1
330
0
100
AcDbSymbolTable
 70
    25
  0
BLOCK_RECORD
  5
1F
330
1
100
AcDbSymbolTableRecord
100
AcDbBlockTableRecord
  2
*Model_Space
340
22
  0
BLOCK_RECORD
  5
1B
330
1
100
AcDbSymbolTableRecord
100
AcDbBlockTableRecord
  2
*Paper_Space
340
1E
  0
BLOCK_RECORD
  5
23
330
1
100
AcDbSymbolTableRecord
100
AcDbBlockTableRecord
  2
*Paper_Space0
340
26
  0
BLOCK_RECORD
  5
152
330
1
100
AcDbSymbolTableRecord
100
AcDbBlockTableRecord
  2
_D
340
0
  0
BLOCK_RECORD
  5
15E
330
1
100
AcDbSymbolTableRecord
100
AcDbBlockTableRecord
  2
_D_1
340
0
  0
BLOCK_RECORD
  5
1B5
330
1
100
AcDbSymbolTableRecord
100
AcDbBlockTableRecord
  2
_D_2
340
0
  0
BLOCK_RECORD
  5
1BF
330
1
100
AcDbSymbolTableRecord
100
AcDbBlockTableRecord
  2
_D_3
340
0
  0
BLOCK_RECORD
  5
1CA
330
1
100
AcDbSymbolTableRecord
100
AcDbBlockTableRecord
  2
_D_4
340
0
  0
BLOCK_RECORD
  5
1D4
330
1
100
AcDbSymbolTableRecord
100
AcDbBlockTableRecord
  2
_D_5
340
0
  0
BLOCK_RECORD
  5
1DE
330
1
100
AcDbSymbolTableRecord
100
AcDbBlockTableRecord
  2
_D_6
340
0
  0
BLOCK_RECORD
  5
1EA
330
1
100
AcDbSymbolTableRecord
100
AcDbBlockTableRecord
  2
_D_7
340
0
  0
BLOCK_RECORD
  5
1F5
330
1
100
AcDbSymbolTableRecord
100
AcDbBlockTableRecord
  2
_D_8
340
0
  0
BLOCK_RECORD
  5
1FE
330
1
100
AcDbSymbolTableRecord
100
AcDbBlockTableRecord
  2
_D_9
340
0
  0
BLOCK_RECORD
  5
20A
330
1
100
AcDbSymbolTableRecord
100
AcDbBlockTableRecord
  2
_D_10
340
0
  0
BLOCK_RECORD
  5
215
330
1
100
AcDbSymbolTableRecord
100
AcDbBlockTableRecord
  2
_DOT
340
0
102
{BLKREFS
331
221
331
22D
102
}
  0
BLOCK_RECORD
  5
21D
330
1
100
AcDbSymbolTableRecord
100
AcDbBlockTableRecord
  2
_D_11
340
0
  0
BLOCK_RECORD
  5
22A
330
1
100
AcDbSymbolTableRecord
100
AcDbBlockTableRecord
  2
_D_12
340
0
  0
BLOCK_RECORD
  5
236
330
1
100
AcDbSymbolTableRecord
100
AcDbBlockTableRecord
  2
_D_13
340
0
  0
BLOCK_RECORD
  5
242
330
1
100
AcDbSymbolTableRecord
100
AcDbBlockTableRecord
  2
_D_14
340
0
  0
BLOCK_RECORD
  5
24E
330
1
100
AcDbSymbolTableRecord
100
AcDbBlockTableRecord
  2
_D_15
340
0
  0
BLOCK_RECORD
  5
259
330
1
100
AcDbSymbolTableRecord
100
AcDbBlockTableRecord
  2
SW_NOTE_0
340
0
102
{BLKREFS
331
25E
102
}
  0
BLOCK_RECORD
  5
261
330
1
100
AcDbSymbolTableRecord
100
AcDbBlockTableRecord
  2
SW_CENTERMARKSYMBOL_0
340
0
102
{BLKREFS
331
26C
102
}
  0
BLOCK_RECORD
  5
26D
330
1
100
AcDbSymbolTableRecord
100
AcDbBlockTableRecord
  2
SW_CENTERMARKSYMBOL_1
340
0
102
{BLKREFS
331
278
102
}
  0
BLOCK_RECORD
  5
279
330
1
100
AcDbSymbolTableRecord
100
AcDbBlockTableRecord
  2
SW_CENTERMARKSYMBOL_2
340
0
102
{BLKREFS
331
284
102
}
  0
BLOCK_RECORD
  5
285
330
1
100
AcDbSymbolTableRecord
100
AcDbBlockTableRecord
  2
SW_CENTERMARKSYMBOL_3
340
0
102
{BLKREFS
331
290
102
}
  0
BLOCK_RECORD
  5
291
330
1
100
AcDbSymbolTableRecord
100
AcDbBlockTableRecord
  2
SW_CENTERMARKSYMBOL_4
340
0
102
{BLKREFS
331
29C
102
}
  0
BLOCK_RECORD
  5
29D
330
1
100
AcDbSymbolTableRecord
100
AcDbBlockTableRecord
  2
SW_CENTERMARKSYMBOL_5
340
0
102
{BLKREFS
331
2A8
102
}
  0
ENDTAB
  0
ENDSEC
  0
SECTION
  2
BLOCKS
  0
BLOCK
  5
20
330
1F
100
AcDbEntity
  8
0
100
AcDbBlockBegin
  2
*Model_Space
 70
     0
 10
0.0
 20
0.0
 30
0.0
  3
*Model_Space
  1

  0
ENDBLK
  5
21
330
1F
100
AcDbEntity
  8
0
100
AcDbBlockEnd
  0
BLOCK
  5
1C
330
1B
100
AcDbEntity
 67
     1
  8
0
100
AcDbBlockBegin
  2
*Paper_Space
 70
     0
 10
0.0
 20
0.0
 30
0.0
  3
*Paper_Space
  1

  0
ENDBLK
  5
1D
330
1B
100
AcDbEntity
 67
     1
  8
0
100
AcDbBlockEnd
  0
BLOCK
  5
24
330
23
100
AcDbEntity
  8
0
100
AcDbBlockBegin
  2
*Paper_Space0
 70
     0
 10
0.0
 20
0.0
 30
0.0
  3
*Paper_Space0
  1

  0
ENDBLK
  5
25
330
23
100
AcDbEntity
  8
0
100
AcDbBlockEnd
  0
BLOCK
  5
153
330
152
100
AcDbEntity
  8
0
100
AcDbBlockBegin
  2
_D
 70
     0
 10
0.0
 20
0.0
 30
0.0
  3
_D
  1

  0
SOLID
  5
155
330
152
100
AcDbEntity
  8
0
  6
Continuous
 62
     7
370
    18
100
AcDbTrace
 10
69.3432873699
 20
116.2373528324
 30
0.0
 11
72.3432873699
 21
115.4873528324
 31
0.0
 12
72.3432873699
 22
116.9873528324
 32
0.0
 13
72.3432873699
 23
116.9873528324
 33
0.0
  0
SOLID
  5
156
330
152
100
AcDbEntity
  8
0
  6
Continuous
 62
     7
370
    18
100
AcDbTrace
 10
57.8432873699
 20
116.2373528324
 30
0.0
 11
54.8432873699
 21
116.9873528324
 31
0.0
 12
54.8432873699
 22
115.4873528324
 32
0.0
 13
54.8432873699
 23
115.4873528324
 33
0.0
  0
LINE
  5
157
330
152
100
AcDbEntity
  8
0
  6
Continuous
 62
     7
370
    18
100
AcDbLine
 10
69.3432873699
 20
132.3479406011
 30
0.0
 11
69.3432873699
 21
115.2373528324
 31
0.0
  0
LINE
  5
158
330
152
100
AcDbEntity
  8
0
  6
Continuous
 62
     7
370
    18
100
AcDbLine
 10
57.8432873699
 20
130.1479406011
 30
0.0
 11
57.8432873699
 21
115.2373528324
 31
0.0
  0
LINE
  5
159
330
152
100
AcDbEntity
  8
0
  6
Continuous
 62
     7
370
    18
100
AcDbLine
 10
69.3432873699
 20
116.2373528324
 30
0.0
 11
74.3432873699
 21
116.2373528324
 31
0.0
  0
LINE
  5
15A
330
152
100
AcDbEntity
  8
0
  6
Continuous
 62
     7
370
    18
100
AcDbLine
 10
69.3432873699
 20
116.2373528324
 30
0.0
 11
57.8432873699
 21
116.2373528324
 31
0.0
  0
LINE
  5
15B
330
152
100
AcDbEntity
  8
0
  6
Continuous
 62
     7
370
    18
100
AcDbLine
 10
57.8432873699
 20
116.2373528324
 30
0.0
 11
52.8432873699
 21
116.2373528324
 31
0.0
  0
MTEXT
  5
15C
330
152
100
AcDbEntity
  8
0
  6
Continuous
 62
     7
370
    18
100
AcDbMText
 10
59.519676375
 20
120.7490896887
 30
0.0
 40
3.5
 41
0.0
 71
     1
 72
     1
  1
11.5
  7
SLDTEXTSTYLE0
 73
     1
 44
1.0
  0
ENDBLK
  5
154
330
152
100
AcDbEntity
  8
0
100
AcDbBlockEnd
  0
BLOCK
  5
15F
330
15E
100
AcDbEntity
  8
0
100
AcDbBlockBegin
  2
_D_1
 70
     0
 10
0.0
 20
0.0
 30
0.0
  3
_D_1
  1

  0
SOLID
  5
161
330
15E
100
AcDbEntity
  8
0
  6
Continuous
 62
     7
370
    18
100
AcDbTrace
 10
57.8432873699
 20
123.5869914987
 30
0.0
 11
54.8432873699
 21
124.3369914987
 31
0.0
 12
54.8432873699
 22
122.8369914987
 32
0.0
 13
54.8432873699
 23
122.8369914987
 33
0.0
  0
SOLID
  5
162
330
15E
100
AcDbEntity
  8
0
  6
Continuous
 62
     7
370
    18
100
AcDbTrace
 10
58.8432873699
 20
123.5869914987
 30
0.0
 11
61.8432873699
 21
122.8369914987
 31
0.0
 12
61.8432873699
 22
124.3369914987
 32
0.0
 13
61.8432873699
 23
124.3369914987
 33
0.0
  0
LINE
  5
163
330
15E
100
AcDbEntity
  8
0
  6
Continuous
 62
     7
370
    18
100
AcDbLine
 10
57.8432873699
 20
130.1479406011
 30
0.0
 11
57.8432873699
 21
122.5869914987
 31
0.0
  0
LINE
  5
164
330
15E
100
AcDbEntity
  8
0
  6
Continuous
 62
     7
370
    18
100
AcDbLine
 10
58.8432873699
 20
136.1479406011
 30
0.0
 11
58.8432873699
 21
122.5869914987
 31
0.0
  0
LINE
  5
165
330
15E
100
AcDbEntity
  8
0
  6
Continuous
 62
     7
370
    18
100
AcDbLine
 10
57.8432873699
 20
123.5869914987
 30
0.0
 11
51.1490221472
 21
123.5869914987
 31
0.0
  0
LINE
  5
166
330
15E
100
AcDbEntity
  8
0
  6
Continuous
 62
     7
370
    18
100
AcDbLine
 10
57.8432873699
 20
123.5869914987
 30
0.0
 11
58.8432873699
 21
123.5869914987
 31
0.0
  0
LINE
  5
167
330
15E
100
AcDbEntity
  8
0
  6
Continuous
 62
     7
370
    18
100
AcDbLine
 10
58.8432873699
 20
123.5869914987
 30
0.0
 11
63.8432873699
 21
123.5869914987
 31
0.0
  0
MTEXT
  5
168
330
15E
100
AcDbEntity
  8
0
  6
Continuous
 62
     7
370
    18
100
AcDbMText
 10
51.1490221472
 20
128.0987283551
 30
0.0
 40
3.5
 41
0.0
 71
     1
 72
     1
  1
1
  7
SLDTEXTSTYLE0
 73
     1
 44
1.0
  0
ENDBLK
  5
160
330
15E
100
AcDbEntity
  8
0
100
AcDbBlockEnd
  0
BLOCK
  5
1B6
330
1B5
100
AcDbEntity
  8
0
100
AcDbBlockBegin
  2
_D_2
 70
     0
 10
0.0
 20
0.0
 30
0.0
  3
_D_2
  1

  0
SOLID
  5
1B8
330
1B5
100
AcDbEntity
  8
0
  6
Continuous
 62
     7
370
    18
100
AcDbTrace
 10
129.9406387056
 20
166.7591207573
 30
0.0
 11
132.9406387056
 21
166.0091207573
 31
0.0
 12
132.9406387056
 22
167.5091207573
 32
0.0
 13
132.9406387056
 23
167.5091207573
 33
0.0
  0
SOLID
  5
1B9
330
1B5
100
AcDbEntity
  8
0
  6
Continuous
 62
     7
370
    18
100
AcDbTrace
 10
144.9406387056
 20
166.7591207573
 30
0.0
 11
141.9406387056
 21
167.5091207573
 31
0.0
 12
141.9406387056
 22
166.0091207573
 32
0.0
 13
141.9406387056
 23
166.0091207573
 33
0.0
  0
LINE
  5
1BA
330
1B5
100
AcDbEntity
  8
0
  6
Continuous
 62
     7
370
    18
100
AcDbLine
 10
129.9406387056
 20
150.7479406011
 30
0.0
 11
129.9406387056
 21
167.7591207573
 31
0.0
  0
LINE
  5
1BB
330
1B5
100
AcDbEntity
  8
0
  6
Continuous
 62
     7
370
    18
100
AcDbLine
 10
144.9406387056
 20
150.7479406011
 30
0.0
 11
144.9406387056
 21
167.7591207573
 31
0.0
  0
LINE
  5
1BC
330
1B5
100
AcDbEntity
  8
0
  6
Continuous
 62
     7
370
    18
100
AcDbLine
 10
129.9406387056
 20
166.7591207573
 30
0.0
 11
144.9406387056
 21
166.7591207573
 31
0.0
  0
MTEXT
  5
1BD
330
1B5
100
AcDbEntity
  8
0
  6
Continuous
 62
     7
370
    18
100
AcDbMText
 10
135.4038332081
 20
171.2708576137
 30
0.0
 40
3.5
 41
0.0
 71
     1
 72
     1
  1
15
  7
SLDTEXTSTYLE0
 73
     1
 44
1.0
  0
ENDBLK
  5
1B7
330
1B5
100
AcDbEntity
  8
0
100
AcDbBlockEnd
  0
BLOCK
  5
1C0
330
1BF
100
AcDbEntity
  8
0
100
AcDbBlockBegin
  2
_D_3
 70
     0
 10
0.0
 20
0.0
 30
0.0
  3
_D_3
  1

  0
SOLID
  5
1C2
330
1BF
100
AcDbEntity
  8
0
  6
Continuous
 62
     7
370
    18
100
AcDbTrace
 10
186.1807664354
 20
143.2479406011
 30
0.0
 11
186.9307664354
 21
146.2479406011
 31
0.0
 12
185.4307664354
 22
146.2479406011
 32
0.0
 13
185.4307664354
 23
146.2479406011
 33
0.0
  0
SOLID
  5
1C3
330
1BF
100
AcDbEntity
  8
0
  6
Continuous
 62
     7
370
    18
100
AcDbTrace
 10
186.1807664354
 20
158.2479406011
 30
0.0
 11
185.4307664354
 21
155.2479406011
 31
0.0
 12
186.9307664354
 22
155.2479406011
 32
0.0
 13
186.9307664354
 23
155.2479406011
 33
0.0
  0
LINE
  5
1C4
330
1BF
100
AcDbEntity
  8
0
  6
Continuous
 62
     7
370
    18
100
AcDbLine
 10
152.4406387056
 20
143.2479406011
 30
0.0
 11
187.1807664354
 21
143.2479406011
 31
0.0
  0
LINE
  5
1C5
330
1BF
100
AcDbEntity
  8
0
  6
Continuous
 62
     7
370
    18
100
AcDbLine
 10
170.9406387056
 20
158.2479406011
 30
0.0
 11
187.1807664354
 21
158.2479406011
 31
0.0
  0
LINE
  5
1C6
330
1BF
100
AcDbEntity
  8
0
  6
Continuous
 62
     7
370
    18
100
AcDbLine
 10
186.1807664354
 20
143.2479406011
 30
0.0
 11
186.1807664354
 21
158.2479406011
 31
0.0
  0
MTEXT
  5
1C7
330
1BF
100
AcDbEntity
  8
0
  6
Continuous
 62
     7
370
    18
100
AcDbMText
 10
181.6690295791
 20
148.7111351037
 30
0.0
 40
3.5
 41
0.0
 71
     1
 72
     1
  1
15
  7
SLDTEXTSTYLE0
 11
7.273661547324616E-16
 21
1.0
 31
0.0
 73
     1
 44
1.0
  0
ENDBLK
  5
1C1
330
1BF
100
AcDbEntity
  8
0
100
AcDbBlockEnd
  0
BLOCK
  5
1CB
330
1CA
100
AcDbEntity
  8
0
100
AcDbBlockBegin
  2
_D_4
 70
     0
 10
0.0
 20
0.0
 30
0.0
  3
_D_4
  1

  0
SOLID
  5
1CD
330
1CA
100
AcDbEntity
  8
0
  6
Continuous
 62
     7
370
    18
100
AcDbTrace
 10
186.1807664354
 20
143.2479406011
 30
0.0
 11
185.4307664354
 21
140.2479406011
 31
0.0
 12
186.9307664354
 22
140.2479406011
 32
0.0
 13
186.9307664354
 23
140.2479406011
 33
0.0
  0
SOLID
  5
1CE
330
1CA
100
AcDbEntity
  8
0
  6
Continuous
 62
     7
370
    18
100
AcDbTrace
 10
186.1807664354
 20
130.1479406011
 30
0.0
 11
186.9307664354
 21
133.1479406011
 31
0.0
 12
185.4307664354
 22
133.1479406011
 32
0.0
 13
185.4307664354
 23
133.1479406011
 33
0.0
  0
LINE
  5
1CF
330
1CA
100
AcDbEntity
  8
0
  6
Continuous
 62
     7
370
    18
100
AcDbLine
 10
152.4406387056
 20
143.2479406011
 30
0.0
 11
187.1807664354
 21
143.2479406011
 31
0.0
  0
LINE
  5
1D0
330
1CA
100
AcDbEntity
  8
0
  6
Continuous
 62
     7
370
    18
100
AcDbLine
 10
170.9406387056
 20
130.1479406011
 30
0.0
 11
187.1807664354
 21
130.1479406011
 31
0.0
  0
LINE
  5
1D1
330
1CA
100
AcDbEntity
  8
0
  6
Continuous
 62
     7
370
    18
100
AcDbLine
 10
186.1807664354
 20
143.2479406011
 30
0.0
 11
186.1807664354
 21
130.1479406011
 31
0.0
  0
MTEXT
  5
1D2
330
1CA
100
AcDbEntity
  8
0
  6
Continuous
 62
     7
370
    18
100
AcDbMText
 10
181.6690295791
 20
134.6611351037
 30
0.0
 40
3.5
 41
0.0
 71
     1
 72
     1
  1
13
  7
SLDTEXTSTYLE0
 11
-7.044195017643634E-15
 21
1.0
 31
0.0
 73
     1
 44
1.0
  0
ENDBLK
  5
1CC
330
1CA
100
AcDbEntity
  8
0
100
AcDbBlockEnd
  0
BLOCK
  5
1D5
330
1D4
100
AcDbEntity
  8
0
100
AcDbBlockBegin
  2
_D_5
 70
     0
 10
0.0
 20
0.0
 30
0.0
  3
_D_5
  1

  0
SOLID
  5
1D7
330
1D4
100
AcDbEntity
  8
0
  6
Continuous
 62
     7
370
    18
100
AcDbTrace
 10
108.4406387056
 20
158.2479406011
 30
0.0
 11
107.6906387056
 21
155.2479406011
 31
0.0
 12
109.1906387056
 22
155.2479406011
 32
0.0
 13
109.1906387056
 23
155.2479406011
 33
0.0
  0
SOLID
  5
1D8
330
1D4
100
AcDbEntity
  8
0
  6
Continuous
 62
     7
370
    18
100
AcDbTrace
 10
108.4406387056
 20
130.1479406011
 30
0.0
 11
109.1906387056
 21
133.1479406011
 31
0.0
 12
107.6906387056
 22
133.1479406011
 32
0.0
 13
107.6906387056
 23
133.1479406011
 33
0.0
  0
LINE
  5
1D9
330
1D4
100
AcDbEntity
  8
0
  6
Continuous
 62
     7
370
    18
100
AcDbLine
 10
118.9406387056
 20
158.2479406011
 30
0.0
 11
107.4406387056
 21
158.2479406011
 31
0.0
  0
LINE
  5
1DA
330
1D4
100
AcDbEntity
  8
0
  6
Continuous
 62
     7
370
    18
100
AcDbLine
 10
118.9406387056
 20
130.1479406011
 30
0.0
 11
107.4406387056
 21
130.1479406011
 31
0.0
  0
LINE
  5
1DB
330
1D4
100
AcDbEntity
  8
0
  6
Continuous
 62
     7
370
    18
100
AcDbLine
 10
108.4406387056
 20
158.2479406011
 30
0.0
 11
108.4406387056
 21
130.1479406011
 31
0.0
  0
MTEXT
  5
1DC
330
1D4
100
AcDbEntity
  8
0
  6
Continuous
 62
     7
370
    18
100
AcDbMText
 10
103.9289018492
 20
142.1611351037
 30
0.0
 40
3.5
 41
0.0
 71
     1
 72
     1
  1
28
  7
SLDTEXTSTYLE0
 11
-6.156016597943509E-15
 21
1.0
 31
0.0
 73
     1
 44
1.0
  0
ENDBLK
  5
1D6
330
1D4
100
AcDbEntity
  8
0
100
AcDbBlockEnd
  0
BLOCK
  5
1DF
330
1DE
100
AcDbEntity
  8
0
100
AcDbBlockBegin
  2
_D_6
 70
     0
 10
0.0
 20
0.0
 30
0.0
  3
_D_6
  1

  0
SOLID
  5
1E1
330
1DE
100
AcDbEntity
  8
0
  6
Continuous
 62
     7
370
    18
100
AcDbTrace
 10
129.9406387056
 20
166.7591207573
 30
0.0
 11
132.9406387056
 21
166.0091207573
 31
0.0
 12
132.9406387056
 22
167.5091207573
 32
0.0
 13
132.9406387056
 23
167.5091207573
 33
0.0
  0
SOLID
  5
1E2
330
1DE
100
AcDbEntity
  8
0
  6
Continuous
 62
     7
370
    18
100
AcDbTrace
 10
119.9406387056
 20
166.7591207573
 30
0.0
 11
116.9406387056
 21
167.5091207573
 31
0.0
 12
116.9406387056
 22
166.0091207573
 32
0.0
 13
116.9406387056
 23
166.0091207573
 33
0.0
  0
LINE
  5
1E3
330
1DE
100
AcDbEntity
  8
0
  6
Continuous
 62
     7
370
    18
100
AcDbLine
 10
129.9406387056
 20
150.7479406011
 30
0.0
 11
129.9406387056
 21
167.7591207573
 31
0.0
  0
LINE
  5
1E4
330
1DE
100
AcDbEntity
  8
0
  6
Continuous
 62
     7
370
    18
100
AcDbLine
 10
119.9406387056
 20
159.2479406011
 30
0.0
 11
119.9406387056
 21
167.7591207573
 31
0.0
  0
LINE
  5
1E5
330
1DE
100
AcDbEntity
  8
0
  6
Continuous
 62
     7
370
    18
100
AcDbLine
 10
129.9406387056
 20
166.7591207573
 30
0.0
 11
134.9406387056
 21
166.7591207573
 31
0.0
  0
LINE
  5
1E6
330
1DE
100
AcDbEntity
  8
0
  6
Continuous
 62
     7
370
    18
100
AcDbLine
 10
129.9406387056
 20
166.7591207573
 30
0.0
 11
119.9406387056
 21
166.7591207573
 31
0.0
  0
LINE
  5
1E7
330
1DE
100
AcDbEntity
  8
0
  6
Continuous
 62
     7
370
    18
100
AcDbLine
 10
119.9406387056
 20
166.7591207573
 30
0.0
 11
112.0444569101
 21
166.7591207573
 31
0.0
  0
MTEXT
  5
1E8
330
1DE
100
AcDbEntity
  8
0
  6
Continuous
 62
     7
370
    18
100
AcDbMText
 10
112.0444569101
 20
171.2708576137
 30
0.0
 40
3.5
 41
0.0
 71
     1
 72
     1
  1
10
  7
SLDTEXTSTYLE0
 73
     1
 44
1.0
  0
ENDBLK
  5
1E0
330
1DE
100
AcDbEntity
  8
0
100
AcDbBlockEnd
  0
BLOCK
  5
1EB
330
1EA
100
AcDbEntity
  8
0
100
AcDbBlockBegin
  2
_D_7
 70
     0
 10
0.0
 20
0.0
 30
0.0
  3
_D_7
  1

  0
SOLID
  5
1ED
330
1EA
100
AcDbEntity
  8
0
  6
Continuous
 62
     7
370
    18
100
AcDbTrace
 10
119.9406387056
 20
186.2479406011
 30
0.0
 11
122.9406387056
 21
185.4979406011
 31
0.0
 12
122.9406387056
 22
186.9979406011
 32
0.0
 13
122.9406387056
 23
186.9979406011
 33
0.0
  0
SOLID
  5
1EE
330
1EA
100
AcDbEntity
  8
0
  6
Continuous
 62
     7
370
    18
100
AcDbTrace
 10
169.9406387056
 20
186.2479406011
 30
0.0
 11
166.9406387056
 21
186.9979406011
 31
0.0
 12
166.9406387056
 22
185.4979406011
 32
0.0
 13
166.9406387056
 23
185.4979406011
 33
0.0
  0
LINE
  5
1EF
330
1EA
100
AcDbEntity
  8
0
  6
Continuous
 62
     7
370
    18
100
AcDbLine
 10
119.9406387056
 20
159.2479406011
 30
0.0
 11
119.9406387056
 21
187.2479406011
 31
0.0
  0
LINE
  5
1F0
330
1EA
100
AcDbEntity
  8
0
  6
Continuous
 62
     7
370
    18
100
AcDbLine
 10
169.9406387056
 20
159.2479406011
 30
0.0
 11
169.9406387056
 21
187.2479406011
 31
0.0
  0
LINE
  5
1F1
330
1EA
100
AcDbEntity
  8
0
  6
Continuous
 62
     7
370
    18
100
AcDbLine
 10
119.9406387056
 20
186.2479406011
 30
0.0
 11
169.9406387056
 21
186.2479406011
 31
0.0
  0
MTEXT
  5
1F2
330
1EA
100
AcDbEntity
  8
0
  6
Continuous
 62
     7
370
    18
100
AcDbMText
 10
142.9038332081
 20
190.7596774575
 30
0.0
 40
3.5
 41
0.0
 71
     1
 72
     1
  1
50
  7
SLDTEXTSTYLE0
 73
     1
 44
1.0
  0
ENDBLK
  5
1EC
330
1EA
100
AcDbEntity
  8
0
100
AcDbBlockEnd
  0
BLOCK
  5
1F6
330
1F5
100
AcDbEntity
  8
0
100
AcDbBlockBegin
  2
_D_8
 70
     0
 10
0.0
 20
0.0
 30
0.0
  3
_D_8
  1

  0
SOLID
  5
1F8
330
1F5
100
AcDbEntity
  8
0
  6
Continuous
 62
     7
370
    18
100
AcDbTrace
 10
127.3657384971
 20
146.3089680293
 30
0.0
 11
126.0085059835
 21
149.0875323896
 31
0.0
 12
124.8606206979
 22
148.1219448114
 32
0.0
 13
124.8606206979
 23
148.1219448114
 33
0.0
  0
LINE
  5
1F9
330
1F5
100
AcDbEntity
  8
0
  6
Continuous
 62
     7
370
    18
100
AcDbLine
 10
127.3657384971
 20
146.3089680293
 30
0.0
 11
110.0139992639
 21
166.9366216927
 31
0.0
  0
LINE
  5
1FA
330
1F5
100
AcDbEntity
  8
0
  6
Continuous
 62
     7
370
    18
100
AcDbLine
 10
110.0139992639
 20
166.9366216927
 30
0.0
 11
73.8008051082
 21
166.9366216927
 31
0.0
  0
MTEXT
  5
1FC
330
1F5
100
AcDbEntity
  8
0
  6
Continuous
 62
     7
370
    18
100
AcDbMText
 10
73.8008051082
 20
171.4483585491
 30
0.0
 40
3.5
 41
0.0
 71
     1
 72
     1
  1
2-M4       　　　
  7
SLDTEXTSTYLE1
 73
     1
 44
1.0
  0
ENDBLK
  5
1F7
330
1F5
100
AcDbEntity
  8
0
100
AcDbBlockEnd
  0
BLOCK
  5
1FF
330
1FE
100
AcDbEntity
  8
0
100
AcDbBlockBegin
  2
_D_9
 70
     0
 10
0.0
 20
0.0
 30
0.0
  3
_D_9
  1

  0
SOLID
  5
201
330
1FE
100
AcDbEntity
  8
0
  6
Continuous
 62
     7
370
    18
100
AcDbTrace
 10
119.9406387056
 20
176.4518895494
 30
0.0
 11
116.9406387056
 21
177.2018895494
 31
0.0
 12
116.9406387056
 22
175.7018895494
 32
0.0
 13
116.9406387056
 23
175.7018895494
 33
0.0
  0
SOLID
  5
202
330
1FE
100
AcDbEntity
  8
0
  6
Continuous
 62
     7
370
    18
100
AcDbTrace
 10
123.4406387056
 20
176.4518895494
 30
0.0
 11
126.4406387056
 21
175.7018895494
 31
0.0
 12
126.4406387056
 22
177.2018895494
 32
0.0
 13
126.4406387056
 23
177.2018895494
 33
0.0
  0
LINE
  5
203
330
1FE
100
AcDbEntity
  8
0
  6
Continuous
 62
     7
370
    18
100
AcDbLine
 10
119.9406387056
 20
159.2479406011
 30
0.0
 11
119.9406387056
 21
177.4518895494
 31
0.0
  0
LINE
  5
204
330
1FE
100
AcDbEntity
  8
0
  6
Continuous
 62
     7
370
    18
100
AcDbLine
 10
123.4406387056
 20
153.4979406011
 30
0.0
 11
123.4406387056
 21
177.4518895494
 31
0.0
  0
LINE
  5
205
330
1FE
100
AcDbEntity
  8
0
  6
Continuous
 62
     7
370
    18
100
AcDbLine
 10
119.9406387056
 20
176.4518895494
 30
0.0
 11
108.7319360572
 21
176.4518895494
 31
0.0
  0
LINE
  5
206
330
1FE
100
AcDbEntity
  8
0
  6
Continuous
 62
     7
370
    18
100
AcDbLine
 10
119.9406387056
 20
176.4518895494
 30
0.0
 11
123.4406387056
 21
176.4518895494
 31
0.0
  0
LINE
  5
207
330
1FE
100
AcDbEntity
  8
0
  6
Continuous
 62
     7
370
    18
100
AcDbLine
 10
123.4406387056
 20
176.4518895494
 30
0.0
 11
128.4406387056
 21
176.4518895494
 31
0.0
  0
MTEXT
  5
208
330
1FE
100
AcDbEntity
  8
0
  6
Continuous
 62
     7
370
    18
100
AcDbMText
 10
108.7319360572
 20
180.9636264058
 30
0.0
 40
3.5
 41
0.0
 71
     1
 72
     1
  1
3.5
  7
SLDTEXTSTYLE0
 73
     1
 44
1.0
  0
ENDBLK
  5
200
330
1FE
100
AcDbEntity
  8
0
100
AcDbBlockEnd
  0
BLOCK
  5
20B
330
20A
100
AcDbEntity
  8
0
100
AcDbBlockBegin
  2
_D_10
 70
     0
 10
0.0
 20
0.0
 30
0.0
  3
_D_10
  1

  0
SOLID
  5
20D
330
20A
100
AcDbEntity
  8
0
  6
Continuous
 62
     7
370
    18
100
AcDbTrace
 10
123.4406387056
 20
176.4518895494
 30
0.0
 11
126.4406387056
 21
175.7018895494
 31
0.0
 12
126.4406387056
 22
177.2018895494
 32
0.0
 13
126.4406387056
 23
177.2018895494
 33
0.0
  0
SOLID
  5
20E
330
20A
100
AcDbEntity
  8
0
  6
Continuous
 62
     7
370
    18
100
AcDbTrace
 10
158.4406387056
 20
176.4518895494
 30
0.0
 11
155.4406387056
 21
177.2018895494
 31
0.0
 12
155.4406387056
 22
175.7018895494
 32
0.0
 13
155.4406387056
 23
175.7018895494
 33
0.0
  0
LINE
  5
20F
330
20A
100
AcDbEntity
  8
0
  6
Continuous
 62
     7
370
    18
100
AcDbLine
 10
123.4406387056
 20
153.4979406011
 30
0.0
 11
123.4406387056
 21
177.4518895494
 31
0.0
  0
LINE
  5
210
330
20A
100
AcDbEntity
  8
0
  6
Continuous
 62
     7
370
    18
100
AcDbLine
 10
158.4406387056
 20
153.4979406011
 30
0.0
 11
158.4406387056
 21
177.4518895494
 31
0.0
  0
LINE
  5
211
330
20A
100
AcDbEntity
  8
0
  6
Continuous
 62
     7
370
    18
100
AcDbLine
 10
123.4406387056
 20
176.4518895494
 30
0.0
 11
158.4406387056
 21
176.4518895494
 31
0.0
  0
MTEXT
  5
212
330
20A
100
AcDbEntity
  8
0
  6
Continuous
 62
     7
370
    18
100
AcDbMText
 10
138.9038332081
 20
180.9636264058
 30
0.0
 40
3.5
 41
0.0
 71
     1
 72
     1
  1
35
  7
SLDTEXTSTYLE0
 73
     1
 44
1.0
  0
ENDBLK
  5
20C
330
20A
100
AcDbEntity
  8
0
100
AcDbBlockEnd
  0
BLOCK
  5
216
330
215
100
AcDbEntity
  8
0
100
AcDbBlockBegin
  2
_DOT
 70
     0
 10
0.0
 20
0.0
 30
0.0
  3
_DOT
  1

  0
POLYLINE
  5
218
330
215
100
AcDbEntity
  8
0
  6
ByBlock
 62
     0
100
AcDb2dPolyline
 66
     1
 10
0.0
 20
0.0
 30
0.0
 70
     1
 40
0.5
 41
0.5
  0
VERTEX
  5
21A
330
218
100
AcDbEntity
  8
0
  6
ByBlock
 62
     0
100
AcDbVertex
100
AcDb2dVertex
 10
-0.25
 20
0.0
 30
0.0
 42
1.0
  0
VERTEX
  5
21B
330
218
100
AcDbEntity
  8
0
  6
ByBlock
 62
     0
100
AcDbVertex
100
AcDb2dVertex
 10
0.25
 20
0.0
 30
0.0
 42
1.0
  0
SEQEND
  5
21C
330
218
100
AcDbEntity
  8
0
  6
ByBlock
 62
     0
  0
LINE
  5
219
330
215
100
AcDbEntity
  8
0
  6
ByBlock
 62
     0
370
    -2
100
AcDbLine
 10
-0.5
 20
0.0
 30
0.0
 11
-1.0
 21
0.0
 31
0.0
  0
ENDBLK
  5
217
330
215
100
AcDbEntity
  8
0
100
AcDbBlockEnd
  0
BLOCK
  5
21E
330
21D
100
AcDbEntity
  8
0
100
AcDbBlockBegin
  2
_D_11
 70
     0
 10
0.0
 20
0.0
 30
0.0
  3
_D_11
  1

  0
SOLID
  5
220
330
21D
100
AcDbEntity
  8
0
  6
Continuous
 62
     7
370
    18
100
AcDbTrace
 10
178.4997726267
 20
158.2479406011
 30
0.0
 11
179.2497726267
 21
161.2479406011
 31
0.0
 12
177.7497726267
 22
161.2479406011
 32
0.0
 13
177.7497726267
 23
161.2479406011
 33
0.0
  0
INSERT
  5
221
330
21D
100
AcDbEntity
  8
0
  6
Continuous
 62
     7
370
    18
100
AcDbBlockReference
  2
_DOT
 10
178.4997726267
 20
148.7479406011
 30
-42.9832227357
 41
1.5
 42
1.5
 50
90.0
  0
LINE
  5
222
330
21D
100
AcDbEntity
  8
0
  6
Continuous
 62
     7
370
    18
100
AcDbLine
 10
170.9406387056
 20
158.2479406011
 30
0.0
 11
179.4997726267
 21
158.2479406011
 31
0.0
  0
LINE
  5
223
330
21D
100
AcDbEntity
  8
0
  6
Continuous
 62
     7
370
    18
100
AcDbLine
 10
163.1906387056
 20
148.7479406011
 30
0.0
 11
179.4997726267
 21
148.7479406011
 31
0.0
  0
LINE
  5
224
330
21D
100
AcDbEntity
  8
0
  6
Continuous
 62
     7
370
    18
100
AcDbLine
 10
178.4997726267
 20
158.2479406011
 30
0.0
 11
178.4997726267
 21
163.2479406011
 31
0.0
  0
LINE
  5
225
330
21D
100
AcDbEntity
  8
0
  6
Continuous
 62
     7
370
    18
100
AcDbLine
 10
178.4997726267
 20
158.2479406011
 30
0.0
 11
178.4997726267
 21
148.7479406011
 31
0.0
  0
LINE
  5
226
330
21D
100
AcDbEntity
  8
0
  6
Continuous
 62
     7
370
    18
100
AcDbLine
 10
178.4997726267
 20
148.7479406011
 30
0.0
 11
178.4997726267
 21
143.7479406011
 31
0.0
  0
MTEXT
  5
227
330
21D
100
AcDbEntity
  8
0
  6
Continuous
 62
     7
370
    18
100
AcDbMText
 10
173.9880357704
 20
150.4427322385
 30
0.0
 40
3.5
 41
0.0
 71
     1
 72
     1
  1
9.5
  7
SLDTEXTSTYLE0
 11
-6.156016597943509E-15
 21
1.0
 31
0.0
 73
     1
 44
1.0
  0
ENDBLK
  5
21F
330
21D
100
AcDbEntity
  8
0
100
AcDbBlockEnd
  0
BLOCK
  5
22B
330
22A
100
AcDbEntity
  8
0
100
AcDbBlockBegin
  2
_D_12
 70
     0
 10
0.0
 20
0.0
 30
0.0
  3
_D_12
  1

  0
INSERT
  5
22D
330
22A
100
AcDbEntity
  8
0
  6
Continuous
 62
     7
370
    18
100
AcDbBlockReference
  2
_DOT
 10
178.4997726267
 20
148.7479406011
 30
-42.9832227357
 41
1.5
 42
1.5
 50
270.0
  0
SOLID
  5
22E
330
22A
100
AcDbEntity
  8
0
  6
Continuous
 62
     7
370
    18
100
AcDbTrace
 10
178.4997726267
 20
140.7479406011
 30
0.0
 11
177.7497726267
 21
137.7479406011
 31
0.0
 12
179.2497726267
 22
137.7479406011
 32
0.0
 13
179.2497726267
 23
137.7479406011
 33
0.0
  0
LINE
  5
22F
330
22A
100
AcDbEntity
  8
0
  6
Continuous
 62
     7
370
    18
100
AcDbLine
 10
163.1906387056
 20
148.7479406011
 30
0.0
 11
179.4997726267
 21
148.7479406011
 31
0.0
  0
LINE
  5
230
330
22A
100
AcDbEntity
  8
0
  6
Continuous
 62
     7
370
    18
100
AcDbLine
 10
163.1906387056
 20
140.7479406011
 30
0.0
 11
179.4997726267
 21
140.7479406011
 31
0.0
  0
LINE
  5
231
330
22A
100
AcDbEntity
  8
0
  6
Continuous
 62
     7
370
    18
100
AcDbLine
 10
178.4997726267
 20
148.7479406011
 30
0.0
 11
178.4997726267
 21
153.7479406011
 31
0.0
  0
LINE
  5
232
330
22A
100
AcDbEntity
  8
0
  6
Continuous
 62
     7
370
    18
100
AcDbLine
 10
178.4997726267
 20
148.7479406011
 30
0.0
 11
178.4997726267
 21
140.7479406011
 31
0.0
  0
LINE
  5
233
330
22A
100
AcDbEntity
  8
0
  6
Continuous
 62
     7
370
    18
100
AcDbLine
 10
178.4997726267
 20
140.7479406011
 30
0.0
 11
178.4997726267
 21
135.7479406011
 31
0.0
  0
MTEXT
  5
234
330
22A
100
AcDbEntity
  8
0
  6
Continuous
 62
     7
370
    18
100
AcDbMText
 10
173.9880357704
 20
143.7295378524
 30
0.0
 40
3.5
 41
0.0
 71
     1
 72
     1
  1
8
  7
SLDTEXTSTYLE0
 11
-7.044195017643634E-15
 21
1.0
 31
0.0
 73
     1
 44
1.0
  0
ENDBLK
  5
22C
330
22A
100
AcDbEntity
  8
0
100
AcDbBlockEnd
  0
BLOCK
  5
237
330
236
100
AcDbEntity
  8
0
100
AcDbBlockBegin
  2
_D_13
 70
     0
 10
0.0
 20
0.0
 30
0.0
  3
_D_13
  1

  0
ARC
  5
239
330
236
100
AcDbEntity
  8
0
  6
Continuous
 62
     7
370
    18
100
AcDbCircle
 10
146.9774441449
 20
113.0902300261
 30
0.0
 40
4.554435549315978
100
AcDbArc
 50
153.4349488229
 51
206.5650511771
  0
ARC
  5
23A
330
236
100
AcDbEntity
  8
0
  6
Continuous
 62
     7
370
    18
100
AcDbCircle
 10
142.9038331499
 20
113.0902300261
 30
0.0
 40
4.554435549315953
100
AcDbArc
 50
333.4349488229
 51
26.5650511771
  0
SOLID
  5
23B
330
236
100
AcDbEntity
  8
0
  6
Continuous
 62
     7
370
    18
100
AcDbTrace
 10
171.4406387056
 20
111.0534245286
 30
0.0
 11
168.4406387056
 21
111.8034245286
 31
0.0
 12
168.4406387056
 22
110.3034245286
 32
0.0
 13
168.4406387056
 23
110.3034245286
 33
0.0
  0
SOLID
  5
23C
330
236
100
AcDbEntity
  8
0
  6
Continuous
 62
     7
370
    18
100
AcDbTrace
 10
118.4406387056
 20
111.0534245286
 30
0.0
 11
121.4406387056
 21
110.3034245286
 31
0.0
 12
121.4406387056
 22
111.8034245286
 32
0.0
 13
121.4406387056
 23
111.8034245286
 33
0.0
  0
LINE
  5
23D
330
236
100
AcDbEntity
  8
0
  6
Continuous
 62
     7
370
    18
100
AcDbLine
 10
171.4406387056
 20
130.1479406011
 30
0.0
 11
171.4406387056
 21
110.0534245286
 31
0.0
  0
LINE
  5
23E
330
236
100
AcDbEntity
  8
0
  6
Continuous
 62
     7
370
    18
100
AcDbLine
 10
118.4406387056
 20
131.1479406011
 30
0.0
 11
118.4406387056
 21
110.0534245286
 31
0.0
  0
LINE
  5
23F
330
236
100
AcDbEntity
  8
0
  6
Continuous
 62
     7
370
    18
100
AcDbLine
 10
171.4406387056
 20
111.0534245286
 30
0.0
 11
118.4406387056
 21
111.0534245286
 31
0.0
  0
MTEXT
  5
240
330
236
100
AcDbEntity
  8
0
  6
Continuous
 62
     7
370
    18
100
AcDbMText
 10
142.9038331499
 20
115.565161385
 30
0.0
 40
3.5
 41
0.0
 71
     1
 72
     1
  1
53
  7
SLDTEXTSTYLE0
 73
     1
 44
1.0
  0
ENDBLK
  5
238
330
236
100
AcDbEntity
  8
0
100
AcDbBlockEnd
  0
BLOCK
  5
243
330
242
100
AcDbEntity
  8
0
100
AcDbBlockBegin
  2
_D_14
 70
     0
 10
0.0
 20
0.0
 30
0.0
  3
_D_14
  1

  0
SOLID
  5
245
330
242
100
AcDbEntity
  8
0
  6
Continuous
 62
     7
370
    18
100
AcDbTrace
 10
118.4406387056
 20
121.5658557954
 30
0.0
 11
115.4406387056
 21
122.3158557954
 31
0.0
 12
115.4406387056
 22
120.8158557954
 32
0.0
 13
115.4406387056
 23
120.8158557954
 33
0.0
  0
SOLID
  5
246
330
242
100
AcDbEntity
  8
0
  6
Continuous
 62
     7
370
    18
100
AcDbTrace
 10
119.9406387056
 20
121.5658557954
 30
0.0
 11
122.9406387056
 21
120.8158557954
 31
0.0
 12
122.9406387056
 22
122.3158557954
 32
0.0
 13
122.9406387056
 23
122.3158557954
 33
0.0
  0
LINE
  5
247
330
242
100
AcDbEntity
  8
0
  6
Continuous
 62
     7
370
    18
100
AcDbLine
 10
118.4406387056
 20
131.1479406011
 30
0.0
 11
118.4406387056
 21
120.5658557954
 31
0.0
  0
LINE
  5
248
330
242
100
AcDbEntity
  8
0
  6
Continuous
 62
     7
370
    18
100
AcDbLine
 10
119.9406387056
 20
129.1479406011
 30
0.0
 11
119.9406387056
 21
120.5658557954
 31
0.0
  0
LINE
  5
249
330
242
100
AcDbEntity
  8
0
  6
Continuous
 62
     7
370
    18
100
AcDbLine
 10
118.4406387056
 20
121.5658557954
 30
0.0
 11
108.6498737661
 21
121.5658557954
 31
0.0
  0
LINE
  5
24A
330
242
100
AcDbEntity
  8
0
  6
Continuous
 62
     7
370
    18
100
AcDbLine
 10
118.4406387056
 20
121.5658557954
 30
0.0
 11
119.9406387056
 21
121.5658557954
 31
0.0
  0
LINE
  5
24B
330
242
100
AcDbEntity
  8
0
  6
Continuous
 62
     7
370
    18
100
AcDbLine
 10
119.9406387056
 20
121.5658557954
 30
0.0
 11
124.9406387056
 21
121.5658557954
 31
0.0
  0
MTEXT
  5
24C
330
242
100
AcDbEntity
  8
0
  6
Continuous
 62
     7
370
    18
100
AcDbMText
 10
108.6498737661
 20
126.0775926517
 30
0.0
 40
3.5
 41
0.0
 71
     1
 72
     1
  1
1.5
  7
SLDTEXTSTYLE0
 73
     1
 44
1.0
  0
ENDBLK
  5
244
330
242
100
AcDbEntity
  8
0
100
AcDbBlockEnd
  0
BLOCK
  5
24F
330
24E
100
AcDbEntity
  8
0
100
AcDbBlockBegin
  2
_D_15
 70
     0
 10
0.0
 20
0.0
 30
0.0
  3
_D_15
  1

  0
SOLID
  5
251
330
24E
100
AcDbEntity
  8
0
  6
Continuous
 62
     7
370
    18
100
AcDbTrace
 10
169.9406387056
 20
121.5658557954
 30
0.0
 11
166.9406387056
 21
122.3158557954
 31
0.0
 12
166.9406387056
 22
120.8158557954
 32
0.0
 13
166.9406387056
 23
120.8158557954
 33
0.0
  0
SOLID
  5
252
330
24E
100
AcDbEntity
  8
0
  6
Continuous
 62
     7
370
    18
100
AcDbTrace
 10
171.4406387056
 20
121.5658557954
 30
0.0
 11
174.4406387056
 21
120.8158557954
 31
0.0
 12
174.4406387056
 22
122.3158557954
 32
0.0
 13
174.4406387056
 23
122.3158557954
 33
0.0
  0
LINE
  5
253
330
24E
100
AcDbEntity
  8
0
  6
Continuous
 62
     7
370
    18
100
AcDbLine
 10
169.9406387056
 20
129.1479406011
 30
0.0
 11
169.9406387056
 21
120.5658557954
 31
0.0
  0
LINE
  5
254
330
24E
100
AcDbEntity
  8
0
  6
Continuous
 62
     7
370
    18
100
AcDbLine
 10
171.4406387056
 20
130.1479406011
 30
0.0
 11
171.4406387056
 21
120.5658557954
 31
0.0
  0
LINE
  5
255
330
24E
100
AcDbEntity
  8
0
  6
Continuous
 62
     7
370
    18
100
AcDbLine
 10
169.9406387056
 20
121.5658557954
 30
0.0
 11
164.9406387056
 21
121.5658557954
 31
0.0
  0
LINE
  5
256
330
24E
100
AcDbEntity
  8
0
  6
Continuous
 62
     7
370
    18
100
AcDbLine
 10
169.9406387056
 20
121.5658557954
 30
0.0
 11
171.4406387056
 21
121.5658557954
 31
0.0
  0
LINE
  5
257
330
24E
100
AcDbEntity
  8
0
  6
Continuous
 62
     7
370
    18
100
AcDbLine
 10
171.4406387056
 20
121.5658557954
 30
0.0
 11
181.5549809894
 21
121.5658557954
 31
0.0
  0
MTEXT
  5
258
330
24E
100
AcDbEntity
  8
0
  6
Continuous
 62
     7
370
    18
100
AcDbMText
 10
175.4445642641
 20
126.0775926517
 30
0.0
 40
3.5
 41
0.0
 71
     1
 72
     1
  1
1.5
  7
SLDTEXTSTYLE0
 73
     1
 44
1.0
  0
ENDBLK
  5
250
330
24E
100
AcDbEntity
  8
0
100
AcDbBlockEnd
  0
BLOCK
  5
25A
330
259
100
AcDbEntity
  8
0
100
AcDbBlockBegin
  2
SW_NOTE_0
 70
     0
 10
0.0
 20
0.0
 30
0.0
  3
SW_NOTE_0
  1

  0
LINE
  5
25C
330
259
100
AcDbEntity
  8
0
  6
Continuous
 62
     0
370
     0
100
AcDbLine
 10
8.0228438805
 20
0.0
 30
0.0
 11
0.0
 21
0.0
 31
0.0
  0
MTEXT
  5
25D
330
259
100
AcDbEntity
  8
0
  6
Continuous
 62
     0
370
     0
100
AcDbMText
 10
0.398408609
 20
4.5417566187
 30
0.0
 40
3.5
 41
0.0
 71
     1
 72
     1
  1
4-M3
  7
SLDTEXTSTYLE0
 73
     1
 44
1.0
  0
ENDBLK
  5
25B
330
259
100
AcDbEntity
  8
0
100
AcDbBlockEnd
  0
BLOCK
  5
262
330
261
100
AcDbEntity
  8
0
100
AcDbBlockBegin
  2
SW_CENTERMARKSYMBOL_0
 70
     0
 10
0.0
 20
0.0
 30
0.0
  3
SW_CENTERMARKSYMBOL_0
  1

  0
LINE
  5
264
330
261
100
AcDbEntity
  8
0
  6
Continuous
 62
     0
370
    18
100
AcDbLine
 10
0.0
 20
0.0
 30
0.0
 11
0.0
 21
2.5
 31
0.0
  0
LINE
  5
265
330
261
100
AcDbEntity
  8
0
  6
Continuous
 62
     0
370
    18
100
AcDbLine
 10
0.0
 20
0.0
 30
0.0
 11
-2.5
 21
0.0
 31
0.0
  0
LINE
  5
266
330
261
100
AcDbEntity
  8
0
  6
Continuous
 62
     0
370
    18
100
AcDbLine
 10
0.0
 20
0.0
 30
0.0
 11
0.0
 21
-2.5
 31
0.0
  0
LINE
  5
267
330
261
100
AcDbEntity
  8
0
  6
Continuous
 62
     0
370
    18
100
AcDbLine
 10
0.0
 20
0.0
 30
0.0
 11
2.5
 21
0.0
 31
0.0
  0
LINE
  5
268
330
261
100
AcDbEntity
  8
0
  6
Continuous
 62
     0
370
    18
100
AcDbLine
 10
0.0
 20
5.0
 30
0.0
 11
0.0
 21
6.5
 31
0.0
  0
LINE
  5
269
330
261
100
AcDbEntity
  8
0
  6
Continuous
 62
     0
370
    18
100
AcDbLine
 10
-5.0
 20
0.0
 30
0.0
 11
-6.5
 21
0.0
 31
0.0
  0
LINE
  5
26A
330
261
100
AcDbEntity
  8
0
  6
Continuous
 62
     0
370
    18
100
AcDbLine
 10
0.0
 20
-5.0
 30
0.0
 11
0.0
 21
-6.5
 31
0.0
  0
LINE
  5
26B
330
261
100
AcDbEntity
  8
0
  6
Continuous
 62
     0
370
    18
100
AcDbLine
 10
5.0
 20
0.0
 30
0.0
 11
6.5
 21
0.0
 31
0.0
  0
ENDBLK
  5
263
330
261
100
AcDbEntity
  8
0
100
AcDbBlockEnd
  0
BLOCK
  5
26E
330
26D
100
AcDbEntity
  8
0
100
AcDbBlockBegin
  2
SW_CENTERMARKSYMBOL_1
 70
     0
 10
0.0
 20
0.0
 30
0.0
  3
SW_CENTERMARKSYMBOL_1
  1

  0
LINE
  5
270
330
26D
100
AcDbEntity
  8
0
  6
Continuous
 62
     0
370
    18
100
AcDbLine
 10
0.0
 20
0.0
 30
0.0
 11
0.0
 21
2.5
 31
0.0
  0
LINE
  5
271
330
26D
100
AcDbEntity
  8
0
  6
Continuous
 62
     0
370
    18
100
AcDbLine
 10
0.0
 20
0.0
 30
0.0
 11
-2.5
 21
0.0
 31
0.0
  0
LINE
  5
272
330
26D
100
AcDbEntity
  8
0
  6
Continuous
 62
     0
370
    18
100
AcDbLine
 10
0.0
 20
0.0
 30
0.0
 11
0.0
 21
-2.5
 31
0.0
  0
LINE
  5
273
330
26D
100
AcDbEntity
  8
0
  6
Continuous
 62
     0
370
    18
100
AcDbLine
 10
0.0
 20
0.0
 30
0.0
 11
2.5
 21
0.0
 31
0.0
  0
LINE
  5
274
330
26D
100
AcDbEntity
  8
0
  6
Continuous
 62
     0
370
    18
100
AcDbLine
 10
0.0
 20
5.0
 30
0.0
 11
0.0
 21
6.5
 31
0.0
  0
LINE
  5
275
330
26D
100
AcDbEntity
  8
0
  6
Continuous
 62
     0
370
    18
100
AcDbLine
 10
-5.0
 20
0.0
 30
0.0
 11
-6.5
 21
0.0
 31
0.0
  0
LINE
  5
276
330
26D
100
AcDbEntity
  8
0
  6
Continuous
 62
     0
370
    18
100
AcDbLine
 10
0.0
 20
-5.0
 30
0.0
 11
0.0
 21
-6.5
 31
0.0
  0
LINE
  5
277
330
26D
100
AcDbEntity
  8
0
  6
Continuous
 62
     0
370
    18
100
AcDbLine
 10
5.0
 20
0.0
 30
0.0
 11
6.5
 21
0.0
 31
0.0
  0
ENDBLK
  5
26F
330
26D
100
AcDbEntity
  8
0
100
AcDbBlockEnd
  0
BLOCK
  5
27A
330
279
100
AcDbEntity
  8
0
100
AcDbBlockBegin
  2
SW_CENTERMARKSYMBOL_2
 70
     0
 10
0.0
 20
0.0
 30
0.0
  3
SW_CENTERMARKSYMBOL_2
  1

  0
LINE
  5
27C
330
279
100
AcDbEntity
  8
0
  6
Continuous
 62
     0
370
    18
100
AcDbLine
 10
0.0
 20
0.0
 30
0.0
 11
0.0
 21
2.5
 31
0.0
  0
LINE
  5
27D
330
279
100
AcDbEntity
  8
0
  6
Continuous
 62
     0
370
    18
100
AcDbLine
 10
0.0
 20
0.0
 30
0.0
 11
-2.5
 21
0.0
 31
0.0
  0
LINE
  5
27E
330
279
100
AcDbEntity
  8
0
  6
Continuous
 62
     0
370
    18
100
AcDbLine
 10
0.0
 20
0.0
 30
0.0
 11
0.0
 21
-2.5
 31
0.0
  0
LINE
  5
27F
330
279
100
AcDbEntity
  8
0
  6
Continuous
 62
     0
370
    18
100
AcDbLine
 10
0.0
 20
0.0
 30
0.0
 11
2.5
 21
0.0
 31
0.0
  0
LINE
  5
280
330
279
100
AcDbEntity
  8
0
  6
Continuous
 62
     0
370
    18
100
AcDbLine
 10
0.0
 20
2.5
 30
0.0
 11
0.0
 21
3.75
 31
0.0
  0
LINE
  5
281
330
279
100
AcDbEntity
  8
0
  6
Continuous
 62
     0
370
    18
100
AcDbLine
 10
-2.5
 20
0.0
 30
0.0
 11
-3.75
 21
0.0
 31
0.0
  0
LINE
  5
282
330
279
100
AcDbEntity
  8
0
  6
Continuous
 62
     0
370
    18
100
AcDbLine
 10
0.0
 20
-2.5
 30
0.0
 11
0.0
 21
-3.75
 31
0.0
  0
LINE
  5
283
330
279
100
AcDbEntity
  8
0
  6
Continuous
 62
     0
370
    18
100
AcDbLine
 10
2.5
 20
0.0
 30
0.0
 11
3.75
 21
0.0
 31
0.0
  0
ENDBLK
  5
27B
330
279
100
AcDbEntity
  8
0
100
AcDbBlockEnd
  0
BLOCK
  5
286
330
285
100
AcDbEntity
  8
0
100
AcDbBlockBegin
  2
SW_CENTERMARKSYMBOL_3
 70
     0
 10
0.0
 20
0.0
 30
0.0
  3
SW_CENTERMARKSYMBOL_3
  1

  0
LINE
  5
288
330
285
100
AcDbEntity
  8
0
  6
Continuous
 62
     0
370
    18
100
AcDbLine
 10
0.0
 20
0.0
 30
0.0
 11
0.0
 21
2.5
 31
0.0
  0
LINE
  5
289
330
285
100
AcDbEntity
  8
0
  6
Continuous
 62
     0
370
    18
100
AcDbLine
 10
0.0
 20
0.0
 30
0.0
 11
-2.5
 21
0.0
 31
0.0
  0
LINE
  5
28A
330
285
100
AcDbEntity
  8
0
  6
Continuous
 62
     0
370
    18
100
AcDbLine
 10
0.0
 20
0.0
 30
0.0
 11
0.0
 21
-2.5
 31
0.0
  0
LINE
  5
28B
330
285
100
AcDbEntity
  8
0
  6
Continuous
 62
     0
370
    18
100
AcDbLine
 10
0.0
 20
0.0
 30
0.0
 11
2.5
 21
0.0
 31
0.0
  0
LINE
  5
28C
330
285
100
AcDbEntity
  8
0
  6
Continuous
 62
     0
370
    18
100
AcDbLine
 10
0.0
 20
2.5
 30
0.0
 11
0.0
 21
3.75
 31
0.0
  0
LINE
  5
28D
330
285
100
AcDbEntity
  8
0
  6
Continuous
 62
     0
370
    18
100
AcDbLine
 10
-2.5
 20
0.0
 30
0.0
 11
-3.75
 21
0.0
 31
0.0
  0
LINE
  5
28E
330
285
100
AcDbEntity
  8
0
  6
Continuous
 62
     0
370
    18
100
AcDbLine
 10
0.0
 20
-2.5
 30
0.0
 11
0.0
 21
-3.75
 31
0.0
  0
LINE
  5
28F
330
285
100
AcDbEntity
  8
0
  6
Continuous
 62
     0
370
    18
100
AcDbLine
 10
2.5
 20
0.0
 30
0.0
 11
3.75
 21
0.0
 31
0.0
  0
ENDBLK
  5
287
330
285
100
AcDbEntity
  8
0
100
AcDbBlockEnd
  0
BLOCK
  5
292
330
291
100
AcDbEntity
  8
0
100
AcDbBlockBegin
  2
SW_CENTERMARKSYMBOL_4
 70
     0
 10
0.0
 20
0.0
 30
0.0
  3
SW_CENTERMARKSYMBOL_4
  1

  0
LINE
  5
294
330
291
100
AcDbEntity
  8
0
  6
Continuous
 62
     0
370
    18
100
AcDbLine
 10
0.0
 20
0.0
 30
0.0
 11
0.0
 21
2.5
 31
0.0
  0
LINE
  5
295
330
291
100
AcDbEntity
  8
0
  6
Continuous
 62
     0
370
    18
100
AcDbLine
 10
0.0
 20
0.0
 30
0.0
 11
-2.5
 21
0.0
 31
0.0
  0
LINE
  5
296
330
291
100
AcDbEntity
  8
0
  6
Continuous
 62
     0
370
    18
100
AcDbLine
 10
0.0
 20
0.0
 30
0.0
 11
0.0
 21
-2.5
 31
0.0
  0
LINE
  5
297
330
291
100
AcDbEntity
  8
0
  6
Continuous
 62
     0
370
    18
100
AcDbLine
 10
0.0
 20
0.0
 30
0.0
 11
2.5
 21
0.0
 31
0.0
  0
LINE
  5
298
330
291
100
AcDbEntity
  8
0
  6
Continuous
 62
     0
370
    18
100
AcDbLine
 10
0.0
 20
2.5
 30
0.0
 11
0.0
 21
3.75
 31
0.0
  0
LINE
  5
299
330
291
100
AcDbEntity
  8
0
  6
Continuous
 62
     0
370
    18
100
AcDbLine
 10
-2.5
 20
0.0
 30
0.0
 11
-3.75
 21
0.0
 31
0.0
  0
LINE
  5
29A
330
291
100
AcDbEntity
  8
0
  6
Continuous
 62
     0
370
    18
100
AcDbLine
 10
0.0
 20
-2.5
 30
0.0
 11
0.0
 21
-3.75
 31
0.0
  0
LINE
  5
29B
330
291
100
AcDbEntity
  8
0
  6
Continuous
 62
     0
370
    18
100
AcDbLine
 10
2.5
 20
0.0
 30
0.0
 11
3.75
 21
0.0
 31
0.0
  0
ENDBLK
  5
293
330
291
100
AcDbEntity
  8
0
100
AcDbBlockEnd
  0
BLOCK
  5
29E
330
29D
100
AcDbEntity
  8
0
100
AcDbBlockBegin
  2
SW_CENTERMARKSYMBOL_5
 70
     0
 10
0.0
 20
0.0
 30
0.0
  3
SW_CENTERMARKSYMBOL_5
  1

  0
LINE
  5
2A0
330
29D
100
AcDbEntity
  8
0
  6
Continuous
 62
     0
370
    18
100
AcDbLine
 10
0.0
 20
0.0
 30
0.0
 11
0.0
 21
2.5
 31
0.0
  0
LINE
  5
2A1
330
29D
100
AcDbEntity
  8
0
  6
Continuous
 62
     0
370
    18
100
AcDbLine
 10
0.0
 20
0.0
 30
0.0
 11
-2.5
 21
0.0
 31
0.0
  0
LINE
  5
2A2
330
29D
100
AcDbEntity
  8
0
  6
Continuous
 62
     0
370
    18
100
AcDbLine
 10
0.0
 20
0.0
 30
0.0
 11
0.0
 21
-2.5
 31
0.0
  0
LINE
  5
2A3
330
29D
100
AcDbEntity
  8
0
  6
Continuous
 62
     0
370
    18
100
AcDbLine
 10
0.0
 20
0.0
 30
0.0
 11
2.5
 21
0.0
 31
0.0
  0
LINE
  5
2A4
330
29D
100
AcDbEntity
  8
0
  6
Continuous
 62
     0
370
    18
100
AcDbLine
 10
0.0
 20
2.5
 30
0.0
 11
0.0
 21
3.75
 31
0.0
  0
LINE
  5
2A5
330
29D
100
AcDbEntity
  8
0
  6
Continuous
 62
     0
370
    18
100
AcDbLine
 10
-2.5
 20
0.0
 30
0.0
 11
-3.75
 21
0.0
 31
0.0
  0
LINE
  5
2A6
330
29D
100
AcDbEntity
  8
0
  6
Continuous
 62
     0
370
    18
100
AcDbLine
 10
0.0
 20
-2.5
 30
0.0
 11
0.0
 21
-3.75
 31
0.0
  0
LINE
  5
2A7
330
29D
100
AcDbEntity
  8
0
  6
Continuous
 62
     0
370
    18
100
AcDbLine
 10
2.5
 20
0.0
 30
0.0
 11
3.75
 21
0.0
 31
0.0
  0
ENDBLK
  5
29F
330
29D
100
AcDbEntity
  8
0
100
AcDbBlockEnd
  0
ENDSEC
  0
SECTION
  2
ENTITIES
  0
LINE
  5
73
330
1F
100
AcDbEntity
  8
0
  6
Continuous
 62
     7
370
    18
100
AcDbLine
 10
20.2604743903
 20
285.0
 30
0.0
 11
196.7604743903
 21
285.0
 31
0.0
  0
LINE
  5
74
330
1F
100
AcDbEntity
  8
0
  6
Continuous
 62
     7
370
    18
100
AcDbLine
 10
20.2604743903
 20
285.0
 30
0.0
 11
20.2604743903
 21
10.0
 31
0.0
  0
LINE
  5
75
330
1F
100
AcDbEntity
  8
0
  6
Continuous
 62
     7
370
    18
100
AcDbLine
 10
20.2604743903
 20
10.0
 30
0.0
 11
196.7604743903
 21
10.0
 31
0.0
  0
LINE
  5
76
330
1F
100
AcDbEntity
  8
0
  6
Continuous
 62
     7
370
    18
100
AcDbLine
 10
196.7604743903
 20
285.0
 30
0.0
 11
196.7604743903
 21
10.0
 31
0.0
  0
LINE
  5
77
330
1F
100
AcDbEntity
  8
0
  6
Continuous
 62
     7
370
    18
100
AcDbLine
 10
127.0104743903
 20
50.75
 30
0.0
 11
196.7604743903
 21
50.75
 31
0.0
  0
LINE
  5
78
330
1F
100
AcDbEntity
  8
0
  6
Continuous
 62
     7
370
    18
100
AcDbLine
 10
127.0104743903
 20
50.75
 30
0.0
 11
127.0104743903
 21
10.0
 31
0.0
  0
LINE
  5
79
330
1F
100
AcDbEntity
  8
0
  6
Continuous
 62
     7
370
    18
100
AcDbLine
 10
127.0104743903
 20
22.75
 30
0.0
 11
196.7604743903
 21
22.75
 31
0.0
  0
LINE
  5
7A
330
1F
100
AcDbEntity
  8
0
  6
Continuous
 62
     7
370
    18
100
AcDbLine
 10
127.0104743903
 20
36.75
 30
0.0
 11
196.7604743903
 21
36.75
 31
0.0
  0
MTEXT
  5
7C
330
1F
100
AcDbEntity
  8
0
  6
Continuous
 62
     7
370
     0
100
AcDbMText
 10
73.4682487133
 20
167.0039374697
 30
0.0
 40
3.5
 41
0.0
 71
     1
 72
     1
  1
取付ボルトザグリ穴
  7
SLDTEXTSTYLE0
 73
     1
 44
1.0
  0
MTEXT
  5
7D
330
1F
100
AcDbEntity
  8
0
  6
Continuous
 62
     7
370
     0
100
AcDbMText
 10
174.4106126459
 20
176.0454413272
 30
0.0
 40
3.5
 41
0.0
 71
     1
 72
     1
  1
取付穴
  7
SLDTEXTSTYLE0
 73
     1
 44
1.0
  0
MTEXT
  5
7E
330
1F
100
AcDbEntity
  8
0
  6
Continuous
 62
     7
370
     0
100
AcDbMText
 10
162.5341904465
 20
30.4171582345
 30
0.0
 40
4.2333333333
 41
0.0
 71
     2
 72
     1
  1
KPCR-5000
  7
SLDTEXTSTYLE0
 73
     1
 44
1.0
  0
MTEXT
  5
7F
330
1F
100
AcDbEntity
  8
0
  6
Continuous
 62
     7
370
     0
100
AcDbMText
 10
158.8129623896
 20
45.4418459607
 30
0.0
 40
3.4395833333
 41
0.0
 71
     2
 72
     1
  1
当板・角型・SW付・ミニシリンダー用
  7
SLDTEXTSTYLE0
 73
     1
 44
1.0
  0
MTEXT
  5
80
330
1F
100
AcDbEntity
  8
0
  6
Continuous
 62
     7
370
     0
100
AcDbMText
 10
163.0444953822
 20
16.8228189052
 30
0.0
 40
4.2333333333
 41
0.0
 71
     2
 72
     1
  1
101835
  7
SLDTEXTSTYLE0
 73
     1
 44
1.0
  0
LINE
  5
81
330
1F
100
AcDbEntity
  8
0
  6
Continuous
 62
     7
370
    18
100
AcDbLine
 10
67.7432880614
 20
142.4979405559
 30
0.0
 11
66.3432867143
 21
142.4979405559
 31
0.0
  0
LINE
  5
82
330
1F
100
AcDbEntity
  8
0
  6
Continuous
 62
     7
370
    18
100
AcDbLine
 10
66.3432867143
 20
138.9979406807
 30
0.0
 11
67.7432880614
 21
138.9979406807
 31
0.0
  0
LINE
  5
83
330
1F
100
AcDbEntity
  8
0
  6
Continuous
 62
     7
370
    18
100
AcDbLine
 10
67.7432880614
 20
150.4979402374
 30
0.0
 11
66.3432867143
 21
150.4979402374
 31
0.0
  0
LINE
  5
84
330
1F
100
AcDbEntity
  8
0
  6
Continuous
 62
     7
370
    18
100
AcDbLine
 10
66.3432867143
 20
146.997940595
 30
0.0
 11
67.7432880614
 21
146.997940595
 31
0.0
  0
LINE
  5
85
330
1F
100
AcDbEntity
  8
0
  6
Continuous
 62
     7
370
    18
100
AcDbLine
 10
63.7432874057
 20
143.1479406159
 30
0.0
 11
67.7432880614
 21
143.1479406159
 31
0.0
  0
SPLINE
  5
86
330
1F
100
AcDbEntity
  8
0
  6
Continuous
 62
     7
370
    18
100
AcDbSpline
210
0.0
220
0.0
230
1.0
 70
    24
 71
     3
 72
    11
 73
     7
 74
     0
 42
0.000000001
 43
0.00000001
 40
0.0
 40
0.0
 40
0.0
 40
0.0
 40
0.2501984744599356
 40
0.5000854919704638
 40
0.7498880463079687
 40
1.0
 40
1.0
 40
1.0
 40
1.0
 10
50.74328713750109
 20
141.8729406280707
 30
0.0
 10
49.21515517384513
 20
141.8729406280707
 30
0.0
 10
46.16079352559678
 20
141.8729406280707
 30
0.0
 10
41.57463454597556
 20
141.8729406280707
 30
0.0
 10
36.99048223363717
 20
141.8729406280707
 30
0.0
 10
33.94192244201982
 20
141.8729406280707
 30
0.0
 10
32.41669916247591
 20
141.8729406280707
 30
0.0
  0
SPLINE
  5
87
330
1F
100
AcDbEntity
  8
0
  6
Continuous
 62
     7
370
    18
100
AcDbSpline
210
0.0
220
0.0
230
1.0
 70
    24
 71
     3
 72
    12
 73
     8
 74
     0
 42
0.000000001
 43
0.00000001
 40
0.0
 40
0.0
 40
0.0
 40
0.0
 40
0.2001085665188465
 40
0.4000211445518793
 40
0.599832720633666
 40
0.7998251638840493
 40
1.0
 40
1.0
 40
1.0
 40
1.0
 10
32.41669916247591
 20
140.122940574054
 30
0.0
 10
33.63703459668332
 20
140.122940574054
 30
0.0
 10
36.07651025542724
 20
140.122940574054
 30
0.0
 10
39.7403944730172
 20
140.122940574054
 30
0.0
 10
43.4089747580382
 20
140.122940574054
 30
0.0
 10
47.07646193313415
 20
140.122940574054
 30
0.0
 10
49.52064072403012
 20
140.122940574054
 30
0.0
 10
50.7432871375011
 20
140.122940574054
 30
0.0
  0
SPLINE
  5
88
330
1F
100
AcDbEntity
  8
0
  6
Continuous
 62
     7
370
    18
100
AcDbSpline
210
0.0
220
0.0
230
1.0
 70
    24
 71
     3
 72
    11
 73
     7
 74
     0
 42
0.000000001
 43
0.00000001
 40
0.0
 40
0.0
 40
0.0
 40
0.0
 40
0.2501984744599356
 40
0.5000854919704638
 40
0.7498880463079687
 40
1.0
 40
1.0
 40
1.0
 40
1.0
 10
50.74328713750109
 20
149.8729408334273
 30
0.0
 10
49.21515517384513
 20
149.8729408334273
 30
0.0
 10
46.16079352559678
 20
149.8729408334273
 30
0.0
 10
41.57463454597556
 20
149.8729408334273
 30
0.0
 10
36.99048223363717
 20
149.8729408334273
 30
0.0
 10
33.94192244201982
 20
149.8729408334273
 30
0.0
 10
32.41669916247591
 20
149.8729408334273
 30
0.0
  0
SPLINE
  5
89
330
1F
100
AcDbEntity
  8
0
  6
Continuous
 62
     7
370
    18
100
AcDbSpline
210
0.0
220
0.0
230
1.0
 70
    24
 71
     3
 72
    12
 73
     8
 74
     0
 42
0.000000001
 43
0.00000001
 40
0.0
 40
0.0
 40
0.0
 40
0.0
 40
0.2001085665188465
 40
0.4000211445518793
 40
0.599832720633666
 40
0.7998251638840493
 40
1.0
 40
1.0
 40
1.0
 40
1.0
 10
32.41669916247591
 20
148.1229405465799
 30
0.0
 10
33.63703459668332
 20
148.1229405465799
 30
0.0
 10
36.07651025542724
 20
148.1229405465799
 30
0.0
 10
39.7403944730172
 20
148.1229405465799
 30
0.0
 10
43.4089747580382
 20
148.1229405465799
 30
0.0
 10
47.07646193313415
 20
148.1229405465799
 30
0.0
 10
49.52064072403012
 20
148.1229405465799
 30
0.0
 10
50.7432871375011
 20
148.1229405465799
 30
0.0
  0
SPLINE
  5
8A
330
1F
100
AcDbEntity
  8
0
  6
Continuous
 62
     7
370
    18
100
AcDbSpline
210
0.0
220
0.0
230
1.0
 70
    24
 71
     3
 72
    11
 73
     7
 74
     0
 42
0.000000001
 43
0.00000001
 40
0.0
 40
0.0
 40
0.0
 40
0.0
 40
0.2501984744599356
 40
0.5000854919704638
 40
0.7498880463079687
 40
1.0
 40
1.0
 40
1.0
 40
1.0
 10
50.74328713750109
 20
145.8729406434375
 30
0.0
 10
49.21515517384513
 20
145.8729406434375
 30
0.0
 10
46.16079352559678
 20
145.8729406434375
 30
0.0
 10
41.57463454597556
 20
145.8729406434375
 30
0.0
 10
36.99048223363717
 20
145.8729406434375
 30
0.0
 10
33.94192244201982
 20
145.8729406434375
 30
0.0
 10
32.41669916247591
 20
145.8729406434375
 30
0.0
  0
SPLINE
  5
8B
330
1F
100
AcDbEntity
  8
0
  6
Continuous
 62
     7
370
    18
100
AcDbSpline
210
0.0
220
0.0
230
1.0
 70
    24
 71
     3
 72
    12
 73
     8
 74
     0
 42
0.000000001
 43
0.00000001
 40
0.0
 40
0.0
 40
0.0
 40
0.0
 40
0.2001085665188465
 40
0.4000211445518793
 40
0.599832720633666
 40
0.7998251638840493
 40
1.0
 40
1.0
 40
1.0
 40
1.0
 10
32.41669916247591
 20
144.1229405894208
 30
0.0
 10
33.63703459668332
 20
144.1229405894208
 30
0.0
 10
36.07651025542724
 20
144.1229405894208
 30
0.0
 10
39.7403944730172
 20
144.1229405894208
 30
0.0
 10
43.4089747580382
 20
144.1229405894208
 30
0.0
 10
47.07646193313415
 20
144.1229405894208
 30
0.0
 10
49.52064072403012
 20
144.1229405894208
 30
0.0
 10
50.7432871375011
 20
144.1229405894208
 30
0.0
  0
LINE
  5
8C
330
1F
100
AcDbEntity
  8
0
  6
Continuous
 62
     7
370
    18
100
AcDbLine
 10
67.7432880614
 20
137.2479406267
 30
0.0
 11
67.7432880614
 21
155.6479408021
 31
0.0
  0
LINE
  5
8D
330
1F
100
AcDbEntity
  8
0
  6
Continuous
 62
     7
370
    18
100
AcDbLine
 10
69.3432890687
 20
155.6479408021
 30
0.0
 11
67.7432880614
 21
155.6479408021
 31
0.0
  0
LINE
  5
8E
330
1F
100
AcDbEntity
  8
0
  6
Continuous
 62
     7
370
    18
100
AcDbLine
 10
69.3432890687
 20
137.2479406267
 30
0.0
 11
69.3432890687
 21
155.6479408021
 31
0.0
  0
LINE
  5
8F
330
1F
100
AcDbEntity
  8
0
  6
Continuous
 62
     7
370
    18
100
AcDbLine
 10
69.3432890687
 20
137.2479406267
 30
0.0
 11
67.7432880614
 21
137.2479406267
 31
0.0
  0
ARC
  5
90
330
1F
100
AcDbEntity
  8
0
  6
Continuous
 62
     7
370
    18
100
AcDbCircle
 10
60.3432873699
 20
155.6479406011
 30
0.0
 40
1.0
100
AcDbArc
 50
90.0
 51
180.0
  0
LINE
  5
91
330
1F
100
AcDbEntity
  8
0
  6
Continuous
 62
     7
370
    18
100
AcDbLine
 10
59.3432874296
 20
155.6479408021
 30
0.0
 11
57.7432864222
 21
155.6479408021
 31
0.0
  0
ARC
  5
92
330
1F
100
AcDbEntity
  8
0
  6
Continuous
 62
     7
370
    18
100
AcDbCircle
 10
60.3432873699
 20
155.6479406011
 30
0.0
 40
2.600000000000023
100
AcDbArc
 50
90.0
 51
180.0
  0
LINE
  5
93
330
1F
100
AcDbEntity
  8
0
  6
Continuous
 62
     7
370
    18
100
AcDbLine
 10
60.3432857308
 20
158.2479401107
 30
0.0
 11
60.3432857308
 21
156.647940966
 31
0.0
  0
LINE
  5
94
330
1F
100
AcDbEntity
  8
0
  6
Continuous
 62
     7
370
    18
100
AcDbLine
 10
66.7432860348
 20
156.647940966
 30
0.0
 11
66.7432860348
 21
158.2479401107
 31
0.0
  0
LINE
  5
95
330
1F
100
AcDbEntity
  8
0
  6
Continuous
 62
     7
370
    18
100
AcDbLine
 10
66.7432860348
 20
156.647940966
 30
0.0
 11
60.3432857308
 21
156.647940966
 31
0.0
  0
LINE
  5
96
330
1F
100
AcDbEntity
  8
0
  6
Continuous
 62
     7
370
    18
100
AcDbLine
 10
66.7432860348
 20
158.2479401107
 30
0.0
 11
60.3432857308
 21
158.2479401107
 31
0.0
  0
LINE
  5
97
330
1F
100
AcDbEntity
  8
0
  6
Continuous
 62
     7
370
    18
100
AcDbLine
 10
57.7432864222
 20
155.6479408021
 30
0.0
 11
57.7432864222
 21
153.2479402225
 31
0.0
  0
LINE
  5
98
330
1F
100
AcDbEntity
  8
0
  6
Continuous
 62
     7
370
    18
100
AcDbLine
 10
59.3432874296
 20
155.6479408021
 30
0.0
 11
59.3432874296
 21
153.2479402225
 31
0.0
  0
LINE
  5
99
330
1F
100
AcDbEntity
  8
0
  6
Continuous
 62
     7
370
    18
100
AcDbLine
 10
57.7432864222
 20
153.2479402225
 30
0.0
 11
59.3432874296
 21
153.2479402225
 31
0.0
  0
ARC
  5
9A
330
1F
100
AcDbEntity
  8
0
  6
Continuous
 62
     7
370
    18
100
AcDbCircle
 10
66.7432873699
 20
155.6479406011
 30
0.0
 40
1.0
100
AcDbArc
 50
0.0
 51
90.0
  0
ARC
  5
9B
330
1F
100
AcDbEntity
  8
0
  6
Continuous
 62
     7
370
    18
100
AcDbCircle
 10
66.7432873699
 20
155.6479406011
 30
0.0
 40
2.600000000000023
100
AcDbArc
 50
0.0
 51
90.0
  0
LINE
  5
9C
330
1F
100
AcDbEntity
  8
0
  6
Continuous
 62
     7
370
    18
100
AcDbLine
 10
66.3432867143
 20
140.7479405892
 30
0.0
 11
66.3432867143
 21
142.4979405559
 31
0.0
  0
LINE
  5
9D
330
1F
100
AcDbEntity
  8
0
  6
Continuous
 62
     7
370
    18
100
AcDbLine
 10
66.3432867143
 20
138.9979406807
 30
0.0
 11
66.3432867143
 21
140.7479405892
 31
0.0
  0
LINE
  5
9E
330
1F
100
AcDbEntity
  8
0
  6
Continuous
 62
     7
370
    18
100
AcDbLine
 10
66.3432867143
 20
148.7479404162
 30
0.0
 11
66.3432867143
 21
150.4979402374
 31
0.0
  0
LINE
  5
9F
330
1F
100
AcDbEntity
  8
0
  6
Continuous
 62
     7
370
    18
100
AcDbLine
 10
66.3432867143
 20
146.997940595
 30
0.0
 11
66.3432867143
 21
148.7479404162
 31
0.0
  0
LINE
  5
A0
330
1F
100
AcDbEntity
  8
0
  6
Continuous
 62
     7
370
    18
100
AcDbLine
 10
67.2432870481
 20
136.4479408215
 30
0.0
 11
66.2432887468
 21
136.4479408215
 31
0.0
  0
LINE
  5
A1
330
1F
100
AcDbEntity
  8
0
  6
Continuous
 62
     7
370
    18
100
AcDbLine
 10
67.2432870481
 20
136.1479403998
 30
0.0
 11
67.2432870481
 21
136.4479408215
 31
0.0
  0
ARC
  5
A2
330
1F
100
AcDbEntity
  8
0
  6
Continuous
 62
     7
370
    18
100
AcDbCircle
 10
66.2432873699
 20
133.3479406011
 30
0.0
 40
3.100000000000023
100
AcDbArc
 50
90.0
 51
115.4146209152
  0
ARC
  5
A3
330
1F
100
AcDbEntity
  8
0
  6
Continuous
 62
     7
370
    18
100
AcDbCircle
 10
66.2432873699
 20
133.3479406011
 30
0.0
 40
3.100000000000019
100
AcDbArc
 50
327.0041145264
 51
0.0
  0
LINE
  5
A4
330
1F
100
AcDbEntity
  8
0
  6
Continuous
 62
     7
370
    18
100
AcDbLine
 10
69.3432890687
 20
133.3479404996
 30
0.0
 11
69.3432890687
 21
137.2479406267
 31
0.0
  0
LINE
  5
A5
330
1F
100
AcDbEntity
  8
0
  6
Continuous
 62
     7
370
    18
100
AcDbLine
 10
67.7432880614
 20
136.1479403998
 30
0.0
 11
67.7432880614
 21
137.2479406267
 31
0.0
  0
LINE
  5
A6
330
1F
100
AcDbEntity
  8
0
  6
Continuous
 62
     7
370
    18
100
AcDbLine
 10
63.7432874057
 20
153.1479403924
 30
0.0
 11
67.7432880614
 21
153.1479403924
 31
0.0
  0
LINE
  5
A7
330
1F
100
AcDbEntity
  8
0
  6
Continuous
 62
     7
370
    18
100
AcDbLine
 10
68.8432880554
 20
136.1479403998
 30
0.0
 11
63.7432874057
 21
136.1479403998
 31
0.0
  0
LINE
  5
A8
330
1F
100
AcDbEntity
  8
0
  6
Continuous
 62
     7
370
    18
100
AcDbLine
 10
68.8432880554
 20
136.1479403998
 30
0.0
 11
68.8432880554
 21
131.1479405116
 31
0.0
  0
LINE
  5
A9
330
1F
100
AcDbEntity
  8
0
  6
Continuous
 62
     7
370
    18
100
AcDbLine
 10
67.8432860289
 20
130.1479403476
 30
0.0
 11
68.8432880554
 21
131.1479405116
 31
0.0
  0
LINE
  5
AA
330
1F
100
AcDbEntity
  8
0
  6
Continuous
 62
     7
370
    18
100
AcDbLine
 10
67.8432860289
 20
130.1479403476
 30
0.0
 11
58.8432864163
 21
130.1479403476
 31
0.0
  0
LINE
  5
AB
330
1F
100
AcDbEntity
  8
0
  6
Continuous
 62
     7
370
    18
100
AcDbLine
 10
57.843288115
 20
131.1479405116
 30
0.0
 11
58.8432864163
 21
130.1479403476
 31
0.0
  0
LINE
  5
AC
330
1F
100
AcDbEntity
  8
0
  6
Continuous
 62
     7
370
    18
100
AcDbLine
 10
57.843288115
 20
152.1479402284
 30
0.0
 11
57.843288115
 21
131.1479405116
 31
0.0
  0
LINE
  5
AD
330
1F
100
AcDbEntity
  8
0
  6
Continuous
 62
     7
370
    18
100
AcDbLine
 10
60.7432887766
 20
155.6479408021
 30
0.0
 11
60.7432887766
 21
152.1479402284
 31
0.0
  0
LINE
  5
AE
330
1F
100
AcDbEntity
  8
0
  6
Continuous
 62
     7
370
    18
100
AcDbLine
 10
66.7432860348
 20
155.6479408021
 30
0.0
 11
60.7432887766
 21
155.6479408021
 31
0.0
  0
LINE
  5
AF
330
1F
100
AcDbEntity
  8
0
  6
Continuous
 62
     7
370
    18
100
AcDbLine
 10
67.7432880614
 20
154.6479406382
 30
0.0
 11
66.7432860348
 21
155.6479408021
 31
0.0
  0
LINE
  5
B0
330
1F
100
AcDbEntity
  8
0
  6
Continuous
 62
     7
370
    18
100
AcDbLine
 10
67.7432880614
 20
154.6479406382
 30
0.0
 11
67.7432880614
 21
153.1479403924
 31
0.0
  0
LINE
  5
B1
330
1F
100
AcDbEntity
  8
0
  6
Continuous
 62
     7
370
    18
100
AcDbLine
 10
60.7432887766
 20
152.1479402284
 30
0.0
 11
57.843288115
 21
152.1479402284
 31
0.0
  0
LINE
  5
B2
330
1F
100
AcDbEntity
  8
0
  6
Continuous
 62
     7
370
    18
100
AcDbLine
 10
63.7432874057
 20
153.1479403924
 30
0.0
 11
63.7432874057
 21
136.1479403998
 31
0.0
  0
LINE
  5
B3
330
1F
100
AcDbEntity
  8
0
  6
Continuous
 62
     7
370
    18
100
AcDbLine
 10
63.7432874057
 20
150.6366747047
 30
0.0
 11
67.7432880614
 21
150.6366747047
 31
0.0
  0
LINE
  5
B4
330
1F
100
AcDbEntity
  8
0
  6
Continuous
 62
     7
370
    18
100
AcDbLine
 10
67.7432880614
 20
152.1479402284
 30
0.0
 11
63.7432874057
 21
152.1479402284
 31
0.0
  0
LINE
  5
B5
330
1F
100
AcDbEntity
  8
0
  6
Continuous
 62
     7
370
    18
100
AcDbLine
 10
63.7432874057
 20
137.1479405637
 30
0.0
 11
67.7432880614
 21
137.1479405637
 31
0.0
  0
LINE
  5
B6
330
1F
100
AcDbEntity
  8
0
  6
Continuous
 62
     7
370
    18
100
AcDbLine
 10
63.7432874057
 20
139.1479406587
 30
0.0
 11
66.3432867143
 21
139.1479406587
 31
0.0
  0
LINE
  5
B7
330
1F
100
AcDbEntity
  8
0
  6
Continuous
 62
     7
370
    18
100
AcDbLine
 10
50.7432871375
 20
151.9979404833
 30
0.0
 11
57.843288115
 21
151.9979404833
 31
0.0
  0
LINE
  5
B8
330
1F
100
AcDbEntity
  8
0
  6
Continuous
 62
     7
370
    18
100
AcDbLine
 10
50.7432871375
 20
139.2979406367
 30
0.0
 11
50.7432871375
 21
151.9979404833
 31
0.0
  0
LINE
  5
B9
330
1F
100
AcDbEntity
  8
0
  6
Continuous
 62
     7
370
    18
100
AcDbLine
 10
66.3432867143
 20
139.2979406367
 30
0.0
 11
63.7432874057
 21
139.2979406367
 31
0.0
  0
LINE
  5
BA
330
1F
100
AcDbEntity
  8
0
  6
Continuous
 62
     7
370
    18
100
AcDbLine
 10
57.843288115
 20
139.2979406367
 30
0.0
 11
50.7432871375
 21
139.2979406367
 31
0.0
  0
LINE
  5
BB
330
1F
100
AcDbEntity
  8
0
  6
Continuous
 62
     7
370
    18
100
AcDbLine
 10
66.3432867143
 20
143.1479406159
 30
0.0
 11
66.3432867143
 21
142.4979405559
 31
0.0
  0
LINE
  5
BC
330
1F
100
AcDbEntity
  8
0
  6
Continuous
 62
     7
370
    18
100
AcDbLine
 10
66.8432877276
 20
143.1479406159
 30
0.0
 11
66.8432877276
 21
142.4979405559
 31
0.0
  0
ARC
  5
BD
330
1F
100
AcDbEntity
  8
0
  6
Continuous
 62
     7
370
    18
100
AcDbCircle
 10
35.127675705
 20
140.9978133243
 30
0.0
 40
2.848594911049429
100
AcDbArc
 50
162.108622571
 51
197.8860108493
  0
ARC
  5
BE
330
1F
100
AcDbEntity
  8
0
  6
Continuous
 62
     7
370
    18
100
AcDbCircle
 10
35.1276748398
 20
148.9978132678
 30
0.0
 40
2.848594114562631
100
AcDbArc
 50
162.108615555
 51
197.8860178659
  0
ARC
  5
BF
330
1F
100
AcDbEntity
  8
0
  6
Continuous
 62
     7
370
    18
100
AcDbCircle
 10
35.1276737327
 20
144.9978133107
 30
0.0
 40
2.848592989472484
100
AcDbArc
 50
162.108613171
 51
197.8860202484
  0
CIRCLE
  5
C0
330
1F
100
AcDbEntity
  8
0
  6
Continuous
 62
     7
370
    18
100
AcDbCircle
 10
66.2432873699
 20
133.3479406011
 30
0.0
 40
1.199999999999999
  0
CIRCLE
  5
C1
330
1F
100
AcDbEntity
  8
0
  6
Continuous
 62
     7
370
    18
100
AcDbCircle
 10
66.2432873699
 20
133.3479406011
 30
0.0
 40
1.500000000000002
  0
LINE
  5
C2
330
1F
100
AcDbEntity
  8
0
  6
Continuous
 62
     7
370
    18
100
AcDbLine
 10
64.1726122115
 20
134.7487646702
 30
0.0
 11
65.0008820805
 21
134.1884349088
 31
0.0
  0
ARC
  5
C3
330
1F
100
AcDbEntity
  8
0
  6
Continuous
 62
     7
370
    18
100
AcDbCircle
 10
66.2432873699
 20
133.3479406011
 30
0.0
 40
2.50000000000002
100
AcDbArc
 50
262.3447463575
 51
145.9214075916
  0
LINE
  5
C4
330
1F
100
AcDbEntity
  8
0
  6
Continuous
 62
     7
370
    18
100
AcDbLine
 10
66.0434679005
 20
131.8613093893
 30
0.0
 11
65.9102552447
 21
130.8702219825
 31
0.0
  0
LINE
  5
C5
330
1F
100
AcDbEntity
  8
0
  6
Continuous
 62
     8
370
    18
100
AcDbLine
 10
66.3432867143
 20
147.1185287076
 30
0.0
 11
63.7432874057
 21
147.1185287076
 31
0.0
  0
CIRCLE
  5
C6
330
1F
100
AcDbEntity
  8
0
  6
HIDDEN
 62
     7
370
    18
100
AcDbCircle
 10
66.2432873699
 20
133.3479406011
 30
0.0
 40
1.5
  0
LINE
  5
C7
330
1F
100
AcDbEntity
  8
0
  6
HIDDEN
 62
     7
370
    18
100
AcDbLine
 10
63.7432874057
 20
146.6479407239
 30
0.0
 11
63.7432874057
 21
140.1479405898
 31
0.0
  0
LINE
  5
C8
330
1F
100
AcDbEntity
  8
0
  6
HIDDEN
 62
     7
370
    18
100
AcDbLine
 10
61.8432887707
 20
140.1479405898
 30
0.0
 11
61.8432887707
 21
146.6479407239
 31
0.0
  0
LINE
  5
C9
330
1F
100
AcDbEntity
  8
0
  6
HIDDEN
 62
     7
370
    18
100
AcDbLine
 10
67.7432880614
 20
150.6479409139
 30
0.0
 11
61.8432887707
 21
150.6479409139
 31
0.0
  0
LINE
  5
CA
330
1F
100
AcDbEntity
  8
0
  6
HIDDEN
 62
     7
370
    18
100
AcDbLine
 10
61.8432887707
 20
150.6479409139
 30
0.0
 11
61.8432887707
 21
146.6479407239
 31
0.0
  0
LINE
  5
CB
330
1F
100
AcDbEntity
  8
0
  6
HIDDEN
 62
     7
370
    18
100
AcDbLine
 10
61.8432887707
 20
146.6479407239
 30
0.0
 11
63.7432874057
 21
146.6479407239
 31
0.0
  0
LINE
  5
CC
330
1F
100
AcDbEntity
  8
0
  6
HIDDEN
 62
     7
370
    18
100
AcDbLine
 10
67.7432880614
 20
150.6366747047
 30
0.0
 11
67.7432880614
 21
150.6479409139
 31
0.0
  0
LINE
  5
CD
330
1F
100
AcDbEntity
  8
0
  6
HIDDEN
 62
     7
370
    18
100
AcDbLine
 10
63.7432874057
 20
146.6479407239
 30
0.0
 11
63.7432874057
 21
150.6366747047
 31
0.0
  0
LINE
  5
CE
330
1F
100
AcDbEntity
  8
0
  6
HIDDEN
 62
     7
370
    18
100
AcDbLine
 10
61.8432887707
 20
140.1479405898
 30
0.0
 11
61.8432887707
 21
136.1479403998
 31
0.0
  0
LINE
  5
CF
330
1F
100
AcDbEntity
  8
0
  6
HIDDEN
 62
     7
370
    18
100
AcDbLine
 10
63.7432874057
 20
140.1479405898
 30
0.0
 11
61.8432887707
 21
140.1479405898
 31
0.0
  0
LINE
  5
D0
330
1F
100
AcDbEntity
  8
0
  6
HIDDEN
 62
     7
370
    18
100
AcDbLine
 10
61.8432887707
 20
136.1479403998
 30
0.0
 11
63.7432874057
 21
136.1479403998
 31
0.0
  0
LINE
  5
D1
330
1F
100
AcDbEntity
  8
0
  6
HIDDEN
 62
     7
370
    18
100
AcDbLine
 10
63.7432874057
 20
136.1479403998
 30
0.0
 11
63.7432874057
 21
140.1479405898
 31
0.0
  0
LINE
  5
D2
330
1F
100
AcDbEntity
  8
0
  6
HIDDEN
 62
     7
370
    18
100
AcDbLine
 10
63.7432874057
 20
153.1479403924
 30
0.0
 11
67.7432880614
 21
153.1479403924
 31
0.0
  0
LINE
  5
D3
330
1F
100
AcDbEntity
  8
0
  6
HIDDEN
 62
     7
370
    18
100
AcDbLine
 10
67.7432880614
 20
153.1479403924
 30
0.0
 11
67.7432880614
 21
152.1479402284
 31
0.0
  0
LINE
  5
D4
330
1F
100
AcDbEntity
  8
0
  6
HIDDEN
 62
     7
370
    18
100
AcDbLine
 10
63.7432874057
 20
152.1479402284
 30
0.0
 11
63.7432874057
 21
153.1479403924
 31
0.0
  0
LINE
  5
D5
330
1F
100
AcDbEntity
  8
0
  6
HIDDEN
 62
     7
370
    18
100
AcDbLine
 10
58.8432864163
 20
140.1479405898
 30
0.0
 11
57.843288115
 21
140.1479405898
 31
0.0
  0
LINE
  5
D6
330
1F
100
AcDbEntity
  8
0
  6
HIDDEN
 62
     7
370
    18
100
AcDbLine
 10
58.8432864163
 20
140.1479405898
 30
0.0
 11
58.8432864163
 21
137.1479405637
 31
0.0
  0
LINE
  5
D7
330
1F
100
AcDbEntity
  8
0
  6
HIDDEN
 62
     7
370
    18
100
AcDbLine
 10
57.843288115
 20
140.1479405898
 30
0.0
 11
57.843288115
 21
137.1479405637
 31
0.0
  0
LINE
  5
D8
330
1F
100
AcDbEntity
  8
0
  6
HIDDEN
 62
     7
370
    18
100
AcDbLine
 10
57.843288115
 20
140.1479405898
 30
0.0
 11
57.843288115
 21
146.1479406419
 31
0.0
  0
LINE
  5
D9
330
1F
100
AcDbEntity
  8
0
  6
HIDDEN
 62
     7
370
    18
100
AcDbLine
 10
58.8432864163
 20
140.1479405898
 30
0.0
 11
58.8432864163
 21
146.1479406419
 31
0.0
  0
LINE
  5
DA
330
1F
100
AcDbEntity
  8
0
  6
HIDDEN
 62
     7
370
    18
100
AcDbLine
 10
58.8432864163
 20
146.1479406419
 30
0.0
 11
57.843288115
 21
146.1479406419
 31
0.0
  0
LINE
  5
DB
330
1F
100
AcDbEntity
  8
0
  6
HIDDEN
 62
     7
370
    18
100
AcDbLine
 10
58.8432864163
 20
146.1479406419
 30
0.0
 11
58.8432864163
 21
149.147940668
 31
0.0
  0
LINE
  5
DC
330
1F
100
AcDbEntity
  8
0
  6
HIDDEN
 62
     7
370
    18
100
AcDbLine
 10
57.843288115
 20
146.1479406419
 30
0.0
 11
57.843288115
 21
149.147940668
 31
0.0
  0
LINE
  5
DD
330
1F
100
AcDbEntity
  8
0
  6
HIDDEN
 62
     7
370
    18
100
AcDbLine
 10
58.8432864163
 20
145.6456881563
 30
0.0
 11
58.8432864163
 21
140.6501931918
 31
0.0
  0
LINE
  5
DE
330
1F
100
AcDbEntity
  8
0
  6
HIDDEN
 62
     7
370
    18
100
AcDbLine
 10
61.8432887707
 20
140.6501931918
 30
0.0
 11
61.8432887707
 21
145.6456881563
 31
0.0
  0
LINE
  5
DF
330
1F
100
AcDbEntity
  8
0
  6
HIDDEN
 62
     7
370
    18
100
AcDbLine
 10
67.7432880614
 20
150.6366747047
 30
0.0
 11
67.7432880614
 21
152.1479402284
 31
0.0
  0
LINE
  5
E0
330
1F
100
AcDbEntity
  8
0
  6
HIDDEN
 62
     7
370
    18
100
AcDbLine
 10
63.7432874057
 20
150.6366747047
 30
0.0
 11
63.7432874057
 21
152.1479402284
 31
0.0
  0
LINE
  5
E1
330
1F
100
AcDbEntity
  8
0
  6
HIDDEN
 62
     7
370
    18
100
AcDbLine
 10
61.8432887707
 20
147.1185287076
 30
0.0
 11
61.8432887707
 21
150.6479409139
 31
0.0
  0
LINE
  5
E2
330
1F
100
AcDbEntity
  8
0
  6
HIDDEN
 62
     7
370
    18
100
AcDbLine
 10
67.7432880614
 20
150.6479409139
 30
0.0
 11
67.7432880614
 21
147.1185287076
 31
0.0
  0
LINE
  5
E3
330
1F
100
AcDbEntity
  8
0
  6
HIDDEN
 62
     7
370
    18
100
AcDbLine
 10
61.8432887707
 20
136.1479403998
 30
0.0
 11
61.8432887707
 21
135.6479407835
 31
0.0
  0
LINE
  5
E4
330
1F
100
AcDbEntity
  8
0
  6
HIDDEN
 62
     7
370
    18
100
AcDbLine
 10
68.8432880554
 20
135.6479407835
 30
0.0
 11
68.8432880554
 21
136.1479403998
 31
0.0
  0
LINE
  5
E5
330
1F
100
AcDbEntity
  8
0
  6
HIDDEN
 62
     7
370
    18
100
AcDbLine
 10
68.8432880554
 20
136.1479403998
 30
0.0
 11
61.8432887707
 21
136.1479403998
 31
0.0
  0
LINE
  5
E6
330
1F
100
AcDbEntity
  8
0
  6
HIDDEN
 62
     7
370
    18
100
AcDbLine
 10
61.8432887707
 20
135.6479407835
 30
0.0
 11
68.8432880554
 21
135.6479407835
 31
0.0
  0
LINE
  5
E7
330
1F
100
AcDbEntity
  8
0
  6
HIDDEN
 62
     7
370
    18
100
AcDbLine
 10
61.8432887707
 20
135.6479407835
 30
0.0
 11
61.8432887707
 21
130.1479403476
 31
0.0
  0
LINE
  5
E8
330
1F
100
AcDbEntity
  8
0
  6
HIDDEN
 62
     7
370
    18
100
AcDbLine
 10
68.8432880554
 20
131.1479405116
 30
0.0
 11
67.8432860289
 21
130.1479403476
 31
0.0
  0
LINE
  5
E9
330
1F
100
AcDbEntity
  8
0
  6
HIDDEN
 62
     7
370
    18
100
AcDbLine
 10
61.8432887707
 20
130.1479403476
 30
0.0
 11
67.8432860289
 21
130.1479403476
 31
0.0
  0
LINE
  5
EA
330
1F
100
AcDbEntity
  8
0
  6
HIDDEN
 62
     7
370
    18
100
AcDbLine
 10
68.8432880554
 20
135.6479407835
 30
0.0
 11
68.8432880554
 21
131.1479405116
 31
0.0
  0
CIRCLE
  5
EB
330
1F
100
AcDbEntity
  8
0
  6
HIDDEN
 62
     7
370
    18
100
AcDbCircle
 10
66.2432873699
 20
133.3479406011
 30
0.0
 40
1.5
  0
LINE
  5
EC
330
1F
100
AcDbEntity
  8
0
  6
HIDDEN
 62
     7
370
    18
100
AcDbLine
 10
61.8432887707
 20
147.1185287076
 30
0.0
 11
67.7432880614
 21
147.1185287076
 31
0.0
  0
LINE
  5
ED
330
1F
100
AcDbEntity
  8
0
  6
HIDDEN
 62
     7
370
    18
100
AcDbLine
 10
61.8432887707
 20
147.1185287076
 30
0.0
 11
61.8432887707
 21
143.1569157715
 31
0.0
  0
LINE
  5
EE
330
1F
100
AcDbEntity
  8
0
  6
HIDDEN
 62
     7
370
    18
100
AcDbLine
 10
67.7432880614
 20
147.1185287076
 30
0.0
 11
67.7432880614
 21
143.1569157715
 31
0.0
  0
LINE
  5
EF
330
1F
100
AcDbEntity
  8
0
  6
HIDDEN
 62
     7
370
    18
100
AcDbLine
 10
59.7432867501
 20
144.147940547
 30
0.0
 11
59.7432867501
 21
151.1479409958
 31
0.0
  0
LINE
  5
F0
330
1F
100
AcDbEntity
  8
0
  6
HIDDEN
 62
     7
370
    18
100
AcDbLine
 10
67.7432880614
 20
144.147940547
 30
0.0
 11
67.7432880614
 21
151.1479409958
 31
0.0
  0
LINE
  5
F1
330
1F
100
AcDbEntity
  8
0
  6
HIDDEN
 62
     7
370
    18
100
AcDbLine
 10
58.8432864163
 20
140.1479405898
 30
0.0
 11
58.8432864163
 21
146.1479406419
 31
0.0
  0
LINE
  5
F2
330
1F
100
AcDbEntity
  8
0
  6
HIDDEN
 62
     7
370
    18
100
AcDbLine
 10
57.843288115
 20
140.1479405898
 30
0.0
 11
57.843288115
 21
146.1479406419
 31
0.0
  0
LINE
  5
F3
330
1F
100
AcDbEntity
  8
0
  6
HIDDEN
 62
     7
370
    18
100
AcDbLine
 10
61.8432887707
 20
150.6479409139
 30
0.0
 11
61.8432887707
 21
147.1185287076
 31
0.0
  0
LINE
  5
F4
330
1F
100
AcDbEntity
  8
0
  6
HIDDEN
 62
     7
370
    18
100
AcDbLine
 10
67.7432880614
 20
147.1185287076
 30
0.0
 11
67.7432880614
 21
150.6479409139
 31
0.0
  0
LINE
  5
F5
330
1F
100
AcDbEntity
  8
0
  6
HIDDEN
 62
     7
370
    18
100
AcDbLine
 10
61.8432887707
 20
138.4052989154
 30
0.0
 11
61.8432887707
 21
138.6074110481
 31
0.0
  0
LINE
  5
F6
330
1F
100
AcDbEntity
  8
0
  6
HIDDEN
 62
     7
370
    18
100
AcDbLine
 10
61.6432891104
 20
133.9588289696
 30
0.0
 11
61.8432887707
 21
133.9588289696
 31
0.0
  0
LINE
  5
F7
330
1F
100
AcDbEntity
  8
0
  6
HIDDEN
 62
     7
370
    18
100
AcDbLine
 10
61.6432891104
 20
133.7567166041
 30
0.0
 11
61.8432887707
 21
133.7567166041
 31
0.0
  0
LINE
  5
F8
330
1F
100
AcDbEntity
  8
0
  6
HIDDEN
 62
     7
370
    18
100
AcDbLine
 10
61.8432887707
 20
133.7567166041
 30
0.0
 11
61.8432887707
 21
133.9588289696
 31
0.0
  0
LINE
  5
F9
330
1F
100
AcDbEntity
  8
0
  6
HIDDEN
 62
     7
370
    18
100
AcDbLine
 10
61.6432891104
 20
133.7567166041
 30
0.0
 11
61.6432891104
 21
133.9588289696
 31
0.0
  0
LINE
  5
FA
330
1F
100
AcDbEntity
  8
0
  6
HIDDEN
 62
     7
370
    18
100
AcDbLine
 10
61.6432891104
 20
138.4052989154
 30
0.0
 11
61.6432891104
 21
138.6074110481
 31
0.0
  0
LINE
  5
FB
330
1F
100
AcDbEntity
  8
0
  6
HIDDEN
 62
     7
370
    18
100
AcDbLine
 10
61.6432891104
 20
138.6074110481
 30
0.0
 11
61.8432887707
 21
138.6074110481
 31
0.0
  0
LINE
  5
FC
330
1F
100
AcDbEntity
  8
0
  6
HIDDEN
 62
     7
370
    18
100
AcDbLine
 10
61.6432891104
 20
138.4052989154
 30
0.0
 11
61.8432887707
 21
138.4052989154
 31
0.0
  0
LINE
  5
FD
330
1F
100
AcDbEntity
  8
0
  6
HIDDEN
 62
     7
370
    18
100
AcDbLine
 10
58.8432864163
 20
140.6501931918
 30
0.0
 11
58.8432864163
 21
145.6456881563
 31
0.0
  0
LINE
  5
FE
330
1F
100
AcDbEntity
  8
0
  6
HIDDEN
 62
     7
370
    18
100
AcDbLine
 10
61.8432887707
 20
140.6501931918
 30
0.0
 11
61.8432887707
 21
145.6456881563
 31
0.0
  0
SPLINE
  5
FF
330
1F
100
AcDbEntity
  8
0
  6
HIDDEN
 62
     7
370
    18
100
AcDbSpline
210
0.0
220
0.0
230
1.0
 70
    24
 71
     3
 72
    15
 73
    11
 74
     0
 42
0.000000001
 43
0.00000001
 40
0.0
 40
0.0
 40
0.0
 40
0.0
 40
0.137935286745953
 40
0.2621903052083522
 40
0.3706756090927847
 40
0.4731211586353572
 40
0.577218866244237
 40
0.696904226219883
 40
0.8373186510641234
 40
1.0
 40
1.0
 40
1.0
 40
1.0
 10
61.64328736994285
 20
138.1810805329571
 30
0.0
 10
61.64328736994285
 20
138.1986786143113
 30
0.0
 10
61.64328736994285
 20
138.2321294188894
 30
0.0
 10
61.64328736994285
 20
138.2785994206758
 30
0.0
 10
61.64328736994285
 20
138.3178661109677
 30
0.0
 10
61.64328736994285
 20
138.3511224297144
 30
0.0
 10
61.64328736994285
 20
138.3763122246743
 30
0.0
 10
61.64328736994285
 20
138.3939807100946
 30
0.0
 10
61.64328736994285
 20
138.4040439022615
 30
0.0
 10
61.64328736994285
 20
138.404860523627
 30
0.0
 10
61.64328736994285
 20
138.4052988308448
 30
0.0
  0
SPLINE
  5
100
330
1F
100
AcDbEntity
  8
0
  6
HIDDEN
 62
     7
370
    18
100
AcDbSpline
210
0.0
220
0.0
230
1.0
 70
    24
 71
     3
 72
    15
 73
    11
 74
     0
 42
0.000000001
 43
0.00000001
 40
0.0
 40
0.0
 40
0.0
 40
0.0
 40
0.137935286745953
 40
0.2621903052083522
 40
0.3706756090927847
 40
0.4731211586353572
 40
0.577218866244237
 40
0.696904226219883
 40
0.8373186510641234
 40
1.0
 40
1.0
 40
1.0
 40
1.0
 10
61.84328736994285
 20
138.1810805329571
 30
0.0
 10
61.84328736994285
 20
138.1986786143113
 30
0.0
 10
61.84328736994285
 20
138.2321294188894
 30
0.0
 10
61.84328736994286
 20
138.2785994206758
 30
0.0
 10
61.84328736994285
 20
138.3178661109677
 30
0.0
 10
61.84328736994285
 20
138.3511224297144
 30
0.0
 10
61.84328736994285
 20
138.3763122246743
 30
0.0
 10
61.84328736994285
 20
138.3939807100946
 30
0.0
 10
61.84328736994285
 20
138.4040439022615
 30
0.0
 10
61.84328736994285
 20
138.404860523627
 30
0.0
 10
61.84328736994285
 20
138.4052988308448
 30
0.0
  0
SPLINE
  5
101
330
1F
100
AcDbEntity
  8
0
  6
HIDDEN
 62
     7
370
    18
100
AcDbSpline
210
0.0
220
0.0
230
1.0
 70
    24
 71
     3
 72
    15
 73
    11
 74
     0
 42
0.000000001
 43
0.00000001
 40
0.0
 40
0.0
 40
0.0
 40
0.0
 40
0.1595067941054769
 40
0.2933985199114839
 40
0.4118030020793402
 40
0.5148656329538173
 40
0.6190213829170952
 40
0.7325781500340758
 40
0.8575313883666477
 40
1.0
 40
1.0
 40
1.0
 40
1.0
 10
61.64328736994285
 20
133.9588289234374
 30
0.0
 10
61.64328736994285
 20
133.9592059640639
 30
0.0
 10
61.64328736994285
 20
133.9598994966647
 30
0.0
 10
61.64328736994285
 20
133.9704982860804
 30
0.0
 10
61.64328736994285
 20
133.9877298053344
 30
0.0
 10
61.64328736994285
 20
134.0134739169837
 30
0.0
 10
61.64328736994285
 20
134.0465496974259
 30
0.0
 10
61.64328736994285
 20
134.0861465213185
 30
0.0
 10
61.64328736994285
 20
134.1324219369279
 30
0.0
 10
61.64328736994285
 20
134.1654510226883
 30
0.0
 10
61.64328736994285
 20
134.1830472213251
 30
0.0
  0
SPLINE
  5
102
330
1F
100
AcDbEntity
  8
0
  6
HIDDEN
 62
     7
370
    18
100
AcDbSpline
210
0.0
220
0.0
230
1.0
 70
    24
 71
     3
 72
    15
 73
    11
 74
     0
 42
0.000000001
 43
0.00000001
 40
0.0
 40
0.0
 40
0.0
 40
0.0
 40
0.1595067941054769
 40
0.2933985199114839
 40
0.4118030020793402
 40
0.5148656329538173
 40
0.6190213829170952
 40
0.7325781500340758
 40
0.8575313883666477
 40
1.0
 40
1.0
 40
1.0
 40
1.0
 10
61.84328736994285
 20
133.9588289234374
 30
0.0
 10
61.84328736994285
 20
133.9592059640639
 30
0.0
 10
61.84328736994285
 20
133.9598994966647
 30
0.0
 10
61.84328736994285
 20
133.9704982860804
 30
0.0
 10
61.84328736994286
 20
133.9877298053344
 30
0.0
 10
61.84328736994285
 20
134.0134739169837
 30
0.0
 10
61.84328736994285
 20
134.0465496974259
 30
0.0
 10
61.84328736994285
 20
134.0861465213185
 30
0.0
 10
61.84328736994285
 20
134.1324219369279
 30
0.0
 10
61.84328736994285
 20
134.1654510226883
 30
0.0
 10
61.84328736994285
 20
134.1830472213251
 30
0.0
  0
LINE
  5
103
330
1F
100
AcDbEntity
  8
0
  6
HIDDEN
 62
     7
370
    18
100
AcDbLine
 10
61.6432891104
 20
134.1830472078
 30
0.0
 11
61.8432887707
 21
134.1830472078
 31
0.0
  0
LINE
  5
104
330
1F
100
AcDbEntity
  8
0
  6
HIDDEN
 62
     7
370
    18
100
AcDbLine
 10
61.6432891104
 20
138.1810804445
 30
0.0
 11
61.8432887707
 21
138.1810804445
 31
0.0
  0
LINE
  5
105
330
1F
100
AcDbEntity
  8
0
  6
HIDDEN
 62
     7
370
    18
100
AcDbLine
 10
61.6432891104
 20
134.1830472078
 30
0.0
 11
61.6432891104
 21
138.1810804445
 31
0.0
  0
LINE
  5
106
330
1F
100
AcDbEntity
  8
0
  6
HIDDEN
 62
     7
370
    18
100
AcDbLine
 10
61.8432887707
 20
134.1830472078
 30
0.0
 11
61.8432887707
 21
138.1810804445
 31
0.0
  0
LINE
  5
107
330
1F
100
AcDbEntity
  8
0
  6
HIDDEN
 62
     7
370
    18
100
AcDbLine
 10
61.6432891104
 20
136.249434537
 30
0.0
 11
61.8432887707
 21
136.249434537
 31
0.0
  0
LINE
  5
108
330
1F
100
AcDbEntity
  8
0
  6
HIDDEN
 62
     7
370
    18
100
AcDbLine
 10
61.6432891104
 20
138.1873964413
 30
0.0
 11
61.8432887707
 21
138.1873964413
 31
0.0
  0
LINE
  5
109
330
1F
100
AcDbEntity
  8
0
  6
HIDDEN
 62
     7
370
    18
100
AcDbLine
 10
61.8432887707
 20
138.1873964413
 30
0.0
 11
61.8432887707
 21
136.249434537
 31
0.0
  0
LINE
  5
10A
330
1F
100
AcDbEntity
  8
0
  6
HIDDEN
 62
     7
370
    18
100
AcDbLine
 10
61.6432891104
 20
138.1873964413
 30
0.0
 11
61.6432891104
 21
136.249434537
 31
0.0
  0
SPLINE
  5
10B
330
1F
100
AcDbEntity
  8
0
  6
HIDDEN
 62
     7
370
    18
100
AcDbSpline
210
0.0
220
0.0
230
1.0
 70
    24
 71
     3
 72
    15
 73
    11
 74
     0
 42
0.000000001
 43
0.00000001
 40
0.0
 40
0.0
 40
0.0
 40
0.0
 40
0.1401929724675655
 40
0.2719460569846033
 40
0.3925231750026726
 40
0.5120890779093324
 40
0.6268750744824111
 40
0.742137787420689
 40
0.8651906837902963
 40
1.0
 40
1.0
 40
1.0
 40
1.0
 10
61.84328736994285
 20
138.4052988308448
 30
0.0
 10
61.84328736994285
 20
138.404819919366
 30
0.0
 10
61.84328736994285
 20
138.4038909278053
 30
0.0
 10
61.84328736994285
 20
138.3932014785431
 30
0.0
 10
61.84328736994285
 20
138.3761380703471
 30
0.0
 10
61.84328736994285
 20
138.3521134003327
 30
0.0
 10
61.84328736994285
 20
138.321400470979
 30
0.0
 10
61.84328736994285
 20
138.2816906632654
 30
0.0
 10
61.84328736994285
 20
138.2368504521483
 30
0.0
 10
61.84328736994285
 20
138.2043747213538
 30
0.0
 10
61.84328736994285
 20
138.1873965413482
 30
0.0
  0
SPLINE
  5
10C
330
1F
100
AcDbEntity
  8
0
  6
HIDDEN
 62
     7
370
    18
100
AcDbSpline
210
0.0
220
0.0
230
1.0
 70
    24
 71
     3
 72
    15
 73
    11
 74
     0
 42
0.000000001
 43
0.00000001
 40
0.0
 40
0.0
 40
0.0
 40
0.0
 40
0.1401929724675655
 40
0.2719460569846033
 40
0.3925231750026726
 40
0.5120890779093324
 40
0.6268750744824111
 40
0.742137787420689
 40
0.8651906837902963
 40
1.0
 40
1.0
 40
1.0
 40
1.0
 10
61.64328736994285
 20
138.4052988308448
 30
0.0
 10
61.64328736994285
 20
138.404819919366
 30
0.0
 10
61.64328736994285
 20
138.4038909278053
 30
0.0
 10
61.64328736994285
 20
138.3932014785431
 30
0.0
 10
61.64328736994285
 20
138.3761380703471
 30
0.0
 10
61.64328736994285
 20
138.3521134003327
 30
0.0
 10
61.64328736994285
 20
138.321400470979
 30
0.0
 10
61.64328736994285
 20
138.2816906632654
 30
0.0
 10
61.64328736994285
 20
138.2368504521483
 30
0.0
 10
61.64328736994285
 20
138.2043747213538
 30
0.0
 10
61.64328736994285
 20
138.1873965413482
 30
0.0
  0
LINE
  5
10D
330
1F
100
AcDbEntity
  8
0
  6
HIDDEN
 62
     7
370
    18
100
AcDbLine
 10
61.6432891104
 20
134.1841000679
 30
0.0
 11
61.8432887707
 21
134.1841000679
 31
0.0
  0
LINE
  5
10E
330
1F
100
AcDbEntity
  8
0
  6
HIDDEN
 62
     7
370
    18
100
AcDbLine
 10
61.6432891104
 20
136.0473221715
 30
0.0
 11
61.8432887707
 21
136.0473221715
 31
0.0
  0
LINE
  5
10F
330
1F
100
AcDbEntity
  8
0
  6
HIDDEN
 62
     7
370
    18
100
AcDbLine
 10
61.6432891104
 20
136.0473221715
 30
0.0
 11
61.6432891104
 21
134.1841000679
 31
0.0
  0
LINE
  5
110
330
1F
100
AcDbEntity
  8
0
  6
HIDDEN
 62
     7
370
    18
100
AcDbLine
 10
61.8432887707
 20
136.0473221715
 30
0.0
 11
61.8432887707
 21
134.1841000679
 31
0.0
  0
SPLINE
  5
111
330
1F
100
AcDbEntity
  8
0
  6
HIDDEN
 62
     7
370
    18
100
AcDbSpline
210
0.0
220
0.0
230
1.0
 70
    24
 71
     3
 72
    15
 73
    11
 74
     0
 42
0.000000001
 43
0.00000001
 40
0.0
 40
0.0
 40
0.0
 40
0.0
 40
0.1452927228888174
 40
0.2766655936704944
 40
0.3971446607677352
 40
0.5121364022133171
 40
0.6262859702314297
 40
0.7442313159045486
 40
0.8664733320603949
 40
1.0
 40
1.0
 40
1.0
 40
1.0
 10
61.64328736994285
 20
134.1840998893903
 30
0.0
 10
61.64328736994285
 20
134.1664980820146
 30
0.0
 10
61.64328736994285
 20
134.1329808184487
 30
0.0
 10
61.64328736994285
 20
134.0857632013326
 30
0.0
 10
61.64328736994285
 20
134.0457941428564
 30
0.0
 10
61.64328736994285
 20
134.0133965256293
 30
0.0
 10
61.64328736994285
 20
133.9890637978266
 30
0.0
 10
61.64328736994285
 20
133.9710333002569
 30
0.0
 10
61.64328736994285
 20
133.9601577274683
 30
0.0
 10
61.64328736994285
 20
133.9592846976296
 30
0.0
 10
61.64328736994285
 20
133.9588289234374
 30
0.0
  0
SPLINE
  5
112
330
1F
100
AcDbEntity
  8
0
  6
HIDDEN
 62
     7
370
    18
100
AcDbSpline
210
0.0
220
0.0
230
1.0
 70
    24
 71
     3
 72
    15
 73
    11
 74
     0
 42
0.000000001
 43
0.00000001
 40
0.0
 40
0.0
 40
0.0
 40
0.0
 40
0.1452927228888174
 40
0.2766655936704944
 40
0.3971446607677352
 40
0.5121364022133171
 40
0.6262859702314297
 40
0.7442313159045486
 40
0.8664733320603949
 40
1.0
 40
1.0
 40
1.0
 40
1.0
 10
61.84328736994285
 20
134.1840998893903
 30
0.0
 10
61.84328736994285
 20
134.1664980820146
 30
0.0
 10
61.84328736994285
 20
134.1329808184487
 30
0.0
 10
61.84328736994285
 20
134.0857632013326
 30
0.0
 10
61.84328736994285
 20
134.0457941428564
 30
0.0
 10
61.84328736994286
 20
134.0133965256293
 30
0.0
 10
61.84328736994285
 20
133.9890637978266
 30
0.0
 10
61.84328736994285
 20
133.9710333002569
 30
0.0
 10
61.84328736994285
 20
133.9601577274683
 30
0.0
 10
61.84328736994285
 20
133.9592846976296
 30
0.0
 10
61.84328736994285
 20
133.9588289234374
 30
0.0
  0
SPLINE
  5
113
330
1F
100
AcDbEntity
  8
0
  6
HIDDEN
 62
     7
370
    18
100
AcDbSpline
210
0.0
220
0.0
230
1.0
 70
    24
 71
     3
 72
    23
 73
    19
 74
     0
 42
0.000000001
 43
0.00000001
 40
0.0
 40
0.0
 40
0.0
 40
0.0
 40
0.0740217060345309
 40
0.1436338517891368
 40
0.2085375397341098
 40
0.2700009668097793
 40
0.3277076000783564
 40
0.3830340561666093
 40
0.4362267364044929
 40
0.4886231734223703
 40
0.5410730693874705
 40
0.5954124719576248
 40
0.6528513800513217
 40
0.7131292762688753
 40
0.7772974494693466
 40
0.8463842511539059
 40
0.9206540001096769
 40
1.0
 40
1.0
 40
1.0
 40
1.0
 10
61.84328736994285
 20
137.3410514169269
 30
0.0
 10
61.84328736994285
 20
137.384951313235
 30
0.0
 10
61.84328736994285
 20
137.470135937282
 30
0.0
 10
61.84328736994285
 20
137.5931777320025
 30
0.0
 10
61.84328736994285
 20
137.7079462969323
 30
0.0
 10
61.84328736994285
 20
137.8131158876343
 30
0.0
 10
61.84328736994285
 20
137.910004799554
 30
0.0
 10
61.84328736994285
 20
137.9978916965362
 30
0.0
 10
61.84328736994285
 20
138.0766753252309
 30
0.0
 10
61.84328736994285
 20
138.1466700556766
 30
0.0
 10
61.84328736994285
 20
138.2089257216226
 30
0.0
 10
61.84328736994285
 20
138.261409305762
 30
0.0
 10
61.84328736994285
 20
138.3070102090648
 30
0.0
 10
61.84328736994285
 20
138.3421388560251
 30
0.0
 10
61.84328736994285
 20
138.3705414570121
 30
0.0
 10
61.84328736994285
 20
138.3918357302168
 30
0.0
 10
61.84328736994285
 20
138.4026802663875
 30
0.0
 10
61.84328736994285
 20
138.4044069564651
 30
0.0
 10
61.84328736994285
 20
138.4052988308448
 30
0.0
  0
SPLINE
  5
114
330
1F
100
AcDbEntity
  8
0
  6
HIDDEN
 62
     7
370
    18
100
AcDbSpline
210
0.0
220
0.0
230
1.0
 70
    24
 71
     3
 72
    23
 73
    19
 74
     0
 42
0.000000001
 43
0.00000001
 40
0.0
 40
0.0
 40
0.0
 40
0.0
 40
0.0740217060345309
 40
0.1436338517891368
 40
0.2085375397341098
 40
0.2700009668097793
 40
0.3277076000783564
 40
0.3830340561666093
 40
0.4362267364044929
 40
0.4886231734223703
 40
0.5410730693874705
 40
0.5954124719576248
 40
0.6528513800513217
 40
0.7131292762688753
 40
0.7772974494693466
 40
0.8463842511539059
 40
0.9206540001096769
 40
1.0
 40
1.0
 40
1.0
 40
1.0
 10
61.64328736994285
 20
137.3410514169269
 30
0.0
 10
61.64328736994285
 20
137.384951313235
 30
0.0
 10
61.64328736994285
 20
137.470135937282
 30
0.0
 10
61.64328736994285
 20
137.5931777320025
 30
0.0
 10
61.64328736994285
 20
137.7079462969323
 30
0.0
 10
61.64328736994285
 20
137.8131158876343
 30
0.0
 10
61.64328736994285
 20
137.910004799554
 30
0.0
 10
61.64328736994285
 20
137.9978916965362
 30
0.0
 10
61.64328736994285
 20
138.0766753252309
 30
0.0
 10
61.64328736994285
 20
138.1466700556766
 30
0.0
 10
61.64328736994285
 20
138.2089257216226
 30
0.0
 10
61.64328736994285
 20
138.261409305762
 30
0.0
 10
61.64328736994285
 20
138.3070102090648
 30
0.0
 10
61.64328736994285
 20
138.3421388560251
 30
0.0
 10
61.64328736994285
 20
138.3705414570121
 30
0.0
 10
61.64328736994285
 20
138.3918357302168
 30
0.0
 10
61.64328736994285
 20
138.4026802663875
 30
0.0
 10
61.64328736994285
 20
138.4044069564651
 30
0.0
 10
61.64328736994285
 20
138.4052988308448
 30
0.0
  0
LINE
  5
115
330
1F
100
AcDbEntity
  8
0
  6
HIDDEN
 62
     7
370
    18
100
AcDbLine
 10
61.6432891104
 20
137.3410514637
 30
0.0
 11
61.8432887707
 21
137.3410514637
 31
0.0
  0
SPLINE
  5
116
330
1F
100
AcDbEntity
  8
0
  6
HIDDEN
 62
     7
370
    18
100
AcDbSpline
210
0.0
220
0.0
230
1.0
 70
    24
 71
     3
 72
    23
 73
    19
 74
     0
 42
0.000000001
 43
0.00000001
 40
0.0
 40
0.0
 40
0.0
 40
0.0
 40
0.0597347803620125
 40
0.1179793356524882
 40
0.1750725848131159
 40
0.2313742421696766
 40
0.2874746035033904
 40
0.3435881866994941
 40
0.4000969872449295
 40
0.4577269422077829
 40
0.515942833053726
 40
0.5747388208841321
 40
0.6354253767168787
 40
0.6989342487637628
 40
0.766547714738133
 40
0.8386915993213289
 40
0.9165071383457765
 40
1.0
 40
1.0
 40
1.0
 40
1.0
 10
61.84328736994285
 20
136.2494346333139
 30
0.0
 10
61.84328736994285
 20
136.2502992272199
 30
0.0
 10
61.84328736994285
 20
136.2520068456964
 30
0.0
 10
61.84328736994285
 20
136.2639002714329
 30
0.0
 10
61.84328736994285
 20
136.2828324953917
 30
0.0
 10
61.84328736994286
 20
136.3089155400434
 30
0.0
 10
61.84328736994285
 20
136.3440671623012
 30
0.0
 10
61.84328736994285
 20
136.3862584389213
 30
0.0
 10
61.84328736994285
 20
136.4359845744475
 30
0.0
 10
61.84328736994285
 20
136.4934244351496
 30
0.0
 10
61.84328736994285
 20
136.560624635834
 30
0.0
 10
61.84328736994285
 20
136.6392813334147
 30
0.0
 10
61.84328736994285
 20
136.7299576860601
 30
0.0
 10
61.84328736994285
 20
136.8307736957698
 30
0.0
 10
61.84328736994285
 20
136.9431522222363
 30
0.0
 10
61.84328736994285
 20
137.0660346592383
 30
0.0
 10
61.84328736994285
 20
137.2000088387664
 30
0.0
 10
61.84328736994285
 20
137.2929468918379
 30
0.0
 10
61.84328736994285
 20
137.3410514169269
 30
0.0
  0
SPLINE
  5
117
330
1F
100
AcDbEntity
  8
0
  6
HIDDEN
 62
     7
370
    18
100
AcDbSpline
210
0.0
220
0.0
230
1.0
 70
    24
 71
     3
 72
    23
 73
    19
 74
     0
 42
0.000000001
 43
0.00000001
 40
0.0
 40
0.0
 40
0.0
 40
0.0
 40
0.0597347803620125
 40
0.1179793356524882
 40
0.1750725848131159
 40
0.2313742421696766
 40
0.2874746035033904
 40
0.3435881866994941
 40
0.4000969872449295
 40
0.4577269422077829
 40
0.515942833053726
 40
0.5747388208841321
 40
0.6354253767168787
 40
0.6989342487637628
 40
0.766547714738133
 40
0.8386915993213289
 40
0.9165071383457765
 40
1.0
 40
1.0
 40
1.0
 40
1.0
 10
61.64328736994285
 20
136.2494346333139
 30
0.0
 10
61.64328736994285
 20
136.2502992272199
 30
0.0
 10
61.64328736994285
 20
136.2520068456964
 30
0.0
 10
61.64328736994285
 20
136.2639002714329
 30
0.0
 10
61.64328736994285
 20
136.2828324953917
 30
0.0
 10
61.64328736994285
 20
136.3089155400434
 30
0.0
 10
61.64328736994285
 20
136.3440671623012
 30
0.0
 10
61.64328736994285
 20
136.3862584389213
 30
0.0
 10
61.64328736994285
 20
136.4359845744475
 30
0.0
 10
61.64328736994285
 20
136.4934244351496
 30
0.0
 10
61.64328736994285
 20
136.560624635834
 30
0.0
 10
61.64328736994285
 20
136.6392813334147
 30
0.0
 10
61.64328736994285
 20
136.7299576860601
 30
0.0
 10
61.64328736994285
 20
136.8307736957698
 30
0.0
 10
61.64328736994285
 20
136.9431522222363
 30
0.0
 10
61.64328736994285
 20
137.0660346592383
 30
0.0
 10
61.64328736994285
 20
137.2000088387664
 30
0.0
 10
61.64328736994285
 20
137.2929468918379
 30
0.0
 10
61.64328736994285
 20
137.3410514169269
 30
0.0
  0
LINE
  5
118
330
1F
100
AcDbEntity
  8
0
  6
HIDDEN
 62
     7
370
    18
100
AcDbLine
 10
61.6432891104
 20
137.369473566
 30
0.0
 11
61.8432887707
 21
137.369473566
 31
0.0
  0
SPLINE
  5
119
330
1F
100
AcDbEntity
  8
0
  6
HIDDEN
 62
     7
370
    18
100
AcDbSpline
210
0.0
220
0.0
230
1.0
 70
    24
 71
     3
 72
    23
 73
    19
 74
     0
 42
0.000000001
 43
0.00000001
 40
0.0
 40
0.0
 40
0.0
 40
0.0
 40
0.079360224757063
 40
0.154728847563424
 40
0.225980865503611
 40
0.2935593309686363
 40
0.3586047254122603
 40
0.4213340036865627
 40
0.4822468490268178
 40
0.5420746459051454
 40
0.6009008390016161
 40
0.6580077516892112
 40
0.7139516712666821
 40
0.769328172312303
 40
0.8250332201731395
 40
0.8818114572522685
 40
0.9399536248476178
 40
1.0
 40
1.0
 40
1.0
 40
1.0
 10
61.64328736994285
 20
138.6074110993633
 30
0.0
 10
61.64328736994285
 20
138.6065518205643
 30
0.0
 10
61.64328736994285
 20
138.6048764823366
 30
0.0
 10
61.64328736994285
 20
138.5875201611995
 30
0.0
 10
61.64328736994285
 20
138.560569975906
 30
0.0
 10
61.64328736994285
 20
138.5228090035807
 30
0.0
 10
61.64328736994285
 20
138.4735772198247
 30
0.0
 10
61.64328736994285
 20
138.412182228519
 30
0.0
 10
61.64328736994285
 20
138.3404841944408
 30
0.0
 10
61.64328736994285
 20
138.2578528693851
 30
0.0
 10
61.64328736994285
 20
138.1678138828164
 30
0.0
 10
61.64328736994285
 20
138.0703060856052
 30
0.0
 10
61.64328736994286
 20
137.9677416785975
 30
0.0
 10
61.64328736994285
 20
137.8597341923534
 30
0.0
 10
61.64328736994285
 20
137.7452128629734
 30
0.0
 10
61.64328736994285
 20
137.624666349356
 30
0.0
 10
61.64328736994285
 20
137.4988187307879
 30
0.0
 10
61.64328736994285
 20
137.4130491752276
 30
0.0
 10
61.64328736994285
 20
137.3694734546874
 30
0.0
  0
SPLINE
  5
11A
330
1F
100
AcDbEntity
  8
0
  6
HIDDEN
 62
     7
370
    18
100
AcDbSpline
210
0.0
220
0.0
230
1.0
 70
    24
 71
     3
 72
    23
 73
    19
 74
     0
 42
0.000000001
 43
0.00000001
 40
0.0
 40
0.0
 40
0.0
 40
0.0
 40
0.079360224757063
 40
0.154728847563424
 40
0.225980865503611
 40
0.2935593309686363
 40
0.3586047254122603
 40
0.4213340036865627
 40
0.4822468490268178
 40
0.5420746459051454
 40
0.6009008390016161
 40
0.6580077516892112
 40
0.7139516712666821
 40
0.769328172312303
 40
0.8250332201731395
 40
0.8818114572522685
 40
0.9399536248476178
 40
1.0
 40
1.0
 40
1.0
 40
1.0
 10
61.84328736994285
 20
138.6074110993633
 30
0.0
 10
61.84328736994285
 20
138.6065518205643
 30
0.0
 10
61.84328736994285
 20
138.6048764823366
 30
0.0
 10
61.84328736994285
 20
138.5875201611995
 30
0.0
 10
61.84328736994285
 20
138.560569975906
 30
0.0
 10
61.84328736994285
 20
138.5228090035807
 30
0.0
 10
61.84328736994285
 20
138.4735772198247
 30
0.0
 10
61.84328736994285
 20
138.412182228519
 30
0.0
 10
61.84328736994285
 20
138.3404841944408
 30
0.0
 10
61.84328736994285
 20
138.2578528693851
 30
0.0
 10
61.84328736994285
 20
138.1678138828164
 30
0.0
 10
61.84328736994285
 20
138.0703060856052
 30
0.0
 10
61.84328736994286
 20
137.9677416785975
 30
0.0
 10
61.84328736994285
 20
137.8597341923534
 30
0.0
 10
61.84328736994285
 20
137.7452128629734
 30
0.0
 10
61.84328736994285
 20
137.624666349356
 30
0.0
 10
61.84328736994285
 20
137.4988187307879
 30
0.0
 10
61.84328736994285
 20
137.4130491752276
 30
0.0
 10
61.84328736994285
 20
137.3694734546874
 30
0.0
  0
SPLINE
  5
11B
330
1F
100
AcDbEntity
  8
0
  6
HIDDEN
 62
     7
370
    18
100
AcDbSpline
210
0.0
220
0.0
230
1.0
 70
    24
 71
     3
 72
    23
 73
    19
 74
     0
 42
0.000000001
 43
0.00000001
 40
0.0
 40
0.0
 40
0.0
 40
0.0
 40
0.0722783003932824
 40
0.1407578635076891
 40
0.2060067187613774
 40
0.2682482346698806
 40
0.3291620637654216
 40
0.3889842877659893
 40
0.44881240219644
 40
0.5098803072408934
 40
0.5708558134352314
 40
0.630711408873793
 40
0.690755106686551
 40
0.7501595946320276
 40
0.8107466501506667
 40
0.8720583555434848
 40
0.9350054779903878
 40
1.0
 40
1.0
 40
1.0
 40
1.0
 10
61.64328736994285
 20
137.3694734546874
 30
0.0
 10
61.64328736994285
 20
137.3171173915063
 30
0.0
 10
61.64328736994285
 20
137.2151569475703
 30
0.0
 10
61.64328736994285
 20
137.0671570660849
 30
0.0
 10
61.64328736994285
 20
136.9286944829766
 30
0.0
 10
61.64328736994285
 20
136.7999962884087
 30
0.0
 10
61.64328736994285
 20
136.680185996823
 30
0.0
 10
61.64328736994285
 20
136.5711057354475
 30
0.0
 10
61.64328736994285
 20
136.4709619843505
 30
0.0
 10
61.64328736994285
 20
136.3824888554992
 30
0.0
 10
61.64328736994285
 20
136.3043139639643
 30
0.0
 10
61.64328736994285
 20
136.234769854162
 30
0.0
 10
61.64328736994285
 20
136.1775936446715
 30
0.0
 10
61.64328736994285
 20
136.1292273078154
 30
0.0
 10
61.64328736994285
 20
136.0927932080352
 30
0.0
 10
61.64328736994285
 20
136.0664113248039
 30
0.0
 10
61.64328736994285
 20
136.0502291394702
 30
0.0
 10
61.64328736994285
 20
136.0483015717219
 30
0.0
 10
61.64328736994285
 20
136.0473223647954
 30
0.0
  0
SPLINE
  5
11C
330
1F
100
AcDbEntity
  8
0
  6
HIDDEN
 62
     7
370
    18
100
AcDbSpline
210
0.0
220
0.0
230
1.0
 70
    24
 71
     3
 72
    23
 73
    19
 74
     0
 42
0.000000001
 43
0.00000001
 40
0.0
 40
0.0
 40
0.0
 40
0.0
 40
0.0722783003932824
 40
0.1407578635076891
 40
0.2060067187613774
 40
0.2682482346698806
 40
0.3291620637654216
 40
0.3889842877659893
 40
0.44881240219644
 40
0.5098803072408934
 40
0.5708558134352314
 40
0.630711408873793
 40
0.690755106686551
 40
0.7501595946320276
 40
0.8107466501506667
 40
0.8720583555434848
 40
0.9350054779903878
 40
1.0
 40
1.0
 40
1.0
 40
1.0
 10
61.84328736994285
 20
137.3694734546874
 30
0.0
 10
61.84328736994285
 20
137.3171173915063
 30
0.0
 10
61.84328736994285
 20
137.2151569475703
 30
0.0
 10
61.84328736994285
 20
137.0671570660849
 30
0.0
 10
61.84328736994285
 20
136.9286944829766
 30
0.0
 10
61.84328736994286
 20
136.7999962884087
 30
0.0
 10
61.84328736994285
 20
136.680185996823
 30
0.0
 10
61.84328736994285
 20
136.5711057354475
 30
0.0
 10
61.84328736994285
 20
136.4709619843505
 30
0.0
 10
61.84328736994285
 20
136.3824888554992
 30
0.0
 10
61.84328736994285
 20
136.3043139639643
 30
0.0
 10
61.84328736994285
 20
136.234769854162
 30
0.0
 10
61.84328736994285
 20
136.1775936446715
 30
0.0
 10
61.84328736994285
 20
136.1292273078154
 30
0.0
 10
61.84328736994285
 20
136.0927932080352
 30
0.0
 10
61.84328736994285
 20
136.0664113248039
 30
0.0
 10
61.84328736994285
 20
136.0502291394702
 30
0.0
 10
61.84328736994285
 20
136.0483015717219
 30
0.0
 10
61.84328736994285
 20
136.0473223647954
 30
0.0
  0
LINE
  5
11D
330
1F
100
AcDbEntity
  8
0
  6
HIDDEN
 62
     7
370
    18
100
AcDbLine
 10
58.8432864163
 20
146.1479406419
 30
0.0
 11
58.8432864163
 21
140.1479405898
 31
0.0
  0
LINE
  5
11E
330
1F
100
AcDbEntity
  8
0
  6
HIDDEN
 62
     7
370
    18
100
AcDbLine
 10
57.843288115
 20
146.1479406419
 30
0.0
 11
57.843288115
 21
140.1479405898
 31
0.0
  0
LINE
  5
11F
330
1F
100
AcDbEntity
  8
0
  6
HIDDEN
 62
     7
370
    18
100
AcDbLine
 10
63.7432874057
 20
150.6366747047
 30
0.0
 11
67.7432880614
 21
150.6366747047
 31
0.0
  0
LINE
  5
120
330
1F
100
AcDbEntity
  8
0
  6
HIDDEN
 62
     7
370
    18
100
AcDbLine
 10
63.7432874057
 20
150.6366747047
 30
0.0
 11
63.7432874057
 21
146.6479407239
 31
0.0
  0
LINE
  5
121
330
1F
100
AcDbEntity
  8
0
  6
HIDDEN
 62
     7
370
    18
100
AcDbLine
 10
61.8432887707
 20
146.6479407239
 30
0.0
 11
61.8432887707
 21
150.6479409139
 31
0.0
  0
LINE
  5
122
330
1F
100
AcDbEntity
  8
0
  6
HIDDEN
 62
     7
370
    18
100
AcDbLine
 10
67.7432880614
 20
150.6479409139
 30
0.0
 11
67.7432880614
 21
150.6366747047
 31
0.0
  0
LINE
  5
123
330
1F
100
AcDbEntity
  8
0
  6
HIDDEN
 62
     7
370
    18
100
AcDbLine
 10
63.7432874057
 20
152.1479402284
 30
0.0
 11
67.7432880614
 21
152.1479402284
 31
0.0
  0
LINE
  5
124
330
1F
100
AcDbEntity
  8
0
  6
HIDDEN
 62
     7
370
    18
100
AcDbLine
 10
63.7432874057
 20
153.1479403924
 30
0.0
 11
63.7432874057
 21
152.1479402284
 31
0.0
  0
LINE
  5
125
330
1F
100
AcDbEntity
  8
0
  6
HIDDEN
 62
     7
370
    18
100
AcDbLine
 10
67.7432880614
 20
152.1479402284
 30
0.0
 11
67.7432880614
 21
153.1479403924
 31
0.0
  0
CIRCLE
  5
126
330
1F
100
AcDbEntity
  8
0
  6
HIDDEN
 62
     7
370
    18
100
AcDbCircle
 10
59.8432873699
 20
143.2479406011
 30
0.0
 40
0.8000000000000043
  0
CIRCLE
  5
127
330
1F
100
AcDbEntity
  8
0
  6
HIDDEN
 62
     7
370
    18
100
AcDbCircle
 10
59.8432873699
 20
148.0479406011
 30
0.0
 40
0.8000000000000043
  0
CIRCLE
  5
128
330
1F
100
AcDbEntity
  8
0
  6
HIDDEN
 62
     7
370
    18
100
AcDbCircle
 10
66.2432873699
 20
133.3479406011
 30
0.0
 40
1.5
  0
LINE
  5
129
330
1F
100
AcDbEntity
  8
0
  6
HIDDEN
 62
     7
370
    18
100
AcDbLine
 10
63.7432874057
 20
136.1479403998
 30
0.0
 11
68.8432880554
 21
136.1479403998
 31
0.0
  0
LINE
  5
12A
330
1F
100
AcDbEntity
  8
0
  6
HIDDEN
 62
     7
370
    18
100
AcDbLine
 10
68.8432880554
 20
131.1479405116
 30
0.0
 11
68.8432880554
 21
136.1479403998
 31
0.0
  0
LINE
  5
12B
330
1F
100
AcDbEntity
  8
0
  6
HIDDEN
 62
     7
370
    18
100
AcDbLine
 10
63.7432874057
 20
146.6479407239
 30
0.0
 11
63.7432874057
 21
136.1479403998
 31
0.0
  0
LINE
  5
12C
330
1F
100
AcDbEntity
  8
0
  6
HIDDEN
 62
     7
370
    18
100
AcDbLine
 10
61.8432887707
 20
130.1479403476
 30
0.0
 11
61.8432887707
 21
146.6479407239
 31
0.0
  0
LINE
  5
12D
330
1F
100
AcDbEntity
  8
0
  6
HIDDEN
 62
     7
370
    18
100
AcDbLine
 10
67.7432880614
 20
137.1479405637
 30
0.0
 11
67.7432880614
 21
136.1479403998
 31
0.0
  0
LINE
  5
12E
330
1F
100
AcDbEntity
  8
0
  6
HIDDEN
 62
     7
370
    18
100
AcDbLine
 10
67.7432880614
 20
136.1479403998
 30
0.0
 11
63.7432874057
 21
136.1479403998
 31
0.0
  0
LINE
  5
12F
330
1F
100
AcDbEntity
  8
0
  6
HIDDEN
 62
     7
370
    18
100
AcDbLine
 10
63.7432874057
 20
136.1479403998
 30
0.0
 11
63.7432874057
 21
137.1479405637
 31
0.0
  0
LINE
  5
130
330
1F
100
AcDbEntity
  8
0
  6
HIDDEN
 62
     7
370
    18
100
AcDbLine
 10
66.3432867143
 20
139.1479406587
 30
0.0
 11
67.7432880614
 21
139.1479406587
 31
0.0
  0
LINE
  5
131
330
1F
100
AcDbEntity
  8
0
  6
HIDDEN
 62
     7
370
    18
100
AcDbLine
 10
67.7432880614
 20
137.1479405637
 30
0.0
 11
67.7432880614
 21
139.1479406587
 31
0.0
  0
LINE
  5
132
330
1F
100
AcDbEntity
  8
0
  6
HIDDEN
 62
     7
370
    18
100
AcDbLine
 10
63.7432874057
 20
137.1479405637
 30
0.0
 11
63.7432874057
 21
139.1479406587
 31
0.0
  0
LINE
  5
133
330
1F
100
AcDbEntity
  8
0
  6
HIDDEN
 62
     7
370
    18
100
AcDbLine
 10
57.843288115
 20
139.1479406587
 30
0.0
 11
63.7432874057
 21
139.1479406587
 31
0.0
  0
CIRCLE
  5
134
330
1F
100
AcDbEntity
  8
0
  6
HIDDEN
 62
     7
370
    18
100
AcDbCircle
 10
59.8432873699
 20
148.0479406011
 30
0.0
 40
0.8000000000000043
  0
CIRCLE
  5
135
330
1F
100
AcDbEntity
  8
0
  6
HIDDEN
 62
     7
370
    18
100
AcDbCircle
 10
59.8432873699
 20
143.2479406011
 30
0.0
 40
0.8000000000000043
  0
LINE
  5
136
330
1F
100
AcDbEntity
  8
0
  6
HIDDEN
 62
     7
370
    18
100
AcDbLine
 10
63.7432874057
 20
139.1479406587
 30
0.0
 11
63.7432874057
 21
153.1479403924
 31
0.0
  0
LINE
  5
137
330
1F
100
AcDbEntity
  8
0
  6
HIDDEN
 62
     7
370
    18
100
AcDbLine
 10
57.843288115
 20
152.1479402284
 30
0.0
 11
57.843288115
 21
139.1479406587
 31
0.0
  0
LINE
  5
138
330
1F
100
AcDbEntity
  8
0
  6
HIDDEN
 62
     7
370
    18
100
AcDbLine
 10
66.7432860348
 20
155.6479408021
 30
0.0
 11
60.7432887766
 21
155.6479408021
 31
0.0
  0
LINE
  5
139
330
1F
100
AcDbEntity
  8
0
  6
HIDDEN
 62
     7
370
    18
100
AcDbLine
 10
66.7432860348
 20
155.6479408021
 30
0.0
 11
67.7432880614
 21
154.6479406382
 31
0.0
  0
LINE
  5
13A
330
1F
100
AcDbEntity
  8
0
  6
HIDDEN
 62
     7
370
    18
100
AcDbLine
 10
67.7432880614
 20
153.1479403924
 30
0.0
 11
67.7432880614
 21
154.6479406382
 31
0.0
  0
LINE
  5
13B
330
1F
100
AcDbEntity
  8
0
  6
HIDDEN
 62
     7
370
    18
100
AcDbLine
 10
60.7432887766
 20
155.6479408021
 30
0.0
 11
60.7432887766
 21
152.1479402284
 31
0.0
  0
LINE
  5
13C
330
1F
100
AcDbEntity
  8
0
  6
HIDDEN
 62
     7
370
    18
100
AcDbLine
 10
60.7432887766
 20
152.1479402284
 30
0.0
 11
57.843288115
 21
152.1479402284
 31
0.0
  0
CIRCLE
  5
13D
330
1F
100
AcDbEntity
  8
0
  6
HIDDEN
 62
     7
370
    18
100
AcDbCircle
 10
66.2432873699
 20
133.3479406011
 30
0.0
 40
1.5
  0
CIRCLE
  5
13E
330
1F
100
AcDbEntity
  8
0
  6
HIDDEN
 62
     7
370
    18
100
AcDbCircle
 10
66.2432873699
 20
133.3479406011
 30
0.0
 40
2.000000000000043
  0
LINE
  5
13F
330
1F
100
AcDbEntity
  8
0
  6
HIDDEN
 62
     7
370
    18
100
AcDbLine
 10
57.843288115
 20
139.1479406587
 30
0.0
 11
67.7432880614
 21
139.1479406587
 31
0.0
  0
LINE
  5
140
330
1F
100
AcDbEntity
  8
0
  6
HIDDEN
 62
     7
370
    18
100
AcDbLine
 10
67.7432880614
 20
136.1479403998
 30
0.0
 11
67.7432880614
 21
139.1479406587
 31
0.0
  0
LINE
  5
141
330
1F
100
AcDbEntity
  8
0
  6
HIDDEN
 62
     7
370
    18
100
AcDbLine
 10
68.8432880554
 20
136.1479403998
 30
0.0
 11
67.7432880614
 21
136.1479403998
 31
0.0
  0
LINE
  5
142
330
1F
100
AcDbEntity
  8
0
  6
HIDDEN
 62
     7
370
    18
100
AcDbLine
 10
58.8432864163
 20
130.1479403476
 30
0.0
 11
57.843288115
 21
131.1479405116
 31
0.0
  0
LINE
  5
143
330
1F
100
AcDbEntity
  8
0
  6
HIDDEN
 62
     7
370
    18
100
AcDbLine
 10
67.8432860289
 20
130.1479403476
 30
0.0
 11
58.8432864163
 21
130.1479403476
 31
0.0
  0
LINE
  5
144
330
1F
100
AcDbEntity
  8
0
  6
HIDDEN
 62
     7
370
    18
100
AcDbLine
 10
57.843288115
 20
131.1479405116
 30
0.0
 11
57.843288115
 21
139.1479406587
 31
0.0
  0
LINE
  5
145
330
1F
100
AcDbEntity
  8
0
  6
HIDDEN
 62
     7
370
    18
100
AcDbLine
 10
57.843288115
 20
137.1479405637
 30
0.0
 11
58.8432864163
 21
137.1479405637
 31
0.0
  0
LINE
  5
146
330
1F
100
AcDbEntity
  8
0
  6
HIDDEN
 62
     7
370
    18
100
AcDbLine
 10
58.8432864163
 20
149.147940668
 30
0.0
 11
57.843288115
 21
149.147940668
 31
0.0
  0
LINE
  5
147
330
1F
100
AcDbEntity
  8
0
  6
HIDDEN
 62
     7
370
    18
100
AcDbLine
 10
58.8432864163
 20
140.6479406135
 30
0.0
 11
61.8432887707
 21
140.6479406135
 31
0.0
  0
LINE
  5
148
330
1F
100
AcDbEntity
  8
0
  6
HIDDEN
 62
     7
370
    18
100
AcDbLine
 10
61.8432887707
 20
145.64794056
 30
0.0
 11
58.8432864163
 21
145.64794056
 31
0.0
  0
LINE
  5
149
330
1F
100
AcDbEntity
  8
0
  6
HIDDEN
 62
     7
370
    18
100
AcDbLine
 10
61.8432887707
 20
143.1479406159
 30
0.0
 11
63.7432874057
 21
143.1479406159
 31
0.0
  0
LINE
  5
14A
330
1F
100
AcDbEntity
  8
0
  6
HIDDEN
 62
     7
370
    18
100
AcDbLine
 10
67.7432880614
 20
151.1479409958
 30
0.0
 11
59.7432867501
 21
151.1479409958
 31
0.0
  0
LINE
  5
14B
330
1F
100
AcDbEntity
  8
0
  6
HIDDEN
 62
     7
370
    18
100
AcDbLine
 10
59.7432867501
 20
144.147940547
 30
0.0
 11
67.7432880614
 21
144.147940547
 31
0.0
  0
LINE
  5
14C
330
1F
100
AcDbEntity
  8
0
  6
HIDDEN
 62
     7
370
    18
100
AcDbLine
 10
58.8432864163
 20
140.6479406135
 30
0.0
 11
61.8432887707
 21
140.6479406135
 31
0.0
  0
LINE
  5
14D
330
1F
100
AcDbEntity
  8
0
  6
HIDDEN
 62
     7
370
    18
100
AcDbLine
 10
61.8432887707
 20
145.64794056
 30
0.0
 11
58.8432864163
 21
145.64794056
 31
0.0
  0
LINE
  5
14E
330
1F
100
AcDbEntity
  8
0
  6
HIDDEN
 62
     7
370
    18
100
AcDbLine
 10
67.7432880614
 20
147.1185287076
 30
0.0
 11
66.3432867143
 21
147.1185287076
 31
0.0
  0
LINE
  5
14F
330
1F
100
AcDbEntity
  8
0
  6
HIDDEN
 62
     7
370
    18
100
AcDbLine
 10
63.7432874057
 20
147.1185287076
 30
0.0
 11
61.8432887707
 21
147.1185287076
 31
0.0
  0
DIMENSION
  5
150
330
1F
100
AcDbEntity
  8
0
  6
Continuous
 62
     7
370
    18
100
AcDbDimension
  2
_D
 10
57.8432873699
 20
116.2373528324
 30
0.0
 11
63.5932873699
 21
116.2373528324
 31
0.0
 70
   160
  1
<>
 71
     2
 42
-1.0
  3
SLDDIMSTYLE0
100
AcDbAlignedDimension
 13
69.3432873699
 23
133.3479406011
 33
0.0
 14
57.8432873699
 24
131.1479406011
 34
0.0
100
AcDbRotatedDimension
  0
DIMENSION
  5
15D
330
1F
100
AcDbEntity
  8
0
  6
Continuous
 62
     7
370
    18
100
AcDbDimension
  2
_D_1
 10
58.8432873699
 20
123.5869914987
 30
0.0
 11
52.1674248959
 21
123.5869914987
 31
0.0
 70
   160
  1
<>
 71
     2
 42
-1.0
  3
SLDDIMSTYLE0
100
AcDbAlignedDimension
 13
57.8432873699
 23
131.1479406011
 33
0.0
 14
58.8432873699
 24
137.1479406011
 34
0.0
100
AcDbRotatedDimension
  0
LINE
  5
169
330
1F
100
AcDbEntity
  8
0
  6
Continuous
 62
     7
370
    18
100
AcDbLine
 10
132.4406384567
 20
130.2479401778
 30
0.0
 11
157.4406388293
 21
130.2479401778
 31
0.0
  0
LINE
  5
16A
330
1F
100
AcDbEntity
  8
0
  6
Continuous
 62
     7
370
    18
100
AcDbLine
 10
171.1406388397
 20
130.8479410212
 30
0.0
 11
171.4406383301
 21
131.1479405116
 31
0.0
  0
LINE
  5
16B
330
1F
100
AcDbEntity
  8
0
  6
Continuous
 62
     7
370
    18
100
AcDbLine
 10
171.4406383301
 20
135.5479404877
 30
0.0
 11
171.1406388397
 21
135.8479404438
 31
0.0
  0
LINE
  5
16C
330
1F
100
AcDbEntity
  8
0
  6
Continuous
 62
     7
370
    18
100
AcDbLine
 10
171.1406388397
 20
135.8479404438
 30
0.0
 11
169.9406390155
 21
135.8479404438
 31
0.0
  0
LINE
  5
16D
330
1F
100
AcDbEntity
  8
0
  6
Continuous
 62
     7
370
    18
100
AcDbLine
 10
169.9406390155
 20
130.8479410212
 30
0.0
 11
171.1406388397
 21
130.8479410212
 31
0.0
  0
LINE
  5
16E
330
1F
100
AcDbEntity
  8
0
  6
Continuous
 62
     7
370
    18
100
AcDbLine
 10
157.6406384895
 20
134.8479407455
 30
0.0
 11
157.4406388293
 21
134.8479407455
 31
0.0
  0
LINE
  5
16F
330
1F
100
AcDbEntity
  8
0
  6
Continuous
 62
     7
370
    18
100
AcDbLine
 10
132.4406384567
 20
134.8479407455
 30
0.0
 11
132.2406387965
 21
134.8479407455
 31
0.0
  0
LINE
  5
170
330
1F
100
AcDbEntity
  8
0
  6
Continuous
 62
     7
370
    18
100
AcDbLine
 10
132.2406387965
 20
131.8479402538
 30
0.0
 11
132.4406384567
 21
131.8479402538
 31
0.0
  0
LINE
  5
171
330
1F
100
AcDbEntity
  8
0
  6
Continuous
 62
     7
370
    18
100
AcDbLine
 10
157.4406388293
 20
131.8479402538
 30
0.0
 11
157.6406384895
 21
131.8479402538
 31
0.0
  0
LINE
  5
172
330
1F
100
AcDbEntity
  8
0
  6
Continuous
 62
     7
370
    18
100
AcDbLine
 10
119.4406391198
 20
134.8479407455
 30
0.0
 11
118.7406384463
 21
134.8479407455
 31
0.0
  0
LINE
  5
173
330
1F
100
AcDbEntity
  8
0
  6
Continuous
 62
     7
370
    18
100
AcDbLine
 10
118.7406384463
 20
131.8479402538
 30
0.0
 11
119.4406391198
 21
131.8479402538
 31
0.0
  0
LINE
  5
174
330
1F
100
AcDbEntity
  8
0
  6
Continuous
 62
     7
370
    18
100
AcDbLine
 10
118.7406384463
 20
134.8479407455
 30
0.0
 11
118.4406389559
 21
134.5479407895
 31
0.0
  0
LINE
  5
175
330
1F
100
AcDbEntity
  8
0
  6
Continuous
 62
     7
370
    18
100
AcDbLine
 10
118.4406389559
 20
132.1479406755
 30
0.0
 11
118.7406384463
 21
131.8479402538
 31
0.0
  0
LINE
  5
176
330
1F
100
AcDbEntity
  8
0
  6
Continuous
 62
     7
370
    18
100
AcDbLine
 10
119.4406391198
 20
132.3479403357
 30
0.0
 11
119.54063895
 21
132.3479403357
 31
0.0
  0
LINE
  5
177
330
1F
100
AcDbEntity
  8
0
  6
Continuous
 62
     7
370
    18
100
AcDbLine
 10
119.54063895
 20
134.3479406636
 30
0.0
 11
119.4406391198
 21
134.3479406636
 31
0.0
  0
LINE
  5
178
330
1F
100
AcDbEntity
  8
0
  6
Continuous
 62
     7
370
    18
100
AcDbLine
 10
119.9406382705
 20
135.8479404438
 30
0.0
 11
119.54063895
 21
135.8479404438
 31
0.0
  0
LINE
  5
179
330
1F
100
AcDbEntity
  8
0
  6
Continuous
 62
     7
370
    18
100
AcDbLine
 10
119.54063895
 20
130.8479410212
 30
0.0
 11
119.9406382705
 21
130.8479410212
 31
0.0
  0
LINE
  5
17A
330
1F
100
AcDbEntity
  8
0
  6
Continuous
 62
     7
370
    18
100
AcDbLine
 10
169.9406390155
 20
158.2479401107
 30
0.0
 11
119.9406382705
 21
158.2479401107
 31
0.0
  0
LINE
  5
17B
330
1F
100
AcDbEntity
  8
0
  6
Continuous
 62
     7
370
    18
100
AcDbLine
 10
169.9406390155
 20
155.6479408021
 30
0.0
 11
169.9406390155
 21
158.2479401107
 31
0.0
  0
LINE
  5
17C
330
1F
100
AcDbEntity
  8
0
  6
Continuous
 62
     7
370
    18
100
AcDbLine
 10
119.9406382705
 20
155.6479408021
 30
0.0
 11
119.9406382705
 21
158.2479401107
 31
0.0
  0
LINE
  5
17D
330
1F
100
AcDbEntity
  8
0
  6
Continuous
 62
     7
370
    18
100
AcDbLine
 10
132.4406384567
 20
130.2479401778
 30
0.0
 11
132.4406384567
 21
133.3479404996
 31
0.0
  0
LINE
  5
17E
330
1F
100
AcDbEntity
  8
0
  6
Continuous
 62
     7
370
    18
100
AcDbLine
 10
157.4406388293
 20
133.3479404996
 30
0.0
 11
157.4406388293
 21
130.2479401778
 31
0.0
  0
LINE
  5
17F
330
1F
100
AcDbEntity
  8
0
  6
Continuous
 62
     7
370
    18
100
AcDbLine
 10
132.4406384567
 20
137.2479406267
 30
0.0
 11
119.9406382705
 21
137.2479406267
 31
0.0
  0
LINE
  5
180
330
1F
100
AcDbEntity
  8
0
  6
Continuous
 62
     7
370
    18
100
AcDbLine
 10
119.9406382705
 20
137.2479406267
 30
0.0
 11
119.9406382705
 21
155.6479408021
 31
0.0
  0
LINE
  5
181
330
1F
100
AcDbEntity
  8
0
  6
Continuous
 62
     7
370
    18
100
AcDbLine
 10
169.9406390155
 20
137.2479406267
 30
0.0
 11
169.9406390155
 21
155.6479408021
 31
0.0
  0
LINE
  5
182
330
1F
100
AcDbEntity
  8
0
  6
Continuous
 62
     7
370
    18
100
AcDbLine
 10
169.9406390155
 20
137.2479406267
 30
0.0
 11
157.4406388293
 21
137.2479406267
 31
0.0
  0
CIRCLE
  5
183
330
1F
100
AcDbEntity
  8
0
  6
Continuous
 62
     7
370
    18
100
AcDbCircle
 10
123.4406387056
 20
140.7479406011
 30
0.0
 40
1.249999999999986
  0
CIRCLE
  5
184
330
1F
100
AcDbEntity
  8
0
  6
Continuous
 62
     7
370
    18
100
AcDbCircle
 10
123.4406387056
 20
148.7479406011
 30
0.0
 40
1.249999999999986
  0
CIRCLE
  5
185
330
1F
100
AcDbEntity
  8
0
  6
Continuous
 62
     7
370
    18
100
AcDbCircle
 10
158.4406387056
 20
140.7479406011
 30
0.0
 40
1.249999999999972
  0
CIRCLE
  5
186
330
1F
100
AcDbEntity
  8
0
  6
Continuous
 62
     7
370
    18
100
AcDbCircle
 10
158.4406387056
 20
148.7479406011
 30
0.0
 40
1.249999999999972
  0
CIRCLE
  5
187
330
1F
100
AcDbEntity
  8
0
  6
Continuous
 62
     7
370
    18
100
AcDbCircle
 10
129.9406387056
 20
143.2479406011
 30
0.0
 40
4.000000000000028
  0
LINE
  5
188
330
1F
100
AcDbEntity
  8
0
  6
Continuous
 62
     7
370
    18
100
AcDbLine
 10
157.4406388293
 20
137.2479406267
 30
0.0
 11
157.4406388293
 21
133.3479404996
 31
0.0
  0
LINE
  5
189
330
1F
100
AcDbEntity
  8
0
  6
Continuous
 62
     7
370
    18
100
AcDbLine
 10
132.4406384567
 20
133.3479404996
 30
0.0
 11
132.4406384567
 21
137.2479406267
 31
0.0
  0
CIRCLE
  5
18A
330
1F
100
AcDbEntity
  8
0
  6
Continuous
 62
     7
370
    18
100
AcDbCircle
 10
144.9406387056
 20
143.2479406011
 30
0.0
 40
4.0
  0
LINE
  5
18B
330
1F
100
AcDbEntity
  8
0
  6
Continuous
 62
     7
370
    18
100
AcDbLine
 10
119.9406382705
 20
131.1479405116
 30
0.0
 11
132.2406387965
 21
131.1479405116
 31
0.0
  0
LINE
  5
18C
330
1F
100
AcDbEntity
  8
0
  6
Continuous
 62
     7
370
    18
100
AcDbLine
 10
132.2406387965
 20
131.1479405116
 30
0.0
 11
132.2406387965
 21
130.1479403476
 31
0.0
  0
LINE
  5
18D
330
1F
100
AcDbEntity
  8
0
  6
Continuous
 62
     7
370
    18
100
AcDbLine
 10
132.2406387965
 20
130.1479403476
 30
0.0
 11
119.9406382705
 21
130.1479403476
 31
0.0
  0
LINE
  5
18E
330
1F
100
AcDbEntity
  8
0
  6
Continuous
 62
     7
370
    18
100
AcDbLine
 10
119.9406382705
 20
130.1479403476
 30
0.0
 11
119.9406382705
 21
131.1479405116
 31
0.0
  0
LINE
  5
18F
330
1F
100
AcDbEntity
  8
0
  6
Continuous
 62
     7
370
    18
100
AcDbLine
 10
119.9406382705
 20
136.1479403998
 30
0.0
 11
119.9406382705
 21
131.1479405116
 31
0.0
  0
LINE
  5
190
330
1F
100
AcDbEntity
  8
0
  6
Continuous
 62
     7
370
    18
100
AcDbLine
 10
131.7406387145
 20
136.1479403998
 30
0.0
 11
119.9406382705
 21
136.1479403998
 31
0.0
  0
LINE
  5
191
330
1F
100
AcDbEntity
  8
0
  6
Continuous
 62
     7
370
    18
100
AcDbLine
 10
132.2406387965
 20
135.6479407835
 30
0.0
 11
131.7406387145
 21
136.1479403998
 31
0.0
  0
LINE
  5
192
330
1F
100
AcDbEntity
  8
0
  6
Continuous
 62
     7
370
    18
100
AcDbLine
 10
132.2406387965
 20
135.6479407835
 30
0.0
 11
132.2406387965
 21
131.1479405116
 31
0.0
  0
LINE
  5
193
330
1F
100
AcDbEntity
  8
0
  6
Continuous
 62
     7
370
    18
100
AcDbLine
 10
157.6406384895
 20
131.1479405116
 30
0.0
 11
169.9406390155
 21
131.1479405116
 31
0.0
  0
LINE
  5
194
330
1F
100
AcDbEntity
  8
0
  6
Continuous
 62
     7
370
    18
100
AcDbLine
 10
169.9406390155
 20
131.1479405116
 30
0.0
 11
169.9406390155
 21
130.1479403476
 31
0.0
  0
LINE
  5
195
330
1F
100
AcDbEntity
  8
0
  6
Continuous
 62
     7
370
    18
100
AcDbLine
 10
169.9406390155
 20
130.1479403476
 30
0.0
 11
157.6406384895
 21
130.1479403476
 31
0.0
  0
LINE
  5
196
330
1F
100
AcDbEntity
  8
0
  6
Continuous
 62
     7
370
    18
100
AcDbLine
 10
157.6406384895
 20
130.1479403476
 30
0.0
 11
157.6406384895
 21
131.1479405116
 31
0.0
  0
LINE
  5
197
330
1F
100
AcDbEntity
  8
0
  6
Continuous
 62
     7
370
    18
100
AcDbLine
 10
169.9406390155
 20
136.1479403998
 30
0.0
 11
157.6406384895
 21
136.1479403998
 31
0.0
  0
LINE
  5
198
330
1F
100
AcDbEntity
  8
0
  6
Continuous
 62
     7
370
    18
100
AcDbLine
 10
157.6406384895
 20
131.1479405116
 30
0.0
 11
157.6406384895
 21
136.1479403998
 31
0.0
  0
LINE
  5
199
330
1F
100
AcDbEntity
  8
0
  6
Continuous
 62
     7
370
    18
100
AcDbLine
 10
169.9406390155
 20
131.1479405116
 30
0.0
 11
169.9406390155
 21
136.1479403998
 31
0.0
  0
ARC
  5
19A
330
1F
100
AcDbEntity
  8
0
  6
Continuous
 62
     7
370
    18
100
AcDbCircle
 10
160.9406387056
 20
137.1479406011
 30
0.0
 40
1.000000000000028
100
AcDbArc
 50
270.0
 51
0.0
  0
LINE
  5
19B
330
1F
100
AcDbEntity
  8
0
  6
Continuous
 62
     7
370
    18
100
AcDbLine
 10
161.9406395669
 20
137.1479405637
 30
0.0
 11
161.9406395669
 21
137.2479406267
 31
0.0
  0
LINE
  5
19C
330
1F
100
AcDbEntity
  8
0
  6
Continuous
 62
     7
370
    18
100
AcDbLine
 10
169.9406390155
 20
136.1479403998
 30
0.0
 11
169.9406390155
 21
137.2479406267
 31
0.0
  0
LWPOLYLINE
  5
19D
330
1F
100
AcDbEntity
  8
0
  6
Continuous
 62
     7
370
    18
100
AcDbPolyline
 90
        3
 70
   128
 43
0.0
 10
157.2457186023
 20
148.3809727791
 10
157.3124217878
 20
148.2347630511
 10
157.3601492757
 20
148.119416422
  0
LINE
  5
19E
330
1F
100
AcDbEntity
  8
0
  6
Continuous
 62
     7
370
    18
100
AcDbLine
 10
157.6406384895
 20
141.7084092239
 30
0.0
 11
157.6406384895
 21
139.7874719545
 31
0.0
  0
LINE
  5
19F
330
1F
100
AcDbEntity
  8
0
  6
Continuous
 62
     7
370
    18
100
AcDbLine
 10
157.6406384895
 20
137.2479406267
 30
0.0
 11
157.6406384895
 21
136.1479403998
 31
0.0
  0
LINE
  5
1A0
330
1F
100
AcDbEntity
  8
0
  6
Continuous
 62
     7
370
    18
100
AcDbLine
 10
124.2406384165
 20
141.7084092239
 30
0.0
 11
124.2406384165
 21
140.1479405898
 31
0.0
  0
ARC
  5
1A1
330
1F
100
AcDbEntity
  8
0
  6
Continuous
 62
     7
370
    18
100
AcDbCircle
 10
128.2406387056
 20
140.1479406011
 30
0.0
 40
4.000000000000004
100
AcDbArc
 50
226.4688478326
 51
270.0
  0
LINE
  5
1A2
330
1F
100
AcDbEntity
  8
0
  6
Continuous
 62
     7
370
    18
100
AcDbLine
 10
124.2557761336
 20
139.8002845084
 30
0.0
 11
124.2406384165
 21
140.1479405898
 31
0.0
  0
LWPOLYLINE
  5
1A3
330
1F
100
AcDbEntity
  8
0
  6
Continuous
 62
     7
370
    18
100
AcDbPolyline
 90
        3
 70
   128
 43
0.0
 10
124.5211285616
 20
148.119416422
 10
124.5688551182
 20
148.2347630511
 10
124.6355583037
 20
148.3809727791
  0
LINE
  5
1A4
330
1F
100
AcDbEntity
  8
0
  6
Continuous
 62
     7
370
    18
100
AcDbLine
 10
119.9406382705
 20
137.2479406267
 30
0.0
 11
119.9406382705
 21
136.1479403998
 31
0.0
  0
CIRCLE
  5
1A5
330
1F
100
AcDbEntity
  8
0
  6
Continuous
 62
     7
370
    18
100
AcDbCircle
 10
144.9406387056
 20
143.1479406011
 30
0.0
 40
2.5
  0
CIRCLE
  5
1A6
330
1F
100
AcDbEntity
  8
0
  6
Continuous
 62
     7
370
    18
100
AcDbCircle
 10
129.9406387056
 20
143.1479406011
 30
0.0
 40
2.500000000000028
  0
LINE
  5
1A7
330
1F
100
AcDbEntity
  8
0
  6
Continuous
 62
     7
370
    18
100
AcDbLine
 10
132.2406387965
 20
130.1479403476
 30
0.0
 11
157.6406384895
 21
130.1479403476
 31
0.0
  0
LINE
  5
1A8
330
1F
100
AcDbEntity
  8
0
  6
Continuous
 62
     7
370
    18
100
AcDbLine
 10
171.4406383301
 20
132.8459194477
 30
0.0
 11
171.4406383301
 21
131.1479405116
 31
0.0
  0
LINE
  5
1A9
330
1F
100
AcDbEntity
  8
0
  6
Continuous
 62
     7
370
    18
100
AcDbLine
 10
171.4406383301
 20
135.5479404877
 30
0.0
 11
171.4406383301
 21
132.8459194477
 31
0.0
  0
LINE
  5
1AA
330
1F
100
AcDbEntity
  8
0
  6
Continuous
 62
     7
370
    18
100
AcDbLine
 10
171.1406388397
 20
132.7774625819
 30
0.0
 11
171.1406388397
 21
135.8479404438
 31
0.0
  0
LINE
  5
1AB
330
1F
100
AcDbEntity
  8
0
  6
Continuous
 62
     7
370
    18
100
AcDbLine
 10
171.1406388397
 20
130.8479410212
 30
0.0
 11
171.1406388397
 21
132.7774625819
 31
0.0
  0
LINE
  5
1AC
330
1F
100
AcDbEntity
  8
0
  6
Continuous
 62
     7
370
    18
100
AcDbLine
 10
118.7406384463
 20
133.0056533764
 30
0.0
 11
118.7406384463
 21
131.8479402538
 31
0.0
  0
LINE
  5
1AD
330
1F
100
AcDbEntity
  8
0
  6
Continuous
 62
     7
370
    18
100
AcDbLine
 10
118.7406384463
 20
134.8479407455
 30
0.0
 11
118.7406384463
 21
133.0056533764
 31
0.0
  0
LINE
  5
1AE
330
1F
100
AcDbEntity
  8
0
  6
Continuous
 62
     7
370
    18
100
AcDbLine
 10
119.4406391198
 20
133.0056533764
 30
0.0
 11
119.4406391198
 21
134.8479407455
 31
0.0
  0
LINE
  5
1AF
330
1F
100
AcDbEntity
  8
0
  6
Continuous
 62
     7
370
    18
100
AcDbLine
 10
119.4406391198
 20
131.8479402538
 30
0.0
 11
119.4406391198
 21
133.0056533764
 31
0.0
  0
LINE
  5
1B0
330
1F
100
AcDbEntity
  8
0
  6
Continuous
 62
     7
370
    18
100
AcDbLine
 10
118.4406389559
 20
133.0741111736
 30
0.0
 11
118.4406389559
 21
134.5479407895
 31
0.0
  0
LINE
  5
1B1
330
1F
100
AcDbEntity
  8
0
  6
Continuous
 62
     7
370
    18
100
AcDbLine
 10
118.4406389559
 20
132.1479406755
 30
0.0
 11
118.4406389559
 21
133.0741111736
 31
0.0
  0
LINE
  5
1B2
330
1F
100
AcDbEntity
  8
0
  6
Continuous
 62
     7
370
    18
100
AcDbLine
 10
119.54063895
 20
130.8479410212
 30
0.0
 11
119.54063895
 21
135.8479404438
 31
0.0
  0
DIMENSION
  5
1B3
330
1F
100
AcDbEntity
  8
0
  6
Continuous
 62
     7
370
    18
100
AcDbDimension
  2
_D_2
 10
144.9406387056
 20
166.7591207573
 30
0.0
 11
137.4406387056
 21
166.7591207573
 31
0.0
 70
   160
  1
<>
 71
     2
 42
-1.0
  3
SLDDIMSTYLE1
100
AcDbAlignedDimension
 13
129.9406387056
 23
149.7479406011
 33
0.0
 14
144.9406387056
 24
149.7479406011
 34
0.0
100
AcDbRotatedDimension
  0
DIMENSION
  5
1BE
330
1F
100
AcDbEntity
  8
0
  6
Continuous
 62
     7
370
    18
100
AcDbDimension
  2
_D_3
 10
186.1807664354
 20
158.2479406011
 30
0.0
 11
186.1807664354
 21
150.7479406011
 31
0.0
 70
   160
  1
<>
 71
     2
 42
-1.0
  3
SLDDIMSTYLE1
100
AcDbAlignedDimension
 13
151.4406387056
 23
143.2479406011
 33
0.0
 14
169.9406387056
 24
158.2479406011
 34
0.0
 50
90.0
100
AcDbRotatedDimension
  0
DIMENSION
  5
1C8
330
1F
100
AcDbEntity
  8
0
  6
Continuous
 62
     7
370
    18
100
AcDbDimension
  2
_D_4
 10
186.1807664354
 20
130.1479406011
 30
0.0
 11
186.1807664354
 21
136.6979406011
 31
0.0
 70
   160
  1
<>
 71
     2
 42
-1.0
  3
SLDDIMSTYLE2
100
AcDbAlignedDimension
 13
151.4406387056
 23
143.2479406011
 33
0.0
 14
169.9406387056
 24
130.1479406011
 34
0.0
 50
90.0
100
AcDbRotatedDimension
  0
DIMENSION
  5
1D3
330
1F
100
AcDbEntity
  8
0
  6
Continuous
 62
     7
370
    18
100
AcDbDimension
  2
_D_5
 10
108.4406387056
 20
130.1479406011
 30
0.0
 11
108.4406387056
 21
144.1979406011
 31
0.0
 70
   160
  1
<>
 71
     2
 42
-1.0
  3
SLDDIMSTYLE2
100
AcDbAlignedDimension
 13
119.9406387056
 23
158.2479406011
 33
0.0
 14
119.9406387056
 24
130.1479406011
 34
0.0
 50
90.0
100
AcDbRotatedDimension
  0
DIMENSION
  5
1DD
330
1F
100
AcDbEntity
  8
0
  6
Continuous
 62
     7
370
    18
100
AcDbDimension
  2
_D_6
 10
119.9406387056
 20
166.7591207573
 30
0.0
 11
114.0812624076
 21
166.7591207573
 31
0.0
 70
   160
  1
<>
 71
     2
 42
-1.0
  3
SLDDIMSTYLE0
100
AcDbAlignedDimension
 13
129.9406387056
 23
149.7479406011
 33
0.0
 14
119.9406387056
 24
158.2479406011
 34
0.0
100
AcDbRotatedDimension
  0
DIMENSION
  5
1E9
330
1F
100
AcDbEntity
  8
0
  6
Continuous
 62
     7
370
    18
100
AcDbDimension
  2
_D_7
 10
169.9406387056
 20
186.2479406011
 30
0.0
 11
144.9406387056
 21
186.2479406011
 31
0.0
 70
   160
  1
<>
 71
     2
 42
-1.0
  3
SLDDIMSTYLE1
100
AcDbAlignedDimension
 13
119.9406387056
 23
158.2479406011
 33
0.0
 14
169.9406387056
 24
158.2479406011
 34
0.0
100
AcDbRotatedDimension
  0
DIMENSION
  5
1F3
330
1F
100
AcDbEntity
  8
0
  6
Continuous
 62
     7
370
    18
100
AcDbDimension
  2
_D_8
 10
132.5155389141
 20
140.186913173
 30
0.0
 11
91.1136521861
 21
168.9734271902
 31
0.0
 70
   163
  1
2-M4       　　　
 71
     1
 42
-1.0
  3
SLDDIMSTYLE3
100
AcDbDiametricDimension
 15
127.3657384971
 25
146.3089680293
 35
0.0
 40
0.0
  0
DIMENSION
  5
1FD
330
1F
100
AcDbEntity
  8
0
  6
Continuous
 62
     7
370
    18
100
AcDbDimension
  2
_D_9
 10
123.4406387056
 20
176.4518895494
 30
0.0
 11
111.7871444199
 21
176.4518895494
 31
0.0
 70
   160
  1
<>
 71
     2
 42
-1.0
  3
SLDDIMSTYLE0
100
AcDbAlignedDimension
 13
119.9406387056
 23
158.2479406011
 33
0.0
 14
123.4406387056
 24
152.4979406011
 34
0.0
100
AcDbRotatedDimension
  0
DIMENSION
  5
209
330
1F
100
AcDbEntity
  8
0
  6
Continuous
 62
     7
370
    18
100
AcDbDimension
  2
_D_10
 10
158.4406387056
 20
176.4518895494
 30
0.0
 11
140.9406387056
 21
176.4518895494
 31
0.0
 70
   160
  1
<>
 71
     2
 42
-1.0
  3
SLDDIMSTYLE1
100
AcDbAlignedDimension
 13
123.4406387056
 23
152.4979406011
 33
0.0
 14
158.4406387056
 24
152.4979406011
 34
0.0
100
AcDbRotatedDimension
  0
DIMENSION
  5
213
330
1F
100
AcDbEntity
  8
0
  6
Continuous
 62
     7
370
    18
100
AcDbDimension
  2
_D_11
 10
178.4997726267
 20
148.7479406011
 30
0.0
 11
178.4997726267
 21
153.4979406011
 31
0.0
 70
   160
  1
<>
 71
     2
 42
-1.0
  3
SLDDIMSTYLE4
100
AcDbAlignedDimension
 13
169.9406387056
 23
158.2479406011
 33
0.0
 14
162.1906387056
 24
148.7479406011
 34
0.0
 50
90.0
100
AcDbRotatedDimension
  0
DIMENSION
  5
228
330
1F
100
AcDbEntity
  8
0
  6
Continuous
 62
     7
370
    18
100
AcDbDimension
  2
_D_12
 10
178.4997726267
 20
140.7479406011
 30
0.0
 11
178.4997726267
 21
144.7479406011
 31
0.0
 70
   160
  1
<>
 71
     2
 42
-1.0
  3
SLDDIMSTYLE5
100
AcDbAlignedDimension
 13
162.1906387056
 23
148.7479406011
 33
0.0
 14
162.1906387056
 24
140.7479406011
 34
0.0
 50
90.0
100
AcDbRotatedDimension
  0
DIMENSION
  5
235
330
1F
100
AcDbEntity
  8
0
  6
Continuous
 62
     7
370
    18
100
AcDbDimension
  2
_D_13
 10
118.4406387056
 20
111.0534245286
 30
0.0
 11
144.9406387056
 21
111.0534245286
 31
0.0
 70
   160
  1
(<>)
 71
     2
 42
-1.0
  3
SLDDIMSTYLE1
100
AcDbAlignedDimension
 13
171.4406387056
 23
131.1479406011
 33
0.0
 14
118.4406387056
 24
132.1479406011
 34
0.0
100
AcDbRotatedDimension
  0
DIMENSION
  5
241
330
1F
100
AcDbEntity
  8
0
  6
Continuous
 62
     7
370
    18
100
AcDbDimension
  2
_D_14
 10
119.9406387056
 20
121.5658557954
 30
0.0
 11
111.7050821288
 21
121.5658557954
 31
0.0
 70
   160
  1
<>
 71
     2
 42
-1.0
  3
SLDDIMSTYLE0
100
AcDbAlignedDimension
 13
118.4406387056
 23
132.1479406011
 33
0.0
 14
119.9406387056
 24
130.1479406011
 34
0.0
100
AcDbRotatedDimension
  0
DIMENSION
  5
24D
330
1F
100
AcDbEntity
  8
0
  6
Continuous
 62
     7
370
    18
100
AcDbDimension
  2
_D_15
 10
171.4406387056
 20
121.5658557954
 30
0.0
 11
178.4997726267
 21
121.5658557954
 31
0.0
 70
   160
  1
<>
 71
     2
 42
-1.0
  3
SLDDIMSTYLE0
100
AcDbAlignedDimension
 13
169.9406387056
 23
130.1479406011
 33
0.0
 14
171.4406387056
 24
131.1479406011
 34
0.0
100
AcDbRotatedDimension
  0
INSERT
  5
25E
330
1F
100
AcDbEntity
  8
0
  6
Continuous
 62
     7
370
     0
100
AcDbBlockReference
  2
SW_NOTE_0
 10
174.3134328358
 20
175.8482589002
 30
0.0
  0
LEADER
  5
260
330
1F
100
AcDbEntity
  8
0
  6
Continuous
 62
     7
370
     0
100
AcDbLeader
  3
SLDDIMSTYLE6
 76
     2
 10
159.1080700909
 20
149.80483953
 30
0.0
 10
174.3134328358
 20
175.8482589002
 30
0.0
  0
INSERT
  5
26C
330
1F
100
AcDbEntity
  8
0
  6
Continuous
 62
     7
370
    18
100
AcDbBlockReference
  2
SW_CENTERMARKSYMBOL_0
 10
129.9406387056
 20
143.2479406011
 30
0.0
  0
INSERT
  5
278
330
1F
100
AcDbEntity
  8
0
  6
Continuous
 62
     7
370
    18
100
AcDbBlockReference
  2
SW_CENTERMARKSYMBOL_1
 10
144.9406387056
 20
143.2479406011
 30
0.0
  0
INSERT
  5
284
330
1F
100
AcDbEntity
  8
0
  6
Continuous
 62
     7
370
    18
100
AcDbBlockReference
  2
SW_CENTERMARKSYMBOL_2
 10
123.4406387056
 20
148.7479406011
 30
0.0
  0
INSERT
  5
290
330
1F
100
AcDbEntity
  8
0
  6
Continuous
 62
     7
370
    18
100
AcDbBlockReference
  2
SW_CENTERMARKSYMBOL_3
 10
158.4406387056
 20
148.7479406011
 30
0.0
  0
INSERT
  5
29C
330
1F
100
AcDbEntity
  8
0
  6
Continuous
 62
     7
370
    18
100
AcDbBlockReference
  2
SW_CENTERMARKSYMBOL_4
 10
158.4406387056
 20
140.7479406011
 30
0.0
  0
INSERT
  5
2A8
330
1F
100
AcDbEntity
  8
0
  6
Continuous
 62
     7
370
    18
100
AcDbBlockReference
  2
SW_CENTERMARKSYMBOL_5
 10
123.4406387056
 20
140.7479406011
 30
0.0
  0
ENDSEC
  0
SECTION
  2
OBJECTS
  0
DICTIONARY
  5
C
330
0
100
AcDbDictionary
281
     1
  3
ACAD_GROUP
350
D
  3
ACAD_LAYOUT
350
1A
  3
ACAD_MLINESTYLE
350
17
  3
ACAD_PLOTSETTINGS
350
19
  3
ACAD_PLOTSTYLENAME
350
E
  3
ACAD_SCALELIST
350
47
  0
DICTIONARY
  5
D
102
{ACAD_REACTORS
330
C
102
}
330
C
100
AcDbDictionary
281
     1
  0
DICTIONARY
  5
1A
102
{ACAD_REACTORS
330
C
102
}
330
C
100
AcDbDictionary
281
     1
  3
Layout1
350
1E
  3
Layout2
350
26
  3
Model
350
22
  0
DICTIONARY
  5
17
102
{ACAD_REACTORS
330
C
102
}
330
C
100
AcDbDictionary
281
     1
  3
Standard
350
18
  0
DICTIONARY
  5
19
102
{ACAD_REACTORS
330
C
102
}
330
C
100
AcDbDictionary
281
     1
  0
ACDBDICTIONARYWDFLT
  5
E
102
{ACAD_REACTORS
330
C
102
}
330
C
100
AcDbDictionary
281
     1
  3
Normal
350
F
100
AcDbDictionaryWithDefault
340
F
  0
DICTIONARY
  5
47
102
{ACAD_REACTORS
330
C
102
}
330
C
100
AcDbDictionary
281
     1
  3
A0
350
48
  3
A1
350
49
  3
A2
350
4A
  3
A3
350
4B
  3
A4
350
4C
  3
A5
350
4D
  3
A6
350
4E
  3
A7
350
4F
  3
A8
350
50
  3
A9
350
51
  3
B0
350
52
  3
B1
350
53
  3
B2
350
54
  3
B3
350
55
  3
B4
350
56
  3
B5
350
57
  3
B6
350
58
  3
B7
350
59
  3
B8
350
5A
  3
B9
350
5B
  3
C0
350
5C
  3
C1
350
5D
  3
C2
350
5E
  3
C3
350
5F
  3
C4
350
60
  3
C5
350
61
  3
C6
350
62
  3
C7
350
63
  3
C8
350
64
  3
C9
350
65
  3
D0
350
66
  3
D1
350
67
  3
D2
350
68
  0
LAYOUT
  5
1E
102
{ACAD_REACTORS
330
1A
102
}
330
1A
100
AcDbPlotSettings
  1

  2
none_device
  4

  6

 40
0.0
 41
0.0
 42
0.0
 43
0.0
 44
0.0
 45
0.0
 46
0.0
 47
0.0
 48
0.0
 49
0.0
140
0.0
141
0.0
142
1.0
143
1.0
 70
   688
 72
     1
 73
     0
 74
     5
  7

 75
    16
147
1.0
148
0.0
149
0.0
100
AcDbLayout
  1
Layout1
 70
     1
 71
     1
 10
0.0
 20
0.0
 11
420.0
 21
297.0
 12
0.0
 22
0.0
 32
0.0
 14
1.0000000000E+20
 24
1.0000000000E+20
 34
1.0000000000E+20
 15
-1.0000000000E+20
 25
-1.0000000000E+20
 35
-1.0000000000E+20
146
0.0
 13
0.0
 23
0.0
 33
0.0
 16
1.0
 26
0.0
 36
0.0
 17
0.0
 27
1.0
 37
0.0
 76
     0
330
1B
  0
LAYOUT
  5
26
102
{ACAD_REACTORS
330
1A
102
}
330
1A
100
AcDbPlotSettings
  1

  2
none_device
  4

  6

 40
0.0
 41
0.0
 42
0.0
 43
0.0
 44
0.0
 45
0.0
 46
0.0
 47
0.0
 48
0.0
 49
0.0
140
0.0
141
0.0
142
1.0
143
1.0
 70
   688
 72
     1
 73
     0
 74
     5
  7

 75
    16
147
1.0
148
0.0
149
0.0
100
AcDbLayout
  1
Layout2
 70
     1
 71
     2
 10
0.0
 20
0.0
 11
0.0
 21
0.0
 12
0.0
 22
0.0
 32
0.0
 14
0.0
 24
0.0
 34
0.0
 15
0.0
 25
0.0
 35
0.0
146
0.0
 13
0.0
 23
0.0
 33
0.0
 16
1.0
 26
0.0
 36
0.0
 17
0.0
 27
1.0
 37
0.0
 76
     0
330
23
  0
LAYOUT
  5
22
102
{ACAD_REACTORS
330
1A
102
}
330
1A
100
AcDbPlotSettings
  1

  2
none_device
  4
Letter_(8.50_x_11.00_Inches)
  6

 40
6.35
 41
6.35
 42
6.35000508
 43
6.35000508
 44
215.9
 45
279.4
 46
0.0
 47
0.0
 48
0.0
 49
0.0
140
0.0
141
0.0
142
1.0
143
1.0
 70
  1712
 72
     1
 73
     0
 74
     0
  7

 75
     0
147
1.0
148
0.0
149
0.0
100
AcDbLayout
  1
Model
 70
     1
 71
     0
 10
0.0
 20
0.0
 11
210.0
 21
297.0
 12
0.0
 22
0.0
 32
0.0
 14
0.0
 24
0.0
 34
0.0
 15
210.0
 25
297.0
 35
0.0
146
0.0
 13
0.0
 23
0.0
 33
0.0
 16
1.0
 26
0.0
 36
0.0
 17
0.0
 27
1.0
 37
0.0
 76
     0
330
1F
331
29
  0
MLINESTYLE
  5
18
102
{ACAD_REACTORS
330
17
102
}
330
17
100
AcDbMlineStyle
  2
Standard
 70
     0
  3

 62
   256
 51
90.0
 52
90.0
 71
     2
 49
0.5
 62
   256
  6
BYLAYER
 49
-0.5
 62
   256
  6
BYLAYER
  0
ACDBPLACEHOLDER
  5
F
102
{ACAD_REACTORS
330
E
102
}
330
E
  0
SCALE
  5
48
102
{ACAD_REACTORS
330
47
102
}
330
47
100
AcDbScale
 70
     0
300
1:1
140
1.0
141
1.0
290
     1
  0
SCALE
  5
49
102
{ACAD_REACTORS
330
47
102
}
330
47
100
AcDbScale
 70
     0
300
1:2
140
1.0
141
2.0
290
     0
  0
SCALE
  5
4A
102
{ACAD_REACTORS
330
47
102
}
330
47
100
AcDbScale
 70
     0
300
1:4
140
1.0
141
4.0
290
     0
  0
SCALE
  5
4B
102
{ACAD_REACTORS
330
47
102
}
330
47
100
AcDbScale
 70
     0
300
1:5
140
1.0
141
5.0
290
     0
  0
SCALE
  5
4C
102
{ACAD_REACTORS
330
47
102
}
330
47
100
AcDbScale
 70
     0
300
1:8
140
1.0
141
8.0
290
     0
  0
SCALE
  5
4D
102
{ACAD_REACTORS
330
47
102
}
330
47
100
AcDbScale
 70
     0
300
1:10
140
1.0
141
10.0
290
     0
  0
SCALE
  5
4E
102
{ACAD_REACTORS
330
47
102
}
330
47
100
AcDbScale
 70
     0
300
1:16
140
1.0
141
16.0
290
     0
  0
SCALE
  5
4F
102
{ACAD_REACTORS
330
47
102
}
330
47
100
AcDbScale
 70
     0
300
1:20
140
1.0
141
20.0
290
     0
  0
SCALE
  5
50
102
{ACAD_REACTORS
330
47
102
}
330
47
100
AcDbScale
 70
     0
300
1:30
140
1.0
141
30.0
290
     0
  0
SCALE
  5
51
102
{ACAD_REACTORS
330
47
102
}
330
47
100
AcDbScale
 70
     0
300
1:40
140
1.0
141
40.0
290
     0
  0
SCALE
  5
52
102
{ACAD_REACTORS
330
47
102
}
330
47
100
AcDbScale
 70
     0
300
1:50
140
1.0
141
50.0
290
     0
  0
SCALE
  5
53
102
{ACAD_REACTORS
330
47
102
}
330
47
100
AcDbScale
 70
     0
300
1:100
140
1.0
141
100.0
290
     0
  0
SCALE
  5
54
102
{ACAD_REACTORS
330
47
102
}
330
47
100
AcDbScale
 70
     0
300
2:1
140
2.0
141
1.0
290
     0
  0
SCALE
  5
55
102
{ACAD_REACTORS
330
47
102
}
330
47
100
AcDbScale
 70
     0
300
4:1
140
4.0
141
1.0
290
     0
  0
SCALE
  5
56
102
{ACAD_REACTORS
330
47
102
}
330
47
100
AcDbScale
 70
     0
300
8:1
140
8.0
141
1.0
290
     0
  0
SCALE
  5
57
102
{ACAD_REACTORS
330
47
102
}
330
47
100
AcDbScale
 70
     0
300
10:1
140
10.0
141
1.0
290
     0
  0
SCALE
  5
58
102
{ACAD_REACTORS
330
47
102
}
330
47
100
AcDbScale
 70
     0
300
100:1
140
100.0
141
1.0
290
     0
  0
SCALE
  5
59
102
{ACAD_REACTORS
330
47
102
}
330
47
100
AcDbScale
 70
     0
300
1/128" = 1'-0"
140
0.0078125
141
12.0
290
     0
  0
SCALE
  5
5A
102
{ACAD_REACTORS
330
47
102
}
330
47
100
AcDbScale
 70
     0
300
1/64" = 1'-0"
140
0.015625
141
12.0
290
     0
  0
SCALE
  5
5B
102
{ACAD_REACTORS
330
47
102
}
330
47
100
AcDbScale
 70
     0
300
1/32" = 1'-0"
140
0.03125
141
12.0
290
     0
  0
SCALE
  5
5C
102
{ACAD_REACTORS
330
47
102
}
330
47
100
AcDbScale
 70
     0
300
1/16" = 1'-0"
140
0.0625
141
12.0
290
     0
  0
SCALE
  5
5D
102
{ACAD_REACTORS
330
47
102
}
330
47
100
AcDbScale
 70
     0
300
3/32" = 1'-0"
140
0.09375
141
12.0
290
     0
  0
SCALE
  5
5E
102
{ACAD_REACTORS
330
47
102
}
330
47
100
AcDbScale
 70
     0
300
1/8" = 1'-0"
140
0.125
141
12.0
290
     0
  0
SCALE
  5
5F
102
{ACAD_REACTORS
330
47
102
}
330
47
100
AcDbScale
 70
     0
300
3/16" = 1'-0"
140
0.1875
141
12.0
290
     0
  0
SCALE
  5
60
102
{ACAD_REACTORS
330
47
102
}
330
47
100
AcDbScale
 70
     0
300
1/4" = 1'-0"
140
0.25
141
12.0
290
     0
  0
SCALE
  5
61
102
{ACAD_REACTORS
330
47
102
}
330
47
100
AcDbScale
 70
     0
300
3/8" = 1'-0"
140
0.375
141
12.0
290
     0
  0
SCALE
  5
62
102
{ACAD_REACTORS
330
47
102
}
330
47
100
AcDbScale
 70
     0
300
1/2" = 1'-0"
140
0.5
141
12.0
290
     0
  0
SCALE
  5
63
102
{ACAD_REACTORS
330
47
102
}
330
47
100
AcDbScale
 70
     0
300
3/4" = 1'-0"
140
0.75
141
12.0
290
     0
  0
SCALE
  5
64
102
{ACAD_REACTORS
330
47
102
}
330
47
100
AcDbScale
 70
     0
300
1" = 1'-0"
140
1.0
141
12.0
290
     0
  0
SCALE
  5
65
102
{ACAD_REACTORS
330
47
102
}
330
47
100
AcDbScale
 70
     0
300
1-1/2" = 1'-0"
140
1.5
141
12.0
290
     0
  0
SCALE
  5
66
102
{ACAD_REACTORS
330
47
102
}
330
47
100
AcDbScale
 70
     0
300
3" = 1'-0"
140
3.0
141
12.0
290
     0
  0
SCALE
  5
67
102
{ACAD_REACTORS
330
47
102
}
330
47
100
AcDbScale
 70
     0
300
6" = 1'-0"
140
6.0
141
12.0
290
     0
  0
SCALE
  5
68
102
{ACAD_REACTORS
330
47
102
}
330
47
100
AcDbScale
 70
     0
300
1'-0" = 1'-0"
140
12.0
141
12.0
290
     0
  0
ENDSEC
  0
EOF
