  0
SECTION
  2
HEADER
  9
$ACADVER
  1
AC1015
  9
$ACADMAINTVER
 70
     6
  9
$DWGCODEPAGE
  3
DOS932
  9
$INSBASE
 10
0.0
 20
0.0
 30
0.0
  9
$EXTMIN
 10
0.0
 20
0.0
 30
0.0
  9
$EXTMAX
 10
210.0
 20
297.0
 30
0.0
  9
$LIMMIN
 10
0.0
 20
0.0
  9
$LIMMAX
 10
210.0
 20
297.0
  9
$ORTHOMODE
 70
     0
  9
$REGENMODE
 70
     1
  9
$FILLMODE
 70
     1
  9
$QTEXTMODE
 70
     0
  9
$MIRRTEXT
 70
     1
  9
$LTSCALE
 40
1.0
  9
$ATTMODE
 70
     1
  9
$TEXTSIZE
 40
3.5
  9
$TRACEWID
 40
1.0
  9
$TEXTSTYLE
  7
Standard
  9
$CLAYER
  8
0
  9
$CELTYPE
  6
ByLayer
  9
$CECOLOR
 62
   256
  9
$CELTSCALE
 40
1.0
  9
$DISPSILH
 70
     0
  9
$DIMSCALE
 40
1.0
  9
$DIMASZ
 40
3.0
  9
$DIMEXO
 40
1.0
  9
$DIMDLI
 40
3.75
  9
$DIMRND
 40
0.0
  9
$DIMDLE
 40
0.0
  9
$DIMEXE
 40
1.0
  9
$DIMTP
 40
0.0
  9
$DIMTM
 40
0.0
  9
$DIMTXT
 40
3.5
  9
$DIMCEN
 40
2.5
  9
$DIMTSZ
 40
0.0
  9
$DIMTOL
 70
     0
  9
$DIMLIM
 70
     0
  9
$DIMTIH
 70
     1
  9
$DIMTOH
 70
     1
  9
$DIMSE1
 70
     0
  9
$DIMSE2
 70
     0
  9
$DIMTAD
 70
     1
  9
$DIMZIN
 70
     0
  9
$DIMBLK
  1

  9
$DIMASO
 70
     1
  9
$DIMSHO
 70
     1
  9
$DIMPOST
  1

  9
$DIMAPOST
  1

  9
$DIMALT
 70
     0
  9
$DIMALTD
 70
     3
  9
$DIMALTF
 40
0.0393700787
  9
$DIMLFAC
 40
1.0
  9
$DIMTOFL
 70
     1
  9
$DIMTVP
 40
0.0
  9
$DIMTIX
 70
     0
  9
$DIMSOXD
 70
     0
  9
$DIMSAH
 70
     0
  9
$DIMBLK1
  1

  9
$DIMBLK2
  1

  9
$DIMSTYLE
  2
ISO-25
  9
$DIMCLRD
 70
     0
  9
$DIMCLRE
 70
     0
  9
$DIMCLRT
 70
     0
  9
$DIMTFAC
 40
1.0
  9
$DIMGAP
 40
1.524
  9
$DIMJUST
 70
     0
  9
$DIMSD1
 70
     0
  9
$DIMSD2
 70
     0
  9
$DIMTOLJ
 70
     0
  9
$DIMTZIN
 70
     0
  9
$DIMALTZ
 70
     0
  9
$DIMALTTZ
 70
     0
  9
$DIMUPT
 70
     0
  9
$DIMDEC
 70
     1
  9
$DIMTDEC
 70
     3
  9
$DIMALTU
 70
     2
  9
$DIMALTTD
 70
     3
  9
$DIMTXSTY
  7
Standard
  9
$DIMAUNIT
 70
     0
  9
$DIMADEC
 70
     2
  9
$DIMALTRND
 40
0.0
  9
$DIMAZIN
 70
     0
  9
$DIMDSEP
 70
    44
  9
$DIMATFIT
 70
     3
  9
$DIMFRAC
 70
     0
  9
$DIMLDRBLK
  1

  9
$DIMLUNIT
 70
     2
  9
$DIMLWD
 70
    -2
  9
$DIMLWE
 70
    -2
  9
$DIMTMOVE
 70
     0
  9
$LUNITS
 70
     2
  9
$LUPREC
 70
     1
  9
$SKETCHINC
 40
1.0
  9
$FILLETRAD
 40
10.0
  9
$AUNITS
 70
     0
  9
$AUPREC
 70
     2
  9
$MENU
  1
.
  9
$ELEVATION
 40
0.0
  9
$PELEVATION
 40
0.0
  9
$THICKNESS
 40
0.0
  9
$LIMCHECK
 70
     0
  9
$CHAMFERA
 40
10.0
  9
$CHAMFERB
 40
10.0
  9
$CHAMFERC
 40
20.0
  9
$CHAMFERD
 40
0.0
  9
$SKPOLY
 70
     0
  9
$TDCREATE
 40
2456013.554254005
  9
$TDUCREATE
 40
2456013.179254005
  9
$TDUPDATE
 40
2456013.554254016
  9
$TDUUPDATE
 40
2456013.179254016
  9
$TDINDWG
 40
0.0000000116
  9
$TDUSRTIMER
 40
0.0000000116
  9
$USRTIMER
 70
     1
  9
$ANGBASE
 50
0.0
  9
$ANGDIR
 70
     0
  9
$PDMODE
 70
     0
  9
$PDSIZE
 40
-1.0
  9
$PLINEWID
 40
0.0
  9
$SPLFRAME
 70
     0
  9
$SPLINETYPE
 70
     6
  9
$SPLINESEGS
 70
     8
  9
$HANDSEED
  5
3F5
  9
$SURFTAB1
 70
     6
  9
$SURFTAB2
 70
     6
  9
$SURFTYPE
 70
     6
  9
$SURFU
 70
     6
  9
$SURFV
 70
     6
  9
$UCSBASE
  2

  9
$UCSNAME
  2

  9
$UCSORG
 10
0.0
 20
0.0
 30
0.0
  9
$UCSXDIR
 10
1.0
 20
0.0
 30
0.0
  9
$UCSYDIR
 10
0.0
 20
1.0
 30
0.0
  9
$UCSORTHOREF
  2

  9
$UCSORTHOVIEW
 70
     0
  9
$UCSORGTOP
 10
0.0
 20
0.0
 30
0.0
  9
$UCSORGBOTTOM
 10
0.0
 20
0.0
 30
0.0
  9
$UCSORGLEFT
 10
0.0
 20
0.0
 30
0.0
  9
$UCSORGRIGHT
 10
0.0
 20
0.0
 30
0.0
  9
$UCSORGFRONT
 10
0.0
 20
0.0
 30
0.0
  9
$UCSORGBACK
 10
0.0
 20
0.0
 30
0.0
  9
$PUCSBASE
  2

  9
$PUCSNAME
  2

  9
$PUCSORG
 10
0.0
 20
0.0
 30
0.0
  9
$PUCSXDIR
 10
1.0
 20
0.0
 30
0.0
  9
$PUCSYDIR
 10
0.0
 20
1.0
 30
0.0
  9
$PUCSORTHOREF
  2

  9
$PUCSORTHOVIEW
 70
     0
  9
$PUCSORGTOP
 10
0.0
 20
0.0
 30
0.0
  9
$PUCSORGBOTTOM
 10
0.0
 20
0.0
 30
0.0
  9
$PUCSORGLEFT
 10
0.0
 20
0.0
 30
0.0
  9
$PUCSORGRIGHT
 10
0.0
 20
0.0
 30
0.0
  9
$PUCSORGFRONT
 10
0.0
 20
0.0
 30
0.0
  9
$PUCSORGBACK
 10
0.0
 20
0.0
 30
0.0
  9
$USERI1
 70
     0
  9
$USERI2
 70
     0
  9
$USERI3
 70
     0
  9
$USERI4
 70
     0
  9
$USERI5
 70
     0
  9
$USERR1
 40
0.0
  9
$USERR2
 40
0.0
  9
$USERR3
 40
0.0
  9
$USERR4
 40
0.0
  9
$USERR5
 40
0.0
  9
$WORLDVIEW
 70
     1
  9
$SHADEDGE
 70
     3
  9
$SHADEDIF
 70
    70
  9
$TILEMODE
 70
     1
  9
$MAXACTVP
 70
    64
  9
$PINSBASE
 10
0.0
 20
0.0
 30
0.0
  9
$PLIMCHECK
 70
     0
  9
$PEXTMIN
 10
1.0000000000E+20
 20
1.0000000000E+20
 30
1.0000000000E+20
  9
$PEXTMAX
 10
-1.0000000000E+20
 20
-1.0000000000E+20
 30
-1.0000000000E+20
  9
$PLIMMIN
 10
0.0
 20
0.0
  9
$PLIMMAX
 10
420.0
 20
297.0
  9
$UNITMODE
 70
     0
  9
$VISRETAIN
 70
     1
  9
$PLINEGEN
 70
     0
  9
$PSLTSCALE
 70
     1
  9
$TREEDEPTH
 70
  3020
  9
$CMLSTYLE
  2
Standard
  9
$CMLJUST
 70
     0
  9
$CMLSCALE
 40
20.0
  9
$PROXYGRAPHICS
 70
     1
  9
$MEASUREMENT
 70
     1
  9
$CELWEIGHT
370
    -1
  9
$ENDCAPS
280
     0
  9
$JOINSTYLE
280
     0
  9
$LWDISPLAY
290
     1
  9
$INSUNITS
 70
     4
  9
$HYPERLINKBASE
  1

  9
$STYLESHEET
  1

  9
$XEDIT
290
     1
  9
$CEPSNTYPE
380
     0
  9
$PSTYLEMODE
290
     1
  9
$FINGERPRINTGUID
  2
{4DD5115D-ED0E-4079-A2E6-DF2B76710AC1}
  9
$VERSIONGUID
  2
{FAEB1C32-E019-11D5-929B-00C0DF256EC4}
  9
$EXTNAMES
290
     1
  9
$PSVPSCALE
 40
0.0
  9
$OLESTARTUP
290
     0
  0
ENDSEC
  0
SECTION
  2
CLASSES
  0
CLASS
  1
ACDBDICTIONARYWDFLT
  2
AcDbDictionaryWithDefault
  3
ObjectDBX Classes
 90
        0
280
     0
281
     0
  0
CLASS
  1
VISUALSTYLE
  2
AcDbVisualStyle
  3
ObjectDBX Classes
 90
     4095
280
     0
281
     0
  0
CLASS
  1
MATERIAL
  2
AcDbMaterial
  3
ObjectDBX Classes
 90
     1153
280
     0
281
     0
  0
CLASS
  1
SCALE
  2
AcDbScale
  3
ObjectDBX Classes
 90
     1153
280
     0
281
     0
  0
CLASS
  1
DICTIONARYVAR
  2
AcDbDictionaryVar
  3
ObjectDBX Classes
 90
        0
280
     0
281
     0
  0
CLASS
  1
ACDBPLACEHOLDER
  2
AcDbPlaceHolder
  3
ObjectDBX Classes
 90
        0
280
     0
281
     0
  0
CLASS
  1
LAYOUT
  2
AcDbLayout
  3
ObjectDBX Classes
 90
        0
280
     0
281
     0
  0
ENDSEC
  0
SECTION
  2
TABLES
  0
TABLE
  2
VPORT
  5
8
330
0
100
AcDbSymbolTable
 70
     1
  0
VPORT
  5
29
330
8
100
AcDbSymbolTableRecord
100
AcDbViewportTableRecord
  2
*Active
 70
     0
 10
0.0
 20
0.0
 11
1.0
 21
1.0
 12
105.0
 22
148.5
 13
0.0
 23
0.0
 14
10.0
 24
10.0
 15
10.0
 25
10.0
 16
0.0
 26
0.0
 36
1.0
 17
0.0
 27
0.0
 37
0.0
 40
297.0
 41
0.7070707071
 42
50.0
 43
0.0
 44
0.0
 50
0.0
 51
0.0
 71
     0
 72
  2000
 73
     1
 74
     3
 75
     0
 76
     0
 77
     0
 78
     0
281
     0
 65
     1
110
0.0
120
0.0
130
0.0
111
1.0
121
0.0
131
0.0
112
0.0
122
1.0
132
0.0
 79
     0
146
0.0
  0
ENDTAB
  0
TABLE
  2
LTYPE
  5
5
330
0
100
AcDbSymbolTable
 70
     6
  0
LTYPE
  5
14
330
5
100
AcDbSymbolTableRecord
100
AcDbLinetypeTableRecord
  2
ByBlock
 70
     0
  3

 72
    65
 73
     0
 40
0.0
  0
LTYPE
  5
15
330
5
100
AcDbSymbolTableRecord
100
AcDbLinetypeTableRecord
  2
ByLayer
 70
     0
  3

 72
    65
 73
     0
 40
0.0
  0
LTYPE
  5
16
330
5
100
AcDbSymbolTableRecord
100
AcDbLinetypeTableRecord
  2
Continuous
 70
     0
  3
Solid line
 72
    65
 73
     0
 40
0.0
  0
LTYPE
  5
3F
330
5
100
AcDbSymbolTableRecord
100
AcDbLinetypeTableRecord
  2
HIDDEN
 70
     0
  3
Hidden __ __ __ __ __ __ __ __ __ __ __ __ __ __
 72
    65
 73
     2
 40
1.905
 49
1.27
 74
     0
 49
-0.635
 74
     0
  0
LTYPE
  5
40
330
5
100
AcDbSymbolTableRecord
100
AcDbLinetypeTableRecord
  2
PHANTOM
 70
     0
  3
Phantom ______  __  __  ______  __  __  ______
 72
    65
 73
     6
 40
12.7
 49
6.35
 74
     0
 49
-1.27
 74
     0
 49
1.27
 74
     0
 49
-1.27
 74
     0
 49
1.27
 74
     0
 49
-1.27
 74
     0
  0
LTYPE
  5
41
330
5
100
AcDbSymbolTableRecord
100
AcDbLinetypeTableRecord
  2
CENTER
 70
     0
  3
Center ____ _ ____ _ ____ _ ____ _ ____ _ ____
 72
    65
 73
     4
 40
10.16
 49
6.35
 74
     0
 49
-1.27
 74
     0
 49
1.27
 74
     0
 49
-1.27
 74
     0
  0
LTYPE
  5
42
330
5
100
AcDbSymbolTableRecord
100
AcDbLinetypeTableRecord
  2
CENTERX2
 70
     0
  3
Center (2x) ________  __  ________  __  _____
 72
    65
 73
     4
 40
20.32
 49
12.7
 74
     0
 49
-2.54
 74
     0
 49
2.54
 74
     0
 49
-2.54
 74
     0
  0
LTYPE
  5
43
330
5
100
AcDbSymbolTableRecord
100
AcDbLinetypeTableRecord
  2
DOT2
 70
     0
  3
Dot (.5x) ........................................
 72
    65
 73
     2
 40
0.635
 49
0.0
 74
     0
 49
-0.635
 74
     0
  0
ENDTAB
  0
TABLE
  2
LAYER
  5
2
330
0
100
AcDbSymbolTable
 70
     1
  0
LAYER
  5
10
330
2
100
AcDbSymbolTableRecord
100
AcDbLayerTableRecord
  2
0
 70
     0
 62
     7
  6
Continuous
370
    -3
390
F
  0
ENDTAB
  0
TABLE
  2
STYLE
  5
3
330
0
100
AcDbSymbolTable
 70
     2
  0
STYLE
  5
11
330
3
100
AcDbSymbolTableRecord
100
AcDbTextStyleTableRecord
  2
Standard
 70
     0
 40
0.0
 41
1.0
 50
0.0
 71
     0
 42
2.5
  3
txt
  4
bigfont
  0
STYLE
  5
4C
330
3
100
AcDbSymbolTableRecord
100
AcDbTextStyleTableRecord
  2
SLDTEXTSTYLE0
 70
     0
 40
0.0
 41
0.7
 50
0.0
 71
     0
 42
0.2
  3
TXT
  4
bigfont
  0
ENDTAB
  0
TABLE
  2
VIEW
  5
6
330
0
100
AcDbSymbolTable
 70
     0
  0
ENDTAB
  0
TABLE
  2
UCS
  5
7
330
0
100
AcDbSymbolTable
 70
     0
  0
ENDTAB
  0
TABLE
  2
APPID
  5
9
330
0
100
AcDbSymbolTable
 70
     1
  0
APPID
  5
12
330
9
100
AcDbSymbolTableRecord
100
AcDbRegAppTableRecord
  2
ACAD
 70
     0
  0
ENDTAB
  0
TABLE
  2
DIMSTYLE
  5
A
330
0
100
AcDbSymbolTable
 70
     3
100
AcDbDimStyleTable
  0
DIMSTYLE
105
27
330
A
100
AcDbSymbolTableRecord
100
AcDbDimStyleTableRecord
  2
ISO-25
 70
     0
 41
2.5
 42
0.625
 43
3.75
 44
1.25
 73
     0
 74
     0
 77
     1
 78
     8
140
2.5
141
2.5
143
0.0393700787
147
0.625
171
     3
172
     1
271
     2
272
     2
274
     3
278
    44
283
     0
284
     8
340
11
  0
DIMSTYLE
105
131
102
{ACAD_REACTORS
330
130
330
141
330
14B
330
156
330
160
330
16A
102
}
330
A
100
AcDbSymbolTableRecord
100
AcDbDimStyleTableRecord
  2
SLDDIMSTYLE0
 70
     0
 41
3.0
 44
0.0
 45
0.000000001
 73
     0
 74
     0
 77
     3
 78
    12
140
3.5
147
0.875
173
     1
271
     1
272
     3
276
     2
284
    12
340
4C
341
132
343
132
344
132
  0
DIMSTYLE
105
3E5
330
A
100
AcDbSymbolTableRecord
100
AcDbDimStyleTableRecord
  2
SLDDIMSTYLE1
 70
     0
 41
3.0
 44
0.0
 45
0.000000001
140
0.0
146
3.0
147
0.0
173
     1
271
     0
272
     0
276
     2
340
11
341
132
343
132
344
132
  0
ENDTAB
  0
TABLE
  2
BLOCK_RECORD
  5
1
330
0
100
AcDbSymbolTable
 70
    12
  0
BLOCK_RECORD
  5
1F
330
1
100
AcDbSymbolTableRecord
100
AcDbBlockTableRecord
  2
*Model_Space
340
22
  0
BLOCK_RECORD
  5
1B
330
1
100
AcDbSymbolTableRecord
100
AcDbBlockTableRecord
  2
*Paper_Space
340
1E
  0
BLOCK_RECORD
  5
23
330
1
100
AcDbSymbolTableRecord
100
AcDbBlockTableRecord
  2
*Paper_Space0
340
26
  0
BLOCK_RECORD
  5
132
330
1
100
AcDbSymbolTableRecord
100
AcDbBlockTableRecord
  2
_OPEN30
340
0
102
{BLKREFS
331
13B
331
13C
331
145
331
146
331
14F
331
150
331
15A
331
15B
331
164
331
165
331
16E
331
16F
102
}
  0
BLOCK_RECORD
  5
138
330
1
100
AcDbSymbolTableRecord
100
AcDbBlockTableRecord
  2
*D2
340
0
  0
BLOCK_RECORD
  5
142
330
1
100
AcDbSymbolTableRecord
100
AcDbBlockTableRecord
  2
*D3
340
0
  0
BLOCK_RECORD
  5
14C
330
1
100
AcDbSymbolTableRecord
100
AcDbBlockTableRecord
  2
*D4
340
0
  0
BLOCK_RECORD
  5
157
330
1
100
AcDbSymbolTableRecord
100
AcDbBlockTableRecord
  2
*D5
340
0
  0
BLOCK_RECORD
  5
161
330
1
100
AcDbSymbolTableRecord
100
AcDbBlockTableRecord
  2
*D6
340
0
  0
BLOCK_RECORD
  5
16B
330
1
100
AcDbSymbolTableRecord
100
AcDbBlockTableRecord
  2
*D7
340
0
  0
BLOCK_RECORD
  5
1D5
330
1
100
AcDbSymbolTableRecord
100
AcDbBlockTableRecord
  2
SW_CENTERMARKSYMBOL_0
340
0
102
{BLKREFS
331
1E0
102
}
  0
BLOCK_RECORD
  5
30B
330
1
100
AcDbSymbolTableRecord
100
AcDbBlockTableRecord
  2
SW_CENTERMARKSYMBOL_1
340
0
102
{BLKREFS
331
316
102
}
  0
BLOCK_RECORD
  5
3DA
330
1
100
AcDbSymbolTableRecord
100
AcDbBlockTableRecord
  2
SW_NOTE_0
340
0
102
{BLKREFS
331
3E4
102
}
  0
BLOCK_RECORD
  5
3E7
330
1
100
AcDbSymbolTableRecord
100
AcDbBlockTableRecord
  2
SW_NOTE_1
340
0
102
{BLKREFS
331
3F1
102
}
  0
ENDTAB
  0
ENDSEC
  0
SECTION
  2
BLOCKS
  0
BLOCK
  5
20
330
1F
100
AcDbEntity
  8
0
100
AcDbBlockBegin
  2
*Model_Space
 70
     0
 10
0.0
 20
0.0
 30
0.0
  3
*Model_Space
  1

  0
ENDBLK
  5
21
330
1F
100
AcDbEntity
  8
0
100
AcDbBlockEnd
  0
BLOCK
  5
1C
330
1B
100
AcDbEntity
 67
     1
  8
0
100
AcDbBlockBegin
  2
*Paper_Space
 70
     0
 10
0.0
 20
0.0
 30
0.0
  3
*Paper_Space
  1

  0
ENDBLK
  5
1D
330
1B
100
AcDbEntity
 67
     1
  8
0
100
AcDbBlockEnd
  0
BLOCK
  5
24
330
23
100
AcDbEntity
  8
0
100
AcDbBlockBegin
  2
*Paper_Space0
 70
     0
 10
0.0
 20
0.0
 30
0.0
  3
*Paper_Space0
  1

  0
ENDBLK
  5
25
330
23
100
AcDbEntity
  8
0
100
AcDbBlockEnd
  0
BLOCK
  5
133
330
132
100
AcDbEntity
  8
0
100
AcDbBlockBegin
  2
_OPEN30
 70
     0
 10
0.0
 20
0.0
 30
0.0
  3
_OPEN30
  1

  0
LINE
  5
135
330
132
100
AcDbEntity
  8
0
  6
ByBlock
 62
     0
370
    -2
100
AcDbLine
 10
-1.0
 20
0.267949
 30
0.0
 11
0.0
 21
0.0
 31
0.0
  0
LINE
  5
136
330
132
100
AcDbEntity
  8
0
  6
ByBlock
 62
     0
370
    -2
100
AcDbLine
 10
0.0
 20
0.0
 30
0.0
 11
-1.0
 21
-0.267949
 31
0.0
  0
LINE
  5
137
330
132
100
AcDbEntity
  8
0
  6
ByBlock
 62
     0
370
    -2
100
AcDbLine
 10
0.0
 20
0.0
 30
0.0
 11
-1.0
 21
0.0
 31
0.0
  0
ENDBLK
  5
134
330
132
100
AcDbEntity
  8
0
100
AcDbBlockEnd
  0
BLOCK
  5
139
330
138
100
AcDbEntity
  8
0
100
AcDbBlockBegin
  2
*D2
 70
     1
 10
0.0
 20
0.0
 30
0.0
  3
*D2
  1

  0
INSERT
  5
13B
330
138
100
AcDbEntity
  8
0
  6
Continuous
 62
     7
370
     0
100
AcDbBlockReference
  2
_OPEN30
 10
28.8789082228
 20
182.8422266944
 30
-7.1189460156
 41
3.0
 42
3.0
 50
90.0
  0
INSERT
  5
13C
330
138
100
AcDbEntity
  8
0
  6
Continuous
 62
     7
370
     0
100
AcDbBlockReference
  2
_OPEN30
 10
28.8789082228
 20
162.8422266944
 30
-7.1189460156
 41
3.0
 42
3.0
 50
270.0
  0
LINE
  5
13D
330
138
100
AcDbEntity
  8
0
  6
Continuous
 62
     7
370
     0
100
AcDbLine
 10
41.3910161917
 20
182.8422266944
 30
0.0
 11
27.8789082228
 21
182.8422266944
 31
0.0
  0
LINE
  5
13E
330
138
100
AcDbEntity
  8
0
  6
Continuous
 62
     7
370
     0
100
AcDbLine
 10
39.8910161917
 20
162.8422266944
 30
0.0
 11
27.8789082228
 21
162.8422266944
 31
0.0
  0
LINE
  5
13F
330
138
100
AcDbEntity
  8
0
  6
Continuous
 62
     7
370
     0
100
AcDbLine
 10
28.8789082228
 20
182.8422266944
 30
0.0
 11
28.8789082228
 21
162.8422266944
 31
0.0
  0
MTEXT
  5
140
330
138
100
AcDbEntity
  8
0
  6
Continuous
 62
     7
370
     0
100
AcDbMText
 10
24.3671713664
 20
170.806479557
 30
0.0
 40
3.5
 41
0.0
 71
     1
 72
     1
  1
20
  7
SLDTEXTSTYLE0
 11
-1.681415763434501E-14
 21
1.0
 31
0.0
 73
     1
 44
1.0
  0
ENDBLK
  5
13A
330
138
100
AcDbEntity
  8
0
100
AcDbBlockEnd
  0
BLOCK
  5
143
330
142
100
AcDbEntity
  8
0
100
AcDbBlockBegin
  2
*D3
 70
     1
 10
0.0
 20
0.0
 30
0.0
  3
*D3
  1

  0
INSERT
  5
145
330
142
100
AcDbEntity
  8
0
  6
Continuous
 62
     7
370
     0
100
AcDbBlockReference
  2
_OPEN30
 10
86.9031241605
 20
196.5422266944
 30
-7.1189460156
 41
3.0
 42
3.0
 50
90.0
  0
INSERT
  5
146
330
142
100
AcDbEntity
  8
0
  6
Continuous
 62
     7
370
     0
100
AcDbBlockReference
  2
_OPEN30
 10
86.9031241605
 20
114.3422266944
 30
-7.1189460156
 41
3.0
 42
3.0
 50
270.0
  0
LINE
  5
147
330
142
100
AcDbEntity
  8
0
  6
Continuous
 62
     7
370
     0
100
AcDbLine
 10
56.3410161917
 20
196.5422266944
 30
0.0
 11
87.9031241605
 21
196.5422266944
 31
0.0
  0
LINE
  5
148
330
142
100
AcDbEntity
  8
0
  6
Continuous
 62
     7
370
     0
100
AcDbLine
 10
65.4880594226
 20
114.3422266944
 30
0.0
 11
87.9031241605
 21
114.3422266944
 31
0.0
  0
LINE
  5
149
330
142
100
AcDbEntity
  8
0
  6
Continuous
 62
     7
370
     0
100
AcDbLine
 10
86.9031241605
 20
196.5422266944
 30
0.0
 11
86.9031241605
 21
114.3422266944
 31
0.0
  0
MTEXT
  5
14A
330
142
100
AcDbEntity
  8
0
  6
Continuous
 62
     7
370
     0
100
AcDbMText
 10
82.3913873042
 20
149.3332212034
 30
0.0
 40
3.5
 41
0.0
 71
     1
 72
     1
  1
(82.5)
  7
SLDTEXTSTYLE0
 11
-1.947869289344539E-14
 21
1.0
 31
0.0
 73
     1
 44
1.0
  0
ENDBLK
  5
144
330
142
100
AcDbEntity
  8
0
100
AcDbBlockEnd
  0
BLOCK
  5
14D
330
14C
100
AcDbEntity
  8
0
100
AcDbBlockBegin
  2
*D4
 70
     1
 10
0.0
 20
0.0
 30
0.0
  3
*D4
  1

  0
INSERT
  5
14F
330
14C
100
AcDbEntity
  8
0
  6
Continuous
 62
     7
370
     0
100
AcDbBlockReference
  2
_OPEN30
 10
38.8910161917
 20
96.7410904794
 30
-7.1189460156
 41
3.0
 42
3.0
 50
180.0
  0
INSERT
  5
150
330
14C
100
AcDbEntity
  8
0
  6
Continuous
 62
     7
370
     0
100
AcDbBlockReference
  2
_OPEN30
 10
64.8910161917
 20
96.7410904794
 30
-7.1189460156
 41
3.0
 42
3.0
 50
0.0
  0
LINE
  5
151
330
14C
100
AcDbEntity
  8
0
  6
Continuous
 62
     7
370
     0
100
AcDbLine
 10
38.8910161917
 20
114.3422266944
 30
0.0
 11
38.8910161917
 21
95.7410904794
 31
0.0
  0
LINE
  5
152
330
14C
100
AcDbEntity
  8
0
  6
Continuous
 62
     7
370
     0
100
AcDbLine
 10
64.8910161917
 20
114.3422266944
 30
0.0
 11
64.8910161917
 21
95.7410904794
 31
0.0
  0
LINE
  5
153
330
14C
100
AcDbEntity
  8
0
  6
Continuous
 62
     7
370
     0
100
AcDbLine
 10
38.8910161917
 20
96.7410904794
 30
0.0
 11
64.8910161917
 21
96.7410904794
 31
0.0
  0
MTEXT
  5
154
330
14C
100
AcDbEntity
  8
0
  6
Continuous
 62
     7
370
     0
100
AcDbMText
 10
47.9218384976
 20
101.2528273357
 30
0.0
 40
3.5
 41
0.0
 71
     1
 72
     1
  1
%%c
  7
SLDTEXTSTYLE0
 73
     1
 44
1.0
  0
MTEXT
  5
155
330
14C
100
AcDbEntity
  8
0
  6
Continuous
 62
     7
370
     0
100
AcDbMText
 10
51.7886996111
 20
101.2528273357
 30
0.0
 40
3.5
 41
0.0
 71
     1
 72
     1
  1
26
  7
SLDTEXTSTYLE0
 73
     1
 44
1.0
  0
ENDBLK
  5
14E
330
14C
100
AcDbEntity
  8
0
100
AcDbBlockEnd
  0
BLOCK
  5
158
330
157
100
AcDbEntity
  8
0
100
AcDbBlockBegin
  2
*D5
 70
     1
 10
0.0
 20
0.0
 30
0.0
  3
*D5
  1

  0
INSERT
  5
15A
330
157
100
AcDbEntity
  8
0
  6
Continuous
 62
     7
370
     0
100
AcDbBlockReference
  2
_OPEN30
 10
39.8910161917
 20
106.2060397718
 30
-7.1189460156
 41
3.0
 42
3.0
 50
180.0
  0
INSERT
  5
15B
330
157
100
AcDbEntity
  8
0
  6
Continuous
 62
     7
370
     0
100
AcDbBlockReference
  2
_OPEN30
 10
63.8910161917
 20
106.2060397718
 30
-7.1189460156
 41
3.0
 42
3.0
 50
0.0
  0
LINE
  5
15C
330
157
100
AcDbEntity
  8
0
  6
Continuous
 62
     7
370
     0
100
AcDbLine
 10
39.8910161917
 20
126.6422266944
 30
0.0
 11
39.8910161917
 21
105.2060397718
 31
0.0
  0
LINE
  5
15D
330
157
100
AcDbEntity
  8
0
  6
Continuous
 62
     7
370
     0
100
AcDbLine
 10
63.8910161917
 20
126.6422266944
 30
0.0
 11
63.8910161917
 21
105.2060397718
 31
0.0
  0
LINE
  5
15E
330
157
100
AcDbEntity
  8
0
  6
Continuous
 62
     7
370
     0
100
AcDbLine
 10
39.8910161917
 20
106.2060397718
 30
0.0
 11
63.8910161917
 21
106.2060397718
 31
0.0
  0
MTEXT
  5
15F
330
157
100
AcDbEntity
  8
0
  6
Continuous
 62
     7
370
     0
100
AcDbMText
 10
49.8552690543
 20
110.7177766282
 30
0.0
 40
3.5
 41
0.0
 71
     1
 72
     1
  1
24
  7
SLDTEXTSTYLE0
 73
     1
 44
1.0
  0
ENDBLK
  5
159
330
157
100
AcDbEntity
  8
0
100
AcDbBlockEnd
  0
BLOCK
  5
162
330
161
100
AcDbEntity
  8
0
100
AcDbBlockBegin
  2
*D6
 70
     1
 10
0.0
 20
0.0
 30
0.0
  3
*D6
  1

  0
INSERT
  5
164
330
161
100
AcDbEntity
  8
0
  6
Continuous
 62
     7
370
     0
100
AcDbBlockReference
  2
_OPEN30
 10
74.9031241605
 20
182.8422266944
 30
-7.1189460156
 41
3.0
 42
3.0
 50
90.0
  0
INSERT
  5
165
330
161
100
AcDbEntity
  8
0
  6
Continuous
 62
     7
370
     0
100
AcDbBlockReference
  2
_OPEN30
 10
74.9031241605
 20
114.3422266944
 30
-7.1189460156
 41
3.0
 42
3.0
 50
270.0
  0
LINE
  5
166
330
161
100
AcDbEntity
  8
0
  6
Continuous
 62
     7
370
     0
100
AcDbLine
 10
62.3910161917
 20
182.8422266944
 30
0.0
 11
75.9031241605
 21
182.8422266944
 31
0.0
  0
LINE
  5
167
330
161
100
AcDbEntity
  8
0
  6
Continuous
 62
     7
370
     0
100
AcDbLine
 10
65.4880594226
 20
114.3422266944
 30
0.0
 11
75.9031241605
 21
114.3422266944
 31
0.0
  0
LINE
  5
168
330
161
100
AcDbEntity
  8
0
  6
Continuous
 62
     7
370
     0
100
AcDbLine
 10
74.9031241605
 20
182.8422266944
 30
0.0
 11
74.9031241605
 21
114.3422266944
 31
0.0
  0
MTEXT
  5
169
330
161
100
AcDbEntity
  8
0
  6
Continuous
 62
     7
370
     0
100
AcDbMText
 10
70.3913873042
 20
144.5189683407
 30
0.0
 40
3.5
 41
0.0
 71
     1
 72
     1
  1
68.5
  7
SLDTEXTSTYLE0
 11
-1.859051447374526E-14
 21
1.0
 31
0.0
 73
     1
 44
1.0
  0
ENDBLK
  5
163
330
161
100
AcDbEntity
  8
0
100
AcDbBlockEnd
  0
BLOCK
  5
16C
330
16B
100
AcDbEntity
  8
0
100
AcDbBlockBegin
  2
*D7
 70
     1
 10
0.0
 20
0.0
 30
0.0
  3
*D7
  1

  0
INSERT
  5
16E
330
16B
100
AcDbEntity
  8
0
  6
Continuous
 62
     7
370
     0
100
AcDbBlockReference
  2
_OPEN30
 10
41.8910161917
 20
209.6529068119
 30
-7.1189460156
 41
3.0
 42
3.0
 50
180.0
  0
INSERT
  5
16F
330
16B
100
AcDbEntity
  8
0
  6
Continuous
 62
     7
370
     0
100
AcDbBlockReference
  2
_OPEN30
 10
61.8910161917
 20
209.6529068119
 30
-7.1189460156
 41
3.0
 42
3.0
 50
0.0
  0
LINE
  5
170
330
16B
100
AcDbEntity
  8
0
  6
Continuous
 62
     7
370
     0
100
AcDbLine
 10
41.8910161917
 20
183.3422266944
 30
0.0
 11
41.8910161917
 21
210.6529068119
 31
0.0
  0
LINE
  5
171
330
16B
100
AcDbEntity
  8
0
  6
Continuous
 62
     7
370
     0
100
AcDbLine
 10
61.8910161917
 20
183.3422266944
 30
0.0
 11
61.8910161917
 21
210.6529068119
 31
0.0
  0
LINE
  5
172
330
16B
100
AcDbEntity
  8
0
  6
Continuous
 62
     7
370
     0
100
AcDbLine
 10
41.8910161917
 20
209.6529068119
 30
0.0
 11
61.8910161917
 21
209.6529068119
 31
0.0
  0
MTEXT
  5
173
330
16B
100
AcDbEntity
  8
0
  6
Continuous
 62
     7
370
     0
100
AcDbMText
 10
47.9218384976
 20
214.1646436682
 30
0.0
 40
3.5
 41
0.0
 71
     1
 72
     1
  1
%%c
  7
SLDTEXTSTYLE0
 73
     1
 44
1.0
  0
MTEXT
  5
174
330
16B
100
AcDbEntity
  8
0
  6
Continuous
 62
     7
370
     0
100
AcDbMText
 10
51.7886996111
 20
214.1646436682
 30
0.0
 40
3.5
 41
0.0
 71
     1
 72
     1
  1
20
  7
SLDTEXTSTYLE0
 73
     1
 44
1.0
  0
ENDBLK
  5
16D
330
16B
100
AcDbEntity
  8
0
100
AcDbBlockEnd
  0
BLOCK
  5
1D6
330
1D5
100
AcDbEntity
  8
0
100
AcDbBlockBegin
  2
SW_CENTERMARKSYMBOL_0
 70
     0
 10
0.0
 20
0.0
 30
0.0
  3
SW_CENTERMARKSYMBOL_0
  1

  0
LINE
  5
1D8
330
1D5
100
AcDbEntity
  8
0
  6
Continuous
 62
     0
370
     0
100
AcDbLine
 10
0.0
 20
0.0
 30
0.0
 11
0.0
 21
2.5
 31
0.0
  0
LINE
  5
1D9
330
1D5
100
AcDbEntity
  8
0
  6
Continuous
 62
     0
370
     0
100
AcDbLine
 10
0.0
 20
0.0
 30
0.0
 11
-2.5
 21
0.0
 31
0.0
  0
LINE
  5
1DA
330
1D5
100
AcDbEntity
  8
0
  6
Continuous
 62
     0
370
     0
100
AcDbLine
 10
0.0
 20
0.0
 30
0.0
 11
0.0
 21
-2.5
 31
0.0
  0
LINE
  5
1DB
330
1D5
100
AcDbEntity
  8
0
  6
Continuous
 62
     0
370
     0
100
AcDbLine
 10
0.0
 20
0.0
 30
0.0
 11
2.5
 21
0.0
 31
0.0
  0
LINE
  5
1DC
330
1D5
100
AcDbEntity
  8
0
  6
Continuous
 62
     0
370
     0
100
AcDbLine
 10
0.0
 20
5.0
 30
0.0
 11
0.0
 21
15.2
 31
0.0
  0
LINE
  5
1DD
330
1D5
100
AcDbEntity
  8
0
  6
Continuous
 62
     0
370
     0
100
AcDbLine
 10
-5.0
 20
0.0
 30
0.0
 11
-15.2
 21
0.0
 31
0.0
  0
LINE
  5
1DE
330
1D5
100
AcDbEntity
  8
0
  6
Continuous
 62
     0
370
     0
100
AcDbLine
 10
0.0
 20
-5.0
 30
0.0
 11
0.0
 21
-15.2
 31
0.0
  0
LINE
  5
1DF
330
1D5
100
AcDbEntity
  8
0
  6
Continuous
 62
     0
370
     0
100
AcDbLine
 10
5.0
 20
0.0
 30
0.0
 11
15.2
 21
0.0
 31
0.0
  0
ENDBLK
  5
1D7
330
1D5
100
AcDbEntity
  8
0
100
AcDbBlockEnd
  0
BLOCK
  5
30C
330
30B
100
AcDbEntity
  8
0
100
AcDbBlockBegin
  2
SW_CENTERMARKSYMBOL_1
 70
     0
 10
0.0
 20
0.0
 30
0.0
  3
SW_CENTERMARKSYMBOL_1
  1

  0
LINE
  5
30E
330
30B
100
AcDbEntity
  8
0
  6
Continuous
 62
     0
370
     0
100
AcDbLine
 10
0.0
 20
0.0
 30
0.0
 11
0.0
 21
2.5
 31
0.0
  0
LINE
  5
30F
330
30B
100
AcDbEntity
  8
0
  6
Continuous
 62
     0
370
     0
100
AcDbLine
 10
0.0
 20
0.0
 30
0.0
 11
-2.5
 21
0.0
 31
0.0
  0
LINE
  5
310
330
30B
100
AcDbEntity
  8
0
  6
Continuous
 62
     0
370
     0
100
AcDbLine
 10
0.0
 20
0.0
 30
0.0
 11
0.0
 21
-2.5
 31
0.0
  0
LINE
  5
311
330
30B
100
AcDbEntity
  8
0
  6
Continuous
 62
     0
370
     0
100
AcDbLine
 10
0.0
 20
0.0
 30
0.0
 11
2.5
 21
0.0
 31
0.0
  0
LINE
  5
312
330
30B
100
AcDbEntity
  8
0
  6
Continuous
 62
     0
370
     0
100
AcDbLine
 10
0.0
 20
5.0
 30
0.0
 11
0.0
 21
16.0802120126
 31
0.0
  0
LINE
  5
313
330
30B
100
AcDbEntity
  8
0
  6
Continuous
 62
     0
370
     0
100
AcDbLine
 10
-5.0
 20
0.0
 30
0.0
 11
-14.5397829166
 21
0.0
 31
0.0
  0
LINE
  5
314
330
30B
100
AcDbEntity
  8
0
  6
Continuous
 62
     0
370
     0
100
AcDbLine
 10
0.0
 20
-5.0
 30
0.0
 11
0.0
 21
-17.8334902165
 31
0.0
  0
LINE
  5
315
330
30B
100
AcDbEntity
  8
0
  6
Continuous
 62
     0
370
     0
100
AcDbLine
 10
5.0
 20
0.0
 30
0.0
 11
15.4124897074
 21
0.0
 31
0.0
  0
ENDBLK
  5
30D
330
30B
100
AcDbEntity
  8
0
100
AcDbBlockEnd
  0
BLOCK
  5
3DB
330
3DA
100
AcDbEntity
  8
0
100
AcDbBlockBegin
  2
SW_NOTE_0
 70
     0
 10
0.0
 20
0.0
 30
0.0
  3
SW_NOTE_0
  1

  0
LINE
  5
3DD
330
3DA
100
AcDbEntity
  8
0
  6
Continuous
 62
     0
370
     0
100
AcDbLine
 10
-30.5503196917
 20
0.0009647723
 30
0.0
 11
0.0
 21
0.0009647723
 31
0.0
  0
LINE
  5
3DE
330
3DA
100
AcDbEntity
  8
0
  6
Continuous
 62
     0
370
     0
100
AcDbLine
 10
0.0
 20
0.0009647723
 30
0.0
 11
-30.5503196917
 21
0.0009647723
 31
0.0
  0
LINE
  5
3DF
330
3DA
100
AcDbEntity
  8
0
  6
Continuous
 62
     0
370
     0
100
AcDbLine
 10
-30.5503196917
 20
0.0009647723
 30
0.0
 11
0.0
 21
0.0009647723
 31
0.0
  0
LINE
  5
3E0
330
3DA
100
AcDbEntity
  8
0
  6
Continuous
 62
     0
370
     0
100
AcDbLine
 10
0.0
 20
0.0009647723
 30
0.0
 11
-30.5503196917
 21
0.0009647723
 31
0.0
  0
LINE
  5
3E1
330
3DA
100
AcDbEntity
  8
0
  6
Continuous
 62
     0
370
     0
100
AcDbLine
 10
-30.5503196917
 20
0.0009647723
 30
0.0
 11
0.0
 21
0.0009647723
 31
0.0
  0
LINE
  5
3E2
330
3DA
100
AcDbEntity
  8
0
  6
Continuous
 62
     0
370
     0
100
AcDbLine
 10
0.0
 20
0.0009647723
 30
0.0
 11
-30.5503196917
 21
0.0009647723
 31
0.0
  0
MTEXT
  5
3E3
330
3DA
100
AcDbEntity
  8
0
  6
Continuous
 62
     0
370
     0
100
AcDbMText
 10
-30.5492034248
 20
4.5139893308
 30
0.0
 40
3.5
 41
0.0
 71
     1
 72
     1
  1
アンクランプφ4
  7
SLDTEXTSTYLE0
 73
     1
 44
1.0
  0
ENDBLK
  5
3DC
330
3DA
100
AcDbEntity
  8
0
100
AcDbBlockEnd
  0
BLOCK
  5
3E8
330
3E7
100
AcDbEntity
  8
0
100
AcDbBlockBegin
  2
SW_NOTE_1
 70
     0
 10
0.0
 20
0.0
 30
0.0
  3
SW_NOTE_1
  1

  0
LINE
  5
3EA
330
3E7
100
AcDbEntity
  8
0
  6
Continuous
 62
     0
370
     0
100
AcDbLine
 10
-22.4073311424
 20
0.0009647723
 30
0.0
 11
0.0
 21
0.0009647723
 31
0.0
  0
LINE
  5
3EB
330
3E7
100
AcDbEntity
  8
0
  6
Continuous
 62
     0
370
     0
100
AcDbLine
 10
0.0
 20
0.0009647723
 30
0.0
 11
-22.4073311424
 21
0.0009647723
 31
0.0
  0
LINE
  5
3EC
330
3E7
100
AcDbEntity
  8
0
  6
Continuous
 62
     0
370
     0
100
AcDbLine
 10
-22.4073311424
 20
0.0009647723
 30
0.0
 11
0.0
 21
0.0009647723
 31
0.0
  0
LINE
  5
3ED
330
3E7
100
AcDbEntity
  8
0
  6
Continuous
 62
     0
370
     0
100
AcDbLine
 10
0.0
 20
0.0009647723
 30
0.0
 11
-22.4073311424
 21
0.0009647723
 31
0.0
  0
LINE
  5
3EE
330
3E7
100
AcDbEntity
  8
0
  6
Continuous
 62
     0
370
     0
100
AcDbLine
 10
-22.4073311424
 20
0.0009647723
 30
0.0
 11
0.0
 21
0.0009647723
 31
0.0
  0
LINE
  5
3EF
330
3E7
100
AcDbEntity
  8
0
  6
Continuous
 62
     0
370
     0
100
AcDbLine
 10
0.0
 20
0.0009647723
 30
0.0
 11
-22.4073311424
 21
0.0009647723
 31
0.0
  0
MTEXT
  5
3F0
330
3E7
100
AcDbEntity
  8
0
  6
Continuous
 62
     0
370
     0
100
AcDbMText
 10
-22.404177931
 20
4.5141725523
 30
0.0
 40
3.5
 41
0.0
 71
     1
 72
     1
  1
クランプφ4
  7
SLDTEXTSTYLE0
 73
     1
 44
1.0
  0
ENDBLK
  5
3E9
330
3E7
100
AcDbEntity
  8
0
100
AcDbBlockEnd
  0
ENDSEC
  0
SECTION
  2
ENTITIES
  0
LINE
  5
44
330
1F
100
AcDbEntity
  8
0
  6
Continuous
 62
     7
370
     0
100
AcDbLine
 10
20.2604743903
 20
285.0
 30
0.0
 11
196.7604743903
 21
285.0
 31
0.0
  0
LINE
  5
45
330
1F
100
AcDbEntity
  8
0
  6
Continuous
 62
     7
370
     0
100
AcDbLine
 10
20.2604743903
 20
285.0
 30
0.0
 11
20.2604743903
 21
10.0
 31
0.0
  0
LINE
  5
46
330
1F
100
AcDbEntity
  8
0
  6
Continuous
 62
     7
370
     0
100
AcDbLine
 10
20.2604743903
 20
10.0
 30
0.0
 11
196.7604743903
 21
10.0
 31
0.0
  0
LINE
  5
47
330
1F
100
AcDbEntity
  8
0
  6
Continuous
 62
     7
370
     0
100
AcDbLine
 10
196.7604743903
 20
285.0
 30
0.0
 11
196.7604743903
 21
10.0
 31
0.0
  0
LINE
  5
48
330
1F
100
AcDbEntity
  8
0
  6
Continuous
 62
     7
370
     0
100
AcDbLine
 10
127.0104743903
 20
50.75
 30
0.0
 11
196.7604743903
 21
50.75
 31
0.0
  0
LINE
  5
49
330
1F
100
AcDbEntity
  8
0
  6
Continuous
 62
     7
370
     0
100
AcDbLine
 10
127.0104743903
 20
50.75
 30
0.0
 11
127.0104743903
 21
10.0
 31
0.0
  0
LINE
  5
4A
330
1F
100
AcDbEntity
  8
0
  6
Continuous
 62
     7
370
     0
100
AcDbLine
 10
127.0104743903
 20
22.75
 30
0.0
 11
196.7604743903
 21
22.75
 31
0.0
  0
LINE
  5
4B
330
1F
100
AcDbEntity
  8
0
  6
Continuous
 62
     7
370
     0
100
AcDbLine
 10
127.0104743903
 20
36.75
 30
0.0
 11
196.7604743903
 21
36.75
 31
0.0
  0
MTEXT
  5
6F
330
1F
100
AcDbEntity
  8
0
  6
Continuous
 62
     7
370
     0
100
AcDbMText
 10
155.3855402861
 20
30.4171580599
 30
0.0
 40
4.2333333333
 41
0.0
 71
     1
 72
     1
  1
MGC-20
  7
SLDTEXTSTYLE0
 73
     1
 44
1.0
  0
MTEXT
  5
70
330
1F
100
AcDbEntity
  8
0
  6
Continuous
 62
     7
370
     0
100
AcDbMText
 10
143.0031421244
 20
43.9409718514
 30
0.0
 40
4.2333333333
 41
0.0
 71
     1
 72
     1
  1
マグネットチャック
  7
SLDTEXTSTYLE0
 73
     1
 44
1.0
  0
MTEXT
  5
71
330
1F
100
AcDbEntity
  8
0
  6
Continuous
 62
     7
370
     0
100
AcDbMText
 10
155.5151403167
 20
16.8228189052
 30
0.0
 40
4.2333333333
 41
0.0
 71
     1
 72
     1
  1
123218
  7
SLDTEXTSTYLE0
 73
     1
 44
1.0
  0
ARC
  5
72
330
1F
100
AcDbEntity
  8
0
  6
Continuous
 62
     7
370
     0
100
AcDbCircle
 10
48.4410161917
 20
196.0422266944
 30
0.0
 40
0.5
100
AcDbArc
 50
90.0
 51
180.0
  0
ARC
  5
73
330
1F
100
AcDbEntity
  8
0
  6
Continuous
 62
     7
370
     0
100
AcDbCircle
 10
55.3410161917
 20
196.0422266944
 30
0.0
 40
0.5
100
AcDbArc
 50
0.0
 51
90.0
  0
LINE
  5
74
330
1F
100
AcDbEntity
  8
0
  6
Continuous
 62
     7
370
     0
100
AcDbLine
 10
47.9410163824
 20
183.7422266586
 30
0.0
 11
47.9410163824
 21
182.8422263248
 31
0.0
  0
LINE
  5
75
330
1F
100
AcDbEntity
  8
0
  6
Continuous
 62
     7
370
     0
100
AcDbLine
 10
55.8410160009
 20
182.8422263248
 30
0.0
 11
55.8410160009
 21
183.7422266586
 31
0.0
  0
LINE
  5
76
330
1F
100
AcDbEntity
  8
0
  6
Continuous
 62
     7
370
     0
100
AcDbLine
 10
47.9410163824
 20
194.4422289713
 30
0.0
 11
47.9410163824
 21
188.5422259553
 31
0.0
  0
LINE
  5
77
330
1F
100
AcDbEntity
  8
0
  6
Continuous
 62
     7
370
     0
100
AcDbLine
 10
55.8410160009
 20
188.5422259553
 30
0.0
 11
55.8410160009
 21
194.4422289713
 31
0.0
  0
LINE
  5
78
330
1F
100
AcDbEntity
  8
0
  6
Continuous
 62
     7
370
     0
100
AcDbLine
 10
47.9410163824
 20
196.0422262533
 30
0.0
 11
47.9410163824
 21
195.0422242267
 31
0.0
  0
LINE
  5
79
330
1F
100
AcDbEntity
  8
0
  6
Continuous
 62
     7
370
     0
100
AcDbLine
 10
55.8410160009
 20
195.0422242267
 30
0.0
 11
55.8410160009
 21
196.0422262533
 31
0.0
  0
LINE
  5
7A
330
1F
100
AcDbEntity
  8
0
  6
Continuous
 62
     7
370
     0
100
AcDbLine
 10
49.6960162417
 20
195.0422242267
 30
0.0
 11
49.6960162417
 21
194.4422289713
 31
0.0
  0
LINE
  5
7B
330
1F
100
AcDbEntity
  8
0
  6
Continuous
 62
     7
370
     0
100
AcDbLine
 10
54.0860161417
 20
194.4422289713
 30
0.0
 11
54.0860161417
 21
195.0422242267
 31
0.0
  0
LINE
  5
7C
330
1F
100
AcDbEntity
  8
0
  6
Continuous
 62
     7
370
     0
100
AcDbLine
 10
47.2410161745
 20
145.3422266973
 30
0.0
 11
47.2410161745
 21
139.9922274037
 31
0.0
  0
LINE
  5
7D
330
1F
100
AcDbEntity
  8
0
  6
Continuous
 62
     7
370
     0
100
AcDbLine
 10
56.5410162088
 20
139.9922274037
 30
0.0
 11
56.5410162088
 21
145.3422266973
 31
0.0
  0
ARC
  5
7E
330
1F
100
AcDbEntity
  8
0
  6
Continuous
 62
     7
370
     0
100
AcDbCircle
 10
47.8410161917
 20
146.9422266944
 30
0.0
 40
0.5
100
AcDbArc
 50
90.0
 51
180.0
  0
ARC
  5
7F
330
1F
100
AcDbEntity
  8
0
  6
Continuous
 62
     7
370
     0
100
AcDbCircle
 10
55.9410161917
 20
146.9422266944
 30
0.0
 40
0.5
100
AcDbArc
 50
0.0
 51
90.0
  0
LINE
  5
80
330
1F
100
AcDbEntity
  8
0
  6
Continuous
 62
     7
370
     0
100
AcDbLine
 10
47.3410160047
 20
146.942225842
 30
0.0
 11
47.3410160047
 21
145.9422275407
 31
0.0
  0
LINE
  5
81
330
1F
100
AcDbEntity
  8
0
  6
Continuous
 62
     7
370
     0
100
AcDbLine
 10
56.4410163787
 20
145.9422275407
 30
0.0
 11
56.4410163787
 21
146.942225842
 31
0.0
  0
LINE
  5
82
330
1F
100
AcDbEntity
  8
0
  6
Continuous
 62
     7
370
     0
100
AcDbLine
 10
47.4410163004
 20
137.7922274156
 30
0.0
 11
49.4910160777
 21
135.7422262414
 31
0.0
  0
LINE
  5
83
330
1F
100
AcDbEntity
  8
0
  6
Continuous
 62
     7
370
     0
100
AcDbLine
 10
54.2910163057
 20
135.7422262414
 30
0.0
 11
56.3410160829
 21
137.7922274156
 31
0.0
  0
LINE
  5
84
330
1F
100
AcDbEntity
  8
0
  6
Continuous
 62
     7
370
     0
100
AcDbLine
 10
47.4410163004
 20
139.9922274037
 30
0.0
 11
47.4410163004
 21
137.7922274156
 31
0.0
  0
LINE
  5
85
330
1F
100
AcDbEntity
  8
0
  6
Continuous
 62
     7
370
     0
100
AcDbLine
 10
56.3410160829
 20
137.7922274156
 30
0.0
 11
56.3410160829
 21
139.9922274037
 31
0.0
  0
LINE
  5
86
330
1F
100
AcDbEntity
  8
0
  6
Continuous
 62
     7
370
     0
100
AcDbLine
 10
49.4910160777
 20
135.7422262414
 30
0.0
 11
49.4910160777
 21
131.8422272785
 31
0.0
  0
LINE
  5
87
330
1F
100
AcDbEntity
  8
0
  6
Continuous
 62
     7
370
     0
100
AcDbLine
 10
54.2910163057
 20
131.8422272785
 30
0.0
 11
54.2910163057
 21
135.7422262414
 31
0.0
  0
LINE
  5
88
330
1F
100
AcDbEntity
  8
0
  6
Continuous
 62
     7
370
     0
100
AcDbLine
 10
49.6960162417
 20
145.9422275407
 30
0.0
 11
49.6960162417
 21
145.3422266973
 31
0.0
  0
LINE
  5
89
330
1F
100
AcDbEntity
  8
0
  6
Continuous
 62
     7
370
     0
100
AcDbLine
 10
54.0860161417
 20
145.3422266973
 30
0.0
 11
54.0860161417
 21
145.9422275407
 31
0.0
  0
LINE
  5
8A
330
1F
100
AcDbEntity
  8
0
  6
Continuous
 62
     7
370
     0
100
AcDbLine
 10
64.8910164599
 20
115.3422266694
 30
0.0
 11
64.8910164599
 21
125.1422265528
 31
0.0
  0
LINE
  5
8B
330
1F
100
AcDbEntity
  8
0
  6
Continuous
 62
     7
370
     0
100
AcDbLine
 10
38.8910159234
 20
125.1422265528
 30
0.0
 11
38.8910159234
 21
115.3422266694
 31
0.0
  0
LINE
  5
8C
330
1F
100
AcDbEntity
  8
0
  6
Continuous
 62
     7
370
     0
100
AcDbLine
 10
49.76992344
 20
114.3422266801
 30
0.0
 11
49.76992344
 21
115.3422266694
 31
0.0
  0
LINE
  5
8D
330
1F
100
AcDbEntity
  8
0
  6
Continuous
 62
     7
370
     0
100
AcDbLine
 10
54.0121089433
 20
115.3422266694
 30
0.0
 11
54.0121089433
 21
114.3422266801
 31
0.0
  0
LINE
  5
8E
330
1F
100
AcDbEntity
  8
0
  6
Continuous
 62
     7
370
     0
100
AcDbLine
 10
38.8789077987
 20
115.3422266694
 30
0.0
 11
38.8789077987
 21
114.3422266801
 31
0.0
  0
LINE
  5
8F
330
1F
100
AcDbEntity
  8
0
  6
Continuous
 62
     7
370
     0
100
AcDbLine
 10
64.9031245847
 20
114.3422266801
 30
0.0
 11
64.9031245847
 21
115.3422266694
 31
0.0
  0
LINE
  5
90
330
1F
100
AcDbEntity
  8
0
  6
Continuous
 62
     7
370
     0
100
AcDbLine
 10
64.8910164599
 20
150.5422271772
 30
0.0
 11
64.5910160382
 21
150.8422285302
 31
0.0
  0
LINE
  5
91
330
1F
100
AcDbEntity
  8
0
  6
Continuous
 62
     7
370
     0
100
AcDbLine
 10
39.1910163452
 20
150.8422285302
 30
0.0
 11
38.8910159234
 21
150.5422271772
 31
0.0
  0
LINE
  5
92
330
1F
100
AcDbEntity
  8
0
  6
Continuous
 62
     7
370
     0
100
AcDbLine
 10
64.8910164599
 20
139.6422270669
 30
0.0
 11
64.8910164599
 21
150.5422271772
 31
0.0
  0
LINE
  5
93
330
1F
100
AcDbEntity
  8
0
  6
Continuous
 62
     7
370
     0
100
AcDbLine
 10
64.8910164599
 20
125.4422269745
 30
0.0
 11
64.8910164599
 21
127.6422269626
 31
0.0
  0
LINE
  5
94
330
1F
100
AcDbEntity
  8
0
  6
Continuous
 62
     7
370
     0
100
AcDbLine
 10
38.8910159234
 20
127.6422269626
 30
0.0
 11
38.8910159234
 21
125.4422269745
 31
0.0
  0
LINE
  5
95
330
1F
100
AcDbEntity
  8
0
  6
Continuous
 62
     7
370
     0
100
AcDbLine
 10
38.8910159234
 20
150.5422271772
 30
0.0
 11
38.8910159234
 21
139.6422270669
 31
0.0
  0
LINE
  5
96
330
1F
100
AcDbEntity
  8
0
  6
Continuous
 62
     7
370
     0
100
AcDbLine
 10
38.8910159234
 20
125.4422269745
 30
0.0
 11
39.1910163452
 21
125.1422265528
 31
0.0
  0
LINE
  5
97
330
1F
100
AcDbEntity
  8
0
  6
Continuous
 62
     7
370
     0
100
AcDbLine
 10
64.5910160382
 20
125.1422265528
 30
0.0
 11
64.8910164599
 21
125.4422269745
 31
0.0
  0
LINE
  5
98
330
1F
100
AcDbEntity
  8
0
  6
Continuous
 62
     7
370
     0
100
AcDbLine
 10
63.391016214
 20
162.3422257586
 30
0.0
 11
62.8910161321
 21
162.8422267718
 31
0.0
  0
LINE
  5
99
330
1F
100
AcDbEntity
  8
0
  6
Continuous
 62
     7
370
     0
100
AcDbLine
 10
40.8910162513
 20
162.8422267718
 30
0.0
 11
40.3910161693
 21
162.3422257586
 31
0.0
  0
LINE
  5
9A
330
1F
100
AcDbEntity
  8
0
  6
Continuous
 62
     7
370
     0
100
AcDbLine
 10
63.391016214
 20
151.8422268314
 30
0.0
 11
63.391016214
 21
162.3422257586
 31
0.0
  0
LINE
  5
9B
330
1F
100
AcDbEntity
  8
0
  6
Continuous
 62
     7
370
     0
100
AcDbLine
 10
40.3910161693
 20
162.3422257586
 30
0.0
 11
40.3910161693
 21
151.8422268314
 31
0.0
  0
LINE
  5
9C
330
1F
100
AcDbEntity
  8
0
  6
Continuous
 62
     7
370
     0
100
AcDbLine
 10
62.8910161321
 20
151.3422258182
 30
0.0
 11
63.391016214
 21
151.8422268314
 31
0.0
  0
LINE
  5
9D
330
1F
100
AcDbEntity
  8
0
  6
Continuous
 62
     7
370
     0
100
AcDbLine
 10
40.3910161693
 20
151.8422268314
 30
0.0
 11
40.8910162513
 21
151.3422258182
 31
0.0
  0
LINE
  5
9E
330
1F
100
AcDbEntity
  8
0
  6
Continuous
 62
     7
370
     0
100
AcDbLine
 10
41.8910164152
 20
182.3422253115
 30
0.0
 11
41.8910164152
 21
162.8422267718
 31
0.0
  0
LINE
  5
9F
330
1F
100
AcDbEntity
  8
0
  6
Continuous
 62
     7
370
     0
100
AcDbLine
 10
61.8910159682
 20
162.8422267718
 30
0.0
 11
61.8910159682
 21
182.3422253115
 31
0.0
  0
LINE
  5
A0
330
1F
100
AcDbEntity
  8
0
  6
Continuous
 62
     7
370
     0
100
AcDbLine
 10
61.8910159682
 20
150.8422285302
 30
0.0
 11
61.8910159682
 21
151.3422258182
 31
0.0
  0
LINE
  5
A1
330
1F
100
AcDbEntity
  8
0
  6
Continuous
 62
     7
370
     0
100
AcDbLine
 10
41.8910164152
 20
151.3422258182
 30
0.0
 11
41.8910164152
 21
150.8422285302
 31
0.0
  0
LINE
  5
A2
330
1F
100
AcDbEntity
  8
0
  6
Continuous
 62
     7
370
     0
100
AcDbLine
 10
61.8910159682
 20
182.3422253115
 30
0.0
 11
61.3910158862
 21
182.8422263248
 31
0.0
  0
LINE
  5
A3
330
1F
100
AcDbEntity
  8
0
  6
Continuous
 62
     7
370
     0
100
AcDbLine
 10
42.3910164971
 20
182.8422263248
 30
0.0
 11
41.8910164152
 21
182.3422253115
 31
0.0
  0
LINE
  5
A4
330
1F
100
AcDbEntity
  8
0
  6
Continuous
 62
     7
370
     0
100
AcDbLine
 10
47.8910160017
 20
188.5422259553
 30
0.0
 11
51.8910161917
 21
188.5422259553
 31
0.0
  0
LINE
  5
A5
330
1F
100
AcDbEntity
  8
0
  6
Continuous
 62
     7
370
     0
100
AcDbLine
 10
51.8910161917
 20
183.7422266586
 30
0.0
 11
51.8910161917
 21
188.5422259553
 31
0.0
  0
LINE
  5
A6
330
1F
100
AcDbEntity
  8
0
  6
Continuous
 62
     7
370
     0
100
AcDbLine
 10
47.8910160017
 20
183.7422266586
 30
0.0
 11
51.8910161917
 21
183.7422266586
 31
0.0
  0
LINE
  5
A7
330
1F
100
AcDbEntity
  8
0
  6
Continuous
 62
     7
370
     0
100
AcDbLine
 10
47.8910160017
 20
183.7422266586
 30
0.0
 11
47.8910160017
 21
188.5422259553
 31
0.0
  0
LINE
  5
A8
330
1F
100
AcDbEntity
  8
0
  6
Continuous
 62
     7
370
     0
100
AcDbLine
 10
51.8910161917
 20
188.5422259553
 30
0.0
 11
55.8910163817
 21
188.5422259553
 31
0.0
  0
LINE
  5
A9
330
1F
100
AcDbEntity
  8
0
  6
Continuous
 62
     7
370
     0
100
AcDbLine
 10
55.8910163817
 20
183.7422266586
 30
0.0
 11
55.8910163817
 21
188.5422259553
 31
0.0
  0
LINE
  5
AA
330
1F
100
AcDbEntity
  8
0
  6
Continuous
 62
     7
370
     0
100
AcDbLine
 10
51.8910161917
 20
183.7422266586
 30
0.0
 11
55.8910163817
 21
183.7422266586
 31
0.0
  0
SPLINE
  5
AB
330
1F
100
AcDbEntity
  8
0
  6
Continuous
 62
     7
370
     0
100
AcDbSpline
210
0.0
220
0.0
230
1.0
 70
    24
 71
     3
 72
    25
 73
    21
 74
     0
 42
0.00000001
 43
0.00000001
 40
0.0
 40
0.0
 40
0.0
 40
0.0
 40
0.0599916998723794
 40
0.1199827395260913
 40
0.1849450030750668
 40
0.2499567504733808
 40
0.3149190324807288
 40
0.3472892251821949
 40
0.3800159308705481
 40
0.4399832414903924
 40
0.4999995494502082
 40
0.5599668732982016
 40
0.6199831900758832
 40
0.6849454536248587
 40
0.7499572010231726
 40
0.8149194830305208
 40
0.8472896757319868
 40
0.8800163814203399
 40
0.9399836920401842
 40
1.0
 40
1.0
 40
1.0
 40
1.0
 10
55.34101615180869
 20
196.5422272665618
 30
0.0
 10
55.32946582876354
 20
196.5422272665617
 30
0.0
 10
55.30636530978646
 20
196.5422272665617
 30
0.0
 10
55.11071455128753
 20
196.5422272665618
 30
0.0
 10
54.79639184030832
 20
196.5422272665617
 30
0.0
 10
54.34710829348158
 20
196.5422272665618
 30
0.0
 10
53.89076885428934
 20
196.5422272665617
 30
0.0
 10
53.48494730029385
 20
196.5422272665617
 30
0.0
 10
53.07360512084563
 20
196.5422272665618
 30
0.0
 10
52.54149336607075
 20
196.5422272665617
 30
0.0
 10
51.89121502617493
 20
196.5422272665617
 30
0.0
 10
51.24062874391306
 20
196.5422272665617
 30
0.0
 10
50.59658693526944
 20
196.5422272665617
 30
0.0
 10
49.98296372207894
 20
196.5422272665617
 30
0.0
 10
49.43512773802298
 20
196.5422272665617
 30
0.0
 10
49.06130598559076
 20
196.5422272665617
 30
0.0
 10
48.82392958298909
 20
196.5422272665617
 30
0.0
 10
48.63778907848427
 20
196.5422272665617
 30
0.0
 10
48.47544152723892
 20
196.5422272665617
 30
0.0
 10
48.45249445370811
 20
196.5422272665617
 30
0.0
 10
48.4410162315299
 20
196.5422272665617
 30
0.0
  0
LINE
  5
AC
330
1F
100
AcDbEntity
  8
0
  6
Continuous
 62
     7
370
     0
100
AcDbLine
 10
47.9410163824
 20
194.4422289713
 30
0.0
 11
55.8410160009
 21
194.4422289713
 31
0.0
  0
LINE
  5
AD
330
1F
100
AcDbEntity
  8
0
  6
Continuous
 62
     7
370
     0
100
AcDbLine
 10
47.9410163824
 20
195.0422242267
 30
0.0
 11
55.8410160009
 21
195.0422242267
 31
0.0
  0
LINE
  5
AE
330
1F
100
AcDbEntity
  8
0
  6
Continuous
 62
     7
370
     0
100
AcDbLine
 10
47.2410161745
 20
145.3422266973
 30
0.0
 11
56.5410162088
 21
145.3422266973
 31
0.0
  0
LINE
  5
AF
330
1F
100
AcDbEntity
  8
0
  6
Continuous
 62
     7
370
     0
100
AcDbLine
 10
56.5410162088
 20
139.9922274037
 30
0.0
 11
47.2410161745
 21
139.9922274037
 31
0.0
  0
LINE
  5
B0
330
1F
100
AcDbEntity
  8
0
  6
Continuous
 62
     7
370
     0
100
AcDbLine
 10
47.8410160866
 20
147.4422268553
 30
0.0
 11
55.9410162967
 21
147.4422268553
 31
0.0
  0
LINE
  5
B1
330
1F
100
AcDbEntity
  8
0
  6
Continuous
 62
     7
370
     0
100
AcDbLine
 10
47.3410160047
 20
145.9422275407
 30
0.0
 11
56.4410163787
 21
145.9422275407
 31
0.0
  0
LINE
  5
B2
330
1F
100
AcDbEntity
  8
0
  6
Continuous
 62
     7
370
     0
100
AcDbLine
 10
54.2910163057
 20
135.7422262414
 30
0.0
 11
49.4910160777
 21
135.7422262414
 31
0.0
  0
LINE
  5
B3
330
1F
100
AcDbEntity
  8
0
  6
Continuous
 62
     7
370
     0
100
AcDbLine
 10
47.4410163004
 20
137.7922274156
 30
0.0
 11
56.3410160829
 21
137.7922274156
 31
0.0
  0
ARC
  5
B4
330
1F
100
AcDbEntity
  8
0
  6
Continuous
 62
     7
370
     0
100
AcDbCircle
 10
51.8910161917
 20
131.8422266944
 30
0.0
 40
2.399999999999999
100
AcDbArc
 50
180.0
 51
0.0
  0
LINE
  5
B5
330
1F
100
AcDbEntity
  8
0
  6
Continuous
 62
     7
370
     0
100
AcDbLine
 10
49.4910160777
 20
131.8422272785
 30
0.0
 11
54.2910163057
 21
131.8422272785
 31
0.0
  0
ARC
  5
B6
330
1F
100
AcDbEntity
  8
0
  6
Continuous
 62
     7
370
     0
100
AcDbCircle
 10
51.8910161917
 20
131.8422266944
 30
0.0
 40
3.500000000000007
100
AcDbArc
 50
133.2918075933
 51
46.7081924067
  0
LINE
  5
B7
330
1F
100
AcDbEntity
  8
0
  6
Continuous
 62
     7
370
     0
100
AcDbLine
 10
55.3910162997
 20
131.8422272785
 30
0.0
 11
55.3910162997
 21
133.8629532589
 31
0.0
  0
LINE
  5
B8
330
1F
100
AcDbEntity
  8
0
  6
Continuous
 62
     7
370
     0
100
AcDbLine
 10
55.3910162997
 20
133.8629532589
 30
0.0
 11
54.2910163057
 21
134.4980370237
 31
0.0
  0
LINE
  5
B9
330
1F
100
AcDbEntity
  8
0
  6
Continuous
 62
     7
370
     0
100
AcDbLine
 10
55.3910162997
 20
129.8215003668
 30
0.0
 11
55.3910162997
 21
131.8422272785
 31
0.0
  0
LINE
  5
BA
330
1F
100
AcDbEntity
  8
0
  6
Continuous
 62
     7
370
     0
100
AcDbLine
 10
53.6410162457
 20
128.8111373766
 30
0.0
 11
55.3910162997
 21
129.8215003668
 31
0.0
  0
LINE
  5
BB
330
1F
100
AcDbEntity
  8
0
  6
Continuous
 62
     7
370
     0
100
AcDbLine
 10
50.1410161377
 20
128.8111373766
 30
0.0
 11
51.8910161917
 21
127.8007743864
 31
0.0
  0
LINE
  5
BC
330
1F
100
AcDbEntity
  8
0
  6
Continuous
 62
     7
370
     0
100
AcDbLine
 10
51.8910161917
 20
127.8007743864
 30
0.0
 11
53.6410162457
 21
128.8111373766
 31
0.0
  0
LINE
  5
BD
330
1F
100
AcDbEntity
  8
0
  6
Continuous
 62
     7
370
     0
100
AcDbLine
 10
49.4910160777
 20
134.4980370237
 30
0.0
 11
48.3910160836
 21
133.8629532589
 31
0.0
  0
LINE
  5
BE
330
1F
100
AcDbEntity
  8
0
  6
Continuous
 62
     7
370
     0
100
AcDbLine
 10
48.3910160836
 20
133.8629532589
 30
0.0
 11
48.3910160836
 21
131.8422272785
 31
0.0
  0
LINE
  5
BF
330
1F
100
AcDbEntity
  8
0
  6
Continuous
 62
     7
370
     0
100
AcDbLine
 10
48.3910160836
 20
129.8215003668
 30
0.0
 11
50.1410161377
 21
128.8111373766
 31
0.0
  0
LINE
  5
C0
330
1F
100
AcDbEntity
  8
0
  6
Continuous
 62
     7
370
     0
100
AcDbLine
 10
48.3910160836
 20
131.8422272785
 30
0.0
 11
48.3910160836
 21
129.8215003668
 31
0.0
  0
LINE
  5
C1
330
1F
100
AcDbEntity
  8
0
  6
Continuous
 62
     7
370
     0
100
AcDbLine
 10
53.7410161922
 20
114.3422266801
 30
0.0
 11
53.7410161922
 21
115.3422266694
 31
0.0
  0
LINE
  5
C2
330
1F
100
AcDbEntity
  8
0
  6
Continuous
 62
     7
370
     0
100
AcDbLine
 10
50.0410161911
 20
114.3422266801
 30
0.0
 11
53.7410161922
 21
114.3422266801
 31
0.0
  0
LINE
  5
C3
330
1F
100
AcDbEntity
  8
0
  6
Continuous
 62
     7
370
     0
100
AcDbLine
 10
50.0410161911
 20
114.3422266801
 30
0.0
 11
50.0410161911
 21
115.3422266694
 31
0.0
  0
LINE
  5
C4
330
1F
100
AcDbEntity
  8
0
  6
Continuous
 62
     7
370
     0
100
AcDbLine
 10
50.0410161911
 20
115.3422266694
 30
0.0
 11
53.7410161922
 21
115.3422266694
 31
0.0
  0
LINE
  5
C5
330
1F
100
AcDbEntity
  8
0
  6
Continuous
 62
     7
370
     0
100
AcDbLine
 10
50.041147624
 20
115.3422266694
 30
0.0
 11
48.6758119658
 21
115.3422266694
 31
0.0
  0
LINE
  5
C6
330
1F
100
AcDbEntity
  8
0
  6
Continuous
 62
     7
370
     0
100
AcDbLine
 10
45.2577004906
 20
115.3422266694
 30
0.0
 11
44.1002253209
 21
115.3422266694
 31
0.0
  0
LINE
  5
C7
330
1F
100
AcDbEntity
  8
0
  6
Continuous
 62
     7
370
     0
100
AcDbLine
 10
41.4841159944
 20
115.3422266694
 30
0.0
 11
40.7107149948
 21
115.3422266694
 31
0.0
  0
LINE
  5
C8
330
1F
100
AcDbEntity
  8
0
  6
Continuous
 62
     7
370
     0
100
AcDbLine
 10
39.2948876832
 20
115.3422266694
 30
0.0
 11
39.0233056386
 21
115.3422266694
 31
0.0
  0
LINE
  5
C9
330
1F
100
AcDbEntity
  8
0
  6
Continuous
 62
     7
370
     0
100
AcDbLine
 10
64.7587267448
 20
115.3422266694
 30
0.0
 11
64.4871447001
 21
115.3422266694
 31
0.0
  0
LINE
  5
CA
330
1F
100
AcDbEntity
  8
0
  6
Continuous
 62
     7
370
     0
100
AcDbLine
 10
63.0713173885
 20
115.3422266694
 30
0.0
 11
62.2979163889
 21
115.3422266694
 31
0.0
  0
LINE
  5
CB
330
1F
100
AcDbEntity
  8
0
  6
Continuous
 62
     7
370
     0
100
AcDbLine
 10
59.6818070625
 20
115.3422266694
 30
0.0
 11
58.5243318927
 21
115.3422266694
 31
0.0
  0
LINE
  5
CC
330
1F
100
AcDbEntity
  8
0
  6
Continuous
 62
     7
370
     0
100
AcDbLine
 10
55.1062204175
 20
115.3422266694
 30
0.0
 11
53.7408847593
 21
115.3422266694
 31
0.0
  0
LINE
  5
CD
330
1F
100
AcDbEntity
  8
0
  6
Continuous
 62
     7
370
     0
100
AcDbLine
 10
64.8910164599
 20
125.1422265528
 30
0.0
 11
38.8910159234
 21
125.1422265528
 31
0.0
  0
LINE
  5
CE
330
1F
100
AcDbEntity
  8
0
  6
Continuous
 62
     7
370
     0
100
AcDbLine
 10
49.5275539578
 20
114.8422266893
 30
0.0
 11
49.5275539578
 21
114.3422266801
 31
0.0
  0
LINE
  5
CF
330
1F
100
AcDbEntity
  8
0
  6
Continuous
 62
     7
370
     0
100
AcDbLine
 10
49.5275539578
 20
114.8422266893
 30
0.0
 11
49.2870173183
 21
114.8422266893
 31
0.0
  0
LINE
  5
D0
330
1F
100
AcDbEntity
  8
0
  6
Continuous
 62
     7
370
     0
100
AcDbLine
 10
49.2870173183
 20
114.8422266893
 30
0.0
 11
49.2870173183
 21
114.3422266801
 31
0.0
  0
LINE
  5
D1
330
1F
100
AcDbEntity
  8
0
  6
Continuous
 62
     7
370
     0
100
AcDbLine
 10
48.6755756427
 20
114.3422266801
 30
0.0
 11
48.6755756427
 21
115.3422266694
 31
0.0
  0
LINE
  5
D2
330
1F
100
AcDbEntity
  8
0
  6
Continuous
 62
     7
370
     0
100
AcDbLine
 10
49.7635529608
 20
114.3422266801
 30
0.0
 11
49.7635529608
 21
115.3422266694
 31
0.0
  0
LINE
  5
D3
330
1F
100
AcDbEntity
  8
0
  6
Continuous
 62
     7
370
     0
100
AcDbLine
 10
49.5275539578
 20
114.3422266801
 30
0.0
 11
49.7635529608
 21
114.3422266801
 31
0.0
  0
LINE
  5
D4
330
1F
100
AcDbEntity
  8
0
  6
Continuous
 62
     7
370
     0
100
AcDbLine
 10
48.6755756427
 20
115.3422266694
 30
0.0
 11
48.6758119658
 21
115.3422266694
 31
0.0
  0
LINE
  5
D5
330
1F
100
AcDbEntity
  8
0
  6
Continuous
 62
     7
370
     0
100
AcDbLine
 10
48.6755756427
 20
114.3422266801
 30
0.0
 11
49.2870173183
 21
114.3422266801
 31
0.0
  0
LINE
  5
D6
330
1F
100
AcDbEntity
  8
0
  6
Continuous
 62
     7
370
     0
100
AcDbLine
 10
45.2572213252
 20
114.3422266801
 30
0.0
 11
45.2572213252
 21
115.3422266694
 31
0.0
  0
LINE
  5
D7
330
1F
100
AcDbEntity
  8
0
  6
Continuous
 62
     7
370
     0
100
AcDbLine
 10
45.2572213252
 20
115.3422266694
 30
0.0
 11
48.6755756427
 21
115.3422266694
 31
0.0
  0
LINE
  5
D8
330
1F
100
AcDbEntity
  8
0
  6
Continuous
 62
     7
370
     0
100
AcDbLine
 10
45.2572213252
 20
114.3422266801
 30
0.0
 11
48.6755756427
 21
114.3422266801
 31
0.0
  0
LINE
  5
D9
330
1F
100
AcDbEntity
  8
0
  6
Continuous
 62
     7
370
     0
100
AcDbLine
 10
58.5248110582
 20
114.3422266801
 30
0.0
 11
58.5248110582
 21
115.3422266694
 31
0.0
  0
LINE
  5
DA
330
1F
100
AcDbEntity
  8
0
  6
Continuous
 62
     7
370
     0
100
AcDbLine
 10
55.1064567406
 20
114.3422266801
 30
0.0
 11
58.5248110582
 21
114.3422266801
 31
0.0
  0
LINE
  5
DB
330
1F
100
AcDbEntity
  8
0
  6
Continuous
 62
     7
370
     0
100
AcDbLine
 10
55.1064567406
 20
114.3422266801
 30
0.0
 11
55.1064567406
 21
115.3422266694
 31
0.0
  0
LINE
  5
DC
330
1F
100
AcDbEntity
  8
0
  6
Continuous
 62
     7
370
     0
100
AcDbLine
 10
55.1064567406
 20
115.3422266694
 30
0.0
 11
58.5248110582
 21
115.3422266694
 31
0.0
  0
LINE
  5
DD
330
1F
100
AcDbEntity
  8
0
  6
Continuous
 62
     7
370
     0
100
AcDbLine
 10
54.4950150651
 20
114.8422266893
 30
0.0
 11
54.4950150651
 21
114.3422266801
 31
0.0
  0
LINE
  5
DE
330
1F
100
AcDbEntity
  8
0
  6
Continuous
 62
     7
370
     0
100
AcDbLine
 10
54.4950150651
 20
114.8422266893
 30
0.0
 11
54.2544784256
 21
114.8422266893
 31
0.0
  0
LINE
  5
DF
330
1F
100
AcDbEntity
  8
0
  6
Continuous
 62
     7
370
     0
100
AcDbLine
 10
54.2544784256
 20
114.8422266893
 30
0.0
 11
54.2544784256
 21
114.3422266801
 31
0.0
  0
LINE
  5
E0
330
1F
100
AcDbEntity
  8
0
  6
Continuous
 62
     7
370
     0
100
AcDbLine
 10
54.0184794225
 20
114.3422266801
 30
0.0
 11
54.2544784256
 21
114.3422266801
 31
0.0
  0
LINE
  5
E1
330
1F
100
AcDbEntity
  8
0
  6
Continuous
 62
     7
370
     0
100
AcDbLine
 10
54.0184794225
 20
115.3422266694
 30
0.0
 11
54.0184794225
 21
114.3422266801
 31
0.0
  0
LINE
  5
E2
330
1F
100
AcDbEntity
  8
0
  6
Continuous
 62
     7
370
     0
100
AcDbLine
 10
55.1062204175
 20
115.3422266694
 30
0.0
 11
55.1064567406
 21
115.3422266694
 31
0.0
  0
LINE
  5
E3
330
1F
100
AcDbEntity
  8
0
  6
Continuous
 62
     7
370
     0
100
AcDbLine
 10
54.4950150651
 20
114.3422266801
 30
0.0
 11
55.1064567406
 21
114.3422266801
 31
0.0
  0
LINE
  5
E4
330
1F
100
AcDbEntity
  8
0
  6
Continuous
 62
     7
370
     0
100
AcDbLine
 10
44.0996567485
 20
114.3422266801
 30
0.0
 11
44.0996567485
 21
115.3422266694
 31
0.0
  0
LINE
  5
E5
330
1F
100
AcDbEntity
  8
0
  6
Continuous
 62
     7
370
     0
100
AcDbLine
 10
41.4833616231
 20
114.3422266801
 30
0.0
 11
44.0996567485
 21
114.3422266801
 31
0.0
  0
LINE
  5
E6
330
1F
100
AcDbEntity
  8
0
  6
Continuous
 62
     7
370
     0
100
AcDbLine
 10
41.4833616231
 20
114.3422266801
 30
0.0
 11
41.4833616231
 21
115.3422266694
 31
0.0
  0
LINE
  5
E7
330
1F
100
AcDbEntity
  8
0
  6
Continuous
 62
     7
370
     0
100
AcDbLine
 10
41.4833616231
 20
115.3422266694
 30
0.0
 11
44.0996567485
 21
115.3422266694
 31
0.0
  0
LINE
  5
E8
330
1F
100
AcDbEntity
  8
0
  6
Continuous
 62
     7
370
     0
100
AcDbLine
 10
44.0996567485
 20
114.3422266801
 30
0.0
 11
45.2572213252
 21
114.3422266801
 31
0.0
  0
LINE
  5
E9
330
1F
100
AcDbEntity
  8
0
  6
Continuous
 62
     7
370
     0
100
AcDbLine
 10
44.0996567485
 20
115.3422266694
 30
0.0
 11
44.1002253209
 21
115.3422266694
 31
0.0
  0
LINE
  5
EA
330
1F
100
AcDbEntity
  8
0
  6
Continuous
 62
     7
370
     0
100
AcDbLine
 10
62.2986707602
 20
114.3422266801
 30
0.0
 11
62.2986707602
 21
115.3422266694
 31
0.0
  0
LINE
  5
EB
330
1F
100
AcDbEntity
  8
0
  6
Continuous
 62
     7
370
     0
100
AcDbLine
 10
59.6823756349
 20
114.3422266801
 30
0.0
 11
59.6823756349
 21
115.3422266694
 31
0.0
  0
LINE
  5
EC
330
1F
100
AcDbEntity
  8
0
  6
Continuous
 62
     7
370
     0
100
AcDbLine
 10
59.6823756349
 20
115.3422266694
 30
0.0
 11
62.2986707602
 21
115.3422266694
 31
0.0
  0
LINE
  5
ED
330
1F
100
AcDbEntity
  8
0
  6
Continuous
 62
     7
370
     0
100
AcDbLine
 10
59.6823756349
 20
114.3422266801
 30
0.0
 11
62.2986707602
 21
114.3422266801
 31
0.0
  0
LINE
  5
EE
330
1F
100
AcDbEntity
  8
0
  6
Continuous
 62
     7
370
     0
100
AcDbLine
 10
59.6818070625
 20
115.3422266694
 30
0.0
 11
59.6823756349
 21
115.3422266694
 31
0.0
  0
LINE
  5
EF
330
1F
100
AcDbEntity
  8
0
  6
Continuous
 62
     7
370
     0
100
AcDbLine
 10
58.5248110582
 20
114.3422266801
 30
0.0
 11
59.6823756349
 21
114.3422266801
 31
0.0
  0
LINE
  5
F0
330
1F
100
AcDbEntity
  8
0
  6
Continuous
 62
     7
370
     0
100
AcDbLine
 10
49.2870173183
 20
114.3422266801
 30
0.0
 11
49.5275539578
 21
114.3422266801
 31
0.0
  0
LINE
  5
F1
330
1F
100
AcDbEntity
  8
0
  6
Continuous
 62
     7
370
     0
100
AcDbLine
 10
54.2544784256
 20
114.3422266801
 30
0.0
 11
54.4950150651
 21
114.3422266801
 31
0.0
  0
LINE
  5
F2
330
1F
100
AcDbEntity
  8
0
  6
Continuous
 62
     7
370
     0
100
AcDbLine
 10
49.76992344
 20
114.3422266801
 30
0.0
 11
49.7635529608
 21
114.3422266801
 31
0.0
  0
LINE
  5
F3
330
1F
100
AcDbEntity
  8
0
  6
Continuous
 62
     7
370
     0
100
AcDbLine
 10
54.0184794225
 20
114.3422266801
 30
0.0
 11
54.0121089433
 21
114.3422266801
 31
0.0
  0
LINE
  5
F4
330
1F
100
AcDbEntity
  8
0
  6
Continuous
 62
     7
370
     0
100
AcDbLine
 10
40.7099019502
 20
114.3422266801
 30
0.0
 11
40.7099019502
 21
115.3422266694
 31
0.0
  0
LINE
  5
F5
330
1F
100
AcDbEntity
  8
0
  6
Continuous
 62
     7
370
     0
100
AcDbLine
 10
39.2939731245
 20
114.3422266801
 30
0.0
 11
40.7099019502
 21
114.3422266801
 31
0.0
  0
LINE
  5
F6
330
1F
100
AcDbEntity
  8
0
  6
Continuous
 62
     7
370
     0
100
AcDbLine
 10
39.2939731245
 20
114.3422266801
 30
0.0
 11
39.2939731245
 21
115.3422266694
 31
0.0
  0
LINE
  5
F7
330
1F
100
AcDbEntity
  8
0
  6
Continuous
 62
     7
370
     0
100
AcDbLine
 10
39.2939731245
 20
115.3422266694
 30
0.0
 11
40.7099019502
 21
115.3422266694
 31
0.0
  0
LINE
  5
F8
330
1F
100
AcDbEntity
  8
0
  6
Continuous
 62
     7
370
     0
100
AcDbLine
 10
40.7099019502
 20
115.3422266694
 30
0.0
 11
40.7107149948
 21
115.3422266694
 31
0.0
  0
LINE
  5
F9
330
1F
100
AcDbEntity
  8
0
  6
Continuous
 62
     7
370
     0
100
AcDbLine
 10
40.7099019502
 20
114.3422266801
 30
0.0
 11
41.4833616231
 21
114.3422266801
 31
0.0
  0
LINE
  5
FA
330
1F
100
AcDbEntity
  8
0
  6
Continuous
 62
     7
370
     0
100
AcDbLine
 10
64.4880592589
 20
114.3422266801
 30
0.0
 11
64.4880592589
 21
115.3422266694
 31
0.0
  0
LINE
  5
FB
330
1F
100
AcDbEntity
  8
0
  6
Continuous
 62
     7
370
     0
100
AcDbLine
 10
63.0721304332
 20
114.3422266801
 30
0.0
 11
64.4880592589
 21
114.3422266801
 31
0.0
  0
LINE
  5
FC
330
1F
100
AcDbEntity
  8
0
  6
Continuous
 62
     7
370
     0
100
AcDbLine
 10
63.0721304332
 20
114.3422266801
 30
0.0
 11
63.0721304332
 21
115.3422266694
 31
0.0
  0
LINE
  5
FD
330
1F
100
AcDbEntity
  8
0
  6
Continuous
 62
     7
370
     0
100
AcDbLine
 10
63.0721304332
 20
115.3422266694
 30
0.0
 11
64.4880592589
 21
115.3422266694
 31
0.0
  0
LINE
  5
FE
330
1F
100
AcDbEntity
  8
0
  6
Continuous
 62
     7
370
     0
100
AcDbLine
 10
62.2986707602
 20
114.3422266801
 30
0.0
 11
63.0721304332
 21
114.3422266801
 31
0.0
  0
LINE
  5
FF
330
1F
100
AcDbEntity
  8
0
  6
Continuous
 62
     7
370
     0
100
AcDbLine
 10
63.0713173885
 20
115.3422266694
 30
0.0
 11
63.0721304332
 21
115.3422266694
 31
0.0
  0
LINE
  5
100
330
1F
100
AcDbEntity
  8
0
  6
Continuous
 62
     7
370
     0
100
AcDbLine
 10
39.0223696594
 20
114.3422266801
 30
0.0
 11
39.2939731245
 21
114.3422266801
 31
0.0
  0
LINE
  5
101
330
1F
100
AcDbEntity
  8
0
  6
Continuous
 62
     7
370
     0
100
AcDbLine
 10
39.0223696594
 20
114.3422266801
 30
0.0
 11
39.0223696594
 21
115.3422266694
 31
0.0
  0
LINE
  5
102
330
1F
100
AcDbEntity
  8
0
  6
Continuous
 62
     7
370
     0
100
AcDbLine
 10
39.0223696594
 20
115.3422266694
 30
0.0
 11
39.0233056386
 21
115.3422266694
 31
0.0
  0
LINE
  5
103
330
1F
100
AcDbEntity
  8
0
  6
Continuous
 62
     7
370
     0
100
AcDbLine
 10
38.8789077987
 20
115.3422266694
 30
0.0
 11
39.0223696594
 21
115.3422266694
 31
0.0
  0
LINE
  5
104
330
1F
100
AcDbEntity
  8
0
  6
Continuous
 62
     7
370
     0
100
AcDbLine
 10
38.8789077987
 20
114.3422266801
 30
0.0
 11
39.0223696594
 21
114.3422266801
 31
0.0
  0
LINE
  5
105
330
1F
100
AcDbEntity
  8
0
  6
Continuous
 62
     7
370
     0
100
AcDbLine
 10
64.759662724
 20
114.3422266801
 30
0.0
 11
64.9031245847
 21
114.3422266801
 31
0.0
  0
LINE
  5
106
330
1F
100
AcDbEntity
  8
0
  6
Continuous
 62
     7
370
     0
100
AcDbLine
 10
64.759662724
 20
114.3422266801
 30
0.0
 11
64.759662724
 21
115.3422266694
 31
0.0
  0
LINE
  5
107
330
1F
100
AcDbEntity
  8
0
  6
Continuous
 62
     7
370
     0
100
AcDbLine
 10
64.759662724
 20
115.3422266694
 30
0.0
 11
64.9031245847
 21
115.3422266694
 31
0.0
  0
LINE
  5
108
330
1F
100
AcDbEntity
  8
0
  6
Continuous
 62
     7
370
     0
100
AcDbLine
 10
64.4880592589
 20
114.3422266801
 30
0.0
 11
64.759662724
 21
114.3422266801
 31
0.0
  0
LINE
  5
109
330
1F
100
AcDbEntity
  8
0
  6
Continuous
 62
     7
370
     0
100
AcDbLine
 10
64.7587267448
 20
115.3422266694
 30
0.0
 11
64.759662724
 21
115.3422266694
 31
0.0
  0
LINE
  5
10A
330
1F
100
AcDbEntity
  8
0
  6
Continuous
 62
     7
370
     0
100
AcDbLine
 10
51.8910161917
 20
150.8422285302
 30
0.0
 11
64.5910160382
 21
150.8422285302
 31
0.0
  0
LINE
  5
10B
330
1F
100
AcDbEntity
  8
0
  6
Continuous
 62
     7
370
     0
100
AcDbLine
 10
39.1910163452
 20
150.8422285302
 30
0.0
 11
51.8910161917
 21
150.8422285302
 31
0.0
  0
LINE
  5
10C
330
1F
100
AcDbEntity
  8
0
  6
Continuous
 62
     7
370
     0
100
AcDbLine
 10
51.8910161917
 20
150.5422271772
 30
0.0
 11
38.8910159234
 21
150.5422271772
 31
0.0
  0
LINE
  5
10D
330
1F
100
AcDbEntity
  8
0
  6
Continuous
 62
     7
370
     0
100
AcDbLine
 10
64.8910164599
 20
150.5422271772
 30
0.0
 11
51.8910161917
 21
150.5422271772
 31
0.0
  0
LINE
  5
10E
330
1F
100
AcDbEntity
  8
0
  6
Continuous
 62
     7
370
     0
100
AcDbLine
 10
56.8910160799
 20
139.6422270669
 30
0.0
 11
56.3410160829
 21
139.6422270669
 31
0.0
  0
LINE
  5
10F
330
1F
100
AcDbEntity
  8
0
  6
Continuous
 62
     7
370
     0
100
AcDbLine
 10
47.4410163004
 20
139.6422270669
 30
0.0
 11
46.8910163034
 21
139.6422270669
 31
0.0
  0
LINE
  5
110
330
1F
100
AcDbEntity
  8
0
  6
Continuous
 62
     7
370
     0
100
AcDbLine
 10
46.8910163034
 20
139.6422270669
 30
0.0
 11
46.8910163034
 21
127.6422269626
 31
0.0
  0
LINE
  5
111
330
1F
100
AcDbEntity
  8
0
  6
Continuous
 62
     7
370
     0
100
AcDbLine
 10
56.8910160799
 20
127.6422269626
 30
0.0
 11
56.8910160799
 21
139.6422270669
 31
0.0
  0
LINE
  5
112
330
1F
100
AcDbEntity
  8
0
  6
Continuous
 62
     7
370
     0
100
AcDbLine
 10
64.8910164599
 20
139.6422270669
 30
0.0
 11
63.891016296
 21
139.6422270669
 31
0.0
  0
LINE
  5
113
330
1F
100
AcDbEntity
  8
0
  6
Continuous
 62
     7
370
     0
100
AcDbLine
 10
63.891016296
 20
139.6422270669
 30
0.0
 11
63.891016296
 21
127.6422269626
 31
0.0
  0
LINE
  5
114
330
1F
100
AcDbEntity
  8
0
  6
Continuous
 62
     7
370
     0
100
AcDbLine
 10
64.8910164599
 20
127.6422269626
 30
0.0
 11
63.891016296
 21
127.6422269626
 31
0.0
  0
LINE
  5
115
330
1F
100
AcDbEntity
  8
0
  6
Continuous
 62
     7
370
     0
100
AcDbLine
 10
39.8910160874
 20
139.6422270669
 30
0.0
 11
38.8910159234
 21
139.6422270669
 31
0.0
  0
LINE
  5
116
330
1F
100
AcDbEntity
  8
0
  6
Continuous
 62
     7
370
     0
100
AcDbLine
 10
39.8910160874
 20
127.6422269626
 30
0.0
 11
38.8910159234
 21
127.6422269626
 31
0.0
  0
LINE
  5
117
330
1F
100
AcDbEntity
  8
0
  6
Continuous
 62
     7
370
     0
100
AcDbLine
 10
39.8910160874
 20
127.6422269626
 30
0.0
 11
39.8910160874
 21
139.6422270669
 31
0.0
  0
LINE
  5
118
330
1F
100
AcDbEntity
  8
0
  6
Continuous
 62
     7
370
     0
100
AcDbLine
 10
38.8910159234
 20
125.4422269745
 30
0.0
 11
64.8910164599
 21
125.4422269745
 31
0.0
  0
LINE
  5
119
330
1F
100
AcDbEntity
  8
0
  6
Continuous
 62
     7
370
     0
100
AcDbLine
 10
56.8910160799
 20
127.6422269626
 30
0.0
 11
46.8910163034
 21
127.6422269626
 31
0.0
  0
LINE
  5
11A
330
1F
100
AcDbEntity
  8
0
  6
Continuous
 62
     7
370
     0
100
AcDbLine
 10
54.0121089433
 20
114.6422266944
 30
0.0
 11
53.7410161922
 21
114.6422266944
 31
0.0
  0
LINE
  5
11B
330
1F
100
AcDbEntity
  8
0
  6
Continuous
 62
     7
370
     0
100
AcDbLine
 10
50.0410161911
 20
114.6422266944
 30
0.0
 11
49.76992344
 21
114.6422266944
 31
0.0
  0
LINE
  5
11C
330
1F
100
AcDbEntity
  8
0
  6
Continuous
 62
     7
370
     0
100
AcDbLine
 10
49.76992344
 20
114.9422267086
 30
0.0
 11
50.0410161911
 21
114.9422267086
 31
0.0
  0
LINE
  5
11D
330
1F
100
AcDbEntity
  8
0
  6
Continuous
 62
     7
370
     0
100
AcDbLine
 10
53.7410161922
 20
114.9422267086
 30
0.0
 11
54.0121089433
 21
114.9422267086
 31
0.0
  0
SPLINE
  5
11E
330
1F
100
AcDbEntity
  8
0
  6
Continuous
 62
     7
370
     0
100
AcDbSpline
210
0.0
220
0.0
230
1.0
 70
     8
 71
     3
 72
     9
 73
     5
 74
     0
 42
0.00000001
 43
0.00000001
 40
0.0
 40
0.0
 40
0.0
 40
0.0
 40
0.4946841106391117
 40
1.0
 40
1.0
 40
1.0
 40
1.0
 10
51.89101619166965
 20
162.8422267718431
 30
0.0
 10
51.32909005824246
 20
162.819475455109
 30
0.0
 10
50.19316084333158
 20
162.7734838490622
 30
0.0
 10
49.09289572899269
 20
162.4869937551583
 30
0.0
 10
48.53691428420777
 20
162.3422257585642
 30
0.0
  0
SPLINE
  5
11F
330
1F
100
AcDbEntity
  8
0
  6
Continuous
 62
     7
370
     0
100
AcDbSpline
210
0.0
220
0.0
230
1.0
 70
     8
 71
     3
 72
     9
 73
     5
 74
     0
 42
0.00000001
 43
0.00000001
 40
0.0
 40
0.0
 40
0.0
 40
0.0
 40
0.495131422291066
 40
1.0
 40
1.0
 40
1.0
 40
1.0
 10
55.24511809913154
 20
162.3422257585642
 30
0.0
 10
54.7004814629685
 20
162.484414280799
 30
0.0
 10
53.60049747560027
 20
162.7715875762785
 30
0.0
 10
52.46453031590769
 20
162.8185280178633
 30
0.0
 10
51.89101619166965
 20
162.8422267718431
 30
0.0
  0
LINE
  5
120
330
1F
100
AcDbEntity
  8
0
  6
Continuous
 62
     7
370
     0
100
AcDbLine
 10
55.2451180991
 20
151.8422268314
 30
0.0
 11
55.2451180991
 21
162.3422257586
 31
0.0
  0
SPLINE
  5
121
330
1F
100
AcDbEntity
  8
0
  6
Continuous
 62
     7
370
     0
100
AcDbSpline
210
0.0
220
0.0
230
1.0
 70
     8
 71
     3
 72
     9
 73
     5
 74
     0
 42
0.00000001
 43
0.00000001
 40
0.0
 40
0.0
 40
0.0
 40
0.0
 40
0.4946841106391112
 40
0.9999999999999999
 40
0.9999999999999999
 40
0.9999999999999999
 40
0.9999999999999999
 10
51.89101619166977
 20
151.3422258181689
 30
0.0
 10
52.45294232509695
 20
151.364977134903
 30
0.0
 10
53.58887154000784
 20
151.4109687409498
 30
0.0
 10
54.68913665434673
 20
151.6974588348537
 30
0.0
 10
55.24511809913164
 20
151.8422268314478
 30
0.0
  0
SPLINE
  5
122
330
1F
100
AcDbEntity
  8
0
  6
Continuous
 62
     7
370
     0
100
AcDbSpline
210
0.0
220
0.0
230
1.0
 70
     8
 71
     3
 72
     9
 73
     5
 74
     0
 42
0.00000001
 43
0.00000001
 40
0.0
 40
0.0
 40
0.0
 40
0.0
 40
0.4951312596405544
 40
1.0
 40
1.0
 40
1.0
 40
1.0
 10
48.53691428420788
 20
151.8422268314478
 30
0.0
 10
49.08155101145491
 20
151.7000401593638
 30
0.0
 10
50.18153554412693
 20
151.4128705062353
 30
0.0
 10
51.31750215815502
 20
151.3659264199028
 30
0.0
 10
51.89101619166978
 20
151.3422258181688
 30
0.0
  0
LINE
  5
123
330
1F
100
AcDbEntity
  8
0
  6
Continuous
 62
     7
370
     0
100
AcDbLine
 10
48.5369142842
 20
162.3422257586
 30
0.0
 11
48.5369142842
 21
151.8422268314
 31
0.0
  0
LINE
  5
124
330
1F
100
AcDbEntity
  8
0
  6
Continuous
 62
     7
370
     0
100
AcDbLine
 10
51.8910161917
 20
162.8422267718
 30
0.0
 11
62.8910161321
 21
162.8422267718
 31
0.0
  0
LINE
  5
125
330
1F
100
AcDbEntity
  8
0
  6
Continuous
 62
     7
370
     0
100
AcDbLine
 10
63.391016214
 20
162.3422257586
 30
0.0
 11
55.2451180991
 21
162.3422257586
 31
0.0
  0
LINE
  5
126
330
1F
100
AcDbEntity
  8
0
  6
Continuous
 62
     7
370
     0
100
AcDbLine
 10
40.8910162513
 20
162.8422267718
 30
0.0
 11
51.8910161917
 21
162.8422267718
 31
0.0
  0
LINE
  5
127
330
1F
100
AcDbEntity
  8
0
  6
Continuous
 62
     7
370
     0
100
AcDbLine
 10
48.5369142842
 20
162.3422257586
 30
0.0
 11
40.3910161693
 21
162.3422257586
 31
0.0
  0
LINE
  5
128
330
1F
100
AcDbEntity
  8
0
  6
Continuous
 62
     7
370
     0
100
AcDbLine
 10
55.2451180991
 20
151.8422268314
 30
0.0
 11
63.391016214
 21
151.8422268314
 31
0.0
  0
LINE
  5
129
330
1F
100
AcDbEntity
  8
0
  6
Continuous
 62
     7
370
     0
100
AcDbLine
 10
40.3910161693
 20
151.8422268314
 30
0.0
 11
48.5369142842
 21
151.8422268314
 31
0.0
  0
LINE
  5
12A
330
1F
100
AcDbEntity
  8
0
  6
Continuous
 62
     7
370
     0
100
AcDbLine
 10
62.8910161321
 20
151.3422258182
 30
0.0
 11
51.8910161917
 21
151.3422258182
 31
0.0
  0
LINE
  5
12B
330
1F
100
AcDbEntity
  8
0
  6
Continuous
 62
     7
370
     0
100
AcDbLine
 10
51.8910161917
 20
151.3422258182
 30
0.0
 11
40.8910162513
 21
151.3422258182
 31
0.0
  0
LINE
  5
12C
330
1F
100
AcDbEntity
  8
0
  6
Continuous
 62
     7
370
     0
100
AcDbLine
 10
61.8910159682
 20
182.3422253115
 30
0.0
 11
41.8910164152
 21
182.3422253115
 31
0.0
  0
LINE
  5
12D
330
1F
100
AcDbEntity
  8
0
  6
Continuous
 62
     7
370
     0
100
AcDbLine
 10
42.3910164971
 20
182.8422263248
 30
0.0
 11
61.3910158862
 21
182.8422263248
 31
0.0
  0
LINE
  5
12E
330
1F
100
AcDbEntity
  8
0
  6
Continuous
 62
     8
370
     0
100
AcDbLine
 10
47.9410163824
 20
196.0422262533
 30
0.0
 11
55.8410160009
 21
196.0422262533
 31
0.0
  0
LINE
  5
12F
330
1F
100
AcDbEntity
  8
0
  6
Continuous
 62
     8
370
     0
100
AcDbLine
 10
47.3410160047
 20
146.942225842
 30
0.0
 11
56.4410163787
 21
146.942225842
 31
0.0
  0
DIMENSION
  5
130
330
1F
100
AcDbEntity
  8
0
  6
Continuous
 62
     7
370
     0
100
AcDbDimension
  2
*D2
 10
28.8789082228
 20
162.8422266944
 30
0.0
 11
28.8789082228
 21
172.8422266944
 31
0.0
 70
   160
 71
     2
 42
-1.0
  3
SLDDIMSTYLE0
100
AcDbAlignedDimension
 13
42.3910161917
 23
182.8422266944
 33
0.0
 14
40.8910161917
 24
162.8422266944
 34
0.0
 50
90.0
100
AcDbRotatedDimension
  0
DIMENSION
  5
141
330
1F
100
AcDbEntity
  8
0
  6
Continuous
 62
     7
370
     0
100
AcDbDimension
  2
*D3
 10
86.9031241605
 20
114.3422266944
 30
0.0
 11
86.9031241605
 21
155.4422266944
 31
0.0
 70
   160
  1
(82.5)
 71
     2
 42
-1.0
  3
SLDDIMSTYLE0
100
AcDbAlignedDimension
 13
55.3410161917
 23
196.5422266944
 33
0.0
 14
64.4880594226
 24
114.3422266944
 34
0.0
 50
90.0
100
AcDbRotatedDimension
  0
DIMENSION
  5
14B
330
1F
100
AcDbEntity
  8
0
  6
Continuous
 62
     7
370
     0
100
AcDbDimension
  2
*D4
 10
64.8910161917
 20
96.7410904794
 30
0.0
 11
51.8910161917
 21
96.7410904794
 31
0.0
 70
   160
  1
%%c<>
 71
     2
 42
-1.0
  3
SLDDIMSTYLE0
100
AcDbAlignedDimension
 13
38.8910161917
 23
115.3422266944
 33
0.0
 14
64.8910161917
 24
115.3422266944
 34
0.0
 50
0.0
100
AcDbRotatedDimension
  0
DIMENSION
  5
156
330
1F
100
AcDbEntity
  8
0
  6
Continuous
 62
     7
370
     0
100
AcDbDimension
  2
*D5
 10
63.8910161917
 20
106.2060397718
 30
0.0
 11
51.8910161917
 21
106.2060397718
 31
0.0
 70
   160
 71
     2
 42
-1.0
  3
SLDDIMSTYLE0
100
AcDbAlignedDimension
 13
39.8910161917
 23
127.6422266944
 33
0.0
 14
63.8910161917
 24
127.6422266944
 34
0.0
 50
0.0
100
AcDbRotatedDimension
  0
DIMENSION
  5
160
330
1F
100
AcDbEntity
  8
0
  6
Continuous
 62
     7
370
     0
100
AcDbDimension
  2
*D6
 10
74.9031241605
 20
114.3422266944
 30
0.0
 11
74.9031241605
 21
148.5922266944
 31
0.0
 70
   160
 71
     2
 42
-1.0
  3
SLDDIMSTYLE0
100
AcDbAlignedDimension
 13
61.3910161917
 23
182.8422266944
 33
0.0
 14
64.4880594226
 24
114.3422266944
 34
0.0
 50
90.0
100
AcDbRotatedDimension
  0
DIMENSION
  5
16A
330
1F
100
AcDbEntity
  8
0
  6
Continuous
 62
     7
370
     0
100
AcDbDimension
  2
*D7
 10
61.8910161917
 20
209.6529068119
 30
0.0
 11
51.8910161917
 21
209.6529068119
 31
0.0
 70
   160
  1
%%c<>
 71
     2
 42
-1.0
  3
SLDDIMSTYLE0
100
AcDbAlignedDimension
 13
41.8910161917
 23
182.3422266944
 33
0.0
 14
61.8910161917
 24
182.3422266944
 34
0.0
 50
0.0
100
AcDbRotatedDimension
  0
LINE
  5
175
330
1F
100
AcDbEntity
  8
0
  6
Continuous
 62
     7
370
     0
100
AcDbLine
 10
48.3910160836
 20
240.7086913856
 30
0.0
 11
48.3910160836
 21
240.3286745223
 31
0.0
  0
LINE
  5
176
330
1F
100
AcDbEntity
  8
0
  6
Continuous
 62
     7
370
     0
100
AcDbLine
 10
55.3910162997
 20
240.3286745223
 30
0.0
 11
55.3910162997
 21
240.7086913856
 31
0.0
  0
LINE
  5
177
330
1F
100
AcDbEntity
  8
0
  6
Continuous
 62
     7
370
     0
100
AcDbLine
 10
48.3910160836
 20
235.0286742124
 30
0.0
 11
48.3910160836
 21
233.4901293191
 31
0.0
  0
LINE
  5
178
330
1F
100
AcDbEntity
  8
0
  6
Continuous
 62
     7
370
     0
100
AcDbLine
 10
55.3910162997
 20
233.4901293191
 30
0.0
 11
55.3910162997
 21
235.0286742124
 31
0.0
  0
SPLINE
  5
179
330
1F
100
AcDbEntity
  8
0
  6
Continuous
 62
     7
370
     0
100
AcDbSpline
210
0.0
220
0.0
230
1.0
 70
     8
 71
     3
 72
    25
 73
    21
 74
     0
 42
0.00000001
 43
0.00000001
 40
0.0
 40
0.0
 40
0.0
 40
0.0
 40
0.0599916998723794
 40
0.1199827395260913
 40
0.1849450030750669
 40
0.2499567504733808
 40
0.3149190324807289
 40
0.3472892251821949
 40
0.3800159308705481
 40
0.4399832414903924
 40
0.4999995494502082
 40
0.5599668732982017
 40
0.6199831900758833
 40
0.6849454536248588
 40
0.7499572010231728
 40
0.8149194830305208
 40
0.8472896757319868
 40
0.88001638142034
 40
0.9399836920401842
 40
1.0
 40
1.0
 40
1.0
 40
1.0
 10
48.4410162315299
 20
253.2286749603889
 30
0.0
 10
48.45256655457506
 20
253.4454948717003
 30
0.0
 10
48.47566707355213
 20
253.879132308184
 30
0.0
 10
48.67131783205107
 20
254.5231912773148
 30
0.0
 10
48.98564054303028
 20
255.1367329205902
 30
0.0
 10
49.43492408985701
 20
255.6845360111151
 30
0.0
 10
49.89126352904925
 20
256.0584672177232
 30
0.0
 10
50.29708508304475
 20
256.2956192643851
 30
0.0
 10
50.70842726249296
 20
256.4826449120382
 30
0.0
 10
51.24053901726785
 20
256.6388036469349
 30
0.0
 10
51.89081735716366
 20
256.6986129905806
 30
0.0
 10
52.54140363942552
 20
256.638793930846
 30
0.0
 10
53.18544544806915
 20
256.4499523291913
 30
0.0
 10
53.79906866125965
 20
256.1336239652907
 30
0.0
 10
54.34690464531561
 20
255.6848838831187
 30
0.0
 10
54.72072639774783
 20
255.2284131391335
 30
0.0
 10
54.9581028003495
 20
254.8226089134864
 30
0.0
 10
55.14424330485431
 20
254.4112616653159
 30
0.0
 10
55.30659085609967
 20
253.8791585266518
 30
0.0
 10
55.32953792963049
 20
253.4455618379903
 30
0.0
 10
55.34101615180869
 20
253.2286749603889
 30
0.0
  0
SPLINE
  5
17A
330
1F
100
AcDbEntity
  8
0
  6
Continuous
 62
     7
370
     0
100
AcDbSpline
210
0.0
220
0.0
230
1.0
 70
     8
 71
     3
 72
    25
 73
    21
 74
     0
 42
0.00000001
 43
0.00000001
 40
0.0
 40
0.0
 40
0.0
 40
0.0
 40
0.0599916998723794
 40
0.1199827395260913
 40
0.1849450030750668
 40
0.2499567504733808
 40
0.3149190324807288
 40
0.3472892251821949
 40
0.3800159308705481
 40
0.4399832414903924
 40
0.4999995494502082
 40
0.5599668732982016
 40
0.6199831900758832
 40
0.6849454536248587
 40
0.7499572010231726
 40
0.8149194830305208
 40
0.8472896757319868
 40
0.8800163814203399
 40
0.9399836920401842
 40
1.0
 40
1.0
 40
1.0
 40
1.0
 10
55.34101615180869
 20
253.2286749603889
 30
0.0
 10
55.32946582876354
 20
253.0118550490774
 30
0.0
 10
55.30636530978646
 20
252.5782176125937
 30
0.0
 10
55.11071455128753
 20
251.9341586434629
 30
0.0
 10
54.79639184030832
 20
251.3206170001875
 30
0.0
 10
54.34710829348158
 20
250.7728139096626
 30
0.0
 10
53.89076885428934
 20
250.3988827030545
 30
0.0
 10
53.48494730029385
 20
250.1617306563926
 30
0.0
 10
53.07360512084563
 20
249.9747050087395
 30
0.0
 10
52.54149336607075
 20
249.8185462738428
 30
0.0
 10
51.89121502617493
 20
249.7587369301971
 30
0.0
 10
51.24062874391306
 20
249.8185559899317
 30
0.0
 10
50.59658693526944
 20
250.0073975915864
 30
0.0
 10
49.98296372207894
 20
250.323725955487
 30
0.0
 10
49.43512773802298
 20
250.772466037659
 30
0.0
 10
49.06130598559076
 20
251.2289367816442
 30
0.0
 10
48.82392958298909
 20
251.6347410072912
 30
0.0
 10
48.63778907848427
 20
252.0460882554618
 30
0.0
 10
48.47544152723892
 20
252.5781913941259
 30
0.0
 10
48.45249445370811
 20
253.0117880827874
 30
0.0
 10
48.4410162315299
 20
253.2286749603889
 30
0.0
  0
SPLINE
  5
17B
330
1F
100
AcDbEntity
  8
0
  6
Continuous
 62
     7
370
     0
100
AcDbSpline
210
0.0
220
0.0
230
1.0
 70
     8
 71
     3
 72
    19
 73
    15
 74
     0
 42
0.00000001
 43
0.00000001
 40
0.0
 40
0.0
 40
0.0
 40
0.0
 40
0.1197214680467233
 40
0.1848264981955458
 40
0.2499999676196056
 40
0.3151050148853445
 40
0.3802785319532767
 40
0.5
 40
0.6197214680467233
 40
0.684826498195546
 40
0.7499999676196056
 40
0.8151050148853446
 40
0.8802785319532768
 40
1.0
 40
1.0
 40
1.0
 40
1.0
 10
51.89101619166929
 20
250.7286750162682
 30
0.0
 10
52.2053771463236
 20
250.7622521789161
 30
0.0
 10
52.690688890041
 20
250.8140887416714
 30
0.0
 10
53.27348118119485
 20
251.1253322075667
 30
0.0
 10
53.6706722776177
 20
251.4483296426937
 30
0.0
 10
53.99589599726461
 20
251.8461667621115
 30
0.0
 10
54.29730587410108
 20
252.4287672938755
 30
0.0
 10
54.45169444555297
 20
253.2286740748362
 30
0.0
 10
54.29734083447399
 20
254.0284055180951
 30
0.0
 10
53.99599500439617
 20
254.6110255464001
 30
0.0
 10
53.67092422123622
 20
255.0087687528876
 30
0.0
 10
53.27363881412207
 20
255.3319196742682
 30
0.0
 10
52.69086622715805
 20
255.643236622855
 30
0.0
 10
52.20537616622789
 20
255.6950956398279
 30
0.0
 10
51.89101619166929
 20
255.7286749045095
 30
0.0
  0
SPLINE
  5
17C
330
1F
100
AcDbEntity
  8
0
  6
Continuous
 62
     7
370
     0
100
AcDbSpline
210
0.0
220
0.0
230
1.0
 70
     8
 71
     3
 72
    19
 73
    15
 74
     0
 42
0.00000001
 43
0.00000001
 40
0.0
 40
0.0
 40
0.0
 40
0.0
 40
0.1197214680467233
 40
0.1848264981955459
 40
0.2499999676196056
 40
0.3151050148853446
 40
0.3802785319532768
 40
0.5000000000000001
 40
0.6197214680467233
 40
0.684826498195546
 40
0.7499999676196056
 40
0.8151050148853446
 40
0.8802785319532768
 40
1.0
 40
1.0
 40
1.0
 40
1.0
 10
51.89101619166929
 20
255.7286749045095
 30
0.0
 10
51.576655237015
 20
255.6950977418616
 30
0.0
 10
51.09134349329759
 20
255.6432611791062
 30
0.0
 10
50.50855120214374
 20
255.332017713211
 30
0.0
 10
50.11136010572089
 20
255.0090202780839
 30
0.0
 10
49.78613638607398
 20
254.6111831586662
 30
0.0
 10
49.4847265092375
 20
254.0285826269021
 30
0.0
 10
49.33033793778562
 20
253.2286758459415
 30
0.0
 10
49.4846915488646
 20
252.4289444026825
 30
0.0
 10
49.78603737894242
 20
251.8463243743775
 30
0.0
 10
50.11110816210238
 20
251.4485811678901
 30
0.0
 10
50.50839356921653
 20
251.1254302465095
 30
0.0
 10
51.09116615618054
 20
250.8141132979227
 30
0.0
 10
51.57665621711071
 20
250.7622542809498
 30
0.0
 10
51.89101619166929
 20
250.7286750162682
 30
0.0
  0
CIRCLE
  5
17D
330
1F
100
AcDbEntity
  8
0
  6
Continuous
 62
     7
370
     0
100
AcDbCircle
 10
51.8910161917
 20
253.2286749604
 30
0.0
 40
3.949999999999996
  0
CIRCLE
  5
17E
330
1F
100
AcDbEntity
  8
0
  6
Continuous
 62
     7
370
     0
100
AcDbCircle
 10
51.8910161917
 20
253.2286749604
 30
0.0
 40
2.0
  0
LINE
  5
17F
330
1F
100
AcDbEntity
  8
0
  6
Continuous
 62
     7
370
     0
100
AcDbLine
 10
47.8910160017
 20
255.5380760143
 30
0.0
 11
47.8910160017
 21
250.9192739065
 31
0.0
  0
LINE
  5
180
330
1F
100
AcDbEntity
  8
0
  6
Continuous
 62
     7
370
     0
100
AcDbLine
 10
51.8910161917
 20
257.8474770683
 30
0.0
 11
47.8910160017
 21
255.5380760143
 31
0.0
  0
LINE
  5
181
330
1F
100
AcDbEntity
  8
0
  6
Continuous
 62
     7
370
     0
100
AcDbLine
 10
51.8910161917
 20
248.6098728525
 30
0.0
 11
55.8910163817
 21
250.9192739065
 31
0.0
  0
LINE
  5
182
330
1F
100
AcDbEntity
  8
0
  6
Continuous
 62
     7
370
     0
100
AcDbLine
 10
47.8910160017
 20
250.9192739065
 30
0.0
 11
51.8910161917
 21
248.6098728525
 31
0.0
  0
LINE
  5
183
330
1F
100
AcDbEntity
  8
0
  6
Continuous
 62
     7
370
     0
100
AcDbLine
 10
55.8910163817
 20
250.9192739065
 30
0.0
 11
55.8910163817
 21
255.5380760143
 31
0.0
  0
LINE
  5
184
330
1F
100
AcDbEntity
  8
0
  6
Continuous
 62
     7
370
     0
100
AcDbLine
 10
55.8910163817
 20
255.5380760143
 30
0.0
 11
51.8910161917
 21
257.8474770683
 31
0.0
  0
CIRCLE
  5
185
330
1F
100
AcDbEntity
  8
0
  6
Continuous
 62
     7
370
     0
100
AcDbCircle
 10
51.8910161917
 20
253.2286749604
 30
0.0
 40
0.8000000000000043
  0
CIRCLE
  5
186
330
1F
100
AcDbEntity
  8
0
  6
Continuous
 62
     7
370
     0
100
AcDbCircle
 10
51.8910161917
 20
230.4286749604
 30
0.0
 40
4.550000000000004
  0
CIRCLE
  5
187
330
1F
100
AcDbEntity
  8
0
  6
Continuous
 62
     7
370
     0
100
AcDbCircle
 10
51.8910161917
 20
230.4286749604
 30
0.0
 40
4.050000000000004
  0
CIRCLE
  5
188
330
1F
100
AcDbEntity
  8
0
  6
Continuous
 62
     7
370
     0
100
AcDbCircle
 10
51.8910161917
 20
230.4286749604
 30
0.0
 40
2.5
  0
CIRCLE
  5
189
330
1F
100
AcDbEntity
  8
0
  6
Continuous
 62
     7
370
     0
100
AcDbCircle
 10
51.8910161917
 20
230.4286749604
 30
0.0
 40
2.0
  0
CIRCLE
  5
18A
330
1F
100
AcDbEntity
  8
0
  6
Continuous
 62
     7
370
     0
100
AcDbCircle
 10
51.8910161917
 20
230.4286749604
 30
0.0
 40
4.650000000000006
  0
LINE
  5
18B
330
1F
100
AcDbEntity
  8
0
  6
Continuous
 62
     7
370
     0
100
AcDbLine
 10
51.8910161917
 20
235.0786750587
 30
0.0
 11
51.8910161917
 21
240.2286746922
 31
0.0
  0
LINE
  5
18C
330
1F
100
AcDbEntity
  8
0
  6
Continuous
 62
     7
370
     0
100
AcDbLine
 10
53.6410162457
 20
240.3286745223
 30
0.0
 11
53.5003638359
 21
240.3286745223
 31
0.0
  0
LINE
  5
18D
330
1F
100
AcDbEntity
  8
0
  6
Continuous
 62
     7
370
     0
100
AcDbLine
 10
55.3910162997
 20
240.3286745223
 30
0.0
 11
53.6410162457
 21
240.3286745223
 31
0.0
  0
LINE
  5
18E
330
1F
100
AcDbEntity
  8
0
  6
Continuous
 62
     7
370
     0
100
AcDbLine
 10
55.3910162997
 20
235.0286742124
 30
0.0
 11
55.3910162997
 21
240.3286745223
 31
0.0
  0
LINE
  5
18F
330
1F
100
AcDbEntity
  8
0
  6
Continuous
 62
     7
370
     0
100
AcDbLine
 10
55.3910162997
 20
235.0286742124
 30
0.0
 11
53.6410162457
 21
235.0286742124
 31
0.0
  0
LINE
  5
190
330
1F
100
AcDbEntity
  8
0
  6
Continuous
 62
     7
370
     0
100
AcDbLine
 10
53.6410162457
 20
235.0286742124
 30
0.0
 11
52.5710897053
 21
235.0286742124
 31
0.0
  0
LINE
  5
191
330
1F
100
AcDbEntity
  8
0
  6
Continuous
 62
     7
370
     0
100
AcDbLine
 10
48.3910160836
 20
235.0286742124
 30
0.0
 11
48.3910160836
 21
240.3286745223
 31
0.0
  0
LINE
  5
192
330
1F
100
AcDbEntity
  8
0
  6
Continuous
 62
     7
370
     0
100
AcDbLine
 10
50.1410161377
 20
240.3286745223
 30
0.0
 11
48.3910160836
 21
240.3286745223
 31
0.0
  0
LINE
  5
193
330
1F
100
AcDbEntity
  8
0
  6
Continuous
 62
     7
370
     0
100
AcDbLine
 10
50.1410161377
 20
235.0286742124
 30
0.0
 11
48.3910160836
 21
235.0286742124
 31
0.0
  0
LINE
  5
194
330
1F
100
AcDbEntity
  8
0
  6
Continuous
 62
     7
370
     0
100
AcDbLine
 10
51.210942678
 20
235.0286742124
 30
0.0
 11
50.1410161377
 21
235.0286742124
 31
0.0
  0
LINE
  5
195
330
1F
100
AcDbEntity
  8
0
  6
Continuous
 62
     7
370
     0
100
AcDbLine
 10
50.2816685474
 20
240.3286745223
 30
0.0
 11
50.1410161377
 21
240.3286745223
 31
0.0
  0
CIRCLE
  5
196
330
1F
100
AcDbEntity
  8
0
  6
Continuous
 62
     7
370
     0
100
AcDbCircle
 10
51.8910161917
 20
230.4286749604
 30
0.0
 40
1.25
  0
LINE
  5
197
330
1F
100
AcDbEntity
  8
0
  6
Continuous
 62
     7
370
     0
100
AcDbLine
 10
63.0721304332
 20
259.8624698269
 30
0.0
 11
63.0713173885
 21
259.8619906614
 31
0.0
  0
LINE
  5
198
330
1F
100
AcDbEntity
  8
0
  6
Continuous
 62
     7
370
     0
100
AcDbLine
 10
64.4871447001
 20
256.4438791862
 30
0.0
 11
64.4880592589
 21
256.4441155093
 31
0.0
  0
ARC
  5
199
330
1F
100
AcDbEntity
  8
0
  6
Continuous
 62
     7
370
     0
100
AcDbCircle
 10
52.8260820288
 20
253.6159919118
 30
0.0
 40
12.0
100
AcDbArc
 50
13.6315311386
 51
31.3684688614
  0
LINE
  5
19A
330
1F
100
AcDbEntity
  8
0
  6
Continuous
 62
     7
370
     0
100
AcDbLine
 10
59.6823756349
 20
263.6363295289
 30
0.0
 11
59.6818070625
 21
263.6355751577
 31
0.0
  0
ARC
  5
19B
330
1F
100
AcDbEntity
  8
0
  6
Continuous
 62
     7
370
     0
100
AcDbCircle
 10
52.6066845997
 20
253.9443433685
 30
0.0
 40
11.99999999999999
100
AcDbArc
 50
36.1315311386
 51
53.8684688614
  0
LINE
  5
19C
330
1F
100
AcDbEntity
  8
0
  6
Continuous
 62
     7
370
     0
100
AcDbLine
 10
62.2979163889
 20
261.0194658312
 30
0.0
 11
62.2986707602
 21
261.0200344036
 31
0.0
  0
LINE
  5
19D
330
1F
100
AcDbEntity
  8
0
  6
Continuous
 62
     7
370
     0
100
AcDbLine
 10
64.759662724
 20
255.0786749609
 30
0.0
 11
64.7587267448
 21
255.078543528
 31
0.0
  0
LINE
  5
19E
330
1F
100
AcDbEntity
  8
0
  6
Continuous
 62
     7
370
     0
100
AcDbLine
 10
64.7587267448
 20
251.3788063927
 30
0.0
 11
64.759662724
 21
251.3786749598
 31
0.0
  0
ARC
  5
19F
330
1F
100
AcDbEntity
  8
0
  6
Continuous
 62
     7
370
     0
100
AcDbCircle
 10
52.9031241605
 20
253.2286749604
 30
0.0
 40
12.0
100
AcDbArc
 50
351.1315311386
 51
8.8684688614
  0
LINE
  5
1A0
330
1F
100
AcDbEntity
  8
0
  6
Continuous
 62
     7
370
     0
100
AcDbLine
 10
63.0713173885
 20
246.5953592594
 30
0.0
 11
63.0721304332
 21
246.5948800939
 31
0.0
  0
ARC
  5
1A1
330
1F
100
AcDbEntity
  8
0
  6
Continuous
 62
     7
370
     0
100
AcDbCircle
 10
52.8260820288
 20
252.8413580089
 30
0.0
 40
12.00000000000001
100
AcDbArc
 50
328.6315311386
 51
346.3684688614
  0
LINE
  5
1A2
330
1F
100
AcDbEntity
  8
0
  6
Continuous
 62
     7
370
     0
100
AcDbLine
 10
64.4880592589
 20
250.0132344114
 30
0.0
 11
64.4871447001
 21
250.0134707345
 31
0.0
  0
LINE
  5
1A3
330
1F
100
AcDbEntity
  8
0
  6
Continuous
 62
     7
370
     0
100
AcDbLine
 10
55.1064567406
 20
265.8257180276
 30
0.0
 11
55.1062204175
 21
265.8248034688
 31
0.0
  0
ARC
  5
1A4
330
1F
100
AcDbEntity
  8
0
  6
Continuous
 62
     7
370
     0
100
AcDbCircle
 10
52.2783331431
 20
254.1637407975
 30
0.0
 40
12.00000000000002
100
AcDbArc
 50
58.6315311386
 51
76.3684688614
  0
LINE
  5
1A5
330
1F
100
AcDbEntity
  8
0
  6
Continuous
 62
     7
370
     0
100
AcDbLine
 10
58.5243318927
 20
264.4089761573
 30
0.0
 11
58.5248110582
 21
264.4097892019
 31
0.0
  0
LINE
  5
1A6
330
1F
100
AcDbEntity
  8
0
  6
Continuous
 62
     7
370
     0
100
AcDbLine
 10
59.6818070625
 20
242.8217747631
 30
0.0
 11
59.6823756349
 21
242.8210203918
 31
0.0
  0
ARC
  5
1A7
330
1F
100
AcDbEntity
  8
0
  6
Continuous
 62
     7
370
     0
100
AcDbCircle
 10
52.6066845997
 20
252.5130065523
 30
0.0
 40
12.00000000000001
100
AcDbArc
 50
306.1315311386
 51
323.8684688614
  0
LINE
  5
1A8
330
1F
100
AcDbEntity
  8
0
  6
Continuous
 62
     7
370
     0
100
AcDbLine
 10
62.2986707602
 20
245.4373155172
 30
0.0
 11
62.2979163889
 21
245.4378840896
 31
0.0
  0
LINE
  5
1A9
330
1F
100
AcDbEntity
  8
0
  6
Continuous
 62
     7
370
     0
100
AcDbLine
 10
50.0410161911
 20
266.0973214927
 30
0.0
 11
50.041147624
 21
266.0963855135
 31
0.0
  0
LINE
  5
1AA
330
1F
100
AcDbEntity
  8
0
  6
Continuous
 62
     7
370
     0
100
AcDbLine
 10
53.7408847593
 20
266.0963855135
 30
0.0
 11
53.7410161922
 21
266.0973214927
 31
0.0
  0
ARC
  5
1AB
330
1F
100
AcDbEntity
  8
0
  6
Continuous
 62
     7
370
     0
100
AcDbCircle
 10
51.8910161917
 20
254.2407829293
 30
0.0
 40
12.00000000000004
100
AcDbArc
 50
81.1315311386
 51
98.8684688614
  0
ARC
  5
1AC
330
1F
100
AcDbEntity
  8
0
  6
Continuous
 62
     7
370
     0
100
AcDbCircle
 10
52.2783331431
 20
252.2936091233
 30
0.0
 40
12.00000000000001
100
AcDbArc
 50
285.0338850624
 51
301.3684688614
  0
LINE
  5
1AD
330
1F
100
AcDbEntity
  8
0
  6
Continuous
 62
     7
370
     0
100
AcDbLine
 10
58.5248110582
 20
242.0475607189
 30
0.0
 11
58.5243318927
 21
242.0483737635
 31
0.0
  0
LINE
  5
1AE
330
1F
100
AcDbEntity
  8
0
  6
Continuous
 62
     7
370
     0
100
AcDbLine
 10
45.2572213252
 20
264.4097892019
 30
0.0
 11
45.2577004906
 21
264.4089761573
 31
0.0
  0
ARC
  5
1AF
330
1F
100
AcDbEntity
  8
0
  6
Continuous
 62
     7
370
     0
100
AcDbCircle
 10
51.5036992402
 20
254.1637407975
 30
0.0
 40
12.00000000000005
100
AcDbArc
 50
103.6315311386
 51
121.3684688614
  0
LINE
  5
1B0
330
1F
100
AcDbEntity
  8
0
  6
Continuous
 62
     7
370
     0
100
AcDbLine
 10
48.6758119658
 20
265.8248034688
 30
0.0
 11
48.6755756427
 21
265.8257180276
 31
0.0
  0
LINE
  5
1B1
330
1F
100
AcDbEntity
  8
0
  6
Continuous
 62
     7
370
     0
100
AcDbLine
 10
41.4833616231
 20
261.0200344036
 30
0.0
 11
41.4841159944
 21
261.0194658312
 31
0.0
  0
ARC
  5
1B2
330
1F
100
AcDbEntity
  8
0
  6
Continuous
 62
     7
370
     0
100
AcDbCircle
 10
51.1753477836
 20
253.9443433685
 30
0.0
 40
12.00000000000001
100
AcDbArc
 50
126.1315311386
 51
143.8684688614
  0
LINE
  5
1B3
330
1F
100
AcDbEntity
  8
0
  6
Continuous
 62
     7
370
     0
100
AcDbLine
 10
44.1002253209
 20
263.6355751577
 30
0.0
 11
44.0996567485
 21
263.6363295289
 31
0.0
  0
ARC
  5
1B4
330
1F
100
AcDbEntity
  8
0
  6
Continuous
 62
     7
370
     0
100
AcDbCircle
 10
51.5036992402
 20
252.2936091233
 30
0.0
 40
12.00000000000001
100
AcDbArc
 50
238.6315311386
 51
254.9661149376
  0
LINE
  5
1B5
330
1F
100
AcDbEntity
  8
0
  6
Continuous
 62
     7
370
     0
100
AcDbLine
 10
45.2577004906
 20
242.0483737635
 30
0.0
 11
45.2572213252
 21
242.0475607189
 31
0.0
  0
ARC
  5
1B6
330
1F
100
AcDbEntity
  8
0
  6
Continuous
 62
     7
370
     0
100
AcDbCircle
 10
50.9559503545
 20
253.6159919118
 30
0.0
 40
12.00000000000004
100
AcDbArc
 50
148.6315311386
 51
166.3684688614
  0
LINE
  5
1B7
330
1F
100
AcDbEntity
  8
0
  6
Continuous
 62
     7
370
     0
100
AcDbLine
 10
39.2939731245
 20
256.4441155093
 30
0.0
 11
39.2948876832
 21
256.4438791862
 31
0.0
  0
LINE
  5
1B8
330
1F
100
AcDbEntity
  8
0
  6
Continuous
 62
     7
370
     0
100
AcDbLine
 10
40.7107149948
 20
259.8619906614
 30
0.0
 11
40.7099019502
 21
259.8624698269
 31
0.0
  0
ARC
  5
1B9
330
1F
100
AcDbEntity
  8
0
  6
Continuous
 62
     7
370
     0
100
AcDbCircle
 10
51.1753477836
 20
252.5130065523
 30
0.0
 40
12.00000000000002
100
AcDbArc
 50
216.1315311386
 51
233.8684688614
  0
LINE
  5
1BA
330
1F
100
AcDbEntity
  8
0
  6
Continuous
 62
     7
370
     0
100
AcDbLine
 10
41.4841159944
 20
245.4378840896
 30
0.0
 11
41.4833616231
 21
245.4373155172
 31
0.0
  0
LINE
  5
1BB
330
1F
100
AcDbEntity
  8
0
  6
Continuous
 62
     7
370
     0
100
AcDbLine
 10
44.0996567485
 20
242.8210203918
 30
0.0
 11
44.1002253209
 21
242.8217747631
 31
0.0
  0
ARC
  5
1BC
330
1F
100
AcDbEntity
  8
0
  6
Continuous
 62
     7
370
     0
100
AcDbCircle
 10
50.8789082228
 20
253.2286749604
 30
0.0
 40
12.0
100
AcDbArc
 50
171.1315311386
 51
188.8684688614
  0
LINE
  5
1BD
330
1F
100
AcDbEntity
  8
0
  6
Continuous
 62
     7
370
     0
100
AcDbLine
 10
39.0223696594
 20
251.3786749598
 30
0.0
 11
39.0233056386
 21
251.3788063927
 31
0.0
  0
LINE
  5
1BE
330
1F
100
AcDbEntity
  8
0
  6
Continuous
 62
     7
370
     0
100
AcDbLine
 10
39.0233056386
 20
255.078543528
 30
0.0
 11
39.0223696594
 21
255.0786749609
 31
0.0
  0
ARC
  5
1BF
330
1F
100
AcDbEntity
  8
0
  6
Continuous
 62
     7
370
     0
100
AcDbCircle
 10
50.9559503545
 20
252.8413580089
 30
0.0
 40
12.00000000000001
100
AcDbArc
 50
193.6315311386
 51
211.3684688614
  0
LINE
  5
1C0
330
1F
100
AcDbEntity
  8
0
  6
Continuous
 62
     7
370
     0
100
AcDbLine
 10
39.2948876832
 20
250.0134707345
 30
0.0
 11
39.2939731245
 21
250.0132344114
 31
0.0
  0
LINE
  5
1C1
330
1F
100
AcDbEntity
  8
0
  6
Continuous
 62
     7
370
     0
100
AcDbLine
 10
40.7099019502
 20
246.5948800939
 30
0.0
 11
40.7107149948
 21
246.5953592594
 31
0.0
  0
LINE
  5
1C2
330
1F
100
AcDbEntity
  8
0
  6
Continuous
 62
     7
370
     0
100
AcDbLine
 10
51.9907513516
 20
253.0044895368
 30
0.0
 11
51.8910161917
 21
253.2286749604
 31
0.0
  0
LINE
  5
1C3
330
1F
100
AcDbEntity
  8
0
  6
Continuous
 62
     7
370
     0
100
AcDbLine
 10
52.1391779765
 20
253.202518664
 30
0.0
 11
51.8910161917
 21
253.2286749604
 31
0.0
  0
LINE
  5
1C4
330
1F
100
AcDbEntity
  8
0
  6
Continuous
 62
     7
370
     0
100
AcDbLine
 10
52.0351758167
 20
253.4269715809
 30
0.0
 11
51.8910161917
 21
253.2286749604
 31
0.0
  0
LINE
  5
1C5
330
1F
100
AcDbEntity
  8
0
  6
Continuous
 62
     7
370
     0
100
AcDbLine
 10
51.7907260872
 20
253.4541077887
 30
0.0
 11
51.8910161917
 21
253.2286749604
 31
0.0
  0
LINE
  5
1C6
330
1F
100
AcDbEntity
  8
0
  6
Continuous
 62
     7
370
     0
100
AcDbLine
 10
51.6453812014
 20
253.2545649331
 30
0.0
 11
51.8910161917
 21
253.2286749604
 31
0.0
  0
LINE
  5
1C7
330
1F
100
AcDbEntity
  8
0
  6
Continuous
 62
     7
370
     0
100
AcDbLine
 10
51.8910161917
 20
253.2286749604
 30
0.0
 11
51.7468958859
 21
253.0304324148
 31
0.0
  0
CIRCLE
  5
1C8
330
1F
100
AcDbEntity
  8
0
  6
Continuous
 62
     7
370
     0
100
AcDbCircle
 10
51.8910161917
 20
253.2286749604
 30
0.0
 40
12.70000000000002
  0
CIRCLE
  5
1C9
330
1F
100
AcDbEntity
  8
0
  6
Continuous
 62
     7
370
     0
100
AcDbCircle
 10
51.8910161917
 20
253.2286749604
 30
0.0
 40
13.00000000000003
  0
CIRCLE
  5
1CA
330
1F
100
AcDbEntity
  8
0
  6
Continuous
 62
     7
370
     0
100
AcDbCircle
 10
51.8910161917
 20
253.2286749604
 30
0.0
 40
9.999999999999972
  0
CIRCLE
  5
1CB
330
1F
100
AcDbEntity
  8
0
  6
Continuous
 62
     7
370
     0
100
AcDbCircle
 10
51.8910161917
 20
253.2286749604
 30
0.0
 40
9.499999999999972
  0
CIRCLE
  5
1CC
330
1F
100
AcDbEntity
  8
0
  6
Continuous
 62
     7
370
     0
100
AcDbCircle
 10
51.8910161917
 20
253.2286749604
 30
0.0
 40
0.2500000000000284
  0
ARC
  5
1CD
330
1F
100
AcDbEntity
  8
0
  6
Continuous
 62
     7
370
     0
100
AcDbCircle
 10
51.8910161917
 20
253.2286749604
 30
0.0
 40
11.00000000000003
100
AcDbArc
 50
270.0
 51
90.0
  0
SPLINE
  5
1CE
330
1F
100
AcDbEntity
  8
0
  6
Continuous
 62
     7
370
     0
100
AcDbSpline
210
0.0
220
0.0
230
1.0
 70
    24
 71
     3
 72
     9
 73
     5
 74
     0
 42
0.00000001
 43
0.00000001
 40
0.0
 40
0.0
 40
0.0
 40
0.0
 40
0.4946841106391116
 40
1.0
 40
1.0
 40
1.0
 40
1.0
 10
51.89101619166965
 20
264.2286749007842
 30
0.0
 10
52.45294232509683
 20
264.2286749007842
 30
0.0
 10
53.58887154000772
 20
264.2286749007842
 30
0.0
 10
54.68913665434662
 20
264.2286749007842
 30
0.0
 10
55.24511809913154
 20
264.2286749007842
 30
0.0
  0
ARC
  5
1CF
330
1F
100
AcDbEntity
  8
0
  6
Continuous
 62
     7
370
     0
100
AcDbCircle
 10
51.8910161917
 20
253.2286749604
 30
0.0
 40
11.50000000000003
100
AcDbArc
 50
286.9574262942
 51
73.0425737058
  0
SPLINE
  5
1D0
330
1F
100
AcDbEntity
  8
0
  6
Continuous
 62
     7
370
     0
100
AcDbSpline
210
0.0
220
0.0
230
1.0
 70
    24
 71
     3
 72
     9
 73
     5
 74
     0
 42
0.00000001
 43
0.00000001
 40
0.0
 40
0.0
 40
0.0
 40
0.0
 40
0.495131422291066
 40
1.0
 40
1.0
 40
1.0
 40
1.0
 10
55.24511809913154
 20
242.2286750199935
 30
0.0
 10
54.7004814629685
 20
242.2286750199935
 30
0.0
 10
53.60049747560027
 20
242.2286750199935
 30
0.0
 10
52.46453031590769
 20
242.2286750199935
 30
0.0
 10
51.89101619166965
 20
242.2286750199935
 30
0.0
  0
ARC
  5
1D1
330
1F
100
AcDbEntity
  8
0
  6
Continuous
 62
     7
370
     0
100
AcDbCircle
 10
51.8910161917
 20
253.2286749604
 30
0.0
 40
11.00000000000003
100
AcDbArc
 50
90.0
 51
270.0
  0
SPLINE
  5
1D2
330
1F
100
AcDbEntity
  8
0
  6
Continuous
 62
     7
370
     0
100
AcDbSpline
210
0.0
220
0.0
230
1.0
 70
    24
 71
     3
 72
     9
 73
     5
 74
     0
 42
0.00000001
 43
0.00000001
 40
0.0
 40
0.0
 40
0.0
 40
0.0
 40
0.4946841106391117
 40
1.0
 40
1.0
 40
1.0
 40
1.0
 10
51.89101619166965
 20
242.2286750199935
 30
0.0
 10
51.32909005824246
 20
242.2286750199935
 30
0.0
 10
50.19316084333158
 20
242.2286750199935
 30
0.0
 10
49.09289572899269
 20
242.2286750199935
 30
0.0
 10
48.53691428420777
 20
242.2286750199935
 30
0.0
  0
ARC
  5
1D3
330
1F
100
AcDbEntity
  8
0
  6
Continuous
 62
     7
370
     0
100
AcDbCircle
 10
51.8910161917
 20
253.2286749604
 30
0.0
 40
11.50000000000003
100
AcDbArc
 50
106.9574262942
 51
253.0425737058
  0
SPLINE
  5
1D4
330
1F
100
AcDbEntity
  8
0
  6
Continuous
 62
     7
370
     0
100
AcDbSpline
210
0.0
220
0.0
230
1.0
 70
    24
 71
     3
 72
     9
 73
     5
 74
     0
 42
0.00000001
 43
0.00000001
 40
0.0
 40
0.0
 40
0.0
 40
0.0
 40
0.4951314222910658
 40
0.9999999999999999
 40
0.9999999999999999
 40
0.9999999999999999
 40
0.9999999999999999
 10
48.53691428420777
 20
264.2286749007842
 30
0.0
 10
49.0815509203708
 20
264.2286749007842
 30
0.0
 10
50.18153490773903
 20
264.2286749007841
 30
0.0
 10
51.3175020674316
 20
264.2286749007842
 30
0.0
 10
51.89101619166965
 20
264.2286749007842
 30
0.0
  0
INSERT
  5
1E0
330
1F
100
AcDbEntity
  8
0
  6
Continuous
 62
     7
370
     0
100
AcDbBlockReference
  2
SW_CENTERMARKSYMBOL_0
 10
51.8910161917
 20
253.2286749604
 30
0.0
  0
LINE
  5
1E1
330
1F
100
AcDbEntity
  8
0
  6
Continuous
 62
     7
370
     0
100
AcDbLine
 10
55.3910162997
 20
65.6800565822
 30
0.0
 11
55.3910162997
 21
66.0557204438
 31
0.0
  0
LINE
  5
1E2
330
1F
100
AcDbEntity
  8
0
  6
Continuous
 62
     7
370
     0
100
AcDbLine
 10
48.3910160836
 20
66.0557204438
 30
0.0
 11
48.3910160836
 21
65.6800565822
 31
0.0
  0
LINE
  5
1E3
330
1F
100
AcDbEntity
  8
0
  6
Continuous
 62
     7
370
     0
100
AcDbLine
 10
55.3910162997
 20
71.3557207538
 30
0.0
 11
55.3910162997
 21
73.7557204021
 31
0.0
  0
LINE
  5
1E4
330
1F
100
AcDbEntity
  8
0
  6
Continuous
 62
     7
370
     0
100
AcDbLine
 10
48.3910160836
 20
73.7557204021
 30
0.0
 11
48.3910160836
 21
71.3557207538
 31
0.0
  0
LINE
  5
1E5
330
1F
100
AcDbEntity
  8
0
  6
Continuous
 62
     7
370
     0
100
AcDbLine
 10
49.4910160777
 20
75.9557203902
 30
0.0
 11
49.4910160777
 21
73.7557204021
 31
0.0
  0
LINE
  5
1E6
330
1F
100
AcDbEntity
  8
0
  6
Continuous
 62
     7
370
     0
100
AcDbLine
 10
54.2910163057
 20
73.7557204021
 30
0.0
 11
54.2910163057
 21
75.9557203902
 31
0.0
  0
LINE
  5
1E7
330
1F
100
AcDbEntity
  8
0
  6
Continuous
 62
     7
370
     0
100
AcDbLine
 10
51.8910161917
 20
71.3557207538
 30
0.0
 11
51.8910161917
 21
66.1678283987
 31
0.0
  0
LINE
  5
1E8
330
1F
100
AcDbEntity
  8
0
  6
Continuous
 62
     7
370
     0
100
AcDbLine
 10
50.1410161377
 20
66.0557204438
 30
0.0
 11
50.2545495982
 21
66.0557204438
 31
0.0
  0
LINE
  5
1E9
330
1F
100
AcDbEntity
  8
0
  6
Continuous
 62
     7
370
     0
100
AcDbLine
 10
48.3910160836
 20
66.0557204438
 30
0.0
 11
50.1410161377
 21
66.0557204438
 31
0.0
  0
LINE
  5
1EA
330
1F
100
AcDbEntity
  8
0
  6
Continuous
 62
     7
370
     0
100
AcDbLine
 10
48.3910160836
 20
71.3557207538
 30
0.0
 11
48.3910160836
 21
66.0557204438
 31
0.0
  0
LINE
  5
1EB
330
1F
100
AcDbEntity
  8
0
  6
Continuous
 62
     7
370
     0
100
AcDbLine
 10
48.3910160836
 20
71.3557207538
 30
0.0
 11
50.1410161377
 21
71.3557207538
 31
0.0
  0
LINE
  5
1EC
330
1F
100
AcDbEntity
  8
0
  6
Continuous
 62
     7
370
     0
100
AcDbLine
 10
50.1410161377
 20
71.3557207538
 30
0.0
 11
51.8910161917
 21
71.3557207538
 31
0.0
  0
LINE
  5
1ED
330
1F
100
AcDbEntity
  8
0
  6
Continuous
 62
     7
370
     0
100
AcDbLine
 10
55.3910162997
 20
71.3557207538
 30
0.0
 11
55.3910162997
 21
66.0557204438
 31
0.0
  0
LINE
  5
1EE
330
1F
100
AcDbEntity
  8
0
  6
Continuous
 62
     7
370
     0
100
AcDbLine
 10
53.6410162457
 20
66.0557204438
 30
0.0
 11
55.3910162997
 21
66.0557204438
 31
0.0
  0
LINE
  5
1EF
330
1F
100
AcDbEntity
  8
0
  6
Continuous
 62
     7
370
     0
100
AcDbLine
 10
53.6410162457
 20
71.3557207538
 30
0.0
 11
55.3910162997
 21
71.3557207538
 31
0.0
  0
LINE
  5
1F0
330
1F
100
AcDbEntity
  8
0
  6
Continuous
 62
     7
370
     0
100
AcDbLine
 10
51.8910161917
 20
71.3557207538
 30
0.0
 11
53.6410162457
 21
71.3557207538
 31
0.0
  0
LINE
  5
1F1
330
1F
100
AcDbEntity
  8
0
  6
Continuous
 62
     7
370
     0
100
AcDbLine
 10
53.5274827852
 20
66.0557204438
 30
0.0
 11
53.6410162457
 21
66.0557204438
 31
0.0
  0
LINE
  5
1F2
330
1F
100
AcDbEntity
  8
0
  6
Continuous
 62
     7
370
     0
100
AcDbLine
 10
48.3910160836
 20
73.7557204021
 30
0.0
 11
55.3910162997
 21
73.7557204021
 31
0.0
  0
LINE
  5
1F3
330
1F
100
AcDbEntity
  8
0
  6
Continuous
 62
     7
370
     0
100
AcDbLine
 10
49.4910160777
 20
75.9557203902
 30
0.0
 11
54.2910163057
 21
75.9557203902
 31
0.0
  0
ARC
  5
1F4
330
1F
100
AcDbEntity
  8
0
  6
Continuous
 62
     7
370
     0
100
AcDbCircle
 10
51.8910161917
 20
75.9557200057
 30
0.0
 40
2.399999999999999
100
AcDbArc
 50
0.0
 51
180.0
  0
ARC
  5
1F5
330
1F
100
AcDbEntity
  8
0
  6
Continuous
 62
     7
370
     0
100
AcDbCircle
 10
51.8910161917
 20
75.9557200057
 30
0.0
 40
4.450000000000003
100
AcDbArc
 50
321.8611871517
 51
180.0
  0
ARC
  5
1F6
330
1F
100
AcDbEntity
  8
0
  6
Continuous
 62
     7
370
     0
100
AcDbCircle
 10
51.8910161917
 20
75.9557200057
 30
0.0
 40
4.450000000000003
100
AcDbArc
 50
180.0
 51
218.1388128483
  0
ARC
  5
1F7
330
1F
100
AcDbEntity
  8
0
  6
Continuous
 62
     7
370
     0
100
AcDbCircle
 10
51.8910161917
 20
75.9557200057
 30
0.0
 40
4.649999999999999
100
AcDbArc
 50
180.0
 51
221.1762247038
  0
ARC
  5
1F8
330
1F
100
AcDbEntity
  8
0
  6
Continuous
 62
     7
370
     0
100
AcDbCircle
 10
51.8910161917
 20
75.9557200057
 30
0.0
 40
4.649999999999999
100
AcDbArc
 50
318.8237752962
 51
180.0
  0
ARC
  5
1F9
330
1F
100
AcDbEntity
  8
0
  6
Continuous
 62
     7
370
     0
100
AcDbCircle
 10
50.9559503545
 20
52.7684030543
 30
0.0
 40
12.0
100
AcDbArc
 50
193.6315311386
 51
211.3684688614
  0
LINE
  5
1FA
330
1F
100
AcDbEntity
  8
0
  6
Continuous
 62
     7
370
     0
100
AcDbLine
 10
39.2939731245
 20
49.9402794568
 30
0.0
 11
41.6582425822
 21
50.5517211323
 31
0.0
  0
LINE
  5
1FB
330
1F
100
AcDbEntity
  8
0
  6
Continuous
 62
     7
370
     0
100
AcDbLine
 10
41.6582425822
 20
50.5517211323
 30
0.0
 11
41.7124651138
 21
49.309825995
 31
0.0
  0
ARC
  5
1FC
330
1F
100
AcDbEntity
  8
0
  6
Continuous
 62
     7
370
     0
100
AcDbCircle
 10
42.711513397
 20
49.3534454523
 30
0.0
 40
1.000000000000002
100
AcDbArc
 50
182.5
 51
222.5
  0
LINE
  5
1FD
330
1F
100
AcDbEntity
  8
0
  6
Continuous
 62
     7
370
     0
100
AcDbLine
 10
41.9742356752
 20
48.6778554087
 30
0.0
 11
42.8140474249
 21
47.7613618178
 31
0.0
  0
LINE
  5
1FE
330
1F
100
AcDbEntity
  8
0
  6
Continuous
 62
     7
370
     0
100
AcDbLine
 10
42.8140474249
 20
47.7613618178
 30
0.0
 11
40.7099019502
 21
46.5219251392
 31
0.0
  0
LINE
  5
1FF
330
1F
100
AcDbEntity
  8
0
  6
Continuous
 62
     7
370
     0
100
AcDbLine
 10
41.4833616231
 20
45.3643605625
 30
0.0
 11
43.4336730976
 21
46.8340257695
 31
0.0
  0
LINE
  5
200
330
1F
100
AcDbEntity
  8
0
  6
Continuous
 62
     7
370
     0
100
AcDbLine
 10
43.4336730976
 20
46.8340257695
 30
0.0
 11
43.9590209861
 21
45.7074146299
 31
0.0
  0
ARC
  5
201
330
1F
100
AcDbEntity
  8
0
  6
Continuous
 62
     7
370
     0
100
AcDbCircle
 10
44.8653289179
 20
46.130032732
 30
0.0
 40
0.9999999999999976
100
AcDbArc
 50
205.0
 51
245.0
  0
LINE
  5
202
330
1F
100
AcDbEntity
  8
0
  6
Continuous
 62
     7
370
     0
100
AcDbLine
 10
44.4427108158
 20
45.2237248001
 30
0.0
 11
45.5693219554
 21
44.6983769117
 31
0.0
  0
LINE
  5
203
330
1F
100
AcDbEntity
  8
0
  6
Continuous
 62
     7
370
     0
100
AcDbLine
 10
45.5693219554
 20
44.6983769117
 30
0.0
 11
44.0996567485
 21
42.7480654372
 31
0.0
  0
ARC
  5
204
330
1F
100
AcDbEntity
  8
0
  6
Continuous
 62
     7
370
     0
100
AcDbCircle
 10
51.1753477836
 20
52.4400515977
 30
0.0
 40
12.0
100
AcDbArc
 50
216.1315311386
 51
233.8684688614
  0
LINE
  5
205
330
1F
100
AcDbEntity
  8
0
  6
Continuous
 62
     7
370
     0
100
AcDbLine
 10
39.0223696594
 20
55.0057200063
 30
0.0
 11
41.4406595517
 21
54.6658516442
 31
0.0
  0
LINE
  5
206
330
1F
100
AcDbEntity
  8
0
  6
Continuous
 62
     7
370
     0
100
AcDbLine
 10
41.4406595517
 20
54.6658516442
 30
0.0
 11
41.0155014832
 21
53.4977401595
 31
0.0
  0
ARC
  5
207
330
1F
100
AcDbEntity
  8
0
  6
Continuous
 62
     7
370
     0
100
AcDbCircle
 10
41.9551939641
 20
53.1557200057
 30
0.0
 40
1.000000000000002
100
AcDbArc
 50
160.0
 51
200.0
  0
LINE
  5
208
330
1F
100
AcDbEntity
  8
0
  6
Continuous
 62
     7
370
     0
100
AcDbLine
 10
41.0155014832
 20
52.813699852
 30
0.0
 11
41.4406595517
 21
51.6455883672
 31
0.0
  0
LINE
  5
209
330
1F
100
AcDbEntity
  8
0
  6
Continuous
 62
     7
370
     0
100
AcDbLine
 10
41.4406595517
 20
51.6455883672
 30
0.0
 11
39.0223696594
 21
51.3057200052
 31
0.0
  0
ARC
  5
20A
330
1F
100
AcDbEntity
  8
0
  6
Continuous
 62
     7
370
     0
100
AcDbCircle
 10
50.8789082228
 20
53.1557200057
 30
0.0
 40
11.99999999999999
100
AcDbArc
 50
171.1315311386
 51
188.8684688614
  0
ARC
  5
20B
330
1F
100
AcDbEntity
  8
0
  6
Continuous
 62
     7
370
     0
100
AcDbCircle
 10
50.9559503545
 20
53.5430369572
 30
0.0
 40
12.0
100
AcDbArc
 50
148.6315311386
 51
166.3684688614
  0
LINE
  5
20C
330
1F
100
AcDbEntity
  8
0
  6
Continuous
 62
     7
370
     0
100
AcDbLine
 10
40.7099019502
 20
59.7895148722
 30
0.0
 11
42.8140474249
 21
58.5500781936
 31
0.0
  0
LINE
  5
20D
330
1F
100
AcDbEntity
  8
0
  6
Continuous
 62
     7
370
     0
100
AcDbLine
 10
42.8140474249
 20
58.5500781936
 30
0.0
 11
41.9742356752
 21
57.6335846027
 31
0.0
  0
ARC
  5
20E
330
1F
100
AcDbEntity
  8
0
  6
Continuous
 62
     7
370
     0
100
AcDbCircle
 10
42.711513397
 20
56.9579945591
 30
0.0
 40
0.9999999999999958
100
AcDbArc
 50
137.5
 51
177.5
  0
LINE
  5
20F
330
1F
100
AcDbEntity
  8
0
  6
Continuous
 62
     7
370
     0
100
AcDbLine
 10
41.7124651138
 20
57.0016140165
 30
0.0
 11
41.6582425822
 21
55.7597188791
 31
0.0
  0
LINE
  5
210
330
1F
100
AcDbEntity
  8
0
  6
Continuous
 62
     7
370
     0
100
AcDbLine
 10
41.6582425822
 20
55.7597188791
 30
0.0
 11
39.2939731245
 21
56.3711605547
 31
0.0
  0
LINE
  5
211
330
1F
100
AcDbEntity
  8
0
  6
Continuous
 62
     7
370
     0
100
AcDbLine
 10
43.6418022726
 20
48.2489469042
 30
0.0
 11
42.7751684327
 21
49.1947119636
 31
0.0
  0
ARC
  5
212
330
1F
100
AcDbEntity
  8
0
  6
Continuous
 62
     7
370
     0
100
AcDbCircle
 10
43.143806898
 20
49.5325072834
 30
0.0
 40
0.4999999999999928
100
AcDbArc
 50
182.5
 51
222.5
  0
LINE
  5
213
330
1F
100
AcDbEntity
  8
0
  6
Continuous
 62
     7
370
     0
100
AcDbLine
 10
42.6442831521
 20
49.510697606
 30
0.0
 11
42.5883283604
 21
50.7922577718
 31
0.0
  0
ARC
  5
214
330
1F
100
AcDbEntity
  8
0
  6
Continuous
 62
     7
370
     0
100
AcDbCircle
 10
43.5509455104
 20
50.8346273193
 30
0.0
 40
0.2000000000000033
100
AcDbArc
 50
10.8820961971
 51
104.5
  0
ARC
  5
215
330
1F
100
AcDbEntity
  8
0
  6
Continuous
 62
     7
370
     0
100
AcDbCircle
 10
48.6574378279
 20
51.8163279925
 30
0.0
 40
5.000000000000001
100
AcDbArc
 50
190.8820961971
 51
214.1179038029
  0
ARC
  5
216
330
1F
100
AcDbEntity
  8
0
  6
Continuous
 62
     7
370
     0
100
AcDbCircle
 10
44.352435279
 20
48.8996598498
 30
0.0
 40
0.2000000000000063
100
AcDbArc
 50
300.5
 51
34.1179038029
  0
LINE
  5
217
330
1F
100
AcDbEntity
  8
0
  6
Continuous
 62
     7
370
     0
100
AcDbLine
 10
44.4539430317
 20
48.7273342488
 30
0.0
 11
43.6418022726
 21
48.2489469042
 31
0.0
  0
LINE
  5
218
330
1F
100
AcDbEntity
  8
0
  6
Continuous
 62
     7
370
     0
100
AcDbLine
 10
42.5883283604
 20
50.7922577718
 30
0.0
 11
43.500869884
 21
51.0282567749
 31
0.0
  0
LINE
  5
219
330
1F
100
AcDbEntity
  8
0
  6
Continuous
 62
     7
370
     0
100
AcDbLine
 10
45.2572213252
 20
41.9746057642
 30
0.0
 11
46.4966580038
 21
44.078751239
 31
0.0
  0
LINE
  5
21A
330
1F
100
AcDbEntity
  8
0
  6
Continuous
 62
     7
370
     0
100
AcDbLine
 10
46.4966580038
 20
44.078751239
 30
0.0
 11
47.4131515947
 21
43.2389394892
 31
0.0
  0
ARC
  5
21B
330
1F
100
AcDbEntity
  8
0
  6
Continuous
 62
     7
370
     0
100
AcDbCircle
 10
48.0887416383
 20
43.976217211
 30
0.0
 40
0.9999999999999962
100
AcDbArc
 50
227.5
 51
267.5
  0
LINE
  5
21C
330
1F
100
AcDbEntity
  8
0
  6
Continuous
 62
     7
370
     0
100
AcDbLine
 10
48.0451221809
 20
42.9771689279
 30
0.0
 11
49.2870173183
 21
42.9229463963
 31
0.0
  0
LINE
  5
21D
330
1F
100
AcDbEntity
  8
0
  6
Continuous
 62
     7
370
     0
100
AcDbLine
 10
49.2870173183
 20
42.9229463963
 30
0.0
 11
48.6755756427
 21
40.5586769385
 31
0.0
  0
ARC
  5
21E
330
1F
100
AcDbEntity
  8
0
  6
Continuous
 62
     7
370
     0
100
AcDbCircle
 10
51.5036992402
 20
52.2206541686
 30
0.0
 40
12.0
100
AcDbArc
 50
238.6315311386
 51
256.3684688614
  0
LINE
  5
21F
330
1F
100
AcDbEntity
  8
0
  6
Continuous
 62
     7
370
     0
100
AcDbLine
 10
42.3919953172
 20
51.7792900838
 30
0.0
 11
41.9532585655
 21
52.9847099288
 31
0.0
  0
ARC
  5
220
330
1F
100
AcDbEntity
  8
0
  6
Continuous
 62
     7
370
     0
100
AcDbCircle
 10
42.4231050779
 20
53.1557200057
 30
0.0
 40
0.499999999999992
100
AcDbArc
 50
160.0
 51
200.0
  0
LINE
  5
221
330
1F
100
AcDbEntity
  8
0
  6
Continuous
 62
     7
370
     0
100
AcDbLine
 10
41.9532585655
 20
53.3267300826
 30
0.0
 11
42.3919953172
 21
54.5321499277
 31
0.0
  0
ARC
  5
222
330
1F
100
AcDbEntity
  8
0
  6
Continuous
 62
     7
370
     0
100
AcDbCircle
 10
43.2975518735
 20
54.2029168541
 30
0.0
 40
0.2000000000000007
100
AcDbArc
 50
348.3820961971
 51
82.0
  0
ARC
  5
223
330
1F
100
AcDbEntity
  8
0
  6
Continuous
 62
     7
370
     0
100
AcDbCircle
 10
48.3910161917
 20
53.1557200057
 30
0.0
 40
5.000000000000003
100
AcDbArc
 50
168.3820961971
 51
191.6179038029
  0
ARC
  5
224
330
1F
100
AcDbEntity
  8
0
  6
Continuous
 62
     7
370
     0
100
AcDbCircle
 10
43.2975518735
 20
52.1085231574
 30
0.0
 40
0.2000000000000077
100
AcDbArc
 50
278.0
 51
11.6179038029
  0
LINE
  5
225
330
1F
100
AcDbEntity
  8
0
  6
Continuous
 62
     7
370
     0
100
AcDbLine
 10
42.3919953172
 20
54.5321499277
 30
0.0
 11
43.3253863592
 21
54.4009704655
 31
0.0
  0
LINE
  5
226
330
1F
100
AcDbEntity
  8
0
  6
Continuous
 62
     7
370
     0
100
AcDbLine
 10
43.3253863592
 20
51.910469546
 30
0.0
 11
42.3919953172
 21
51.7792900838
 31
0.0
  0
LINE
  5
227
330
1F
100
AcDbEntity
  8
0
  6
Continuous
 62
     7
370
     0
100
AcDbLine
 10
46.1474772309
 20
45.4656153498
 30
0.0
 11
44.9848830466
 21
46.0077419458
 31
0.0
  0
ARC
  5
228
330
1F
100
AcDbEntity
  8
0
  6
Continuous
 62
     7
370
     0
100
AcDbCircle
 10
45.1961920395
 20
46.4608958535
 30
0.0
 40
0.5000000000000037
100
AcDbArc
 50
205.0
 51
245.0
  0
LINE
  5
229
330
1F
100
AcDbEntity
  8
0
  6
Continuous
 62
     7
370
     0
100
AcDbLine
 10
44.7430381317
 20
46.2495868606
 30
0.0
 11
44.2009115357
 21
47.4121810449
 31
0.0
  0
ARC
  5
22A
330
1F
100
AcDbEntity
  8
0
  6
Continuous
 62
     7
370
     0
100
AcDbCircle
 10
45.0740393057
 20
47.8197031052
 30
0.0
 40
0.2000000000000049
100
AcDbArc
 50
33.3820961971
 51
127.0
  0
ARC
  5
22B
330
1F
100
AcDbEntity
  8
0
  6
Continuous
 62
     7
370
     0
100
AcDbCircle
 10
49.4161424575
 20
50.6808462716
 30
0.0
 40
5.000000000000004
100
AcDbArc
 50
213.3820961971
 51
236.6179038029
  0
ARC
  5
22C
330
1F
100
AcDbEntity
  8
0
  6
Continuous
 62
     7
370
     0
100
AcDbCircle
 10
46.5549992911
 20
46.3387431197
 30
0.0
 40
0.2000000000000012
100
AcDbArc
 50
323.0
 51
56.6179038029
  0
LINE
  5
22D
330
1F
100
AcDbEntity
  8
0
  6
Continuous
 62
     7
370
     0
100
AcDbLine
 10
46.7147262533
 20
46.2183801038
 30
0.0
 11
46.1474772309
 21
45.4656153498
 31
0.0
  0
LINE
  5
22E
330
1F
100
AcDbEntity
  8
0
  6
Continuous
 62
     7
370
     0
100
AcDbLine
 10
44.2009115357
 20
47.4121810449
 30
0.0
 11
44.9536762897
 21
47.9794300673
 31
0.0
  0
LINE
  5
22F
330
1F
100
AcDbEntity
  8
0
  6
Continuous
 62
     7
370
     0
100
AcDbLine
 10
42.5883283604
 20
55.5191822396
 30
0.0
 11
42.6442831521
 21
56.8007424055
 31
0.0
  0
ARC
  5
230
330
1F
100
AcDbEntity
  8
0
  6
Continuous
 62
     7
370
     0
100
AcDbCircle
 10
43.143806898
 20
56.7789327281
 30
0.0
 40
0.5000000000000006
100
AcDbArc
 50
137.5
 51
177.5
  0
LINE
  5
231
330
1F
100
AcDbEntity
  8
0
  6
Continuous
 62
     7
370
     0
100
AcDbLine
 10
42.7751684327
 20
57.1167280478
 30
0.0
 11
43.6418022726
 21
58.0624931073
 31
0.0
  0
ARC
  5
232
330
1F
100
AcDbEntity
  8
0
  6
Continuous
 62
     7
370
     0
100
AcDbCircle
 10
44.352435279
 20
57.4117801616
 30
0.0
 40
0.2000000000000043
100
AcDbArc
 50
325.8820961971
 51
59.5
  0
ARC
  5
233
330
1F
100
AcDbEntity
  8
0
  6
Continuous
 62
     7
370
     0
100
AcDbCircle
 10
48.6574378279
 20
54.495112019
 30
0.0
 40
5.000000000000002
100
AcDbArc
 50
145.8820961971
 51
169.1179038029
  0
ARC
  5
234
330
1F
100
AcDbEntity
  8
0
  6
Continuous
 62
     7
370
     0
100
AcDbCircle
 10
43.5509455104
 20
55.4768126922
 30
0.0
 40
0.2000000000000033
100
AcDbArc
 50
255.5
 51
349.1179038029
  0
LINE
  5
235
330
1F
100
AcDbEntity
  8
0
  6
Continuous
 62
     7
370
     0
100
AcDbLine
 10
43.6418022726
 20
58.0624931073
 30
0.0
 11
44.4539430317
 21
57.5841057626
 31
0.0
  0
LINE
  5
236
330
1F
100
AcDbEntity
  8
0
  6
Continuous
 62
     7
370
     0
100
AcDbLine
 10
43.500869884
 20
55.2831832366
 30
0.0
 11
42.5883283604
 21
55.5191822396
 31
0.0
  0
ARC
  5
237
330
1F
100
AcDbEntity
  8
0
  6
Continuous
 62
     7
370
     0
100
AcDbCircle
 10
51.1753477836
 20
53.8713884138
 30
0.0
 40
12.00000000000001
100
AcDbArc
 50
126.1315311386
 51
143.8684688614
  0
LINE
  5
238
330
1F
100
AcDbEntity
  8
0
  6
Continuous
 62
     7
370
     0
100
AcDbLine
 10
44.0996567485
 20
63.5633745743
 30
0.0
 11
45.5693219554
 21
61.6130630998
 31
0.0
  0
LINE
  5
239
330
1F
100
AcDbEntity
  8
0
  6
Continuous
 62
     7
370
     0
100
AcDbLine
 10
45.5693219554
 20
61.6130630998
 30
0.0
 11
44.4427108158
 21
61.0877152113
 31
0.0
  0
ARC
  5
23A
330
1F
100
AcDbEntity
  8
0
  6
Continuous
 62
     7
370
     0
100
AcDbCircle
 10
44.8653289179
 20
60.1814072795
 30
0.0
 40
1.000000000000006
100
AcDbArc
 50
115.0
 51
155.0
  0
LINE
  5
23B
330
1F
100
AcDbEntity
  8
0
  6
Continuous
 62
     7
370
     0
100
AcDbLine
 10
43.9590209861
 20
60.6040253816
 30
0.0
 11
43.4336730976
 21
59.477414242
 31
0.0
  0
LINE
  5
23C
330
1F
100
AcDbEntity
  8
0
  6
Continuous
 62
     7
370
     0
100
AcDbLine
 10
43.4336730976
 20
59.477414242
 30
0.0
 11
41.4833616231
 21
60.9470794489
 31
0.0
  0
LINE
  5
23D
330
1F
100
AcDbEntity
  8
0
  6
Continuous
 62
     7
370
     0
100
AcDbLine
 10
49.5275539578
 20
43.8530321745
 30
0.0
 11
48.2459937919
 21
43.9089869661
 31
0.0
  0
ARC
  5
23E
330
1F
100
AcDbEntity
  8
0
  6
Continuous
 62
     7
370
     0
100
AcDbCircle
 10
48.2678034693
 20
44.4085107121
 30
0.0
 40
0.5000000000000006
100
AcDbArc
 50
227.5
 51
267.5
  0
LINE
  5
23F
330
1F
100
AcDbEntity
  8
0
  6
Continuous
 62
     7
370
     0
100
AcDbLine
 10
47.9300081496
 20
44.0398722468
 30
0.0
 11
46.9842430901
 21
44.9065060867
 31
0.0
  0
ARC
  5
240
330
1F
100
AcDbEntity
  8
0
  6
Continuous
 62
     7
370
     0
100
AcDbCircle
 10
47.6349560358
 20
45.6171390931
 30
0.0
 40
0.2000000000000063
100
AcDbArc
 50
55.8820961971
 51
149.5
  0
ARC
  5
241
330
1F
100
AcDbEntity
  8
0
  6
Continuous
 62
     7
370
     0
100
AcDbCircle
 10
50.5516241784
 20
49.9221416419
 30
0.0
 40
5.000000000000002
100
AcDbArc
 50
235.8820961971
 51
259.1179038029
  0
ARC
  5
242
330
1F
100
AcDbEntity
  8
0
  6
Continuous
 62
     7
370
     0
100
AcDbCircle
 10
49.5699235052
 20
44.8156493245
 30
0.0
 40
0.200000000000006
100
AcDbArc
 50
345.5
 51
79.1179038029
  0
LINE
  5
243
330
1F
100
AcDbEntity
  8
0
  6
Continuous
 62
     7
370
     0
100
AcDbLine
 10
49.7635529608
 20
44.7655736981
 30
0.0
 11
49.5275539578
 21
43.8530321745
 31
0.0
  0
LINE
  5
244
330
1F
100
AcDbEntity
  8
0
  6
Continuous
 62
     7
370
     0
100
AcDbLine
 10
46.9842430901
 20
44.9065060867
 30
0.0
 11
47.4626304348
 21
45.7186468458
 31
0.0
  0
ARC
  5
245
330
1F
100
AcDbEntity
  8
0
  6
Continuous
 62
     7
370
     0
100
AcDbCircle
 10
51.8910161917
 20
52.1436120369
 30
0.0
 40
12.00000000000001
100
AcDbArc
 50
261.1315311386
 51
278.8684688614
  0
LINE
  5
246
330
1F
100
AcDbEntity
  8
0
  6
Continuous
 62
     7
370
     0
100
AcDbLine
 10
50.0410161911
 20
40.2870734734
 30
0.0
 11
50.3808845532
 21
42.7053633658
 31
0.0
  0
LINE
  5
247
330
1F
100
AcDbEntity
  8
0
  6
Continuous
 62
     7
370
     0
100
AcDbLine
 10
50.3808845532
 20
42.7053633658
 30
0.0
 11
51.5489960379
 21
42.2802052973
 31
0.0
  0
ARC
  5
248
330
1F
100
AcDbEntity
  8
0
  6
Continuous
 62
     7
370
     0
100
AcDbCircle
 10
51.8910161917
 20
43.2198977782
 30
0.0
 40
1.000000000000011
100
AcDbArc
 50
250.0
 51
290.0
  0
LINE
  5
249
330
1F
100
AcDbEntity
  8
0
  6
Continuous
 62
     7
370
     0
100
AcDbLine
 10
52.2330363454
 20
42.2802052973
 30
0.0
 11
53.4011478302
 21
42.7053633658
 31
0.0
  0
LINE
  5
24A
330
1F
100
AcDbEntity
  8
0
  6
Continuous
 62
     7
370
     0
100
AcDbLine
 10
53.4011478302
 20
42.7053633658
 30
0.0
 11
53.7410161922
 21
40.2870734734
 31
0.0
  0
LINE
  5
24B
330
1F
100
AcDbEntity
  8
0
  6
Continuous
 62
     7
370
     0
100
AcDbLine
 10
44.2009115357
 20
58.8992589665
 30
0.0
 11
44.7430381317
 21
60.0618531508
 31
0.0
  0
ARC
  5
24C
330
1F
100
AcDbEntity
  8
0
  6
Continuous
 62
     7
370
     0
100
AcDbCircle
 10
45.1961920395
 20
59.8505441579
 30
0.0
 40
0.5000000000000007
100
AcDbArc
 50
115.0
 51
155.0
  0
LINE
  5
24D
330
1F
100
AcDbEntity
  8
0
  6
Continuous
 62
     7
370
     0
100
AcDbLine
 10
44.9848830466
 20
60.3036980657
 30
0.0
 11
46.1474772309
 21
60.8458246617
 31
0.0
  0
LINE
  5
24E
330
1F
100
AcDbEntity
  8
0
  6
Continuous
 62
     7
370
     0
100
AcDbLine
 10
46.1474772309
 20
60.8458246617
 30
0.0
 11
46.7147262533
 21
60.0930599077
 31
0.0
  0
ARC
  5
24F
330
1F
100
AcDbEntity
  8
0
  6
Continuous
 62
     7
370
     0
100
AcDbCircle
 10
46.5549992911
 20
59.9726968917
 30
0.0
 40
0.1999999999999992
100
AcDbArc
 50
303.3820961971
 51
37.0
  0
ARC
  5
250
330
1F
100
AcDbEntity
  8
0
  6
Continuous
 62
     7
370
     0
100
AcDbCircle
 10
49.4161424575
 20
55.6305937399
 30
0.0
 40
4.999999999999998
100
AcDbArc
 50
123.3820961971
 51
146.6179038029
  0
ARC
  5
251
330
1F
100
AcDbEntity
  8
0
  6
Continuous
 62
     7
370
     0
100
AcDbCircle
 10
45.0740393057
 20
58.4917369063
 30
0.0
 40
0.2000000000000049
100
AcDbArc
 50
233.0
 51
326.6179038029
  0
LINE
  5
252
330
1F
100
AcDbEntity
  8
0
  6
Continuous
 62
     7
370
     0
100
AcDbLine
 10
44.9536762897
 20
58.3320099441
 30
0.0
 11
44.2009115357
 21
58.8992589665
 31
0.0
  0
LINE
  5
253
330
1F
100
AcDbEntity
  8
0
  6
Continuous
 62
     7
370
     0
100
AcDbLine
 10
53.2674461136
 20
43.6566991312
 30
0.0
 11
52.0620262686
 21
43.2179623796
 31
0.0
  0
ARC
  5
254
330
1F
100
AcDbEntity
  8
0
  6
Continuous
 62
     7
370
     0
100
AcDbCircle
 10
51.8910161917
 20
43.687808892
 30
0.0
 40
0.5000000000000011
100
AcDbArc
 50
250.0
 51
290.0
  0
LINE
  5
255
330
1F
100
AcDbEntity
  8
0
  6
Continuous
 62
     7
370
     0
100
AcDbLine
 10
51.7200061148
 20
43.2179623796
 30
0.0
 11
50.5145862697
 21
43.6566991312
 31
0.0
  0
ARC
  5
256
330
1F
100
AcDbEntity
  8
0
  6
Continuous
 62
     7
370
     0
100
AcDbCircle
 10
50.8438193433
 20
44.5622556875
 30
0.0
 40
0.1999999999999997
100
AcDbArc
 50
78.3820961971
 51
172.0
  0
ARC
  5
257
330
1F
100
AcDbEntity
  8
0
  6
Continuous
 62
     7
370
     0
100
AcDbCircle
 10
51.8910161917
 20
49.6557200057
 30
0.0
 40
5.0
100
AcDbArc
 50
258.3820961971
 51
281.6179038029
  0
ARC
  5
258
330
1F
100
AcDbEntity
  8
0
  6
Continuous
 62
     7
370
     0
100
AcDbCircle
 10
52.93821304
 20
44.5622556875
 30
0.0
 40
0.1999999999999997
100
AcDbArc
 50
8.0
 51
101.6179038029
  0
LINE
  5
259
330
1F
100
AcDbEntity
  8
0
  6
Continuous
 62
     7
370
     0
100
AcDbLine
 10
53.1362666514
 20
44.5900901733
 30
0.0
 11
53.2674461136
 21
43.6566991312
 31
0.0
  0
LINE
  5
25A
330
1F
100
AcDbEntity
  8
0
  6
Continuous
 62
     7
370
     0
100
AcDbLine
 10
50.5145862697
 20
43.6566991312
 30
0.0
 11
50.6457657319
 21
44.5900901733
 31
0.0
  0
ARC
  5
25B
330
1F
100
AcDbEntity
  8
0
  6
Continuous
 62
     7
370
     0
100
AcDbCircle
 10
51.5036992402
 20
54.0907858429
 30
0.0
 40
12.00000000000001
100
AcDbArc
 50
103.6315311386
 51
121.3684688614
  0
LINE
  5
25C
330
1F
100
AcDbEntity
  8
0
  6
Continuous
 62
     7
370
     0
100
AcDbLine
 10
48.6755756427
 20
65.7527630729
 30
0.0
 11
49.2870173183
 21
63.3884936152
 31
0.0
  0
LINE
  5
25D
330
1F
100
AcDbEntity
  8
0
  6
Continuous
 62
     7
370
     0
100
AcDbLine
 10
49.2870173183
 20
63.3884936152
 30
0.0
 11
48.0451221809
 21
63.3342710836
 31
0.0
  0
ARC
  5
25E
330
1F
100
AcDbEntity
  8
0
  6
Continuous
 62
     7
370
     0
100
AcDbCircle
 10
48.0887416383
 20
62.3352228004
 30
0.0
 40
1.000000000000007
100
AcDbArc
 50
92.5
 51
132.5
  0
LINE
  5
25F
330
1F
100
AcDbEntity
  8
0
  6
Continuous
 62
     7
370
     0
100
AcDbLine
 10
47.4131515947
 20
63.0725005222
 30
0.0
 11
46.4966580038
 21
62.2326887725
 31
0.0
  0
LINE
  5
260
330
1F
100
AcDbEntity
  8
0
  6
Continuous
 62
     7
370
     0
100
AcDbLine
 10
46.4966580038
 20
62.2326887725
 30
0.0
 11
45.2572213252
 21
64.3368342472
 31
0.0
  0
LINE
  5
261
330
1F
100
AcDbEntity
  8
0
  6
Continuous
 62
     7
370
     0
100
AcDbLine
 10
46.9842430901
 20
61.4049339248
 30
0.0
 11
47.9300081496
 21
62.2715677647
 31
0.0
  0
ARC
  5
262
330
1F
100
AcDbEntity
  8
0
  6
Continuous
 62
     7
370
     0
100
AcDbCircle
 10
48.2678034693
 20
61.9029292994
 30
0.0
 40
0.5000000000000137
100
AcDbArc
 50
92.5
 51
132.5
  0
LINE
  5
263
330
1F
100
AcDbEntity
  8
0
  6
Continuous
 62
     7
370
     0
100
AcDbLine
 10
48.2459937919
 20
62.4024530453
 30
0.0
 11
49.5275539578
 21
62.458407837
 31
0.0
  0
LINE
  5
264
330
1F
100
AcDbEntity
  8
0
  6
Continuous
 62
     7
370
     0
100
AcDbLine
 10
49.5275539578
 20
62.458407837
 30
0.0
 11
49.7635529608
 21
61.5458663134
 31
0.0
  0
ARC
  5
265
330
1F
100
AcDbEntity
  8
0
  6
Continuous
 62
     7
370
     0
100
AcDbCircle
 10
49.5699235052
 20
61.495790687
 30
0.0
 40
0.2000000000000111
100
AcDbArc
 50
280.8820961971
 51
14.5
  0
ARC
  5
266
330
1F
100
AcDbEntity
  8
0
  6
Continuous
 62
     7
370
     0
100
AcDbCircle
 10
50.5516241784
 20
56.3892983695
 30
0.0
 40
5.000000000000002
100
AcDbArc
 50
100.8820961971
 51
124.1179038029
  0
ARC
  5
267
330
1F
100
AcDbEntity
  8
0
  6
Continuous
 62
     7
370
     0
100
AcDbCircle
 10
47.6349560358
 20
60.6943009184
 30
0.0
 40
0.1999999999999984
100
AcDbArc
 50
210.5
 51
304.1179038029
  0
LINE
  5
268
330
1F
100
AcDbEntity
  8
0
  6
Continuous
 62
     7
370
     0
100
AcDbLine
 10
47.4626304348
 20
60.5927931657
 30
0.0
 11
46.9842430901
 21
61.4049339248
 31
0.0
  0
ARC
  5
269
330
1F
100
AcDbEntity
  8
0
  6
Continuous
 62
     7
370
     0
100
AcDbCircle
 10
52.2783331431
 20
52.2206541686
 30
0.0
 40
12.0
100
AcDbArc
 50
283.6315311386
 51
301.3684688614
  0
LINE
  5
26A
330
1F
100
AcDbEntity
  8
0
  6
Continuous
 62
     7
370
     0
100
AcDbLine
 10
54.4950150651
 20
42.9229463963
 30
0.0
 11
55.7369102024
 21
42.9771689279
 31
0.0
  0
ARC
  5
26B
330
1F
100
AcDbEntity
  8
0
  6
Continuous
 62
     7
370
     0
100
AcDbCircle
 10
55.6932907451
 20
43.976217211
 30
0.0
 40
1.0
100
AcDbArc
 50
272.5
 51
312.5
  0
LINE
  5
26C
330
1F
100
AcDbEntity
  8
0
  6
Continuous
 62
     7
370
     0
100
AcDbLine
 10
56.3688807887
 20
43.2389394892
 30
0.0
 11
57.2853743796
 21
44.078751239
 31
0.0
  0
LINE
  5
26D
330
1F
100
AcDbEntity
  8
0
  6
Continuous
 62
     7
370
     0
100
AcDbLine
 10
57.2853743796
 20
44.078751239
 30
0.0
 11
58.5248110582
 21
41.9746057642
 31
0.0
  0
LINE
  5
26E
330
1F
100
AcDbEntity
  8
0
  6
Continuous
 62
     7
370
     0
100
AcDbLine
 10
55.1064567406
 20
40.5586769385
 30
0.0
 11
54.4950150651
 21
42.9229463963
 31
0.0
  0
LINE
  5
26F
330
1F
100
AcDbEntity
  8
0
  6
Continuous
 62
     7
370
     0
100
AcDbLine
 10
56.7977892932
 20
44.9065060867
 30
0.0
 11
55.8520242338
 21
44.0398722468
 31
0.0
  0
ARC
  5
270
330
1F
100
AcDbEntity
  8
0
  6
Continuous
 62
     7
370
     0
100
AcDbCircle
 10
55.514228914
 20
44.4085107121
 30
0.0
 40
0.4999999999999999
100
AcDbArc
 50
272.5
 51
312.5
  0
LINE
  5
271
330
1F
100
AcDbEntity
  8
0
  6
Continuous
 62
     7
370
     0
100
AcDbLine
 10
55.5360385914
 20
43.9089869661
 30
0.0
 11
54.2544784256
 21
43.8530321745
 31
0.0
  0
ARC
  5
272
330
1F
100
AcDbEntity
  8
0
  6
Continuous
 62
     7
370
     0
100
AcDbCircle
 10
54.2121088781
 20
44.8156493245
 30
0.0
 40
0.2000000000000033
100
AcDbArc
 50
100.8820961971
 51
194.5
  0
ARC
  5
273
330
1F
100
AcDbEntity
  8
0
  6
Continuous
 62
     7
370
     0
100
AcDbCircle
 10
53.2304082049
 20
49.9221416419
 30
0.0
 40
4.999999999999995
100
AcDbArc
 50
280.8820961971
 51
304.1179038029
  0
ARC
  5
274
330
1F
100
AcDbEntity
  8
0
  6
Continuous
 62
     7
370
     0
100
AcDbCircle
 10
56.1470763476
 20
45.6171390931
 30
0.0
 40
0.2000000000000063
100
AcDbArc
 50
30.5
 51
124.1179038029
  0
LINE
  5
275
330
1F
100
AcDbEntity
  8
0
  6
Continuous
 62
     7
370
     0
100
AcDbLine
 10
56.3194019486
 20
45.7186468458
 30
0.0
 11
56.7977892932
 21
44.9065060867
 31
0.0
  0
LINE
  5
276
330
1F
100
AcDbEntity
  8
0
  6
Continuous
 62
     7
370
     0
100
AcDbLine
 10
54.2544784256
 20
43.8530321745
 30
0.0
 11
54.0184794225
 21
44.7655736981
 31
0.0
  0
LINE
  5
277
330
1F
100
AcDbEntity
  8
0
  6
Continuous
 62
     7
370
     0
100
AcDbLine
 10
50.5145862697
 20
62.6547408802
 30
0.0
 11
51.7200061148
 21
63.0934776319
 31
0.0
  0
ARC
  5
278
330
1F
100
AcDbEntity
  8
0
  6
Continuous
 62
     7
370
     0
100
AcDbCircle
 10
51.8910161917
 20
62.6236311195
 30
0.0
 40
0.5000000000000078
100
AcDbArc
 50
70.0
 51
110.0
  0
LINE
  5
279
330
1F
100
AcDbEntity
  8
0
  6
Continuous
 62
     7
370
     0
100
AcDbLine
 10
52.0620262686
 20
63.0934776319
 30
0.0
 11
53.2674461136
 21
62.6547408802
 31
0.0
  0
LINE
  5
27A
330
1F
100
AcDbEntity
  8
0
  6
Continuous
 62
     7
370
     0
100
AcDbLine
 10
53.2674461136
 20
62.6547408802
 30
0.0
 11
53.1362666514
 21
61.7213498382
 31
0.0
  0
ARC
  5
27B
330
1F
100
AcDbEntity
  8
0
  6
Continuous
 62
     7
370
     0
100
AcDbCircle
 10
52.93821304
 20
61.7491843239
 30
0.0
 40
0.2000000000000045
100
AcDbArc
 50
258.3820961971
 51
352.0
  0
ARC
  5
27C
330
1F
100
AcDbEntity
  8
0
  6
Continuous
 62
     7
370
     0
100
AcDbCircle
 10
51.8910161917
 20
56.6557200057
 30
0.0
 40
4.999999999999998
100
AcDbArc
 50
78.3820961971
 51
101.6179038029
  0
ARC
  5
27D
330
1F
100
AcDbEntity
  8
0
  6
Continuous
 62
     7
370
     0
100
AcDbCircle
 10
50.8438193433
 20
61.7491843239
 30
0.0
 40
0.1999999999999987
100
AcDbArc
 50
188.0
 51
281.6179038029
  0
LINE
  5
27E
330
1F
100
AcDbEntity
  8
0
  6
Continuous
 62
     7
370
     0
100
AcDbLine
 10
50.6457657319
 20
61.7213498382
 30
0.0
 11
50.5145862697
 21
62.6547408802
 31
0.0
  0
ARC
  5
27F
330
1F
100
AcDbEntity
  8
0
  6
Continuous
 62
     7
370
     0
100
AcDbCircle
 10
51.8910161917
 20
54.1678279746
 30
0.0
 40
12.0
100
AcDbArc
 50
81.1315311386
 51
98.8684688614
  0
LINE
  5
280
330
1F
100
AcDbEntity
  8
0
  6
Continuous
 62
     7
370
     0
100
AcDbLine
 10
53.7410161922
 20
66.024366538
 30
0.0
 11
53.4011478302
 21
63.6060766457
 31
0.0
  0
LINE
  5
281
330
1F
100
AcDbEntity
  8
0
  6
Continuous
 62
     7
370
     0
100
AcDbLine
 10
53.4011478302
 20
63.6060766457
 30
0.0
 11
52.2330363454
 21
64.0312347142
 31
0.0
  0
ARC
  5
282
330
1F
100
AcDbEntity
  8
0
  6
Continuous
 62
     7
370
     0
100
AcDbCircle
 10
51.8910161917
 20
63.0915422333
 30
0.0
 40
1.000000000000006
100
AcDbArc
 50
70.0
 51
110.0
  0
LINE
  5
283
330
1F
100
AcDbEntity
  8
0
  6
Continuous
 62
     7
370
     0
100
AcDbLine
 10
51.5489960379
 20
64.0312347142
 30
0.0
 11
50.3808845532
 21
63.6060766457
 31
0.0
  0
LINE
  5
284
330
1F
100
AcDbEntity
  8
0
  6
Continuous
 62
     7
370
     0
100
AcDbLine
 10
50.3808845532
 20
63.6060766457
 30
0.0
 11
50.0410161911
 21
66.024366538
 31
0.0
  0
LINE
  5
285
330
1F
100
AcDbEntity
  8
0
  6
Continuous
 62
     7
370
     0
100
AcDbLine
 10
59.5811208476
 20
47.4121810449
 30
0.0
 11
59.0389942516
 21
46.2495868606
 31
0.0
  0
ARC
  5
286
330
1F
100
AcDbEntity
  8
0
  6
Continuous
 62
     7
370
     0
100
AcDbCircle
 10
58.5858403439
 20
46.4608958535
 30
0.0
 40
0.4999999999999973
100
AcDbArc
 50
295.0
 51
335.0
  0
LINE
  5
287
330
1F
100
AcDbEntity
  8
0
  6
Continuous
 62
     7
370
     0
100
AcDbLine
 10
58.7971493368
 20
46.0077419458
 30
0.0
 11
57.6345551525
 21
45.4656153498
 31
0.0
  0
ARC
  5
288
330
1F
100
AcDbEntity
  8
0
  6
Continuous
 62
     7
370
     0
100
AcDbCircle
 10
57.2270330922
 20
46.3387431197
 30
0.0
 40
0.1999999999999973
100
AcDbArc
 50
123.3820961971
 51
217.0
  0
ARC
  5
289
330
1F
100
AcDbEntity
  8
0
  6
Continuous
 62
     7
370
     0
100
AcDbCircle
 10
54.3658899258
 20
50.6808462716
 30
0.0
 40
5.000000000000005
100
AcDbArc
 50
303.3820961971
 51
326.6179038029
  0
ARC
  5
28A
330
1F
100
AcDbEntity
  8
0
  6
Continuous
 62
     7
370
     0
100
AcDbCircle
 10
58.7079930777
 20
47.8197031052
 30
0.0
 40
0.2000000000000049
100
AcDbArc
 50
53.0
 51
146.6179038029
  0
LINE
  5
28B
330
1F
100
AcDbEntity
  8
0
  6
Continuous
 62
     7
370
     0
100
AcDbLine
 10
58.8283560936
 20
47.9794300673
 30
0.0
 11
59.5811208476
 21
47.4121810449
 31
0.0
  0
LINE
  5
28C
330
1F
100
AcDbEntity
  8
0
  6
Continuous
 62
     7
370
     0
100
AcDbLine
 10
57.6345551525
 20
45.4656153498
 30
0.0
 11
57.0673061301
 21
46.2183801038
 31
0.0
  0
ARC
  5
28D
330
1F
100
AcDbEntity
  8
0
  6
Continuous
 62
     7
370
     0
100
AcDbCircle
 10
52.6066845997
 20
52.4400515977
 30
0.0
 40
12.0
100
AcDbArc
 50
306.1315311386
 51
323.8684688614
  0
LINE
  5
28E
330
1F
100
AcDbEntity
  8
0
  6
Continuous
 62
     7
370
     0
100
AcDbLine
 10
58.2127104279
 20
44.6983769117
 30
0.0
 11
59.3393215675
 21
45.2237248001
 31
0.0
  0
ARC
  5
28F
330
1F
100
AcDbEntity
  8
0
  6
Continuous
 62
     7
370
     0
100
AcDbCircle
 10
58.9167034654
 20
46.130032732
 30
0.0
 40
1.0
100
AcDbArc
 50
295.0
 51
335.0
  0
LINE
  5
290
330
1F
100
AcDbEntity
  8
0
  6
Continuous
 62
     7
370
     0
100
AcDbLine
 10
59.8230113973
 20
45.7074146299
 30
0.0
 11
60.3483592857
 21
46.8340257695
 31
0.0
  0
LINE
  5
291
330
1F
100
AcDbEntity
  8
0
  6
Continuous
 62
     7
370
     0
100
AcDbLine
 10
60.3483592857
 20
46.8340257695
 30
0.0
 11
62.2986707602
 21
45.3643605625
 31
0.0
  0
LINE
  5
292
330
1F
100
AcDbEntity
  8
0
  6
Continuous
 62
     7
370
     0
100
AcDbLine
 10
59.6823756349
 20
42.7480654372
 30
0.0
 11
58.2127104279
 21
44.6983769117
 31
0.0
  0
LINE
  5
293
330
1F
100
AcDbEntity
  8
0
  6
Continuous
 62
     7
370
     0
100
AcDbLine
 10
54.2544784256
 20
62.458407837
 30
0.0
 11
55.5360385914
 21
62.4024530453
 31
0.0
  0
ARC
  5
294
330
1F
100
AcDbEntity
  8
0
  6
Continuous
 62
     7
370
     0
100
AcDbCircle
 10
55.514228914
 20
61.9029292994
 30
0.0
 40
0.5000000000000073
100
AcDbArc
 50
47.5
 51
87.5
  0
LINE
  5
295
330
1F
100
AcDbEntity
  8
0
  6
Continuous
 62
     7
370
     0
100
AcDbLine
 10
55.8520242338
 20
62.2715677647
 30
0.0
 11
56.7977892932
 21
61.4049339248
 31
0.0
  0
LINE
  5
296
330
1F
100
AcDbEntity
  8
0
  6
Continuous
 62
     7
370
     0
100
AcDbLine
 10
56.7977892932
 20
61.4049339248
 30
0.0
 11
56.3194019486
 21
60.5927931657
 31
0.0
  0
ARC
  5
297
330
1F
100
AcDbEntity
  8
0
  6
Continuous
 62
     7
370
     0
100
AcDbCircle
 10
56.1470763476
 20
60.6943009184
 30
0.0
 40
0.2000000000000063
100
AcDbArc
 50
235.8820961971
 51
329.5
  0
ARC
  5
298
330
1F
100
AcDbEntity
  8
0
  6
Continuous
 62
     7
370
     0
100
AcDbCircle
 10
53.2304082049
 20
56.3892983695
 30
0.0
 40
5.000000000000003
100
AcDbArc
 50
55.8820961971
 51
79.1179038029
  0
ARC
  5
299
330
1F
100
AcDbEntity
  8
0
  6
Continuous
 62
     7
370
     0
100
AcDbCircle
 10
54.2121088781
 20
61.495790687
 30
0.0
 40
0.2000000000000042
100
AcDbArc
 50
165.5
 51
259.1179038029
  0
LINE
  5
29A
330
1F
100
AcDbEntity
  8
0
  6
Continuous
 62
     7
370
     0
100
AcDbLine
 10
54.0184794225
 20
61.5458663134
 30
0.0
 11
54.2544784256
 21
62.458407837
 31
0.0
  0
ARC
  5
29B
330
1F
100
AcDbEntity
  8
0
  6
Continuous
 62
     7
370
     0
100
AcDbCircle
 10
52.2783331431
 20
54.0907858429
 30
0.0
 40
12.0
100
AcDbArc
 50
58.6315311386
 51
76.3684688614
  0
LINE
  5
29C
330
1F
100
AcDbEntity
  8
0
  6
Continuous
 62
     7
370
     0
100
AcDbLine
 10
58.5248110582
 20
64.3368342472
 30
0.0
 11
57.2853743796
 21
62.2326887725
 31
0.0
  0
LINE
  5
29D
330
1F
100
AcDbEntity
  8
0
  6
Continuous
 62
     7
370
     0
100
AcDbLine
 10
57.2853743796
 20
62.2326887725
 30
0.0
 11
56.3688807887
 21
63.0725005222
 31
0.0
  0
ARC
  5
29E
330
1F
100
AcDbEntity
  8
0
  6
Continuous
 62
     7
370
     0
100
AcDbCircle
 10
55.6932907451
 20
62.3352228004
 30
0.0
 40
1.000000000000001
100
AcDbArc
 50
47.5
 51
87.5
  0
LINE
  5
29F
330
1F
100
AcDbEntity
  8
0
  6
Continuous
 62
     7
370
     0
100
AcDbLine
 10
55.7369102024
 20
63.3342710836
 30
0.0
 11
54.4950150651
 21
63.3884936152
 31
0.0
  0
LINE
  5
2A0
330
1F
100
AcDbEntity
  8
0
  6
Continuous
 62
     7
370
     0
100
AcDbLine
 10
54.4950150651
 20
63.3884936152
 30
0.0
 11
55.1064567406
 21
65.7527630729
 31
0.0
  0
LINE
  5
2A1
330
1F
100
AcDbEntity
  8
0
  6
Continuous
 62
     7
370
     0
100
AcDbLine
 10
61.1937040229
 20
50.7922577718
 30
0.0
 11
61.1377492313
 21
49.510697606
 31
0.0
  0
ARC
  5
2A2
330
1F
100
AcDbEntity
  8
0
  6
Continuous
 62
     7
370
     0
100
AcDbCircle
 10
60.6382254853
 20
49.5325072834
 30
0.0
 40
0.5000000000000027
100
AcDbArc
 50
317.5
 51
357.5
  0
LINE
  5
2A3
330
1F
100
AcDbEntity
  8
0
  6
Continuous
 62
     7
370
     0
100
AcDbLine
 10
61.0068639506
 20
49.1947119636
 30
0.0
 11
60.1402301107
 21
48.2489469042
 31
0.0
  0
ARC
  5
2A4
330
1F
100
AcDbEntity
  8
0
  6
Continuous
 62
     7
370
     0
100
AcDbCircle
 10
59.4295971043
 20
48.8996598498
 30
0.0
 40
0.1999999999999984
100
AcDbArc
 50
145.8820961971
 51
239.5
  0
ARC
  5
2A5
330
1F
100
AcDbEntity
  8
0
  6
Continuous
 62
     7
370
     0
100
AcDbCircle
 10
55.1245945555
 20
51.8163279925
 30
0.0
 40
4.999999999999999
100
AcDbArc
 50
325.8820961971
 51
349.1179038029
  0
ARC
  5
2A6
330
1F
100
AcDbEntity
  8
0
  6
Continuous
 62
     7
370
     0
100
AcDbCircle
 10
60.2310868729
 20
50.8346273193
 30
0.0
 40
0.2000000000000033
100
AcDbArc
 50
75.5
 51
169.1179038029
  0
LINE
  5
2A7
330
1F
100
AcDbEntity
  8
0
  6
Continuous
 62
     7
370
     0
100
AcDbLine
 10
60.2811624993
 20
51.0282567749
 30
0.0
 11
61.1937040229
 21
50.7922577718
 31
0.0
  0
LINE
  5
2A8
330
1F
100
AcDbEntity
  8
0
  6
Continuous
 62
     7
370
     0
100
AcDbLine
 10
60.1402301107
 20
48.2489469042
 30
0.0
 11
59.3280893516
 21
48.7273342488
 31
0.0
  0
LINE
  5
2A9
330
1F
100
AcDbEntity
  8
0
  6
Continuous
 62
     7
370
     0
100
AcDbLine
 10
57.6345551525
 20
60.8458246617
 30
0.0
 11
58.7971493368
 21
60.3036980657
 31
0.0
  0
ARC
  5
2AA
330
1F
100
AcDbEntity
  8
0
  6
Continuous
 62
     7
370
     0
100
AcDbCircle
 10
58.5858403439
 20
59.8505441579
 30
0.0
 40
0.5000000000000002
100
AcDbArc
 50
25.0
 51
65.0
  0
LINE
  5
2AB
330
1F
100
AcDbEntity
  8
0
  6
Continuous
 62
     7
370
     0
100
AcDbLine
 10
59.0389942516
 20
60.0618531508
 30
0.0
 11
59.5811208476
 21
58.8992589665
 31
0.0
  0
LINE
  5
2AC
330
1F
100
AcDbEntity
  8
0
  6
Continuous
 62
     7
370
     0
100
AcDbLine
 10
59.5811208476
 20
58.8992589665
 30
0.0
 11
58.8283560936
 21
58.3320099441
 31
0.0
  0
ARC
  5
2AD
330
1F
100
AcDbEntity
  8
0
  6
Continuous
 62
     7
370
     0
100
AcDbCircle
 10
58.7079930777
 20
58.4917369063
 30
0.0
 40
0.2000000000000072
100
AcDbArc
 50
213.3820961971
 51
307.0
  0
ARC
  5
2AE
330
1F
100
AcDbEntity
  8
0
  6
Continuous
 62
     7
370
     0
100
AcDbCircle
 10
54.3658899258
 20
55.6305937399
 30
0.0
 40
5.0
100
AcDbArc
 50
33.3820961971
 51
56.6179038029
  0
ARC
  5
2AF
330
1F
100
AcDbEntity
  8
0
  6
Continuous
 62
     7
370
     0
100
AcDbCircle
 10
57.2270330922
 20
59.9726968917
 30
0.0
 40
0.1999999999999992
100
AcDbArc
 50
143.0
 51
236.6179038029
  0
LINE
  5
2B0
330
1F
100
AcDbEntity
  8
0
  6
Continuous
 62
     7
370
     0
100
AcDbLine
 10
57.0673061301
 20
60.0930599077
 30
0.0
 11
57.6345551525
 21
60.8458246617
 31
0.0
  0
ARC
  5
2B1
330
1F
100
AcDbEntity
  8
0
  6
Continuous
 62
     7
370
     0
100
AcDbCircle
 10
52.8260820288
 20
52.7684030543
 30
0.0
 40
12.0
100
AcDbArc
 50
328.6315311386
 51
346.3684688614
  0
LINE
  5
2B2
330
1F
100
AcDbEntity
  8
0
  6
Continuous
 62
     7
370
     0
100
AcDbLine
 10
60.9679849584
 20
47.7613618178
 30
0.0
 11
61.8077967082
 21
48.6778554087
 31
0.0
  0
ARC
  5
2B3
330
1F
100
AcDbEntity
  8
0
  6
Continuous
 62
     7
370
     0
100
AcDbCircle
 10
61.0705189864
 20
49.3534454523
 30
0.0
 40
1.000000000000011
100
AcDbArc
 50
317.5
 51
357.5
  0
LINE
  5
2B4
330
1F
100
AcDbEntity
  8
0
  6
Continuous
 62
     7
370
     0
100
AcDbLine
 10
62.0695672695
 20
49.309825995
 30
0.0
 11
62.1237898011
 21
50.5517211323
 31
0.0
  0
LINE
  5
2B5
330
1F
100
AcDbEntity
  8
0
  6
Continuous
 62
     7
370
     0
100
AcDbLine
 10
62.1237898011
 20
50.5517211323
 30
0.0
 11
64.4880592589
 21
49.9402794568
 31
0.0
  0
LINE
  5
2B6
330
1F
100
AcDbEntity
  8
0
  6
Continuous
 62
     7
370
     0
100
AcDbLine
 10
63.0721304332
 20
46.5219251392
 30
0.0
 11
60.9679849584
 21
47.7613618178
 31
0.0
  0
LINE
  5
2B7
330
1F
100
AcDbEntity
  8
0
  6
Continuous
 62
     7
370
     0
100
AcDbLine
 10
61.3900370662
 20
54.5321499277
 30
0.0
 11
61.8287738178
 21
53.3267300826
 31
0.0
  0
ARC
  5
2B8
330
1F
100
AcDbEntity
  8
0
  6
Continuous
 62
     7
370
     0
100
AcDbCircle
 10
61.3589273054
 20
53.1557200057
 30
0.0
 40
0.4999999999999944
100
AcDbArc
 50
340.0
 51
20.0
  0
LINE
  5
2B9
330
1F
100
AcDbEntity
  8
0
  6
Continuous
 62
     7
370
     0
100
AcDbLine
 10
61.8287738178
 20
52.9847099288
 30
0.0
 11
61.3900370662
 21
51.7792900838
 31
0.0
  0
LINE
  5
2BA
330
1F
100
AcDbEntity
  8
0
  6
Continuous
 62
     7
370
     0
100
AcDbLine
 10
61.3900370662
 20
51.7792900838
 30
0.0
 11
60.4566460241
 21
51.910469546
 31
0.0
  0
ARC
  5
2BB
330
1F
100
AcDbEntity
  8
0
  6
Continuous
 62
     7
370
     0
100
AcDbCircle
 10
60.4844805099
 20
52.1085231574
 30
0.0
 40
0.2000000000000045
100
AcDbArc
 50
168.3820961971
 51
262.0
  0
ARC
  5
2BC
330
1F
100
AcDbEntity
  8
0
  6
Continuous
 62
     7
370
     0
100
AcDbCircle
 10
55.3910161917
 20
53.1557200057
 30
0.0
 40
5.000000000000003
100
AcDbArc
 50
348.3820961971
 51
11.6179038029
  0
ARC
  5
2BD
330
1F
100
AcDbEntity
  8
0
  6
Continuous
 62
     7
370
     0
100
AcDbCircle
 10
60.4844805099
 20
54.2029168541
 30
0.0
 40
0.1999999999999976
100
AcDbArc
 50
98.0
 51
191.6179038029
  0
LINE
  5
2BE
330
1F
100
AcDbEntity
  8
0
  6
Continuous
 62
     7
370
     0
100
AcDbLine
 10
60.4566460241
 20
54.4009704655
 30
0.0
 11
61.3900370662
 21
54.5321499277
 31
0.0
  0
LINE
  5
2BF
330
1F
100
AcDbEntity
  8
0
  6
Continuous
 62
     7
370
     0
100
AcDbLine
 10
60.1402301107
 20
58.0624931073
 30
0.0
 11
61.0068639506
 21
57.1167280478
 31
0.0
  0
ARC
  5
2C0
330
1F
100
AcDbEntity
  8
0
  6
Continuous
 62
     7
370
     0
100
AcDbCircle
 10
60.6382254853
 20
56.7789327281
 30
0.0
 40
0.4999999999999979
100
AcDbArc
 50
2.5
 51
42.5
  0
LINE
  5
2C1
330
1F
100
AcDbEntity
  8
0
  6
Continuous
 62
     7
370
     0
100
AcDbLine
 10
61.1377492313
 20
56.8007424055
 30
0.0
 11
61.1937040229
 21
55.5191822396
 31
0.0
  0
LINE
  5
2C2
330
1F
100
AcDbEntity
  8
0
  6
Continuous
 62
     7
370
     0
100
AcDbLine
 10
61.1937040229
 20
55.5191822396
 30
0.0
 11
60.2811624993
 21
55.2831832366
 31
0.0
  0
ARC
  5
2C3
330
1F
100
AcDbEntity
  8
0
  6
Continuous
 62
     7
370
     0
100
AcDbCircle
 10
60.2310868729
 20
55.4768126922
 30
0.0
 40
0.1999999999999973
100
AcDbArc
 50
190.8820961971
 51
284.5
  0
ARC
  5
2C4
330
1F
100
AcDbEntity
  8
0
  6
Continuous
 62
     7
370
     0
100
AcDbCircle
 10
55.1245945555
 20
54.495112019
 30
0.0
 40
5.0
100
AcDbArc
 50
10.8820961971
 51
34.1179038029
  0
ARC
  5
2C5
330
1F
100
AcDbEntity
  8
0
  6
Continuous
 62
     7
370
     0
100
AcDbCircle
 10
59.4295971043
 20
57.4117801616
 30
0.0
 40
0.2000000000000043
100
AcDbArc
 50
120.5
 51
214.1179038029
  0
LINE
  5
2C6
330
1F
100
AcDbEntity
  8
0
  6
Continuous
 62
     7
370
     0
100
AcDbLine
 10
59.3280893516
 20
57.5841057626
 30
0.0
 11
60.1402301107
 21
58.0624931073
 31
0.0
  0
ARC
  5
2C7
330
1F
100
AcDbEntity
  8
0
  6
Continuous
 62
     7
370
     0
100
AcDbCircle
 10
52.6066845997
 20
53.8713884138
 30
0.0
 40
12.0
100
AcDbArc
 50
36.1315311386
 51
53.8684688614
  0
LINE
  5
2C8
330
1F
100
AcDbEntity
  8
0
  6
Continuous
 62
     7
370
     0
100
AcDbLine
 10
62.2986707602
 20
60.9470794489
 30
0.0
 11
60.3483592857
 21
59.477414242
 31
0.0
  0
LINE
  5
2C9
330
1F
100
AcDbEntity
  8
0
  6
Continuous
 62
     7
370
     0
100
AcDbLine
 10
60.3483592857
 20
59.477414242
 30
0.0
 11
59.8230113973
 21
60.6040253816
 31
0.0
  0
ARC
  5
2CA
330
1F
100
AcDbEntity
  8
0
  6
Continuous
 62
     7
370
     0
100
AcDbCircle
 10
58.9167034654
 20
60.1814072795
 30
0.0
 40
1.000000000000004
100
AcDbArc
 50
25.0
 51
65.0
  0
LINE
  5
2CB
330
1F
100
AcDbEntity
  8
0
  6
Continuous
 62
     7
370
     0
100
AcDbLine
 10
59.3393215675
 20
61.0877152113
 30
0.0
 11
58.2127104279
 21
61.6130630998
 31
0.0
  0
LINE
  5
2CC
330
1F
100
AcDbEntity
  8
0
  6
Continuous
 62
     7
370
     0
100
AcDbLine
 10
58.2127104279
 20
61.6130630998
 30
0.0
 11
59.6823756349
 21
63.5633745743
 31
0.0
  0
ARC
  5
2CD
330
1F
100
AcDbEntity
  8
0
  6
Continuous
 62
     7
370
     0
100
AcDbCircle
 10
52.9031241605
 20
53.1557200057
 30
0.0
 40
11.99999999999999
100
AcDbArc
 50
351.1315311386
 51
8.8684688614
  0
LINE
  5
2CE
330
1F
100
AcDbEntity
  8
0
  6
Continuous
 62
     7
370
     0
100
AcDbLine
 10
62.3413728316
 20
51.6455883672
 30
0.0
 11
62.7665309001
 21
52.813699852
 31
0.0
  0
ARC
  5
2CF
330
1F
100
AcDbEntity
  8
0
  6
Continuous
 62
     7
370
     0
100
AcDbCircle
 10
61.8268384192
 20
53.1557200057
 30
0.0
 40
0.9999999999999998
100
AcDbArc
 50
340.0
 51
20.0
  0
LINE
  5
2D0
330
1F
100
AcDbEntity
  8
0
  6
Continuous
 62
     7
370
     0
100
AcDbLine
 10
62.7665309001
 20
53.4977401595
 30
0.0
 11
62.3413728316
 21
54.6658516442
 31
0.0
  0
LINE
  5
2D1
330
1F
100
AcDbEntity
  8
0
  6
Continuous
 62
     7
370
     0
100
AcDbLine
 10
62.3413728316
 20
54.6658516442
 30
0.0
 11
64.759662724
 21
55.0057200063
 31
0.0
  0
LINE
  5
2D2
330
1F
100
AcDbEntity
  8
0
  6
Continuous
 62
     7
370
     0
100
AcDbLine
 10
64.759662724
 20
51.3057200052
 30
0.0
 11
62.3413728316
 21
51.6455883672
 31
0.0
  0
ARC
  5
2D3
330
1F
100
AcDbEntity
  8
0
  6
Continuous
 62
     7
370
     0
100
AcDbCircle
 10
52.8260820288
 20
53.5430369572
 30
0.0
 40
12.0
100
AcDbArc
 50
13.6315311386
 51
31.3684688614
  0
LINE
  5
2D4
330
1F
100
AcDbEntity
  8
0
  6
Continuous
 62
     7
370
     0
100
AcDbLine
 10
62.1237898011
 20
55.7597188791
 30
0.0
 11
62.0695672695
 21
57.0016140165
 31
0.0
  0
ARC
  5
2D5
330
1F
100
AcDbEntity
  8
0
  6
Continuous
 62
     7
370
     0
100
AcDbCircle
 10
61.0705189864
 20
56.9579945591
 30
0.0
 40
1.000000000000001
100
AcDbArc
 50
2.5
 51
42.5
  0
LINE
  5
2D6
330
1F
100
AcDbEntity
  8
0
  6
Continuous
 62
     7
370
     0
100
AcDbLine
 10
61.8077967082
 20
57.6335846027
 30
0.0
 11
60.9679849584
 21
58.5500781936
 31
0.0
  0
LINE
  5
2D7
330
1F
100
AcDbEntity
  8
0
  6
Continuous
 62
     7
370
     0
100
AcDbLine
 10
64.4880592589
 20
56.3711605547
 30
0.0
 11
62.1237898011
 21
55.7597188791
 31
0.0
  0
LINE
  5
2D8
330
1F
100
AcDbEntity
  8
0
  6
Continuous
 62
     7
370
     0
100
AcDbLine
 10
60.9679849584
 20
58.5500781936
 30
0.0
 11
63.0721304332
 21
59.7895148722
 31
0.0
  0
LINE
  5
2D9
330
1F
100
AcDbEntity
  8
0
  6
Continuous
 62
     7
370
     0
100
AcDbLine
 10
42.8140474249
 20
47.7613618178
 30
0.0
 11
43.6418022726
 21
48.2489469042
 31
0.0
  0
LINE
  5
2DA
330
1F
100
AcDbEntity
  8
0
  6
Continuous
 62
     7
370
     0
100
AcDbLine
 10
42.5883283604
 20
50.7922577718
 30
0.0
 11
41.6582425822
 21
50.5517211323
 31
0.0
  0
LINE
  5
2DB
330
1F
100
AcDbEntity
  8
0
  6
Continuous
 62
     7
370
     0
100
AcDbLine
 10
42.3919953172
 20
54.5321499277
 30
0.0
 11
41.4406595517
 21
54.6658516442
 31
0.0
  0
LINE
  5
2DC
330
1F
100
AcDbEntity
  8
0
  6
Continuous
 62
     7
370
     0
100
AcDbLine
 10
41.4406595517
 20
51.6455883672
 30
0.0
 11
42.3919953172
 21
51.7792900838
 31
0.0
  0
LINE
  5
2DD
330
1F
100
AcDbEntity
  8
0
  6
Continuous
 62
     7
370
     0
100
AcDbLine
 10
45.5693219554
 20
44.6983769117
 30
0.0
 11
46.1474772309
 21
45.4656153498
 31
0.0
  0
LINE
  5
2DE
330
1F
100
AcDbEntity
  8
0
  6
Continuous
 62
     7
370
     0
100
AcDbLine
 10
44.2009115357
 20
47.4121810449
 30
0.0
 11
43.4336730976
 21
46.8340257695
 31
0.0
  0
LINE
  5
2DF
330
1F
100
AcDbEntity
  8
0
  6
Continuous
 62
     7
370
     0
100
AcDbLine
 10
43.6418022726
 20
58.0624931073
 30
0.0
 11
42.8140474249
 21
58.5500781936
 31
0.0
  0
LINE
  5
2E0
330
1F
100
AcDbEntity
  8
0
  6
Continuous
 62
     7
370
     0
100
AcDbLine
 10
41.6582425822
 20
55.7597188791
 30
0.0
 11
42.5883283604
 21
55.5191822396
 31
0.0
  0
LINE
  5
2E1
330
1F
100
AcDbEntity
  8
0
  6
Continuous
 62
     7
370
     0
100
AcDbLine
 10
49.2870173183
 20
42.9229463963
 30
0.0
 11
49.5275539578
 21
43.8530321745
 31
0.0
  0
LINE
  5
2E2
330
1F
100
AcDbEntity
  8
0
  6
Continuous
 62
     7
370
     0
100
AcDbLine
 10
46.9842430901
 20
44.9065060867
 30
0.0
 11
46.4966580038
 21
44.078751239
 31
0.0
  0
LINE
  5
2E3
330
1F
100
AcDbEntity
  8
0
  6
Continuous
 62
     7
370
     0
100
AcDbLine
 10
46.1474772309
 20
60.8458246617
 30
0.0
 11
45.5693219554
 21
61.6130630998
 31
0.0
  0
LINE
  5
2E4
330
1F
100
AcDbEntity
  8
0
  6
Continuous
 62
     7
370
     0
100
AcDbLine
 10
43.4336730976
 20
59.477414242
 30
0.0
 11
44.2009115357
 21
58.8992589665
 31
0.0
  0
LINE
  5
2E5
330
1F
100
AcDbEntity
  8
0
  6
Continuous
 62
     7
370
     0
100
AcDbLine
 10
53.4011478302
 20
42.7053633658
 30
0.0
 11
53.2674461136
 21
43.6566991312
 31
0.0
  0
LINE
  5
2E6
330
1F
100
AcDbEntity
  8
0
  6
Continuous
 62
     7
370
     0
100
AcDbLine
 10
50.5145862697
 20
43.6566991312
 30
0.0
 11
50.3808845532
 21
42.7053633658
 31
0.0
  0
LINE
  5
2E7
330
1F
100
AcDbEntity
  8
0
  6
Continuous
 62
     7
370
     0
100
AcDbLine
 10
49.5275539578
 20
62.458407837
 30
0.0
 11
49.2870173183
 21
63.3884936152
 31
0.0
  0
LINE
  5
2E8
330
1F
100
AcDbEntity
  8
0
  6
Continuous
 62
     7
370
     0
100
AcDbLine
 10
46.4966580038
 20
62.2326887725
 30
0.0
 11
46.9842430901
 21
61.4049339248
 31
0.0
  0
LINE
  5
2E9
330
1F
100
AcDbEntity
  8
0
  6
Continuous
 62
     7
370
     0
100
AcDbLine
 10
57.2853743796
 20
44.078751239
 30
0.0
 11
56.7977892932
 21
44.9065060867
 31
0.0
  0
LINE
  5
2EA
330
1F
100
AcDbEntity
  8
0
  6
Continuous
 62
     7
370
     0
100
AcDbLine
 10
54.2544784256
 20
43.8530321745
 30
0.0
 11
54.4950150651
 21
42.9229463963
 31
0.0
  0
LINE
  5
2EB
330
1F
100
AcDbEntity
  8
0
  6
Continuous
 62
     7
370
     0
100
AcDbLine
 10
53.2674461136
 20
62.6547408802
 30
0.0
 11
53.4011478302
 21
63.6060766457
 31
0.0
  0
LINE
  5
2EC
330
1F
100
AcDbEntity
  8
0
  6
Continuous
 62
     7
370
     0
100
AcDbLine
 10
50.3808845532
 20
63.6060766457
 30
0.0
 11
50.5145862697
 21
62.6547408802
 31
0.0
  0
LINE
  5
2ED
330
1F
100
AcDbEntity
  8
0
  6
Continuous
 62
     7
370
     0
100
AcDbLine
 10
60.3483592857
 20
46.8340257695
 30
0.0
 11
59.5811208476
 21
47.4121810449
 31
0.0
  0
LINE
  5
2EE
330
1F
100
AcDbEntity
  8
0
  6
Continuous
 62
     7
370
     0
100
AcDbLine
 10
57.6345551525
 20
45.4656153498
 30
0.0
 11
58.2127104279
 21
44.6983769117
 31
0.0
  0
LINE
  5
2EF
330
1F
100
AcDbEntity
  8
0
  6
Continuous
 62
     7
370
     0
100
AcDbLine
 10
56.7977892932
 20
61.4049339248
 30
0.0
 11
57.2853743796
 21
62.2326887725
 31
0.0
  0
LINE
  5
2F0
330
1F
100
AcDbEntity
  8
0
  6
Continuous
 62
     7
370
     0
100
AcDbLine
 10
54.4950150651
 20
63.3884936152
 30
0.0
 11
54.2544784256
 21
62.458407837
 31
0.0
  0
LINE
  5
2F1
330
1F
100
AcDbEntity
  8
0
  6
Continuous
 62
     7
370
     0
100
AcDbLine
 10
62.1237898011
 20
50.5517211323
 30
0.0
 11
61.1937040229
 21
50.7922577718
 31
0.0
  0
LINE
  5
2F2
330
1F
100
AcDbEntity
  8
0
  6
Continuous
 62
     7
370
     0
100
AcDbLine
 10
60.1402301107
 20
48.2489469042
 30
0.0
 11
60.9679849584
 21
47.7613618178
 31
0.0
  0
LINE
  5
2F3
330
1F
100
AcDbEntity
  8
0
  6
Continuous
 62
     7
370
     0
100
AcDbLine
 10
59.5811208476
 20
58.8992589665
 30
0.0
 11
60.3483592857
 21
59.477414242
 31
0.0
  0
LINE
  5
2F4
330
1F
100
AcDbEntity
  8
0
  6
Continuous
 62
     7
370
     0
100
AcDbLine
 10
58.2127104279
 20
61.6130630998
 30
0.0
 11
57.6345551525
 21
60.8458246617
 31
0.0
  0
LINE
  5
2F5
330
1F
100
AcDbEntity
  8
0
  6
Continuous
 62
     7
370
     0
100
AcDbLine
 10
62.3413728316
 20
54.6658516442
 30
0.0
 11
61.3900370662
 21
54.5321499277
 31
0.0
  0
LINE
  5
2F6
330
1F
100
AcDbEntity
  8
0
  6
Continuous
 62
     7
370
     0
100
AcDbLine
 10
61.3900370662
 20
51.7792900838
 30
0.0
 11
62.3413728316
 21
51.6455883672
 31
0.0
  0
LINE
  5
2F7
330
1F
100
AcDbEntity
  8
0
  6
Continuous
 62
     7
370
     0
100
AcDbLine
 10
61.1937040229
 20
55.5191822396
 30
0.0
 11
62.1237898011
 21
55.7597188791
 31
0.0
  0
LINE
  5
2F8
330
1F
100
AcDbEntity
  8
0
  6
Continuous
 62
     7
370
     0
100
AcDbLine
 10
60.9679849584
 20
58.5500781936
 30
0.0
 11
60.1402301107
 21
58.0624931073
 31
0.0
  0
ARC
  5
2F9
330
1F
100
AcDbEntity
  8
0
  6
Continuous
 62
     7
370
     0
100
AcDbCircle
 10
51.8910161917
 20
53.1557200057
 30
0.0
 40
12.99999999999999
100
AcDbArc
 50
98.1808192727
 51
104.3191807273
  0
ARC
  5
2FA
330
1F
100
AcDbEntity
  8
0
  6
Continuous
 62
     7
370
     0
100
AcDbCircle
 10
51.8910161917
 20
53.1557200057
 30
0.0
 40
13.00000000000001
100
AcDbArc
 50
120.6808192727
 51
126.8191807273
  0
ARC
  5
2FB
330
1F
100
AcDbEntity
  8
0
  6
Continuous
 62
     7
370
     0
100
AcDbCircle
 10
51.8910161917
 20
53.1557200057
 30
0.0
 40
12.99999999999999
100
AcDbArc
 50
143.1808192727
 51
149.3191807273
  0
ARC
  5
2FC
330
1F
100
AcDbEntity
  8
0
  6
Continuous
 62
     7
370
     0
100
AcDbCircle
 10
51.8910161917
 20
53.1557200057
 30
0.0
 40
12.99999999999999
100
AcDbArc
 50
165.6808192727
 51
171.8191807273
  0
ARC
  5
2FD
330
1F
100
AcDbEntity
  8
0
  6
Continuous
 62
     7
370
     0
100
AcDbCircle
 10
51.8910161917
 20
53.1557200057
 30
0.0
 40
12.99999999999999
100
AcDbArc
 50
188.1808192727
 51
194.3191807273
  0
ARC
  5
2FE
330
1F
100
AcDbEntity
  8
0
  6
Continuous
 62
     7
370
     0
100
AcDbCircle
 10
51.8910161917
 20
53.1557200057
 30
0.0
 40
13.0
100
AcDbArc
 50
210.6808192727
 51
216.8191807273
  0
ARC
  5
2FF
330
1F
100
AcDbEntity
  8
0
  6
Continuous
 62
     7
370
     0
100
AcDbCircle
 10
51.8910161917
 20
53.1557200057
 30
0.0
 40
13.0
100
AcDbArc
 50
233.1808192727
 51
239.3191807273
  0
ARC
  5
300
330
1F
100
AcDbEntity
  8
0
  6
Continuous
 62
     7
370
     0
100
AcDbCircle
 10
51.8910161917
 20
53.1557200057
 30
0.0
 40
13.0
100
AcDbArc
 50
255.6808192727
 51
261.8191807273
  0
ARC
  5
301
330
1F
100
AcDbEntity
  8
0
  6
Continuous
 62
     7
370
     0
100
AcDbCircle
 10
51.8910161917
 20
53.1557200057
 30
0.0
 40
13.0
100
AcDbArc
 50
278.1808192727
 51
284.3191807273
  0
ARC
  5
302
330
1F
100
AcDbEntity
  8
0
  6
Continuous
 62
     7
370
     0
100
AcDbCircle
 10
51.8910161917
 20
53.1557200057
 30
0.0
 40
13.0
100
AcDbArc
 50
300.6808192727
 51
306.8191807273
  0
ARC
  5
303
330
1F
100
AcDbEntity
  8
0
  6
Continuous
 62
     7
370
     0
100
AcDbCircle
 10
51.8910161917
 20
53.1557200057
 30
0.0
 40
13.0
100
AcDbArc
 50
323.1808192727
 51
329.3191807273
  0
ARC
  5
304
330
1F
100
AcDbEntity
  8
0
  6
Continuous
 62
     7
370
     0
100
AcDbCircle
 10
51.8910161917
 20
53.1557200057
 30
0.0
 40
13.0
100
AcDbArc
 50
345.6808192727
 51
351.8191807273
  0
ARC
  5
305
330
1F
100
AcDbEntity
  8
0
  6
Continuous
 62
     7
370
     0
100
AcDbCircle
 10
51.8910161917
 20
53.1557200057
 30
0.0
 40
13.0
100
AcDbArc
 50
8.1808192727
 51
14.3191807273
  0
ARC
  5
306
330
1F
100
AcDbEntity
  8
0
  6
Continuous
 62
     7
370
     0
100
AcDbCircle
 10
51.8910161917
 20
53.1557200057
 30
0.0
 40
13.0
100
AcDbArc
 50
30.6808192727
 51
36.8191807273
  0
ARC
  5
307
330
1F
100
AcDbEntity
  8
0
  6
Continuous
 62
     7
370
     0
100
AcDbCircle
 10
51.8910161917
 20
53.1557200057
 30
0.0
 40
13.0
100
AcDbArc
 50
53.1808192727
 51
59.3191807273
  0
ARC
  5
308
330
1F
100
AcDbEntity
  8
0
  6
Continuous
 62
     7
370
     0
100
AcDbCircle
 10
51.8910161917
 20
53.1557200057
 30
0.0
 40
13.0
100
AcDbArc
 50
75.6808192727
 51
81.8191807273
  0
CIRCLE
  5
309
330
1F
100
AcDbEntity
  8
0
  6
Continuous
 62
     7
370
     0
100
AcDbCircle
 10
51.8910161917
 20
53.1557200057
 30
0.0
 40
7.699999999999989
  0
CIRCLE
  5
30A
330
1F
100
AcDbEntity
  8
0
  6
Continuous
 62
     7
370
     0
100
AcDbCircle
 10
51.8910161917
 20
53.1557200057
 30
0.0
 40
8.0
  0
INSERT
  5
316
330
1F
100
AcDbEntity
  8
0
  6
Continuous
 62
     7
370
     0
100
AcDbBlockReference
  2
SW_CENTERMARKSYMBOL_1
 10
51.8910161917
 20
53.1557200057
 30
0.0
  0
ARC
  5
317
330
1F
100
AcDbEntity
  8
0
  6
Continuous
 62
     7
370
     0
100
AcDbCircle
 10
157.743757245
 20
196.0422266944
 30
0.0
 40
0.5
100
AcDbArc
 50
90.0
 51
180.0
  0
ARC
  5
318
330
1F
100
AcDbEntity
  8
0
  6
Continuous
 62
     7
370
     0
100
AcDbCircle
 10
164.643757245
 20
196.0422266944
 30
0.0
 40
0.5
100
AcDbArc
 50
0.0
 51
90.0
  0
LINE
  5
319
330
1F
100
AcDbEntity
  8
0
  6
Continuous
 62
     7
370
     0
100
AcDbLine
 10
157.2437574357
 20
183.7422266586
 30
0.0
 11
157.2437574357
 21
182.8422263248
 31
0.0
  0
LINE
  5
31A
330
1F
100
AcDbEntity
  8
0
  6
Continuous
 62
     7
370
     0
100
AcDbLine
 10
165.1437570543
 20
182.8422263248
 30
0.0
 11
165.1437570543
 21
183.7422266586
 31
0.0
  0
LINE
  5
31B
330
1F
100
AcDbEntity
  8
0
  6
Continuous
 62
     7
370
     0
100
AcDbLine
 10
157.2437574357
 20
194.4422289713
 30
0.0
 11
157.2437574357
 21
188.5422259553
 31
0.0
  0
LINE
  5
31C
330
1F
100
AcDbEntity
  8
0
  6
Continuous
 62
     7
370
     0
100
AcDbLine
 10
165.1437570543
 20
188.5422259553
 30
0.0
 11
165.1437570543
 21
194.4422289713
 31
0.0
  0
LINE
  5
31D
330
1F
100
AcDbEntity
  8
0
  6
Continuous
 62
     7
370
     0
100
AcDbLine
 10
157.2437574357
 20
196.0422262533
 30
0.0
 11
157.2437574357
 21
195.0422242267
 31
0.0
  0
LINE
  5
31E
330
1F
100
AcDbEntity
  8
0
  6
Continuous
 62
     7
370
     0
100
AcDbLine
 10
165.1437570543
 20
195.0422242267
 30
0.0
 11
165.1437570543
 21
196.0422262533
 31
0.0
  0
LINE
  5
31F
330
1F
100
AcDbEntity
  8
0
  6
Continuous
 62
     7
370
     0
100
AcDbLine
 10
158.998757295
 20
195.0422242267
 30
0.0
 11
158.998757295
 21
194.4422289713
 31
0.0
  0
LINE
  5
320
330
1F
100
AcDbEntity
  8
0
  6
Continuous
 62
     7
370
     0
100
AcDbLine
 10
163.388757195
 20
194.4422289713
 30
0.0
 11
163.388757195
 21
195.0422242267
 31
0.0
  0
LINE
  5
321
330
1F
100
AcDbEntity
  8
0
  6
Continuous
 62
     7
370
     0
100
AcDbLine
 10
133.7437563777
 20
145.3422266973
 30
0.0
 11
133.7437563777
 21
139.9922274037
 31
0.0
  0
LINE
  5
322
330
1F
100
AcDbEntity
  8
0
  6
Continuous
 62
     7
370
     0
100
AcDbLine
 10
143.0437573433
 20
139.9922274037
 30
0.0
 11
143.0437573433
 21
145.3422266973
 31
0.0
  0
LINE
  5
323
330
1F
100
AcDbEntity
  8
0
  6
Continuous
 62
     7
370
     0
100
AcDbLine
 10
133.8437580705
 20
146.942225842
 30
0.0
 11
133.8437580705
 21
145.9422275407
 31
0.0
  0
LINE
  5
324
330
1F
100
AcDbEntity
  8
0
  6
Continuous
 62
     7
370
     0
100
AcDbLine
 10
142.9437575132
 20
145.9422275407
 30
0.0
 11
142.9437575132
 21
146.942225842
 31
0.0
  0
ARC
  5
325
330
1F
100
AcDbEntity
  8
0
  6
Continuous
 62
     7
370
     0
100
AcDbCircle
 10
134.343757245
 20
146.9422266944
 30
0.0
 40
0.5
100
AcDbArc
 50
90.0
 51
180.0
  0
ARC
  5
326
330
1F
100
AcDbEntity
  8
0
  6
Continuous
 62
     7
370
     0
100
AcDbCircle
 10
142.443757245
 20
146.9422266944
 30
0.0
 40
0.5
100
AcDbArc
 50
0.0
 51
90.0
  0
LINE
  5
327
330
1F
100
AcDbEntity
  8
0
  6
Continuous
 62
     7
370
     0
100
AcDbLine
 10
133.9437579006
 20
137.7922274156
 30
0.0
 11
135.9937572122
 21
135.7422262414
 31
0.0
  0
LINE
  5
328
330
1F
100
AcDbEntity
  8
0
  6
Continuous
 62
     7
370
     0
100
AcDbLine
 10
140.7937565089
 20
135.7422262414
 30
0.0
 11
142.8437576831
 21
137.7922274156
 31
0.0
  0
LINE
  5
329
330
1F
100
AcDbEntity
  8
0
  6
Continuous
 62
     7
370
     0
100
AcDbLine
 10
133.9437579006
 20
139.9922274037
 30
0.0
 11
133.9437579006
 21
137.7922274156
 31
0.0
  0
LINE
  5
32A
330
1F
100
AcDbEntity
  8
0
  6
Continuous
 62
     7
370
     0
100
AcDbLine
 10
142.8437576831
 20
137.7922274156
 30
0.0
 11
142.8437576831
 21
139.9922274037
 31
0.0
  0
LINE
  5
32B
330
1F
100
AcDbEntity
  8
0
  6
Continuous
 62
     7
370
     0
100
AcDbLine
 10
149.1937571407
 20
135.3422269209
 30
0.0
 11
148.2937568069
 21
135.3422269209
 31
0.0
  0
LINE
  5
32C
330
1F
100
AcDbEntity
  8
0
  6
Continuous
 62
     7
370
     0
100
AcDbLine
 10
148.2937568069
 20
128.3422267048
 30
0.0
 11
149.1937571407
 21
128.3422267048
 31
0.0
  0
LINE
  5
32D
330
1F
100
AcDbEntity
  8
0
  6
Continuous
 62
     7
370
     0
100
AcDbLine
 10
142.993756497
 20
135.3422269209
 30
0.0
 11
140.7684357107
 21
135.3422269209
 31
0.0
  0
LINE
  5
32E
330
1F
100
AcDbEntity
  8
0
  6
Continuous
 62
     7
370
     0
100
AcDbLine
 10
140.5937568486
 20
128.3422267048
 30
0.0
 11
142.993756497
 21
128.3422267048
 31
0.0
  0
LINE
  5
32F
330
1F
100
AcDbEntity
  8
0
  6
Continuous
 62
     7
370
     0
100
AcDbLine
 10
138.3937568605
 20
129.4422266988
 30
0.0
 11
140.5937568486
 21
129.4422266988
 31
0.0
  0
ARC
  5
330
330
1F
100
AcDbEntity
  8
0
  6
Continuous
 62
     7
370
     0
100
AcDbCircle
 10
138.393757245
 20
131.8422266944
 30
0.0
 40
2.400000000000006
100
AcDbArc
 50
180.0
 51
270.0
  0
LINE
  5
331
330
1F
100
AcDbEntity
  8
0
  6
Continuous
 62
     7
370
     0
100
AcDbLine
 10
135.9937572122
 20
135.7422262414
 30
0.0
 11
135.9937572122
 21
131.8422272785
 31
0.0
  0
LINE
  5
332
330
1F
100
AcDbEntity
  8
0
  6
Continuous
 62
     7
370
     0
100
AcDbLine
 10
140.7937565089
 20
135.3249546124
 30
0.0
 11
140.7937565089
 21
135.7422262414
 31
0.0
  0
LINE
  5
333
330
1F
100
AcDbEntity
  8
0
  6
Continuous
 62
     7
370
     0
100
AcDbLine
 10
136.1987580747
 20
145.9422275407
 30
0.0
 11
136.1987580747
 21
145.3422266973
 31
0.0
  0
LINE
  5
334
330
1F
100
AcDbEntity
  8
0
  6
Continuous
 62
     7
370
     0
100
AcDbLine
 10
140.588757509
 20
145.3422266973
 30
0.0
 11
140.588757509
 21
145.9422275407
 31
0.0
  0
LINE
  5
335
330
1F
100
AcDbEntity
  8
0
  6
Continuous
 62
     7
370
     0
100
AcDbLine
 10
174.1937575132
 20
115.3422266694
 30
0.0
 11
174.1937575132
 21
125.1422265528
 31
0.0
  0
LINE
  5
336
330
1F
100
AcDbEntity
  8
0
  6
Continuous
 62
     7
370
     0
100
AcDbLine
 10
148.1937569768
 20
125.1422265528
 30
0.0
 11
148.1937569768
 21
115.3422266694
 31
0.0
  0
LINE
  5
337
330
1F
100
AcDbEntity
  8
0
  6
Continuous
 62
     7
370
     0
100
AcDbLine
 10
163.3148499966
 20
115.3422266694
 30
0.0
 11
163.3148499966
 21
114.3422266801
 31
0.0
  0
LINE
  5
338
330
1F
100
AcDbEntity
  8
0
  6
Continuous
 62
     7
370
     0
100
AcDbLine
 10
159.0726644934
 20
114.3422266801
 30
0.0
 11
159.0726644934
 21
115.3422266694
 31
0.0
  0
LINE
  5
339
330
1F
100
AcDbEntity
  8
0
  6
Continuous
 62
     7
370
     0
100
AcDbLine
 10
174.205865638
 20
114.3422266801
 30
0.0
 11
174.205865638
 21
115.3422266694
 31
0.0
  0
LINE
  5
33A
330
1F
100
AcDbEntity
  8
0
  6
Continuous
 62
     7
370
     0
100
AcDbLine
 10
148.181648852
 20
115.3422266694
 30
0.0
 11
148.181648852
 21
114.3422266801
 31
0.0
  0
LINE
  5
33B
330
1F
100
AcDbEntity
  8
0
  6
Continuous
 62
     7
370
     0
100
AcDbLine
 10
148.1937569768
 20
125.4422269745
 30
0.0
 11
148.4937573985
 21
125.1422265528
 31
0.0
  0
LINE
  5
33C
330
1F
100
AcDbEntity
  8
0
  6
Continuous
 62
     7
370
     0
100
AcDbLine
 10
173.8937570915
 20
125.1422265528
 30
0.0
 11
174.1937575132
 21
125.4422269745
 31
0.0
  0
LINE
  5
33D
330
1F
100
AcDbEntity
  8
0
  6
Continuous
 62
     7
370
     0
100
AcDbLine
 10
174.1937575132
 20
125.4422269745
 30
0.0
 11
174.1937575132
 21
150.5422271772
 31
0.0
  0
LINE
  5
33E
330
1F
100
AcDbEntity
  8
0
  6
Continuous
 62
     7
370
     0
100
AcDbLine
 10
148.1937569768
 20
127.6422269626
 30
0.0
 11
148.1937569768
 21
125.4422269745
 31
0.0
  0
LINE
  5
33F
330
1F
100
AcDbEntity
  8
0
  6
Continuous
 62
     7
370
     0
100
AcDbLine
 10
148.1937569768
 20
150.5422271772
 30
0.0
 11
148.1937569768
 21
139.6422270669
 31
0.0
  0
LINE
  5
340
330
1F
100
AcDbEntity
  8
0
  6
Continuous
 62
     7
370
     0
100
AcDbLine
 10
174.1937575132
 20
150.5422271772
 30
0.0
 11
173.8937570915
 21
150.8422285302
 31
0.0
  0
LINE
  5
341
330
1F
100
AcDbEntity
  8
0
  6
Continuous
 62
     7
370
     0
100
AcDbLine
 10
148.4937573985
 20
150.8422285302
 30
0.0
 11
148.1937569768
 21
150.5422271772
 31
0.0
  0
LINE
  5
342
330
1F
100
AcDbEntity
  8
0
  6
Continuous
 62
     7
370
     0
100
AcDbLine
 10
171.1937570215
 20
150.8422285302
 30
0.0
 11
171.1937570215
 21
151.3422258182
 31
0.0
  0
LINE
  5
343
330
1F
100
AcDbEntity
  8
0
  6
Continuous
 62
     7
370
     0
100
AcDbLine
 10
151.1937574685
 20
151.3422258182
 30
0.0
 11
151.1937574685
 21
150.8422285302
 31
0.0
  0
LINE
  5
344
330
1F
100
AcDbEntity
  8
0
  6
Continuous
 62
     7
370
     0
100
AcDbLine
 10
151.1937574685
 20
182.3422253115
 30
0.0
 11
151.1937574685
 21
162.8422267718
 31
0.0
  0
LINE
  5
345
330
1F
100
AcDbEntity
  8
0
  6
Continuous
 62
     7
370
     0
100
AcDbLine
 10
171.1937570215
 20
162.8422267718
 30
0.0
 11
171.1937570215
 21
182.3422253115
 31
0.0
  0
LINE
  5
346
330
1F
100
AcDbEntity
  8
0
  6
Continuous
 62
     7
370
     0
100
AcDbLine
 10
171.1937570215
 20
182.3422253115
 30
0.0
 11
170.6937569395
 21
182.8422263248
 31
0.0
  0
LINE
  5
347
330
1F
100
AcDbEntity
  8
0
  6
Continuous
 62
     7
370
     0
100
AcDbLine
 10
151.6937575505
 20
182.8422263248
 30
0.0
 11
151.1937574685
 21
182.3422253115
 31
0.0
  0
LINE
  5
348
330
1F
100
AcDbEntity
  8
0
  6
Continuous
 62
     7
370
     0
100
AcDbLine
 10
163.5031582989
 20
188.5422259553
 30
0.0
 11
165.8125593529
 21
188.5422259553
 31
0.0
  0
LINE
  5
349
330
1F
100
AcDbEntity
  8
0
  6
Continuous
 62
     7
370
     0
100
AcDbLine
 10
165.8125593529
 20
188.5422259553
 30
0.0
 11
165.8125593529
 21
183.7422266586
 31
0.0
  0
LINE
  5
34A
330
1F
100
AcDbEntity
  8
0
  6
Continuous
 62
     7
370
     0
100
AcDbLine
 10
163.5031582989
 20
183.7422266586
 30
0.0
 11
165.8125593529
 21
183.7422266586
 31
0.0
  0
LINE
  5
34B
330
1F
100
AcDbEntity
  8
0
  6
Continuous
 62
     7
370
     0
100
AcDbLine
 10
163.5031582989
 20
183.7422266586
 30
0.0
 11
163.5031582989
 21
188.5422259553
 31
0.0
  0
LINE
  5
34C
330
1F
100
AcDbEntity
  8
0
  6
Continuous
 62
     7
370
     0
100
AcDbLine
 10
158.8843561911
 20
188.5422259553
 30
0.0
 11
163.5031582989
 21
188.5422259553
 31
0.0
  0
LINE
  5
34D
330
1F
100
AcDbEntity
  8
0
  6
Continuous
 62
     7
370
     0
100
AcDbLine
 10
158.8843561911
 20
183.7422266586
 30
0.0
 11
158.8843561911
 21
188.5422259553
 31
0.0
  0
LINE
  5
34E
330
1F
100
AcDbEntity
  8
0
  6
Continuous
 62
     7
370
     0
100
AcDbLine
 10
158.8843561911
 20
183.7422266586
 30
0.0
 11
163.5031582989
 21
183.7422266586
 31
0.0
  0
LINE
  5
34F
330
1F
100
AcDbEntity
  8
0
  6
Continuous
 62
     7
370
     0
100
AcDbLine
 10
156.5749551371
 20
188.5422259553
 30
0.0
 11
158.8843561911
 21
188.5422259553
 31
0.0
  0
LINE
  5
350
330
1F
100
AcDbEntity
  8
0
  6
Continuous
 62
     7
370
     0
100
AcDbLine
 10
156.5749551371
 20
183.7422266586
 30
0.0
 11
156.5749551371
 21
188.5422259553
 31
0.0
  0
LINE
  5
351
330
1F
100
AcDbEntity
  8
0
  6
Continuous
 62
     7
370
     0
100
AcDbLine
 10
156.5749551371
 20
183.7422266586
 30
0.0
 11
158.8843561911
 21
183.7422266586
 31
0.0
  0
SPLINE
  5
352
330
1F
100
AcDbEntity
  8
0
  6
Continuous
 62
     7
370
     0
100
AcDbSpline
210
0.0
220
0.0
230
1.0
 70
    24
 71
     3
 72
    16
 73
    12
 74
     0
 42
0.00000001
 43
0.00000001
 40
0.0
 40
0.0
 40
0.0
 40
0.0
 40
0.1199345396230232
 40
0.2399670650171277
 40
0.3698914750402469
 40
0.4999148526728633
 40
0.6298392996126944
 40
0.6945796266781447
 40
0.7600329790748624
 40
0.8799674922416111
 40
1.0
 40
1.0
 40
1.0
 40
1.0
 10
164.643757205136
 20
196.5422272665617
 30
0.0
 10
164.6322429550509
 20
196.5422272665617
 30
0.0
 10
164.6092050478102
 20
196.5422272665617
 30
0.0
 10
164.4134745270366
 20
196.5422272665617
 30
0.0
 10
164.0991392422866
 20
196.5422272665617
 30
0.0
 10
163.6498476372084
 20
196.5422272665617
 30
0.0
 10
163.1935100322766
 20
196.5422272665618
 30
0.0
 10
162.7876884692058
 20
196.5422272665617
 30
0.0
 10
162.3763453827827
 20
196.5422272665617
 30
0.0
 10
161.8442403690024
 20
196.5422272665618
 30
0.0
 10
161.4106439751388
 20
196.5422272665618
 30
0.0
 10
161.1937572449966
 20
196.5422272665618
 30
0.0
  0
SPLINE
  5
353
330
1F
100
AcDbEntity
  8
0
  6
Continuous
 62
     7
370
     0
100
AcDbSpline
210
0.0
220
0.0
230
1.0
 70
    24
 71
     3
 72
    16
 73
    12
 74
     0
 42
0.00000001
 43
0.00000001
 40
0.0
 40
0.0
 40
0.0
 40
0.0
 40
0.1199835078618478
 40
0.2399656952851706
 40
0.3698903394581645
 40
0.499913951419015
 40
0.6298386325087871
 40
0.6945790762493061
 40
0.7600325466061075
 40
0.8799672759189306
 40
0.9999999999999999
 40
0.9999999999999999
 40
0.9999999999999999
 40
0.9999999999999999
 10
161.1937572449966
 20
196.5422272665618
 30
0.0
 10
160.9769374811085
 20
196.5422272665618
 30
0.0
 10
160.5433003394701
 20
196.5422272665618
 30
0.0
 10
159.8992390979379
 20
196.5422272665618
 30
0.0
 10
159.2857067883871
 20
196.5422272665618
 30
0.0
 10
158.7378682403021
 20
196.5422272665617
 30
0.0
 10
158.3640471068331
 20
196.5422272665617
 30
0.0
 10
158.1266706236298
 20
196.5422272665617
 30
0.0
 10
157.940530138473
 20
196.5422272665617
 30
0.0
 10
157.7781825785102
 20
196.5422272665617
 30
0.0
 10
157.7552355063499
 20
196.5422272665617
 30
0.0
 10
157.7437572848572
 20
196.5422272665617
 30
0.0
  0
LINE
  5
354
330
1F
100
AcDbEntity
  8
0
  6
Continuous
 62
     7
370
     0
100
AcDbLine
 10
161.193757245
 20
194.4422289713
 30
0.0
 11
165.1437570543
 21
194.4422289713
 31
0.0
  0
LINE
  5
355
330
1F
100
AcDbEntity
  8
0
  6
Continuous
 62
     7
370
     0
100
AcDbLine
 10
157.2437574357
 20
194.4422289713
 30
0.0
 11
161.193757245
 21
194.4422289713
 31
0.0
  0
LINE
  5
356
330
1F
100
AcDbEntity
  8
0
  6
Continuous
 62
     7
370
     0
100
AcDbLine
 10
161.193757245
 20
195.0422242267
 30
0.0
 11
165.1437570543
 21
195.0422242267
 31
0.0
  0
LINE
  5
357
330
1F
100
AcDbEntity
  8
0
  6
Continuous
 62
     7
370
     0
100
AcDbLine
 10
157.2437574357
 20
195.0422242267
 30
0.0
 11
161.193757245
 21
195.0422242267
 31
0.0
  0
LINE
  5
358
330
1F
100
AcDbEntity
  8
0
  6
Continuous
 62
     7
370
     0
100
AcDbLine
 10
133.7437563777
 20
145.3422266973
 30
0.0
 11
143.0437573433
 21
145.3422266973
 31
0.0
  0
LINE
  5
359
330
1F
100
AcDbEntity
  8
0
  6
Continuous
 62
     7
370
     0
100
AcDbLine
 10
143.0437573433
 20
139.9922274037
 30
0.0
 11
133.7437563777
 21
139.9922274037
 31
0.0
  0
LINE
  5
35A
330
1F
100
AcDbEntity
  8
0
  6
Continuous
 62
     7
370
     0
100
AcDbLine
 10
133.8437580705
 20
145.9422275407
 30
0.0
 11
142.9437575132
 21
145.9422275407
 31
0.0
  0
LINE
  5
35B
330
1F
100
AcDbEntity
  8
0
  6
Continuous
 62
     7
370
     0
100
AcDbLine
 10
134.3437572212
 20
147.4422268553
 30
0.0
 11
142.4437564999
 21
147.4422268553
 31
0.0
  0
LINE
  5
35C
330
1F
100
AcDbEntity
  8
0
  6
Continuous
 62
     7
370
     0
100
AcDbLine
 10
140.7937565089
 20
135.7422262414
 30
0.0
 11
135.9937572122
 21
135.7422262414
 31
0.0
  0
LINE
  5
35D
330
1F
100
AcDbEntity
  8
0
  6
Continuous
 62
     7
370
     0
100
AcDbLine
 10
133.9437579006
 20
137.7922274156
 30
0.0
 11
142.8437576831
 21
137.7922274156
 31
0.0
  0
LINE
  5
35E
330
1F
100
AcDbEntity
  8
0
  6
Continuous
 62
     7
370
     0
100
AcDbLine
 10
142.993756497
 20
129.8215003668
 30
0.0
 11
148.2937568069
 21
129.8215003668
 31
0.0
  0
LINE
  5
35F
330
1F
100
AcDbEntity
  8
0
  6
Continuous
 62
     7
370
     0
100
AcDbLine
 10
148.2937568069
 20
128.8111373766
 30
0.0
 11
148.2937568069
 21
129.8215003668
 31
0.0
  0
LINE
  5
360
330
1F
100
AcDbEntity
  8
0
  6
Continuous
 62
     7
370
     0
100
AcDbLine
 10
148.2937568069
 20
127.8007743864
 30
0.0
 11
148.2937568069
 21
128.8111373766
 31
0.0
  0
LINE
  5
361
330
1F
100
AcDbEntity
  8
0
  6
Continuous
 62
     7
370
     0
100
AcDbLine
 10
142.993756497
 20
127.8007743864
 30
0.0
 11
148.2937568069
 21
127.8007743864
 31
0.0
  0
LINE
  5
362
330
1F
100
AcDbEntity
  8
0
  6
Continuous
 62
     7
370
     0
100
AcDbLine
 10
142.993756497
 20
127.8007743864
 30
0.0
 11
142.993756497
 21
128.8111373766
 31
0.0
  0
LINE
  5
363
330
1F
100
AcDbEntity
  8
0
  6
Continuous
 62
     7
370
     0
100
AcDbLine
 10
142.993756497
 20
128.8111373766
 30
0.0
 11
142.993756497
 21
129.8215003668
 31
0.0
  0
LINE
  5
364
330
1F
100
AcDbEntity
  8
0
  6
Continuous
 62
     7
370
     0
100
AcDbLine
 10
142.993756497
 20
133.8629532589
 30
0.0
 11
148.2937568069
 21
133.8629532589
 31
0.0
  0
LINE
  5
365
330
1F
100
AcDbEntity
  8
0
  6
Continuous
 62
     7
370
     0
100
AcDbLine
 10
148.2937568069
 20
131.8422272785
 30
0.0
 11
148.2937568069
 21
133.8629532589
 31
0.0
  0
LINE
  5
366
330
1F
100
AcDbEntity
  8
0
  6
Continuous
 62
     7
370
     0
100
AcDbLine
 10
142.993756497
 20
129.8215003668
 30
0.0
 11
142.993756497
 21
131.8422272785
 31
0.0
  0
LINE
  5
367
330
1F
100
AcDbEntity
  8
0
  6
Continuous
 62
     7
370
     0
100
AcDbLine
 10
142.993756497
 20
131.8422272785
 30
0.0
 11
142.993756497
 21
133.8629532589
 31
0.0
  0
LINE
  5
368
330
1F
100
AcDbEntity
  8
0
  6
Continuous
 62
     7
370
     0
100
AcDbLine
 10
148.2937568069
 20
129.8215003668
 30
0.0
 11
148.2937568069
 21
131.8422272785
 31
0.0
  0
LINE
  5
369
330
1F
100
AcDbEntity
  8
0
  6
Continuous
 62
     7
370
     0
100
AcDbLine
 10
140.5937568486
 20
128.3422267048
 30
0.0
 11
140.5937568486
 21
135.2082338168
 31
0.0
  0
SPLINE
  5
36A
330
1F
100
AcDbEntity
  8
0
  6
Continuous
 62
     7
370
     0
100
AcDbSpline
210
0.0
220
0.0
230
1.0
 70
     8
 71
     3
 72
     9
 73
     5
 74
     0
 42
0.00000001
 43
0.00000001
 40
0.0
 40
0.0
 40
0.0
 40
0.0
 40
0.5159575310542116
 40
1.0
 40
1.0
 40
1.0
 40
1.0
 10
140.5937568486257
 20
135.2082338167546
 30
0.0
 10
140.6551925515164
 20
135.2491247790836
 30
0.0
 10
140.7742637912853
 20
135.3283773529252
 30
0.0
 10
140.7703366256639
 20
135.3260571837199
 30
0.0
 10
140.7684357107206
 20
135.3249341232893
 30
0.0
  0
LINE
  5
36B
330
1F
100
AcDbEntity
  8
0
  6
Continuous
 62
     7
370
     0
100
AcDbLine
 10
142.993756497
 20
135.8836792393
 30
0.0
 11
148.2937568069
 21
135.8836792393
 31
0.0
  0
LINE
  5
36C
330
1F
100
AcDbEntity
  8
0
  6
Continuous
 62
     7
370
     0
100
AcDbLine
 10
148.2937568069
 20
134.8733153178
 30
0.0
 11
148.2937568069
 21
135.8836792393
 31
0.0
  0
LINE
  5
36D
330
1F
100
AcDbEntity
  8
0
  6
Continuous
 62
     7
370
     0
100
AcDbLine
 10
142.993756497
 20
134.8733153178
 30
0.0
 11
142.993756497
 21
135.8836792393
 31
0.0
  0
LINE
  5
36E
330
1F
100
AcDbEntity
  8
0
  6
Continuous
 62
     7
370
     0
100
AcDbLine
 10
142.993756497
 20
133.8629532589
 30
0.0
 11
142.993756497
 21
134.8733153178
 31
0.0
  0
LINE
  5
36F
330
1F
100
AcDbEntity
  8
0
  6
Continuous
 62
     7
370
     0
100
AcDbLine
 10
148.2937568069
 20
133.8629532589
 30
0.0
 11
148.2937568069
 21
134.8733153178
 31
0.0
  0
LWPOLYLINE
  5
370
330
1F
100
AcDbEntity
  8
0
  6
Continuous
 62
     7
370
     0
100
AcDbPolyline
 90
        7
 70
   128
 43
0.0
 10
140.5937568486
 20
134.0422272666
 10
140.3685611874
 20
133.8170316054
 10
140.0698245705
 20
133.5182949884
 10
139.7086725772
 20
133.1571411325
 10
139.2985516429
 20
132.7470220609
 10
138.8547373206
 20
132.3032077385
 10
138.3937568605
 20
131.8422272785
  0
LINE
  5
371
330
1F
100
AcDbEntity
  8
0
  6
Continuous
 62
     7
370
     0
100
AcDbLine
 10
163.0437572456
 20
114.3422266801
 30
0.0
 11
163.0437572456
 21
115.3422266694
 31
0.0
  0
LINE
  5
372
330
1F
100
AcDbEntity
  8
0
  6
Continuous
 62
     7
370
     0
100
AcDbLine
 10
159.3437572444
 20
114.3422266801
 30
0.0
 11
163.0437572456
 21
114.3422266801
 31
0.0
  0
LINE
  5
373
330
1F
100
AcDbEntity
  8
0
  6
Continuous
 62
     7
370
     0
100
AcDbLine
 10
159.3437572444
 20
114.3422266801
 30
0.0
 11
159.3437572444
 21
115.3422266694
 31
0.0
  0
LINE
  5
374
330
1F
100
AcDbEntity
  8
0
  6
Continuous
 62
     7
370
     0
100
AcDbLine
 10
159.3437572444
 20
115.3422266694
 30
0.0
 11
163.0437572456
 21
115.3422266694
 31
0.0
  0
LINE
  5
375
330
1F
100
AcDbEntity
  8
0
  6
Continuous
 62
     7
370
     0
100
AcDbLine
 10
161.193757245
 20
125.1422265528
 30
0.0
 11
148.1937569768
 21
125.1422265528
 31
0.0
  0
LINE
  5
376
330
1F
100
AcDbEntity
  8
0
  6
Continuous
 62
     7
370
     0
100
AcDbLine
 10
174.1937575132
 20
125.1422265528
 30
0.0
 11
161.193757245
 21
125.1422265528
 31
0.0
  0
LINE
  5
377
330
1F
100
AcDbEntity
  8
0
  6
Continuous
 62
     7
370
     0
100
AcDbLine
 10
174.0614677981
 20
115.3422266694
 30
0.0
 11
173.7898857534
 21
115.3422266694
 31
0.0
  0
LINE
  5
378
330
1F
100
AcDbEntity
  8
0
  6
Continuous
 62
     7
370
     0
100
AcDbLine
 10
172.3740584419
 20
115.3422266694
 30
0.0
 11
171.6006574423
 21
115.3422266694
 31
0.0
  0
LINE
  5
379
330
1F
100
AcDbEntity
  8
0
  6
Continuous
 62
     7
370
     0
100
AcDbLine
 10
168.9845481158
 20
115.3422266694
 30
0.0
 11
167.827072946
 21
115.3422266694
 31
0.0
  0
LINE
  5
37A
330
1F
100
AcDbEntity
  8
0
  6
Continuous
 62
     7
370
     0
100
AcDbLine
 10
164.4089614708
 20
115.3422266694
 30
0.0
 11
163.0436258127
 21
115.3422266694
 31
0.0
  0
LINE
  5
37B
330
1F
100
AcDbEntity
  8
0
  6
Continuous
 62
     7
370
     0
100
AcDbLine
 10
159.3438886773
 20
115.3422266694
 30
0.0
 11
157.9785530191
 21
115.3422266694
 31
0.0
  0
LINE
  5
37C
330
1F
100
AcDbEntity
  8
0
  6
Continuous
 62
     7
370
     0
100
AcDbLine
 10
154.560441544
 20
115.3422266694
 30
0.0
 11
153.4029663742
 21
115.3422266694
 31
0.0
  0
LINE
  5
37D
330
1F
100
AcDbEntity
  8
0
  6
Continuous
 62
     7
370
     0
100
AcDbLine
 10
150.7868570477
 20
115.3422266694
 30
0.0
 11
150.0134560481
 21
115.3422266694
 31
0.0
  0
LINE
  5
37E
330
1F
100
AcDbEntity
  8
0
  6
Continuous
 62
     7
370
     0
100
AcDbLine
 10
148.5976287365
 20
115.3422266694
 30
0.0
 11
148.3260466919
 21
115.3422266694
 31
0.0
  0
LINE
  5
37F
330
1F
100
AcDbEntity
  8
0
  6
Continuous
 62
     7
370
     0
100
AcDbLine
 10
167.8275521115
 20
114.3422266801
 30
0.0
 11
167.8275521115
 21
115.3422266694
 31
0.0
  0
LINE
  5
380
330
1F
100
AcDbEntity
  8
0
  6
Continuous
 62
     7
370
     0
100
AcDbLine
 10
164.409197794
 20
114.3422266801
 30
0.0
 11
167.8275521115
 21
114.3422266801
 31
0.0
  0
LINE
  5
381
330
1F
100
AcDbEntity
  8
0
  6
Continuous
 62
     7
370
     0
100
AcDbLine
 10
164.409197794
 20
114.3422266801
 30
0.0
 11
164.409197794
 21
115.3422266694
 31
0.0
  0
LINE
  5
382
330
1F
100
AcDbEntity
  8
0
  6
Continuous
 62
     7
370
     0
100
AcDbLine
 10
164.409197794
 20
115.3422266694
 30
0.0
 11
167.8275521115
 21
115.3422266694
 31
0.0
  0
LINE
  5
383
330
1F
100
AcDbEntity
  8
0
  6
Continuous
 62
     7
370
     0
100
AcDbLine
 10
158.8302950111
 20
114.8422266893
 30
0.0
 11
158.8302950111
 21
114.3422266801
 31
0.0
  0
LINE
  5
384
330
1F
100
AcDbEntity
  8
0
  6
Continuous
 62
     7
370
     0
100
AcDbLine
 10
158.8302950111
 20
114.8422266893
 30
0.0
 11
158.5897583716
 21
114.8422266893
 31
0.0
  0
LINE
  5
385
330
1F
100
AcDbEntity
  8
0
  6
Continuous
 62
     7
370
     0
100
AcDbLine
 10
158.5897583716
 20
114.8422266893
 30
0.0
 11
158.5897583716
 21
114.3422266801
 31
0.0
  0
LINE
  5
386
330
1F
100
AcDbEntity
  8
0
  6
Continuous
 62
     7
370
     0
100
AcDbLine
 10
157.978316696
 20
114.3422266801
 30
0.0
 11
158.5897583716
 21
114.3422266801
 31
0.0
  0
LINE
  5
387
330
1F
100
AcDbEntity
  8
0
  6
Continuous
 62
     7
370
     0
100
AcDbLine
 10
157.978316696
 20
114.3422266801
 30
0.0
 11
157.978316696
 21
115.3422266694
 31
0.0
  0
LINE
  5
388
330
1F
100
AcDbEntity
  8
0
  6
Continuous
 62
     7
370
     0
100
AcDbLine
 10
157.978316696
 20
115.3422266694
 30
0.0
 11
157.9785530191
 21
115.3422266694
 31
0.0
  0
LINE
  5
389
330
1F
100
AcDbEntity
  8
0
  6
Continuous
 62
     7
370
     0
100
AcDbLine
 10
159.0662940141
 20
114.3422266801
 30
0.0
 11
159.0662940141
 21
115.3422266694
 31
0.0
  0
LINE
  5
38A
330
1F
100
AcDbEntity
  8
0
  6
Continuous
 62
     7
370
     0
100
AcDbLine
 10
158.8302950111
 20
114.3422266801
 30
0.0
 11
159.0662940141
 21
114.3422266801
 31
0.0
  0
LINE
  5
38B
330
1F
100
AcDbEntity
  8
0
  6
Continuous
 62
     7
370
     0
100
AcDbLine
 10
163.7977561184
 20
114.8422266893
 30
0.0
 11
163.7977561184
 21
114.3422266801
 31
0.0
  0
LINE
  5
38C
330
1F
100
AcDbEntity
  8
0
  6
Continuous
 62
     7
370
     0
100
AcDbLine
 10
163.7977561184
 20
114.8422266893
 30
0.0
 11
163.5572194789
 21
114.8422266893
 31
0.0
  0
LINE
  5
38D
330
1F
100
AcDbEntity
  8
0
  6
Continuous
 62
     7
370
     0
100
AcDbLine
 10
163.5572194789
 20
114.8422266893
 30
0.0
 11
163.5572194789
 21
114.3422266801
 31
0.0
  0
LINE
  5
38E
330
1F
100
AcDbEntity
  8
0
  6
Continuous
 62
     7
370
     0
100
AcDbLine
 10
163.3212204759
 20
114.3422266801
 30
0.0
 11
163.5572194789
 21
114.3422266801
 31
0.0
  0
LINE
  5
38F
330
1F
100
AcDbEntity
  8
0
  6
Continuous
 62
     7
370
     0
100
AcDbLine
 10
163.3212204759
 20
115.3422266694
 30
0.0
 11
163.3212204759
 21
114.3422266801
 31
0.0
  0
LINE
  5
390
330
1F
100
AcDbEntity
  8
0
  6
Continuous
 62
     7
370
     0
100
AcDbLine
 10
164.4089614708
 20
115.3422266694
 30
0.0
 11
164.409197794
 21
115.3422266694
 31
0.0
  0
LINE
  5
391
330
1F
100
AcDbEntity
  8
0
  6
Continuous
 62
     7
370
     0
100
AcDbLine
 10
163.7977561184
 20
114.3422266801
 30
0.0
 11
164.409197794
 21
114.3422266801
 31
0.0
  0
LINE
  5
392
330
1F
100
AcDbEntity
  8
0
  6
Continuous
 62
     7
370
     0
100
AcDbLine
 10
154.5599623785
 20
114.3422266801
 30
0.0
 11
154.5599623785
 21
115.3422266694
 31
0.0
  0
LINE
  5
393
330
1F
100
AcDbEntity
  8
0
  6
Continuous
 62
     7
370
     0
100
AcDbLine
 10
154.5599623785
 20
115.3422266694
 30
0.0
 11
157.978316696
 21
115.3422266694
 31
0.0
  0
LINE
  5
394
330
1F
100
AcDbEntity
  8
0
  6
Continuous
 62
     7
370
     0
100
AcDbLine
 10
154.5599623785
 20
114.3422266801
 30
0.0
 11
157.978316696
 21
114.3422266801
 31
0.0
  0
LINE
  5
395
330
1F
100
AcDbEntity
  8
0
  6
Continuous
 62
     7
370
     0
100
AcDbLine
 10
171.6014118135
 20
114.3422266801
 30
0.0
 11
171.6014118135
 21
115.3422266694
 31
0.0
  0
LINE
  5
396
330
1F
100
AcDbEntity
  8
0
  6
Continuous
 62
     7
370
     0
100
AcDbLine
 10
168.9851166882
 20
114.3422266801
 30
0.0
 11
168.9851166882
 21
115.3422266694
 31
0.0
  0
LINE
  5
397
330
1F
100
AcDbEntity
  8
0
  6
Continuous
 62
     7
370
     0
100
AcDbLine
 10
168.9851166882
 20
115.3422266694
 30
0.0
 11
171.6014118135
 21
115.3422266694
 31
0.0
  0
LINE
  5
398
330
1F
100
AcDbEntity
  8
0
  6
Continuous
 62
     7
370
     0
100
AcDbLine
 10
168.9851166882
 20
114.3422266801
 30
0.0
 11
171.6014118135
 21
114.3422266801
 31
0.0
  0
LINE
  5
399
330
1F
100
AcDbEntity
  8
0
  6
Continuous
 62
     7
370
     0
100
AcDbLine
 10
153.4023978018
 20
114.3422266801
 30
0.0
 11
154.5599623785
 21
114.3422266801
 31
0.0
  0
LINE
  5
39A
330
1F
100
AcDbEntity
  8
0
  6
Continuous
 62
     7
370
     0
100
AcDbLine
 10
153.4023978018
 20
114.3422266801
 30
0.0
 11
153.4023978018
 21
115.3422266694
 31
0.0
  0
LINE
  5
39B
330
1F
100
AcDbEntity
  8
0
  6
Continuous
 62
     7
370
     0
100
AcDbLine
 10
153.4023978018
 20
115.3422266694
 30
0.0
 11
153.4029663742
 21
115.3422266694
 31
0.0
  0
LINE
  5
39C
330
1F
100
AcDbEntity
  8
0
  6
Continuous
 62
     7
370
     0
100
AcDbLine
 10
168.9845481158
 20
115.3422266694
 30
0.0
 11
168.9851166882
 21
115.3422266694
 31
0.0
  0
LINE
  5
39D
330
1F
100
AcDbEntity
  8
0
  6
Continuous
 62
     7
370
     0
100
AcDbLine
 10
167.8275521115
 20
114.3422266801
 30
0.0
 11
168.9851166882
 21
114.3422266801
 31
0.0
  0
LINE
  5
39E
330
1F
100
AcDbEntity
  8
0
  6
Continuous
 62
     7
370
     0
100
AcDbLine
 10
150.7861026764
 20
114.3422266801
 30
0.0
 11
150.7861026764
 21
115.3422266694
 31
0.0
  0
LINE
  5
39F
330
1F
100
AcDbEntity
  8
0
  6
Continuous
 62
     7
370
     0
100
AcDbLine
 10
150.7861026764
 20
115.3422266694
 30
0.0
 11
153.4023978018
 21
115.3422266694
 31
0.0
  0
LINE
  5
3A0
330
1F
100
AcDbEntity
  8
0
  6
Continuous
 62
     7
370
     0
100
AcDbLine
 10
150.7861026764
 20
114.3422266801
 30
0.0
 11
153.4023978018
 21
114.3422266801
 31
0.0
  0
LINE
  5
3A1
330
1F
100
AcDbEntity
  8
0
  6
Continuous
 62
     7
370
     0
100
AcDbLine
 10
163.5572194789
 20
114.3422266801
 30
0.0
 11
163.7977561184
 21
114.3422266801
 31
0.0
  0
LINE
  5
3A2
330
1F
100
AcDbEntity
  8
0
  6
Continuous
 62
     7
370
     0
100
AcDbLine
 10
158.5897583716
 20
114.3422266801
 30
0.0
 11
158.8302950111
 21
114.3422266801
 31
0.0
  0
LINE
  5
3A3
330
1F
100
AcDbEntity
  8
0
  6
Continuous
 62
     7
370
     0
100
AcDbLine
 10
163.3212204759
 20
114.3422266801
 30
0.0
 11
163.3148499966
 21
114.3422266801
 31
0.0
  0
LINE
  5
3A4
330
1F
100
AcDbEntity
  8
0
  6
Continuous
 62
     7
370
     0
100
AcDbLine
 10
159.0726644934
 20
114.3422266801
 30
0.0
 11
159.0662940141
 21
114.3422266801
 31
0.0
  0
LINE
  5
3A5
330
1F
100
AcDbEntity
  8
0
  6
Continuous
 62
     7
370
     0
100
AcDbLine
 10
150.0126430035
 20
114.3422266801
 30
0.0
 11
150.7861026764
 21
114.3422266801
 31
0.0
  0
LINE
  5
3A6
330
1F
100
AcDbEntity
  8
0
  6
Continuous
 62
     7
370
     0
100
AcDbLine
 10
150.0126430035
 20
114.3422266801
 30
0.0
 11
150.0126430035
 21
115.3422266694
 31
0.0
  0
LINE
  5
3A7
330
1F
100
AcDbEntity
  8
0
  6
Continuous
 62
     7
370
     0
100
AcDbLine
 10
150.0126430035
 20
115.3422266694
 30
0.0
 11
150.0134560481
 21
115.3422266694
 31
0.0
  0
LINE
  5
3A8
330
1F
100
AcDbEntity
  8
0
  6
Continuous
 62
     7
370
     0
100
AcDbLine
 10
173.7908003122
 20
114.3422266801
 30
0.0
 11
173.7908003122
 21
115.3422266694
 31
0.0
  0
LINE
  5
3A9
330
1F
100
AcDbEntity
  8
0
  6
Continuous
 62
     7
370
     0
100
AcDbLine
 10
172.3748714865
 20
114.3422266801
 30
0.0
 11
172.3748714865
 21
115.3422266694
 31
0.0
  0
LINE
  5
3AA
330
1F
100
AcDbEntity
  8
0
  6
Continuous
 62
     7
370
     0
100
AcDbLine
 10
172.3748714865
 20
115.3422266694
 30
0.0
 11
173.7908003122
 21
115.3422266694
 31
0.0
  0
LINE
  5
3AB
330
1F
100
AcDbEntity
  8
0
  6
Continuous
 62
     7
370
     0
100
AcDbLine
 10
172.3748714865
 20
114.3422266801
 30
0.0
 11
173.7908003122
 21
114.3422266801
 31
0.0
  0
LINE
  5
3AC
330
1F
100
AcDbEntity
  8
0
  6
Continuous
 62
     7
370
     0
100
AcDbLine
 10
172.3740584419
 20
115.3422266694
 30
0.0
 11
172.3748714865
 21
115.3422266694
 31
0.0
  0
LINE
  5
3AD
330
1F
100
AcDbEntity
  8
0
  6
Continuous
 62
     7
370
     0
100
AcDbLine
 10
171.6014118135
 20
114.3422266801
 30
0.0
 11
172.3748714865
 21
114.3422266801
 31
0.0
  0
LINE
  5
3AE
330
1F
100
AcDbEntity
  8
0
  6
Continuous
 62
     7
370
     0
100
AcDbLine
 10
148.5967141778
 20
114.3422266801
 30
0.0
 11
148.5967141778
 21
115.3422266694
 31
0.0
  0
LINE
  5
3AF
330
1F
100
AcDbEntity
  8
0
  6
Continuous
 62
     7
370
     0
100
AcDbLine
 10
148.5967141778
 20
115.3422266694
 30
0.0
 11
150.0126430035
 21
115.3422266694
 31
0.0
  0
LINE
  5
3B0
330
1F
100
AcDbEntity
  8
0
  6
Continuous
 62
     7
370
     0
100
AcDbLine
 10
148.5967141778
 20
114.3422266801
 30
0.0
 11
150.0126430035
 21
114.3422266801
 31
0.0
  0
LINE
  5
3B1
330
1F
100
AcDbEntity
  8
0
  6
Continuous
 62
     7
370
     0
100
AcDbLine
 10
148.3251107127
 20
114.3422266801
 30
0.0
 11
148.5967141778
 21
114.3422266801
 31
0.0
  0
LINE
  5
3B2
330
1F
100
AcDbEntity
  8
0
  6
Continuous
 62
     7
370
     0
100
AcDbLine
 10
148.3251107127
 20
114.3422266801
 30
0.0
 11
148.3251107127
 21
115.3422266694
 31
0.0
  0
LINE
  5
3B3
330
1F
100
AcDbEntity
  8
0
  6
Continuous
 62
     7
370
     0
100
AcDbLine
 10
148.3251107127
 20
115.3422266694
 30
0.0
 11
148.3260466919
 21
115.3422266694
 31
0.0
  0
LINE
  5
3B4
330
1F
100
AcDbEntity
  8
0
  6
Continuous
 62
     7
370
     0
100
AcDbLine
 10
174.0624037773
 20
114.3422266801
 30
0.0
 11
174.205865638
 21
114.3422266801
 31
0.0
  0
LINE
  5
3B5
330
1F
100
AcDbEntity
  8
0
  6
Continuous
 62
     7
370
     0
100
AcDbLine
 10
174.0624037773
 20
114.3422266801
 30
0.0
 11
174.0624037773
 21
115.3422266694
 31
0.0
  0
LINE
  5
3B6
330
1F
100
AcDbEntity
  8
0
  6
Continuous
 62
     7
370
     0
100
AcDbLine
 10
174.0624037773
 20
115.3422266694
 30
0.0
 11
174.205865638
 21
115.3422266694
 31
0.0
  0
LINE
  5
3B7
330
1F
100
AcDbEntity
  8
0
  6
Continuous
 62
     7
370
     0
100
AcDbLine
 10
174.0614677981
 20
115.3422266694
 30
0.0
 11
174.0624037773
 21
115.3422266694
 31
0.0
  0
LINE
  5
3B8
330
1F
100
AcDbEntity
  8
0
  6
Continuous
 62
     7
370
     0
100
AcDbLine
 10
173.7908003122
 20
114.3422266801
 30
0.0
 11
174.0624037773
 21
114.3422266801
 31
0.0
  0
LINE
  5
3B9
330
1F
100
AcDbEntity
  8
0
  6
Continuous
 62
     7
370
     0
100
AcDbLine
 10
148.181648852
 20
115.3422266694
 30
0.0
 11
148.3251107127
 21
115.3422266694
 31
0.0
  0
LINE
  5
3BA
330
1F
100
AcDbEntity
  8
0
  6
Continuous
 62
     7
370
     0
100
AcDbLine
 10
148.181648852
 20
114.3422266801
 30
0.0
 11
148.3251107127
 21
114.3422266801
 31
0.0
  0
LINE
  5
3BB
330
1F
100
AcDbEntity
  8
0
  6
Continuous
 62
     7
370
     0
100
AcDbLine
 10
148.1937569768
 20
125.4422269745
 30
0.0
 11
174.1937575132
 21
125.4422269745
 31
0.0
  0
LINE
  5
3BC
330
1F
100
AcDbEntity
  8
0
  6
Continuous
 62
     7
370
     0
100
AcDbLine
 10
149.1937571407
 20
139.6422270669
 30
0.0
 11
148.1937569768
 21
139.6422270669
 31
0.0
  0
LINE
  5
3BD
330
1F
100
AcDbEntity
  8
0
  6
Continuous
 62
     7
370
     0
100
AcDbLine
 10
149.1937571407
 20
127.6422269626
 30
0.0
 11
148.1937569768
 21
127.6422269626
 31
0.0
  0
LINE
  5
3BE
330
1F
100
AcDbEntity
  8
0
  6
Continuous
 62
     7
370
     0
100
AcDbLine
 10
149.1937571407
 20
127.6422269626
 30
0.0
 11
149.1937571407
 21
139.6422270669
 31
0.0
  0
LINE
  5
3BF
330
1F
100
AcDbEntity
  8
0
  6
Continuous
 62
     7
370
     0
100
AcDbLine
 10
166.1937571332
 20
139.6422270669
 30
0.0
 11
156.1937573568
 21
139.6422270669
 31
0.0
  0
LINE
  5
3C0
330
1F
100
AcDbEntity
  8
0
  6
Continuous
 62
     7
370
     0
100
AcDbLine
 10
156.1937573568
 20
139.6422270669
 30
0.0
 11
156.1937573568
 21
127.6422269626
 31
0.0
  0
LINE
  5
3C1
330
1F
100
AcDbEntity
  8
0
  6
Continuous
 62
     7
370
     0
100
AcDbLine
 10
166.1937571332
 20
127.6422269626
 30
0.0
 11
156.1937573568
 21
127.6422269626
 31
0.0
  0
LINE
  5
3C2
330
1F
100
AcDbEntity
  8
0
  6
Continuous
 62
     7
370
     0
100
AcDbLine
 10
166.1937571332
 20
127.6422269626
 30
0.0
 11
166.1937571332
 21
139.6422270669
 31
0.0
  0
LINE
  5
3C3
330
1F
100
AcDbEntity
  8
0
  6
Continuous
 62
     7
370
     0
100
AcDbLine
 10
174.1937575132
 20
150.5422271772
 30
0.0
 11
148.1937569768
 21
150.5422271772
 31
0.0
  0
LINE
  5
3C4
330
1F
100
AcDbEntity
  8
0
  6
Continuous
 62
     7
370
     0
100
AcDbLine
 10
148.4937573985
 20
150.8422285302
 30
0.0
 11
173.8937570915
 21
150.8422285302
 31
0.0
  0
LINE
  5
3C5
330
1F
100
AcDbEntity
  8
0
  6
Continuous
 62
     7
370
     0
100
AcDbLine
 10
163.3148499966
 20
114.6422266944
 30
0.0
 11
163.0437572456
 21
114.6422266944
 31
0.0
  0
LINE
  5
3C6
330
1F
100
AcDbEntity
  8
0
  6
Continuous
 62
     7
370
     0
100
AcDbLine
 10
159.3437572444
 20
114.6422266944
 30
0.0
 11
159.0726644934
 21
114.6422266944
 31
0.0
  0
LINE
  5
3C7
330
1F
100
AcDbEntity
  8
0
  6
Continuous
 62
     7
370
     0
100
AcDbLine
 10
159.0726644934
 20
114.9422267086
 30
0.0
 11
159.3437572444
 21
114.9422267086
 31
0.0
  0
LINE
  5
3C8
330
1F
100
AcDbEntity
  8
0
  6
Continuous
 62
     7
370
     0
100
AcDbLine
 10
163.0437572456
 20
114.9422267086
 30
0.0
 11
163.3148499966
 21
114.9422267086
 31
0.0
  0
LINE
  5
3C9
330
1F
100
AcDbEntity
  8
0
  6
Continuous
 62
     7
370
     0
100
AcDbLine
 10
172.1937571854
 20
151.3422258182
 30
0.0
 11
150.1937573046
 21
151.3422258182
 31
0.0
  0
SPLINE
  5
3CA
330
1F
100
AcDbEntity
  8
0
  6
Continuous
 62
     7
370
     0
100
AcDbSpline
210
0.0
220
0.0
230
1.0
 70
    24
 71
     3
 72
     9
 73
     5
 74
     0
 42
0.00000001
 43
0.00000001
 40
0.0
 40
0.0
 40
0.0
 40
0.0
 40
0.4946841106391112
 40
0.9999999999999999
 40
0.9999999999999999
 40
0.9999999999999999
 40
0.9999999999999999
 10
150.1937573046012
 20
151.3422258181689
 30
0.0
 10
150.1937573046012
 20
151.364977134903
 30
0.0
 10
150.1937573046012
 20
151.4109687409498
 30
0.0
 10
150.1937573046012
 20
151.6974588348537
 30
0.0
 10
150.1937573046012
 20
151.8422268314478
 30
0.0
  0
LINE
  5
3CB
330
1F
100
AcDbEntity
  8
0
  6
Continuous
 62
     7
370
     0
100
AcDbLine
 10
150.1937573046
 20
151.8422268314
 30
0.0
 11
172.1937571854
 21
151.8422268314
 31
0.0
  0
SPLINE
  5
3CC
330
1F
100
AcDbEntity
  8
0
  6
Continuous
 62
     7
370
     0
100
AcDbSpline
210
0.0
220
0.0
230
1.0
 70
    24
 71
     3
 72
     9
 73
     5
 74
     0
 42
0.00000001
 43
0.00000001
 40
0.0
 40
0.0
 40
0.0
 40
0.0
 40
0.4951312596405547
 40
1.0
 40
1.0
 40
1.0
 40
1.0
 10
172.1937571853919
 20
151.8422268314478
 30
0.0
 10
172.1937571853919
 20
151.7000401593638
 30
0.0
 10
172.1937571853919
 20
151.4128705062354
 30
0.0
 10
172.1937571853919
 20
151.3659264199029
 30
0.0
 10
172.1937571853919
 20
151.3422258181688
 30
0.0
  0
LINE
  5
3CD
330
1F
100
AcDbEntity
  8
0
  6
Continuous
 62
     7
370
     0
100
AcDbLine
 10
172.1937571854
 20
162.3422257586
 30
0.0
 11
150.1937573046
 21
162.3422257586
 31
0.0
  0
LINE
  5
3CE
330
1F
100
AcDbEntity
  8
0
  6
Continuous
 62
     7
370
     0
100
AcDbLine
 10
172.1937571854
 20
162.3422257586
 30
0.0
 11
172.1937571854
 21
151.8422268314
 31
0.0
  0
LINE
  5
3CF
330
1F
100
AcDbEntity
  8
0
  6
Continuous
 62
     7
370
     0
100
AcDbLine
 10
150.1937573046
 20
151.8422268314
 30
0.0
 11
150.1937573046
 21
162.3422257586
 31
0.0
  0
LINE
  5
3D0
330
1F
100
AcDbEntity
  8
0
  6
Continuous
 62
     7
370
     0
100
AcDbLine
 10
150.1937573046
 20
162.8422267718
 30
0.0
 11
172.1937571854
 21
162.8422267718
 31
0.0
  0
SPLINE
  5
3D1
330
1F
100
AcDbEntity
  8
0
  6
Continuous
 62
     7
370
     0
100
AcDbSpline
210
0.0
220
0.0
230
1.0
 70
    24
 71
     3
 72
     9
 73
     5
 74
     0
 42
0.00000001
 43
0.00000001
 40
0.0
 40
0.0
 40
0.0
 40
0.0
 40
0.4946841106391116
 40
1.0
 40
1.0
 40
1.0
 40
1.0
 10
172.1937571853919
 20
162.8422267718431
 30
0.0
 10
172.1937571853919
 20
162.819475455109
 30
0.0
 10
172.1937571853919
 20
162.7734838490622
 30
0.0
 10
172.1937571853919
 20
162.4869937551584
 30
0.0
 10
172.1937571853919
 20
162.3422257585642
 30
0.0
  0
SPLINE
  5
3D2
330
1F
100
AcDbEntity
  8
0
  6
Continuous
 62
     7
370
     0
100
AcDbSpline
210
0.0
220
0.0
230
1.0
 70
    24
 71
     3
 72
     9
 73
     5
 74
     0
 42
0.00000001
 43
0.00000001
 40
0.0
 40
0.0
 40
0.0
 40
0.0
 40
0.495131422291066
 40
1.0
 40
1.0
 40
1.0
 40
1.0
 10
150.1937573046012
 20
162.3422257585642
 30
0.0
 10
150.1937573046012
 20
162.484414280799
 30
0.0
 10
150.1937573046012
 20
162.7715875762785
 30
0.0
 10
150.1937573046012
 20
162.8185280178633
 30
0.0
 10
150.1937573046012
 20
162.8422267718431
 30
0.0
  0
LINE
  5
3D3
330
1F
100
AcDbEntity
  8
0
  6
Continuous
 62
     7
370
     0
100
AcDbLine
 10
171.1937570215
 20
182.3422253115
 30
0.0
 11
151.1937574685
 21
182.3422253115
 31
0.0
  0
LINE
  5
3D4
330
1F
100
AcDbEntity
  8
0
  6
Continuous
 62
     7
370
     0
100
AcDbLine
 10
151.6937575505
 20
182.8422263248
 30
0.0
 11
170.6937569395
 21
182.8422263248
 31
0.0
  0
LINE
  5
3D5
330
1F
100
AcDbEntity
  8
0
  6
Continuous
 62
     8
370
     0
100
AcDbLine
 10
161.193757245
 20
196.0422262533
 30
0.0
 11
165.1437570543
 21
196.0422262533
 31
0.0
  0
LINE
  5
3D6
330
1F
100
AcDbEntity
  8
0
  6
Continuous
 62
     8
370
     0
100
AcDbLine
 10
157.2437574357
 20
196.0422262533
 30
0.0
 11
161.193757245
 21
196.0422262533
 31
0.0
  0
LINE
  5
3D7
330
1F
100
AcDbEntity
  8
0
  6
Continuous
 62
     8
370
     0
100
AcDbLine
 10
133.8437580705
 20
146.942225842
 30
0.0
 11
142.9437575132
 21
146.942225842
 31
0.0
  0
LINE
  5
3D8
330
1F
100
AcDbEntity
  8
0
  6
Continuous
 62
     8
370
     0
100
AcDbLine
 10
138.3937568605
 20
129.4422266988
 30
0.0
 11
138.3937568605
 21
131.8422272785
 31
0.0
  0
LINE
  5
3D9
330
1F
100
AcDbEntity
  8
0
  6
Continuous
 62
     8
370
     0
100
AcDbLine
 10
135.9937572122
 20
131.8422272785
 30
0.0
 11
138.3937568605
 21
131.8422272785
 31
0.0
  0
INSERT
  5
3E4
330
1F
100
AcDbEntity
  8
0
  6
Continuous
 62
     7
370
     0
100
AcDbBlockReference
  2
SW_NOTE_0
 10
129.3428820685
 20
164.280987218
 30
0.0
  0
LEADER
  5
3E6
330
1F
100
AcDbEntity
  8
0
  6
Continuous
 62
     7
370
     0
100
AcDbLeader
  3
SLDDIMSTYLE1
 76
     2
 10
138.0398850523
 20
147.4422266944
 30
0.0
 10
129.3428820685
 20
164.280987218
 30
0.0
  0
INSERT
  5
3F1
330
1F
100
AcDbEntity
  8
0
  6
Continuous
 62
     7
370
     0
100
AcDbBlockReference
  2
SW_NOTE_1
 10
147.1777205073
 20
214.8253780141
 30
0.0
  0
LEADER
  5
3F2
330
1F
100
AcDbEntity
  8
0
  6
Continuous
 62
     7
370
     0
100
AcDbLeader
  3
SLDDIMSTYLE1
 76
     2
 10
161.02777927
 20
196.5422266944
 30
0.0
 10
147.1777205073
 20
214.8253780141
 30
0.0
  0
ENDSEC
  0
SECTION
  2
OBJECTS
  0
DICTIONARY
  5
C
330
0
100
AcDbDictionary
281
     1
  3
ACAD_GROUP
350
D
  3
ACAD_LAYOUT
350
1A
  3
ACAD_MLINESTYLE
350
17
  3
ACAD_PLOTSETTINGS
350
19
  3
ACAD_PLOTSTYLENAME
350
E
  3
ACAD_SCALELIST
350
4D
  3
AcDbVariableDictionary
350
3F3
  0
DICTIONARY
  5
D
102
{ACAD_REACTORS
330
C
102
}
330
C
100
AcDbDictionary
281
     1
  0
DICTIONARY
  5
1A
102
{ACAD_REACTORS
330
C
102
}
330
C
100
AcDbDictionary
281
     1
  3
Layout1
350
1E
  3
Layout2
350
26
  3
Model
350
22
  0
DICTIONARY
  5
17
102
{ACAD_REACTORS
330
C
102
}
330
C
100
AcDbDictionary
281
     1
  3
Standard
350
18
  0
DICTIONARY
  5
19
102
{ACAD_REACTORS
330
C
102
}
330
C
100
AcDbDictionary
281
     1
  0
ACDBDICTIONARYWDFLT
  5
E
102
{ACAD_REACTORS
330
C
102
}
330
C
100
AcDbDictionary
281
     1
  3
Normal
350
F
100
AcDbDictionaryWithDefault
340
F
  0
DICTIONARY
  5
4D
102
{ACAD_REACTORS
330
C
102
}
330
C
100
AcDbDictionary
281
     1
  3
A0
350
4E
  3
A1
350
4F
  3
A2
350
50
  3
A3
350
51
  3
A4
350
52
  3
A5
350
53
  3
A6
350
54
  3
A7
350
55
  3
A8
350
56
  3
A9
350
57
  3
B0
350
58
  3
B1
350
59
  3
B2
350
5A
  3
B3
350
5B
  3
B4
350
5C
  3
B5
350
5D
  3
B6
350
5E
  3
B7
350
5F
  3
B8
350
60
  3
B9
350
61
  3
C0
350
62
  3
C1
350
63
  3
C2
350
64
  3
C3
350
65
  3
C4
350
66
  3
C5
350
67
  3
C6
350
68
  3
C7
350
69
  3
C8
350
6A
  3
C9
350
6B
  3
D0
350
6C
  3
D1
350
6D
  3
D2
350
6E
  0
DICTIONARY
  5
3F3
102
{ACAD_REACTORS
330
C
102
}
330
C
100
AcDbDictionary
281
     1
  3
CANNOSCALE
350
3F4
  0
LAYOUT
  5
1E
102
{ACAD_REACTORS
330
1A
102
}
330
1A
100
AcDbPlotSettings
  1

  2
none_device
  4

  6

 40
0.0
 41
0.0
 42
0.0
 43
0.0
 44
0.0
 45
0.0
 46
0.0
 47
0.0
 48
0.0
 49
0.0
140
0.0
141
0.0
142
1.0
143
1.0
 70
   688
 72
     0
 73
     0
 74
     5
  7

 75
    16
147
1.0
148
0.0
149
0.0
100
AcDbLayout
  1
Layout1
 70
     1
 71
     1
 10
0.0
 20
0.0
 11
420.0
 21
297.0
 12
0.0
 22
0.0
 32
0.0
 14
1.0000000000E+20
 24
1.0000000000E+20
 34
1.0000000000E+20
 15
-1.0000000000E+20
 25
-1.0000000000E+20
 35
-1.0000000000E+20
146
0.0
 13
0.0
 23
0.0
 33
0.0
 16
1.0
 26
0.0
 36
0.0
 17
0.0
 27
1.0
 37
0.0
 76
     0
330
1B
  0
LAYOUT
  5
26
102
{ACAD_REACTORS
330
1A
102
}
330
1A
100
AcDbPlotSettings
  1

  2
none_device
  4

  6

 40
0.0
 41
0.0
 42
0.0
 43
0.0
 44
0.0
 45
0.0
 46
0.0
 47
0.0
 48
0.0
 49
0.0
140
0.0
141
0.0
142
1.0
143
1.0
 70
   688
 72
     0
 73
     0
 74
     5
  7

 75
    16
147
1.0
148
0.0
149
0.0
100
AcDbLayout
  1
Layout2
 70
     1
 71
     2
 10
0.0
 20
0.0
 11
0.0
 21
0.0
 12
0.0
 22
0.0
 32
0.0
 14
0.0
 24
0.0
 34
0.0
 15
0.0
 25
0.0
 35
0.0
146
0.0
 13
0.0
 23
0.0
 33
0.0
 16
1.0
 26
0.0
 36
0.0
 17
0.0
 27
1.0
 37
0.0
 76
     0
330
23
  0
LAYOUT
  5
22
102
{ACAD_REACTORS
330
1A
102
}
330
1A
100
AcDbPlotSettings
  1

  2
none_device
  4

  6

 40
0.0
 41
0.0
 42
0.0
 43
0.0
 44
0.0
 45
0.0
 46
0.0
 47
0.0
 48
0.0
 49
0.0
140
0.0
141
0.0
142
1.0
143
1.0
 70
  1712
 72
     0
 73
     0
 74
     0
  7

 75
     0
147
1.0
148
0.0
149
0.0
100
AcDbLayout
  1
Model
 70
     1
 71
     0
 10
0.0
 20
0.0
 11
210.0
 21
297.0
 12
0.0
 22
0.0
 32
0.0
 14
0.0
 24
0.0
 34
0.0
 15
210.0
 25
297.0
 35
0.0
146
0.0
 13
0.0
 23
0.0
 33
0.0
 16
1.0
 26
0.0
 36
0.0
 17
0.0
 27
1.0
 37
0.0
 76
     0
330
1F
331
29
  0
MLINESTYLE
  5
18
102
{ACAD_REACTORS
330
17
102
}
330
17
100
AcDbMlineStyle
  2
Standard
 70
     0
  3

 62
   256
 51
90.0
 52
90.0
 71
     2
 49
0.5
 62
   256
  6
BYLAYER
 49
-0.5
 62
   256
  6
BYLAYER
  0
ACDBPLACEHOLDER
  5
F
102
{ACAD_REACTORS
330
E
102
}
330
E
  0
SCALE
  5
4E
102
{ACAD_REACTORS
330
4D
102
}
330
4D
100
AcDbScale
 70
     0
300
1:1
140
1.0
141
1.0
290
     1
  0
SCALE
  5
4F
102
{ACAD_REACTORS
330
4D
102
}
330
4D
100
AcDbScale
 70
     0
300
1:2
140
1.0
141
2.0
290
     0
  0
SCALE
  5
50
102
{ACAD_REACTORS
330
4D
102
}
330
4D
100
AcDbScale
 70
     0
300
1:4
140
1.0
141
4.0
290
     0
  0
SCALE
  5
51
102
{ACAD_REACTORS
330
4D
102
}
330
4D
100
AcDbScale
 70
     0
300
1:5
140
1.0
141
5.0
290
     0
  0
SCALE
  5
52
102
{ACAD_REACTORS
330
4D
102
}
330
4D
100
AcDbScale
 70
     0
300
1:8
140
1.0
141
8.0
290
     0
  0
SCALE
  5
53
102
{ACAD_REACTORS
330
4D
102
}
330
4D
100
AcDbScale
 70
     0
300
1:10
140
1.0
141
10.0
290
     0
  0
SCALE
  5
54
102
{ACAD_REACTORS
330
4D
102
}
330
4D
100
AcDbScale
 70
     0
300
1:16
140
1.0
141
16.0
290
     0
  0
SCALE
  5
55
102
{ACAD_REACTORS
330
4D
102
}
330
4D
100
AcDbScale
 70
     0
300
1:20
140
1.0
141
20.0
290
     0
  0
SCALE
  5
56
102
{ACAD_REACTORS
330
4D
102
}
330
4D
100
AcDbScale
 70
     0
300
1:30
140
1.0
141
30.0
290
     0
  0
SCALE
  5
57
102
{ACAD_REACTORS
330
4D
102
}
330
4D
100
AcDbScale
 70
     0
300
1:40
140
1.0
141
40.0
290
     0
  0
SCALE
  5
58
102
{ACAD_REACTORS
330
4D
102
}
330
4D
100
AcDbScale
 70
     0
300
1:50
140
1.0
141
50.0
290
     0
  0
SCALE
  5
59
102
{ACAD_REACTORS
330
4D
102
}
330
4D
100
AcDbScale
 70
     0
300
1:100
140
1.0
141
100.0
290
     0
  0
SCALE
  5
5A
102
{ACAD_REACTORS
330
4D
102
}
330
4D
100
AcDbScale
 70
     0
300
2:1
140
2.0
141
1.0
290
     0
  0
SCALE
  5
5B
102
{ACAD_REACTORS
330
4D
102
}
330
4D
100
AcDbScale
 70
     0
300
4:1
140
4.0
141
1.0
290
     0
  0
SCALE
  5
5C
102
{ACAD_REACTORS
330
4D
102
}
330
4D
100
AcDbScale
 70
     0
300
8:1
140
8.0
141
1.0
290
     0
  0
SCALE
  5
5D
102
{ACAD_REACTORS
330
4D
102
}
330
4D
100
AcDbScale
 70
     0
300
10:1
140
10.0
141
1.0
290
     0
  0
SCALE
  5
5E
102
{ACAD_REACTORS
330
4D
102
}
330
4D
100
AcDbScale
 70
     0
300
100:1
140
100.0
141
1.0
290
     0
  0
SCALE
  5
5F
102
{ACAD_REACTORS
330
4D
102
}
330
4D
100
AcDbScale
 70
     0
300
1/128" = 1'-0"
140
0.0078125
141
12.0
290
     0
  0
SCALE
  5
60
102
{ACAD_REACTORS
330
4D
102
}
330
4D
100
AcDbScale
 70
     0
300
1/64" = 1'-0"
140
0.015625
141
12.0
290
     0
  0
SCALE
  5
61
102
{ACAD_REACTORS
330
4D
102
}
330
4D
100
AcDbScale
 70
     0
300
1/32" = 1'-0"
140
0.03125
141
12.0
290
     0
  0
SCALE
  5
62
102
{ACAD_REACTORS
330
4D
102
}
330
4D
100
AcDbScale
 70
     0
300
1/16" = 1'-0"
140
0.0625
141
12.0
290
     0
  0
SCALE
  5
63
102
{ACAD_REACTORS
330
4D
102
}
330
4D
100
AcDbScale
 70
     0
300
3/32" = 1'-0"
140
0.09375
141
12.0
290
     0
  0
SCALE
  5
64
102
{ACAD_REACTORS
330
4D
102
}
330
4D
100
AcDbScale
 70
     0
300
1/8" = 1'-0"
140
0.125
141
12.0
290
     0
  0
SCALE
  5
65
102
{ACAD_REACTORS
330
4D
102
}
330
4D
100
AcDbScale
 70
     0
300
3/16" = 1'-0"
140
0.1875
141
12.0
290
     0
  0
SCALE
  5
66
102
{ACAD_REACTORS
330
4D
102
}
330
4D
100
AcDbScale
 70
     0
300
1/4" = 1'-0"
140
0.25
141
12.0
290
     0
  0
SCALE
  5
67
102
{ACAD_REACTORS
330
4D
102
}
330
4D
100
AcDbScale
 70
     0
300
3/8" = 1'-0"
140
0.375
141
12.0
290
     0
  0
SCALE
  5
68
102
{ACAD_REACTORS
330
4D
102
}
330
4D
100
AcDbScale
 70
     0
300
1/2" = 1'-0"
140
0.5
141
12.0
290
     0
  0
SCALE
  5
69
102
{ACAD_REACTORS
330
4D
102
}
330
4D
100
AcDbScale
 70
     0
300
3/4" = 1'-0"
140
0.75
141
12.0
290
     0
  0
SCALE
  5
6A
102
{ACAD_REACTORS
330
4D
102
}
330
4D
100
AcDbScale
 70
     0
300
1" = 1'-0"
140
1.0
141
12.0
290
     0
  0
SCALE
  5
6B
102
{ACAD_REACTORS
330
4D
102
}
330
4D
100
AcDbScale
 70
     0
300
1-1/2" = 1'-0"
140
1.5
141
12.0
290
     0
  0
SCALE
  5
6C
102
{ACAD_REACTORS
330
4D
102
}
330
4D
100
AcDbScale
 70
     0
300
3" = 1'-0"
140
3.0
141
12.0
290
     0
  0
SCALE
  5
6D
102
{ACAD_REACTORS
330
4D
102
}
330
4D
100
AcDbScale
 70
     0
300
6" = 1'-0"
140
6.0
141
12.0
290
     0
  0
SCALE
  5
6E
102
{ACAD_REACTORS
330
4D
102
}
330
4D
100
AcDbScale
 70
     0
300
1'-0" = 1'-0"
140
12.0
141
12.0
290
     0
  0
DICTIONARYVAR
  5
3F4
102
{ACAD_REACTORS
330
3F3
102
}
330
3F3
100
DictionaryVariables
280
     0
  1
1:1
  0
ENDSEC
  0
EOF
