  0
SECTION
  2
HEADER
  9
$ACADVER
  1
AC1015
  9
$ACADMAINTVER
 70
     6
  9
$DWGCODEPAGE
  3
DOS932
  9
$INSBASE
 10
0.0
 20
0.0
 30
0.0
  9
$EXTMIN
 10
0.0
 20
0.0
 30
0.0
  9
$EXTMAX
 10
210.0
 20
297.0
 30
0.0
  9
$LIMMIN
 10
0.0
 20
0.0
  9
$LIMMAX
 10
210.0
 20
297.0
  9
$ORTHOMODE
 70
     0
  9
$REGENMODE
 70
     1
  9
$FILLMODE
 70
     1
  9
$QTEXTMODE
 70
     0
  9
$MIRRTEXT
 70
     1
  9
$LTSCALE
 40
1.0
  9
$ATTMODE
 70
     1
  9
$TEXTSIZE
 40
3.5
  9
$TRACEWID
 40
1.0
  9
$TEXTSTYLE
  7
Standard
  9
$CLAYER
  8
0
  9
$CELTYPE
  6
ByLayer
  9
$CECOLOR
 62
   256
  9
$CELTSCALE
 40
1.0
  9
$DISPSILH
 70
     0
  9
$DIMSCALE
 40
1.0
  9
$DIMASZ
 40
2.0
  9
$DIMEXO
 40
1.0
  9
$DIMDLI
 40
3.75
  9
$DIMRND
 40
0.0
  9
$DIMDLE
 40
0.0
  9
$DIMEXE
 40
1.0
  9
$DIMTP
 40
0.0
  9
$DIMTM
 40
0.0
  9
$DIMTXT
 40
3.5
  9
$DIMCEN
 40
2.5
  9
$DIMTSZ
 40
0.0
  9
$DIMTOL
 70
     0
  9
$DIMLIM
 70
     0
  9
$DIMTIH
 70
     1
  9
$DIMTOH
 70
     1
  9
$DIMSE1
 70
     0
  9
$DIMSE2
 70
     0
  9
$DIMTAD
 70
     1
  9
$DIMZIN
 70
     0
  9
$DIMBLK
  1

  9
$DIMASO
 70
     1
  9
$DIMSHO
 70
     1
  9
$DIMPOST
  1

  9
$DIMAPOST
  1

  9
$DIMALT
 70
     0
  9
$DIMALTD
 70
     3
  9
$DIMALTF
 40
0.0393700787
  9
$DIMLFAC
 40
1.0
  9
$DIMTOFL
 70
     1
  9
$DIMTVP
 40
0.0
  9
$DIMTIX
 70
     0
  9
$DIMSOXD
 70
     0
  9
$DIMSAH
 70
     0
  9
$DIMBLK1
  1

  9
$DIMBLK2
  1

  9
$DIMSTYLE
  2
ISO-25
  9
$DIMCLRD
 70
     0
  9
$DIMCLRE
 70
     0
  9
$DIMCLRT
 70
     0
  9
$DIMTFAC
 40
1.0
  9
$DIMGAP
 40
1.524
  9
$DIMJUST
 70
     0
  9
$DIMSD1
 70
     0
  9
$DIMSD2
 70
     0
  9
$DIMTOLJ
 70
     0
  9
$DIMTZIN
 70
     0
  9
$DIMALTZ
 70
     0
  9
$DIMALTTZ
 70
     0
  9
$DIMUPT
 70
     0
  9
$DIMDEC
 70
     2
  9
$DIMTDEC
 70
     2
  9
$DIMALTU
 70
     2
  9
$DIMALTTD
 70
     3
  9
$DIMTXSTY
  7
Standard
  9
$DIMAUNIT
 70
     0
  9
$DIMADEC
 70
     2
  9
$DIMALTRND
 40
0.0
  9
$DIMAZIN
 70
     0
  9
$DIMDSEP
 70
    44
  9
$DIMATFIT
 70
     3
  9
$DIMFRAC
 70
     0
  9
$DIMLDRBLK
  1

  9
$DIMLUNIT
 70
     2
  9
$DIMLWD
 70
    -2
  9
$DIMLWE
 70
    -2
  9
$DIMTMOVE
 70
     0
  9
$LUNITS
 70
     2
  9
$LUPREC
 70
     2
  9
$SKETCHINC
 40
1.0
  9
$FILLETRAD
 40
10.0
  9
$AUNITS
 70
     0
  9
$AUPREC
 70
     2
  9
$MENU
  1
.
  9
$ELEVATION
 40
0.0
  9
$PELEVATION
 40
0.0
  9
$THICKNESS
 40
0.0
  9
$LIMCHECK
 70
     0
  9
$CHAMFERA
 40
10.0
  9
$CHAMFERB
 40
10.0
  9
$CHAMFERC
 40
20.0
  9
$CHAMFERD
 40
0.0
  9
$SKPOLY
 70
     0
  9
$TDCREATE
 40
2456911.650381724
  9
$TDUCREATE
 40
2456911.275381724
  9
$TDUPDATE
 40
2456911.650384792
  9
$TDUUPDATE
 40
2456911.275384792
  9
$TDINDWG
 40
0.0000000116
  9
$TDUSRTIMER
 40
0.0000000116
  9
$USRTIMER
 70
     1
  9
$ANGBASE
 50
0.0
  9
$ANGDIR
 70
     0
  9
$PDMODE
 70
     0
  9
$PDSIZE
 40
-1.0
  9
$PLINEWID
 40
0.0
  9
$SPLFRAME
 70
     0
  9
$SPLINETYPE
 70
     6
  9
$SPLINESEGS
 70
     8
  9
$HANDSEED
  5
4BE
  9
$SURFTAB1
 70
     6
  9
$SURFTAB2
 70
     6
  9
$SURFTYPE
 70
     6
  9
$SURFU
 70
     6
  9
$SURFV
 70
     6
  9
$UCSBASE
  2

  9
$UCSNAME
  2

  9
$UCSORG
 10
0.0
 20
0.0
 30
0.0
  9
$UCSXDIR
 10
1.0
 20
0.0
 30
0.0
  9
$UCSYDIR
 10
0.0
 20
1.0
 30
0.0
  9
$UCSORTHOREF
  2

  9
$UCSORTHOVIEW
 70
     0
  9
$UCSORGTOP
 10
0.0
 20
0.0
 30
0.0
  9
$UCSORGBOTTOM
 10
0.0
 20
0.0
 30
0.0
  9
$UCSORGLEFT
 10
0.0
 20
0.0
 30
0.0
  9
$UCSORGRIGHT
 10
0.0
 20
0.0
 30
0.0
  9
$UCSORGFRONT
 10
0.0
 20
0.0
 30
0.0
  9
$UCSORGBACK
 10
0.0
 20
0.0
 30
0.0
  9
$PUCSBASE
  2

  9
$PUCSNAME
  2

  9
$PUCSORG
 10
0.0
 20
0.0
 30
0.0
  9
$PUCSXDIR
 10
1.0
 20
0.0
 30
0.0
  9
$PUCSYDIR
 10
0.0
 20
1.0
 30
0.0
  9
$PUCSORTHOREF
  2

  9
$PUCSORTHOVIEW
 70
     0
  9
$PUCSORGTOP
 10
0.0
 20
0.0
 30
0.0
  9
$PUCSORGBOTTOM
 10
0.0
 20
0.0
 30
0.0
  9
$PUCSORGLEFT
 10
0.0
 20
0.0
 30
0.0
  9
$PUCSORGRIGHT
 10
0.0
 20
0.0
 30
0.0
  9
$PUCSORGFRONT
 10
0.0
 20
0.0
 30
0.0
  9
$PUCSORGBACK
 10
0.0
 20
0.0
 30
0.0
  9
$USERI1
 70
     0
  9
$USERI2
 70
     0
  9
$USERI3
 70
     0
  9
$USERI4
 70
     0
  9
$USERI5
 70
     0
  9
$USERR1
 40
0.0
  9
$USERR2
 40
0.0
  9
$USERR3
 40
0.0
  9
$USERR4
 40
0.0
  9
$USERR5
 40
0.0
  9
$WORLDVIEW
 70
     1
  9
$SHADEDGE
 70
     3
  9
$SHADEDIF
 70
    70
  9
$TILEMODE
 70
     1
  9
$MAXACTVP
 70
    64
  9
$PINSBASE
 10
0.0
 20
0.0
 30
0.0
  9
$PLIMCHECK
 70
     0
  9
$PEXTMIN
 10
1.0000000000E+20
 20
1.0000000000E+20
 30
1.0000000000E+20
  9
$PEXTMAX
 10
-1.0000000000E+20
 20
-1.0000000000E+20
 30
-1.0000000000E+20
  9
$PLIMMIN
 10
0.0
 20
0.0
  9
$PLIMMAX
 10
420.0
 20
297.0
  9
$UNITMODE
 70
     0
  9
$VISRETAIN
 70
     1
  9
$PLINEGEN
 70
     0
  9
$PSLTSCALE
 70
     1
  9
$TREEDEPTH
 70
  3020
  9
$CMLSTYLE
  2
Standard
  9
$CMLJUST
 70
     0
  9
$CMLSCALE
 40
20.0
  9
$PROXYGRAPHICS
 70
     1
  9
$MEASUREMENT
 70
     1
  9
$CELWEIGHT
370
    -1
  9
$ENDCAPS
280
     0
  9
$JOINSTYLE
280
     0
  9
$LWDISPLAY
290
     1
  9
$INSUNITS
 70
     4
  9
$HYPERLINKBASE
  1

  9
$STYLESHEET
  1

  9
$XEDIT
290
     1
  9
$CEPSNTYPE
380
     0
  9
$PSTYLEMODE
290
     1
  9
$FINGERPRINTGUID
  2
{2C7EC5C9-304E-4456-B725-EE9FD9CCAAF7}
  9
$VERSIONGUID
  2
{FAEB1C32-E019-11D5-929B-00C0DF256EC4}
  9
$EXTNAMES
290
     1
  9
$PSVPSCALE
 40
0.0
  9
$OLESTARTUP
290
     0
  0
ENDSEC
  0
SECTION
  2
CLASSES
  0
CLASS
  1
ACDBDICTIONARYWDFLT
  2
AcDbDictionaryWithDefault
  3
ObjectDBX Classes
 90
        0
280
     0
281
     0
  0
CLASS
  1
VISUALSTYLE
  2
AcDbVisualStyle
  3
ObjectDBX Classes
 90
     4095
280
     0
281
     0
  0
CLASS
  1
MATERIAL
  2
AcDbMaterial
  3
ObjectDBX Classes
 90
     1153
280
     0
281
     0
  0
CLASS
  1
ACDBPLACEHOLDER
  2
AcDbPlaceHolder
  3
ObjectDBX Classes
 90
        0
280
     0
281
     0
  0
CLASS
  1
LAYOUT
  2
AcDbLayout
  3
ObjectDBX Classes
 90
        0
280
     0
281
     0
  0
ENDSEC
  0
SECTION
  2
TABLES
  0
TABLE
  2
VPORT
  5
8
330
0
100
AcDbSymbolTable
 70
     1
  0
VPORT
  5
29
330
8
100
AcDbSymbolTableRecord
100
AcDbViewportTableRecord
  2
*Active
 70
     0
 10
0.0
 20
0.0
 11
1.0
 21
1.0
 12
105.0
 22
148.5
 13
0.0
 23
0.0
 14
10.0
 24
10.0
 15
10.0
 25
10.0
 16
0.0
 26
0.0
 36
1.0
 17
0.0
 27
0.0
 37
0.0
 40
297.0
 41
0.7070707071
 42
50.0
 43
0.0
 44
0.0
 50
0.0
 51
0.0
 71
     0
 72
  2000
 73
     1
 74
     3
 75
     0
 76
     0
 77
     0
 78
     0
281
     0
 65
     1
110
0.0
120
0.0
130
0.0
111
1.0
121
0.0
131
0.0
112
0.0
122
1.0
132
0.0
 79
     0
146
0.0
  0
ENDTAB
  0
TABLE
  2
LTYPE
  5
5
330
0
100
AcDbSymbolTable
 70
     6
  0
LTYPE
  5
14
330
5
100
AcDbSymbolTableRecord
100
AcDbLinetypeTableRecord
  2
ByBlock
 70
     0
  3

 72
    65
 73
     0
 40
0.0
  0
LTYPE
  5
15
330
5
100
AcDbSymbolTableRecord
100
AcDbLinetypeTableRecord
  2
ByLayer
 70
     0
  3

 72
    65
 73
     0
 40
0.0
  0
LTYPE
  5
16
330
5
100
AcDbSymbolTableRecord
100
AcDbLinetypeTableRecord
  2
Continuous
 70
     0
  3
Solid line
 72
    65
 73
     0
 40
0.0
  0
LTYPE
  5
3F
330
5
100
AcDbSymbolTableRecord
100
AcDbLinetypeTableRecord
  2
HIDDEN
 70
     0
  3
Hidden __ __ __ __ __ __ __ __ __ __ __ __ __ __
 72
    65
 73
     2
 40
1.905
 49
1.27
 74
     0
 49
-0.635
 74
     0
  0
LTYPE
  5
40
330
5
100
AcDbSymbolTableRecord
100
AcDbLinetypeTableRecord
  2
PHANTOM
 70
     0
  3
Phantom ______  __  __  ______  __  __  ______
 72
    65
 73
     6
 40
12.7
 49
6.35
 74
     0
 49
-1.27
 74
     0
 49
1.27
 74
     0
 49
-1.27
 74
     0
 49
1.27
 74
     0
 49
-1.27
 74
     0
  0
LTYPE
  5
41
330
5
100
AcDbSymbolTableRecord
100
AcDbLinetypeTableRecord
  2
CENTER
 70
     0
  3
Center ____ _ ____ _ ____ _ ____ _ ____ _ ____
 72
    65
 73
     4
 40
10.16
 49
6.35
 74
     0
 49
-1.27
 74
     0
 49
1.27
 74
     0
 49
-1.27
 74
     0
  0
LTYPE
  5
42
330
5
100
AcDbSymbolTableRecord
100
AcDbLinetypeTableRecord
  2
CENTERX2
 70
     0
  3
Center (2x) ________  __  ________  __  _____
 72
    65
 73
     4
 40
20.32
 49
12.7
 74
     0
 49
-2.54
 74
     0
 49
2.54
 74
     0
 49
-2.54
 74
     0
  0
LTYPE
  5
43
330
5
100
AcDbSymbolTableRecord
100
AcDbLinetypeTableRecord
  2
DOT2
 70
     0
  3
Dot (.5x) ........................................
 72
    65
 73
     2
 40
0.635
 49
0.0
 74
     0
 49
-0.635
 74
     0
  0
ENDTAB
  0
TABLE
  2
LAYER
  5
2
330
0
100
AcDbSymbolTable
 70
     1
  0
LAYER
  5
10
330
2
100
AcDbSymbolTableRecord
100
AcDbLayerTableRecord
  2
0
 70
     0
 62
     7
  6
Continuous
370
    -3
390
F
  0
ENDTAB
  0
TABLE
  2
STYLE
  5
3
330
0
100
AcDbSymbolTable
 70
     3
  0
STYLE
  5
11
330
3
100
AcDbSymbolTableRecord
100
AcDbTextStyleTableRecord
  2
Standard
 70
     0
 40
0.0
 41
1.0
 50
0.0
 71
     0
 42
3.5
  3
txt
  4
bigfont
  0
STYLE
  5
4C
330
3
100
AcDbSymbolTableRecord
100
AcDbTextStyleTableRecord
  2
SLDTEXTSTYLE0
 70
     0
 40
0.0
 41
0.7
 50
0.0
 71
     0
 42
0.2
  3
TXT
  4
bigfont
  0
STYLE
  5
1AF
330
3
100
AcDbSymbolTableRecord
100
AcDbTextStyleTableRecord
  2
SLDTEXTSTYLE1
 70
     0
 40
0.0
 41
0.75
 50
0.0
 71
     0
 42
0.2
  3
TXT
  4
bigfont
  0
ENDTAB
  0
TABLE
  2
VIEW
  5
6
330
0
100
AcDbSymbolTable
 70
     0
  0
ENDTAB
  0
TABLE
  2
UCS
  5
7
330
0
100
AcDbSymbolTable
 70
     0
  0
ENDTAB
  0
TABLE
  2
APPID
  5
9
330
0
100
AcDbSymbolTable
 70
     1
  0
APPID
  5
12
330
9
100
AcDbSymbolTableRecord
100
AcDbRegAppTableRecord
  2
ACAD
 70
     0
  0
ENDTAB
  0
TABLE
  2
DIMSTYLE
  5
A
330
0
100
AcDbSymbolTable
 70
     9
100
AcDbDimStyleTable
  0
DIMSTYLE
105
27
330
A
100
AcDbSymbolTableRecord
100
AcDbDimStyleTableRecord
  2
ISO-25
 70
     0
 41
2.5
 42
0.625
 43
3.75
 44
1.25
 73
     0
 74
     0
 77
     1
 78
     8
140
2.5
141
2.5
143
0.0393700787
147
0.625
171
     3
172
     1
178
     0
271
     2
272
     2
274
     3
278
    44
283
     0
284
     8
340
11
  0
DIMSTYLE
105
1B0
102
{ACAD_REACTORS
330
1AE
330
1BA
330
1D1
330
1FD
330
361
330
36B
330
49E
330
4A8
102
}
330
A
100
AcDbSymbolTableRecord
100
AcDbDimStyleTableRecord
  2
SLDDIMSTYLE0
 70
     0
 41
2.0
 44
0.0
 45
0.000000001
 73
     0
 74
     0
 77
     3
 78
    12
 79
     3
140
3.5
147
0.875
173
     1
178
     0
271
     2
272
     2
276
     2
284
    12
340
1AF
  0
DIMSTYLE
105
1C5
102
{ACAD_REACTORS
330
1C4
330
492
102
}
330
A
100
AcDbSymbolTableRecord
100
AcDbDimStyleTableRecord
  2
SLDDIMSTYLE1
 70
     0
 41
2.0
 44
0.0
 45
0.000000001
 73
     0
 74
     0
 77
     3
 78
    12
 79
     3
140
3.5
147
0.875
172
     1
173
     1
178
     0
271
     1
272
     1
276
     2
284
    12
289
     0
340
1AF
  0
DIMSTYLE
105
1DC
102
{ACAD_REACTORS
330
1DB
102
}
330
A
100
AcDbSymbolTableRecord
100
AcDbDimStyleTableRecord
  2
SLDDIMSTYLE2
 70
     0
 41
2.0
 44
0.0
 45
0.000000001
 73
     0
 74
     0
 77
     3
 78
    12
 79
     3
140
3.5
147
0.875
172
     1
173
     1
178
     0
271
     2
272
     2
276
     2
284
    12
289
     0
340
1AF
344
1DD
  0
DIMSTYLE
105
1F1
102
{ACAD_REACTORS
330
1F0
102
}
330
A
100
AcDbSymbolTableRecord
100
AcDbDimStyleTableRecord
  2
SLDDIMSTYLE3
 70
     0
 41
1.5
 44
0.0
 45
0.000000001
 73
     0
 74
     0
 77
     3
 78
    12
 79
     3
140
3.5
147
0.875
172
     1
173
     1
178
     0
271
     1
272
     1
276
     2
284
    12
289
     0
340
1AF
341
1DD
343
1DD
  0
DIMSTYLE
105
208
330
A
100
AcDbSymbolTableRecord
100
AcDbDimStyleTableRecord
  2
SLDDIMSTYLE4
 70
     0
 41
2.0
 44
0.0
 45
0.000000001
140
0.0
146
2.0
147
0.0
173
     1
178
     0
271
     0
272
     0
276
     2
340
11
341
209
343
209
344
209
  0
DIMSTYLE
105
211
330
A
100
AcDbSymbolTableRecord
100
AcDbDimStyleTableRecord
  2
SLDDIMSTYLE5
 70
     0
 41
2.0
 44
0.0
 45
0.000000001
140
0.0
146
2.0
147
0.0
173
     1
178
     0
271
     0
272
     0
276
     2
340
11
  0
DIMSTYLE
105
376
102
{ACAD_REACTORS
330
375
102
}
330
A
100
AcDbSymbolTableRecord
100
AcDbDimStyleTableRecord
  2
SLDDIMSTYLE6
 70
     0
 41
2.0
 44
0.0
 45
0.000000001
 73
     0
 74
     0
 77
     3
 78
    12
 79
     3
140
3.5
147
0.875
173
     1
178
     0
271
     1
272
     1
276
     2
284
    12
340
1AF
  0
DIMSTYLE
105
485
102
{ACAD_REACTORS
330
484
102
}
330
A
100
AcDbSymbolTableRecord
100
AcDbDimStyleTableRecord
  2
SLDDIMSTYLE7
 70
     0
 41
2.0
 44
0.0
 45
0.000000001
 73
     0
 74
     0
 77
     3
 78
    12
 79
     3
140
3.5
147
0.875
172
     1
173
     1
178
     0
271
     2
272
     2
276
     2
284
    12
289
     0
340
1AF
  0
ENDTAB
  0
TABLE
  2
BLOCK_RECORD
  5
1
330
0
100
AcDbSymbolTable
 70
    27
  0
BLOCK_RECORD
  5
1F
330
1
100
AcDbSymbolTableRecord
100
AcDbBlockTableRecord
  2
*Model_Space
340
22
  0
BLOCK_RECORD
  5
1B
330
1
100
AcDbSymbolTableRecord
100
AcDbBlockTableRecord
  2
*Paper_Space
340
1E
  0
BLOCK_RECORD
  5
23
330
1
100
AcDbSymbolTableRecord
100
AcDbBlockTableRecord
  2
*Paper_Space0
340
26
  0
BLOCK_RECORD
  5
1B1
330
1
100
AcDbSymbolTableRecord
100
AcDbBlockTableRecord
  2
_D
340
0
  0
BLOCK_RECORD
  5
1BB
330
1
100
AcDbSymbolTableRecord
100
AcDbBlockTableRecord
  2
_D_1
340
0
  0
BLOCK_RECORD
  5
1C6
330
1
100
AcDbSymbolTableRecord
100
AcDbBlockTableRecord
  2
_D_2
340
0
  0
BLOCK_RECORD
  5
1D2
330
1
100
AcDbSymbolTableRecord
100
AcDbBlockTableRecord
  2
_D_3
340
0
  0
BLOCK_RECORD
  5
1DD
330
1
100
AcDbSymbolTableRecord
100
AcDbBlockTableRecord
  2
_DOT
340
0
102
{BLKREFS
331
1E9
331
1F5
102
}
  0
BLOCK_RECORD
  5
1E5
330
1
100
AcDbSymbolTableRecord
100
AcDbBlockTableRecord
  2
_D_4
340
0
  0
BLOCK_RECORD
  5
1F2
330
1
100
AcDbSymbolTableRecord
100
AcDbBlockTableRecord
  2
_D_5
340
0
  0
BLOCK_RECORD
  5
1FE
330
1
100
AcDbSymbolTableRecord
100
AcDbBlockTableRecord
  2
_D_6
340
0
  0
BLOCK_RECORD
  5
209
330
1
100
AcDbSymbolTableRecord
100
AcDbBlockTableRecord
  2
_OPEN30
340
0
  0
BLOCK_RECORD
  5
213
330
1
100
AcDbSymbolTableRecord
100
AcDbBlockTableRecord
  2
SW_CENTERMARKSYMBOL_0
340
0
102
{BLKREFS
331
21E
102
}
  0
BLOCK_RECORD
  5
21F
330
1
100
AcDbSymbolTableRecord
100
AcDbBlockTableRecord
  2
SW_CENTERMARKSYMBOL_1
340
0
102
{BLKREFS
331
22A
102
}
  0
BLOCK_RECORD
  5
362
330
1
100
AcDbSymbolTableRecord
100
AcDbBlockTableRecord
  2
_D_7
340
0
  0
BLOCK_RECORD
  5
36C
330
1
100
AcDbSymbolTableRecord
100
AcDbBlockTableRecord
  2
_D_8
340
0
  0
BLOCK_RECORD
  5
377
330
1
100
AcDbSymbolTableRecord
100
AcDbBlockTableRecord
  2
_D_9
340
0
  0
BLOCK_RECORD
  5
380
330
1
100
AcDbSymbolTableRecord
100
AcDbBlockTableRecord
  2
SW_CENTERMARKSYMBOL_2
340
0
102
{BLKREFS
331
38B
102
}
  0
BLOCK_RECORD
  5
38C
330
1
100
AcDbSymbolTableRecord
100
AcDbBlockTableRecord
  2
SW_CENTERMARKSYMBOL_3
340
0
102
{BLKREFS
331
397
102
}
  0
BLOCK_RECORD
  5
398
330
1
100
AcDbSymbolTableRecord
100
AcDbBlockTableRecord
  2
SW_CENTERMARKSYMBOL_4
340
0
102
{BLKREFS
331
3A3
102
}
  0
BLOCK_RECORD
  5
3A4
330
1
100
AcDbSymbolTableRecord
100
AcDbBlockTableRecord
  2
SW_CENTERMARKSYMBOL_5
340
0
102
{BLKREFS
331
3AF
102
}
  0
BLOCK_RECORD
  5
3B0
330
1
100
AcDbSymbolTableRecord
100
AcDbBlockTableRecord
  2
SW_CENTERMARKSYMBOL_6
340
0
102
{BLKREFS
331
3BB
102
}
  0
BLOCK_RECORD
  5
3BC
330
1
100
AcDbSymbolTableRecord
100
AcDbBlockTableRecord
  2
SW_CENTERMARKSYMBOL_7
340
0
102
{BLKREFS
331
3C7
102
}
  0
BLOCK_RECORD
  5
3C8
330
1
100
AcDbSymbolTableRecord
100
AcDbBlockTableRecord
  2
SW_CENTERMARKSYMBOL_8
340
0
102
{BLKREFS
331
3D3
102
}
  0
BLOCK_RECORD
  5
486
330
1
100
AcDbSymbolTableRecord
100
AcDbBlockTableRecord
  2
_D_10
340
0
  0
BLOCK_RECORD
  5
493
330
1
100
AcDbSymbolTableRecord
100
AcDbBlockTableRecord
  2
_D_11
340
0
  0
BLOCK_RECORD
  5
49F
330
1
100
AcDbSymbolTableRecord
100
AcDbBlockTableRecord
  2
_D_12
340
0
  0
BLOCK_RECORD
  5
4A9
330
1
100
AcDbSymbolTableRecord
100
AcDbBlockTableRecord
  2
_D_13
340
0
  0
BLOCK_RECORD
  5
4B2
330
1
100
AcDbSymbolTableRecord
100
AcDbBlockTableRecord
  2
SW_CENTERMARKSYMBOL_9
340
0
102
{BLKREFS
331
4BD
102
}
  0
ENDTAB
  0
ENDSEC
  0
SECTION
  2
BLOCKS
  0
BLOCK
  5
20
330
1F
100
AcDbEntity
  8
0
100
AcDbBlockBegin
  2
*Model_Space
 70
     0
 10
0.0
 20
0.0
 30
0.0
  3
*Model_Space
  1

  0
ENDBLK
  5
21
330
1F
100
AcDbEntity
  8
0
100
AcDbBlockEnd
  0
BLOCK
  5
1C
330
1B
100
AcDbEntity
 67
     1
  8
0
100
AcDbBlockBegin
  2
*Paper_Space
 70
     0
 10
0.0
 20
0.0
 30
0.0
  3
*Paper_Space
  1

  0
ENDBLK
  5
1D
330
1B
100
AcDbEntity
 67
     1
  8
0
100
AcDbBlockEnd
  0
BLOCK
  5
24
330
23
100
AcDbEntity
  8
0
100
AcDbBlockBegin
  2
*Paper_Space0
 70
     0
 10
0.0
 20
0.0
 30
0.0
  3
*Paper_Space0
  1

  0
ENDBLK
  5
25
330
23
100
AcDbEntity
  8
0
100
AcDbBlockEnd
  0
BLOCK
  5
1B2
330
1B1
100
AcDbEntity
  8
0
100
AcDbBlockBegin
  2
_D
 70
     0
 10
0.0
 20
0.0
 30
0.0
  3
_D
  1

  0
SOLID
  5
1B4
330
1B1
100
AcDbEntity
  8
0
  6
Continuous
 62
     7
370
     0
100
AcDbTrace
 10
106.3197080292
 20
187.1693531598
 30
0.0
 11
105.5697080292
 21
185.1693531598
 31
0.0
 12
107.0697080292
 22
185.1693531598
 32
0.0
 13
107.0697080292
 23
185.1693531598
 33
0.0
  0
SOLID
  5
1B5
330
1B1
100
AcDbEntity
  8
0
  6
Continuous
 62
     7
370
     0
100
AcDbTrace
 10
106.3197080292
 20
166.1693531598
 30
0.0
 11
107.0697080292
 21
168.1693531598
 31
0.0
 12
105.5697080292
 22
168.1693531598
 32
0.0
 13
105.5697080292
 23
168.1693531598
 33
0.0
  0
LINE
  5
1B6
330
1B1
100
AcDbEntity
  8
0
  6
Continuous
 62
     7
370
     0
100
AcDbLine
 10
117.5434920792
 20
187.1693531598
 30
0.0
 11
105.3197080292
 21
187.1693531598
 31
0.0
  0
LINE
  5
1B7
330
1B1
100
AcDbEntity
  8
0
  6
Continuous
 62
     7
370
     0
100
AcDbLine
 10
136.8197080292
 20
166.1693531598
 30
0.0
 11
105.3197080292
 21
166.1693531598
 31
0.0
  0
LINE
  5
1B8
330
1B1
100
AcDbEntity
  8
0
  6
Continuous
 62
     7
370
     0
100
AcDbLine
 10
106.3197080292
 20
187.1693531598
 30
0.0
 11
106.3197080292
 21
166.1693531598
 31
0.0
  0
MTEXT
  5
1B9
330
1B1
100
AcDbEntity
  8
0
  6
Continuous
 62
     7
370
     0
100
AcDbMText
 10
101.8079711146
 20
174.1939550166
 30
0.1
 40
3.5
 41
0.0
 71
     1
 72
     1
  1
21
  7
SLDTEXTSTYLE1
 11
-7.044195017643634E-15
 21
1.0
 31
0.0
 73
     1
 44
1.0
  0
ENDBLK
  5
1B3
330
1B1
100
AcDbEntity
  8
0
100
AcDbBlockEnd
  0
BLOCK
  5
1BC
330
1BB
100
AcDbEntity
  8
0
100
AcDbBlockBegin
  2
_D_1
 70
     0
 10
0.0
 20
0.0
 30
0.0
  3
_D_1
  1

  0
SOLID
  5
1BE
330
1BB
100
AcDbEntity
  8
0
  6
Continuous
 62
     7
370
     0
100
AcDbTrace
 10
121.8197080292
 20
150.1693531598
 30
0.0
 11
123.8197080292
 21
149.4193531598
 31
0.0
 12
123.8197080292
 22
150.9193531598
 32
0.0
 13
123.8197080292
 23
150.9193531598
 33
0.0
  0
SOLID
  5
1BF
330
1BB
100
AcDbEntity
  8
0
  6
Continuous
 62
     7
370
     0
100
AcDbTrace
 10
159.8197080292
 20
150.1693531598
 30
0.0
 11
157.8197080292
 21
150.9193531598
 31
0.0
 12
157.8197080292
 22
149.4193531598
 32
0.0
 13
157.8197080292
 23
149.4193531598
 33
0.0
  0
LINE
  5
1C0
330
1BB
100
AcDbEntity
  8
0
  6
Continuous
 62
     7
370
     0
100
AcDbLine
 10
121.8197080292
 20
183.6693531598
 30
0.0
 11
121.8197080292
 21
149.1693531598
 31
0.0
  0
LINE
  5
1C1
330
1BB
100
AcDbEntity
  8
0
  6
Continuous
 62
     7
370
     0
100
AcDbLine
 10
159.8197080292
 20
178.9193531598
 30
0.0
 11
159.8197080292
 21
149.1693531598
 31
0.0
  0
LINE
  5
1C2
330
1BB
100
AcDbEntity
  8
0
  6
Continuous
 62
     7
370
     0
100
AcDbLine
 10
121.8197080292
 20
150.1693531598
 30
0.0
 11
159.8197080292
 21
150.1693531598
 31
0.0
  0
MTEXT
  5
1C3
330
1BB
100
AcDbEntity
  8
0
  6
Continuous
 62
     7
370
     0
100
AcDbMText
 10
137.4819120517
 20
154.6810900744
 30
-6.860690685
 40
3.5
 41
0.0
 71
     1
 72
     1
  1
38
  7
SLDTEXTSTYLE1
 73
     1
 44
1.0
  0
ENDBLK
  5
1BD
330
1BB
100
AcDbEntity
  8
0
100
AcDbBlockEnd
  0
BLOCK
  5
1C7
330
1C6
100
AcDbEntity
  8
0
100
AcDbBlockBegin
  2
_D_2
 70
     0
 10
0.0
 20
0.0
 30
0.0
  3
_D_2
  1

  0
SOLID
  5
1C9
330
1C6
100
AcDbEntity
  8
0
  6
Continuous
 62
     7
370
     0
100
AcDbTrace
 10
157.5697080292
 20
158.9073229666
 30
0.0
 11
155.5697080292
 21
159.6573229666
 31
0.0
 12
155.5697080292
 22
158.1573229666
 32
0.0
 13
155.5697080292
 23
158.1573229666
 33
0.0
  0
SOLID
  5
1CA
330
1C6
100
AcDbEntity
  8
0
  6
Continuous
 62
     7
370
     0
100
AcDbTrace
 10
162.0697080292
 20
158.9073229666
 30
0.0
 11
164.0697080292
 21
158.1573229666
 31
0.0
 12
164.0697080292
 22
159.6573229666
 32
0.0
 13
164.0697080292
 23
159.6573229666
 33
0.0
  0
LINE
  5
1CB
330
1C6
100
AcDbEntity
  8
0
  6
Continuous
 62
     7
370
     0
100
AcDbLine
 10
157.5697080292
 20
183.6693531598
 30
0.0
 11
157.5697080292
 21
157.9073229666
 31
0.0
  0
LINE
  5
1CC
330
1C6
100
AcDbEntity
  8
0
  6
Continuous
 62
     7
370
     0
100
AcDbLine
 10
162.0697080292
 20
183.6693531598
 30
0.0
 11
162.0697080292
 21
157.9073229666
 31
0.0
  0
LINE
  5
1CD
330
1C6
100
AcDbEntity
  8
0
  6
Continuous
 62
     7
370
     0
100
AcDbLine
 10
157.5697080292
 20
158.9073229666
 30
0.0
 11
145.2405407523
 21
158.9073229666
 31
0.0
  0
LINE
  5
1CE
330
1C6
100
AcDbEntity
  8
0
  6
Continuous
 62
     7
370
     0
100
AcDbLine
 10
157.5697080292
 20
158.9073229666
 30
0.0
 11
162.0697080292
 21
158.9073229666
 31
0.0
  0
LINE
  5
1CF
330
1C6
100
AcDbEntity
  8
0
  6
Continuous
 62
     7
370
     0
100
AcDbLine
 10
162.0697080292
 20
158.9073229666
 30
0.0
 11
167.0697080292
 21
158.9073229666
 31
0.0
  0
MTEXT
  5
1D0
330
1C6
100
AcDbEntity
  8
0
  6
Continuous
 62
     7
370
     0
100
AcDbMText
 10
145.2405407523
 20
163.4190598812
 30
-6.860690685
 40
3.5
 41
0.0
 71
     1
 72
     1
  1
4.5
  7
SLDTEXTSTYLE1
 73
     1
 44
1.0
  0
ENDBLK
  5
1C8
330
1C6
100
AcDbEntity
  8
0
100
AcDbBlockEnd
  0
BLOCK
  5
1D3
330
1D2
100
AcDbEntity
  8
0
100
AcDbBlockBegin
  2
_D_3
 70
     0
 10
0.0
 20
0.0
 30
0.0
  3
_D_3
  1

  0
SOLID
  5
1D5
330
1D2
100
AcDbEntity
  8
0
  6
Continuous
 62
     7
370
     0
100
AcDbTrace
 10
116.8197080292
 20
141.6343628647
 30
0.0
 11
118.8197080292
 21
140.8843628647
 31
0.0
 12
118.8197080292
 22
142.3843628647
 32
0.0
 13
118.8197080292
 23
142.3843628647
 33
0.0
  0
SOLID
  5
1D6
330
1D2
100
AcDbEntity
  8
0
  6
Continuous
 62
     7
370
     0
100
AcDbTrace
 10
164.8197080292
 20
141.6343628647
 30
0.0
 11
162.8197080292
 21
142.3843628647
 31
0.0
 12
162.8197080292
 22
140.8843628647
 32
0.0
 13
162.8197080292
 23
140.8843628647
 33
0.0
  0
LINE
  5
1D7
330
1D2
100
AcDbEntity
  8
0
  6
Continuous
 62
     7
370
     0
100
AcDbLine
 10
116.8197080292
 20
173.1693531598
 30
0.0
 11
116.8197080292
 21
140.6343628647
 31
0.0
  0
LINE
  5
1D8
330
1D2
100
AcDbEntity
  8
0
  6
Continuous
 62
     7
370
     0
100
AcDbLine
 10
164.8197080292
 20
173.1693531598
 30
0.0
 11
164.8197080292
 21
140.6343628647
 31
0.0
  0
LINE
  5
1D9
330
1D2
100
AcDbEntity
  8
0
  6
Continuous
 62
     7
370
     0
100
AcDbLine
 10
116.8197080292
 20
141.6343628647
 30
0.0
 11
164.8197080292
 21
141.6343628647
 31
0.0
  0
MTEXT
  5
1DA
330
1D2
100
AcDbEntity
  8
0
  6
Continuous
 62
     7
370
     0
100
AcDbMText
 10
137.4819120517
 20
146.1460997793
 30
-6.860690685
 40
3.5
 41
0.0
 71
     1
 72
     1
  1
48
  7
SLDTEXTSTYLE1
 73
     1
 44
1.0
  0
ENDBLK
  5
1D4
330
1D2
100
AcDbEntity
  8
0
100
AcDbBlockEnd
  0
BLOCK
  5
1DE
330
1DD
100
AcDbEntity
  8
0
100
AcDbBlockBegin
  2
_DOT
 70
     0
 10
0.0
 20
0.0
 30
0.0
  3
_DOT
  1

  0
POLYLINE
  5
1E0
330
1DD
100
AcDbEntity
  8
0
  6
ByBlock
 62
     0
100
AcDb2dPolyline
 66
     1
 10
0.0
 20
0.0
 30
0.0
 70
     1
 40
0.5
 41
0.5
  0
VERTEX
  5
1E2
330
1E0
100
AcDbEntity
  8
0
  6
ByBlock
 62
     0
100
AcDbVertex
100
AcDb2dVertex
 10
-0.25
 20
0.0
 30
0.0
 42
1.0
  0
VERTEX
  5
1E3
330
1E0
100
AcDbEntity
  8
0
  6
ByBlock
 62
     0
100
AcDbVertex
100
AcDb2dVertex
 10
0.25
 20
0.0
 30
0.0
 42
1.0
  0
SEQEND
  5
1E4
330
1E0
100
AcDbEntity
  8
0
  6
ByBlock
 62
     0
  0
LINE
  5
1E1
330
1DD
100
AcDbEntity
  8
0
  6
ByBlock
 62
     0
370
    -2
100
AcDbLine
 10
-0.5
 20
0.0
 30
0.0
 11
-1.0
 21
0.0
 31
0.0
  0
ENDBLK
  5
1DF
330
1DD
100
AcDbEntity
  8
0
100
AcDbBlockEnd
  0
BLOCK
  5
1E6
330
1E5
100
AcDbEntity
  8
0
100
AcDbBlockBegin
  2
_D_4
 70
     0
 10
0.0
 20
0.0
 30
0.0
  3
_D_4
  1

  0
SOLID
  5
1E8
330
1E5
100
AcDbEntity
  8
0
  6
Continuous
 62
     7
370
     0
100
AcDbTrace
 10
174.8197080292
 20
189.6693531598
 30
0.0
 11
175.5697080292
 21
191.6693531598
 31
0.0
 12
174.0697080292
 22
191.6693531598
 32
0.0
 13
174.0697080292
 23
191.6693531598
 33
0.0
  0
INSERT
  5
1E9
330
1E5
100
AcDbEntity
  8
0
  6
Continuous
 62
     7
370
     0
100
AcDbBlockReference
  2
_DOT
 10
174.8197080292
 20
184.6693531598
 30
-6.860690685
 41
1.5
 42
1.5
 50
90.0
  0
LINE
  5
1EA
330
1E5
100
AcDbEntity
  8
0
  6
Continuous
 62
     7
370
     0
100
AcDbLine
 10
165.5697080292
 20
189.6693531598
 30
0.0
 11
175.8197080292
 21
189.6693531598
 31
0.0
  0
LINE
  5
1EB
330
1E5
100
AcDbEntity
  8
0
  6
Continuous
 62
     7
370
     0
100
AcDbLine
 10
165.5697080292
 20
184.6693531598
 30
0.0
 11
175.8197080292
 21
184.6693531598
 31
0.0
  0
LINE
  5
1EC
330
1E5
100
AcDbEntity
  8
0
  6
Continuous
 62
     7
370
     0
100
AcDbLine
 10
174.8197080292
 20
189.6693531598
 30
0.0
 11
174.8197080292
 21
194.6693531598
 31
0.0
  0
LINE
  5
1ED
330
1E5
100
AcDbEntity
  8
0
  6
Continuous
 62
     7
370
     0
100
AcDbLine
 10
174.8197080292
 20
189.6693531598
 30
0.0
 11
174.8197080292
 21
184.6693531598
 31
0.0
  0
LINE
  5
1EE
330
1E5
100
AcDbEntity
  8
0
  6
Continuous
 62
     7
370
     0
100
AcDbLine
 10
174.8197080292
 20
184.6693531598
 30
0.0
 11
174.8197080292
 21
179.6693531598
 31
0.0
  0
MTEXT
  5
1EF
330
1E5
100
AcDbEntity
  8
0
  6
Continuous
 62
     7
370
     0
100
AcDbMText
 10
170.3079711146
 20
185.9350405374
 30
-6.860690685
 40
3.5
 41
0.0
 71
     1
 72
     1
  1
5
  7
SLDTEXTSTYLE1
 11
-7.044195017643634E-15
 21
1.0
 31
0.0
 73
     1
 44
1.0
  0
ENDBLK
  5
1E7
330
1E5
100
AcDbEntity
  8
0
100
AcDbBlockEnd
  0
BLOCK
  5
1F3
330
1F2
100
AcDbEntity
  8
0
100
AcDbBlockBegin
  2
_D_5
 70
     0
 10
0.0
 20
0.0
 30
0.0
  3
_D_5
  1

  0
INSERT
  5
1F5
330
1F2
100
AcDbEntity
  8
0
  6
Continuous
 62
     7
370
     0
100
AcDbBlockReference
  2
_DOT
 10
174.8197080292
 20
184.6693531598
 30
-6.860690685
 41
1.5
 42
1.5
 50
270.0
  0
SOLID
  5
1F6
330
1F2
100
AcDbEntity
  8
0
  6
Continuous
 62
     7
370
     0
100
AcDbTrace
 10
174.8197080292
 20
172.1693531598
 30
0.0
 11
174.0697080292
 21
170.1693531598
 31
0.0
 12
175.5697080292
 22
170.1693531598
 32
0.0
 13
175.5697080292
 23
170.1693531598
 33
0.0
  0
LINE
  5
1F7
330
1F2
100
AcDbEntity
  8
0
  6
Continuous
 62
     7
370
     0
100
AcDbLine
 10
165.5697080292
 20
184.6693531598
 30
0.0
 11
175.8197080292
 21
184.6693531598
 31
0.0
  0
LINE
  5
1F8
330
1F2
100
AcDbEntity
  8
0
  6
Continuous
 62
     7
370
     0
100
AcDbLine
 10
163.8197080292
 20
172.1693531598
 30
0.0
 11
175.8197080292
 21
172.1693531598
 31
0.0
  0
LINE
  5
1F9
330
1F2
100
AcDbEntity
  8
0
  6
Continuous
 62
     7
370
     0
100
AcDbLine
 10
174.8197080292
 20
184.6693531598
 30
0.0
 11
174.8197080292
 21
189.6693531598
 31
0.0
  0
LINE
  5
1FA
330
1F2
100
AcDbEntity
  8
0
  6
Continuous
 62
     7
370
     0
100
AcDbLine
 10
174.8197080292
 20
184.6693531598
 30
0.0
 11
174.8197080292
 21
172.1693531598
 31
0.0
  0
LINE
  5
1FB
330
1F2
100
AcDbEntity
  8
0
  6
Continuous
 62
     7
370
     0
100
AcDbLine
 10
174.8197080292
 20
172.1693531598
 30
0.0
 11
174.8197080292
 21
167.1693531598
 31
0.0
  0
MTEXT
  5
1FC
330
1F2
100
AcDbEntity
  8
0
  6
Continuous
 62
     7
370
     0
100
AcDbMText
 10
170.3079711146
 20
173.8936586294
 30
-6.860690685
 40
3.5
 41
0.0
 71
     1
 72
     1
  1
12.5
  7
SLDTEXTSTYLE1
 11
-7.044195017643634E-15
 21
1.0
 31
0.0
 73
     1
 44
1.0
  0
ENDBLK
  5
1F4
330
1F2
100
AcDbEntity
  8
0
100
AcDbBlockEnd
  0
BLOCK
  5
1FF
330
1FE
100
AcDbEntity
  8
0
100
AcDbBlockBegin
  2
_D_6
 70
     0
 10
0.0
 20
0.0
 30
0.0
  3
_D_6
  1

  0
SOLID
  5
201
330
1FE
100
AcDbEntity
  8
0
  6
Continuous
 62
     7
370
     0
100
AcDbTrace
 10
112.4528603734
 20
194.1693531598
 30
0.0
 11
111.7028603734
 21
192.1693531598
 31
0.0
 12
113.2028603734
 22
192.1693531598
 32
0.0
 13
113.2028603734
 23
192.1693531598
 33
0.0
  0
SOLID
  5
202
330
1FE
100
AcDbEntity
  8
0
  6
Continuous
 62
     7
370
     0
100
AcDbTrace
 10
112.4528603734
 20
172.1693531598
 30
0.0
 11
113.2028603734
 21
174.1693531598
 31
0.0
 12
111.7028603734
 22
174.1693531598
 32
0.0
 13
111.7028603734
 23
174.1693531598
 33
0.0
  0
LINE
  5
203
330
1FE
100
AcDbEntity
  8
0
  6
Continuous
 62
     7
370
     0
100
AcDbLine
 10
117.8197080292
 20
194.1693531598
 30
0.0
 11
111.4528603734
 21
194.1693531598
 31
0.0
  0
LINE
  5
204
330
1FE
100
AcDbEntity
  8
0
  6
Continuous
 62
     7
370
     0
100
AcDbLine
 10
117.8197080292
 20
172.1693531598
 30
0.0
 11
111.4528603734
 21
172.1693531598
 31
0.0
  0
LINE
  5
205
330
1FE
100
AcDbEntity
  8
0
  6
Continuous
 62
     7
370
     0
100
AcDbLine
 10
112.4528603734
 20
194.1693531598
 30
0.0
 11
112.4528603734
 21
172.1693531598
 31
0.0
  0
MTEXT
  5
206
330
1FE
100
AcDbEntity
  8
0
  6
Continuous
 62
     7
370
     0
100
AcDbMText
 10
107.9411234589
 20
180.0195827684
 30
-6.860690685
 40
3.5
 41
0.0
 71
     1
 72
     1
  1
22
  7
SLDTEXTSTYLE1
 11
-7.044195017643634E-15
 21
1.0
 31
0.0
 73
     1
 44
1.0
  0
ENDBLK
  5
200
330
1FE
100
AcDbEntity
  8
0
100
AcDbBlockEnd
  0
BLOCK
  5
20A
330
209
100
AcDbEntity
  8
0
100
AcDbBlockBegin
  2
_OPEN30
 70
     0
 10
0.0
 20
0.0
 30
0.0
  3
_OPEN30
  1

  0
LINE
  5
20C
330
209
100
AcDbEntity
  8
0
  6
ByBlock
 62
     0
370
    -2
100
AcDbLine
 10
-1.0
 20
0.267949
 30
0.0
 11
0.0
 21
0.0
 31
0.0
  0
LINE
  5
20D
330
209
100
AcDbEntity
  8
0
  6
ByBlock
 62
     0
370
    -2
100
AcDbLine
 10
0.0
 20
0.0
 30
0.0
 11
-1.0
 21
-0.267949
 31
0.0
  0
LINE
  5
20E
330
209
100
AcDbEntity
  8
0
  6
ByBlock
 62
     0
370
    -2
100
AcDbLine
 10
0.0
 20
0.0
 30
0.0
 11
-1.0
 21
0.0
 31
0.0
  0
ENDBLK
  5
20B
330
209
100
AcDbEntity
  8
0
100
AcDbBlockEnd
  0
BLOCK
  5
214
330
213
100
AcDbEntity
  8
0
100
AcDbBlockBegin
  2
SW_CENTERMARKSYMBOL_0
 70
     0
 10
0.0
 20
0.0
 30
0.0
  3
SW_CENTERMARKSYMBOL_0
  1

  0
LINE
  5
216
330
213
100
AcDbEntity
  8
0
  6
Continuous
 62
     0
370
     0
100
AcDbLine
 10
0.0
 20
0.0
 30
0.0
 11
0.0
 21
2.5
 31
0.0
  0
LINE
  5
217
330
213
100
AcDbEntity
  8
0
  6
Continuous
 62
     0
370
     0
100
AcDbLine
 10
0.0
 20
0.0
 30
0.0
 11
-2.5
 21
0.0
 31
0.0
  0
LINE
  5
218
330
213
100
AcDbEntity
  8
0
  6
Continuous
 62
     0
370
     0
100
AcDbLine
 10
0.0
 20
0.0
 30
0.0
 11
0.0
 21
-2.5
 31
0.0
  0
LINE
  5
219
330
213
100
AcDbEntity
  8
0
  6
Continuous
 62
     0
370
     0
100
AcDbLine
 10
0.0
 20
0.0
 30
0.0
 11
2.5
 21
0.0
 31
0.0
  0
LINE
  5
21A
330
213
100
AcDbEntity
  8
0
  6
Continuous
 62
     0
370
     0
100
AcDbLine
 10
0.0
 20
2.5
 30
0.0
 11
0.0
 21
4.75
 31
0.0
  0
LINE
  5
21B
330
213
100
AcDbEntity
  8
0
  6
Continuous
 62
     0
370
     0
100
AcDbLine
 10
-2.5
 20
0.0
 30
0.0
 11
-4.75
 21
0.0
 31
0.0
  0
LINE
  5
21C
330
213
100
AcDbEntity
  8
0
  6
Continuous
 62
     0
370
     0
100
AcDbLine
 10
0.0
 20
-2.5
 30
0.0
 11
0.0
 21
-4.75
 31
0.0
  0
LINE
  5
21D
330
213
100
AcDbEntity
  8
0
  6
Continuous
 62
     0
370
     0
100
AcDbLine
 10
2.5
 20
0.0
 30
0.0
 11
4.75
 21
0.0
 31
0.0
  0
ENDBLK
  5
215
330
213
100
AcDbEntity
  8
0
100
AcDbBlockEnd
  0
BLOCK
  5
220
330
21F
100
AcDbEntity
  8
0
100
AcDbBlockBegin
  2
SW_CENTERMARKSYMBOL_1
 70
     0
 10
0.0
 20
0.0
 30
0.0
  3
SW_CENTERMARKSYMBOL_1
  1

  0
LINE
  5
222
330
21F
100
AcDbEntity
  8
0
  6
Continuous
 62
     0
370
     0
100
AcDbLine
 10
0.0
 20
0.0
 30
0.0
 11
0.0
 21
2.5
 31
0.0
  0
LINE
  5
223
330
21F
100
AcDbEntity
  8
0
  6
Continuous
 62
     0
370
     0
100
AcDbLine
 10
0.0
 20
0.0
 30
0.0
 11
-2.5
 21
0.0
 31
0.0
  0
LINE
  5
224
330
21F
100
AcDbEntity
  8
0
  6
Continuous
 62
     0
370
     0
100
AcDbLine
 10
0.0
 20
0.0
 30
0.0
 11
0.0
 21
-2.5
 31
0.0
  0
LINE
  5
225
330
21F
100
AcDbEntity
  8
0
  6
Continuous
 62
     0
370
     0
100
AcDbLine
 10
0.0
 20
0.0
 30
0.0
 11
2.5
 21
0.0
 31
0.0
  0
LINE
  5
226
330
21F
100
AcDbEntity
  8
0
  6
Continuous
 62
     0
370
     0
100
AcDbLine
 10
0.0
 20
2.5
 30
0.0
 11
0.0
 21
4.75
 31
0.0
  0
LINE
  5
227
330
21F
100
AcDbEntity
  8
0
  6
Continuous
 62
     0
370
     0
100
AcDbLine
 10
-2.5
 20
0.0
 30
0.0
 11
-4.75
 21
0.0
 31
0.0
  0
LINE
  5
228
330
21F
100
AcDbEntity
  8
0
  6
Continuous
 62
     0
370
     0
100
AcDbLine
 10
0.0
 20
-2.5
 30
0.0
 11
0.0
 21
-4.75
 31
0.0
  0
LINE
  5
229
330
21F
100
AcDbEntity
  8
0
  6
Continuous
 62
     0
370
     0
100
AcDbLine
 10
2.5
 20
0.0
 30
0.0
 11
4.75
 21
0.0
 31
0.0
  0
ENDBLK
  5
221
330
21F
100
AcDbEntity
  8
0
100
AcDbBlockEnd
  0
BLOCK
  5
363
330
362
100
AcDbEntity
  8
0
100
AcDbBlockBegin
  2
_D_7
 70
     0
 10
0.0
 20
0.0
 30
0.0
  3
_D_7
  1

  0
SOLID
  5
365
330
362
100
AcDbEntity
  8
0
  6
Continuous
 62
     7
370
     0
100
AcDbTrace
 10
174.8197080292
 20
105.7629713096
 30
0.0
 11
174.0697080292
 21
103.7629713096
 31
0.0
 12
175.5697080292
 22
103.7629713096
 32
0.0
 13
175.5697080292
 23
103.7629713096
 33
0.0
  0
SOLID
  5
366
330
362
100
AcDbEntity
  8
0
  6
Continuous
 62
     7
370
     0
100
AcDbTrace
 10
174.8197080292
 20
77.7629713096
 30
0.0
 11
175.5697080292
 21
79.7629713096
 31
0.0
 12
174.0697080292
 22
79.7629713096
 32
0.0
 13
174.0697080292
 23
79.7629713096
 33
0.0
  0
LINE
  5
367
330
362
100
AcDbEntity
  8
0
  6
Continuous
 62
     7
370
     0
100
AcDbLine
 10
152.5040677405
 20
105.7629713096
 30
0.0
 11
175.8197080292
 21
105.7629713096
 31
0.0
  0
LINE
  5
368
330
362
100
AcDbEntity
  8
0
  6
Continuous
 62
     7
370
     0
100
AcDbLine
 10
165.8197080292
 20
77.7629713096
 30
0.0
 11
175.8197080292
 21
77.7629713096
 31
0.0
  0
LINE
  5
369
330
362
100
AcDbEntity
  8
0
  6
Continuous
 62
     7
370
     0
100
AcDbLine
 10
174.8197080292
 20
105.7629713096
 30
0.0
 11
174.8197080292
 21
77.7629713096
 31
0.0
  0
MTEXT
  5
36A
330
362
100
AcDbEntity
  8
0
  6
Continuous
 62
     7
370
     0
100
AcDbMText
 10
170.3079711146
 20
89.3205824001
 30
-11.5600465905
 40
3.5
 41
0.0
 71
     1
 72
     1
  1
28
  7
SLDTEXTSTYLE1
 11
-7.044195017643634E-15
 21
1.0
 31
0.0
 73
     1
 44
1.0
  0
ENDBLK
  5
364
330
362
100
AcDbEntity
  8
0
100
AcDbBlockEnd
  0
BLOCK
  5
36D
330
36C
100
AcDbEntity
  8
0
100
AcDbBlockBegin
  2
_D_8
 70
     0
 10
0.0
 20
0.0
 30
0.0
  3
_D_8
  1

  0
SOLID
  5
36F
330
36C
100
AcDbEntity
  8
0
  6
Continuous
 62
     7
370
     0
100
AcDbTrace
 10
147.3197080292
 20
111.7574083996
 30
0.0
 11
145.3197080292
 21
112.5074083996
 31
0.0
 12
145.3197080292
 22
111.0074083996
 32
0.0
 13
145.3197080292
 23
111.0074083996
 33
0.0
  0
SOLID
  5
370
330
36C
100
AcDbEntity
  8
0
  6
Continuous
 62
     7
370
     0
100
AcDbTrace
 10
134.3197080292
 20
111.7574083996
 30
0.0
 11
136.3197080292
 21
111.0074083996
 31
0.0
 12
136.3197080292
 22
112.5074083996
 32
0.0
 13
136.3197080292
 23
112.5074083996
 33
0.0
  0
LINE
  5
371
330
36C
100
AcDbEntity
  8
0
  6
Continuous
 62
     7
370
     0
100
AcDbLine
 10
147.3197080292
 20
109.2629713096
 30
0.0
 11
147.3197080292
 21
112.7574083996
 31
0.0
  0
LINE
  5
372
330
36C
100
AcDbEntity
  8
0
  6
Continuous
 62
     7
370
     0
100
AcDbLine
 10
134.3197080292
 20
109.2629713096
 30
0.0
 11
134.3197080292
 21
112.7574083996
 31
0.0
  0
LINE
  5
373
330
36C
100
AcDbEntity
  8
0
  6
Continuous
 62
     7
370
     0
100
AcDbLine
 10
147.3197080292
 20
111.7574083996
 30
0.0
 11
134.3197080292
 21
111.7574083996
 31
0.0
  0
MTEXT
  5
374
330
36C
100
AcDbEntity
  8
0
  6
Continuous
 62
     7
370
     0
100
AcDbMText
 10
138.2335968357
 20
116.2691453141
 30
-11.5600465905
 40
3.5
 41
0.0
 71
     1
 72
     1
  1
13
  7
SLDTEXTSTYLE1
 73
     1
 44
1.0
  0
ENDBLK
  5
36E
330
36C
100
AcDbEntity
  8
0
100
AcDbBlockEnd
  0
BLOCK
  5
378
330
377
100
AcDbEntity
  8
0
100
AcDbBlockBegin
  2
_D_9
 70
     0
 10
0.0
 20
0.0
 30
0.0
  3
_D_9
  1

  0
SOLID
  5
37A
330
377
100
AcDbEntity
  8
0
  6
Continuous
 62
     7
370
     0
100
AcDbTrace
 10
126.6197080292
 20
119.5688107573
 30
0.0
 11
128.6197080292
 21
118.8188107573
 31
0.0
 12
128.6197080292
 22
120.3188107573
 32
0.0
 13
128.6197080292
 23
120.3188107573
 33
0.0
  0
SOLID
  5
37B
330
377
100
AcDbEntity
  8
0
  6
Continuous
 62
     7
370
     0
100
AcDbTrace
 10
155.0197080292
 20
119.5688107573
 30
0.0
 11
153.0197080292
 21
120.3188107573
 31
0.0
 12
153.0197080292
 22
118.8188107573
 32
0.0
 13
153.0197080292
 23
118.8188107573
 33
0.0
  0
LINE
  5
37C
330
377
100
AcDbEntity
  8
0
  6
Continuous
 62
     7
370
     0
100
AcDbLine
 10
126.6197080292
 20
103.2473310209
 30
0.0
 11
126.6197080292
 21
120.5688107573
 31
0.0
  0
LINE
  5
37D
330
377
100
AcDbEntity
  8
0
  6
Continuous
 62
     7
370
     0
100
AcDbLine
 10
155.0197080292
 20
103.2473310209
 30
0.0
 11
155.0197080292
 21
120.5688107573
 31
0.0
  0
LINE
  5
37E
330
377
100
AcDbEntity
  8
0
  6
Continuous
 62
     7
370
     0
100
AcDbLine
 10
126.6197080292
 20
119.5688107573
 30
0.0
 11
155.0197080292
 21
119.5688107573
 31
0.0
  0
MTEXT
  5
37F
330
377
100
AcDbEntity
  8
0
  6
Continuous
 62
     7
370
     0
100
AcDbMText
 10
136.2940134987
 20
124.0805476719
 30
-11.5600465905
 40
3.5
 41
0.0
 71
     1
 72
     1
  1
28.4
  7
SLDTEXTSTYLE1
 73
     1
 44
1.0
  0
ENDBLK
  5
379
330
377
100
AcDbEntity
  8
0
100
AcDbBlockEnd
  0
BLOCK
  5
381
330
380
100
AcDbEntity
  8
0
100
AcDbBlockBegin
  2
SW_CENTERMARKSYMBOL_2
 70
     0
 10
0.0
 20
0.0
 30
0.0
  3
SW_CENTERMARKSYMBOL_2
  1

  0
LINE
  5
383
330
380
100
AcDbEntity
  8
0
  6
Continuous
 62
     0
370
     0
100
AcDbLine
 10
0.0
 20
0.0
 30
0.0
 11
0.0
 21
2.5
 31
0.0
  0
LINE
  5
384
330
380
100
AcDbEntity
  8
0
  6
Continuous
 62
     0
370
     0
100
AcDbLine
 10
0.0
 20
0.0
 30
0.0
 11
-2.5
 21
0.0
 31
0.0
  0
LINE
  5
385
330
380
100
AcDbEntity
  8
0
  6
Continuous
 62
     0
370
     0
100
AcDbLine
 10
0.0
 20
0.0
 30
0.0
 11
0.0
 21
-2.5
 31
0.0
  0
LINE
  5
386
330
380
100
AcDbEntity
  8
0
  6
Continuous
 62
     0
370
     0
100
AcDbLine
 10
0.0
 20
0.0
 30
0.0
 11
2.5
 21
0.0
 31
0.0
  0
LINE
  5
387
330
380
100
AcDbEntity
  8
0
  6
Continuous
 62
     0
370
     0
100
AcDbLine
 10
0.0
 20
2.5
 30
0.0
 11
0.0
 21
3.85
 31
0.0
  0
LINE
  5
388
330
380
100
AcDbEntity
  8
0
  6
Continuous
 62
     0
370
     0
100
AcDbLine
 10
-2.5
 20
0.0
 30
0.0
 11
-3.85
 21
0.0
 31
0.0
  0
LINE
  5
389
330
380
100
AcDbEntity
  8
0
  6
Continuous
 62
     0
370
     0
100
AcDbLine
 10
0.0
 20
-2.5
 30
0.0
 11
0.0
 21
-3.85
 31
0.0
  0
LINE
  5
38A
330
380
100
AcDbEntity
  8
0
  6
Continuous
 62
     0
370
     0
100
AcDbLine
 10
2.5
 20
0.0
 30
0.0
 11
3.85
 21
0.0
 31
0.0
  0
ENDBLK
  5
382
330
380
100
AcDbEntity
  8
0
100
AcDbBlockEnd
  0
BLOCK
  5
38D
330
38C
100
AcDbEntity
  8
0
100
AcDbBlockBegin
  2
SW_CENTERMARKSYMBOL_3
 70
     0
 10
0.0
 20
0.0
 30
0.0
  3
SW_CENTERMARKSYMBOL_3
  1

  0
LINE
  5
38F
330
38C
100
AcDbEntity
  8
0
  6
Continuous
 62
     0
370
     0
100
AcDbLine
 10
0.0
 20
0.0
 30
0.0
 11
0.0
 21
2.5
 31
0.0
  0
LINE
  5
390
330
38C
100
AcDbEntity
  8
0
  6
Continuous
 62
     0
370
     0
100
AcDbLine
 10
0.0
 20
0.0
 30
0.0
 11
-2.5
 21
0.0
 31
0.0
  0
LINE
  5
391
330
38C
100
AcDbEntity
  8
0
  6
Continuous
 62
     0
370
     0
100
AcDbLine
 10
0.0
 20
0.0
 30
0.0
 11
0.0
 21
-2.5
 31
0.0
  0
LINE
  5
392
330
38C
100
AcDbEntity
  8
0
  6
Continuous
 62
     0
370
     0
100
AcDbLine
 10
0.0
 20
0.0
 30
0.0
 11
2.5
 21
0.0
 31
0.0
  0
LINE
  5
393
330
38C
100
AcDbEntity
  8
0
  6
Continuous
 62
     0
370
     0
100
AcDbLine
 10
0.0
 20
2.5
 30
0.0
 11
0.0
 21
3.85
 31
0.0
  0
LINE
  5
394
330
38C
100
AcDbEntity
  8
0
  6
Continuous
 62
     0
370
     0
100
AcDbLine
 10
-2.5
 20
0.0
 30
0.0
 11
-3.85
 21
0.0
 31
0.0
  0
LINE
  5
395
330
38C
100
AcDbEntity
  8
0
  6
Continuous
 62
     0
370
     0
100
AcDbLine
 10
0.0
 20
-2.5
 30
0.0
 11
0.0
 21
-3.85
 31
0.0
  0
LINE
  5
396
330
38C
100
AcDbEntity
  8
0
  6
Continuous
 62
     0
370
     0
100
AcDbLine
 10
2.5
 20
0.0
 30
0.0
 11
3.85
 21
0.0
 31
0.0
  0
ENDBLK
  5
38E
330
38C
100
AcDbEntity
  8
0
100
AcDbBlockEnd
  0
BLOCK
  5
399
330
398
100
AcDbEntity
  8
0
100
AcDbBlockBegin
  2
SW_CENTERMARKSYMBOL_4
 70
     0
 10
0.0
 20
0.0
 30
0.0
  3
SW_CENTERMARKSYMBOL_4
  1

  0
LINE
  5
39B
330
398
100
AcDbEntity
  8
0
  6
Continuous
 62
     0
370
     0
100
AcDbLine
 10
0.0
 20
0.0
 30
0.0
 11
0.0
 21
2.5
 31
0.0
  0
LINE
  5
39C
330
398
100
AcDbEntity
  8
0
  6
Continuous
 62
     0
370
     0
100
AcDbLine
 10
0.0
 20
0.0
 30
0.0
 11
-2.5
 21
0.0
 31
0.0
  0
LINE
  5
39D
330
398
100
AcDbEntity
  8
0
  6
Continuous
 62
     0
370
     0
100
AcDbLine
 10
0.0
 20
0.0
 30
0.0
 11
0.0
 21
-2.5
 31
0.0
  0
LINE
  5
39E
330
398
100
AcDbEntity
  8
0
  6
Continuous
 62
     0
370
     0
100
AcDbLine
 10
0.0
 20
0.0
 30
0.0
 11
2.5
 21
0.0
 31
0.0
  0
LINE
  5
39F
330
398
100
AcDbEntity
  8
0
  6
Continuous
 62
     0
370
     0
100
AcDbLine
 10
0.0
 20
2.5
 30
0.0
 11
0.0
 21
4.75
 31
0.0
  0
LINE
  5
3A0
330
398
100
AcDbEntity
  8
0
  6
Continuous
 62
     0
370
     0
100
AcDbLine
 10
-2.5
 20
0.0
 30
0.0
 11
-4.75
 21
0.0
 31
0.0
  0
LINE
  5
3A1
330
398
100
AcDbEntity
  8
0
  6
Continuous
 62
     0
370
     0
100
AcDbLine
 10
0.0
 20
-2.5
 30
0.0
 11
0.0
 21
-4.75
 31
0.0
  0
LINE
  5
3A2
330
398
100
AcDbEntity
  8
0
  6
Continuous
 62
     0
370
     0
100
AcDbLine
 10
2.5
 20
0.0
 30
0.0
 11
4.75
 21
0.0
 31
0.0
  0
ENDBLK
  5
39A
330
398
100
AcDbEntity
  8
0
100
AcDbBlockEnd
  0
BLOCK
  5
3A5
330
3A4
100
AcDbEntity
  8
0
100
AcDbBlockBegin
  2
SW_CENTERMARKSYMBOL_5
 70
     0
 10
0.0
 20
0.0
 30
0.0
  3
SW_CENTERMARKSYMBOL_5
  1

  0
LINE
  5
3A7
330
3A4
100
AcDbEntity
  8
0
  6
Continuous
 62
     0
370
     0
100
AcDbLine
 10
0.0
 20
0.0
 30
0.0
 11
0.0
 21
2.5
 31
0.0
  0
LINE
  5
3A8
330
3A4
100
AcDbEntity
  8
0
  6
Continuous
 62
     0
370
     0
100
AcDbLine
 10
0.0
 20
0.0
 30
0.0
 11
-2.5
 21
0.0
 31
0.0
  0
LINE
  5
3A9
330
3A4
100
AcDbEntity
  8
0
  6
Continuous
 62
     0
370
     0
100
AcDbLine
 10
0.0
 20
0.0
 30
0.0
 11
0.0
 21
-2.5
 31
0.0
  0
LINE
  5
3AA
330
3A4
100
AcDbEntity
  8
0
  6
Continuous
 62
     0
370
     0
100
AcDbLine
 10
0.0
 20
0.0
 30
0.0
 11
2.5
 21
0.0
 31
0.0
  0
LINE
  5
3AB
330
3A4
100
AcDbEntity
  8
0
  6
Continuous
 62
     0
370
     0
100
AcDbLine
 10
0.0
 20
2.5
 30
0.0
 11
0.0
 21
4.75
 31
0.0
  0
LINE
  5
3AC
330
3A4
100
AcDbEntity
  8
0
  6
Continuous
 62
     0
370
     0
100
AcDbLine
 10
-2.5
 20
0.0
 30
0.0
 11
-4.75
 21
0.0
 31
0.0
  0
LINE
  5
3AD
330
3A4
100
AcDbEntity
  8
0
  6
Continuous
 62
     0
370
     0
100
AcDbLine
 10
0.0
 20
-2.5
 30
0.0
 11
0.0
 21
-4.75
 31
0.0
  0
LINE
  5
3AE
330
3A4
100
AcDbEntity
  8
0
  6
Continuous
 62
     0
370
     0
100
AcDbLine
 10
2.5
 20
0.0
 30
0.0
 11
4.75
 21
0.0
 31
0.0
  0
ENDBLK
  5
3A6
330
3A4
100
AcDbEntity
  8
0
100
AcDbBlockEnd
  0
BLOCK
  5
3B1
330
3B0
100
AcDbEntity
  8
0
100
AcDbBlockBegin
  2
SW_CENTERMARKSYMBOL_6
 70
     0
 10
0.0
 20
0.0
 30
0.0
  3
SW_CENTERMARKSYMBOL_6
  1

  0
LINE
  5
3B3
330
3B0
100
AcDbEntity
  8
0
  6
Continuous
 62
     0
370
     0
100
AcDbLine
 10
0.0
 20
0.0
 30
0.0
 11
0.0
 21
2.5
 31
0.0
  0
LINE
  5
3B4
330
3B0
100
AcDbEntity
  8
0
  6
Continuous
 62
     0
370
     0
100
AcDbLine
 10
0.0
 20
0.0
 30
0.0
 11
-2.5
 21
0.0
 31
0.0
  0
LINE
  5
3B5
330
3B0
100
AcDbEntity
  8
0
  6
Continuous
 62
     0
370
     0
100
AcDbLine
 10
0.0
 20
0.0
 30
0.0
 11
0.0
 21
-2.5
 31
0.0
  0
LINE
  5
3B6
330
3B0
100
AcDbEntity
  8
0
  6
Continuous
 62
     0
370
     0
100
AcDbLine
 10
0.0
 20
0.0
 30
0.0
 11
2.5
 21
0.0
 31
0.0
  0
LINE
  5
3B7
330
3B0
100
AcDbEntity
  8
0
  6
Continuous
 62
     0
370
     0
100
AcDbLine
 10
0.0
 20
2.5
 30
0.0
 11
0.0
 21
4.75
 31
0.0
  0
LINE
  5
3B8
330
3B0
100
AcDbEntity
  8
0
  6
Continuous
 62
     0
370
     0
100
AcDbLine
 10
-2.5
 20
0.0
 30
0.0
 11
-4.75
 21
0.0
 31
0.0
  0
LINE
  5
3B9
330
3B0
100
AcDbEntity
  8
0
  6
Continuous
 62
     0
370
     0
100
AcDbLine
 10
0.0
 20
-2.5
 30
0.0
 11
0.0
 21
-4.75
 31
0.0
  0
LINE
  5
3BA
330
3B0
100
AcDbEntity
  8
0
  6
Continuous
 62
     0
370
     0
100
AcDbLine
 10
2.5
 20
0.0
 30
0.0
 11
4.75
 21
0.0
 31
0.0
  0
ENDBLK
  5
3B2
330
3B0
100
AcDbEntity
  8
0
100
AcDbBlockEnd
  0
BLOCK
  5
3BD
330
3BC
100
AcDbEntity
  8
0
100
AcDbBlockBegin
  2
SW_CENTERMARKSYMBOL_7
 70
     0
 10
0.0
 20
0.0
 30
0.0
  3
SW_CENTERMARKSYMBOL_7
  1

  0
LINE
  5
3BF
330
3BC
100
AcDbEntity
  8
0
  6
Continuous
 62
     0
370
     0
100
AcDbLine
 10
0.0
 20
0.0
 30
0.0
 11
0.0
 21
2.5
 31
0.0
  0
LINE
  5
3C0
330
3BC
100
AcDbEntity
  8
0
  6
Continuous
 62
     0
370
     0
100
AcDbLine
 10
0.0
 20
0.0
 30
0.0
 11
-2.5
 21
0.0
 31
0.0
  0
LINE
  5
3C1
330
3BC
100
AcDbEntity
  8
0
  6
Continuous
 62
     0
370
     0
100
AcDbLine
 10
0.0
 20
0.0
 30
0.0
 11
0.0
 21
-2.5
 31
0.0
  0
LINE
  5
3C2
330
3BC
100
AcDbEntity
  8
0
  6
Continuous
 62
     0
370
     0
100
AcDbLine
 10
0.0
 20
0.0
 30
0.0
 11
2.5
 21
0.0
 31
0.0
  0
LINE
  5
3C3
330
3BC
100
AcDbEntity
  8
0
  6
Continuous
 62
     0
370
     0
100
AcDbLine
 10
0.0
 20
2.5
 30
0.0
 11
0.0
 21
4.75
 31
0.0
  0
LINE
  5
3C4
330
3BC
100
AcDbEntity
  8
0
  6
Continuous
 62
     0
370
     0
100
AcDbLine
 10
-2.5
 20
0.0
 30
0.0
 11
-4.75
 21
0.0
 31
0.0
  0
LINE
  5
3C5
330
3BC
100
AcDbEntity
  8
0
  6
Continuous
 62
     0
370
     0
100
AcDbLine
 10
0.0
 20
-2.5
 30
0.0
 11
0.0
 21
-4.75
 31
0.0
  0
LINE
  5
3C6
330
3BC
100
AcDbEntity
  8
0
  6
Continuous
 62
     0
370
     0
100
AcDbLine
 10
2.5
 20
0.0
 30
0.0
 11
4.75
 21
0.0
 31
0.0
  0
ENDBLK
  5
3BE
330
3BC
100
AcDbEntity
  8
0
100
AcDbBlockEnd
  0
BLOCK
  5
3C9
330
3C8
100
AcDbEntity
  8
0
100
AcDbBlockBegin
  2
SW_CENTERMARKSYMBOL_8
 70
     0
 10
0.0
 20
0.0
 30
0.0
  3
SW_CENTERMARKSYMBOL_8
  1

  0
LINE
  5
3CB
330
3C8
100
AcDbEntity
  8
0
  6
Continuous
 62
     0
370
     0
100
AcDbLine
 10
0.0
 20
0.0
 30
0.0
 11
0.0
 21
2.5
 31
0.0
  0
LINE
  5
3CC
330
3C8
100
AcDbEntity
  8
0
  6
Continuous
 62
     0
370
     0
100
AcDbLine
 10
0.0
 20
0.0
 30
0.0
 11
-2.5
 21
0.0
 31
0.0
  0
LINE
  5
3CD
330
3C8
100
AcDbEntity
  8
0
  6
Continuous
 62
     0
370
     0
100
AcDbLine
 10
0.0
 20
0.0
 30
0.0
 11
0.0
 21
-2.5
 31
0.0
  0
LINE
  5
3CE
330
3C8
100
AcDbEntity
  8
0
  6
Continuous
 62
     0
370
     0
100
AcDbLine
 10
0.0
 20
0.0
 30
0.0
 11
2.5
 21
0.0
 31
0.0
  0
LINE
  5
3CF
330
3C8
100
AcDbEntity
  8
0
  6
Continuous
 62
     0
370
     0
100
AcDbLine
 10
0.0
 20
5.0
 30
0.0
 11
0.0
 21
10.0
 31
0.0
  0
LINE
  5
3D0
330
3C8
100
AcDbEntity
  8
0
  6
Continuous
 62
     0
370
     0
100
AcDbLine
 10
-5.0
 20
0.0
 30
0.0
 11
-10.0
 21
0.0
 31
0.0
  0
LINE
  5
3D1
330
3C8
100
AcDbEntity
  8
0
  6
Continuous
 62
     0
370
     0
100
AcDbLine
 10
0.0
 20
-5.0
 30
0.0
 11
0.0
 21
-10.0
 31
0.0
  0
LINE
  5
3D2
330
3C8
100
AcDbEntity
  8
0
  6
Continuous
 62
     0
370
     0
100
AcDbLine
 10
5.0
 20
0.0
 30
0.0
 11
10.0
 21
0.0
 31
0.0
  0
ENDBLK
  5
3CA
330
3C8
100
AcDbEntity
  8
0
100
AcDbBlockEnd
  0
BLOCK
  5
487
330
486
100
AcDbEntity
  8
0
100
AcDbBlockBegin
  2
_D_10
 70
     0
 10
0.0
 20
0.0
 30
0.0
  3
_D_10
  1

  0
SOLID
  5
489
330
486
100
AcDbEntity
  8
0
  6
Continuous
 62
     7
370
     0
100
AcDbTrace
 10
85.9822324791
 20
103.3645856896
 30
0.0
 11
83.9822324791
 21
104.1145856896
 31
0.0
 12
83.9822324791
 22
102.6145856896
 32
0.0
 13
83.9822324791
 23
102.6145856896
 33
0.0
  0
SOLID
  5
48A
330
486
100
AcDbEntity
  8
0
  6
Continuous
 62
     7
370
     0
100
AcDbTrace
 10
95.9822324791
 20
103.3645856896
 30
0.0
 11
97.9822324791
 21
102.6145856896
 31
0.0
 12
97.9822324791
 22
104.1145856896
 32
0.0
 13
97.9822324791
 23
104.1145856896
 33
0.0
  0
LINE
  5
48B
330
486
100
AcDbEntity
  8
0
  6
Continuous
 62
     7
370
     0
100
AcDbLine
 10
85.9822324791
 20
98.2629713096
 30
0.0
 11
85.9822324791
 21
104.3645856896
 31
0.0
  0
LINE
  5
48C
330
486
100
AcDbEntity
  8
0
  6
Continuous
 62
     7
370
     0
100
AcDbLine
 10
95.9822324791
 20
98.2629713096
 30
0.0
 11
95.9822324791
 21
104.3645856896
 31
0.0
  0
LINE
  5
48D
330
486
100
AcDbEntity
  8
0
  6
Continuous
 62
     7
370
     0
100
AcDbLine
 10
85.9822324791
 20
103.3645856896
 30
0.0
 11
80.9822324791
 21
103.3645856896
 31
0.0
  0
LINE
  5
48E
330
486
100
AcDbEntity
  8
0
  6
Continuous
 62
     7
370
     0
100
AcDbLine
 10
85.9822324791
 20
103.3645856896
 30
0.0
 11
95.9822324791
 21
103.3645856896
 31
0.0
  0
LINE
  5
48F
330
486
100
AcDbEntity
  8
0
  6
Continuous
 62
     7
370
     0
100
AcDbLine
 10
95.9822324791
 20
103.3645856896
 30
0.0
 11
100.9822324791
 21
103.3645856896
 31
0.0
  0
MTEXT
  5
490
330
486
100
AcDbEntity
  8
0
  6
Continuous
 62
     7
370
     0
100
AcDbMText
 10
86.7669821653
 20
107.8763226041
 30
0.1
 40
3.5
 41
0.0
 71
     1
 72
     1
  1
10
  7
SLDTEXTSTYLE1
 73
     1
 44
1.0
  0
MTEXT
  5
491
330
486
100
AcDbEntity
  8
0
  6
Continuous
 62
     7
370
     0
100
AcDbMText
 10
91.9392045524
 20
107.8763226041
 30
0.1
 40
3.5
 41
0.0
 71
     1
 72
     1
  1
st
  7
SLDTEXTSTYLE1
 73
     1
 44
1.0
  0
ENDBLK
  5
488
330
486
100
AcDbEntity
  8
0
100
AcDbBlockEnd
  0
BLOCK
  5
494
330
493
100
AcDbEntity
  8
0
100
AcDbBlockBegin
  2
_D_11
 70
     0
 10
0.0
 20
0.0
 30
0.0
  3
_D_11
  1

  0
SOLID
  5
496
330
493
100
AcDbEntity
  8
0
  6
Continuous
 62
     7
370
     0
100
AcDbTrace
 10
38.1822324791
 20
71.9802813772
 30
0.0
 11
36.1822324791
 21
72.7302813772
 31
0.0
 12
36.1822324791
 22
71.2302813772
 32
0.0
 13
36.1822324791
 23
71.2302813772
 33
0.0
  0
SOLID
  5
497
330
493
100
AcDbEntity
  8
0
  6
Continuous
 62
     7
370
     0
100
AcDbTrace
 10
44.9822324791
 20
71.9802813772
 30
0.0
 11
46.9822324791
 21
71.2302813772
 31
0.0
 12
46.9822324791
 22
72.7302813772
 32
0.0
 13
46.9822324791
 23
72.7302813772
 33
0.0
  0
LINE
  5
498
330
493
100
AcDbEntity
  8
0
  6
Continuous
 62
     7
370
     0
100
AcDbLine
 10
38.1822324791
 20
89.2629713096
 30
0.0
 11
38.1822324791
 21
70.9802813772
 31
0.0
  0
LINE
  5
499
330
493
100
AcDbEntity
  8
0
  6
Continuous
 62
     7
370
     0
100
AcDbLine
 10
44.9822324791
 20
86.7629713096
 30
0.0
 11
44.9822324791
 21
70.9802813772
 31
0.0
  0
LINE
  5
49A
330
493
100
AcDbEntity
  8
0
  6
Continuous
 62
     7
370
     0
100
AcDbLine
 10
38.1822324791
 20
71.9802813772
 30
0.0
 11
27.2106329939
 21
71.9802813772
 31
0.0
  0
LINE
  5
49B
330
493
100
AcDbEntity
  8
0
  6
Continuous
 62
     7
370
     0
100
AcDbLine
 10
38.1822324791
 20
71.9802813772
 30
0.0
 11
44.9822324791
 21
71.9802813772
 31
0.0
  0
LINE
  5
49C
330
493
100
AcDbEntity
  8
0
  6
Continuous
 62
     7
370
     0
100
AcDbLine
 10
44.9822324791
 20
71.9802813772
 30
0.0
 11
49.9822324791
 21
71.9802813772
 31
0.0
  0
MTEXT
  5
49D
330
493
100
AcDbEntity
  8
0
  6
Continuous
 62
     7
370
     0
100
AcDbMText
 10
27.2106329939
 20
76.4920182918
 30
-9.2024880709
 40
3.5
 41
0.0
 71
     1
 72
     1
  1
6.8
  7
SLDTEXTSTYLE1
 73
     1
 44
1.0
  0
ENDBLK
  5
495
330
493
100
AcDbEntity
  8
0
100
AcDbBlockEnd
  0
BLOCK
  5
4A0
330
49F
100
AcDbEntity
  8
0
100
AcDbBlockBegin
  2
_D_12
 70
     0
 10
0.0
 20
0.0
 30
0.0
  3
_D_12
  1

  0
SOLID
  5
4A2
330
49F
100
AcDbEntity
  8
0
  6
Continuous
 62
     7
370
     0
100
AcDbTrace
 10
37.9822324791
 20
111.0090452815
 30
0.0
 11
39.9822324791
 21
110.2590452815
 31
0.0
 12
39.9822324791
 22
111.7590452815
 32
0.0
 13
39.9822324791
 23
111.7590452815
 33
0.0
  0
SOLID
  5
4A3
330
49F
100
AcDbEntity
  8
0
  6
Continuous
 62
     7
370
     0
100
AcDbTrace
 10
79.9822324791
 20
111.0090452815
 30
0.0
 11
77.9822324791
 21
111.7590452815
 31
0.0
 12
77.9822324791
 22
110.2590452815
 32
0.0
 13
77.9822324791
 23
110.2590452815
 33
0.0
  0
LINE
  5
4A4
330
49F
100
AcDbEntity
  8
0
  6
Continuous
 62
     7
370
     0
100
AcDbLine
 10
37.9822324791
 20
103.527957698
 30
0.0
 11
37.9822324791
 21
112.0090452815
 31
0.0
  0
LINE
  5
4A5
330
49F
100
AcDbEntity
  8
0
  6
Continuous
 62
     7
370
     0
100
AcDbLine
 10
79.9822324791
 20
106.7629713096
 30
0.0
 11
79.9822324791
 21
112.0090452815
 31
0.0
  0
LINE
  5
4A6
330
49F
100
AcDbEntity
  8
0
  6
Continuous
 62
     7
370
     0
100
AcDbLine
 10
37.9822324791
 20
111.0090452815
 30
0.0
 11
79.9822324791
 21
111.0090452815
 31
0.0
  0
MTEXT
  5
4A7
330
49F
100
AcDbEntity
  8
0
  6
Continuous
 62
     7
370
     0
100
AcDbMText
 10
56.4247123244
 20
115.520782196
 30
-9.2024880709
 40
3.5
 41
0.0
 71
     1
 72
     1
  1
42
  7
SLDTEXTSTYLE1
 73
     1
 44
1.0
  0
ENDBLK
  5
4A1
330
49F
100
AcDbEntity
  8
0
100
AcDbBlockEnd
  0
BLOCK
  5
4AA
330
4A9
100
AcDbEntity
  8
0
100
AcDbBlockBegin
  2
_D_13
 70
     0
 10
0.0
 20
0.0
 30
0.0
  3
_D_13
  1

  0
SOLID
  5
4AC
330
4A9
100
AcDbEntity
  8
0
  6
Continuous
 62
     7
370
     0
100
AcDbTrace
 10
37.9822324791
 20
122.2831431541
 30
0.0
 11
39.9822324791
 21
121.5331431541
 31
0.0
 12
39.9822324791
 22
123.0331431541
 32
0.0
 13
39.9822324791
 23
123.0331431541
 33
0.0
  0
SOLID
  5
4AD
330
4A9
100
AcDbEntity
  8
0
  6
Continuous
 62
     7
370
     0
100
AcDbTrace
 10
85.9822324791
 20
122.2831431541
 30
0.0
 11
83.9822324791
 21
123.0331431541
 31
0.0
 12
83.9822324791
 22
121.5331431541
 32
0.0
 13
83.9822324791
 23
121.5331431541
 33
0.0
  0
LINE
  5
4AE
330
4A9
100
AcDbEntity
  8
0
  6
Continuous
 62
     7
370
     0
100
AcDbLine
 10
37.9822324791
 20
103.527957698
 30
0.0
 11
37.9822324791
 21
123.2831431541
 31
0.0
  0
LINE
  5
4AF
330
4A9
100
AcDbEntity
  8
0
  6
Continuous
 62
     7
370
     0
100
AcDbLine
 10
85.9822324791
 20
98.2629713096
 30
0.0
 11
85.9822324791
 21
123.2831431541
 31
0.0
  0
LINE
  5
4B0
330
4A9
100
AcDbEntity
  8
0
  6
Continuous
 62
     7
370
     0
100
AcDbLine
 10
37.9822324791
 20
122.2831431541
 30
0.0
 11
85.9822324791
 21
122.2831431541
 31
0.0
  0
MTEXT
  5
4B1
330
4A9
100
AcDbEntity
  8
0
  6
Continuous
 62
     7
370
     0
100
AcDbMText
 10
59.3961212856
 20
126.7948800686
 30
-9.2024880709
 40
3.5
 41
0.0
 71
     1
 72
     1
  1
48
  7
SLDTEXTSTYLE1
 73
     1
 44
1.0
  0
ENDBLK
  5
4AB
330
4A9
100
AcDbEntity
  8
0
100
AcDbBlockEnd
  0
BLOCK
  5
4B3
330
4B2
100
AcDbEntity
  8
0
100
AcDbBlockBegin
  2
SW_CENTERMARKSYMBOL_9
 70
     0
 10
0.0
 20
0.0
 30
0.0
  3
SW_CENTERMARKSYMBOL_9
  1

  0
LINE
  5
4B5
330
4B2
100
AcDbEntity
  8
0
  6
Continuous
 62
     0
370
     0
100
AcDbLine
 10
0.0
 20
0.0
 30
0.0
 11
0.0
 21
2.5
 31
0.0
  0
LINE
  5
4B6
330
4B2
100
AcDbEntity
  8
0
  6
Continuous
 62
     0
370
     0
100
AcDbLine
 10
0.0
 20
0.0
 30
0.0
 11
-2.5
 21
0.0
 31
0.0
  0
LINE
  5
4B7
330
4B2
100
AcDbEntity
  8
0
  6
Continuous
 62
     0
370
     0
100
AcDbLine
 10
0.0
 20
0.0
 30
0.0
 11
0.0
 21
-2.5
 31
0.0
  0
LINE
  5
4B8
330
4B2
100
AcDbEntity
  8
0
  6
Continuous
 62
     0
370
     0
100
AcDbLine
 10
0.0
 20
0.0
 30
0.0
 11
2.5
 21
0.0
 31
0.0
  0
LINE
  5
4B9
330
4B2
100
AcDbEntity
  8
0
  6
Continuous
 62
     0
370
     0
100
AcDbLine
 10
0.0
 20
5.0
 30
0.0
 11
0.0
 21
6.5
 31
0.0
  0
LINE
  5
4BA
330
4B2
100
AcDbEntity
  8
0
  6
Continuous
 62
     0
370
     0
100
AcDbLine
 10
-5.0
 20
0.0
 30
0.0
 11
-6.5
 21
0.0
 31
0.0
  0
LINE
  5
4BB
330
4B2
100
AcDbEntity
  8
0
  6
Continuous
 62
     0
370
     0
100
AcDbLine
 10
0.0
 20
-5.0
 30
0.0
 11
0.0
 21
-6.5
 31
0.0
  0
LINE
  5
4BC
330
4B2
100
AcDbEntity
  8
0
  6
Continuous
 62
     0
370
     0
100
AcDbLine
 10
5.0
 20
0.0
 30
0.0
 11
55.4206944847
 21
0.0
 31
0.0
  0
ENDBLK
  5
4B4
330
4B2
100
AcDbEntity
  8
0
100
AcDbBlockEnd
  0
ENDSEC
  0
SECTION
  2
ENTITIES
  0
LINE
  5
44
330
1F
100
AcDbEntity
  8
0
  6
Continuous
 62
     7
370
     0
100
AcDbLine
 10
20.2604743903
 20
285.0
 30
0.0
 11
196.7604743903
 21
285.0
 31
0.0
  0
LINE
  5
45
330
1F
100
AcDbEntity
  8
0
  6
Continuous
 62
     7
370
     0
100
AcDbLine
 10
20.2604743903
 20
285.0
 30
0.0
 11
20.2604743903
 21
10.0
 31
0.0
  0
LINE
  5
46
330
1F
100
AcDbEntity
  8
0
  6
Continuous
 62
     7
370
     0
100
AcDbLine
 10
20.2604743903
 20
10.0
 30
0.0
 11
196.7604743903
 21
10.0
 31
0.0
  0
LINE
  5
47
330
1F
100
AcDbEntity
  8
0
  6
Continuous
 62
     7
370
     0
100
AcDbLine
 10
196.7604743903
 20
285.0
 30
0.0
 11
196.7604743903
 21
10.0
 31
0.0
  0
LINE
  5
48
330
1F
100
AcDbEntity
  8
0
  6
Continuous
 62
     7
370
     0
100
AcDbLine
 10
127.0104743903
 20
50.75
 30
0.0
 11
196.7604743903
 21
50.75
 31
0.0
  0
LINE
  5
49
330
1F
100
AcDbEntity
  8
0
  6
Continuous
 62
     7
370
     0
100
AcDbLine
 10
127.0104743903
 20
50.75
 30
0.0
 11
127.0104743903
 21
10.0
 31
0.0
  0
LINE
  5
4A
330
1F
100
AcDbEntity
  8
0
  6
Continuous
 62
     7
370
     0
100
AcDbLine
 10
127.0104743903
 20
22.75
 30
0.0
 11
196.7604743903
 21
22.75
 31
0.0
  0
LINE
  5
4B
330
1F
100
AcDbEntity
  8
0
  6
Continuous
 62
     7
370
     0
100
AcDbLine
 10
127.0104743903
 20
36.75
 30
0.0
 11
196.7604743903
 21
36.75
 31
0.0
  0
MTEXT
  5
4D
330
1F
100
AcDbEntity
  8
0
  6
Continuous
 62
     7
370
     0
100
AcDbMText
 10
162.409248263
 20
30.4171582345
 30
0.0
 40
4.2333333333
 41
0.0
 71
     2
 72
     1
  1
MCE-10S
  7
SLDTEXTSTYLE0
 73
     1
 44
1.0
  0
MTEXT
  5
4E
330
1F
100
AcDbEntity
  8
0
  6
Continuous
 62
     7
370
     0
100
AcDbMText
 10
157.9904870997
 20
44.6643209235
 30
0.0
 40
3.7041666667
 41
0.0
 71
     2
 72
     1
  1
ミニシリンダー・MCE10st(押出)
  7
SLDTEXTSTYLE0
 73
     1
 44
1.0
  0
MTEXT
  5
4F
330
1F
100
AcDbEntity
  8
0
  6
Continuous
 62
     7
370
     0
100
AcDbMText
 10
162.5697161802
 20
16.8228189052
 30
0.0
 40
4.2333333333
 41
0.0
 71
     2
 72
     1
  1
123504
  7
SLDTEXTSTYLE0
 73
     1
 44
1.0
  0
LINE
  5
50
330
1F
100
AcDbEntity
  8
0
  6
Continuous
 62
     7
370
    15
100
AcDbLine
 10
129.4891154154
 20
212.6693531598
 30
0.0
 11
129.4891154154
 21
211.1693531598
 31
0.0
  0
LINE
  5
51
330
1F
100
AcDbEntity
  8
0
  6
Continuous
 62
     7
370
    15
100
AcDbLine
 10
152.150300643
 20
211.1693531598
 30
0.0
 11
152.150300643
 21
212.6693531598
 31
0.0
  0
LINE
  5
52
330
1F
100
AcDbEntity
  8
0
  6
Continuous
 62
     7
370
    15
100
AcDbLine
 10
152.2013757751
 20
172.1693531598
 30
0.0
 11
152.2013757751
 21
211.1693531598
 31
0.0
  0
LINE
  5
53
330
1F
100
AcDbEntity
  8
0
  6
Continuous
 62
     7
370
    15
100
AcDbLine
 10
129.4380402833
 20
211.1693531598
 30
0.0
 11
129.4380402833
 21
172.1693531598
 31
0.0
  0
ARC
  5
54
330
1F
100
AcDbEntity
  8
0
  6
Continuous
 62
     7
370
    15
100
AcDbCircle
 10
146.0697080292
 20
212.9640453997
 30
0.0
 40
1.0
100
AcDbArc
 50
126.3843518158
 51
180.0
  0
ARC
  5
55
330
1F
100
AcDbEntity
  8
0
  6
Continuous
 62
     7
370
    15
100
AcDbCircle
 10
148.5697080292
 20
212.9640453997
 30
0.0
 40
1.000000000000012
100
AcDbArc
 50
0.0
 51
53.6156481842
  0
LINE
  5
56
330
1F
100
AcDbEntity
  8
0
  6
Continuous
 62
     7
370
    15
100
AcDbLine
 10
149.5697080292
 20
212.6693531598
 30
0.0
 11
149.5697080292
 21
212.9640453997
 31
0.0
  0
LINE
  5
57
330
1F
100
AcDbEntity
  8
0
  6
Continuous
 62
     7
370
    15
100
AcDbLine
 10
145.0697080292
 20
212.9640453997
 30
0.0
 11
145.0697080292
 21
212.6693531598
 31
0.0
  0
LINE
  5
58
330
1F
100
AcDbEntity
  8
0
  6
Continuous
 62
     7
370
    15
100
AcDbLine
 10
149.1629070672
 20
213.7691012371
 30
0.0
 11
148.7519915681
 21
214.0718810785
 31
0.0
  0
LINE
  5
59
330
1F
100
AcDbEntity
  8
0
  6
Continuous
 62
     7
370
    15
100
AcDbLine
 10
145.8874244903
 20
214.0718810785
 30
0.0
 11
145.4765089911
 21
213.7691012371
 31
0.0
  0
ARC
  5
5A
330
1F
100
AcDbEntity
  8
0
  6
Continuous
 62
     7
370
    15
100
AcDbCircle
 10
148.4553920491
 20
213.6693531598
 30
0.0
 40
0.5000000000000113
100
AcDbArc
 50
53.6156481842
 51
90.0
  0
ARC
  5
5B
330
1F
100
AcDbEntity
  8
0
  6
Continuous
 62
     7
370
    15
100
AcDbCircle
 10
146.1840240093
 20
213.6693531598
 30
0.0
 40
0.5
100
AcDbArc
 50
90.0
 51
126.3843518158
  0
LINE
  5
5C
330
1F
100
AcDbEntity
  8
0
  6
Continuous
 62
     7
370
    15
100
AcDbLine
 10
136.5697080292
 20
212.6693531598
 30
0.0
 11
136.5697080292
 21
212.9640453997
 31
0.0
  0
LINE
  5
5D
330
1F
100
AcDbEntity
  8
0
  6
Continuous
 62
     7
370
    15
100
AcDbLine
 10
132.0697080292
 20
212.9640453997
 30
0.0
 11
132.0697080292
 21
212.6693531598
 31
0.0
  0
ARC
  5
5E
330
1F
100
AcDbEntity
  8
0
  6
Continuous
 62
     7
370
    15
100
AcDbCircle
 10
133.0697080292
 20
212.9640453997
 30
0.0
 40
1.0
100
AcDbArc
 50
126.3843518158
 51
180.0
  0
ARC
  5
5F
330
1F
100
AcDbEntity
  8
0
  6
Continuous
 62
     7
370
    15
100
AcDbCircle
 10
135.5697080292
 20
212.9640453997
 30
0.0
 40
1.0
100
AcDbArc
 50
0.0
 51
53.6156481842
  0
LINE
  5
60
330
1F
100
AcDbEntity
  8
0
  6
Continuous
 62
     7
370
    15
100
AcDbLine
 10
136.1629070672
 20
213.7691012371
 30
0.0
 11
135.7519915681
 21
214.0718810785
 31
0.0
  0
LINE
  5
61
330
1F
100
AcDbEntity
  8
0
  6
Continuous
 62
     7
370
    15
100
AcDbLine
 10
132.8874244903
 20
214.0718810785
 30
0.0
 11
132.4765089911
 21
213.7691012371
 31
0.0
  0
ARC
  5
62
330
1F
100
AcDbEntity
  8
0
  6
Continuous
 62
     7
370
    15
100
AcDbCircle
 10
135.4553920491
 20
213.6693531598
 30
0.0
 40
0.5
100
AcDbArc
 50
53.6156481842
 51
90.0
  0
ARC
  5
63
330
1F
100
AcDbEntity
  8
0
  6
Continuous
 62
     7
370
    15
100
AcDbCircle
 10
133.1840240093
 20
213.6693531598
 30
0.0
 40
0.5
100
AcDbArc
 50
90.0
 51
126.3843518158
  0
LINE
  5
64
330
1F
100
AcDbEntity
  8
0
  6
Continuous
 62
     7
370
    15
100
AcDbLine
 10
132.0697080292
 20
170.6693531598
 30
0.0
 11
132.0697080292
 21
170.37466092
 31
0.0
  0
LINE
  5
65
330
1F
100
AcDbEntity
  8
0
  6
Continuous
 62
     7
370
    15
100
AcDbLine
 10
136.5697080292
 20
170.37466092
 30
0.0
 11
136.5697080292
 21
170.6693531598
 31
0.0
  0
ARC
  5
66
330
1F
100
AcDbEntity
  8
0
  6
Continuous
 62
     7
370
    15
100
AcDbCircle
 10
135.5697080292
 20
170.37466092
 30
0.0
 40
1.000000000000018
100
AcDbArc
 50
306.3843518158
 51
0.0
  0
ARC
  5
67
330
1F
100
AcDbEntity
  8
0
  6
Continuous
 62
     7
370
    15
100
AcDbCircle
 10
133.0697080292
 20
170.37466092
 30
0.0
 40
1.000000000000035
100
AcDbArc
 50
180.0
 51
233.6156481842
  0
LINE
  5
68
330
1F
100
AcDbEntity
  8
0
  6
Continuous
 62
     7
370
    15
100
AcDbLine
 10
132.4765089911
 20
169.5696050826
 30
0.0
 11
132.8874244903
 21
169.2668252412
 31
0.0
  0
LINE
  5
69
330
1F
100
AcDbEntity
  8
0
  6
Continuous
 62
     7
370
    15
100
AcDbLine
 10
135.7519915681
 20
169.2668252412
 30
0.0
 11
136.1629070672
 21
169.5696050826
 31
0.0
  0
ARC
  5
6A
330
1F
100
AcDbEntity
  8
0
  6
Continuous
 62
     7
370
    15
100
AcDbCircle
 10
133.1840240093
 20
169.6693531598
 30
0.0
 40
0.5000000000000173
100
AcDbArc
 50
233.6156481842
 51
270.0
  0
ARC
  5
6B
330
1F
100
AcDbEntity
  8
0
  6
Continuous
 62
     7
370
    15
100
AcDbCircle
 10
135.4553920491
 20
169.6693531598
 30
0.0
 40
0.5000000000000006
100
AcDbArc
 50
270.0
 51
306.3843518158
  0
LINE
  5
6C
330
1F
100
AcDbEntity
  8
0
  6
Continuous
 62
     7
370
    15
100
AcDbLine
 10
145.0697080292
 20
170.6693531598
 30
0.0
 11
145.0697080292
 21
170.37466092
 31
0.0
  0
LINE
  5
6D
330
1F
100
AcDbEntity
  8
0
  6
Continuous
 62
     7
370
    15
100
AcDbLine
 10
149.5697080292
 20
170.37466092
 30
0.0
 11
149.5697080292
 21
170.6693531598
 31
0.0
  0
ARC
  5
6E
330
1F
100
AcDbEntity
  8
0
  6
Continuous
 62
     7
370
    15
100
AcDbCircle
 10
148.5697080292
 20
170.37466092
 30
0.0
 40
1.000000000000018
100
AcDbArc
 50
306.3843518158
 51
0.0
  0
ARC
  5
6F
330
1F
100
AcDbEntity
  8
0
  6
Continuous
 62
     7
370
    15
100
AcDbCircle
 10
146.0697080292
 20
170.37466092
 30
0.0
 40
1.000000000000018
100
AcDbArc
 50
180.0
 51
233.6156481842
  0
LINE
  5
70
330
1F
100
AcDbEntity
  8
0
  6
Continuous
 62
     7
370
    15
100
AcDbLine
 10
145.4765089911
 20
169.5696050826
 30
0.0
 11
145.8874244903
 21
169.2668252412
 31
0.0
  0
LINE
  5
71
330
1F
100
AcDbEntity
  8
0
  6
Continuous
 62
     7
370
    15
100
AcDbLine
 10
148.7519915681
 20
169.2668252412
 30
0.0
 11
149.1629070672
 21
169.5696050826
 31
0.0
  0
ARC
  5
72
330
1F
100
AcDbEntity
  8
0
  6
Continuous
 62
     7
370
    15
100
AcDbCircle
 10
146.1840240093
 20
169.6693531598
 30
0.0
 40
0.5000000000000006
100
AcDbArc
 50
233.6156481842
 51
270.0
  0
ARC
  5
73
330
1F
100
AcDbEntity
  8
0
  6
Continuous
 62
     7
370
    15
100
AcDbCircle
 10
148.4553920491
 20
169.6693531598
 30
0.0
 40
0.5000000000000342
100
AcDbArc
 50
270.0
 51
306.3843518158
  0
LINE
  5
74
330
1F
100
AcDbEntity
  8
0
  6
Continuous
 62
     7
370
    15
100
AcDbLine
 10
121.3197080292
 20
208.9193531598
 30
0.0
 11
118.8197080292
 21
208.6693531598
 31
0.0
  0
LINE
  5
75
330
1F
100
AcDbEntity
  8
0
  6
Continuous
 62
     7
370
    15
100
AcDbLine
 10
118.8197080292
 20
205.6693531598
 30
0.0
 11
121.3197080292
 21
205.4193531598
 31
0.0
  0
LINE
  5
76
330
1F
100
AcDbEntity
  8
0
  6
Continuous
 62
     7
370
    15
100
AcDbLine
 10
118.8197080292
 20
208.9193531598
 30
0.0
 11
116.3197080292
 21
208.6693531598
 31
0.0
  0
LINE
  5
77
330
1F
100
AcDbEntity
  8
0
  6
Continuous
 62
     7
370
    15
100
AcDbLine
 10
116.3197080292
 20
205.6693531598
 30
0.0
 11
118.8197080292
 21
205.4193531598
 31
0.0
  0
LINE
  5
78
330
1F
100
AcDbEntity
  8
0
  6
Continuous
 62
     7
370
    15
100
AcDbLine
 10
121.3197080292
 20
205.5693531598
 30
0.0
 11
123.3197080292
 21
205.5693531598
 31
0.0
  0
LINE
  5
79
330
1F
100
AcDbEntity
  8
0
  6
Continuous
 62
     7
370
    15
100
AcDbLine
 10
123.3197080292
 20
208.7693531598
 30
0.0
 11
121.3197080292
 21
208.7693531598
 31
0.0
  0
LINE
  5
7A
330
1F
100
AcDbEntity
  8
0
  6
Continuous
 62
     7
370
    15
100
AcDbLine
 10
126.6197080292
 20
211.1693531598
 30
0.0
 11
125.8197080292
 21
211.1693531598
 31
0.0
  0
LINE
  5
7B
330
1F
100
AcDbEntity
  8
0
  6
Continuous
 62
     7
370
    15
100
AcDbLine
 10
125.8197080292
 20
203.1693531598
 30
0.0
 11
126.6197080292
 21
203.1693531598
 31
0.0
  0
LINE
  5
7C
330
1F
100
AcDbEntity
  8
0
  6
Continuous
 62
     7
370
    15
100
AcDbLine
 10
155.8197080292
 20
211.1693531598
 30
0.0
 11
155.0197080292
 21
211.1693531598
 31
0.0
  0
LINE
  5
7D
330
1F
100
AcDbEntity
  8
0
  6
Continuous
 62
     7
370
    15
100
AcDbLine
 10
155.0197080292
 20
203.1693531598
 30
0.0
 11
155.8197080292
 21
203.1693531598
 31
0.0
  0
LINE
  5
7E
330
1F
100
AcDbEntity
  8
0
  6
Continuous
 62
     7
370
    15
100
AcDbLine
 10
130.1353483179
 20
212.6693531598
 30
0.0
 11
130.1353483179
 21
211.1693531598
 31
0.0
  0
LINE
  5
7F
330
1F
100
AcDbEntity
  8
0
  6
Continuous
 62
     7
370
    15
100
AcDbLine
 10
134.8832163561
 20
211.1693531598
 30
0.0
 11
134.8832163561
 21
212.6693531598
 31
0.0
  0
LINE
  5
80
330
1F
100
AcDbEntity
  8
0
  6
Continuous
 62
     7
370
    15
100
AcDbLine
 10
130.1353483179
 20
211.1693531598
 30
0.0
 11
134.8832163561
 21
211.1693531598
 31
0.0
  0
LINE
  5
81
330
1F
100
AcDbEntity
  8
0
  6
Continuous
 62
     7
370
    15
100
AcDbLine
 10
130.1353483179
 20
212.6693531598
 30
0.0
 11
134.8832163561
 21
212.6693531598
 31
0.0
  0
LINE
  5
82
330
1F
100
AcDbEntity
  8
0
  6
Continuous
 62
     7
370
    15
100
AcDbLine
 10
130.1353483179
 20
211.1693531598
 30
0.0
 11
129.6066936793
 21
211.1693531598
 31
0.0
  0
LINE
  5
83
330
1F
100
AcDbEntity
  8
0
  6
Continuous
 62
     7
370
    15
100
AcDbLine
 10
129.6066936793
 20
212.6693531598
 30
0.0
 11
129.6066936793
 21
211.1693531598
 31
0.0
  0
LINE
  5
84
330
1F
100
AcDbEntity
  8
0
  6
Continuous
 62
     7
370
    15
100
AcDbLine
 10
130.1353483179
 20
212.6693531598
 30
0.0
 11
129.6066936793
 21
212.6693531598
 31
0.0
  0
LINE
  5
85
330
1F
100
AcDbEntity
  8
0
  6
Continuous
 62
     7
370
    15
100
AcDbLine
 10
136.4444658557
 20
211.1693531598
 30
0.0
 11
136.4444658557
 21
212.6693531598
 31
0.0
  0
LINE
  5
86
330
1F
100
AcDbEntity
  8
0
  6
Continuous
 62
     7
370
    15
100
AcDbLine
 10
136.4444658557
 20
211.1693531598
 30
0.0
 11
134.8832163561
 21
211.1693531598
 31
0.0
  0
LINE
  5
87
330
1F
100
AcDbEntity
  8
0
  6
Continuous
 62
     7
370
    15
100
AcDbLine
 10
134.8832163561
 20
212.6693531598
 30
0.0
 11
136.4444658557
 21
212.6693531598
 31
0.0
  0
LINE
  5
88
330
1F
100
AcDbEntity
  8
0
  6
Continuous
 62
     7
370
    15
100
AcDbLine
 10
146.7561997023
 20
212.6693531598
 30
0.0
 11
146.7561997023
 21
211.1693531598
 31
0.0
  0
LINE
  5
89
330
1F
100
AcDbEntity
  8
0
  6
Continuous
 62
     7
370
    15
100
AcDbLine
 10
145.1949502027
 20
212.6693531598
 30
0.0
 11
145.1949502027
 21
211.1693531598
 31
0.0
  0
LINE
  5
8A
330
1F
100
AcDbEntity
  8
0
  6
Continuous
 62
     7
370
    15
100
AcDbLine
 10
145.1949502027
 20
212.6693531598
 30
0.0
 11
146.7561997023
 21
212.6693531598
 31
0.0
  0
LINE
  5
8B
330
1F
100
AcDbEntity
  8
0
  6
Continuous
 62
     7
370
    15
100
AcDbLine
 10
146.7561997023
 20
211.1693531598
 30
0.0
 11
145.1949502027
 21
211.1693531598
 31
0.0
  0
LINE
  5
8C
330
1F
100
AcDbEntity
  8
0
  6
Continuous
 62
     7
370
    15
100
AcDbLine
 10
151.5040677405
 20
212.6693531598
 30
0.0
 11
151.5040677405
 21
211.1693531598
 31
0.0
  0
LINE
  5
8D
330
1F
100
AcDbEntity
  8
0
  6
Continuous
 62
     7
370
    15
100
AcDbLine
 10
151.5040677405
 20
212.6693531598
 30
0.0
 11
152.0327223791
 21
212.6693531598
 31
0.0
  0
LINE
  5
8E
330
1F
100
AcDbEntity
  8
0
  6
Continuous
 62
     7
370
    15
100
AcDbLine
 10
152.0327223791
 20
211.1693531598
 30
0.0
 11
152.0327223791
 21
212.6693531598
 31
0.0
  0
LINE
  5
8F
330
1F
100
AcDbEntity
  8
0
  6
Continuous
 62
     7
370
    15
100
AcDbLine
 10
152.0327223791
 20
211.1693531598
 30
0.0
 11
151.5040677405
 21
211.1693531598
 31
0.0
  0
LINE
  5
90
330
1F
100
AcDbEntity
  8
0
  6
Continuous
 62
     7
370
    15
100
AcDbLine
 10
146.7561997023
 20
212.6693531598
 30
0.0
 11
151.5040677405
 21
212.6693531598
 31
0.0
  0
LINE
  5
91
330
1F
100
AcDbEntity
  8
0
  6
Continuous
 62
     7
370
    15
100
AcDbLine
 10
146.7561997023
 20
211.1693531598
 30
0.0
 11
151.5040677405
 21
211.1693531598
 31
0.0
  0
LINE
  5
92
330
1F
100
AcDbEntity
  8
0
  6
Continuous
 62
     7
370
    15
100
AcDbLine
 10
129.4891154154
 20
212.6693531598
 30
0.0
 11
129.6066936793
 21
212.6693531598
 31
0.0
  0
LINE
  5
93
330
1F
100
AcDbEntity
  8
0
  6
Continuous
 62
     7
370
    15
100
AcDbLine
 10
152.0327223791
 20
212.6693531598
 30
0.0
 11
152.150300643
 21
212.6693531598
 31
0.0
  0
LINE
  5
94
330
1F
100
AcDbEntity
  8
0
  6
Continuous
 62
     7
370
    15
100
AcDbLine
 10
138.0057153553
 20
214.1693531598
 30
0.0
 11
138.0057153553
 21
211.1693531598
 31
0.0
  0
LINE
  5
95
330
1F
100
AcDbEntity
  8
0
  6
Continuous
 62
     7
370
    15
100
AcDbLine
 10
137.6569094944
 20
214.1693531598
 30
0.0
 11
137.6569094944
 21
212.6693531598
 31
0.0
  0
LINE
  5
96
330
1F
100
AcDbEntity
  8
0
  6
Continuous
 62
     7
370
    15
100
AcDbLine
 10
137.6569094944
 20
214.1693531598
 30
0.0
 11
138.0057153553
 21
214.1693531598
 31
0.0
  0
LINE
  5
97
330
1F
100
AcDbEntity
  8
0
  6
Continuous
 62
     7
370
    15
100
AcDbLine
 10
138.0057153553
 20
211.1693531598
 30
0.0
 11
136.4444658557
 21
211.1693531598
 31
0.0
  0
LINE
  5
98
330
1F
100
AcDbEntity
  8
0
  6
Continuous
 62
     7
370
    15
100
AcDbLine
 10
136.4444658557
 20
212.6693531598
 30
0.0
 11
137.6569094944
 21
212.6693531598
 31
0.0
  0
LINE
  5
99
330
1F
100
AcDbEntity
  8
0
  6
Continuous
 62
     7
370
    15
100
AcDbLine
 10
143.6337007031
 20
211.1693531598
 30
0.0
 11
143.6337007031
 21
214.1693531598
 31
0.0
  0
LINE
  5
9A
330
1F
100
AcDbEntity
  8
0
  6
Continuous
 62
     7
370
    15
100
AcDbLine
 10
143.6337007031
 20
214.1693531598
 30
0.0
 11
143.982506564
 21
214.1693531598
 31
0.0
  0
LINE
  5
9B
330
1F
100
AcDbEntity
  8
0
  6
Continuous
 62
     7
370
    15
100
AcDbLine
 10
143.982506564
 20
212.6693531598
 30
0.0
 11
143.982506564
 21
214.1693531598
 31
0.0
  0
LINE
  5
9C
330
1F
100
AcDbEntity
  8
0
  6
Continuous
 62
     7
370
    15
100
AcDbLine
 10
143.982506564
 20
212.6693531598
 30
0.0
 11
145.1949502027
 21
212.6693531598
 31
0.0
  0
LINE
  5
9D
330
1F
100
AcDbEntity
  8
0
  6
Continuous
 62
     7
370
    15
100
AcDbLine
 10
145.1949502027
 20
211.1693531598
 30
0.0
 11
143.6337007031
 21
211.1693531598
 31
0.0
  0
LINE
  5
9E
330
1F
100
AcDbEntity
  8
0
  6
Continuous
 62
     7
370
    15
100
AcDbLine
 10
127.9698968119
 20
211.1693531598
 30
0.0
 11
127.9698968119
 21
214.1693531598
 31
0.0
  0
LINE
  5
9F
330
1F
100
AcDbEntity
  8
0
  6
Continuous
 62
     7
370
    15
100
AcDbLine
 10
130.4450764021
 20
214.1693531598
 30
0.0
 11
127.9698968119
 21
214.1693531598
 31
0.0
  0
LINE
  5
A0
330
1F
100
AcDbEntity
  8
0
  6
Continuous
 62
     7
370
    15
100
AcDbLine
 10
130.4450764021
 20
212.6693531598
 30
0.0
 11
130.4450764021
 21
214.1693531598
 31
0.0
  0
LINE
  5
A1
330
1F
100
AcDbEntity
  8
0
  6
Continuous
 62
     7
370
    15
100
AcDbLine
 10
153.6695192465
 20
211.1693531598
 30
0.0
 11
153.6695192465
 21
214.1693531598
 31
0.0
  0
LINE
  5
A2
330
1F
100
AcDbEntity
  8
0
  6
Continuous
 62
     7
370
    15
100
AcDbLine
 10
151.1943396563
 20
212.6693531598
 30
0.0
 11
151.1943396563
 21
214.1693531598
 31
0.0
  0
LINE
  5
A3
330
1F
100
AcDbEntity
  8
0
  6
Continuous
 62
     7
370
    15
100
AcDbLine
 10
153.6695192465
 20
214.1693531598
 30
0.0
 11
151.1943396563
 21
214.1693531598
 31
0.0
  0
LINE
  5
A4
330
1F
100
AcDbEntity
  8
0
  6
Continuous
 62
     7
370
    15
100
AcDbLine
 10
137.0697080292
 20
212.6693531598
 30
0.0
 11
137.0697080292
 21
214.1693531598
 31
0.0
  0
LINE
  5
A5
330
1F
100
AcDbEntity
  8
0
  6
Continuous
 62
     7
370
    15
100
AcDbLine
 10
137.0697080292
 20
214.1693531598
 30
0.0
 11
137.6569094944
 21
214.1693531598
 31
0.0
  0
LINE
  5
A6
330
1F
100
AcDbEntity
  8
0
  6
Continuous
 62
     7
370
    15
100
AcDbLine
 10
144.5697080292
 20
214.1693531598
 30
0.0
 11
144.5697080292
 21
212.6693531598
 31
0.0
  0
LINE
  5
A7
330
1F
100
AcDbEntity
  8
0
  6
Continuous
 62
     7
370
    15
100
AcDbLine
 10
143.982506564
 20
214.1693531598
 30
0.0
 11
144.5697080292
 21
214.1693531598
 31
0.0
  0
LINE
  5
A8
330
1F
100
AcDbEntity
  8
0
  6
Continuous
 62
     7
370
    15
100
AcDbLine
 10
143.6337007031
 20
214.1693531598
 30
0.0
 11
138.0057153553
 21
214.1693531598
 31
0.0
  0
LINE
  5
A9
330
1F
100
AcDbEntity
  8
0
  6
Continuous
 62
     7
370
    15
100
AcDbLine
 10
143.6337007031
 20
211.1693531598
 30
0.0
 11
138.0057153553
 21
211.1693531598
 31
0.0
  0
LINE
  5
AA
330
1F
100
AcDbEntity
  8
0
  6
Continuous
 62
     7
370
    15
100
AcDbLine
 10
137.0697080292
 20
214.1693531598
 30
0.0
 11
135.4553920491
 21
214.1693531598
 31
0.0
  0
LINE
  5
AB
330
1F
100
AcDbEntity
  8
0
  6
Continuous
 62
     7
370
    15
100
AcDbLine
 10
146.1840240093
 20
214.1693531598
 30
0.0
 11
144.5697080292
 21
214.1693531598
 31
0.0
  0
LINE
  5
AC
330
1F
100
AcDbEntity
  8
0
  6
Continuous
 62
     7
370
    15
100
AcDbLine
 10
127.4556630375
 20
214.1693531598
 30
0.0
 11
127.4556630375
 21
211.1693531598
 31
0.0
  0
LINE
  5
AD
330
1F
100
AcDbEntity
  8
0
  6
Continuous
 62
     7
370
    15
100
AcDbLine
 10
127.0053665427
 20
211.1693531598
 30
0.0
 11
127.0053665427
 21
214.1693531598
 31
0.0
  0
LINE
  5
AE
330
1F
100
AcDbEntity
  8
0
  6
Continuous
 62
     7
370
    15
100
AcDbLine
 10
127.0053665427
 20
214.1693531598
 30
0.0
 11
127.4556630375
 21
214.1693531598
 31
0.0
  0
LINE
  5
AF
330
1F
100
AcDbEntity
  8
0
  6
Continuous
 62
     7
370
    15
100
AcDbLine
 10
154.1837530209
 20
211.1693531598
 30
0.0
 11
154.1837530209
 21
214.1693531598
 31
0.0
  0
LINE
  5
B0
330
1F
100
AcDbEntity
  8
0
  6
Continuous
 62
     7
370
    15
100
AcDbLine
 10
154.6340495157
 20
214.1693531598
 30
0.0
 11
154.6340495157
 21
211.1693531598
 31
0.0
  0
LINE
  5
B1
330
1F
100
AcDbEntity
  8
0
  6
Continuous
 62
     7
370
    15
100
AcDbLine
 10
154.1837530209
 20
214.1693531598
 30
0.0
 11
154.6340495157
 21
214.1693531598
 31
0.0
  0
LINE
  5
B2
330
1F
100
AcDbEntity
  8
0
  6
Continuous
 62
     7
370
    15
100
AcDbLine
 10
127.9698968119
 20
214.1693531598
 30
0.0
 11
127.4556630375
 21
214.1693531598
 31
0.0
  0
LINE
  5
B3
330
1F
100
AcDbEntity
  8
0
  6
Continuous
 62
     7
370
    15
100
AcDbLine
 10
127.9698968119
 20
211.1693531598
 30
0.0
 11
127.4556630375
 21
211.1693531598
 31
0.0
  0
LINE
  5
B4
330
1F
100
AcDbEntity
  8
0
  6
Continuous
 62
     7
370
    15
100
AcDbLine
 10
154.1837530209
 20
214.1693531598
 30
0.0
 11
153.6695192465
 21
214.1693531598
 31
0.0
  0
LINE
  5
B5
330
1F
100
AcDbEntity
  8
0
  6
Continuous
 62
     7
370
    15
100
AcDbLine
 10
154.1837530209
 20
211.1693531598
 30
0.0
 11
153.6695192465
 21
211.1693531598
 31
0.0
  0
LINE
  5
B6
330
1F
100
AcDbEntity
  8
0
  6
Continuous
 62
     7
370
    15
100
AcDbLine
 10
126.6197080292
 20
213.9693531598
 30
0.0
 11
126.6197080292
 21
211.1693531598
 31
0.0
  0
LINE
  5
B7
330
1F
100
AcDbEntity
  8
0
  6
Continuous
 62
     7
370
    15
100
AcDbLine
 10
126.8197080292
 20
214.1693531598
 30
0.0
 11
126.6197080292
 21
213.9693531598
 31
0.0
  0
LINE
  5
B8
330
1F
100
AcDbEntity
  8
0
  6
Continuous
 62
     7
370
    15
100
AcDbLine
 10
127.0053665427
 20
214.1693531598
 30
0.0
 11
126.8197080292
 21
214.1693531598
 31
0.0
  0
LINE
  5
B9
330
1F
100
AcDbEntity
  8
0
  6
Continuous
 62
     7
370
    15
100
AcDbLine
 10
127.0053665427
 20
211.1693531598
 30
0.0
 11
126.6197080292
 21
211.1693531598
 31
0.0
  0
LINE
  5
BA
330
1F
100
AcDbEntity
  8
0
  6
Continuous
 62
     7
370
    15
100
AcDbLine
 10
155.0197080292
 20
213.9693531598
 30
0.0
 11
154.8197080292
 21
214.1693531598
 31
0.0
  0
LINE
  5
BB
330
1F
100
AcDbEntity
  8
0
  6
Continuous
 62
     7
370
    15
100
AcDbLine
 10
155.0197080292
 20
213.9693531598
 30
0.0
 11
155.0197080292
 21
211.1693531598
 31
0.0
  0
LINE
  5
BC
330
1F
100
AcDbEntity
  8
0
  6
Continuous
 62
     7
370
    15
100
AcDbLine
 10
154.8197080292
 20
214.1693531598
 30
0.0
 11
154.6340495157
 21
214.1693531598
 31
0.0
  0
LINE
  5
BD
330
1F
100
AcDbEntity
  8
0
  6
Continuous
 62
     7
370
    15
100
AcDbLine
 10
155.0197080292
 20
211.1693531598
 30
0.0
 11
154.6340495157
 21
211.1693531598
 31
0.0
  0
LINE
  5
BE
330
1F
100
AcDbEntity
  8
0
  6
Continuous
 62
     7
370
    15
100
AcDbLine
 10
133.1840240093
 20
214.1693531598
 30
0.0
 11
130.4450764021
 21
214.1693531598
 31
0.0
  0
LINE
  5
BF
330
1F
100
AcDbEntity
  8
0
  6
Continuous
 62
     7
370
    15
100
AcDbLine
 10
151.1943396563
 20
214.1693531598
 30
0.0
 11
148.4553920491
 21
214.1693531598
 31
0.0
  0
LINE
  5
C0
330
1F
100
AcDbEntity
  8
0
  6
Continuous
 62
     7
370
    15
100
AcDbLine
 10
147.7322850143
 20
178.6693531598
 30
0.0
 11
147.7322850143
 21
182.4693531598
 31
0.0
  0
LINE
  5
C1
330
1F
100
AcDbEntity
  8
0
  6
Continuous
 62
     7
370
    15
100
AcDbLine
 10
147.7322850143
 20
182.4693531598
 30
0.0
 11
147.7197080292
 21
182.4843746753
 31
0.0
  0
LINE
  5
C2
330
1F
100
AcDbEntity
  8
0
  6
Continuous
 62
     7
370
    15
100
AcDbLine
 10
147.7197080292
 20
200.8543316444
 30
0.0
 11
147.7197080292
 21
182.4843746753
 31
0.0
  0
LINE
  5
C3
330
1F
100
AcDbEntity
  8
0
  6
Continuous
 62
     7
370
    15
100
AcDbLine
 10
147.7197080292
 20
200.8543316444
 30
0.0
 11
147.7322850143
 21
200.8693531598
 31
0.0
  0
LINE
  5
C4
330
1F
100
AcDbEntity
  8
0
  6
Continuous
 62
     7
370
    15
100
AcDbLine
 10
147.7322850143
 20
200.8693531598
 30
0.0
 11
147.7322850143
 21
204.6693531598
 31
0.0
  0
LINE
  5
C5
330
1F
100
AcDbEntity
  8
0
  6
Continuous
 62
     7
370
    15
100
AcDbLine
 10
148.4895958727
 20
211.1693531598
 30
0.0
 11
148.4895958727
 21
172.1693531598
 31
0.0
  0
LINE
  5
C6
330
1F
100
AcDbEntity
  8
0
  6
Continuous
 62
     7
370
    15
100
AcDbLine
 10
130.1353483179
 20
211.1693531598
 30
0.0
 11
130.1353483179
 21
172.1693531598
 31
0.0
  0
LINE
  5
C7
330
1F
100
AcDbEntity
  8
0
  6
Continuous
 62
     7
370
    15
100
AcDbLine
 10
129.5151175623
 20
172.1693531598
 30
0.0
 11
130.1353483179
 21
172.1693531598
 31
0.0
  0
LINE
  5
C8
330
1F
100
AcDbEntity
  8
0
  6
Continuous
 62
     7
370
    15
100
AcDbLine
 10
129.5151175623
 20
211.1693531598
 30
0.0
 11
129.5151175623
 21
172.1693531598
 31
0.0
  0
LINE
  5
C9
330
1F
100
AcDbEntity
  8
0
  6
Continuous
 62
     7
370
    15
100
AcDbLine
 10
129.5151175623
 20
211.1693531598
 30
0.0
 11
130.1353483179
 21
211.1693531598
 31
0.0
  0
LINE
  5
CA
330
1F
100
AcDbEntity
  8
0
  6
Continuous
 62
     7
370
    15
100
AcDbLine
 10
133.9071310441
 20
182.4693531598
 30
0.0
 11
133.9071310441
 21
178.6693531598
 31
0.0
  0
LINE
  5
CB
330
1F
100
AcDbEntity
  8
0
  6
Continuous
 62
     7
370
    15
100
AcDbLine
 10
133.1498201857
 20
211.1693531598
 30
0.0
 11
133.1498201857
 21
172.1693531598
 31
0.0
  0
LINE
  5
CC
330
1F
100
AcDbEntity
  8
0
  6
Continuous
 62
     7
370
    15
100
AcDbLine
 10
133.9071310441
 20
204.6693531598
 30
0.0
 11
133.9071310441
 21
200.8693531598
 31
0.0
  0
LINE
  5
CD
330
1F
100
AcDbEntity
  8
0
  6
Continuous
 62
     7
370
    15
100
AcDbLine
 10
133.9071310441
 20
200.8693531598
 30
0.0
 11
133.9197080292
 21
200.8543316444
 31
0.0
  0
LINE
  5
CE
330
1F
100
AcDbEntity
  8
0
  6
Continuous
 62
     7
370
    15
100
AcDbLine
 10
133.9197080292
 20
200.8543316444
 30
0.0
 11
133.9197080292
 21
182.4843746753
 31
0.0
  0
LINE
  5
CF
330
1F
100
AcDbEntity
  8
0
  6
Continuous
 62
     7
370
    15
100
AcDbLine
 10
133.9197080292
 20
182.4843746753
 30
0.0
 11
133.9071310441
 21
182.4693531598
 31
0.0
  0
LINE
  5
D0
330
1F
100
AcDbEntity
  8
0
  6
Continuous
 62
     7
370
    15
100
AcDbLine
 10
133.1498201857
 20
172.1693531598
 30
0.0
 11
130.1353483179
 21
172.1693531598
 31
0.0
  0
LINE
  5
D1
330
1F
100
AcDbEntity
  8
0
  6
Continuous
 62
     7
370
    15
100
AcDbLine
 10
133.1498201857
 20
211.1693531598
 30
0.0
 11
130.1353483179
 21
211.1693531598
 31
0.0
  0
LINE
  5
D2
330
1F
100
AcDbEntity
  8
0
  6
Continuous
 62
     7
370
    15
100
AcDbLine
 10
151.5040677405
 20
211.1693531598
 30
0.0
 11
151.5040677405
 21
172.1693531598
 31
0.0
  0
LINE
  5
D3
330
1F
100
AcDbEntity
  8
0
  6
Continuous
 62
     7
370
    15
100
AcDbLine
 10
151.5040677405
 20
172.1693531598
 30
0.0
 11
148.4895958727
 21
172.1693531598
 31
0.0
  0
LINE
  5
D4
330
1F
100
AcDbEntity
  8
0
  6
Continuous
 62
     7
370
    15
100
AcDbLine
 10
151.5040677405
 20
211.1693531598
 30
0.0
 11
148.4895958727
 21
211.1693531598
 31
0.0
  0
LINE
  5
D5
330
1F
100
AcDbEntity
  8
0
  6
Continuous
 62
     7
370
    15
100
AcDbLine
 10
152.124298496
 20
172.1693531598
 30
0.0
 11
152.124298496
 21
211.1693531598
 31
0.0
  0
LINE
  5
D6
330
1F
100
AcDbEntity
  8
0
  6
Continuous
 62
     7
370
    15
100
AcDbLine
 10
151.5040677405
 20
172.1693531598
 30
0.0
 11
152.124298496
 21
172.1693531598
 31
0.0
  0
LINE
  5
D7
330
1F
100
AcDbEntity
  8
0
  6
Continuous
 62
     7
370
    15
100
AcDbLine
 10
151.5040677405
 20
211.1693531598
 30
0.0
 11
152.124298496
 21
211.1693531598
 31
0.0
  0
LINE
  5
D8
330
1F
100
AcDbEntity
  8
0
  6
Continuous
 62
     7
370
    15
100
AcDbLine
 10
136.4444658557
 20
172.1693531598
 30
0.0
 11
136.4444658557
 21
211.1693531598
 31
0.0
  0
LINE
  5
D9
330
1F
100
AcDbEntity
  8
0
  6
Continuous
 62
     7
370
    15
100
AcDbLine
 10
135.4433802483
 20
211.1693531598
 30
0.0
 11
135.4433802483
 21
172.1693531598
 31
0.0
  0
LINE
  5
DA
330
1F
100
AcDbEntity
  8
0
  6
Continuous
 62
     7
370
    15
100
AcDbLine
 10
136.4444658557
 20
172.1693531598
 30
0.0
 11
135.4433802483
 21
172.1693531598
 31
0.0
  0
LINE
  5
DB
330
1F
100
AcDbEntity
  8
0
  6
Continuous
 62
     7
370
    15
100
AcDbLine
 10
135.4433802483
 20
211.1693531598
 30
0.0
 11
136.4444658557
 21
211.1693531598
 31
0.0
  0
LINE
  5
DC
330
1F
100
AcDbEntity
  8
0
  6
Continuous
 62
     7
370
    15
100
AcDbLine
 10
134.7322850143
 20
178.6693531598
 30
0.0
 11
134.7322850143
 21
182.4693531598
 31
0.0
  0
LINE
  5
DD
330
1F
100
AcDbEntity
  8
0
  6
Continuous
 62
     7
370
    15
100
AcDbLine
 10
134.7322850143
 20
182.4693531598
 30
0.0
 11
134.7197080292
 21
182.4843746753
 31
0.0
  0
LINE
  5
DE
330
1F
100
AcDbEntity
  8
0
  6
Continuous
 62
     7
370
    15
100
AcDbLine
 10
134.7197080292
 20
200.8543316444
 30
0.0
 11
134.7197080292
 21
182.4843746753
 31
0.0
  0
LINE
  5
DF
330
1F
100
AcDbEntity
  8
0
  6
Continuous
 62
     7
370
    15
100
AcDbLine
 10
134.7197080292
 20
200.8543316444
 30
0.0
 11
134.7322850143
 21
200.8693531598
 31
0.0
  0
LINE
  5
E0
330
1F
100
AcDbEntity
  8
0
  6
Continuous
 62
     7
370
    15
100
AcDbLine
 10
134.7322850143
 20
200.8693531598
 30
0.0
 11
134.7322850143
 21
204.6693531598
 31
0.0
  0
LINE
  5
E1
330
1F
100
AcDbEntity
  8
0
  6
Continuous
 62
     7
370
    15
100
AcDbLine
 10
146.9071310441
 20
182.4693531598
 30
0.0
 11
146.9071310441
 21
178.6693531598
 31
0.0
  0
LINE
  5
E2
330
1F
100
AcDbEntity
  8
0
  6
Continuous
 62
     7
370
    15
100
AcDbLine
 10
146.1960358101
 20
211.1693531598
 30
0.0
 11
146.1960358101
 21
172.1693531598
 31
0.0
  0
LINE
  5
E3
330
1F
100
AcDbEntity
  8
0
  6
Continuous
 62
     7
370
    15
100
AcDbLine
 10
146.9071310441
 20
204.6693531598
 30
0.0
 11
146.9071310441
 21
200.8693531598
 31
0.0
  0
LINE
  5
E4
330
1F
100
AcDbEntity
  8
0
  6
Continuous
 62
     7
370
    15
100
AcDbLine
 10
146.9071310441
 20
200.8693531598
 30
0.0
 11
146.9197080292
 21
200.8543316444
 31
0.0
  0
LINE
  5
E5
330
1F
100
AcDbEntity
  8
0
  6
Continuous
 62
     7
370
    15
100
AcDbLine
 10
146.9197080292
 20
200.8543316444
 30
0.0
 11
146.9197080292
 21
182.4843746753
 31
0.0
  0
LINE
  5
E6
330
1F
100
AcDbEntity
  8
0
  6
Continuous
 62
     7
370
    15
100
AcDbLine
 10
146.9197080292
 20
182.4843746753
 30
0.0
 11
146.9071310441
 21
182.4693531598
 31
0.0
  0
LINE
  5
E7
330
1F
100
AcDbEntity
  8
0
  6
Continuous
 62
     7
370
    15
100
AcDbLine
 10
145.1949502027
 20
211.1693531598
 30
0.0
 11
145.1949502027
 21
172.1693531598
 31
0.0
  0
LINE
  5
E8
330
1F
100
AcDbEntity
  8
0
  6
Continuous
 62
     7
370
    15
100
AcDbLine
 10
146.1960358101
 20
172.1693531598
 30
0.0
 11
145.1949502027
 21
172.1693531598
 31
0.0
  0
LINE
  5
E9
330
1F
100
AcDbEntity
  8
0
  6
Continuous
 62
     7
370
    15
100
AcDbLine
 10
145.1949502027
 20
211.1693531598
 30
0.0
 11
146.1960358101
 21
211.1693531598
 31
0.0
  0
LINE
  5
EA
330
1F
100
AcDbEntity
  8
0
  6
Continuous
 62
     7
370
    15
100
AcDbLine
 10
152.124298496
 20
211.1693531598
 30
0.0
 11
152.2013757751
 21
211.1693531598
 31
0.0
  0
LINE
  5
EB
330
1F
100
AcDbEntity
  8
0
  6
Continuous
 62
     7
370
    15
100
AcDbLine
 10
129.4380402833
 20
211.1693531598
 30
0.0
 11
129.5151175623
 21
211.1693531598
 31
0.0
  0
LINE
  5
EC
330
1F
100
AcDbEntity
  8
0
  6
Continuous
 62
     7
370
    15
100
AcDbLine
 10
138.0057153553
 20
211.1693531598
 30
0.0
 11
138.0057153553
 21
172.1693531598
 31
0.0
  0
LINE
  5
ED
330
1F
100
AcDbEntity
  8
0
  6
Continuous
 62
     7
370
    15
100
AcDbLine
 10
138.0057153553
 20
172.1693531598
 30
0.0
 11
136.4444658557
 21
172.1693531598
 31
0.0
  0
LINE
  5
EE
330
1F
100
AcDbEntity
  8
0
  6
Continuous
 62
     7
370
    15
100
AcDbLine
 10
143.6337007031
 20
172.1693531598
 30
0.0
 11
143.6337007031
 21
211.1693531598
 31
0.0
  0
LINE
  5
EF
330
1F
100
AcDbEntity
  8
0
  6
Continuous
 62
     7
370
    15
100
AcDbLine
 10
145.1949502027
 20
172.1693531598
 30
0.0
 11
143.6337007031
 21
172.1693531598
 31
0.0
  0
LINE
  5
F0
330
1F
100
AcDbEntity
  8
0
  6
Continuous
 62
     7
370
    15
100
AcDbLine
 10
146.8999782528
 20
182.4693531598
 30
0.0
 11
147.7356210642
 21
182.4693531598
 31
0.0
  0
LINE
  5
F1
330
1F
100
AcDbEntity
  8
0
  6
Continuous
 62
     7
370
    15
100
AcDbLine
 10
147.7394378056
 20
200.8693531598
 30
0.0
 11
146.9037949942
 21
200.8693531598
 31
0.0
  0
LINE
  5
F2
330
1F
100
AcDbEntity
  8
0
  6
Continuous
 62
     7
370
    15
100
AcDbLine
 10
146.9197080292
 20
200.8543316444
 30
0.0
 11
147.7197080292
 21
200.8543316444
 31
0.0
  0
LINE
  5
F3
330
1F
100
AcDbEntity
  8
0
  6
Continuous
 62
     7
370
    15
100
AcDbLine
 10
147.7264118785
 20
182.4843746753
 30
0.0
 11
146.9197080292
 21
182.4843746753
 31
0.0
  0
LINE
  5
F4
330
1F
100
AcDbEntity
  8
0
  6
Continuous
 62
     7
370
    15
100
AcDbLine
 10
133.9197080292
 20
200.8543316444
 30
0.0
 11
134.7197080292
 21
200.8543316444
 31
0.0
  0
LINE
  5
F5
330
1F
100
AcDbEntity
  8
0
  6
Continuous
 62
     7
370
    15
100
AcDbLine
 10
134.7394378056
 20
200.8693531598
 30
0.0
 11
133.9037949942
 21
200.8693531598
 31
0.0
  0
LINE
  5
F6
330
1F
100
AcDbEntity
  8
0
  6
Continuous
 62
     7
370
    15
100
AcDbLine
 10
133.8999782528
 20
182.4693531598
 30
0.0
 11
134.7356210642
 21
182.4693531598
 31
0.0
  0
LINE
  5
F7
330
1F
100
AcDbEntity
  8
0
  6
Continuous
 62
     7
370
    15
100
AcDbLine
 10
134.7264118785
 20
182.4843746753
 30
0.0
 11
133.9197080292
 21
182.4843746753
 31
0.0
  0
LINE
  5
F8
330
1F
100
AcDbEntity
  8
0
  6
Continuous
 62
     7
370
    15
100
AcDbLine
 10
128.0709942151
 20
211.1693531598
 30
0.0
 11
128.0709942151
 21
172.1693531598
 31
0.0
  0
LINE
  5
F9
330
1F
100
AcDbEntity
  8
0
  6
Continuous
 62
     7
370
    15
100
AcDbLine
 10
129.4380402833
 20
211.1693531598
 30
0.0
 11
128.0709942151
 21
211.1693531598
 31
0.0
  0
LINE
  5
FA
330
1F
100
AcDbEntity
  8
0
  6
Continuous
 62
     7
370
    15
100
AcDbLine
 10
153.5684218432
 20
211.1693531598
 30
0.0
 11
153.5684218432
 21
172.1693531598
 31
0.0
  0
LINE
  5
FB
330
1F
100
AcDbEntity
  8
0
  6
Continuous
 62
     7
370
    15
100
AcDbLine
 10
153.5684218432
 20
211.1693531598
 30
0.0
 11
152.2013757751
 21
211.1693531598
 31
0.0
  0
LINE
  5
FC
330
1F
100
AcDbEntity
  8
0
  6
Continuous
 62
     7
370
    15
100
AcDbLine
 10
138.0057153553
 20
172.1693531598
 30
0.0
 11
143.6337007031
 21
172.1693531598
 31
0.0
  0
LINE
  5
FD
330
1F
100
AcDbEntity
  8
0
  6
Continuous
 62
     7
370
    15
100
AcDbLine
 10
154.5633044949
 20
211.1693531598
 30
0.0
 11
154.5633044949
 21
172.1693531598
 31
0.0
  0
LINE
  5
FE
330
1F
100
AcDbEntity
  8
0
  6
Continuous
 62
     7
370
    15
100
AcDbLine
 10
154.2641174749
 20
172.1693531598
 30
0.0
 11
154.2641174749
 21
211.1693531598
 31
0.0
  0
LINE
  5
FF
330
1F
100
AcDbEntity
  8
0
  6
Continuous
 62
     7
370
    15
100
AcDbLine
 10
154.2641174749
 20
211.1693531598
 30
0.0
 11
154.5633044949
 21
211.1693531598
 31
0.0
  0
LINE
  5
100
330
1F
100
AcDbEntity
  8
0
  6
Continuous
 62
     7
370
    15
100
AcDbLine
 10
127.3752985835
 20
211.1693531598
 30
0.0
 11
127.3752985835
 21
172.1693531598
 31
0.0
  0
LINE
  5
101
330
1F
100
AcDbEntity
  8
0
  6
Continuous
 62
     7
370
    15
100
AcDbLine
 10
127.0761115635
 20
172.1693531598
 30
0.0
 11
127.0761115635
 21
211.1693531598
 31
0.0
  0
LINE
  5
102
330
1F
100
AcDbEntity
  8
0
  6
Continuous
 62
     7
370
    15
100
AcDbLine
 10
127.0761115635
 20
211.1693531598
 30
0.0
 11
127.3752985835
 21
211.1693531598
 31
0.0
  0
LINE
  5
103
330
1F
100
AcDbEntity
  8
0
  6
Continuous
 62
     7
370
    15
100
AcDbLine
 10
154.2641174749
 20
211.1693531598
 30
0.0
 11
153.5684218432
 21
211.1693531598
 31
0.0
  0
LINE
  5
104
330
1F
100
AcDbEntity
  8
0
  6
Continuous
 62
     7
370
    15
100
AcDbLine
 10
128.0709942151
 20
211.1693531598
 30
0.0
 11
127.3752985835
 21
211.1693531598
 31
0.0
  0
LINE
  5
105
330
1F
100
AcDbEntity
  8
0
  6
Continuous
 62
     7
370
    15
100
AcDbLine
 10
155.0197080292
 20
211.1693531598
 30
0.0
 11
155.0197080292
 21
172.1693531598
 31
0.0
  0
LINE
  5
106
330
1F
100
AcDbEntity
  8
0
  6
Continuous
 62
     7
370
    15
100
AcDbLine
 10
154.5633044949
 20
172.1693531598
 30
0.0
 11
155.0197080292
 21
172.1693531598
 31
0.0
  0
LINE
  5
107
330
1F
100
AcDbEntity
  8
0
  6
Continuous
 62
     7
370
    15
100
AcDbLine
 10
154.5633044949
 20
211.1693531598
 30
0.0
 11
155.0197080292
 21
211.1693531598
 31
0.0
  0
LINE
  5
108
330
1F
100
AcDbEntity
  8
0
  6
Continuous
 62
     7
370
    15
100
AcDbLine
 10
126.6197080292
 20
211.1693531598
 30
0.0
 11
126.6197080292
 21
172.1693531598
 31
0.0
  0
LINE
  5
109
330
1F
100
AcDbEntity
  8
0
  6
Continuous
 62
     7
370
    15
100
AcDbLine
 10
126.6197080292
 20
172.1693531598
 30
0.0
 11
127.0761115635
 21
172.1693531598
 31
0.0
  0
LINE
  5
10A
330
1F
100
AcDbEntity
  8
0
  6
Continuous
 62
     7
370
    15
100
AcDbLine
 10
126.6197080292
 20
211.1693531598
 30
0.0
 11
127.0761115635
 21
211.1693531598
 31
0.0
  0
LINE
  5
10B
330
1F
100
AcDbEntity
  8
0
  6
Continuous
 62
     7
370
    15
100
AcDbLine
 10
126.3639625231
 20
172.1693531598
 30
0.0
 11
126.3639625231
 21
194.1693531598
 31
0.0
  0
LINE
  5
10C
330
1F
100
AcDbEntity
  8
0
  6
Continuous
 62
     7
370
    15
100
AcDbLine
 10
126.6197080292
 20
194.1693531598
 30
0.0
 11
126.3639625231
 21
194.1693531598
 31
0.0
  0
LINE
  5
10D
330
1F
100
AcDbEntity
  8
0
  6
Continuous
 62
     7
370
    15
100
AcDbLine
 10
126.6197080292
 20
172.1693531598
 30
0.0
 11
126.3639625231
 21
172.1693531598
 31
0.0
  0
LINE
  5
10E
330
1F
100
AcDbEntity
  8
0
  6
Continuous
 62
     7
370
    15
100
AcDbLine
 10
155.2754535353
 20
194.1693531598
 30
0.0
 11
155.2754535353
 21
172.1693531598
 31
0.0
  0
LINE
  5
10F
330
1F
100
AcDbEntity
  8
0
  6
Continuous
 62
     7
370
    15
100
AcDbLine
 10
155.2754535353
 20
194.1693531598
 30
0.0
 11
155.0197080292
 21
194.1693531598
 31
0.0
  0
LINE
  5
110
330
1F
100
AcDbEntity
  8
0
  6
Continuous
 62
     7
370
    15
100
AcDbLine
 10
155.2754535353
 20
172.1693531598
 30
0.0
 11
155.0197080292
 21
172.1693531598
 31
0.0
  0
LINE
  5
111
330
1F
100
AcDbEntity
  8
0
  6
Continuous
 62
     7
370
    15
100
AcDbLine
 10
163.8197080292
 20
193.1693531598
 30
0.0
 11
162.8197080292
 21
194.1693531598
 31
0.0
  0
LINE
  5
112
330
1F
100
AcDbEntity
  8
0
  6
Continuous
 62
     7
370
    15
100
AcDbLine
 10
163.8197080292
 20
173.1693531598
 30
0.0
 11
163.8197080292
 21
193.1693531598
 31
0.0
  0
LINE
  5
113
330
1F
100
AcDbEntity
  8
0
  6
Continuous
 62
     7
370
    15
100
AcDbLine
 10
162.8197080292
 20
172.1693531598
 30
0.0
 11
163.8197080292
 21
173.1693531598
 31
0.0
  0
LINE
  5
114
330
1F
100
AcDbEntity
  8
0
  6
Continuous
 62
     7
370
    15
100
AcDbLine
 10
162.0697080292
 20
189.6693531598
 30
0.0
 11
162.0697080292
 21
184.6693531598
 31
0.0
  0
ARC
  5
115
330
1F
100
AcDbEntity
  8
0
  6
Continuous
 62
     7
370
    15
100
AcDbCircle
 10
159.8197080292
 20
189.6693531598
 30
0.0
 40
2.250000000000028
100
AcDbArc
 50
0.0
 51
180.0
  0
LINE
  5
116
330
1F
100
AcDbEntity
  8
0
  6
Continuous
 62
     7
370
    15
100
AcDbLine
 10
157.5697080292
 20
184.6693531598
 30
0.0
 11
157.5697080292
 21
189.6693531598
 31
0.0
  0
ARC
  5
117
330
1F
100
AcDbEntity
  8
0
  6
Continuous
 62
     7
370
    15
100
AcDbCircle
 10
159.8197080292
 20
184.6693531598
 30
0.0
 40
2.250000000000028
100
AcDbArc
 50
180.0
 51
0.0
  0
LINE
  5
118
330
1F
100
AcDbEntity
  8
0
  6
Continuous
 62
     7
370
    15
100
AcDbLine
 10
155.2754535353
 20
194.1693531598
 30
0.0
 11
162.8197080292
 21
194.1693531598
 31
0.0
  0
LINE
  5
119
330
1F
100
AcDbEntity
  8
0
  6
Continuous
 62
     7
370
    15
100
AcDbLine
 10
162.8197080292
 20
172.1693531598
 30
0.0
 11
155.2754535353
 21
172.1693531598
 31
0.0
  0
LINE
  5
11A
330
1F
100
AcDbEntity
  8
0
  6
Continuous
 62
     7
370
    15
100
AcDbLine
 10
118.8197080292
 20
194.1693531598
 30
0.0
 11
117.8197080292
 21
193.1693531598
 31
0.0
  0
LINE
  5
11B
330
1F
100
AcDbEntity
  8
0
  6
Continuous
 62
     7
370
    15
100
AcDbLine
 10
117.8197080292
 20
193.1693531598
 30
0.0
 11
117.8197080292
 21
173.1693531598
 31
0.0
  0
LINE
  5
11C
330
1F
100
AcDbEntity
  8
0
  6
Continuous
 62
     7
370
    15
100
AcDbLine
 10
119.5697080292
 20
184.6693531598
 30
0.0
 11
119.5697080292
 21
189.6693531598
 31
0.0
  0
ARC
  5
11D
330
1F
100
AcDbEntity
  8
0
  6
Continuous
 62
     7
370
    15
100
AcDbCircle
 10
121.8197080292
 20
184.6693531598
 30
0.0
 40
2.25
100
AcDbArc
 50
180.0
 51
0.0
  0
LINE
  5
11E
330
1F
100
AcDbEntity
  8
0
  6
Continuous
 62
     7
370
    15
100
AcDbLine
 10
117.8197080292
 20
173.1693531598
 30
0.0
 11
118.8197080292
 21
172.1693531598
 31
0.0
  0
ARC
  5
11F
330
1F
100
AcDbEntity
  8
0
  6
Continuous
 62
     7
370
    15
100
AcDbCircle
 10
121.8197080292
 20
189.6693531598
 30
0.0
 40
2.25
100
AcDbArc
 50
0.0
 51
180.0
  0
LINE
  5
120
330
1F
100
AcDbEntity
  8
0
  6
Continuous
 62
     7
370
    15
100
AcDbLine
 10
124.0697080292
 20
189.6693531598
 30
0.0
 11
124.0697080292
 21
184.6693531598
 31
0.0
  0
LINE
  5
121
330
1F
100
AcDbEntity
  8
0
  6
Continuous
 62
     7
370
    15
100
AcDbLine
 10
118.8197080292
 20
194.1693531598
 30
0.0
 11
126.3639625231
 21
194.1693531598
 31
0.0
  0
LINE
  5
122
330
1F
100
AcDbEntity
  8
0
  6
Continuous
 62
     7
370
    15
100
AcDbLine
 10
126.3639625231
 20
172.1693531598
 30
0.0
 11
118.8197080292
 21
172.1693531598
 31
0.0
  0
LINE
  5
123
330
1F
100
AcDbEntity
  8
0
  6
Continuous
 62
     7
370
    15
100
AcDbLine
 10
116.8197080292
 20
174.1693531598
 30
0.0
 11
116.8197080292
 21
192.1693531598
 31
0.0
  0
LINE
  5
124
330
1F
100
AcDbEntity
  8
0
  6
Continuous
 62
     7
370
    15
100
AcDbLine
 10
117.8197080292
 20
193.1693531598
 30
0.0
 11
116.8197080292
 21
192.1693531598
 31
0.0
  0
LINE
  5
125
330
1F
100
AcDbEntity
  8
0
  6
Continuous
 62
     7
370
    15
100
AcDbLine
 10
116.8197080292
 20
174.1693531598
 30
0.0
 11
117.8197080292
 21
173.1693531598
 31
0.0
  0
LINE
  5
126
330
1F
100
AcDbEntity
  8
0
  6
Continuous
 62
     7
370
    15
100
AcDbLine
 10
164.8197080292
 20
192.1693531598
 30
0.0
 11
164.8197080292
 21
174.1693531598
 31
0.0
  0
LINE
  5
127
330
1F
100
AcDbEntity
  8
0
  6
Continuous
 62
     7
370
    15
100
AcDbLine
 10
163.8197080292
 20
173.1693531598
 30
0.0
 11
164.8197080292
 21
174.1693531598
 31
0.0
  0
LINE
  5
128
330
1F
100
AcDbEntity
  8
0
  6
Continuous
 62
     7
370
    15
100
AcDbLine
 10
164.8197080292
 20
192.1693531598
 30
0.0
 11
163.8197080292
 21
193.1693531598
 31
0.0
  0
LINE
  5
129
330
1F
100
AcDbEntity
  8
0
  6
Continuous
 62
     7
370
    15
100
AcDbLine
 10
148.3296483773
 20
214.1693531598
 30
0.0
 11
148.4553920491
 21
214.1693531598
 31
0.0
  0
LINE
  5
12A
330
1F
100
AcDbEntity
  8
0
  6
Continuous
 62
     7
370
    15
100
AcDbLine
 10
146.1840240093
 20
214.1693531598
 30
0.0
 11
148.3296483773
 21
214.1693531598
 31
0.0
  0
LINE
  5
12B
330
1F
100
AcDbEntity
  8
0
  6
Continuous
 62
     7
370
    15
100
AcDbLine
 10
146.7940777224
 20
204.8693531598
 30
0.0
 11
147.845338336
 21
204.8693531598
 31
0.0
  0
LINE
  5
12C
330
1F
100
AcDbEntity
  8
0
  6
Continuous
 62
     7
370
    15
100
AcDbLine
 10
147.7322850143
 20
204.6693531598
 30
0.0
 11
146.9071310441
 21
204.6693531598
 31
0.0
  0
LINE
  5
12D
330
1F
100
AcDbEntity
  8
0
  6
Continuous
 62
     7
370
    15
100
AcDbLine
 10
143.8197080292
 20
169.1693531598
 30
0.0
 11
143.8197080292
 21
166.6693531598
 31
0.0
  0
LINE
  5
12E
330
1F
100
AcDbEntity
  8
0
  6
Continuous
 62
     7
370
    15
100
AcDbLine
 10
143.4654593403
 20
166.6693531598
 30
0.0
 11
143.8197080292
 21
166.6693531598
 31
0.0
  0
LINE
  5
12F
330
1F
100
AcDbEntity
  8
0
  6
Continuous
 62
     7
370
    15
100
AcDbLine
 10
143.4654593403
 20
169.1693531598
 30
0.0
 11
143.4654593403
 21
166.6693531598
 31
0.0
  0
LINE
  5
130
330
1F
100
AcDbEntity
  8
0
  6
Continuous
 62
     7
370
    15
100
AcDbLine
 10
138.1739567181
 20
169.1693531598
 30
0.0
 11
138.1739567181
 21
166.6693531598
 31
0.0
  0
LINE
  5
131
330
1F
100
AcDbEntity
  8
0
  6
Continuous
 62
     7
370
    15
100
AcDbLine
 10
137.8197080292
 20
166.6693531598
 30
0.0
 11
138.1739567181
 21
166.6693531598
 31
0.0
  0
LINE
  5
132
330
1F
100
AcDbEntity
  8
0
  6
Continuous
 62
     7
370
    15
100
AcDbLine
 10
137.8197080292
 20
169.1693531598
 30
0.0
 11
137.8197080292
 21
166.6693531598
 31
0.0
  0
SPLINE
  5
133
330
1F
100
AcDbEntity
  8
0
  6
Continuous
 62
     7
370
    15
100
AcDbSpline
210
0.0
220
0.0
230
1.0
 70
     8
 71
     3
 72
     8
 73
     4
 74
     0
 42
0.00000001
 43
0.00000001
 12
1.0
 22
0.0
 32
0.0
 13
1.0
 23
0.0
 33
0.0
 40
0.0
 40
0.0
 40
0.0
 40
0.0
 40
1.0
 40
1.0
 40
1.0
 40
1.0
 10
138.1739567181327
 20
166.669353159845
 30
0.0
 10
138.4467727176536
 20
166.488902337742
 30
0.0
 10
138.7259752965128
 20
166.3192189776752
 30
0.0
 10
139.0169323914652
 20
166.169353159845
 30
0.0
  0
LINE
  5
134
330
1F
100
AcDbEntity
  8
0
  6
Continuous
 62
     7
370
    15
100
AcDbLine
 10
139.0169323915
 20
166.1693531598
 30
0.0
 11
137.8197080292
 21
166.1693531598
 31
0.0
  0
SPLINE
  5
135
330
1F
100
AcDbEntity
  8
0
  6
Continuous
 62
     7
370
    15
100
AcDbSpline
210
0.0
220
0.0
230
1.0
 70
    24
 71
     3
 72
     8
 73
     4
 74
     0
 42
0.00000001
 43
0.00000001
 12
1.0
 22
0.0
 32
0.0
 13
1.0
 23
0.0
 33
0.0
 40
0.0
 40
0.0
 40
0.0
 40
0.0
 40
1.0
 40
1.0
 40
1.0
 40
1.0
 10
137.8197080291973
 20
166.169353159845
 30
0.0
 10
137.8197080291973
 20
166.3192189776752
 30
0.0
 10
137.8197080291973
 20
166.488902337742
 30
0.0
 10
137.8197080291973
 20
166.669353159845
 30
0.0
  0
SPLINE
  5
136
330
1F
100
AcDbEntity
  8
0
  6
Continuous
 62
     7
370
    15
100
AcDbSpline
210
0.0
220
0.0
230
1.0
 70
     8
 71
     3
 72
     8
 73
     4
 74
     0
 42
0.00000001
 43
0.00000001
 12
1.0
 22
0.0
 32
0.0
 13
1.0
 23
0.0
 33
0.0
 40
0.0
 40
0.0
 40
0.0
 40
0.0
 40
1.0
 40
1.0
 40
1.0
 40
1.0
 10
142.6224836669293
 20
166.169353159845
 30
0.0
 10
142.9134407618817
 20
166.3192189776752
 30
0.0
 10
143.192643340741
 20
166.488902337742
 30
0.0
 10
143.4654593402619
 20
166.669353159845
 30
0.0
  0
LINE
  5
137
330
1F
100
AcDbEntity
  8
0
  6
Continuous
 62
     7
370
    15
100
AcDbLine
 10
142.6224836669
 20
166.1693531598
 30
0.0
 11
139.0169323915
 21
166.1693531598
 31
0.0
  0
SPLINE
  5
138
330
1F
100
AcDbEntity
  8
0
  6
Continuous
 62
     7
370
    15
100
AcDbSpline
210
0.0
220
0.0
230
1.0
 70
    24
 71
     3
 72
     8
 73
     4
 74
     0
 42
0.00000001
 43
0.00000001
 12
1.0
 22
0.0
 32
0.0
 13
1.0
 23
0.0
 33
0.0
 40
0.0
 40
0.0
 40
0.0
 40
0.0
 40
1.0
 40
1.0
 40
1.0
 40
1.0
 10
143.8197080291973
 20
166.669353159845
 30
0.0
 10
143.8197080291973
 20
166.488902337742
 30
0.0
 10
143.8197080291973
 20
166.3192189776752
 30
0.0
 10
143.8197080291973
 20
166.169353159845
 30
0.0
  0
LINE
  5
139
330
1F
100
AcDbEntity
  8
0
  6
Continuous
 62
     7
370
    15
100
AcDbLine
 10
143.8197080292
 20
166.1693531598
 30
0.0
 11
142.6224836669
 21
166.1693531598
 31
0.0
  0
LINE
  5
13A
330
1F
100
AcDbEntity
  8
0
  6
Continuous
 62
     7
370
    15
100
AcDbLine
 10
135.3296483773
 20
214.1693531598
 30
0.0
 11
135.4553920491
 21
214.1693531598
 31
0.0
  0
LINE
  5
13B
330
1F
100
AcDbEntity
  8
0
  6
Continuous
 62
     7
370
    15
100
AcDbLine
 10
133.1840240093
 20
214.1693531598
 30
0.0
 11
135.3296483773
 21
214.1693531598
 31
0.0
  0
LINE
  5
13C
330
1F
100
AcDbEntity
  8
0
  6
Continuous
 62
     7
370
    15
100
AcDbLine
 10
133.7940777224
 20
204.8693531598
 30
0.0
 11
134.845338336
 21
204.8693531598
 31
0.0
  0
LINE
  5
13D
330
1F
100
AcDbEntity
  8
0
  6
Continuous
 62
     7
370
    15
100
AcDbLine
 10
134.7322850143
 20
204.6693531598
 30
0.0
 11
133.9071310441
 21
204.6693531598
 31
0.0
  0
LINE
  5
13E
330
1F
100
AcDbEntity
  8
0
  6
Continuous
 62
     7
370
    15
100
AcDbLine
 10
131.5697080292
 20
170.6693531598
 30
0.0
 11
131.5697080292
 21
169.3693531598
 31
0.0
  0
LINE
  5
13F
330
1F
100
AcDbEntity
  8
0
  6
Continuous
 62
     7
370
    15
100
AcDbLine
 10
130.1353483179
 20
169.3693531598
 30
0.0
 11
131.5697080292
 21
169.3693531598
 31
0.0
  0
LINE
  5
140
330
1F
100
AcDbEntity
  8
0
  6
Continuous
 62
     7
370
    15
100
AcDbLine
 10
130.1353483179
 20
169.3693531598
 30
0.0
 11
130.1353483179
 21
172.1693531598
 31
0.0
  0
LINE
  5
141
330
1F
100
AcDbEntity
  8
0
  6
Continuous
 62
     7
370
    15
100
AcDbLine
 10
134.8832163561
 20
172.1693531598
 30
0.0
 11
130.1353483179
 21
172.1693531598
 31
0.0
  0
LINE
  5
142
330
1F
100
AcDbEntity
  8
0
  6
Continuous
 62
     7
370
    15
100
AcDbLine
 10
134.8832163561
 20
170.6693531598
 30
0.0
 11
134.8832163561
 21
172.1693531598
 31
0.0
  0
LINE
  5
143
330
1F
100
AcDbEntity
  8
0
  6
Continuous
 62
     7
370
    15
100
AcDbLine
 10
134.8832163561
 20
170.6693531598
 30
0.0
 11
131.5697080292
 21
170.6693531598
 31
0.0
  0
LINE
  5
144
330
1F
100
AcDbEntity
  8
0
  6
Continuous
 62
     7
370
    15
100
AcDbLine
 10
150.0697080292
 20
169.3693531598
 30
0.0
 11
151.5040677405
 21
169.3693531598
 31
0.0
  0
ARC
  5
145
330
1F
100
AcDbEntity
  8
0
  6
Continuous
 62
     7
370
    15
100
AcDbCircle
 10
143.5197080292
 20
157.8693531598
 30
0.0
 40
13.99999999999984
100
AcDbArc
 50
53.8177127788
 51
55.2280559681
  0
LINE
  5
146
330
1F
100
AcDbEntity
  8
0
  6
Continuous
 62
     7
370
    15
100
AcDbLine
 10
151.7846944176
 20
169.1693531598
 30
0.0
 11
150.0697080292
 21
169.1693531598
 31
0.0
  0
LINE
  5
147
330
1F
100
AcDbEntity
  8
0
  6
Continuous
 62
     7
370
    15
100
AcDbLine
 10
150.0697080292
 20
169.1693531598
 30
0.0
 11
150.0697080292
 21
169.3693531598
 31
0.0
  0
LINE
  5
148
330
1F
100
AcDbEntity
  8
0
  6
Continuous
 62
     7
370
    15
100
AcDbLine
 10
131.5697080292
 20
169.1693531598
 30
0.0
 11
129.8547216408
 21
169.1693531598
 31
0.0
  0
ARC
  5
149
330
1F
100
AcDbEntity
  8
0
  6
Continuous
 62
     7
370
    15
100
AcDbCircle
 10
138.1197080292
 20
157.8693531598
 30
0.0
 40
13.99999999999984
100
AcDbArc
 50
124.7719440319
 51
126.1822872212
  0
LINE
  5
14A
330
1F
100
AcDbEntity
  8
0
  6
Continuous
 62
     7
370
    15
100
AcDbLine
 10
131.5697080292
 20
169.3693531598
 30
0.0
 11
131.5697080292
 21
169.1693531598
 31
0.0
  0
LINE
  5
14B
330
1F
100
AcDbEntity
  8
0
  6
Continuous
 62
     7
370
    15
100
AcDbLine
 10
151.5040677405
 20
169.3693531598
 30
0.0
 11
151.5040677405
 21
172.1693531598
 31
0.0
  0
LINE
  5
14C
330
1F
100
AcDbEntity
  8
0
  6
Continuous
 62
     7
370
    15
100
AcDbLine
 10
155.0197080292
 20
169.3693531598
 30
0.0
 11
155.0197080292
 21
172.1693531598
 31
0.0
  0
LINE
  5
14D
330
1F
100
AcDbEntity
  8
0
  6
Continuous
 62
     7
370
    15
100
AcDbLine
 10
154.8197080292
 20
169.1693531598
 30
0.0
 11
155.0197080292
 21
169.3693531598
 31
0.0
  0
LINE
  5
14E
330
1F
100
AcDbEntity
  8
0
  6
Continuous
 62
     7
370
    15
100
AcDbLine
 10
151.7846944176
 20
169.1693531598
 30
0.0
 11
154.8197080292
 21
169.1693531598
 31
0.0
  0
LINE
  5
14F
330
1F
100
AcDbEntity
  8
0
  6
Continuous
 62
     7
370
    15
100
AcDbLine
 10
151.5040677405
 20
172.1693531598
 30
0.0
 11
155.0197080292
 21
172.1693531598
 31
0.0
  0
LINE
  5
150
330
1F
100
AcDbEntity
  8
0
  6
Continuous
 62
     7
370
    15
100
AcDbLine
 10
126.8197080292
 20
169.1693531598
 30
0.0
 11
129.8547216408
 21
169.1693531598
 31
0.0
  0
LINE
  5
151
330
1F
100
AcDbEntity
  8
0
  6
Continuous
 62
     7
370
    15
100
AcDbLine
 10
126.6197080292
 20
169.3693531598
 30
0.0
 11
126.8197080292
 21
169.1693531598
 31
0.0
  0
LINE
  5
152
330
1F
100
AcDbEntity
  8
0
  6
Continuous
 62
     7
370
    15
100
AcDbLine
 10
126.6197080292
 20
169.3693531598
 30
0.0
 11
126.6197080292
 21
172.1693531598
 31
0.0
  0
LINE
  5
153
330
1F
100
AcDbEntity
  8
0
  6
Continuous
 62
     7
370
    15
100
AcDbLine
 10
126.6197080292
 20
172.1693531598
 30
0.0
 11
130.1353483179
 21
172.1693531598
 31
0.0
  0
LINE
  5
154
330
1F
100
AcDbEntity
  8
0
  6
Continuous
 62
     7
370
    15
100
AcDbLine
 10
146.7561997023
 20
172.1693531598
 30
0.0
 11
146.7561997023
 21
170.6693531598
 31
0.0
  0
LINE
  5
155
330
1F
100
AcDbEntity
  8
0
  6
Continuous
 62
     7
370
    15
100
AcDbLine
 10
146.7561997023
 20
170.6693531598
 30
0.0
 11
145.1949502027
 21
170.6693531598
 31
0.0
  0
LINE
  5
156
330
1F
100
AcDbEntity
  8
0
  6
Continuous
 62
     7
370
    15
100
AcDbLine
 10
145.1949502027
 20
172.1693531598
 30
0.0
 11
145.1949502027
 21
170.6693531598
 31
0.0
  0
LINE
  5
157
330
1F
100
AcDbEntity
  8
0
  6
Continuous
 62
     7
370
    15
100
AcDbLine
 10
145.1949502027
 20
172.1693531598
 30
0.0
 11
146.7561997023
 21
172.1693531598
 31
0.0
  0
LINE
  5
158
330
1F
100
AcDbEntity
  8
0
  6
Continuous
 62
     7
370
    15
100
AcDbLine
 10
136.4444658557
 20
170.6693531598
 30
0.0
 11
136.4444658557
 21
172.1693531598
 31
0.0
  0
LINE
  5
159
330
1F
100
AcDbEntity
  8
0
  6
Continuous
 62
     7
370
    15
100
AcDbLine
 10
134.8832163561
 20
172.1693531598
 30
0.0
 11
136.4444658557
 21
172.1693531598
 31
0.0
  0
LINE
  5
15A
330
1F
100
AcDbEntity
  8
0
  6
Continuous
 62
     7
370
    15
100
AcDbLine
 10
136.4444658557
 20
170.6693531598
 30
0.0
 11
134.8832163561
 21
170.6693531598
 31
0.0
  0
LINE
  5
15B
330
1F
100
AcDbEntity
  8
0
  6
Continuous
 62
     7
370
    15
100
AcDbLine
 10
150.0697080292
 20
170.6693531598
 30
0.0
 11
146.7561997023
 21
170.6693531598
 31
0.0
  0
LINE
  5
15C
330
1F
100
AcDbEntity
  8
0
  6
Continuous
 62
     7
370
    15
100
AcDbLine
 10
150.0697080292
 20
170.6693531598
 30
0.0
 11
150.0697080292
 21
169.3693531598
 31
0.0
  0
LINE
  5
15D
330
1F
100
AcDbEntity
  8
0
  6
Continuous
 62
     7
370
    15
100
AcDbLine
 10
151.5040677405
 20
172.1693531598
 30
0.0
 11
146.7561997023
 21
172.1693531598
 31
0.0
  0
LINE
  5
15E
330
1F
100
AcDbEntity
  8
0
  6
Continuous
 62
     7
370
    15
100
AcDbLine
 10
138.0057153553
 20
172.1693531598
 30
0.0
 11
138.0057153553
 21
170.6693531598
 31
0.0
  0
LINE
  5
15F
330
1F
100
AcDbEntity
  8
0
  6
Continuous
 62
     7
370
    15
100
AcDbLine
 10
138.0057153553
 20
170.6693531598
 30
0.0
 11
136.4444658557
 21
170.6693531598
 31
0.0
  0
LINE
  5
160
330
1F
100
AcDbEntity
  8
0
  6
Continuous
 62
     7
370
    15
100
AcDbLine
 10
143.6337007031
 20
170.6693531598
 30
0.0
 11
143.6337007031
 21
172.1693531598
 31
0.0
  0
LINE
  5
161
330
1F
100
AcDbEntity
  8
0
  6
Continuous
 62
     7
370
    15
100
AcDbLine
 10
145.1949502027
 20
170.6693531598
 30
0.0
 11
143.6337007031
 21
170.6693531598
 31
0.0
  0
LINE
  5
162
330
1F
100
AcDbEntity
  8
0
  6
Continuous
 62
     7
370
    15
100
AcDbLine
 10
144.5758259456
 20
170.6693531598
 30
0.0
 11
144.5758259456
 21
169.1693531598
 31
0.0
  0
LINE
  5
163
330
1F
100
AcDbEntity
  8
0
  6
Continuous
 62
     7
370
    15
100
AcDbLine
 10
143.5780506424
 20
169.1693531598
 30
0.0
 11
143.5780506424
 21
170.6693531598
 31
0.0
  0
LINE
  5
164
330
1F
100
AcDbEntity
  8
0
  6
Continuous
 62
     7
370
    15
100
AcDbLine
 10
144.5758259456
 20
169.1693531598
 30
0.0
 11
143.5780506424
 21
169.1693531598
 31
0.0
  0
LINE
  5
165
330
1F
100
AcDbEntity
  8
0
  6
Continuous
 62
     7
370
    15
100
AcDbLine
 10
137.0635901128
 20
169.1693531598
 30
0.0
 11
137.0635901128
 21
170.6693531598
 31
0.0
  0
LINE
  5
166
330
1F
100
AcDbEntity
  8
0
  6
Continuous
 62
     7
370
    15
100
AcDbLine
 10
138.061365416
 20
170.6693531598
 30
0.0
 11
138.061365416
 21
169.1693531598
 31
0.0
  0
LINE
  5
167
330
1F
100
AcDbEntity
  8
0
  6
Continuous
 62
     7
370
    15
100
AcDbLine
 10
138.061365416
 20
169.1693531598
 30
0.0
 11
137.0635901128
 21
169.1693531598
 31
0.0
  0
LINE
  5
168
330
1F
100
AcDbEntity
  8
0
  6
Continuous
 62
     7
370
    15
100
AcDbLine
 10
138.061365416
 20
169.1693531598
 30
0.0
 11
143.5780506424
 21
169.1693531598
 31
0.0
  0
LINE
  5
169
330
1F
100
AcDbEntity
  8
0
  6
Continuous
 62
     7
370
    15
100
AcDbLine
 10
143.5780506424
 20
170.6693531598
 30
0.0
 11
143.6337007031
 21
170.6693531598
 31
0.0
  0
LINE
  5
16A
330
1F
100
AcDbEntity
  8
0
  6
Continuous
 62
     7
370
    15
100
AcDbLine
 10
138.0057153553
 20
170.6693531598
 30
0.0
 11
138.061365416
 21
170.6693531598
 31
0.0
  0
LINE
  5
16B
330
1F
100
AcDbEntity
  8
0
  6
Continuous
 62
     7
370
    15
100
AcDbLine
 10
144.5758259456
 20
169.1693531598
 30
0.0
 11
146.1840240093
 21
169.1693531598
 31
0.0
  0
LINE
  5
16C
330
1F
100
AcDbEntity
  8
0
  6
Continuous
 62
     7
370
    15
100
AcDbLine
 10
148.4553920491
 20
169.1693531598
 30
0.0
 11
150.0697080292
 21
169.1693531598
 31
0.0
  0
LINE
  5
16D
330
1F
100
AcDbEntity
  8
0
  6
Continuous
 62
     7
370
    15
100
AcDbLine
 10
131.5697080292
 20
169.1693531598
 30
0.0
 11
133.1840240093
 21
169.1693531598
 31
0.0
  0
LINE
  5
16E
330
1F
100
AcDbEntity
  8
0
  6
Continuous
 62
     7
370
    15
100
AcDbLine
 10
135.4553920491
 20
169.1693531598
 30
0.0
 11
137.0635901128
 21
169.1693531598
 31
0.0
  0
LINE
  5
16F
330
1F
100
AcDbEntity
  8
0
  6
Continuous
 62
     7
370
    15
100
AcDbLine
 10
135.4553920491
 20
169.1693531598
 30
0.0
 11
133.1840240093
 21
169.1693531598
 31
0.0
  0
LINE
  5
170
330
1F
100
AcDbEntity
  8
0
  6
Continuous
 62
     7
370
    15
100
AcDbLine
 10
134.845338336
 20
178.4693531598
 30
0.0
 11
133.7940777224
 21
178.4693531598
 31
0.0
  0
LINE
  5
171
330
1F
100
AcDbEntity
  8
0
  6
Continuous
 62
     7
370
    15
100
AcDbLine
 10
133.9071310441
 20
178.6693531598
 30
0.0
 11
134.7322850143
 21
178.6693531598
 31
0.0
  0
LINE
  5
172
330
1F
100
AcDbEntity
  8
0
  6
Continuous
 62
     7
370
    15
100
AcDbLine
 10
148.4553920491
 20
169.1693531598
 30
0.0
 11
146.1840240093
 21
169.1693531598
 31
0.0
  0
LINE
  5
173
330
1F
100
AcDbEntity
  8
0
  6
Continuous
 62
     7
370
    15
100
AcDbLine
 10
147.845338336
 20
178.4693531598
 30
0.0
 11
146.7940777224
 21
178.4693531598
 31
0.0
  0
LINE
  5
174
330
1F
100
AcDbEntity
  8
0
  6
Continuous
 62
     7
370
    15
100
AcDbLine
 10
146.9071310441
 20
178.6693531598
 30
0.0
 11
147.7322850143
 21
178.6693531598
 31
0.0
  0
LINE
  5
175
330
1F
100
AcDbEntity
  8
0
  6
Continuous
 62
     7
370
    15
100
AcDbLine
 10
123.3197080292
 20
204.3901115458
 30
0.0
 11
125.8197080292
 21
204.3901115458
 31
0.0
  0
LINE
  5
176
330
1F
100
AcDbEntity
  8
0
  6
Continuous
 62
     7
370
    15
100
AcDbLine
 10
123.3197080292
 20
204.3901115458
 30
0.0
 11
123.3197080292
 21
208.3309550083
 31
0.0
  0
LINE
  5
177
330
1F
100
AcDbEntity
  8
0
  6
Continuous
 62
     7
370
    15
100
AcDbLine
 10
125.8197080292
 20
208.3309550083
 30
0.0
 11
123.3197080292
 21
208.3309550083
 31
0.0
  0
LINE
  5
178
330
1F
100
AcDbEntity
  8
0
  6
Continuous
 62
     7
370
    15
100
AcDbLine
 10
125.8197080292
 20
204.3901115458
 30
0.0
 11
125.8197080292
 21
204.4893128303
 31
0.0
  0
LINE
  5
179
330
1F
100
AcDbEntity
  8
0
  6
Continuous
 62
     7
370
    15
100
AcDbLine
 10
125.8197080292
 20
208.2317537238
 30
0.0
 11
125.8197080292
 21
208.3309550083
 31
0.0
  0
LINE
  5
17A
330
1F
100
AcDbEntity
  8
0
  6
Continuous
 62
     7
370
    15
100
AcDbLine
 10
123.3197080292
 20
208.3309550083
 30
0.0
 11
123.3197080292
 21
211.1101966223
 31
0.0
  0
LINE
  5
17B
330
1F
100
AcDbEntity
  8
0
  6
Continuous
 62
     7
370
    15
100
AcDbLine
 10
125.8197080292
 20
211.1101966223
 30
0.0
 11
123.3197080292
 21
211.1101966223
 31
0.0
  0
LINE
  5
17C
330
1F
100
AcDbEntity
  8
0
  6
Continuous
 62
     7
370
    15
100
AcDbLine
 10
125.8197080292
 20
208.3309550083
 30
0.0
 11
125.8197080292
 21
208.4009157517
 31
0.0
  0
LINE
  5
17D
330
1F
100
AcDbEntity
  8
0
  6
Continuous
 62
     7
370
    15
100
AcDbLine
 10
125.8197080292
 20
211.040235879
 30
0.0
 11
125.8197080292
 21
211.1101966223
 31
0.0
  0
LINE
  5
17E
330
1F
100
AcDbEntity
  8
0
  6
Continuous
 62
     7
370
    15
100
AcDbLine
 10
125.8197080292
 20
203.2285096973
 30
0.0
 11
123.3197080292
 21
203.2285096974
 31
0.0
  0
LINE
  5
17F
330
1F
100
AcDbEntity
  8
0
  6
Continuous
 62
     7
370
    15
100
AcDbLine
 10
123.3197080292
 20
203.2285096974
 30
0.0
 11
123.3197080292
 21
204.3901115458
 31
0.0
  0
LINE
  5
180
330
1F
100
AcDbEntity
  8
0
  6
Continuous
 62
     7
370
    15
100
AcDbLine
 10
125.8197080292
 20
204.3608710046
 30
0.0
 11
125.8197080292
 21
204.3901115458
 31
0.0
  0
LINE
  5
181
330
1F
100
AcDbEntity
  8
0
  6
Continuous
 62
     7
370
    15
100
AcDbLine
 10
121.3197080292
 20
208.8721867548
 30
0.0
 11
121.3197080292
 21
208.9193531598
 31
0.0
  0
LINE
  5
182
330
1F
100
AcDbEntity
  8
0
  6
Continuous
 62
     7
370
    15
100
AcDbLine
 10
121.3197080292
 20
205.4193531598
 30
0.0
 11
121.3197080292
 21
208.8721867548
 31
0.0
  0
LINE
  5
183
330
1F
100
AcDbEntity
  8
0
  6
Continuous
 62
     7
370
    15
100
AcDbLine
 10
118.8197080292
 20
205.4193531598
 30
0.0
 11
118.8197080292
 21
208.8721867548
 31
0.0
  0
LINE
  5
184
330
1F
100
AcDbEntity
  8
0
  6
Continuous
 62
     7
370
    15
100
AcDbLine
 10
118.8197080292
 20
208.8721867548
 30
0.0
 11
118.8197080292
 21
208.9193531598
 31
0.0
  0
LINE
  5
185
330
1F
100
AcDbEntity
  8
0
  6
Continuous
 62
     7
370
    15
100
AcDbLine
 10
116.3197080292
 20
206.8234476954
 30
0.0
 11
116.3197080292
 21
208.6693531598
 31
0.0
  0
LINE
  5
186
330
1F
100
AcDbEntity
  8
0
  6
Continuous
 62
     7
370
    15
100
AcDbLine
 10
116.3197080292
 20
205.6693531598
 30
0.0
 11
116.3197080292
 21
206.8234476954
 31
0.0
  0
LINE
  5
187
330
1F
100
AcDbEntity
  8
0
  6
Continuous
 62
     7
370
    15
100
AcDbLine
 10
125.8197080292
 20
203.1693531598
 30
0.0
 11
125.8197080292
 21
204.3608710046
 31
0.0
  0
LINE
  5
188
330
1F
100
AcDbEntity
  8
0
  6
Continuous
 62
     7
370
    15
100
AcDbLine
 10
125.8197080292
 20
204.4893128303
 30
0.0
 11
125.8197080292
 21
208.2317537238
 31
0.0
  0
LINE
  5
189
330
1F
100
AcDbEntity
  8
0
  6
Continuous
 62
     7
370
    15
100
AcDbLine
 10
125.8197080292
 20
208.4009157517
 30
0.0
 11
125.8197080292
 21
211.040235879
 31
0.0
  0
LINE
  5
18A
330
1F
100
AcDbEntity
  8
0
  6
Continuous
 62
     7
370
    15
100
AcDbLine
 10
125.8197080292
 20
211.1101966224
 30
0.0
 11
125.8197080292
 21
211.1693531598
 31
0.0
  0
LINE
  5
18B
330
1F
100
AcDbEntity
  8
0
  6
Continuous
 62
     7
370
    15
100
AcDbLine
 10
158.3197080292
 20
203.1786784008
 30
0.0
 11
155.8197080292
 21
203.1786784008
 31
0.0
  0
LINE
  5
18C
330
1F
100
AcDbEntity
  8
0
  6
Continuous
 62
     7
370
    15
100
AcDbLine
 10
155.8197080292
 20
205.7721472254
 30
0.0
 11
155.8197080292
 21
205.7068628665
 31
0.0
  0
LINE
  5
18D
330
1F
100
AcDbEntity
  8
0
  6
Continuous
 62
     7
370
    15
100
AcDbLine
 10
155.8197080292
 20
203.2439627596
 30
0.0
 11
155.8197080292
 21
203.1786784008
 31
0.0
  0
LINE
  5
18E
330
1F
100
AcDbEntity
  8
0
  6
Continuous
 62
     7
370
    15
100
AcDbLine
 10
155.8197080292
 20
205.7721472254
 30
0.0
 11
158.3197080292
 21
205.7721472254
 31
0.0
  0
LINE
  5
18F
330
1F
100
AcDbEntity
  8
0
  6
Continuous
 62
     7
370
    15
100
AcDbLine
 10
158.3197080292
 20
205.7721472254
 30
0.0
 11
158.3197080292
 21
203.1786784008
 31
0.0
  0
LINE
  5
190
330
1F
100
AcDbEntity
  8
0
  6
Continuous
 62
     7
370
    15
100
AcDbLine
 10
155.8197080292
 20
209.7628219844
 30
0.0
 11
155.8197080292
 21
209.6623663165
 31
0.0
  0
LINE
  5
191
330
1F
100
AcDbEntity
  8
0
  6
Continuous
 62
     7
370
    15
100
AcDbLine
 10
155.8197080292
 20
205.8726028933
 30
0.0
 11
155.8197080292
 21
205.7721472254
 31
0.0
  0
LINE
  5
192
330
1F
100
AcDbEntity
  8
0
  6
Continuous
 62
     7
370
    15
100
AcDbLine
 10
155.8197080292
 20
209.7628219844
 30
0.0
 11
158.3197080292
 21
209.7628219843
 31
0.0
  0
LINE
  5
193
330
1F
100
AcDbEntity
  8
0
  6
Continuous
 62
     7
370
    15
100
AcDbLine
 10
158.3197080292
 20
209.7628219843
 30
0.0
 11
158.3197080292
 21
205.7721472254
 31
0.0
  0
LINE
  5
194
330
1F
100
AcDbEntity
  8
0
  6
Continuous
 62
     7
370
    15
100
AcDbLine
 10
155.8197080292
 20
211.1600279189
 30
0.0
 11
158.3197080292
 21
211.1600279189
 31
0.0
  0
LINE
  5
195
330
1F
100
AcDbEntity
  8
0
  6
Continuous
 62
     7
370
    15
100
AcDbLine
 10
155.8197080292
 20
209.7979932935
 30
0.0
 11
155.8197080292
 21
209.7628219844
 31
0.0
  0
LINE
  5
196
330
1F
100
AcDbEntity
  8
0
  6
Continuous
 62
     7
370
    15
100
AcDbLine
 10
158.3197080292
 20
211.1600279189
 30
0.0
 11
158.3197080292
 21
209.7628219843
 31
0.0
  0
LINE
  5
197
330
1F
100
AcDbEntity
  8
0
  6
Continuous
 62
     7
370
    15
100
AcDbLine
 10
155.8197080292
 20
203.1693531598
 30
0.0
 11
155.8197080292
 21
203.1786784008
 31
0.0
  0
LINE
  5
198
330
1F
100
AcDbEntity
  8
0
  6
Continuous
 62
     7
370
    15
100
AcDbLine
 10
155.8197080292
 20
203.2439627596
 30
0.0
 11
155.8197080292
 21
205.7068628665
 31
0.0
  0
LINE
  5
199
330
1F
100
AcDbEntity
  8
0
  6
Continuous
 62
     7
370
    15
100
AcDbLine
 10
155.8197080292
 20
205.8726028933
 30
0.0
 11
155.8197080292
 21
209.6623663165
 31
0.0
  0
LINE
  5
19A
330
1F
100
AcDbEntity
  8
0
  6
Continuous
 62
     7
370
    15
100
AcDbLine
 10
155.8197080292
 20
209.7979932935
 30
0.0
 11
155.8197080292
 21
211.1693531598
 31
0.0
  0
LINE
  5
19B
330
1F
100
AcDbEntity
  8
0
  6
Continuous
 62
     8
370
    15
100
AcDbLine
 10
149.5697080292
 20
212.9640453997
 30
0.0
 11
145.0697080292
 21
212.9640453997
 31
0.0
  0
LINE
  5
19C
330
1F
100
AcDbEntity
  8
0
  6
Continuous
 62
     8
370
    15
100
AcDbLine
 10
148.9588268735
 20
213.7691012371
 30
0.0
 11
149.1629070672
 21
213.7691012371
 31
0.0
  0
LINE
  5
19D
330
1F
100
AcDbEntity
  8
0
  6
Continuous
 62
     8
370
    15
100
AcDbLine
 10
145.4765089911
 20
213.7691012371
 30
0.0
 11
148.9588268735
 21
213.7691012371
 31
0.0
  0
LINE
  5
19E
330
1F
100
AcDbEntity
  8
0
  6
Continuous
 62
     8
370
    15
100
AcDbLine
 10
148.7519915681
 20
214.0718810785
 30
0.0
 11
145.8874244903
 21
214.0718810785
 31
0.0
  0
LINE
  5
19F
330
1F
100
AcDbEntity
  8
0
  6
Continuous
 62
     8
370
    15
100
AcDbLine
 10
136.5697080292
 20
212.9640453997
 30
0.0
 11
132.0697080292
 21
212.9640453997
 31
0.0
  0
LINE
  5
1A0
330
1F
100
AcDbEntity
  8
0
  6
Continuous
 62
     8
370
    15
100
AcDbLine
 10
135.9588268735
 20
213.7691012371
 30
0.0
 11
136.1629070672
 21
213.7691012371
 31
0.0
  0
LINE
  5
1A1
330
1F
100
AcDbEntity
  8
0
  6
Continuous
 62
     8
370
    15
100
AcDbLine
 10
132.4765089911
 20
213.7691012371
 30
0.0
 11
135.9588268735
 21
213.7691012371
 31
0.0
  0
LINE
  5
1A2
330
1F
100
AcDbEntity
  8
0
  6
Continuous
 62
     8
370
    15
100
AcDbLine
 10
135.7519915681
 20
214.0718810785
 30
0.0
 11
132.8874244903
 21
214.0718810785
 31
0.0
  0
LINE
  5
1A3
330
1F
100
AcDbEntity
  8
0
  6
Continuous
 62
     8
370
    15
100
AcDbLine
 10
136.5609889726
 20
170.37466092
 30
0.0
 11
136.5697080292
 21
170.37466092
 31
0.0
  0
LINE
  5
1A4
330
1F
100
AcDbEntity
  8
0
  6
Continuous
 62
     8
370
    15
100
AcDbLine
 10
132.0697080292
 20
170.37466092
 30
0.0
 11
136.5609889726
 21
170.37466092
 31
0.0
  0
LINE
  5
1A5
330
1F
100
AcDbEntity
  8
0
  6
Continuous
 62
     8
370
    15
100
AcDbLine
 10
136.1629070672
 20
169.5696050826
 30
0.0
 11
132.4765089911
 21
169.5696050826
 31
0.0
  0
LINE
  5
1A6
330
1F
100
AcDbEntity
  8
0
  6
Continuous
 62
     8
370
    15
100
AcDbLine
 10
135.7464412742
 20
169.2668252412
 30
0.0
 11
135.7519915681
 21
169.2668252412
 31
0.0
  0
LINE
  5
1A7
330
1F
100
AcDbEntity
  8
0
  6
Continuous
 62
     8
370
    15
100
AcDbLine
 10
132.8874244903
 20
169.2668252412
 30
0.0
 11
135.7464412742
 21
169.2668252412
 31
0.0
  0
LINE
  5
1A8
330
1F
100
AcDbEntity
  8
0
  6
Continuous
 62
     8
370
    15
100
AcDbLine
 10
149.5609889726
 20
170.37466092
 30
0.0
 11
149.5697080292
 21
170.37466092
 31
0.0
  0
LINE
  5
1A9
330
1F
100
AcDbEntity
  8
0
  6
Continuous
 62
     8
370
    15
100
AcDbLine
 10
145.0697080292
 20
170.37466092
 30
0.0
 11
149.5609889726
 21
170.37466092
 31
0.0
  0
LINE
  5
1AA
330
1F
100
AcDbEntity
  8
0
  6
Continuous
 62
     8
370
    15
100
AcDbLine
 10
149.1629070672
 20
169.5696050826
 30
0.0
 11
145.4765089911
 21
169.5696050826
 31
0.0
  0
LINE
  5
1AB
330
1F
100
AcDbEntity
  8
0
  6
Continuous
 62
     8
370
    15
100
AcDbLine
 10
148.7464412742
 20
169.2668252412
 30
0.0
 11
148.7519915681
 21
169.2668252412
 31
0.0
  0
LINE
  5
1AC
330
1F
100
AcDbEntity
  8
0
  6
Continuous
 62
     8
370
    15
100
AcDbLine
 10
145.8874244903
 20
169.2668252412
 30
0.0
 11
148.7464412742
 21
169.2668252412
 31
0.0
  0
LINE
  5
1AD
330
1F
100
AcDbEntity
  8
0
  6
CENTERX2
 62
     7
370
     0
100
AcDbLine
 10
118.5434920792
 20
187.1693531598
 30
0.0
 11
125.7251303922
 21
187.1693531598
 31
0.0
  0
DIMENSION
  5
1AE
330
1F
100
AcDbEntity
  8
0
  6
Continuous
 62
     7
370
     0
100
AcDbDimension
  2
_D
 10
106.3197080292
 20
166.1693531598
 30
0.0
 11
106.3197080292
 21
176.7800662101
 31
0.0
 70
   160
  1
<>
 71
     2
 42
-1.0
  3
SLDDIMSTYLE0
100
AcDbAlignedDimension
 13
118.5434920792
 23
187.1693531598
 33
0.0
 14
137.8197080292
 24
166.1693531598
 34
0.0
 50
90.0
100
AcDbRotatedDimension
  0
DIMENSION
  5
1BA
330
1F
100
AcDbEntity
  8
0
  6
Continuous
 62
     7
370
     0
100
AcDbDimension
  2
_D_1
 10
159.8197080292
 20
150.1693531598
 30
0.0
 11
140.0680232452
 21
150.1693531598
 31
0.0
 70
   160
  1
<>
 71
     2
 42
-1.0
  3
SLDDIMSTYLE0
100
AcDbAlignedDimension
 13
121.8197080292
 23
184.6693531598
 33
0.0
 14
159.8197080292
 24
179.9193531598
 34
0.0
100
AcDbRotatedDimension
  0
DIMENSION
  5
1C4
330
1F
100
AcDbEntity
  8
0
  6
Continuous
 62
     7
370
     0
100
AcDbDimension
  2
_D_2
 10
162.0697080292
 20
158.9073229666
 30
0.0
 11
148.4731795695
 21
158.9073229666
 31
0.0
 70
   160
  1
<>
 71
     2
 42
-1.0
  3
SLDDIMSTYLE1
100
AcDbAlignedDimension
 13
157.5697080292
 23
184.6693531598
 33
0.0
 14
162.0697080292
 24
184.6693531598
 34
0.0
100
AcDbRotatedDimension
  0
DIMENSION
  5
1D1
330
1F
100
AcDbEntity
  8
0
  6
Continuous
 62
     7
370
     0
100
AcDbDimension
  2
_D_3
 10
164.8197080292
 20
141.6343628647
 30
0.0
 11
140.0680232452
 21
141.6343628647
 31
0.0
 70
   160
  1
<>
 71
     2
 42
-1.0
  3
SLDDIMSTYLE0
100
AcDbAlignedDimension
 13
116.8197080292
 23
174.1693531598
 33
0.0
 14
164.8197080292
 24
174.1693531598
 34
0.0
100
AcDbRotatedDimension
  0
DIMENSION
  5
1DB
330
1F
100
AcDbEntity
  8
0
  6
Continuous
 62
     7
370
     0
100
AcDbDimension
  2
_D_4
 10
174.8197080292
 20
184.6693531598
 30
0.0
 11
174.8197080292
 21
187.2280961341
 31
0.0
 70
   160
  1
<>
 71
     2
 42
-1.0
  3
SLDDIMSTYLE2
100
AcDbAlignedDimension
 13
164.5697080292
 23
189.6693531598
 33
0.0
 14
164.5697080292
 24
184.6693531598
 34
0.0
 50
90.0
100
AcDbRotatedDimension
  0
DIMENSION
  5
1F0
330
1F
100
AcDbEntity
  8
0
  6
Continuous
 62
     7
370
     0
100
AcDbDimension
  2
_D_5
 10
174.8197080292
 20
172.1693531598
 30
0.0
 11
174.8197080292
 21
178.4193531598
 31
0.0
 70
   160
  1
<>
 71
     2
 42
-1.0
  3
SLDDIMSTYLE3
100
AcDbAlignedDimension
 13
164.5697080292
 23
184.6693531598
 33
0.0
 14
162.8197080292
 24
172.1693531598
 34
0.0
 50
90.0
100
AcDbRotatedDimension
  0
DIMENSION
  5
1FD
330
1F
100
AcDbEntity
  8
0
  6
Continuous
 62
     7
370
     0
100
AcDbDimension
  2
_D_6
 10
112.4528603734
 20
172.1693531598
 30
0.0
 11
112.4528603734
 21
182.6056939619
 31
0.0
 70
   160
  1
<>
 71
     2
 42
-1.0
  3
SLDDIMSTYLE0
100
AcDbAlignedDimension
 13
118.8197080292
 23
194.1693531598
 33
0.0
 14
118.8197080292
 24
172.1693531598
 34
0.0
 50
90.0
100
AcDbRotatedDimension
  0
MTEXT
  5
207
330
1F
100
AcDbEntity
  8
0
  6
Continuous
 62
     7
370
     0
100
AcDbMText
 10
94.8558913068
 20
224.0460475198
 30
0.0
 40
3.5
 41
0.0
 71
     1
 72
     1
  1
BF-5
  7
SLDTEXTSTYLE1
 73
     1
 44
1.0
  0
LEADER
  5
20F
330
1F
100
AcDbEntity
  8
0
  6
Continuous
 62
     7
370
     0
100
AcDbLeader
  3
SLDDIMSTYLE4
 76
     3
 10
118.8197080292
 20
207.3917377212
 30
0.0
 10
104.3321167883
 20
219.4343065693
 30
0.0
 10
94.7080291971
 20
219.4343065693
 30
0.0
  0
MTEXT
  5
210
330
1F
100
AcDbEntity
  8
0
  6
Continuous
 62
     7
370
     0
100
AcDbMText
 10
168.4075464636
 20
223.6149497118
 30
0.0
 40
3.5
 41
0.0
 71
     1
 72
     1
  1
PF
  7
SLDTEXTSTYLE1
 73
     1
 44
1.0
  0
LEADER
  5
212
330
1F
100
AcDbEntity
  8
0
  6
Continuous
 62
     7
370
     0
100
AcDbLeader
  3
SLDDIMSTYLE5
 76
     3
 10
157.2818826923
 20
207.9669795578
 30
0.0
 10
167.7481751825
 20
219.0693430657
 30
0.0
 10
173.3576642336
 20
219.0693430657
 30
0.0
  0
INSERT
  5
21E
330
1F
100
AcDbEntity
  8
0
  6
Continuous
 62
     7
370
     0
100
AcDbBlockReference
  2
SW_CENTERMARKSYMBOL_0
 10
159.8197080292
 20
184.6693531598
 30
0.0
  0
INSERT
  5
22A
330
1F
100
AcDbEntity
  8
0
  6
Continuous
 62
     7
370
     0
100
AcDbBlockReference
  2
SW_CENTERMARKSYMBOL_1
 10
159.8197080292
 20
189.6693531598
 30
0.0
  0
LINE
  5
22B
330
1F
100
AcDbEntity
  8
0
  6
CENTERX2
 62
     7
370
     0
100
AcDbLine
 10
121.8197080292
 20
182.6693531598
 30
0.0
 11
121.8197080292
 21
191.6693531598
 31
0.0
  0
LINE
  5
22C
330
1F
100
AcDbEntity
  8
0
  6
Continuous
 62
     7
370
    15
100
AcDbLine
 10
134.6520510013
 20
96.2850007072
 30
0.0
 11
134.5431361593
 21
95.9525409478
 31
0.0
  0
SPLINE
  5
22D
330
1F
100
AcDbEntity
  8
0
  6
Continuous
 62
     7
370
    15
100
AcDbSpline
210
0.0
220
0.0
230
1.0
 70
     8
 71
     3
 72
     9
 73
     5
 74
     0
 42
0.00000001
 43
0.00000001
 12
1.0
 22
0.0
 32
0.0
 13
1.0
 23
0.0
 33
0.0
 40
0.0
 40
0.0
 40
0.0
 40
0.0
 40
0.8252234957300374
 40
1.0
 40
1.0
 40
1.0
 40
1.0
 10
134.5216868396063
 20
95.85060316840469
 30
0.0
 10
134.5110356438215
 20
95.82050900567535
 30
0.0
 10
134.498128600045
 20
95.78404111196528
 30
0.0
 10
134.4918844695285
 20
95.74599711261062
 30
0.0
 10
134.4907931422246
 20
95.73934791539497
 30
0.0
  0
LINE
  5
22E
330
1F
100
AcDbEntity
  8
0
  6
Continuous
 62
     7
370
    15
100
AcDbLine
 10
134.5515689497
 20
95.9501758955
 30
0.0
 11
134.5216868396
 21
95.8506031684
 31
0.0
  0
LINE
  5
22F
330
1F
100
AcDbEntity
  8
0
  6
Continuous
 62
     7
370
    15
100
AcDbLine
 10
146.5545054102
 20
91.220064159
 30
0.0
 11
146.6736698158
 21
91.4476247027
 31
0.0
  0
SPLINE
  5
230
330
1F
100
AcDbEntity
  8
0
  6
Continuous
 62
     7
370
    15
100
AcDbSpline
210
0.0
220
0.0
230
1.0
 70
     8
 71
     3
 72
    10
 73
     6
 74
     0
 42
0.00000001
 43
0.00000001
 12
1.0
 22
0.0
 32
0.0
 13
1.0
 23
0.0
 33
0.0
 40
0.0
 40
0.0
 40
0.0
 40
0.0
 40
0.4663553732379543
 40
0.8662665274463299
 40
1.0
 40
1.0
 40
1.0
 40
1.0
 10
147.3110112513891
 20
93.93736418260771
 30
0.0
 10
147.315480060668
 20
94.10816283105892
 30
0.0
 10
147.3237809833505
 20
94.42542550364074
 30
0.0
 10
147.3039027344612
 20
94.79200237710154
 30
0.0
 10
147.2771435367793
 20
94.98566891266458
 30
0.0
 10
147.2704375750788
 20
95.03420251914991
 30
0.0
  0
SPLINE
  5
231
330
1F
100
AcDbEntity
  8
0
  6
Continuous
 62
     7
370
    15
100
AcDbSpline
210
0.0
220
0.0
230
1.0
 70
     8
 71
     3
 72
     9
 73
     5
 74
     0
 42
0.00000001
 43
0.00000001
 12
1.0
 22
0.0
 32
0.0
 13
1.0
 23
0.0
 33
0.0
 40
0.0
 40
0.0
 40
0.0
 40
0.0
 40
0.2799351764425194
 40
0.9999999999999999
 40
0.9999999999999999
 40
0.9999999999999999
 40
0.9999999999999999
 10
134.804088887091
 20
96.70032400870159
 30
0.0
 10
134.7734486922241
 20
96.63291635491261
 30
0.0
 10
134.6639940847103
 20
96.39211898658753
 30
0.0
 10
134.5986330974751
 20
96.13518501230674
 30
0.0
 10
134.551568949734
 20
95.95017589545031
 30
0.0
  0
LINE
  5
232
330
1F
100
AcDbEntity
  8
0
  6
Continuous
 62
     7
370
    15
100
AcDbLine
 10
121.3197080292
 20
96.0129713096
 30
0.0
 11
118.8197080292
 21
95.7629713096
 31
0.0
  0
LINE
  5
233
330
1F
100
AcDbEntity
  8
0
  6
Continuous
 62
     7
370
    15
100
AcDbLine
 10
118.8197080292
 20
92.7629713096
 30
0.0
 11
121.3197080292
 21
92.5129713096
 31
0.0
  0
LINE
  5
234
330
1F
100
AcDbEntity
  8
0
  6
Continuous
 62
     7
370
    15
100
AcDbLine
 10
118.8197080292
 20
96.0129713096
 30
0.0
 11
116.3197080292
 21
95.7629713096
 31
0.0
  0
LINE
  5
235
330
1F
100
AcDbEntity
  8
0
  6
Continuous
 62
     7
370
    15
100
AcDbLine
 10
116.3197080292
 20
92.7629713096
 30
0.0
 11
118.8197080292
 21
92.5129713096
 31
0.0
  0
LINE
  5
236
330
1F
100
AcDbEntity
  8
0
  6
Continuous
 62
     7
370
    15
100
AcDbLine
 10
121.3197080292
 20
92.6629713096
 30
0.0
 11
123.3197080292
 21
92.6629713096
 31
0.0
  0
LINE
  5
237
330
1F
100
AcDbEntity
  8
0
  6
Continuous
 62
     7
370
    15
100
AcDbLine
 10
123.3197080292
 20
95.8629713096
 30
0.0
 11
121.3197080292
 21
95.8629713096
 31
0.0
  0
LINE
  5
238
330
1F
100
AcDbEntity
  8
0
  6
Continuous
 62
     7
370
    15
100
AcDbLine
 10
126.6197080292
 20
98.2629713096
 30
0.0
 11
125.8197080292
 21
98.2629713096
 31
0.0
  0
LINE
  5
239
330
1F
100
AcDbEntity
  8
0
  6
Continuous
 62
     7
370
    15
100
AcDbLine
 10
125.8197080292
 20
90.2629713096
 30
0.0
 11
126.6197080292
 21
90.2629713096
 31
0.0
  0
LINE
  5
23A
330
1F
100
AcDbEntity
  8
0
  6
Continuous
 62
     7
370
    15
100
AcDbLine
 10
155.8197080292
 20
98.2629713096
 30
0.0
 11
155.0197080292
 21
98.2629713096
 31
0.0
  0
LINE
  5
23B
330
1F
100
AcDbEntity
  8
0
  6
Continuous
 62
     7
370
    15
100
AcDbLine
 10
155.0197080292
 20
90.2629713096
 30
0.0
 11
155.8197080292
 21
90.2629713096
 31
0.0
  0
LINE
  5
23C
330
1F
100
AcDbEntity
  8
0
  6
Continuous
 62
     7
370
    15
100
AcDbLine
 10
133.5345307829
 20
85.3783433007
 30
0.0
 11
134.2435408321
 21
85.8756407469
 31
0.0
  0
LINE
  5
23D
330
1F
100
AcDbEntity
  8
0
  6
Continuous
 62
     7
370
    15
100
AcDbLine
 10
133.61069798
 20
84.5156738633
 30
0.0
 11
133.5345307829
 21
85.3783433007
 31
0.0
  0
LINE
  5
23E
330
1F
100
AcDbEntity
  8
0
  6
Continuous
 62
     7
370
    15
100
AcDbLine
 10
134.3958752263
 20
84.1503018723
 30
0.0
 11
133.61069798
 21
84.5156738633
 31
0.0
  0
LINE
  5
23F
330
1F
100
AcDbEntity
  8
0
  6
Continuous
 62
     7
370
    15
100
AcDbLine
 10
135.1048852755
 20
84.6475993186
 30
0.0
 11
134.3958752263
 21
84.1503018723
 31
0.0
  0
LINE
  5
240
330
1F
100
AcDbEntity
  8
0
  6
Continuous
 62
     7
370
    15
100
AcDbLine
 10
135.0287180784
 20
85.5102687559
 30
0.0
 11
135.1048852755
 21
84.6475993186
 31
0.0
  0
LINE
  5
241
330
1F
100
AcDbEntity
  8
0
  6
Continuous
 62
     7
370
    15
100
AcDbLine
 10
134.2435408321
 20
85.8756407469
 30
0.0
 11
135.0287180784
 21
85.5102687559
 31
0.0
  0
CIRCLE
  5
242
330
1F
100
AcDbEntity
  8
0
  6
Continuous
 62
     7
370
    15
100
AcDbCircle
 10
134.3197080292
 20
85.0129713096
 30
0.0
 40
1.13568401991386
  0
CIRCLE
  5
243
330
1F
100
AcDbEntity
  8
0
  6
Continuous
 62
     7
370
    15
100
AcDbCircle
 10
134.3197080292
 20
85.0129713096
 30
0.0
 40
1.432283538938767
  0
CIRCLE
  5
244
330
1F
100
AcDbEntity
  8
0
  6
Continuous
 62
     7
370
    15
100
AcDbCircle
 10
134.3197080292
 20
85.0129713096
 30
0.0
 40
1.843199038049867
  0
CIRCLE
  5
245
330
1F
100
AcDbEntity
  8
0
  6
Continuous
 62
     7
370
    15
100
AcDbCircle
 10
134.3197080292
 20
85.0129713096
 30
0.0
 40
2.249999999999988
  0
ARC
  5
246
330
1F
100
AcDbEntity
  8
0
  6
Continuous
 62
     7
370
    15
100
AcDbCircle
 10
134.3197080292
 20
85.0129713096
 30
0.0
 40
0.7499999999999952
100
AcDbArc
 50
5.0457004739
 51
65.0457004739
  0
ARC
  5
247
330
1F
100
AcDbEntity
  8
0
  6
Continuous
 62
     7
370
    15
100
AcDbCircle
 10
134.3197080292
 20
85.0129713096
 30
0.0
 40
0.7500000000000152
100
AcDbArc
 50
245.0457004739
 51
305.0457004739
  0
ARC
  5
248
330
1F
100
AcDbEntity
  8
0
  6
Continuous
 62
     7
370
    15
100
AcDbCircle
 10
134.3197080292
 20
85.0129713096
 30
0.0
 40
0.7500000000000043
100
AcDbArc
 50
125.0457004739
 51
185.0457004739
  0
ARC
  5
249
330
1F
100
AcDbEntity
  8
0
  6
Continuous
 62
     7
370
    15
100
AcDbCircle
 10
134.3197080292
 20
85.0129713096
 30
0.0
 40
0.7499999999999997
100
AcDbArc
 50
305.0457004739
 51
5.0457004739
  0
ARC
  5
24A
330
1F
100
AcDbEntity
  8
0
  6
Continuous
 62
     7
370
    15
100
AcDbCircle
 10
134.3197080292
 20
85.0129713096
 30
0.0
 40
0.7500000000000043
100
AcDbArc
 50
65.0457004739
 51
125.0457004739
  0
ARC
  5
24B
330
1F
100
AcDbEntity
  8
0
  6
Continuous
 62
     7
370
    15
100
AcDbCircle
 10
134.3197080292
 20
85.0129713096
 30
0.0
 40
0.7500000000000152
100
AcDbArc
 50
185.0457004739
 51
245.0457004739
  0
SPLINE
  5
24C
330
1F
100
AcDbEntity
  8
0
  6
Continuous
 62
     7
370
    15
100
AcDbSpline
210
0.0
220
0.0
230
1.0
 70
     8
 71
     3
 72
    10
 73
     6
 74
     0
 42
0.00000001
 43
0.00000001
 12
1.0
 22
0.0
 32
0.0
 13
1.0
 23
0.0
 33
0.0
 40
0.0
 40
0.0
 40
0.0
 40
0.0
 40
0.5949789145969111
 40
0.8512534469595211
 40
1.0
 40
1.0
 40
1.0
 40
1.0
 10
134.5171685632623
 20
95.85195911832494
 30
0.0
 10
134.5221546325203
 20
95.8719493943684
 30
0.0
 10
134.529288345226
 20
95.90055005729977
 30
0.0
 10
134.5381681455537
 20
95.93402009129228
 30
0.0
 10
134.5418017098688
 20
95.94756609306201
 30
0.0
 10
134.5431361593249
 20
95.95254094781241
 30
0.0
  0
LINE
  5
24D
330
1F
100
AcDbEntity
  8
0
  6
Continuous
 62
     7
370
    15
100
AcDbLine
 10
162.8197080292
 20
77.7629713096
 30
0.0
 11
162.8197080292
 21
81.2629713096
 31
0.0
  0
LINE
  5
24E
330
1F
100
AcDbEntity
  8
0
  6
Continuous
 62
     7
370
    15
100
AcDbLine
 10
162.8197080292
 20
81.2629713096
 30
0.0
 11
163.8197080292
 21
81.2629713096
 31
0.0
  0
ARC
  5
24F
330
1F
100
AcDbEntity
  8
0
  6
Continuous
 62
     7
370
    15
100
AcDbCircle
 10
163.8197080292
 20
80.2629713096
 30
0.0
 40
1.0
100
AcDbArc
 50
0.0
 51
90.0
  0
LINE
  5
250
330
1F
100
AcDbEntity
  8
0
  6
Continuous
 62
     7
370
    15
100
AcDbLine
 10
164.8197080292
 20
80.2629713096
 30
0.0
 11
164.8197080292
 21
77.7629713096
 31
0.0
  0
LINE
  5
251
330
1F
100
AcDbEntity
  8
0
  6
Continuous
 62
     7
370
    15
100
AcDbLine
 10
164.8197080292
 20
77.7629713096
 30
0.0
 11
162.8197080292
 21
77.7629713096
 31
0.0
  0
LINE
  5
252
330
1F
100
AcDbEntity
  8
0
  6
Continuous
 62
     7
370
    15
100
AcDbLine
 10
117.8197080292
 20
81.2629713096
 30
0.0
 11
118.8197080292
 21
81.2629713096
 31
0.0
  0
LINE
  5
253
330
1F
100
AcDbEntity
  8
0
  6
Continuous
 62
     7
370
    15
100
AcDbLine
 10
118.8197080292
 20
81.2629713096
 30
0.0
 11
118.8197080292
 21
77.7629713096
 31
0.0
  0
LINE
  5
254
330
1F
100
AcDbEntity
  8
0
  6
Continuous
 62
     7
370
    15
100
AcDbLine
 10
116.8197080292
 20
77.7629713096
 30
0.0
 11
116.8197080292
 21
80.2629713096
 31
0.0
  0
ARC
  5
255
330
1F
100
AcDbEntity
  8
0
  6
Continuous
 62
     7
370
    15
100
AcDbCircle
 10
117.8197080292
 20
80.2629713096
 30
0.0
 40
1.0
100
AcDbArc
 50
90.0
 51
180.0
  0
LINE
  5
256
330
1F
100
AcDbEntity
  8
0
  6
Continuous
 62
     7
370
    15
100
AcDbLine
 10
118.8197080292
 20
77.7629713096
 30
0.0
 11
116.8197080292
 21
77.7629713096
 31
0.0
  0
ARC
  5
257
330
1F
100
AcDbEntity
  8
0
  6
Continuous
 62
     7
370
    15
100
AcDbCircle
 10
155.0930615684
 20
85.5214207546
 30
0.0
 40
2.999999999999972
100
AcDbArc
 50
190.7803039923
 51
220.9981734199
  0
LINE
  5
258
330
1F
100
AcDbEntity
  8
0
  6
Continuous
 62
     7
370
    15
100
AcDbLine
 10
154.5207230404
 20
81.606936341
 30
0.0
 11
152.8288700837
 21
83.5533158486
 31
0.0
  0
ARC
  5
259
330
1F
100
AcDbEntity
  8
0
  6
Continuous
 62
     7
370
    15
100
AcDbCircle
 10
155.2754535353
 20
82.2629713096
 30
0.0
 40
1.000000000000026
100
AcDbArc
 50
220.9981734199
 51
270.0
  0
LINE
  5
25A
330
1F
100
AcDbEntity
  8
0
  6
Continuous
 62
     7
370
    15
100
AcDbLine
 10
162.8197080292
 20
81.2629713096
 30
0.0
 11
155.2754535353
 21
81.2629713096
 31
0.0
  0
ARC
  5
25B
330
1F
100
AcDbEntity
  8
0
  6
Continuous
 62
     7
370
    15
100
AcDbCircle
 10
154.5918352761
 20
80.7629713096
 30
0.0
 40
3.000000000000014
100
AcDbArc
 50
220.9981734199
 51
270.0
  0
LINE
  5
25C
330
1F
100
AcDbEntity
  8
0
  6
Continuous
 62
     7
370
    15
100
AcDbLine
 10
149.1774299005
 20
82.4190062783
 30
0.0
 11
152.3276437915
 21
78.7948664037
 31
0.0
  0
ARC
  5
25D
330
1F
100
AcDbEntity
  8
0
  6
Continuous
 62
     7
370
    15
100
AcDbCircle
 10
148.4226994056
 20
81.7629713096
 30
0.0
 40
0.9999999999999954
100
AcDbArc
 50
40.9981734199
 51
86.0869570946
  0
LINE
  5
25E
330
1F
100
AcDbEntity
  8
0
  6
Continuous
 62
     7
370
    15
100
AcDbLine
 10
148.490941809
 20
82.7606400795
 30
0.0
 11
148.4895958727
 21
82.7629713096
 31
0.0
  0
LINE
  5
25F
330
1F
100
AcDbEntity
  8
0
  6
Continuous
 62
     7
370
    15
100
AcDbLine
 10
133.1498201857
 20
82.7629713096
 30
0.0
 11
133.1484742494
 21
82.7606400795
 31
0.0
  0
ARC
  5
260
330
1F
100
AcDbEntity
  8
0
  6
Continuous
 62
     7
370
    15
100
AcDbCircle
 10
133.2167166528
 20
81.7629713096
 30
0.0
 40
0.9999999999999954
100
AcDbArc
 50
93.9130429054
 51
139.0018265801
  0
LINE
  5
261
330
1F
100
AcDbEntity
  8
0
  6
Continuous
 62
     7
370
    15
100
AcDbLine
 10
129.3117722669
 20
78.7948664037
 30
0.0
 11
132.4619861579
 21
82.4190062783
 31
0.0
  0
ARC
  5
262
330
1F
100
AcDbEntity
  8
0
  6
Continuous
 62
     7
370
    15
100
AcDbCircle
 10
127.0475807822
 20
80.7629713096
 30
0.0
 40
3.000000000000024
100
AcDbArc
 50
270.0
 51
319.0018265801
  0
LINE
  5
263
330
1F
100
AcDbEntity
  8
0
  6
Continuous
 62
     7
370
    15
100
AcDbLine
 10
126.3639625231
 20
81.2629713096
 30
0.0
 11
118.8197080292
 21
81.2629713096
 31
0.0
  0
ARC
  5
264
330
1F
100
AcDbEntity
  8
0
  6
Continuous
 62
     7
370
    15
100
AcDbCircle
 10
126.3639625231
 20
82.2629713096
 30
0.0
 40
1.0
100
AcDbArc
 50
270.0
 51
319.0018265801
  0
LINE
  5
265
330
1F
100
AcDbEntity
  8
0
  6
Continuous
 62
     7
370
    15
100
AcDbLine
 10
128.8105459747
 20
83.5533158486
 30
0.0
 11
127.118693018
 21
81.606936341
 31
0.0
  0
ARC
  5
266
330
1F
100
AcDbEntity
  8
0
  6
Continuous
 62
     7
370
    15
100
AcDbCircle
 10
126.54635449
 20
85.5214207546
 30
0.0
 40
3.000000000000013
100
AcDbArc
 50
319.0018265801
 51
349.2196960077
  0
LINE
  5
267
330
1F
100
AcDbEntity
  8
0
  6
Continuous
 62
     7
370
    15
100
AcDbLine
 10
118.8197080292
 20
77.7629713096
 30
0.0
 11
127.0475807822
 21
77.7629713096
 31
0.0
  0
LINE
  5
268
330
1F
100
AcDbEntity
  8
0
  6
Continuous
 62
     7
370
    15
100
AcDbLine
 10
154.5918352761
 20
77.7629713096
 30
0.0
 11
162.8197080292
 21
77.7629713096
 31
0.0
  0
ARC
  5
269
330
1F
100
AcDbEntity
  8
0
  6
Continuous
 62
     7
370
    15
100
AcDbCircle
 10
140.8197080292
 20
94.2629713096
 30
0.0
 40
4.000000000000006
100
AcDbArc
 50
131.4096221093
 51
138.5903778907
  0
SPLINE
  5
26A
330
1F
100
AcDbEntity
  8
0
  6
Continuous
 62
     7
370
    15
100
AcDbSpline
210
0.0
220
0.0
230
1.0
 70
    24
 71
     3
 72
     8
 73
     4
 74
     0
 42
0.00000001
 43
0.00000001
 12
1.0
 22
0.0
 32
0.0
 13
1.0
 23
0.0
 33
0.0
 40
0.0
 40
0.0
 40
0.0
 40
0.0
 40
1.0
 40
1.0
 40
1.0
 40
1.0
 10
138.1739567181327
 20
97.26297130961251
 30
0.0
 10
138.4467727176536
 20
97.26297130961251
 30
0.0
 10
138.7259752965128
 20
97.26297130961251
 30
0.0
 10
139.0169323914653
 20
97.26297130961251
 30
0.0
  0
ARC
  5
26B
330
1F
100
AcDbEntity
  8
0
  6
Continuous
 62
     7
370
    15
100
AcDbCircle
 10
140.8197080292
 20
94.2629713096
 30
0.0
 40
3.500000000000016
100
AcDbArc
 50
121.0027191339
 51
148.9972808661
  0
SPLINE
  5
26C
330
1F
100
AcDbEntity
  8
0
  6
Continuous
 62
     7
370
    15
100
AcDbSpline
210
0.0
220
0.0
230
1.0
 70
    24
 71
     3
 72
     8
 73
     4
 74
     0
 42
0.00000001
 43
0.00000001
 12
1.0
 22
0.0
 32
0.0
 13
1.0
 23
0.0
 33
0.0
 40
0.0
 40
0.0
 40
0.0
 40
0.0
 40
1.0
 40
1.0
 40
1.0
 40
1.0
 10
137.8197080291973
 20
96.06574694734452
 30
0.0
 10
137.8197080291973
 20
96.35670404229695
 30
0.0
 10
137.8197080291973
 20
96.63590662115621
 30
0.0
 10
137.8197080291973
 20
96.9087226206771
 30
0.0
  0
ARC
  5
26D
330
1F
100
AcDbEntity
  8
0
  6
Continuous
 62
     7
370
    15
100
AcDbCircle
 10
140.8197080292
 20
94.2629713096
 30
0.0
 40
4.000000000000017
100
AcDbArc
 50
221.4096221093
 51
228.5903778907
  0
SPLINE
  5
26E
330
1F
100
AcDbEntity
  8
0
  6
Continuous
 62
     7
370
    15
100
AcDbSpline
210
0.0
220
0.0
230
1.0
 70
    24
 71
     3
 72
     8
 73
     4
 74
     0
 42
0.00000001
 43
0.00000001
 12
1.0
 22
0.0
 32
0.0
 13
1.0
 23
0.0
 33
0.0
 40
0.0
 40
0.0
 40
0.0
 40
0.0
 40
1.0
 40
1.0
 40
1.0
 40
1.0
 10
137.8197080291973
 20
91.61721999854791
 30
0.0
 10
137.8197080291973
 20
91.89003599806881
 30
0.0
 10
137.8197080291973
 20
92.16923857692807
 30
0.0
 10
137.8197080291973
 20
92.4601956718805
 30
0.0
  0
ARC
  5
26F
330
1F
100
AcDbEntity
  8
0
  6
Continuous
 62
     7
370
    15
100
AcDbCircle
 10
140.8197080292
 20
94.2629713096
 30
0.0
 40
3.500000000000014
100
AcDbArc
 50
211.0027191339
 51
238.9972808661
  0
SPLINE
  5
270
330
1F
100
AcDbEntity
  8
0
  6
Continuous
 62
     7
370
    15
100
AcDbSpline
210
0.0
220
0.0
230
1.0
 70
    24
 71
     3
 72
     8
 73
     4
 74
     0
 42
0.00000001
 43
0.00000001
 12
1.0
 22
0.0
 32
0.0
 13
1.0
 23
0.0
 33
0.0
 40
0.0
 40
0.0
 40
0.0
 40
0.0
 40
1.0
 40
1.0
 40
1.0
 40
1.0
 10
139.0169323914653
 20
91.2629713096125
 30
0.0
 10
138.7259752965128
 20
91.2629713096125
 30
0.0
 10
138.4467727176536
 20
91.2629713096125
 30
0.0
 10
138.1739567181327
 20
91.2629713096125
 30
0.0
  0
ARC
  5
271
330
1F
100
AcDbEntity
  8
0
  6
Continuous
 62
     7
370
    15
100
AcDbCircle
 10
140.8197080292
 20
94.2629713096
 30
0.0
 40
4.000000000000006
100
AcDbArc
 50
41.4096221093
 51
48.5903778907
  0
SPLINE
  5
272
330
1F
100
AcDbEntity
  8
0
  6
Continuous
 62
     7
370
    15
100
AcDbSpline
210
0.0
220
0.0
230
1.0
 70
    24
 71
     3
 72
     8
 73
     4
 74
     0
 42
0.00000001
 43
0.00000001
 12
1.0
 22
0.0
 32
0.0
 13
1.0
 23
0.0
 33
0.0
 40
0.0
 40
0.0
 40
0.0
 40
0.0
 40
1.0
 40
1.0
 40
1.0
 40
1.0
 10
143.8197080291973
 20
96.9087226206771
 30
0.0
 10
143.8197080291973
 20
96.63590662115621
 30
0.0
 10
143.8197080291973
 20
96.35670404229695
 30
0.0
 10
143.8197080291973
 20
96.06574694734452
 30
0.0
  0
ARC
  5
273
330
1F
100
AcDbEntity
  8
0
  6
Continuous
 62
     7
370
    15
100
AcDbCircle
 10
140.8197080292
 20
94.2629713096
 30
0.0
 40
3.500000000000008
100
AcDbArc
 50
31.0027191339
 51
58.9972808661
  0
SPLINE
  5
274
330
1F
100
AcDbEntity
  8
0
  6
Continuous
 62
     7
370
    15
100
AcDbSpline
210
0.0
220
0.0
230
1.0
 70
    24
 71
     3
 72
     8
 73
     4
 74
     0
 42
0.00000001
 43
0.00000001
 12
1.0
 22
0.0
 32
0.0
 13
1.0
 23
0.0
 33
0.0
 40
0.0
 40
0.0
 40
0.0
 40
0.0
 40
1.0
 40
1.0
 40
1.0
 40
1.0
 10
142.6224836669293
 20
97.26297130961251
 30
0.0
 10
142.9134407618818
 20
97.26297130961251
 30
0.0
 10
143.192643340741
 20
97.26297130961251
 30
0.0
 10
143.4654593402619
 20
97.26297130961251
 30
0.0
  0
LINE
  5
275
330
1F
100
AcDbEntity
  8
0
  6
Continuous
 62
     7
370
    15
100
AcDbLine
 10
142.6224836669
 20
97.2629713096
 30
0.0
 11
139.0169323915
 21
97.2629713096
 31
0.0
  0
LINE
  5
276
330
1F
100
AcDbEntity
  8
0
  6
Continuous
 62
     7
370
    15
100
AcDbLine
 10
143.8197080292
 20
92.4601956719
 30
0.0
 11
143.8197080292
 21
96.0657469473
 31
0.0
  0
ARC
  5
277
330
1F
100
AcDbEntity
  8
0
  6
Continuous
 62
     7
370
    15
100
AcDbCircle
 10
140.8197080292
 20
94.2629713096
 30
0.0
 40
3.500000000000008
100
AcDbArc
 50
301.0027191339
 51
328.9972808661
  0
LINE
  5
278
330
1F
100
AcDbEntity
  8
0
  6
Continuous
 62
     7
370
    15
100
AcDbLine
 10
137.8197080292
 20
96.0657469473
 30
0.0
 11
137.8197080292
 21
92.4601956719
 31
0.0
  0
LINE
  5
279
330
1F
100
AcDbEntity
  8
0
  6
Continuous
 62
     7
370
    15
100
AcDbLine
 10
139.0169323915
 20
91.2629713096
 30
0.0
 11
142.6224836669
 21
91.2629713096
 31
0.0
  0
CIRCLE
  5
27A
330
1F
100
AcDbEntity
  8
0
  6
Continuous
 62
     7
370
    15
100
AcDbCircle
 10
140.8197080292
 20
94.2629713096
 30
0.0
 40
1.649999999999977
  0
ARC
  5
27B
330
1F
100
AcDbEntity
  8
0
  6
Continuous
 62
     7
370
    15
100
AcDbCircle
 10
140.8197080292
 20
94.2629713096
 30
0.0
 40
4.000000000000017
100
AcDbArc
 50
311.4096221093
 51
318.5903778907
  0
SPLINE
  5
27C
330
1F
100
AcDbEntity
  8
0
  6
Continuous
 62
     7
370
    15
100
AcDbSpline
210
0.0
220
0.0
230
1.0
 70
    24
 71
     3
 72
     8
 73
     4
 74
     0
 42
0.00000001
 43
0.00000001
 12
1.0
 22
0.0
 32
0.0
 13
1.0
 23
0.0
 33
0.0
 40
0.0
 40
0.0
 40
0.0
 40
0.0
 40
1.0
 40
1.0
 40
1.0
 40
1.0
 10
143.8197080291973
 20
92.4601956718805
 30
0.0
 10
143.8197080291973
 20
92.16923857692807
 30
0.0
 10
143.8197080291973
 20
91.89003599806881
 30
0.0
 10
143.8197080291973
 20
91.61721999854791
 30
0.0
  0
SPLINE
  5
27D
330
1F
100
AcDbEntity
  8
0
  6
Continuous
 62
     7
370
    15
100
AcDbSpline
210
0.0
220
0.0
230
1.0
 70
    24
 71
     3
 72
     8
 73
     4
 74
     0
 42
0.00000001
 43
0.00000001
 12
1.0
 22
0.0
 32
0.0
 13
1.0
 23
0.0
 33
0.0
 40
0.0
 40
0.0
 40
0.0
 40
0.0
 40
1.0
 40
1.0
 40
1.0
 40
1.0
 10
143.4654593402619
 20
91.2629713096125
 30
0.0
 10
143.192643340741
 20
91.2629713096125
 30
0.0
 10
142.9134407618817
 20
91.2629713096125
 30
0.0
 10
142.6224836669293
 20
91.2629713096125
 30
0.0
  0
ARC
  5
27E
330
1F
100
AcDbEntity
  8
0
  6
Continuous
 62
     7
370
    15
100
AcDbCircle
 10
147.482069768
 20
90.8187099866
 30
0.0
 40
0.999999999999998
100
AcDbArc
 50
152.6622556608
 51
235.0
  0
LINE
  5
27F
330
1F
100
AcDbEntity
  8
0
  6
Continuous
 62
     7
370
    15
100
AcDbLine
 10
146.9084933317
 20
89.9995579423
 30
0.0
 11
146.6217051135
 21
89.5899819201
 31
0.0
  0
ARC
  5
280
330
1F
100
AcDbEntity
  8
0
  6
Continuous
 62
     7
370
    15
100
AcDbCircle
 10
147.482069768
 20
90.8187099866
 30
0.0
 40
1.499999999999999
100
AcDbArc
 50
152.6622556608
 51
235.0
  0
LINE
  5
281
330
1F
100
AcDbEntity
  8
0
  6
Continuous
 62
     7
370
    15
100
AcDbLine
 10
146.5937548695
 20
91.2779448297
 30
0.0
 11
146.1495974202
 21
91.5075622512
 31
0.0
  0
ARC
  5
282
330
1F
100
AcDbEntity
  8
0
  6
Continuous
 62
     7
370
    15
100
AcDbCircle
 10
140.8197080292
 20
94.2629713096
 30
0.0
 40
4.0
100
AcDbArc
 50
0.0
 51
41.4096221093
  0
ARC
  5
283
330
1F
100
AcDbEntity
  8
0
  6
Continuous
 62
     7
370
    15
100
AcDbCircle
 10
140.8197080292
 20
94.2629713096
 30
0.0
 40
4.000000000000006
100
AcDbArc
 50
48.5903778907
 51
131.4096221093
  0
ARC
  5
284
330
1F
100
AcDbEntity
  8
0
  6
Continuous
 62
     7
370
    15
100
AcDbCircle
 10
140.8197080292
 20
94.2629713096
 30
0.0
 40
4.000000000000006
100
AcDbArc
 50
138.5903778907
 51
221.4096221093
  0
ARC
  5
285
330
1F
100
AcDbEntity
  8
0
  6
Continuous
 62
     7
370
    15
100
AcDbCircle
 10
140.8197080292
 20
94.2629713096
 30
0.0
 40
4.000000000000017
100
AcDbArc
 50
228.5903778907
 51
311.4096221093
  0
ARC
  5
286
330
1F
100
AcDbEntity
  8
0
  6
Continuous
 62
     7
370
    15
100
AcDbCircle
 10
140.8197080292
 20
94.2629713096
 30
0.0
 40
4.000000000000003
100
AcDbArc
 50
318.852464098
 51
0.0
  0
ARC
  5
287
330
1F
100
AcDbEntity
  8
0
  6
Continuous
 62
     7
370
    15
100
AcDbCircle
 10
138.061365416
 20
85.2629713096
 30
0.0
 40
1.0
100
AcDbArc
 50
183.8225537293
 51
270.0
  0
ARC
  5
288
330
1F
100
AcDbEntity
  8
0
  6
Continuous
 62
     7
370
    15
100
AcDbCircle
 10
134.3197080292
 20
85.0129713096
 30
0.0
 40
2.750000000000024
100
AcDbArc
 50
3.8225537293
 51
90.0
  0
LINE
  5
289
330
1F
100
AcDbEntity
  8
0
  6
Continuous
 62
     7
370
    15
100
AcDbLine
 10
134.3197080292
 20
87.7629713096
 30
0.0
 11
128.5982026529
 21
87.7629713096
 31
0.0
  0
LINE
  5
28A
330
1F
100
AcDbEntity
  8
0
  6
Continuous
 62
     7
370
    15
100
AcDbLine
 10
126.8197080292
 20
102.527957698
 30
0.0
 11
126.8197080292
 21
90.0102539183
 31
0.0
  0
LINE
  5
28B
330
1F
100
AcDbEntity
  8
0
  6
Continuous
 62
     7
370
    15
100
AcDbLine
 10
131.5697080292
 20
105.5629713096
 30
0.0
 11
129.8547216408
 21
105.5629713096
 31
0.0
  0
LINE
  5
28C
330
1F
100
AcDbEntity
  8
0
  6
Continuous
 62
     7
370
    15
100
AcDbLine
 10
131.5697080292
 20
105.5629713096
 30
0.0
 11
131.5697080292
 21
103.5129713096
 31
0.0
  0
ARC
  5
28D
330
1F
100
AcDbEntity
  8
0
  6
Continuous
 62
     7
370
    15
100
AcDbCircle
 10
134.3197080292
 20
103.5129713096
 30
0.0
 40
2.75
100
AcDbArc
 50
180.0
 51
356.1774462707
  0
ARC
  5
28E
330
1F
100
AcDbEntity
  8
0
  6
Continuous
 62
     7
370
    15
100
AcDbCircle
 10
138.061365416
 20
103.2629713096
 30
0.0
 40
1.0
100
AcDbArc
 50
90.0
 51
176.1774462707
  0
ARC
  5
28F
330
1F
100
AcDbEntity
  8
0
  6
Continuous
 62
     7
370
    15
100
AcDbCircle
 10
143.5780506424
 20
103.2629713096
 30
0.0
 40
0.9999999999999858
100
AcDbArc
 50
3.8225537293
 51
90.0
  0
ARC
  5
290
330
1F
100
AcDbEntity
  8
0
  6
Continuous
 62
     7
370
    15
100
AcDbCircle
 10
147.3197080292
 20
103.5129713096
 30
0.0
 40
2.750000000000023
100
AcDbArc
 50
183.8225537293
 51
0.0
  0
LINE
  5
291
330
1F
100
AcDbEntity
  8
0
  6
Continuous
 62
     7
370
    15
100
AcDbLine
 10
150.0697080292
 20
103.5129713096
 30
0.0
 11
150.0697080292
 21
105.5629713096
 31
0.0
  0
LINE
  5
292
330
1F
100
AcDbEntity
  8
0
  6
Continuous
 62
     7
370
    15
100
AcDbLine
 10
151.7846944176
 20
105.5629713096
 30
0.0
 11
150.0697080292
 21
105.5629713096
 31
0.0
  0
ARC
  5
293
330
1F
100
AcDbEntity
  8
0
  6
Continuous
 62
     7
370
    15
100
AcDbCircle
 10
143.5197080292
 20
94.2629713096
 30
0.0
 40
13.99999999999999
100
AcDbArc
 50
36.1822872212
 51
53.8177127788
  0
LINE
  5
294
330
1F
100
AcDbEntity
  8
0
  6
Continuous
 62
     7
370
    15
100
AcDbLine
 10
154.8197080292
 20
90.0102539183
 30
0.0
 11
154.8197080292
 21
102.527957698
 31
0.0
  0
LINE
  5
295
330
1F
100
AcDbEntity
  8
0
  6
Continuous
 62
     7
370
    15
100
AcDbLine
 10
154.8197080292
 20
90.0102539183
 30
0.0
 11
153.0412134055
 21
87.7629713096
 31
0.0
  0
LINE
  5
296
330
1F
100
AcDbEntity
  8
0
  6
Continuous
 62
     7
370
    15
100
AcDbLine
 10
153.0412134055
 20
87.7629713096
 30
0.0
 11
147.3197080292
 21
87.7629713096
 31
0.0
  0
ARC
  5
297
330
1F
100
AcDbEntity
  8
0
  6
Continuous
 62
     7
370
    15
100
AcDbCircle
 10
147.3197080292
 20
85.0129713096
 30
0.0
 40
2.750000000000024
100
AcDbArc
 50
90.0
 51
176.1774462707
  0
ARC
  5
298
330
1F
100
AcDbEntity
  8
0
  6
Continuous
 62
     7
370
    15
100
AcDbCircle
 10
143.5780506424
 20
85.2629713096
 30
0.0
 40
1.0
100
AcDbArc
 50
270.0
 51
356.1774462707
  0
LINE
  5
299
330
1F
100
AcDbEntity
  8
0
  6
Continuous
 62
     7
370
    15
100
AcDbLine
 10
143.5780506424
 20
84.2629713096
 30
0.0
 11
138.061365416
 21
84.2629713096
 31
0.0
  0
ARC
  5
29A
330
1F
100
AcDbEntity
  8
0
  6
Continuous
 62
     7
370
    15
100
AcDbCircle
 10
133.1058256636
 20
90.6928146115
 30
0.0
 40
2.000000000000037
100
AcDbArc
 50
204.8357513783
 51
305.0
  0
LINE
  5
29B
330
1F
100
AcDbEntity
  8
0
  6
Continuous
 62
     7
370
    15
100
AcDbLine
 10
135.0177109449
 20
89.5899819201
 30
0.0
 11
134.2529785363
 21
89.0545105229
 31
0.0
  0
ARC
  5
29C
330
1F
100
AcDbEntity
  8
0
  6
Continuous
 62
     7
370
    15
100
AcDbCircle
 10
134.1573462904
 20
90.8187099866
 30
0.0
 40
1.499999999999987
100
AcDbArc
 50
305.0
 51
27.3377443392
  0
ARC
  5
29D
330
1F
100
AcDbEntity
  8
0
  6
Continuous
 62
     7
370
    15
100
AcDbCircle
 10
140.8197080292
 20
94.2629713096
 30
0.0
 40
6.000000000000014
100
AcDbArc
 50
152.6622556608
 51
207.3377443392
  0
ARC
  5
29E
330
1F
100
AcDbEntity
  8
0
  6
Continuous
 62
     7
370
    15
100
AcDbCircle
 10
134.1573462904
 20
97.7072326326
 30
0.0
 40
1.499999999999994
100
AcDbArc
 50
332.6622556608
 51
55.0
  0
LINE
  5
29F
330
1F
100
AcDbEntity
  8
0
  6
Continuous
 62
     7
370
    15
100
AcDbLine
 10
134.2529785363
 20
99.4714320963
 30
0.0
 11
135.0177109449
 21
98.9359606991
 31
0.0
  0
ARC
  5
2A0
330
1F
100
AcDbEntity
  8
0
  6
Continuous
 62
     7
370
    15
100
AcDbCircle
 10
133.1058256636
 20
97.8331280077
 30
0.0
 40
2.000000000000011
100
AcDbArc
 50
55.0
 51
155.1642486217
  0
ARC
  5
2A1
330
1F
100
AcDbEntity
  8
0
  6
Continuous
 62
     7
370
    15
100
AcDbCircle
 10
140.8197080292
 20
94.2629713096
 30
0.0
 40
10.50000000000003
100
AcDbArc
 50
155.1642486217
 51
204.8357513783
  0
ARC
  5
2A2
330
1F
100
AcDbEntity
  8
0
  6
Continuous
 62
     7
370
    15
100
AcDbCircle
 10
148.5335903948
 20
97.8331280077
 30
0.0
 40
2.000000000000031
100
AcDbArc
 50
24.8357513783
 51
125.0
  0
LINE
  5
2A3
330
1F
100
AcDbEntity
  8
0
  6
Continuous
 62
     7
370
    15
100
AcDbLine
 10
146.6217051135
 20
98.9359606991
 30
0.0
 11
147.3864375221
 21
99.4714320963
 31
0.0
  0
ARC
  5
2A4
330
1F
100
AcDbEntity
  8
0
  6
Continuous
 62
     7
370
    15
100
AcDbCircle
 10
147.482069768
 20
97.7072326326
 30
0.0
 40
1.500000000000007
100
AcDbArc
 50
125.0
 51
207.3377443392
  0
ARC
  5
2A5
330
1F
100
AcDbEntity
  8
0
  6
Continuous
 62
     7
370
    15
100
AcDbCircle
 10
140.8197080292
 20
94.2629713096
 30
0.0
 40
6.000000000000001
100
AcDbArc
 50
332.6622556608
 51
27.3377443392
  0
LINE
  5
2A6
330
1F
100
AcDbEntity
  8
0
  6
Continuous
 62
     7
370
    15
100
AcDbLine
 10
147.3864375221
 20
89.0545105229
 30
0.0
 11
146.6217051135
 21
89.5899819201
 31
0.0
  0
ARC
  5
2A7
330
1F
100
AcDbEntity
  8
0
  6
Continuous
 62
     7
370
    15
100
AcDbCircle
 10
148.5335903948
 20
90.6928146115
 30
0.0
 40
2.000000000000025
100
AcDbArc
 50
235.0
 51
335.1642486217
  0
ARC
  5
2A8
330
1F
100
AcDbEntity
  8
0
  6
Continuous
 62
     7
370
    15
100
AcDbCircle
 10
140.8197080292
 20
94.2629713096
 30
0.0
 40
10.50000000000001
100
AcDbArc
 50
335.1642486217
 51
24.8357513783
  0
LINE
  5
2A9
330
1F
100
AcDbEntity
  8
0
  6
Continuous
 62
     7
370
    15
100
AcDbLine
 10
128.5982026529
 20
87.7629713096
 30
0.0
 11
126.8197080292
 21
90.0102539183
 31
0.0
  0
ARC
  5
2AA
330
1F
100
AcDbEntity
  8
0
  6
Continuous
 62
     7
370
    15
100
AcDbCircle
 10
138.1197080292
 20
94.2629713096
 30
0.0
 40
14.0
100
AcDbArc
 50
126.1822872212
 51
143.8177127788
  0
LINE
  5
2AB
330
1F
100
AcDbEntity
  8
0
  6
Continuous
 62
     7
370
    15
100
AcDbLine
 10
138.061365416
 20
104.2629713096
 30
0.0
 11
143.5780506424
 21
104.2629713096
 31
0.0
  0
ARC
  5
2AC
330
1F
100
AcDbEntity
  8
0
  6
Continuous
 62
     7
370
    15
100
AcDbCircle
 10
134.1573462904
 20
97.7072326326
 30
0.0
 40
0.999999999999998
100
AcDbArc
 50
332.6622556608
 51
55.0
  0
LINE
  5
2AD
330
1F
100
AcDbEntity
  8
0
  6
Continuous
 62
     7
370
    15
100
AcDbLine
 10
134.7309227267
 20
98.5263846769
 30
0.0
 11
135.0177109449
 21
98.9359606991
 31
0.0
  0
LINE
  5
2AE
330
1F
100
AcDbEntity
  8
0
  6
Continuous
 62
     7
370
    15
100
AcDbLine
 10
135.0456611889
 20
97.2479977896
 30
0.0
 11
135.4898186382
 21
97.018380368
 31
0.0
  0
LINE
  5
2AF
330
1F
100
AcDbEntity
  8
0
  6
Continuous
 62
     7
370
    15
100
AcDbLine
 10
150.0697080292
 20
105.7629713096
 30
0.0
 11
151.5040677405
 21
105.7629713096
 31
0.0
  0
ARC
  5
2B0
330
1F
100
AcDbEntity
  8
0
  6
Continuous
 62
     7
370
    15
100
AcDbCircle
 10
143.5197080292
 20
94.2629713096
 30
0.0
 40
13.99999999999999
100
AcDbArc
 50
53.8177127788
 51
55.2280559681
  0
LINE
  5
2B1
330
1F
100
AcDbEntity
  8
0
  6
Continuous
 62
     7
370
    15
100
AcDbLine
 10
150.0697080292
 20
105.5629713096
 30
0.0
 11
150.0697080292
 21
105.7629713096
 31
0.0
  0
LINE
  5
2B2
330
1F
100
AcDbEntity
  8
0
  6
Continuous
 62
     7
370
    15
100
AcDbLine
 10
134.2529785363
 20
89.0545105229
 30
0.0
 11
133.9661903181
 21
89.464086545
 31
0.0
  0
LINE
  5
2B3
330
1F
100
AcDbEntity
  8
0
  6
Continuous
 62
     7
370
    15
100
AcDbLine
 10
133.9661903181
 20
89.464086545
 30
0.0
 11
134.7309227267
 21
89.9995579423
 31
0.0
  0
LINE
  5
2B4
330
1F
100
AcDbEntity
  8
0
  6
Continuous
 62
     7
370
    15
100
AcDbLine
 10
135.0177109449
 20
89.5899819201
 30
0.0
 11
134.7309227267
 21
89.9995579423
 31
0.0
  0
LINE
  5
2B5
330
1F
100
AcDbEntity
  8
0
  6
Continuous
 62
     7
370
    15
100
AcDbLine
 10
130.1353483179
 20
105.7629713096
 30
0.0
 11
131.5697080292
 21
105.7629713096
 31
0.0
  0
LINE
  5
2B6
330
1F
100
AcDbEntity
  8
0
  6
Continuous
 62
     7
370
    15
100
AcDbLine
 10
131.5697080292
 20
105.7629713096
 30
0.0
 11
131.5697080292
 21
105.5629713096
 31
0.0
  0
ARC
  5
2B7
330
1F
100
AcDbEntity
  8
0
  6
Continuous
 62
     7
370
    15
100
AcDbCircle
 10
138.1197080292
 20
94.2629713096
 30
0.0
 40
13.99999999999999
100
AcDbArc
 50
124.7719440319
 51
126.1822872212
  0
ARC
  5
2B8
330
1F
100
AcDbEntity
  8
0
  6
Continuous
 62
     7
370
    15
100
AcDbCircle
 10
140.8197080292
 20
94.2629713096
 30
0.0
 40
6.499999999999996
100
AcDbArc
 50
332.6622556608
 51
27.3377443392
  0
LINE
  5
2B9
330
1F
100
AcDbEntity
  8
0
  6
Continuous
 62
     7
370
    15
100
AcDbLine
 10
146.5937548695
 20
97.2479977896
 30
0.0
 11
146.1495974202
 21
97.018380368
 31
0.0
  0
LINE
  5
2BA
330
1F
100
AcDbEntity
  8
0
  6
Continuous
 62
     7
370
    15
100
AcDbLine
 10
147.3864375221
 20
99.4714320963
 30
0.0
 11
147.6732257403
 21
99.0618560742
 31
0.0
  0
LINE
  5
2BB
330
1F
100
AcDbEntity
  8
0
  6
Continuous
 62
     7
370
    15
100
AcDbLine
 10
147.6732257403
 20
99.0618560742
 30
0.0
 11
146.9084933317
 21
98.5263846769
 31
0.0
  0
LINE
  5
2BC
330
1F
100
AcDbEntity
  8
0
  6
Continuous
 62
     7
370
    15
100
AcDbLine
 10
146.6217051135
 20
98.9359606991
 30
0.0
 11
146.9084933317
 21
98.5263846769
 31
0.0
  0
LINE
  5
2BD
330
1F
100
AcDbEntity
  8
0
  6
Continuous
 62
     7
370
    15
100
AcDbLine
 10
150.3486215397
 20
89.8527777413
 30
0.0
 11
149.8948637535
 21
90.0627869589
 31
0.0
  0
ARC
  5
2BE
330
1F
100
AcDbEntity
  8
0
  6
Continuous
 62
     7
370
    15
100
AcDbCircle
 10
140.8197080292
 20
94.2629713096
 30
0.0
 40
10.00000000000001
100
AcDbArc
 50
335.1642486217
 51
24.8357513783
  0
LINE
  5
2BF
330
1F
100
AcDbEntity
  8
0
  6
Continuous
 62
     7
370
    15
100
AcDbLine
 10
150.3486215397
 20
98.6731648779
 30
0.0
 11
149.8948637535
 21
98.4631556604
 31
0.0
  0
ARC
  5
2C0
330
1F
100
AcDbEntity
  8
0
  6
Continuous
 62
     7
370
    15
100
AcDbCircle
 10
140.8197080292
 20
94.2629713096
 30
0.0
 40
6.499999999999991
100
AcDbArc
 50
152.6622556608
 51
207.3377443392
  0
LINE
  5
2C1
330
1F
100
AcDbEntity
  8
0
  6
Continuous
 62
     7
370
    15
100
AcDbLine
 10
135.0456611889
 20
91.2779448297
 30
0.0
 11
135.4898186382
 21
91.5075622512
 31
0.0
  0
LINE
  5
2C2
330
1F
100
AcDbEntity
  8
0
  6
Continuous
 62
     7
370
    15
100
AcDbLine
 10
155.0197080292
 20
102.2473310209
 30
0.0
 11
155.0197080292
 21
90.2629713096
 31
0.0
  0
LINE
  5
2C3
330
1F
100
AcDbEntity
  8
0
  6
Continuous
 62
     7
370
    15
100
AcDbLine
 10
155.0197080292
 20
90.2629713096
 30
0.0
 11
154.8197080292
 21
90.0102539183
 31
0.0
  0
ARC
  5
2C4
330
1F
100
AcDbEntity
  8
0
  6
Continuous
 62
     7
370
    15
100
AcDbCircle
 10
143.5197080292
 20
94.2629713096
 30
0.0
 40
13.99999999999997
100
AcDbArc
 50
34.7719440319
 51
36.1822872212
  0
LINE
  5
2C5
330
1F
100
AcDbEntity
  8
0
  6
Continuous
 62
     7
370
    15
100
AcDbLine
 10
131.2907945187
 20
98.6731648779
 30
0.0
 11
131.7445523049
 21
98.4631556604
 31
0.0
  0
ARC
  5
2C6
330
1F
100
AcDbEntity
  8
0
  6
Continuous
 62
     7
370
    15
100
AcDbCircle
 10
140.8197080292
 20
94.2629713096
 30
0.0
 40
10.00000000000002
100
AcDbArc
 50
155.1642486217
 51
204.8357513783
  0
LINE
  5
2C7
330
1F
100
AcDbEntity
  8
0
  6
Continuous
 62
     7
370
    15
100
AcDbLine
 10
131.2907945187
 20
89.8527777413
 30
0.0
 11
131.7445523049
 21
90.0627869589
 31
0.0
  0
ARC
  5
2C8
330
1F
100
AcDbEntity
  8
0
  6
Continuous
 62
     7
370
    15
100
AcDbCircle
 10
133.1058256636
 20
97.8331280077
 30
0.0
 40
1.499999999999999
100
AcDbArc
 50
55.0
 51
155.1642486217
  0
LINE
  5
2C9
330
1F
100
AcDbEntity
  8
0
  6
Continuous
 62
     7
370
    15
100
AcDbLine
 10
133.9661903181
 20
99.0618560742
 30
0.0
 11
134.2529785363
 21
99.4714320963
 31
0.0
  0
ARC
  5
2CA
330
1F
100
AcDbEntity
  8
0
  6
Continuous
 62
     7
370
    15
100
AcDbCircle
 10
134.1573462904
 20
90.8187099866
 30
0.0
 40
1.000000000000004
100
AcDbArc
 50
305.0
 51
27.3377443392
  0
LINE
  5
2CB
330
1F
100
AcDbEntity
  8
0
  6
Continuous
 62
     7
370
    15
100
AcDbLine
 10
126.6197080292
 20
90.2629713096
 30
0.0
 11
126.6197080292
 21
102.2473310209
 31
0.0
  0
LINE
  5
2CC
330
1F
100
AcDbEntity
  8
0
  6
Continuous
 62
     7
370
    15
100
AcDbLine
 10
126.8197080292
 20
90.0102539183
 30
0.0
 11
126.6197080292
 21
90.2629713096
 31
0.0
  0
ARC
  5
2CD
330
1F
100
AcDbEntity
  8
0
  6
Continuous
 62
     7
370
    15
100
AcDbCircle
 10
138.1197080292
 20
94.2629713096
 30
0.0
 40
14.0
100
AcDbArc
 50
143.8177127788
 51
145.2280559681
  0
ARC
  5
2CE
330
1F
100
AcDbEntity
  8
0
  6
Continuous
 62
     7
370
    15
100
AcDbCircle
 10
148.5335903948
 20
90.6928146115
 30
0.0
 40
1.500000000000024
100
AcDbArc
 50
235.0
 51
335.1642486217
  0
LINE
  5
2CF
330
1F
100
AcDbEntity
  8
0
  6
Continuous
 62
     7
370
    15
100
AcDbLine
 10
147.6732257403
 20
89.464086545
 30
0.0
 11
147.3864375221
 21
89.0545105229
 31
0.0
  0
ARC
  5
2D0
330
1F
100
AcDbEntity
  8
0
  6
Continuous
 62
     7
370
    15
100
AcDbCircle
 10
133.1058256636
 20
90.6928146115
 30
0.0
 40
1.500000000000036
100
AcDbArc
 50
204.8357513783
 51
305.0
  0
LINE
  5
2D1
330
1F
100
AcDbEntity
  8
0
  6
Continuous
 62
     7
370
    15
100
AcDbLine
 10
134.7309227267
 20
98.5263846769
 30
0.0
 11
133.9661903181
 21
99.0618560742
 31
0.0
  0
ARC
  5
2D2
330
1F
100
AcDbEntity
  8
0
  6
Continuous
 62
     7
370
    15
100
AcDbCircle
 10
148.5335903948
 20
97.8331280077
 30
0.0
 40
1.50000000000003
100
AcDbArc
 50
24.8357513783
 51
125.0
  0
LINE
  5
2D3
330
1F
100
AcDbEntity
  8
0
  6
Continuous
 62
     7
370
    15
100
AcDbLine
 10
146.9084933317
 20
89.9995579423
 30
0.0
 11
147.6732257403
 21
89.464086545
 31
0.0
  0
ARC
  5
2D4
330
1F
100
AcDbEntity
  8
0
  6
Continuous
 62
     7
370
    15
100
AcDbCircle
 10
147.482069768
 20
97.7072326326
 30
0.0
 40
1.000000000000004
100
AcDbArc
 50
125.0
 51
207.3377443392
  0
ARC
  5
2D5
330
1F
100
AcDbEntity
  8
0
  6
Continuous
 62
     7
370
    15
100
AcDbCircle
 10
147.482069768
 20
90.8187099866
 30
0.0
 40
0.4999999999999964
100
AcDbArc
 50
152.6622556608
 51
235.0
  0
LINE
  5
2D6
330
1F
100
AcDbEntity
  8
0
  6
Continuous
 62
     7
370
    15
100
AcDbLine
 10
147.1952815498
 20
90.4091339644
 30
0.0
 11
146.9084933317
 21
89.9995579423
 31
0.0
  0
LINE
  5
2D7
330
1F
100
AcDbEntity
  8
0
  6
Continuous
 62
     7
370
    15
100
AcDbLine
 10
147.0379123187
 20
91.0483274081
 30
0.0
 11
146.5937548695
 21
91.2779448297
 31
0.0
  0
LINE
  5
2D8
330
1F
100
AcDbEntity
  8
0
  6
Continuous
 62
     7
370
    15
100
AcDbLine
 10
147.6732257403
 20
99.0618560742
 30
0.0
 11
147.9600139585
 21
98.652280052
 31
0.0
  0
LINE
  5
2D9
330
1F
100
AcDbEntity
  8
0
  6
Continuous
 62
     7
370
    15
100
AcDbLine
 10
147.9600139585
 20
98.652280052
 30
0.0
 11
147.1952815498
 21
98.1168086548
 31
0.0
  0
LINE
  5
2DA
330
1F
100
AcDbEntity
  8
0
  6
Continuous
 62
     7
370
    15
100
AcDbLine
 10
146.9084933317
 20
98.5263846769
 30
0.0
 11
147.1952815498
 21
98.1168086548
 31
0.0
  0
ARC
  5
2DB
330
1F
100
AcDbEntity
  8
0
  6
Continuous
 62
     7
370
    15
100
AcDbCircle
 10
140.8197080292
 20
94.2629713096
 30
0.0
 40
7.000000000000012
100
AcDbArc
 50
332.6622556608
 51
27.3377443392
  0
LINE
  5
2DC
330
1F
100
AcDbEntity
  8
0
  6
Continuous
 62
     7
370
    15
100
AcDbLine
 10
147.0379123187
 20
97.4776152111
 30
0.0
 11
146.5937548695
 21
97.2479977896
 31
0.0
  0
ARC
  5
2DD
330
1F
100
AcDbEntity
  8
0
  6
Continuous
 62
     7
370
    15
100
AcDbCircle
 10
133.1058256636
 20
97.8331280077
 30
0.0
 40
1.000000000000014
100
AcDbArc
 50
55.0
 51
155.1642486217
  0
LINE
  5
2DE
330
1F
100
AcDbEntity
  8
0
  6
Continuous
 62
     7
370
    15
100
AcDbLine
 10
131.7445523049
 20
98.4631556604
 30
0.0
 11
132.1983100911
 21
98.2531464428
 31
0.0
  0
LINE
  5
2DF
330
1F
100
AcDbEntity
  8
0
  6
Continuous
 62
     7
370
    15
100
AcDbLine
 10
133.6794020999
 20
98.652280052
 30
0.0
 11
133.9661903181
 21
99.0618560742
 31
0.0
  0
ARC
  5
2E0
330
1F
100
AcDbEntity
  8
0
  6
Continuous
 62
     7
370
    15
100
AcDbCircle
 10
140.8197080292
 20
94.2629713096
 30
0.0
 40
7.000000000000019
100
AcDbArc
 50
152.6622556608
 51
207.3377443392
  0
LINE
  5
2E1
330
1F
100
AcDbEntity
  8
0
  6
Continuous
 62
     7
370
    15
100
AcDbLine
 10
134.6015037396
 20
97.4776152111
 30
0.0
 11
135.0456611889
 21
97.2479977896
 31
0.0
  0
LINE
  5
2E2
330
1F
100
AcDbEntity
  8
0
  6
Continuous
 62
     7
370
    15
100
AcDbLine
 10
134.6015037396
 20
91.0483274081
 30
0.0
 11
135.0456611889
 21
91.2779448297
 31
0.0
  0
LINE
  5
2E3
330
1F
100
AcDbEntity
  8
0
  6
Continuous
 62
     7
370
    15
100
AcDbLine
 10
147.1952815498
 20
90.4091339644
 30
0.0
 11
147.9600139585
 21
89.8736625672
 31
0.0
  0
LINE
  5
2E4
330
1F
100
AcDbEntity
  8
0
  6
Continuous
 62
     7
370
    15
100
AcDbLine
 10
147.9600139585
 20
89.8736625672
 30
0.0
 11
147.6732257403
 21
89.464086545
 31
0.0
  0
LINE
  5
2E5
330
1F
100
AcDbEntity
  8
0
  6
Continuous
 62
     7
370
    15
100
AcDbLine
 10
149.8948637535
 20
98.4631556604
 30
0.0
 11
149.4411059673
 21
98.2531464428
 31
0.0
  0
ARC
  5
2E6
330
1F
100
AcDbEntity
  8
0
  6
Continuous
 62
     7
370
    15
100
AcDbCircle
 10
148.5335903948
 20
97.8331280077
 30
0.0
 40
1.000000000000003
100
AcDbArc
 50
24.8357513783
 51
125.0
  0
ARC
  5
2E7
330
1F
100
AcDbEntity
  8
0
  6
Continuous
 62
     7
370
    15
100
AcDbCircle
 10
134.1573462904
 20
90.8187099866
 30
0.0
 40
0.4999999999999848
100
AcDbArc
 50
305.0
 51
27.3377443392
  0
LINE
  5
2E8
330
1F
100
AcDbEntity
  8
0
  6
Continuous
 62
     7
370
    15
100
AcDbLine
 10
134.7309227267
 20
89.9995579423
 30
0.0
 11
134.4441345086
 21
90.4091339644
 31
0.0
  0
ARC
  5
2E9
330
1F
100
AcDbEntity
  8
0
  6
Continuous
 62
     7
370
    15
100
AcDbCircle
 10
147.482069768
 20
97.7072326326
 30
0.0
 40
0.4999999999999848
100
AcDbArc
 50
125.0
 51
207.3377443392
  0
LINE
  5
2EA
330
1F
100
AcDbEntity
  8
0
  6
Continuous
 62
     7
370
    15
100
AcDbLine
 10
131.7445523049
 20
90.0627869589
 30
0.0
 11
132.1983100911
 21
90.2727961764
 31
0.0
  0
ARC
  5
2EB
330
1F
100
AcDbEntity
  8
0
  6
Continuous
 62
     7
370
    15
100
AcDbCircle
 10
133.1058256636
 20
90.6928146115
 30
0.0
 40
1.000000000000028
100
AcDbArc
 50
204.8357513783
 51
305.0
  0
LINE
  5
2EC
330
1F
100
AcDbEntity
  8
0
  6
Continuous
 62
     7
370
    15
100
AcDbLine
 10
133.9661903181
 20
89.464086545
 30
0.0
 11
133.6794020999
 21
89.8736625672
 31
0.0
  0
ARC
  5
2ED
330
1F
100
AcDbEntity
  8
0
  6
Continuous
 62
     7
370
    15
100
AcDbCircle
 10
134.1573462904
 20
97.7072326326
 30
0.0
 40
0.4999999999999964
100
AcDbArc
 50
332.6622556608
 51
55.0
  0
LINE
  5
2EE
330
1F
100
AcDbEntity
  8
0
  6
Continuous
 62
     7
370
    15
100
AcDbLine
 10
134.4441345086
 20
98.1168086548
 30
0.0
 11
134.7309227267
 21
98.5263846769
 31
0.0
  0
LINE
  5
2EF
330
1F
100
AcDbEntity
  8
0
  6
Continuous
 62
     7
370
    15
100
AcDbLine
 10
134.4441345086
 20
98.1168086548
 30
0.0
 11
133.6794020999
 21
98.652280052
 31
0.0
  0
ARC
  5
2F0
330
1F
100
AcDbEntity
  8
0
  6
Continuous
 62
     7
370
    15
100
AcDbCircle
 10
148.5335903948
 20
90.6928146115
 30
0.0
 40
1.000000000000028
100
AcDbArc
 50
235.0
 51
335.1642486217
  0
LINE
  5
2F1
330
1F
100
AcDbEntity
  8
0
  6
Continuous
 62
     7
370
    15
100
AcDbLine
 10
149.8948637535
 20
90.0627869589
 30
0.0
 11
149.4411059673
 21
90.2727961764
 31
0.0
  0
LINE
  5
2F2
330
1F
100
AcDbEntity
  8
0
  6
Continuous
 62
     7
370
    15
100
AcDbLine
 10
133.6794020999
 20
89.8736625672
 30
0.0
 11
134.4441345086
 21
90.4091339644
 31
0.0
  0
ARC
  5
2F3
330
1F
100
AcDbEntity
  8
0
  6
Continuous
 62
     7
370
    15
100
AcDbCircle
 10
140.8197080292
 20
94.2629713096
 30
0.0
 40
9.500000000000018
100
AcDbArc
 50
155.1642486217
 51
204.8357513783
  0
ARC
  5
2F4
330
1F
100
AcDbEntity
  8
0
  6
Continuous
 62
     7
370
    15
100
AcDbCircle
 10
140.8197080292
 20
94.2629713096
 30
0.0
 40
9.500000000000016
100
AcDbArc
 50
335.1642486217
 51
24.8357513783
  0
ARC
  5
2F5
330
1F
100
AcDbEntity
  8
0
  6
Continuous
 62
     7
370
    15
100
AcDbCircle
 10
138.0057153553
 20
106.2629713096
 30
0.0
 40
2.0
100
AcDbArc
 50
218.6821874535
 51
270.0
  0
ARC
  5
2F6
330
1F
100
AcDbEntity
  8
0
  6
Continuous
 62
     7
370
    15
100
AcDbCircle
 10
134.8832163561
 20
103.7629713096
 30
0.0
 40
2.00000000000002
100
AcDbArc
 50
38.6821874535
 51
90.0
  0
LINE
  5
2F7
330
1F
100
AcDbEntity
  8
0
  6
Continuous
 62
     7
370
    15
100
AcDbLine
 10
134.8832163561
 20
105.7629713096
 30
0.0
 11
131.5697080292
 21
105.7629713096
 31
0.0
  0
LINE
  5
2F8
330
1F
100
AcDbEntity
  8
0
  6
Continuous
 62
     7
370
    15
100
AcDbLine
 10
138.0057153553
 20
104.2629713096
 30
0.0
 11
138.061365416
 21
104.2629713096
 31
0.0
  0
LINE
  5
2F9
330
1F
100
AcDbEntity
  8
0
  6
Continuous
 62
     7
370
    15
100
AcDbLine
 10
146.7561997023
 20
82.7629713096
 30
0.0
 11
149.2553835472
 21
82.7629713096
 31
0.0
  0
ARC
  5
2FA
330
1F
100
AcDbEntity
  8
0
  6
Continuous
 62
     7
370
    15
100
AcDbCircle
 10
143.6337007031
 20
82.2629713096
 30
0.0
 40
2.0
100
AcDbArc
 50
38.6821874535
 51
90.0
  0
ARC
  5
2FB
330
1F
100
AcDbEntity
  8
0
  6
Continuous
 62
     7
370
    15
100
AcDbCircle
 10
149.2553835472
 20
85.7629713096
 30
0.0
 40
3.000000000000017
100
AcDbArc
 50
270.0
 51
359.845992817
  0
ARC
  5
2FC
330
1F
100
AcDbEntity
  8
0
  6
Continuous
 62
     7
370
    15
100
AcDbCircle
 10
146.7561997023
 20
84.7629713096
 30
0.0
 40
2.0
100
AcDbArc
 50
218.6821874535
 51
270.0
  0
ARC
  5
2FD
330
1F
100
AcDbEntity
  8
0
  6
Continuous
 62
     7
370
    15
100
AcDbCircle
 10
155.2553618723
 20
85.7468437345
 30
0.0
 40
2.999999999999995
100
AcDbArc
 50
146.900066766
 51
179.845992817
  0
LINE
  5
2FE
330
1F
100
AcDbEntity
  8
0
  6
Continuous
 62
     7
370
    15
100
AcDbLine
 10
152.7422038133
 20
87.385146689
 30
0.0
 11
153.0412134055
 21
87.7629713096
 31
0.0
  0
ARC
  5
2FF
330
1F
100
AcDbEntity
  8
0
  6
Continuous
 62
     7
370
    15
100
AcDbCircle
 10
146.7561997023
 20
103.7629713096
 30
0.0
 40
2.0
100
AcDbArc
 50
90.0
 51
141.3178125465
  0
ARC
  5
300
330
1F
100
AcDbEntity
  8
0
  6
Continuous
 62
     7
370
    15
100
AcDbCircle
 10
143.6337007031
 20
106.2629713096
 30
0.0
 40
2.0
100
AcDbArc
 50
270.0
 51
321.3178125465
  0
LINE
  5
301
330
1F
100
AcDbEntity
  8
0
  6
Continuous
 62
     7
370
    15
100
AcDbLine
 10
150.0697080292
 20
105.7629713096
 30
0.0
 11
146.7561997023
 21
105.7629713096
 31
0.0
  0
LINE
  5
302
330
1F
100
AcDbEntity
  8
0
  6
Continuous
 62
     7
370
    15
100
AcDbLine
 10
143.5780506424
 20
104.2629713096
 30
0.0
 11
143.6337007031
 21
104.2629713096
 31
0.0
  0
ARC
  5
303
330
1F
100
AcDbEntity
  8
0
  6
Continuous
 62
     7
370
    15
100
AcDbCircle
 10
132.3840325112
 20
85.7629713096
 30
0.0
 40
2.999999999999989
100
AcDbArc
 50
180.154007183
 51
270.0
  0
ARC
  5
304
330
1F
100
AcDbEntity
  8
0
  6
Continuous
 62
     7
370
    15
100
AcDbCircle
 10
134.8832163561
 20
84.7629713096
 30
0.0
 40
1.999999999999998
100
AcDbArc
 50
270.0
 51
321.3178125465
  0
ARC
  5
305
330
1F
100
AcDbEntity
  8
0
  6
Continuous
 62
     7
370
    15
100
AcDbCircle
 10
126.3840541861
 20
85.7468437345
 30
0.0
 40
2.999999999999989
100
AcDbArc
 50
0.154007183
 51
33.099933234
  0
LINE
  5
306
330
1F
100
AcDbEntity
  8
0
  6
Continuous
 62
     7
370
    15
100
AcDbLine
 10
132.3840325112
 20
82.7629713096
 30
0.0
 11
134.8832163561
 21
82.7629713096
 31
0.0
  0
ARC
  5
307
330
1F
100
AcDbEntity
  8
0
  6
Continuous
 62
     7
370
    15
100
AcDbCircle
 10
138.0057153553
 20
82.2629713096
 30
0.0
 40
2.0
100
AcDbArc
 50
90.0
 51
141.3178125465
  0
LINE
  5
308
330
1F
100
AcDbEntity
  8
0
  6
Continuous
 62
     7
370
    15
100
AcDbLine
 10
128.897212245
 20
87.385146689
 30
0.0
 11
128.5982026529
 21
87.7629713096
 31
0.0
  0
CIRCLE
  5
309
330
1F
100
AcDbEntity
  8
0
  6
Continuous
 62
     7
370
    15
100
AcDbCircle
 10
134.3197080292
 20
103.5129713096
 30
0.0
 40
1.432283538938767
  0
CIRCLE
  5
30A
330
1F
100
AcDbEntity
  8
0
  6
Continuous
 62
     7
370
    15
100
AcDbCircle
 10
134.3197080292
 20
103.5129713096
 30
0.0
 40
1.135684019913858
  0
LINE
  5
30B
330
1F
100
AcDbEntity
  8
0
  6
Continuous
 62
     7
370
    15
100
AcDbLine
 10
134.3958752263
 20
102.6503018723
 30
0.0
 11
133.61069798
 21
103.0156738633
 31
0.0
  0
LINE
  5
30C
330
1F
100
AcDbEntity
  8
0
  6
Continuous
 62
     7
370
    15
100
AcDbLine
 10
135.1048852755
 20
103.1475993186
 30
0.0
 11
134.3958752263
 21
102.6503018723
 31
0.0
  0
LINE
  5
30D
330
1F
100
AcDbEntity
  8
0
  6
Continuous
 62
     7
370
    15
100
AcDbLine
 10
135.0287180784
 20
104.0102687559
 30
0.0
 11
135.1048852755
 21
103.1475993186
 31
0.0
  0
LINE
  5
30E
330
1F
100
AcDbEntity
  8
0
  6
Continuous
 62
     7
370
    15
100
AcDbLine
 10
133.5345307829
 20
103.8783433007
 30
0.0
 11
134.2435408321
 21
104.3756407469
 31
0.0
  0
LINE
  5
30F
330
1F
100
AcDbEntity
  8
0
  6
Continuous
 62
     7
370
    15
100
AcDbLine
 10
133.61069798
 20
103.0156738633
 30
0.0
 11
133.5345307829
 21
103.8783433007
 31
0.0
  0
LINE
  5
310
330
1F
100
AcDbEntity
  8
0
  6
Continuous
 62
     7
370
    15
100
AcDbLine
 10
134.2435408321
 20
104.3756407469
 30
0.0
 11
135.0287180784
 21
104.0102687559
 31
0.0
  0
CIRCLE
  5
311
330
1F
100
AcDbEntity
  8
0
  6
Continuous
 62
     7
370
    15
100
AcDbCircle
 10
134.3197080292
 20
103.5129713096
 30
0.0
 40
1.843199038049866
  0
CIRCLE
  5
312
330
1F
100
AcDbEntity
  8
0
  6
Continuous
 62
     7
370
    15
100
AcDbCircle
 10
134.3197080292
 20
103.5129713096
 30
0.0
 40
2.24999999999999
  0
ARC
  5
313
330
1F
100
AcDbEntity
  8
0
  6
Continuous
 62
     7
370
    15
100
AcDbCircle
 10
134.3197080292
 20
103.5129713096
 30
0.0
 40
0.7500000000000032
100
AcDbArc
 50
5.0457004739
 51
65.0457004739
  0
ARC
  5
314
330
1F
100
AcDbEntity
  8
0
  6
Continuous
 62
     7
370
    15
100
AcDbCircle
 10
134.3197080292
 20
103.5129713096
 30
0.0
 40
0.7500000000000023
100
AcDbArc
 50
185.0457004739
 51
245.0457004739
  0
ARC
  5
315
330
1F
100
AcDbEntity
  8
0
  6
Continuous
 62
     7
370
    15
100
AcDbCircle
 10
134.3197080292
 20
103.5129713096
 30
0.0
 40
0.7499999999999966
100
AcDbArc
 50
305.0457004739
 51
5.0457004739
  0
ARC
  5
316
330
1F
100
AcDbEntity
  8
0
  6
Continuous
 62
     7
370
    15
100
AcDbCircle
 10
134.3197080292
 20
103.5129713096
 30
0.0
 40
0.7500000000000023
100
AcDbArc
 50
245.0457004739
 51
305.0457004739
  0
ARC
  5
317
330
1F
100
AcDbEntity
  8
0
  6
Continuous
 62
     7
370
    15
100
AcDbCircle
 10
134.3197080292
 20
103.5129713096
 30
0.0
 40
0.7500000000000159
100
AcDbArc
 50
125.0457004739
 51
185.0457004739
  0
ARC
  5
318
330
1F
100
AcDbEntity
  8
0
  6
Continuous
 62
     7
370
    15
100
AcDbCircle
 10
134.3197080292
 20
103.5129713096
 30
0.0
 40
0.7500000000000159
100
AcDbArc
 50
65.0457004739
 51
125.0457004739
  0
CIRCLE
  5
319
330
1F
100
AcDbEntity
  8
0
  6
Continuous
 62
     7
370
    15
100
AcDbCircle
 10
147.3197080292
 20
85.0129713096
 30
0.0
 40
1.432283538938767
  0
CIRCLE
  5
31A
330
1F
100
AcDbEntity
  8
0
  6
Continuous
 62
     7
370
    15
100
AcDbCircle
 10
147.3197080292
 20
85.0129713096
 30
0.0
 40
1.13568401991386
  0
LINE
  5
31B
330
1F
100
AcDbEntity
  8
0
  6
Continuous
 62
     7
370
    15
100
AcDbLine
 10
148.1048852755
 20
84.6475993186
 30
0.0
 11
147.3958752263
 21
84.1503018723
 31
0.0
  0
LINE
  5
31C
330
1F
100
AcDbEntity
  8
0
  6
Continuous
 62
     7
370
    15
100
AcDbLine
 10
148.0287180784
 20
85.5102687559
 30
0.0
 11
148.1048852755
 21
84.6475993186
 31
0.0
  0
LINE
  5
31D
330
1F
100
AcDbEntity
  8
0
  6
Continuous
 62
     7
370
    15
100
AcDbLine
 10
146.61069798
 20
84.5156738633
 30
0.0
 11
146.5345307829
 21
85.3783433007
 31
0.0
  0
LINE
  5
31E
330
1F
100
AcDbEntity
  8
0
  6
Continuous
 62
     7
370
    15
100
AcDbLine
 10
146.5345307829
 20
85.3783433007
 30
0.0
 11
147.2435408321
 21
85.8756407469
 31
0.0
  0
LINE
  5
31F
330
1F
100
AcDbEntity
  8
0
  6
Continuous
 62
     7
370
    15
100
AcDbLine
 10
147.2435408321
 20
85.8756407469
 30
0.0
 11
148.0287180784
 21
85.5102687559
 31
0.0
  0
LINE
  5
320
330
1F
100
AcDbEntity
  8
0
  6
Continuous
 62
     7
370
    15
100
AcDbLine
 10
147.3958752263
 20
84.1503018723
 30
0.0
 11
146.61069798
 21
84.5156738633
 31
0.0
  0
CIRCLE
  5
321
330
1F
100
AcDbEntity
  8
0
  6
Continuous
 62
     7
370
    15
100
AcDbCircle
 10
147.3197080292
 20
85.0129713096
 30
0.0
 40
1.843199038049838
  0
CIRCLE
  5
322
330
1F
100
AcDbEntity
  8
0
  6
Continuous
 62
     7
370
    15
100
AcDbCircle
 10
147.3197080292
 20
85.0129713096
 30
0.0
 40
2.249999999999988
  0
ARC
  5
323
330
1F
100
AcDbEntity
  8
0
  6
Continuous
 62
     7
370
    15
100
AcDbCircle
 10
147.3197080292
 20
85.0129713096
 30
0.0
 40
0.7500000000000023
100
AcDbArc
 50
65.0457004739
 51
125.0457004739
  0
ARC
  5
324
330
1F
100
AcDbEntity
  8
0
  6
Continuous
 62
     7
370
    15
100
AcDbCircle
 10
147.3197080292
 20
85.0129713096
 30
0.0
 40
0.7499999999999997
100
AcDbArc
 50
305.0457004739
 51
5.0457004739
  0
ARC
  5
325
330
1F
100
AcDbEntity
  8
0
  6
Continuous
 62
     7
370
    15
100
AcDbCircle
 10
147.3197080292
 20
85.0129713096
 30
0.0
 40
0.7500000000000023
100
AcDbArc
 50
5.0457004739
 51
65.0457004739
  0
ARC
  5
326
330
1F
100
AcDbEntity
  8
0
  6
Continuous
 62
     7
370
    15
100
AcDbCircle
 10
147.3197080292
 20
85.0129713096
 30
0.0
 40
0.7500000000000032
100
AcDbArc
 50
185.0457004739
 51
245.0457004739
  0
ARC
  5
327
330
1F
100
AcDbEntity
  8
0
  6
Continuous
 62
     7
370
    15
100
AcDbCircle
 10
147.3197080292
 20
85.0129713096
 30
0.0
 40
0.7500000000000032
100
AcDbArc
 50
245.0457004739
 51
305.0457004739
  0
ARC
  5
328
330
1F
100
AcDbEntity
  8
0
  6
Continuous
 62
     7
370
    15
100
AcDbCircle
 10
147.3197080292
 20
85.0129713096
 30
0.0
 40
0.7499999999999966
100
AcDbArc
 50
125.0457004739
 51
185.0457004739
  0
CIRCLE
  5
329
330
1F
100
AcDbEntity
  8
0
  6
Continuous
 62
     7
370
    15
100
AcDbCircle
 10
147.3197080292
 20
103.5129713096
 30
0.0
 40
1.432283538938767
  0
CIRCLE
  5
32A
330
1F
100
AcDbEntity
  8
0
  6
Continuous
 62
     7
370
    15
100
AcDbCircle
 10
147.3197080292
 20
103.5129713096
 30
0.0
 40
1.135684019913858
  0
LINE
  5
32B
330
1F
100
AcDbEntity
  8
0
  6
Continuous
 62
     7
370
    15
100
AcDbLine
 10
146.5345307829
 20
103.8783433007
 30
0.0
 11
147.2435408321
 21
104.3756407469
 31
0.0
  0
LINE
  5
32C
330
1F
100
AcDbEntity
  8
0
  6
Continuous
 62
     7
370
    15
100
AcDbLine
 10
146.61069798
 20
103.0156738633
 30
0.0
 11
146.5345307829
 21
103.8783433007
 31
0.0
  0
LINE
  5
32D
330
1F
100
AcDbEntity
  8
0
  6
Continuous
 62
     7
370
    15
100
AcDbLine
 10
147.3958752263
 20
102.6503018723
 30
0.0
 11
146.61069798
 21
103.0156738633
 31
0.0
  0
LINE
  5
32E
330
1F
100
AcDbEntity
  8
0
  6
Continuous
 62
     7
370
    15
100
AcDbLine
 10
148.1048852755
 20
103.1475993186
 30
0.0
 11
147.3958752263
 21
102.6503018723
 31
0.0
  0
LINE
  5
32F
330
1F
100
AcDbEntity
  8
0
  6
Continuous
 62
     7
370
    15
100
AcDbLine
 10
148.0287180784
 20
104.0102687559
 30
0.0
 11
148.1048852755
 21
103.1475993186
 31
0.0
  0
LINE
  5
330
330
1F
100
AcDbEntity
  8
0
  6
Continuous
 62
     7
370
    15
100
AcDbLine
 10
147.2435408321
 20
104.3756407469
 30
0.0
 11
148.0287180784
 21
104.0102687559
 31
0.0
  0
CIRCLE
  5
331
330
1F
100
AcDbEntity
  8
0
  6
Continuous
 62
     7
370
    15
100
AcDbCircle
 10
147.3197080292
 20
103.5129713096
 30
0.0
 40
1.843199038049837
  0
CIRCLE
  5
332
330
1F
100
AcDbEntity
  8
0
  6
Continuous
 62
     7
370
    15
100
AcDbCircle
 10
147.3197080292
 20
103.5129713096
 30
0.0
 40
2.24999999999999
  0
ARC
  5
333
330
1F
100
AcDbEntity
  8
0
  6
Continuous
 62
     7
370
    15
100
AcDbCircle
 10
147.3197080292
 20
103.5129713096
 30
0.0
 40
0.7500000000000159
100
AcDbArc
 50
125.0457004739
 51
185.0457004739
  0
ARC
  5
334
330
1F
100
AcDbEntity
  8
0
  6
Continuous
 62
     7
370
    15
100
AcDbCircle
 10
147.3197080292
 20
103.5129713096
 30
0.0
 40
0.7499999999999966
100
AcDbArc
 50
305.0457004739
 51
5.0457004739
  0
ARC
  5
335
330
1F
100
AcDbEntity
  8
0
  6
Continuous
 62
     7
370
    15
100
AcDbCircle
 10
147.3197080292
 20
103.5129713096
 30
0.0
 40
0.7499999999999903
100
AcDbArc
 50
245.0457004739
 51
305.0457004739
  0
ARC
  5
336
330
1F
100
AcDbEntity
  8
0
  6
Continuous
 62
     7
370
    15
100
AcDbCircle
 10
147.3197080292
 20
103.5129713096
 30
0.0
 40
0.7499999999999952
100
AcDbArc
 50
185.0457004739
 51
245.0457004739
  0
ARC
  5
337
330
1F
100
AcDbEntity
  8
0
  6
Continuous
 62
     7
370
    15
100
AcDbCircle
 10
147.3197080292
 20
103.5129713096
 30
0.0
 40
0.7500000000000159
100
AcDbArc
 50
65.0457004739
 51
125.0457004739
  0
ARC
  5
338
330
1F
100
AcDbEntity
  8
0
  6
Continuous
 62
     7
370
    15
100
AcDbCircle
 10
147.3197080292
 20
103.5129713096
 30
0.0
 40
0.7500000000000152
100
AcDbArc
 50
5.0457004739
 51
65.0457004739
  0
LINE
  5
339
330
1F
100
AcDbEntity
  8
0
  6
Continuous
 62
     7
370
    15
100
AcDbLine
 10
125.8197080292
 20
93.3290265556
 30
0.0
 11
123.3197080292
 21
93.3290265554
 31
0.0
  0
LINE
  5
33A
330
1F
100
AcDbEntity
  8
0
  6
Continuous
 62
     7
370
    15
100
AcDbLine
 10
123.3197080292
 20
93.3290265554
 30
0.0
 11
123.3197080292
 21
97.2088694834
 31
0.0
  0
LINE
  5
33B
330
1F
100
AcDbEntity
  8
0
  6
Continuous
 62
     7
370
    15
100
AcDbLine
 10
123.3197080292
 20
97.2088694834
 30
0.0
 11
125.8197080292
 21
97.2088694834
 31
0.0
  0
LINE
  5
33C
330
1F
100
AcDbEntity
  8
0
  6
Continuous
 62
     7
370
    15
100
AcDbLine
 10
125.8197080292
 20
93.3290265556
 30
0.0
 11
125.8197080292
 21
93.4266922978
 31
0.0
  0
LINE
  5
33D
330
1F
100
AcDbEntity
  8
0
  6
Continuous
 62
     7
370
    15
100
AcDbLine
 10
125.8197080292
 20
97.1112037411
 30
0.0
 11
125.8197080292
 21
97.2088694834
 31
0.0
  0
LINE
  5
33E
330
1F
100
AcDbEntity
  8
0
  6
Continuous
 62
     7
370
    15
100
AcDbLine
 10
125.8197080292
 20
90.3831283816
 30
0.0
 11
123.3197080292
 21
90.3831283816
 31
0.0
  0
LINE
  5
33F
330
1F
100
AcDbEntity
  8
0
  6
Continuous
 62
     7
370
    15
100
AcDbLine
 10
123.3197080292
 20
90.3831283816
 30
0.0
 11
123.3197080292
 21
93.3290265554
 31
0.0
  0
LINE
  5
340
330
1F
100
AcDbEntity
  8
0
  6
Continuous
 62
     7
370
    15
100
AcDbLine
 10
125.8197080292
 20
90.3831283816
 30
0.0
 11
125.8197080292
 21
90.4572843043
 31
0.0
  0
LINE
  5
341
330
1F
100
AcDbEntity
  8
0
  6
Continuous
 62
     7
370
    15
100
AcDbLine
 10
125.8197080292
 20
93.2548706328
 30
0.0
 11
125.8197080292
 21
93.3290265556
 31
0.0
  0
LINE
  5
342
330
1F
100
AcDbEntity
  8
0
  6
Continuous
 62
     7
370
    15
100
AcDbLine
 10
125.8197080292
 20
98.1428142376
 30
0.0
 11
123.3197080292
 21
98.1428142376
 31
0.0
  0
LINE
  5
343
330
1F
100
AcDbEntity
  8
0
  6
Continuous
 62
     7
370
    15
100
AcDbLine
 10
123.3197080292
 20
97.2088694834
 30
0.0
 11
123.3197080292
 21
98.1428142376
 31
0.0
  0
LINE
  5
344
330
1F
100
AcDbEntity
  8
0
  6
Continuous
 62
     7
370
    15
100
AcDbLine
 10
125.8197080292
 20
97.2088694834
 30
0.0
 11
125.8197080292
 21
97.2323793031
 31
0.0
  0
LINE
  5
345
330
1F
100
AcDbEntity
  8
0
  6
Continuous
 62
     7
370
    15
100
AcDbLine
 10
121.3197080292
 20
93.8594149344
 30
0.0
 11
121.3197080292
 21
96.0129713096
 31
0.0
  0
LINE
  5
346
330
1F
100
AcDbEntity
  8
0
  6
Continuous
 62
     7
370
    15
100
AcDbLine
 10
121.3197080292
 20
92.5129713096
 30
0.0
 11
121.3197080292
 21
93.8594149344
 31
0.0
  0
LINE
  5
347
330
1F
100
AcDbEntity
  8
0
  6
Continuous
 62
     7
370
    15
100
AcDbLine
 10
116.3197080292
 20
95.7225429624
 30
0.0
 11
116.3197080292
 21
95.7629713096
 31
0.0
  0
LINE
  5
348
330
1F
100
AcDbEntity
  8
0
  6
Continuous
 62
     7
370
    15
100
AcDbLine
 10
116.3197080292
 20
92.7629713096
 30
0.0
 11
116.3197080292
 21
95.7225429624
 31
0.0
  0
LINE
  5
349
330
1F
100
AcDbEntity
  8
0
  6
Continuous
 62
     7
370
    15
100
AcDbLine
 10
118.8197080292
 20
93.8594149344
 30
0.0
 11
118.8197080292
 21
96.0129713096
 31
0.0
  0
LINE
  5
34A
330
1F
100
AcDbEntity
  8
0
  6
Continuous
 62
     7
370
    15
100
AcDbLine
 10
118.8197080292
 20
92.5129713096
 30
0.0
 11
118.8197080292
 21
93.8594149344
 31
0.0
  0
LINE
  5
34B
330
1F
100
AcDbEntity
  8
0
  6
Continuous
 62
     7
370
    15
100
AcDbLine
 10
125.8197080292
 20
94.2629713096
 30
0.0
 11
125.8197080292
 21
97.1112037411
 31
0.0
  0
LINE
  5
34C
330
1F
100
AcDbEntity
  8
0
  6
Continuous
 62
     7
370
    15
100
AcDbLine
 10
125.8197080292
 20
97.2323793031
 30
0.0
 11
125.8197080292
 21
98.2629713096
 31
0.0
  0
LINE
  5
34D
330
1F
100
AcDbEntity
  8
0
  6
Continuous
 62
     7
370
    15
100
AcDbLine
 10
125.8197080292
 20
90.2629713096
 30
0.0
 11
125.8197080292
 21
90.3831283816
 31
0.0
  0
LINE
  5
34E
330
1F
100
AcDbEntity
  8
0
  6
Continuous
 62
     7
370
    15
100
AcDbLine
 10
125.8197080292
 20
90.4572843043
 30
0.0
 11
125.8197080292
 21
93.2548706328
 31
0.0
  0
LINE
  5
34F
330
1F
100
AcDbEntity
  8
0
  6
Continuous
 62
     7
370
    15
100
AcDbLine
 10
125.8197080292
 20
93.4266922978
 30
0.0
 11
125.8197080292
 21
94.2629713096
 31
0.0
  0
LINE
  5
350
330
1F
100
AcDbEntity
  8
0
  6
Continuous
 62
     7
370
    15
100
AcDbLine
 10
158.3197080292
 20
94.9536340112
 30
0.0
 11
155.8197080292
 21
94.9536340112
 31
0.0
  0
LINE
  5
351
330
1F
100
AcDbEntity
  8
0
  6
Continuous
 62
     7
370
    15
100
AcDbLine
 10
155.8197080292
 20
98.06432838
 30
0.0
 11
155.8197080292
 21
97.9860241083
 31
0.0
  0
LINE
  5
352
330
1F
100
AcDbEntity
  8
0
  6
Continuous
 62
     7
370
    15
100
AcDbLine
 10
155.8197080292
 20
95.0319382829
 30
0.0
 11
155.8197080292
 21
94.9536340112
 31
0.0
  0
LINE
  5
353
330
1F
100
AcDbEntity
  8
0
  6
Continuous
 62
     7
370
    15
100
AcDbLine
 10
155.8197080292
 20
98.06432838
 30
0.0
 11
158.3197080292
 21
98.06432838
 31
0.0
  0
LINE
  5
354
330
1F
100
AcDbEntity
  8
0
  6
Continuous
 62
     7
370
    15
100
AcDbLine
 10
158.3197080292
 20
98.06432838
 30
0.0
 11
158.3197080292
 21
94.9536340112
 31
0.0
  0
LINE
  5
355
330
1F
100
AcDbEntity
  8
0
  6
Continuous
 62
     7
370
    15
100
AcDbLine
 10
155.8197080292
 20
91.1522769408
 30
0.0
 11
158.3197080292
 21
91.152276941
 31
0.0
  0
LINE
  5
356
330
1F
100
AcDbEntity
  8
0
  6
Continuous
 62
     7
370
    15
100
AcDbLine
 10
158.3197080292
 20
94.9536340112
 30
0.0
 11
158.3197080292
 21
91.152276941
 31
0.0
  0
LINE
  5
357
330
1F
100
AcDbEntity
  8
0
  6
Continuous
 62
     7
370
    15
100
AcDbLine
 10
155.8197080292
 20
94.9536340112
 30
0.0
 11
155.8197080292
 21
94.8579439621
 31
0.0
  0
LINE
  5
358
330
1F
100
AcDbEntity
  8
0
  6
Continuous
 62
     7
370
    15
100
AcDbLine
 10
155.8197080292
 20
91.2479669899
 30
0.0
 11
155.8197080292
 21
91.1522769408
 31
0.0
  0
LINE
  5
359
330
1F
100
AcDbEntity
  8
0
  6
Continuous
 62
     7
370
    15
100
AcDbLine
 10
155.8197080292
 20
90.4616142392
 30
0.0
 11
158.3197080292
 21
90.4616142392
 31
0.0
  0
LINE
  5
35A
330
1F
100
AcDbEntity
  8
0
  6
Continuous
 62
     7
370
    15
100
AcDbLine
 10
158.3197080292
 20
91.152276941
 30
0.0
 11
158.3197080292
 21
90.4616142392
 31
0.0
  0
LINE
  5
35B
330
1F
100
AcDbEntity
  8
0
  6
Continuous
 62
     7
370
    15
100
AcDbLine
 10
155.8197080292
 20
91.1522769408
 30
0.0
 11
155.8197080292
 21
91.1348911634
 31
0.0
  0
LINE
  5
35C
330
1F
100
AcDbEntity
  8
0
  6
Continuous
 62
     7
370
    15
100
AcDbLine
 10
155.8197080292
 20
94.2629713096
 30
0.0
 11
155.8197080292
 21
94.8579439621
 31
0.0
  0
LINE
  5
35D
330
1F
100
AcDbEntity
  8
0
  6
Continuous
 62
     7
370
    15
100
AcDbLine
 10
155.8197080292
 20
95.0319382829
 30
0.0
 11
155.8197080292
 21
97.9860241083
 31
0.0
  0
LINE
  5
35E
330
1F
100
AcDbEntity
  8
0
  6
Continuous
 62
     7
370
    15
100
AcDbLine
 10
155.8197080292
 20
98.06432838
 30
0.0
 11
155.8197080292
 21
98.2629713096
 31
0.0
  0
LINE
  5
35F
330
1F
100
AcDbEntity
  8
0
  6
Continuous
 62
     7
370
    15
100
AcDbLine
 10
155.8197080292
 20
90.2629713096
 30
0.0
 11
155.8197080292
 21
91.1348911634
 31
0.0
  0
LINE
  5
360
330
1F
100
AcDbEntity
  8
0
  6
Continuous
 62
     7
370
    15
100
AcDbLine
 10
155.8197080292
 20
91.2479669899
 30
0.0
 11
155.8197080292
 21
94.2629713096
 31
0.0
  0
DIMENSION
  5
361
330
1F
100
AcDbEntity
  8
0
  6
Continuous
 62
     7
370
     0
100
AcDbDimension
  2
_D_7
 10
174.8197080292
 20
77.7629713096
 30
0.0
 11
174.8197080292
 21
91.9066935936
 31
0.0
 70
   160
  1
<>
 71
     2
 42
-1.0
  3
SLDDIMSTYLE0
100
AcDbAlignedDimension
 13
151.5040677405
 23
105.7629713096
 33
0.0
 14
164.8197080292
 24
77.7629713096
 34
0.0
 50
90.0
100
AcDbRotatedDimension
  0
DIMENSION
  5
36B
330
1F
100
AcDbEntity
  8
0
  6
Continuous
 62
     7
370
     0
100
AcDbDimension
  2
_D_8
 10
134.3197080292
 20
111.7574083996
 30
0.0
 11
140.8197080292
 21
111.7574083996
 31
0.0
 70
   160
  1
<>
 71
     2
 42
-1.0
  3
SLDDIMSTYLE0
100
AcDbAlignedDimension
 13
147.3197080292
 23
108.2629713096
 33
0.0
 14
134.3197080292
 24
108.2629713096
 34
0.0
100
AcDbRotatedDimension
  0
DIMENSION
  5
375
330
1F
100
AcDbEntity
  8
0
  6
Continuous
 62
     7
370
     0
100
AcDbDimension
  2
_D_9
 10
155.0197080292
 20
119.5688107573
 30
0.0
 11
140.8197080292
 21
119.5688107573
 31
0.0
 70
   160
  1
<>
 71
     2
 42
-1.0
  3
SLDDIMSTYLE6
100
AcDbAlignedDimension
 13
126.6197080292
 23
102.2473310209
 33
0.0
 14
155.0197080292
 24
102.2473310209
 34
0.0
100
AcDbRotatedDimension
  0
INSERT
  5
38B
330
1F
100
AcDbEntity
  8
0
  6
Continuous
 62
     7
370
     0
100
AcDbBlockReference
  2
SW_CENTERMARKSYMBOL_2
 10
130.1197080292
 20
102.2629713096
 30
0.0
  0
INSERT
  5
397
330
1F
100
AcDbEntity
  8
0
  6
Continuous
 62
     7
370
     0
100
AcDbBlockReference
  2
SW_CENTERMARKSYMBOL_3
 10
151.5197080292
 20
102.2629713096
 30
0.0
  0
INSERT
  5
3A3
330
1F
100
AcDbEntity
  8
0
  6
Continuous
 62
     7
370
     0
100
AcDbBlockReference
  2
SW_CENTERMARKSYMBOL_4
 10
134.3197080292
 20
103.5129713096
 30
0.0
  0
INSERT
  5
3AF
330
1F
100
AcDbEntity
  8
0
  6
Continuous
 62
     7
370
     0
100
AcDbBlockReference
  2
SW_CENTERMARKSYMBOL_5
 10
147.3197080292
 20
85.0129713096
 30
0.0
  0
INSERT
  5
3BB
330
1F
100
AcDbEntity
  8
0
  6
Continuous
 62
     7
370
     0
100
AcDbBlockReference
  2
SW_CENTERMARKSYMBOL_6
 10
134.3197080292
 20
85.0129713096
 30
0.0
  0
INSERT
  5
3C7
330
1F
100
AcDbEntity
  8
0
  6
Continuous
 62
     7
370
     0
100
AcDbBlockReference
  2
SW_CENTERMARKSYMBOL_7
 10
147.3197080292
 20
103.5129713096
 30
0.0
  0
INSERT
  5
3D3
330
1F
100
AcDbEntity
  8
0
  6
Continuous
 62
     7
370
     0
100
AcDbBlockReference
  2
SW_CENTERMARKSYMBOL_8
 10
140.8197080292
 20
94.2629713096
 30
0.0
  0
LINE
  5
3D4
330
1F
100
AcDbEntity
  8
0
  6
Continuous
 62
     7
370
    15
100
AcDbLine
 10
81.4822324791
 20
82.7629713096
 30
0.0
 11
81.776924719
 21
82.7629713096
 31
0.0
  0
LINE
  5
3D5
330
1F
100
AcDbEntity
  8
0
  6
Continuous
 62
     7
370
    15
100
AcDbLine
 10
81.776924719
 20
87.2629713096
 30
0.0
 11
81.4822324791
 21
87.2629713096
 31
0.0
  0
ARC
  5
3D6
330
1F
100
AcDbEntity
  8
0
  6
Continuous
 62
     7
370
    15
100
AcDbCircle
 10
81.776924719
 20
86.2629713096
 30
0.0
 40
1.000000000000003
100
AcDbArc
 50
36.3843518158
 51
90.0
  0
ARC
  5
3D7
330
1F
100
AcDbEntity
  8
0
  6
Continuous
 62
     7
370
    15
100
AcDbCircle
 10
81.776924719
 20
83.7629713096
 30
0.0
 40
1.000000000000003
100
AcDbArc
 50
270.0
 51
323.6156481842
  0
LINE
  5
3D8
330
1F
100
AcDbEntity
  8
0
  6
Continuous
 62
     7
370
    15
100
AcDbLine
 10
82.5819805564
 20
83.1697722716
 30
0.0
 11
82.8847603978
 21
83.5806877707
 31
0.0
  0
LINE
  5
3D9
330
1F
100
AcDbEntity
  8
0
  6
Continuous
 62
     7
370
    15
100
AcDbLine
 10
82.8847603978
 20
86.4452548486
 30
0.0
 11
82.5819805564
 21
86.8561703477
 31
0.0
  0
ARC
  5
3DA
330
1F
100
AcDbEntity
  8
0
  6
Continuous
 62
     7
370
    15
100
AcDbCircle
 10
82.4822324791
 20
83.8772872897
 30
0.0
 40
0.5000000000000089
100
AcDbArc
 50
323.6156481842
 51
0.0
  0
ARC
  5
3DB
330
1F
100
AcDbEntity
  8
0
  6
Continuous
 62
     7
370
    15
100
AcDbCircle
 10
82.4822324791
 20
86.1486553295
 30
0.0
 40
0.5000000000000173
100
AcDbArc
 50
0.0
 51
36.3843518158
  0
LINE
  5
3DC
330
1F
100
AcDbEntity
  8
0
  6
Continuous
 62
     7
370
    15
100
AcDbLine
 10
40.9822324791
 20
102.8935639234
 30
0.0
 11
37.9822324791
 21
102.8935639234
 31
0.0
  0
LINE
  5
3DD
330
1F
100
AcDbEntity
  8
0
  6
Continuous
 62
     7
370
    15
100
AcDbLine
 10
79.9822324791
 20
102.9446390555
 30
0.0
 11
40.9822324791
 21
102.9446390555
 31
0.0
  0
ARC
  5
3DE
330
1F
100
AcDbEntity
  8
0
  6
Continuous
 62
     7
370
    15
100
AcDbCircle
 10
39.1875402393
 20
104.7629713096
 30
0.0
 40
1.000000000000003
100
AcDbArc
 50
90.0
 51
143.6156481842
  0
LINE
  5
3DF
330
1F
100
AcDbEntity
  8
0
  6
Continuous
 62
     7
370
    15
100
AcDbLine
 10
39.4822324791
 20
105.7629713096
 30
0.0
 11
39.1875402393
 21
105.7629713096
 31
0.0
  0
LINE
  5
3E0
330
1F
100
AcDbEntity
  8
0
  6
Continuous
 62
     7
370
    15
100
AcDbLine
 10
38.3824844019
 20
105.3561703477
 30
0.0
 11
38.0797045605
 21
104.9452548486
 31
0.0
  0
ARC
  5
3E1
330
1F
100
AcDbEntity
  8
0
  6
Continuous
 62
     7
370
    15
100
AcDbCircle
 10
38.4822324791
 20
104.6486553295
 30
0.0
 40
0.5
100
AcDbArc
 50
143.6156481842
 51
180.0
  0
ARC
  5
3E2
330
1F
100
AcDbEntity
  8
0
  6
Continuous
 62
     7
370
    15
100
AcDbCircle
 10
39.1875402393
 20
83.7629713096
 30
0.0
 40
1.0
100
AcDbArc
 50
216.3843518158
 51
270.0
  0
ARC
  5
3E3
330
1F
100
AcDbEntity
  8
0
  6
Continuous
 62
     7
370
    15
100
AcDbCircle
 10
39.1875402393
 20
86.2629713096
 30
0.0
 40
1.0
100
AcDbArc
 50
90.0
 51
143.6156481842
  0
LINE
  5
3E4
330
1F
100
AcDbEntity
  8
0
  6
Continuous
 62
     7
370
    15
100
AcDbLine
 10
39.4822324791
 20
87.2629713096
 30
0.0
 11
39.1875402393
 21
87.2629713096
 31
0.0
  0
LINE
  5
3E5
330
1F
100
AcDbEntity
  8
0
  6
Continuous
 62
     7
370
    15
100
AcDbLine
 10
39.1875402393
 20
82.7629713096
 30
0.0
 11
39.4822324791
 21
82.7629713096
 31
0.0
  0
LINE
  5
3E6
330
1F
100
AcDbEntity
  8
0
  6
Continuous
 62
     7
370
    15
100
AcDbLine
 10
38.3824844019
 20
86.8561703477
 30
0.0
 11
38.0797045605
 21
86.4452548486
 31
0.0
  0
LINE
  5
3E7
330
1F
100
AcDbEntity
  8
0
  6
Continuous
 62
     7
370
    15
100
AcDbLine
 10
38.0797045605
 20
83.5806877707
 30
0.0
 11
38.3824844019
 21
83.1697722716
 31
0.0
  0
ARC
  5
3E8
330
1F
100
AcDbEntity
  8
0
  6
Continuous
 62
     7
370
    15
100
AcDbCircle
 10
38.4822324791
 20
86.1486553295
 30
0.0
 40
0.5000000000000059
100
AcDbArc
 50
143.6156481842
 51
180.0
  0
ARC
  5
3E9
330
1F
100
AcDbEntity
  8
0
  6
Continuous
 62
     7
370
    15
100
AcDbCircle
 10
38.4822324791
 20
83.8772872897
 30
0.0
 40
0.5
100
AcDbArc
 50
180.0
 51
216.3843518158
  0
LINE
  5
3EA
330
1F
100
AcDbEntity
  8
0
  6
Continuous
 62
     7
370
    15
100
AcDbLine
 10
82.9822324791
 20
84.9130875554
 30
0.0
 11
82.9822324791
 21
83.8772872897
 31
0.0
  0
LINE
  5
3EB
330
1F
100
AcDbEntity
  8
0
  6
Continuous
 62
     7
370
    15
100
AcDbLine
 10
82.9822324791
 20
86.1486553295
 30
0.0
 11
82.9822324791
 21
84.9130875554
 31
0.0
  0
LINE
  5
3EC
330
1F
100
AcDbEntity
  8
0
  6
Continuous
 62
     7
370
    15
100
AcDbLine
 10
40.9822324791
 20
90.2629713096
 30
0.0
 11
40.9822324791
 21
87.3835017613
 31
0.0
  0
LINE
  5
3ED
330
1F
100
AcDbEntity
  8
0
  6
Continuous
 62
     7
370
    15
100
AcDbLine
 10
39.4822324791
 20
87.3835017613
 30
0.0
 11
40.9822324791
 21
87.3835017613
 31
0.0
  0
LINE
  5
3EE
330
1F
100
AcDbEntity
  8
0
  6
Continuous
 62
     7
370
    15
100
AcDbLine
 10
39.4822324791
 20
87.7629713096
 30
0.0
 11
39.4822324791
 21
87.3835017613
 31
0.0
  0
LINE
  5
3EF
330
1F
100
AcDbEntity
  8
0
  6
Continuous
 62
     7
370
    15
100
AcDbLine
 10
39.4822324791
 20
87.7629713096
 30
0.0
 11
37.9822324791
 21
87.7629713096
 31
0.0
  0
LINE
  5
3F0
330
1F
100
AcDbEntity
  8
0
  6
Continuous
 62
     7
370
    15
100
AcDbLine
 10
37.9822324791
 20
90.0102539183
 30
0.0
 11
37.9822324791
 21
87.7629713096
 31
0.0
  0
LINE
  5
3F1
330
1F
100
AcDbEntity
  8
0
  6
Continuous
 62
     7
370
    15
100
AcDbLine
 10
38.1822324791
 20
90.2629713096
 30
0.0
 11
37.9822324791
 21
90.0102539183
 31
0.0
  0
LINE
  5
3F2
330
1F
100
AcDbEntity
  8
0
  6
Continuous
 62
     7
370
    15
100
AcDbLine
 10
38.1822324791
 20
90.2629713096
 30
0.0
 11
40.9822324791
 21
90.2629713096
 31
0.0
  0
LINE
  5
3F3
330
1F
100
AcDbEntity
  8
0
  6
Continuous
 62
     7
370
    15
100
AcDbLine
 10
38.1822324791
 20
102.2473310209
 30
0.0
 11
38.1822324791
 21
90.2629713096
 31
0.0
  0
LINE
  5
3F4
330
1F
100
AcDbEntity
  8
0
  6
Continuous
 62
     7
370
    15
100
AcDbLine
 10
37.9822324791
 20
90.0102539183
 30
0.0
 11
37.9822324791
 21
102.527957698
 31
0.0
  0
ARC
  5
3F5
330
1F
100
AcDbEntity
  8
0
  6
Continuous
 62
     7
370
    15
100
AcDbCircle
 10
26.6822324791
 20
94.2629713096
 30
0.0
 40
13.99999999999984
100
AcDbArc
 50
34.7719440319
 51
36.1822872212
  0
LINE
  5
3F6
330
1F
100
AcDbEntity
  8
0
  6
Continuous
 62
     7
370
    15
100
AcDbLine
 10
40.9822324791
 20
102.2473310209
 30
0.0
 11
40.9822324791
 21
90.2629713096
 31
0.0
  0
LINE
  5
3F7
330
1F
100
AcDbEntity
  8
0
  6
Continuous
 62
     7
370
    15
100
AcDbLine
 10
38.1822324791
 20
102.2473310209
 30
0.0
 11
40.9822324791
 21
102.2473310209
 31
0.0
  0
LINE
  5
3F8
330
1F
100
AcDbEntity
  8
0
  6
Continuous
 62
     7
370
    15
100
AcDbLine
 10
40.9822324791
 20
102.7759856595
 30
0.0
 11
37.9822324791
 21
102.7759856595
 31
0.0
  0
LINE
  5
3F9
330
1F
100
AcDbEntity
  8
0
  6
Continuous
 62
     7
370
    15
100
AcDbLine
 10
40.9822324791
 20
102.7759856595
 30
0.0
 11
40.9822324791
 21
102.2473310209
 31
0.0
  0
LINE
  5
3FA
330
1F
100
AcDbEntity
  8
0
  6
Continuous
 62
     7
370
    15
100
AcDbLine
 10
37.9822324791
 20
102.7759856595
 30
0.0
 11
37.9822324791
 21
102.527957698
 31
0.0
  0
LINE
  5
3FB
330
1F
100
AcDbEntity
  8
0
  6
Continuous
 62
     7
370
    15
100
AcDbLine
 10
37.9822324791
 20
102.7759856595
 30
0.0
 11
37.9822324791
 21
102.8935639234
 31
0.0
  0
LINE
  5
3FC
330
1F
100
AcDbEntity
  8
0
  6
Continuous
 62
     7
370
    15
100
AcDbLine
 10
39.4822324791
 20
104.4127825269
 30
0.0
 11
39.4822324791
 21
103.0637876681
 31
0.0
  0
LINE
  5
3FD
330
1F
100
AcDbEntity
  8
0
  6
Continuous
 62
     7
370
    15
100
AcDbLine
 10
40.9822324791
 20
104.4127825269
 30
0.0
 11
39.4822324791
 21
104.4127825269
 31
0.0
  0
LINE
  5
3FE
330
1F
100
AcDbEntity
  8
0
  6
Continuous
 62
     7
370
    15
100
AcDbLine
 10
39.4822324791
 20
86.0537201006
 30
0.0
 11
40.9822324791
 21
86.0537201006
 31
0.0
  0
LINE
  5
3FF
330
1F
100
AcDbEntity
  8
0
  6
Continuous
 62
     7
370
    15
100
AcDbLine
 10
39.4822324791
 20
87.3835017613
 30
0.0
 11
39.4822324791
 21
86.0537201006
 31
0.0
  0
LINE
  5
400
330
1F
100
AcDbEntity
  8
0
  6
Continuous
 62
     7
370
    15
100
AcDbLine
 10
40.9822324791
 20
87.3835017613
 30
0.0
 11
40.9822324791
 21
86.0537201006
 31
0.0
  0
LINE
  5
401
330
1F
100
AcDbEntity
  8
0
  6
Continuous
 62
     7
370
    15
100
AcDbLine
 10
40.9822324791
 20
104.9270163013
 30
0.0
 11
39.4822324791
 21
104.9270163013
 31
0.0
  0
LINE
  5
402
330
1F
100
AcDbEntity
  8
0
  6
Continuous
 62
     7
370
    15
100
AcDbLine
 10
39.4822324791
 20
105.3773127961
 30
0.0
 11
40.9822324791
 21
105.3773127961
 31
0.0
  0
LINE
  5
403
330
1F
100
AcDbEntity
  8
0
  6
Continuous
 62
     7
370
    15
100
AcDbLine
 10
39.4822324791
 20
104.9270163013
 30
0.0
 11
39.4822324791
 21
105.3773127961
 31
0.0
  0
LINE
  5
404
330
1F
100
AcDbEntity
  8
0
  6
Continuous
 62
     7
370
    15
100
AcDbLine
 10
40.9822324791
 20
82.7629713096
 30
0.0
 11
39.4822324791
 21
82.7629713096
 31
0.0
  0
LINE
  5
405
330
1F
100
AcDbEntity
  8
0
  6
Continuous
 62
     7
370
    15
100
AcDbLine
 10
39.4822324791
 20
86.0537201006
 30
0.0
 11
39.4822324791
 21
82.7629713096
 31
0.0
  0
LINE
  5
406
330
1F
100
AcDbEntity
  8
0
  6
Continuous
 62
     7
370
    15
100
AcDbLine
 10
40.9822324791
 20
86.0537201006
 30
0.0
 11
40.9822324791
 21
86.0266579287
 31
0.0
  0
LINE
  5
407
330
1F
100
AcDbEntity
  8
0
  6
Continuous
 62
     7
370
    15
100
AcDbLine
 10
40.9822324791
 20
85.6205353093
 30
0.0
 11
40.9822324791
 21
84.0539276283
 31
0.0
  0
LINE
  5
408
330
1F
100
AcDbEntity
  8
0
  6
Continuous
 62
     7
370
    15
100
AcDbLine
 10
40.9822324791
 20
83.5665274598
 30
0.0
 11
40.9822324791
 21
82.924892486
 31
0.0
  0
LINE
  5
409
330
1F
100
AcDbEntity
  8
0
  6
Continuous
 62
     7
370
    15
100
AcDbLine
 10
39.4822324791
 20
104.4127825269
 30
0.0
 11
39.4822324791
 21
104.9270163013
 31
0.0
  0
LINE
  5
40A
330
1F
100
AcDbEntity
  8
0
  6
Continuous
 62
     7
370
    15
100
AcDbLine
 10
40.9822324791
 20
104.9270163013
 30
0.0
 11
40.9822324791
 21
104.4127825269
 31
0.0
  0
LINE
  5
40B
330
1F
100
AcDbEntity
  8
0
  6
Continuous
 62
     7
370
    15
100
AcDbLine
 10
39.4822324791
 20
105.7629713096
 30
0.0
 11
40.9822324791
 21
105.7629713096
 31
0.0
  0
LINE
  5
40C
330
1F
100
AcDbEntity
  8
0
  6
Continuous
 62
     7
370
    15
100
AcDbLine
 10
39.4822324791
 20
105.7629713096
 30
0.0
 11
39.4822324791
 21
105.3773127961
 31
0.0
  0
LINE
  5
40D
330
1F
100
AcDbEntity
  8
0
  6
Continuous
 62
     7
370
    15
100
AcDbLine
 10
40.9822324791
 20
105.7629713096
 30
0.0
 11
40.9822324791
 21
105.3773127961
 31
0.0
  0
LINE
  5
40E
330
1F
100
AcDbEntity
  8
0
  6
Continuous
 62
     7
370
    15
100
AcDbLine
 10
37.9822324791
 20
87.7629713096
 30
0.0
 11
37.9822324791
 21
86.1486553295
 31
0.0
  0
ARC
  5
40F
330
1F
100
AcDbEntity
  8
0
  6
Continuous
 62
     7
370
    15
100
AcDbCircle
 10
58.9822324791
 20
80.2629713096
 30
0.0
 40
1.0
100
AcDbArc
 50
0.0
 51
90.0
  0
LINE
  5
410
330
1F
100
AcDbEntity
  8
0
  6
Continuous
 62
     7
370
    15
100
AcDbLine
 10
59.9822324791
 20
80.2629713096
 30
0.0
 11
59.9822324791
 21
77.7629713096
 31
0.0
  0
LINE
  5
411
330
1F
100
AcDbEntity
  8
0
  6
Continuous
 62
     7
370
    15
100
AcDbLine
 10
57.9822324791
 20
77.7629713096
 30
0.0
 11
57.9822324791
 21
81.2629713096
 31
0.0
  0
LINE
  5
412
330
1F
100
AcDbEntity
  8
0
  6
Continuous
 62
     7
370
    15
100
AcDbLine
 10
57.9822324791
 20
81.2629713096
 30
0.0
 11
58.9822324791
 21
81.2629713096
 31
0.0
  0
LINE
  5
413
330
1F
100
AcDbEntity
  8
0
  6
Continuous
 62
     7
370
    15
100
AcDbLine
 10
59.9822324791
 20
77.7629713096
 30
0.0
 11
57.9822324791
 21
77.7629713096
 31
0.0
  0
LINE
  5
414
330
1F
100
AcDbEntity
  8
0
  6
Continuous
 62
     7
370
    15
100
AcDbLine
 10
58.9822324791
 20
81.2629713096
 30
0.0
 11
78.9822324791
 21
81.2629713096
 31
0.0
  0
ARC
  5
415
330
1F
100
AcDbEntity
  8
0
  6
Continuous
 62
     7
370
    15
100
AcDbCircle
 10
78.9822324791
 20
80.2629713096
 30
0.0
 40
1.0
100
AcDbArc
 50
90.0
 51
180.0
  0
LINE
  5
416
330
1F
100
AcDbEntity
  8
0
  6
Continuous
 62
     7
370
    15
100
AcDbLine
 10
77.9822324791
 20
80.2629713096
 30
0.0
 11
59.9822324791
 21
80.2629713096
 31
0.0
  0
LINE
  5
417
330
1F
100
AcDbEntity
  8
0
  6
Continuous
 62
     7
370
    15
100
AcDbLine
 10
77.9822324791
 20
77.7629713096
 30
0.0
 11
77.9822324791
 21
80.2629713096
 31
0.0
  0
LINE
  5
418
330
1F
100
AcDbEntity
  8
0
  6
Continuous
 62
     7
370
    15
100
AcDbLine
 10
59.9822324791
 20
77.7629713096
 30
0.0
 11
77.9822324791
 21
77.7629713096
 31
0.0
  0
LINE
  5
419
330
1F
100
AcDbEntity
  8
0
  6
Continuous
 62
     7
370
    15
100
AcDbLine
 10
78.9822324791
 20
81.2629713096
 30
0.0
 11
79.9822324791
 21
81.2629713096
 31
0.0
  0
LINE
  5
41A
330
1F
100
AcDbEntity
  8
0
  6
Continuous
 62
     7
370
    15
100
AcDbLine
 10
79.9822324791
 20
81.2629713096
 30
0.0
 11
79.9822324791
 21
77.7629713096
 31
0.0
  0
LINE
  5
41B
330
1F
100
AcDbEntity
  8
0
  6
Continuous
 62
     7
370
    15
100
AcDbLine
 10
79.9822324791
 20
77.7629713096
 30
0.0
 11
77.9822324791
 21
77.7629713096
 31
0.0
  0
LINE
  5
41C
330
1F
100
AcDbEntity
  8
0
  6
Continuous
 62
     7
370
    15
100
AcDbLine
 10
57.9822324791
 20
81.606936341
 30
0.0
 11
79.9822324791
 21
81.606936341
 31
0.0
  0
LINE
  5
41D
330
1F
100
AcDbEntity
  8
0
  6
Continuous
 62
     7
370
    15
100
AcDbLine
 10
79.9822324791
 20
81.606936341
 30
0.0
 11
79.9822324791
 21
81.2629713096
 31
0.0
  0
LINE
  5
41E
330
1F
100
AcDbEntity
  8
0
  6
Continuous
 62
     7
370
    15
100
AcDbLine
 10
57.9822324791
 20
81.606936341
 30
0.0
 11
57.9822324791
 21
81.2629713096
 31
0.0
  0
LINE
  5
41F
330
1F
100
AcDbEntity
  8
0
  6
Continuous
 62
     7
370
    15
100
AcDbLine
 10
40.9822324791
 20
102.2473310209
 30
0.0
 11
79.9822324791
 21
102.2473310209
 31
0.0
  0
LINE
  5
420
330
1F
100
AcDbEntity
  8
0
  6
Continuous
 62
     7
370
    15
100
AcDbLine
 10
40.9822324791
 20
102.2473310209
 30
0.0
 11
40.9822324791
 21
102.8675617765
 31
0.0
  0
LINE
  5
421
330
1F
100
AcDbEntity
  8
0
  6
Continuous
 62
     7
370
    15
100
AcDbLine
 10
79.9822324791
 20
102.8675617765
 30
0.0
 11
40.9822324791
 21
102.8675617765
 31
0.0
  0
LINE
  5
422
330
1F
100
AcDbEntity
  8
0
  6
Continuous
 62
     7
370
    15
100
AcDbLine
 10
79.9822324791
 20
102.2473310209
 30
0.0
 11
79.9822324791
 21
102.8675617765
 31
0.0
  0
LINE
  5
423
330
1F
100
AcDbEntity
  8
0
  6
Continuous
 62
     7
370
    15
100
AcDbLine
 10
40.9822324791
 20
90.2629713096
 30
0.0
 11
79.9822324791
 21
90.2629713096
 31
0.0
  0
LINE
  5
424
330
1F
100
AcDbEntity
  8
0
  6
Continuous
 62
     7
370
    15
100
AcDbLine
 10
40.9822324791
 20
87.383140822
 30
0.0
 11
79.9822324791
 21
87.383140822
 31
0.0
  0
LINE
  5
425
330
1F
100
AcDbEntity
  8
0
  6
Continuous
 62
     7
370
    15
100
AcDbLine
 10
40.9822324791
 20
90.2629713096
 30
0.0
 11
40.9822324791
 21
87.383140822
 31
0.0
  0
LINE
  5
426
330
1F
100
AcDbEntity
  8
0
  6
Continuous
 62
     7
370
    15
100
AcDbLine
 10
79.9822324791
 20
90.2629713096
 30
0.0
 11
79.9822324791
 21
87.385146689
 31
0.0
  0
LINE
  5
427
330
1F
100
AcDbEntity
  8
0
  6
Continuous
 62
     7
370
    15
100
AcDbLine
 10
79.9822324791
 20
90.2629713096
 30
0.0
 11
79.9822324791
 21
102.2473310209
 31
0.0
  0
LINE
  5
428
330
1F
100
AcDbEntity
  8
0
  6
Continuous
 62
     7
370
    15
100
AcDbLine
 10
40.9822324791
 20
102.8675617765
 30
0.0
 11
40.9822324791
 21
102.9446390555
 31
0.0
  0
LINE
  5
429
330
1F
100
AcDbEntity
  8
0
  6
Continuous
 62
     7
370
    15
100
AcDbLine
 10
79.9822324791
 20
83.5533158486
 30
0.0
 11
57.9822324791
 21
83.5533158486
 31
0.0
  0
LINE
  5
42A
330
1F
100
AcDbEntity
  8
0
  6
Continuous
 62
     7
370
    15
100
AcDbLine
 10
79.9822324791
 20
83.5533158486
 30
0.0
 11
79.9822324791
 21
81.606936341
 31
0.0
  0
LINE
  5
42B
330
1F
100
AcDbEntity
  8
0
  6
Continuous
 62
     7
370
    15
100
AcDbLine
 10
57.9822324791
 20
81.606936341
 30
0.0
 11
57.9822324791
 21
83.5533158486
 31
0.0
  0
LINE
  5
42C
330
1F
100
AcDbEntity
  8
0
  6
Continuous
 62
     7
370
    15
100
AcDbLine
 10
40.9822324791
 20
104.3116851237
 30
0.0
 11
79.9822324791
 21
104.3116851237
 31
0.0
  0
LINE
  5
42D
330
1F
100
AcDbEntity
  8
0
  6
Continuous
 62
     7
370
    15
100
AcDbLine
 10
40.9822324791
 20
104.3116851237
 30
0.0
 11
40.9822324791
 21
102.9446390555
 31
0.0
  0
LINE
  5
42E
330
1F
100
AcDbEntity
  8
0
  6
Continuous
 62
     7
370
    15
100
AcDbLine
 10
40.9822324791
 20
85.7309115746
 30
0.0
 11
57.9822324791
 21
85.7309115746
 31
0.0
  0
LINE
  5
42F
330
1F
100
AcDbEntity
  8
0
  6
Continuous
 62
     7
370
    15
100
AcDbLine
 10
40.9822324791
 20
85.7309115746
 30
0.0
 11
40.9822324791
 21
86.0379713096
 31
0.0
  0
LINE
  5
430
330
1F
100
AcDbEntity
  8
0
  6
Continuous
 62
     7
370
    15
100
AcDbLine
 10
79.9822324791
 20
84.9602898577
 30
0.0
 11
79.9822324791
 21
83.5533158486
 31
0.0
  0
LINE
  5
431
330
1F
100
AcDbEntity
  8
0
  6
Continuous
 62
     7
370
    15
100
AcDbLine
 10
57.9822324791
 20
85.7309115746
 30
0.0
 11
57.9822324791
 21
83.5533158486
 31
0.0
  0
LINE
  5
432
330
1F
100
AcDbEntity
  8
0
  6
Continuous
 62
     7
370
    15
100
AcDbLine
 10
40.9822324791
 20
105.3065677753
 30
0.0
 11
79.9822324791
 21
105.3065677753
 31
0.0
  0
LINE
  5
433
330
1F
100
AcDbEntity
  8
0
  6
Continuous
 62
     7
370
    15
100
AcDbLine
 10
79.9822324791
 20
105.0073807553
 30
0.0
 11
40.9822324791
 21
105.0073807553
 31
0.0
  0
LINE
  5
434
330
1F
100
AcDbEntity
  8
0
  6
Continuous
 62
     7
370
    15
100
AcDbLine
 10
40.9822324791
 20
105.0073807553
 30
0.0
 11
40.9822324791
 21
105.3065677753
 31
0.0
  0
LINE
  5
435
330
1F
100
AcDbEntity
  8
0
  6
Continuous
 62
     7
370
    15
100
AcDbLine
 10
40.9822324791
 20
105.0073807553
 30
0.0
 11
40.9822324791
 21
104.3116851237
 31
0.0
  0
LINE
  5
436
330
1F
100
AcDbEntity
  8
0
  6
Continuous
 62
     7
370
    15
100
AcDbLine
 10
40.9822324791
 20
105.7629713096
 30
0.0
 11
79.9822324791
 21
105.7629713096
 31
0.0
  0
LINE
  5
437
330
1F
100
AcDbEntity
  8
0
  6
Continuous
 62
     7
370
    15
100
AcDbLine
 10
40.9822324791
 20
105.3065677753
 30
0.0
 11
40.9822324791
 21
105.7629713096
 31
0.0
  0
LINE
  5
438
330
1F
100
AcDbEntity
  8
0
  6
Continuous
 62
     7
370
    15
100
AcDbLine
 10
79.9822324791
 20
105.3065677753
 30
0.0
 11
79.9822324791
 21
105.7629713096
 31
0.0
  0
LINE
  5
439
330
1F
100
AcDbEntity
  8
0
  6
Continuous
 62
     7
370
    15
100
AcDbLine
 10
57.9822324791
 20
83.7500054473
 30
0.0
 11
40.9822324791
 21
83.7500054473
 31
0.0
  0
LINE
  5
43A
330
1F
100
AcDbEntity
  8
0
  6
Continuous
 62
     7
370
    15
100
AcDbLine
 10
40.9822324791
 20
83.7500054473
 30
0.0
 11
40.9822324791
 21
84.0539276283
 31
0.0
  0
LINE
  5
43B
330
1F
100
AcDbEntity
  8
0
  6
Continuous
 62
     7
370
    15
100
AcDbLine
 10
40.9822324791
 20
85.6205353093
 30
0.0
 11
40.9822324791
 21
85.7309115746
 31
0.0
  0
LINE
  5
43C
330
1F
100
AcDbEntity
  8
0
  6
Continuous
 62
     7
370
    15
100
AcDbLine
 10
57.9822324791
 20
82.7629713096
 30
0.0
 11
40.9822324791
 21
82.7629713096
 31
0.0
  0
LINE
  5
43D
330
1F
100
AcDbEntity
  8
0
  6
Continuous
 62
     7
370
    15
100
AcDbLine
 10
40.9822324791
 20
82.7629713096
 30
0.0
 11
40.9822324791
 21
82.924892486
 31
0.0
  0
LINE
  5
43E
330
1F
100
AcDbEntity
  8
0
  6
Continuous
 62
     7
370
    15
100
AcDbLine
 10
40.9822324791
 20
83.5665274598
 30
0.0
 11
40.9822324791
 21
83.7500054473
 31
0.0
  0
LINE
  5
43F
330
1F
100
AcDbEntity
  8
0
  6
Continuous
 62
     7
370
    15
100
AcDbLine
 10
85.4822324791
 20
91.2629713096
 30
0.0
 11
85.4822324791
 21
91.6172199985
 31
0.0
  0
LINE
  5
440
330
1F
100
AcDbEntity
  8
0
  6
Continuous
 62
     7
370
    15
100
AcDbLine
 10
82.9822324791
 20
91.2629713096
 30
0.0
 11
85.4822324791
 21
91.2629713096
 31
0.0
  0
LINE
  5
441
330
1F
100
AcDbEntity
  8
0
  6
Continuous
 62
     7
370
    15
100
AcDbLine
 10
82.9822324791
 20
97.2629713096
 30
0.0
 11
85.4822324791
 21
97.2629713096
 31
0.0
  0
LINE
  5
442
330
1F
100
AcDbEntity
  8
0
  6
Continuous
 62
     7
370
    15
100
AcDbLine
 10
85.4822324791
 20
96.9087226207
 30
0.0
 11
85.4822324791
 21
97.2629713096
 31
0.0
  0
LINE
  5
443
330
1F
100
AcDbEntity
  8
0
  6
Continuous
 62
     7
370
    15
100
AcDbLine
 10
82.9822324791
 20
96.9087226207
 30
0.0
 11
85.4822324791
 21
96.9087226207
 31
0.0
  0
LINE
  5
444
330
1F
100
AcDbEntity
  8
0
  6
Continuous
 62
     7
370
    15
100
AcDbLine
 10
82.9822324791
 20
91.6172199985
 30
0.0
 11
85.4822324791
 21
91.6172199985
 31
0.0
  0
SPLINE
  5
445
330
1F
100
AcDbEntity
  8
0
  6
Continuous
 62
     7
370
    15
100
AcDbSpline
210
0.0
220
0.0
230
1.0
 70
     8
 71
     3
 72
     8
 73
     4
 74
     0
 42
0.00000001
 43
0.00000001
 12
1.0
 22
0.0
 32
0.0
 13
1.0
 23
0.0
 33
0.0
 40
0.0
 40
0.0
 40
0.0
 40
0.0
 40
1.0
 40
1.0
 40
1.0
 40
1.0
 10
85.48223247914756
 20
91.61721999854791
 30
0.0
 10
85.66268330125051
 20
91.89003599806881
 30
0.0
 10
85.8323666613174
 20
92.16923857692807
 30
0.0
 10
85.98223247914754
 20
92.4601956718805
 30
0.0
  0
SPLINE
  5
446
330
1F
100
AcDbEntity
  8
0
  6
Continuous
 62
     7
370
    15
100
AcDbSpline
210
0.0
220
0.0
230
1.0
 70
     8
 71
     3
 72
     8
 73
     4
 74
     0
 42
0.00000001
 43
0.00000001
 12
1.0
 22
0.0
 32
0.0
 13
1.0
 23
0.0
 33
0.0
 40
0.0
 40
0.0
 40
0.0
 40
0.0
 40
1.0
 40
1.0
 40
1.0
 40
1.0
 10
85.98223247914754
 20
96.06574694734452
 30
0.0
 10
85.8323666613174
 20
96.35670404229695
 30
0.0
 10
85.66268330125051
 20
96.63590662115621
 30
0.0
 10
85.48223247914756
 20
96.9087226206771
 30
0.0
  0
LINE
  5
447
330
1F
100
AcDbEntity
  8
0
  6
Continuous
 62
     7
370
    15
100
AcDbLine
 10
85.9822324791
 20
96.0657469473
 30
0.0
 11
85.9822324791
 21
92.4601956719
 31
0.0
  0
LINE
  5
448
330
1F
100
AcDbEntity
  8
0
  6
Continuous
 62
     7
370
    15
100
AcDbLine
 10
85.9822324791
 20
92.4601956719
 30
0.0
 11
85.9822324791
 21
91.2629713096
 31
0.0
  0
SPLINE
  5
449
330
1F
100
AcDbEntity
  8
0
  6
Continuous
 62
     7
370
    15
100
AcDbSpline
210
0.0
220
0.0
230
1.0
 70
    24
 71
     3
 72
     8
 73
     4
 74
     0
 42
0.00000001
 43
0.00000001
 12
1.0
 22
0.0
 32
0.0
 13
1.0
 23
0.0
 33
0.0
 40
0.0
 40
0.0
 40
0.0
 40
0.0
 40
1.0
 40
1.0
 40
1.0
 40
1.0
 10
85.98223247914754
 20
91.2629713096125
 30
0.0
 10
85.8323666613174
 20
91.2629713096125
 30
0.0
 10
85.66268330125051
 20
91.2629713096125
 30
0.0
 10
85.48223247914756
 20
91.2629713096125
 30
0.0
  0
SPLINE
  5
44A
330
1F
100
AcDbEntity
  8
0
  6
Continuous
 62
     7
370
    15
100
AcDbSpline
210
0.0
220
0.0
230
1.0
 70
    24
 71
     3
 72
     8
 73
     4
 74
     0
 42
0.00000001
 43
0.00000001
 12
1.0
 22
0.0
 32
0.0
 13
1.0
 23
0.0
 33
0.0
 40
0.0
 40
0.0
 40
0.0
 40
0.0
 40
1.0
 40
1.0
 40
1.0
 40
1.0
 10
85.48223247914756
 20
97.26297130961251
 30
0.0
 10
85.66268330125051
 20
97.26297130961251
 30
0.0
 10
85.8323666613174
 20
97.26297130961251
 30
0.0
 10
85.98223247914754
 20
97.26297130961251
 30
0.0
  0
LINE
  5
44B
330
1F
100
AcDbEntity
  8
0
  6
Continuous
 62
     7
370
    15
100
AcDbLine
 10
85.9822324791
 20
97.2629713096
 30
0.0
 11
85.9822324791
 21
96.0657469473
 31
0.0
  0
LINE
  5
44C
330
1F
100
AcDbEntity
  8
0
  6
Continuous
 62
     7
370
    15
100
AcDbLine
 10
39.4822324791
 20
103.0637876681
 30
0.0
 11
39.4822324791
 21
102.8935639234
 31
0.0
  0
LINE
  5
44D
330
1F
100
AcDbEntity
  8
0
  6
Continuous
 62
     7
370
    15
100
AcDbLine
 10
37.9822324791
 20
102.8935639234
 30
0.0
 11
37.9822324791
 21
104.6486553295
 31
0.0
  0
LINE
  5
44E
330
1F
100
AcDbEntity
  8
0
  6
Continuous
 62
     7
370
    15
100
AcDbLine
 10
82.7822324791
 20
102.2473310209
 30
0.0
 11
79.9822324791
 21
102.2473310209
 31
0.0
  0
LINE
  5
44F
330
1F
100
AcDbEntity
  8
0
  6
Continuous
 62
     7
370
    15
100
AcDbLine
 10
82.7822324791
 20
90.2629713096
 30
0.0
 11
82.7822324791
 21
102.2473310209
 31
0.0
  0
LINE
  5
450
330
1F
100
AcDbEntity
  8
0
  6
Continuous
 62
     7
370
    15
100
AcDbLine
 10
82.7822324791
 20
90.2629713096
 30
0.0
 11
79.9822324791
 21
90.2629713096
 31
0.0
  0
LINE
  5
451
330
1F
100
AcDbEntity
  8
0
  6
Continuous
 62
     7
370
    15
100
AcDbLine
 10
81.4822324791
 20
87.385146689
 30
0.0
 11
81.4822324791
 21
87.7629713096
 31
0.0
  0
LINE
  5
452
330
1F
100
AcDbEntity
  8
0
  6
Continuous
 62
     7
370
    15
100
AcDbLine
 10
81.4822324791
 20
87.385146689
 30
0.0
 11
79.9822324791
 21
87.385146689
 31
0.0
  0
LINE
  5
453
330
1F
100
AcDbEntity
  8
0
  6
Continuous
 62
     7
370
    15
100
AcDbLine
 10
82.9822324791
 20
90.0102539183
 30
0.0
 11
82.7822324791
 21
90.2629713096
 31
0.0
  0
LINE
  5
454
330
1F
100
AcDbEntity
  8
0
  6
Continuous
 62
     7
370
    15
100
AcDbLine
 10
82.9822324791
 20
87.7629713096
 30
0.0
 11
82.9822324791
 21
90.0102539183
 31
0.0
  0
LINE
  5
455
330
1F
100
AcDbEntity
  8
0
  6
Continuous
 62
     7
370
    15
100
AcDbLine
 10
82.9822324791
 20
87.7629713096
 30
0.0
 11
81.4822324791
 21
87.7629713096
 31
0.0
  0
LINE
  5
456
330
1F
100
AcDbEntity
  8
0
  6
Continuous
 62
     7
370
    15
100
AcDbLine
 10
82.7822324791
 20
105.7629713096
 30
0.0
 11
79.9822324791
 21
105.7629713096
 31
0.0
  0
LINE
  5
457
330
1F
100
AcDbEntity
  8
0
  6
Continuous
 62
     7
370
    15
100
AcDbLine
 10
82.9822324791
 20
105.5629713096
 30
0.0
 11
82.7822324791
 21
105.7629713096
 31
0.0
  0
LINE
  5
458
330
1F
100
AcDbEntity
  8
0
  6
Continuous
 62
     7
370
    15
100
AcDbLine
 10
82.9822324791
 20
102.527957698
 30
0.0
 11
82.9822324791
 21
105.5629713096
 31
0.0
  0
ARC
  5
459
330
1F
100
AcDbEntity
  8
0
  6
Continuous
 62
     7
370
    15
100
AcDbCircle
 10
94.2822324791
 20
94.2629713096
 30
0.0
 40
14.00000000000002
100
AcDbArc
 50
143.8177127788
 51
145.2280559681
  0
LINE
  5
45A
330
1F
100
AcDbEntity
  8
0
  6
Continuous
 62
     7
370
    15
100
AcDbLine
 10
79.9822324791
 20
102.2473310209
 30
0.0
 11
79.9822324791
 21
105.7629713096
 31
0.0
  0
LINE
  5
45B
330
1F
100
AcDbEntity
  8
0
  6
Continuous
 62
     7
370
    15
100
AcDbLine
 10
82.9822324791
 20
102.527957698
 30
0.0
 11
82.9822324791
 21
90.0102539183
 31
0.0
  0
LINE
  5
45C
330
1F
100
AcDbEntity
  8
0
  6
Continuous
 62
     7
370
    15
100
AcDbLine
 10
79.9822324791
 20
85.7549075221
 30
0.0
 11
81.4822324791
 21
85.7549075221
 31
0.0
  0
LINE
  5
45D
330
1F
100
AcDbEntity
  8
0
  6
Continuous
 62
     7
370
    15
100
AcDbLine
 10
81.4822324791
 20
85.7549075221
 30
0.0
 11
81.4822324791
 21
87.385146689
 31
0.0
  0
LINE
  5
45E
330
1F
100
AcDbEntity
  8
0
  6
Continuous
 62
     7
370
    15
100
AcDbLine
 10
79.9822324791
 20
85.7549075221
 30
0.0
 11
79.9822324791
 21
87.385146689
 31
0.0
  0
LINE
  5
45F
330
1F
100
AcDbEntity
  8
0
  6
Continuous
 62
     7
370
    15
100
AcDbLine
 10
81.4822324791
 20
82.7629713096
 30
0.0
 11
79.9822324791
 21
82.7629713096
 31
0.0
  0
LINE
  5
460
330
1F
100
AcDbEntity
  8
0
  6
Continuous
 62
     7
370
    15
100
AcDbLine
 10
81.4822324791
 20
85.7549075221
 30
0.0
 11
81.4822324791
 21
82.7629713096
 31
0.0
  0
LINE
  5
461
330
1F
100
AcDbEntity
  8
0
  6
Continuous
 62
     7
370
    15
100
AcDbLine
 10
79.9822324791
 20
84.9602898577
 30
0.0
 11
79.9822324791
 21
85.7549075221
 31
0.0
  0
LINE
  5
462
330
1F
100
AcDbEntity
  8
0
  6
Continuous
 62
     7
370
    15
100
AcDbLine
 10
82.9822324791
 20
86.1486553295
 30
0.0
 11
82.9822324791
 21
87.7629713096
 31
0.0
  0
LINE
  5
463
330
1F
100
AcDbEntity
  8
0
  6
Continuous
 62
     7
370
    15
100
AcDbLine
 10
37.9822324791
 20
83.8772872897
 30
0.0
 11
37.9822324791
 21
86.1486553295
 31
0.0
  0
CIRCLE
  5
464
330
1F
100
AcDbEntity
  8
0
  6
Continuous
 62
     7
370
    15
100
AcDbCircle
 10
44.9822324791
 20
94.2629713096
 30
0.0
 40
1.500000000000396
  0
CIRCLE
  5
465
330
1F
100
AcDbEntity
  8
0
  6
Continuous
 62
     7
370
    15
100
AcDbCircle
 10
44.9822324791
 20
94.2629713096
 30
0.0
 40
1.000000000000191
  0
ARC
  5
466
330
1F
100
AcDbEntity
  8
0
  6
Continuous
 62
     7
370
    15
100
AcDbCircle
 10
44.9822324791
 20
94.2629713096
 30
0.0
 40
1.749999999999833
100
AcDbArc
 50
346.6673866717
 51
166.6673866717
  0
ARC
  5
467
330
1F
100
AcDbEntity
  8
0
  6
Continuous
 62
     7
370
    15
100
AcDbCircle
 10
44.9822324791
 20
94.2629713096
 30
0.0
 40
1.749999999999833
100
AcDbArc
 50
166.6673866717
 51
346.6673866717
  0
LINE
  5
468
330
1F
100
AcDbEntity
  8
0
  6
Continuous
 62
     7
370
    15
100
AcDbLine
 10
42.2029908651
 20
91.3170731358
 30
0.0
 11
46.1438343276
 21
90.3831283816
 31
0.0
  0
LINE
  5
469
330
1F
100
AcDbEntity
  8
0
  6
Continuous
 62
     7
370
    15
100
AcDbLine
 10
41.0413890167
 20
95.1969160638
 30
0.0
 11
42.2029908651
 21
91.3170731358
 31
0.0
  0
LINE
  5
46A
330
1F
100
AcDbEntity
  8
0
  6
Continuous
 62
     7
370
    15
100
AcDbLine
 10
43.8206306307
 20
98.1428142376
 30
0.0
 11
41.0413890167
 21
95.1969160638
 31
0.0
  0
LINE
  5
46B
330
1F
100
AcDbEntity
  8
0
  6
Continuous
 62
     7
370
    15
100
AcDbLine
 10
47.7614740932
 20
97.2088694834
 30
0.0
 11
43.8206306307
 21
98.1428142376
 31
0.0
  0
LINE
  5
46C
330
1F
100
AcDbEntity
  8
0
  6
Continuous
 62
     7
370
    15
100
AcDbLine
 10
48.9230759416
 20
93.3290265554
 30
0.0
 11
47.7614740932
 21
97.2088694834
 31
0.0
  0
LINE
  5
46D
330
1F
100
AcDbEntity
  8
0
  6
Continuous
 62
     7
370
    15
100
AcDbLine
 10
46.1438343276
 20
90.3831283816
 30
0.0
 11
48.9230759416
 21
93.3290265554
 31
0.0
  0
ARC
  5
46E
330
1F
100
AcDbEntity
  8
0
  6
Continuous
 62
     7
370
    15
100
AcDbCircle
 10
44.9822324791
 20
94.2629713096
 30
0.0
 40
4.000000000000002
100
AcDbArc
 50
0.0
 51
45.4026163138
  0
ARC
  5
46F
330
1F
100
AcDbEntity
  8
0
  6
Continuous
 62
     7
370
    15
100
AcDbCircle
 10
44.9822324791
 20
94.2629713096
 30
0.0
 40
3.999999999999996
100
AcDbArc
 50
47.9321570296
 51
105.4026163138
  0
ARC
  5
470
330
1F
100
AcDbEntity
  8
0
  6
Continuous
 62
     7
370
    15
100
AcDbCircle
 10
44.9822324791
 20
94.2629713096
 30
0.0
 40
4.000000000000004
100
AcDbArc
 50
107.9321570297
 51
165.4026163138
  0
ARC
  5
471
330
1F
100
AcDbEntity
  8
0
  6
Continuous
 62
     7
370
    15
100
AcDbCircle
 10
44.9822324791
 20
94.2629713096
 30
0.0
 40
4.000000000000008
100
AcDbArc
 50
167.9321570297
 51
225.4026163137
  0
ARC
  5
472
330
1F
100
AcDbEntity
  8
0
  6
Continuous
 62
     7
370
    15
100
AcDbCircle
 10
44.9822324791
 20
94.2629713096
 30
0.0
 40
4.000000000000007
100
AcDbArc
 50
227.9321570297
 51
285.4026163137
  0
ARC
  5
473
330
1F
100
AcDbEntity
  8
0
  6
Continuous
 62
     7
370
    15
100
AcDbCircle
 10
44.9822324791
 20
94.2629713096
 30
0.0
 40
3.999999999999998
100
AcDbArc
 50
287.9321570297
 51
345.4026163137
  0
LWPOLYLINE
  5
474
330
1F
100
AcDbEntity
  8
0
  6
Continuous
 62
     7
370
    15
100
AcDbPolyline
 90
        3
 70
   128
 43
0.0
 10
48.8938354005
 20
93.4266922978
 10
48.9561594205
 20
93.8070056701
 10
48.9822324791
 20
94.2629713096
  0
LINE
  5
475
330
1F
100
AcDbEntity
  8
0
  6
Continuous
 62
     8
370
    15
100
AcDbLine
 10
81.776924719
 20
82.7629713096
 30
0.0
 11
81.776924719
 21
87.2629713096
 31
0.0
  0
LINE
  5
476
330
1F
100
AcDbEntity
  8
0
  6
Continuous
 62
     8
370
    15
100
AcDbLine
 10
82.5819805564
 20
84.8508613948
 30
0.0
 11
82.5819805564
 21
83.1697722716
 31
0.0
  0
LINE
  5
477
330
1F
100
AcDbEntity
  8
0
  6
Continuous
 62
     8
370
    15
100
AcDbLine
 10
82.5819805564
 20
86.8561703477
 30
0.0
 11
82.5819805564
 21
84.8508613948
 31
0.0
  0
LINE
  5
478
330
1F
100
AcDbEntity
  8
0
  6
Continuous
 62
     8
370
    15
100
AcDbLine
 10
82.8847603978
 20
83.5806877707
 30
0.0
 11
82.8847603978
 21
86.4452548486
 31
0.0
  0
LINE
  5
479
330
1F
100
AcDbEntity
  8
0
  6
Continuous
 62
     8
370
    15
100
AcDbLine
 10
39.1875402393
 20
105.7629713096
 30
0.0
 11
39.1875402393
 21
102.8935639234
 31
0.0
  0
LINE
  5
47A
330
1F
100
AcDbEntity
  8
0
  6
Continuous
 62
     8
370
    15
100
AcDbLine
 10
38.3824844019
 20
102.8935639234
 30
0.0
 11
38.3824844019
 21
105.3561703477
 31
0.0
  0
LINE
  5
47B
330
1F
100
AcDbEntity
  8
0
  6
Continuous
 62
     8
370
    15
100
AcDbLine
 10
38.0797045605
 20
104.9452548486
 30
0.0
 11
38.0797045605
 21
102.8935639234
 31
0.0
  0
LINE
  5
47C
330
1F
100
AcDbEntity
  8
0
  6
Continuous
 62
     8
370
    15
100
AcDbLine
 10
39.1875402393
 20
83.4945970186
 30
0.0
 11
39.1875402393
 21
82.7629713096
 31
0.0
  0
LINE
  5
47D
330
1F
100
AcDbEntity
  8
0
  6
Continuous
 62
     8
370
    15
100
AcDbLine
 10
39.1875402393
 20
87.2629713096
 30
0.0
 11
39.1875402393
 21
83.4945970186
 31
0.0
  0
LINE
  5
47E
330
1F
100
AcDbEntity
  8
0
  6
Continuous
 62
     8
370
    15
100
AcDbLine
 10
38.3824844019
 20
83.1697722716
 30
0.0
 11
38.3824844019
 21
86.8561703477
 31
0.0
  0
LINE
  5
47F
330
1F
100
AcDbEntity
  8
0
  6
Continuous
 62
     8
370
    15
100
AcDbLine
 10
38.0797045605
 20
84.0464190861
 30
0.0
 11
38.0797045605
 21
83.5806877707
 31
0.0
  0
LINE
  5
480
330
1F
100
AcDbEntity
  8
0
  6
Continuous
 62
     8
370
    15
100
AcDbLine
 10
38.0797045605
 20
86.4452548486
 30
0.0
 11
38.0797045605
 21
84.0464190861
 31
0.0
  0
LINE
  5
481
330
1F
100
AcDbEntity
  8
0
  6
CENTERX2
 62
     7
370
     0
100
AcDbLine
 10
85.9822324791
 20
97.2629713096
 30
0.0
 11
95.9822324791
 21
97.2629713096
 31
0.0
  0
LINE
  5
482
330
1F
100
AcDbEntity
  8
0
  6
CENTERX2
 62
     7
370
     0
100
AcDbLine
 10
95.9822324791
 20
97.2629713096
 30
0.0
 11
95.9822324791
 21
91.2629713096
 31
0.0
  0
LINE
  5
483
330
1F
100
AcDbEntity
  8
0
  6
CENTERX2
 62
     7
370
     0
100
AcDbLine
 10
95.9822324791
 20
91.2629713096
 30
0.0
 11
85.9822324791
 21
91.2629713096
 31
0.0
  0
DIMENSION
  5
484
330
1F
100
AcDbEntity
  8
0
  6
Continuous
 62
     7
370
     0
100
AcDbDimension
  2
_D_10
 10
95.9822324791
 20
103.3645856896
 30
0.0
 11
91.0496210616
 21
103.3645856896
 31
0.0
 70
   160
  1
<>st
 71
     2
 42
-1.0
  3
SLDDIMSTYLE7
100
AcDbAlignedDimension
 13
85.9822324791
 23
97.2629713096
 33
0.0
 14
95.9822324791
 24
97.2629713096
 34
0.0
100
AcDbRotatedDimension
  0
DIMENSION
  5
492
330
1F
100
AcDbEntity
  8
0
  6
Continuous
 62
     7
370
     0
100
AcDbDimension
  2
_D_11
 10
44.9822324791
 20
71.9802813772
 30
0.0
 11
30.4432718112
 21
71.9802813772
 31
0.0
 70
   160
  1
<>
 71
     2
 42
-1.0
  3
SLDDIMSTYLE1
100
AcDbAlignedDimension
 13
38.1822324791
 23
90.2629713096
 33
0.0
 14
44.9822324791
 24
87.7629713096
 34
0.0
100
AcDbRotatedDimension
  0
DIMENSION
  5
49E
330
1F
100
AcDbEntity
  8
0
  6
Continuous
 62
     7
370
     0
100
AcDbDimension
  2
_D_12
 10
79.9822324791
 20
111.0090452815
 30
0.0
 11
59.0108235179
 21
111.0090452815
 31
0.0
 70
   160
  1
<>
 71
     2
 42
-1.0
  3
SLDDIMSTYLE0
100
AcDbAlignedDimension
 13
37.9822324791
 23
102.527957698
 33
0.0
 14
79.9822324791
 24
105.7629713096
 34
0.0
 50
0.0
100
AcDbRotatedDimension
  0
DIMENSION
  5
4A8
330
1F
100
AcDbEntity
  8
0
  6
Continuous
 62
     7
370
     0
100
AcDbDimension
  2
_D_13
 10
85.9822324791
 20
122.2831431541
 30
0.0
 11
61.9822324791
 21
122.2831431541
 31
0.0
 70
   160
  1
<>
 71
     2
 42
-1.0
  3
SLDDIMSTYLE0
100
AcDbAlignedDimension
 13
37.9822324791
 23
102.527957698
 33
0.0
 14
85.9822324791
 24
97.2629713096
 34
0.0
 50
0.0
100
AcDbRotatedDimension
  0
INSERT
  5
4BD
330
1F
100
AcDbEntity
  8
0
  6
Continuous
 62
     7
370
     0
100
AcDbBlockReference
  2
SW_CENTERMARKSYMBOL_9
 10
44.9822324791
 20
94.2629713096
 30
0.0
  0
ENDSEC
  0
SECTION
  2
OBJECTS
  0
DICTIONARY
  5
C
330
0
100
AcDbDictionary
281
     1
  3
ACAD_GROUP
350
D
  3
ACAD_LAYOUT
350
1A
  3
ACAD_MLINESTYLE
350
17
  3
ACAD_PLOTSETTINGS
350
19
  3
ACAD_PLOTSTYLENAME
350
E
  0
DICTIONARY
  5
D
102
{ACAD_REACTORS
330
C
102
}
330
C
100
AcDbDictionary
281
     1
  0
DICTIONARY
  5
1A
102
{ACAD_REACTORS
330
C
102
}
330
C
100
AcDbDictionary
281
     1
  3
Layout1
350
1E
  3
Layout2
350
26
  3
Model
350
22
  0
DICTIONARY
  5
17
102
{ACAD_REACTORS
330
C
102
}
330
C
100
AcDbDictionary
281
     1
  3
Standard
350
18
  0
DICTIONARY
  5
19
102
{ACAD_REACTORS
330
C
102
}
330
C
100
AcDbDictionary
281
     1
  0
ACDBDICTIONARYWDFLT
  5
E
102
{ACAD_REACTORS
330
C
102
}
330
C
100
AcDbDictionary
281
     1
  3
Normal
350
F
100
AcDbDictionaryWithDefault
340
F
  0
LAYOUT
  5
1E
102
{ACAD_REACTORS
330
1A
102
}
330
1A
100
AcDbPlotSettings
  1

  2
none_device
  4

  6

 40
0.0
 41
0.0
 42
0.0
 43
0.0
 44
0.0
 45
0.0
 46
0.0
 47
0.0
 48
0.0
 49
0.0
140
0.0
141
0.0
142
1.0
143
1.0
 70
   688
 72
     0
 73
     0
 74
     5
  7

 75
    16
147
1.0
148
0.0
149
0.0
100
AcDbLayout
  1
Layout1
 70
     1
 71
     1
 10
0.0
 20
0.0
 11
420.0
 21
297.0
 12
0.0
 22
0.0
 32
0.0
 14
1.0000000000E+20
 24
1.0000000000E+20
 34
1.0000000000E+20
 15
-1.0000000000E+20
 25
-1.0000000000E+20
 35
-1.0000000000E+20
146
0.0
 13
0.0
 23
0.0
 33
0.0
 16
1.0
 26
0.0
 36
0.0
 17
0.0
 27
1.0
 37
0.0
 76
     0
330
1B
  0
LAYOUT
  5
26
102
{ACAD_REACTORS
330
1A
102
}
330
1A
100
AcDbPlotSettings
  1

  2
none_device
  4

  6

 40
0.0
 41
0.0
 42
0.0
 43
0.0
 44
0.0
 45
0.0
 46
0.0
 47
0.0
 48
0.0
 49
0.0
140
0.0
141
0.0
142
1.0
143
1.0
 70
   688
 72
     0
 73
     0
 74
     5
  7

 75
    16
147
1.0
148
0.0
149
0.0
100
AcDbLayout
  1
Layout2
 70
     1
 71
     2
 10
0.0
 20
0.0
 11
0.0
 21
0.0
 12
0.0
 22
0.0
 32
0.0
 14
0.0
 24
0.0
 34
0.0
 15
0.0
 25
0.0
 35
0.0
146
0.0
 13
0.0
 23
0.0
 33
0.0
 16
1.0
 26
0.0
 36
0.0
 17
0.0
 27
1.0
 37
0.0
 76
     0
330
23
  0
LAYOUT
  5
22
102
{ACAD_REACTORS
330
1A
102
}
330
1A
100
AcDbPlotSettings
  1

  2
none_device
  4

  6

 40
0.0
 41
0.0
 42
0.0
 43
0.0
 44
0.0
 45
0.0
 46
0.0
 47
0.0
 48
0.0
 49
0.0
140
0.0
141
0.0
142
1.0
143
1.0
 70
  1712
 72
     0
 73
     0
 74
     0
  7

 75
     0
147
1.0
148
0.0
149
0.0
100
AcDbLayout
  1
Model
 70
     1
 71
     0
 10
0.0
 20
0.0
 11
210.0
 21
297.0
 12
0.0
 22
0.0
 32
0.0
 14
0.0
 24
0.0
 34
0.0
 15
210.0
 25
297.0
 35
0.0
146
0.0
 13
0.0
 23
0.0
 33
0.0
 16
1.0
 26
0.0
 36
0.0
 17
0.0
 27
1.0
 37
0.0
 76
     0
330
1F
331
29
  0
MLINESTYLE
  5
18
102
{ACAD_REACTORS
330
17
102
}
330
17
100
AcDbMlineStyle
  2
Standard
 70
     0
  3

 62
   256
 51
90.0
 52
90.0
 71
     2
 49
0.5
 62
   256
  6
BYLAYER
 49
-0.5
 62
   256
  6
BYLAYER
  0
ACDBPLACEHOLDER
  5
F
102
{ACAD_REACTORS
330
E
102
}
330
E
  0
ENDSEC
  0
EOF
