  0
SECTION
  2
HEADER
  9
$ACADVER
  1
AC1015
  9
$ACADMAINTVER
 70
     6
  9
$DWGCODEPAGE
  3
DOS932
  9
$INSBASE
 10
0.0
 20
0.0
 30
0.0
  9
$EXTMIN
 10
0.0
 20
0.0
 30
0.0
  9
$EXTMAX
 10
210.0
 20
297.0
 30
0.0
  9
$LIMMIN
 10
0.0
 20
0.0
  9
$LIMMAX
 10
210.0
 20
297.0
  9
$ORTHOMODE
 70
     0
  9
$REGENMODE
 70
     1
  9
$FILLMODE
 70
     1
  9
$QTEXTMODE
 70
     0
  9
$MIRRTEXT
 70
     1
  9
$LTSCALE
 40
1.0
  9
$ATTMODE
 70
     1
  9
$TEXTSIZE
 40
3.5
  9
$TRACEWID
 40
1.0
  9
$TEXTSTYLE
  7
Standard
  9
$CLAYER
  8
0
  9
$CELTYPE
  6
ByLayer
  9
$CECOLOR
 62
   256
  9
$CELTSCALE
 40
1.0
  9
$DISPSILH
 70
     0
  9
$DIMSCALE
 40
1.0
  9
$DIMASZ
 40
2.0
  9
$DIMEXO
 40
1.0
  9
$DIMDLI
 40
3.75
  9
$DIMRND
 40
0.0
  9
$DIMDLE
 40
0.0
  9
$DIMEXE
 40
1.0
  9
$DIMTP
 40
0.0
  9
$DIMTM
 40
0.0
  9
$DIMTXT
 40
3.5
  9
$DIMCEN
 40
2.5
  9
$DIMTSZ
 40
0.0
  9
$DIMTOL
 70
     0
  9
$DIMLIM
 70
     0
  9
$DIMTIH
 70
     1
  9
$DIMTOH
 70
     1
  9
$DIMSE1
 70
     0
  9
$DIMSE2
 70
     0
  9
$DIMTAD
 70
     1
  9
$DIMZIN
 70
     0
  9
$DIMBLK
  1

  9
$DIMASO
 70
     1
  9
$DIMSHO
 70
     1
  9
$DIMPOST
  1

  9
$DIMAPOST
  1

  9
$DIMALT
 70
     0
  9
$DIMALTD
 70
     3
  9
$DIMALTF
 40
0.0393700787
  9
$DIMLFAC
 40
1.0
  9
$DIMTOFL
 70
     1
  9
$DIMTVP
 40
0.0
  9
$DIMTIX
 70
     0
  9
$DIMSOXD
 70
     0
  9
$DIMSAH
 70
     0
  9
$DIMBLK1
  1

  9
$DIMBLK2
  1

  9
$DIMSTYLE
  2
ISO-25
  9
$DIMCLRD
 70
     0
  9
$DIMCLRE
 70
     0
  9
$DIMCLRT
 70
     0
  9
$DIMTFAC
 40
1.0
  9
$DIMGAP
 40
1.524
  9
$DIMJUST
 70
     0
  9
$DIMSD1
 70
     0
  9
$DIMSD2
 70
     0
  9
$DIMTOLJ
 70
     0
  9
$DIMTZIN
 70
     0
  9
$DIMALTZ
 70
     0
  9
$DIMALTTZ
 70
     0
  9
$DIMUPT
 70
     0
  9
$DIMDEC
 70
     2
  9
$DIMTDEC
 70
     2
  9
$DIMALTU
 70
     2
  9
$DIMALTTD
 70
     3
  9
$DIMTXSTY
  7
Standard
  9
$DIMAUNIT
 70
     0
  9
$DIMADEC
 70
     2
  9
$DIMALTRND
 40
0.0
  9
$DIMAZIN
 70
     0
  9
$DIMDSEP
 70
    44
  9
$DIMATFIT
 70
     3
  9
$DIMFRAC
 70
     0
  9
$DIMLDRBLK
  1

  9
$DIMLUNIT
 70
     2
  9
$DIMLWD
 70
    -2
  9
$DIMLWE
 70
    -2
  9
$DIMTMOVE
 70
     0
  9
$LUNITS
 70
     2
  9
$LUPREC
 70
     2
  9
$SKETCHINC
 40
1.0
  9
$FILLETRAD
 40
10.0
  9
$AUNITS
 70
     0
  9
$AUPREC
 70
     2
  9
$MENU
  1
.
  9
$ELEVATION
 40
0.0
  9
$PELEVATION
 40
0.0
  9
$THICKNESS
 40
0.0
  9
$LIMCHECK
 70
     0
  9
$CHAMFERA
 40
10.0
  9
$CHAMFERB
 40
10.0
  9
$CHAMFERC
 40
20.0
  9
$CHAMFERD
 40
0.0
  9
$SKPOLY
 70
     0
  9
$TDCREATE
 40
2456911.802944248
  9
$TDUCREATE
 40
2456911.427944248
  9
$TDUPDATE
 40
2456911.802946227
  9
$TDUUPDATE
 40
2456911.427946227
  9
$TDINDWG
 40
0.0000000116
  9
$TDUSRTIMER
 40
0.0000000116
  9
$USRTIMER
 70
     1
  9
$ANGBASE
 50
0.0
  9
$ANGDIR
 70
     0
  9
$PDMODE
 70
     0
  9
$PDSIZE
 40
-1.0
  9
$PLINEWID
 40
0.0
  9
$SPLFRAME
 70
     0
  9
$SPLINETYPE
 70
     6
  9
$SPLINESEGS
 70
     8
  9
$HANDSEED
  5
4BE
  9
$SURFTAB1
 70
     6
  9
$SURFTAB2
 70
     6
  9
$SURFTYPE
 70
     6
  9
$SURFU
 70
     6
  9
$SURFV
 70
     6
  9
$UCSBASE
  2

  9
$UCSNAME
  2

  9
$UCSORG
 10
0.0
 20
0.0
 30
0.0
  9
$UCSXDIR
 10
1.0
 20
0.0
 30
0.0
  9
$UCSYDIR
 10
0.0
 20
1.0
 30
0.0
  9
$UCSORTHOREF
  2

  9
$UCSORTHOVIEW
 70
     0
  9
$UCSORGTOP
 10
0.0
 20
0.0
 30
0.0
  9
$UCSORGBOTTOM
 10
0.0
 20
0.0
 30
0.0
  9
$UCSORGLEFT
 10
0.0
 20
0.0
 30
0.0
  9
$UCSORGRIGHT
 10
0.0
 20
0.0
 30
0.0
  9
$UCSORGFRONT
 10
0.0
 20
0.0
 30
0.0
  9
$UCSORGBACK
 10
0.0
 20
0.0
 30
0.0
  9
$PUCSBASE
  2

  9
$PUCSNAME
  2

  9
$PUCSORG
 10
0.0
 20
0.0
 30
0.0
  9
$PUCSXDIR
 10
1.0
 20
0.0
 30
0.0
  9
$PUCSYDIR
 10
0.0
 20
1.0
 30
0.0
  9
$PUCSORTHOREF
  2

  9
$PUCSORTHOVIEW
 70
     0
  9
$PUCSORGTOP
 10
0.0
 20
0.0
 30
0.0
  9
$PUCSORGBOTTOM
 10
0.0
 20
0.0
 30
0.0
  9
$PUCSORGLEFT
 10
0.0
 20
0.0
 30
0.0
  9
$PUCSORGRIGHT
 10
0.0
 20
0.0
 30
0.0
  9
$PUCSORGFRONT
 10
0.0
 20
0.0
 30
0.0
  9
$PUCSORGBACK
 10
0.0
 20
0.0
 30
0.0
  9
$USERI1
 70
     0
  9
$USERI2
 70
     0
  9
$USERI3
 70
     0
  9
$USERI4
 70
     0
  9
$USERI5
 70
     0
  9
$USERR1
 40
0.0
  9
$USERR2
 40
0.0
  9
$USERR3
 40
0.0
  9
$USERR4
 40
0.0
  9
$USERR5
 40
0.0
  9
$WORLDVIEW
 70
     1
  9
$SHADEDGE
 70
     3
  9
$SHADEDIF
 70
    70
  9
$TILEMODE
 70
     1
  9
$MAXACTVP
 70
    64
  9
$PINSBASE
 10
0.0
 20
0.0
 30
0.0
  9
$PLIMCHECK
 70
     0
  9
$PEXTMIN
 10
1.0000000000E+20
 20
1.0000000000E+20
 30
1.0000000000E+20
  9
$PEXTMAX
 10
-1.0000000000E+20
 20
-1.0000000000E+20
 30
-1.0000000000E+20
  9
$PLIMMIN
 10
0.0
 20
0.0
  9
$PLIMMAX
 10
420.0
 20
297.0
  9
$UNITMODE
 70
     0
  9
$VISRETAIN
 70
     1
  9
$PLINEGEN
 70
     0
  9
$PSLTSCALE
 70
     1
  9
$TREEDEPTH
 70
  3020
  9
$CMLSTYLE
  2
Standard
  9
$CMLJUST
 70
     0
  9
$CMLSCALE
 40
20.0
  9
$PROXYGRAPHICS
 70
     1
  9
$MEASUREMENT
 70
     1
  9
$CELWEIGHT
370
    -1
  9
$ENDCAPS
280
     0
  9
$JOINSTYLE
280
     0
  9
$LWDISPLAY
290
     1
  9
$INSUNITS
 70
     4
  9
$HYPERLINKBASE
  1

  9
$STYLESHEET
  1

  9
$XEDIT
290
     1
  9
$CEPSNTYPE
380
     0
  9
$PSTYLEMODE
290
     1
  9
$FINGERPRINTGUID
  2
{27BDF2D3-5B30-41C1-8718-A5F8BD585514}
  9
$VERSIONGUID
  2
{FAEB1C32-E019-11D5-929B-00C0DF256EC4}
  9
$EXTNAMES
290
     1
  9
$PSVPSCALE
 40
0.0
  9
$OLESTARTUP
290
     0
  0
ENDSEC
  0
SECTION
  2
CLASSES
  0
CLASS
  1
ACDBDICTIONARYWDFLT
  2
AcDbDictionaryWithDefault
  3
ObjectDBX Classes
 90
        0
280
     0
281
     0
  0
CLASS
  1
VISUALSTYLE
  2
AcDbVisualStyle
  3
ObjectDBX Classes
 90
     4095
280
     0
281
     0
  0
CLASS
  1
MATERIAL
  2
AcDbMaterial
  3
ObjectDBX Classes
 90
     1153
280
     0
281
     0
  0
CLASS
  1
ACDBPLACEHOLDER
  2
AcDbPlaceHolder
  3
ObjectDBX Classes
 90
        0
280
     0
281
     0
  0
CLASS
  1
LAYOUT
  2
AcDbLayout
  3
ObjectDBX Classes
 90
        0
280
     0
281
     0
  0
ENDSEC
  0
SECTION
  2
TABLES
  0
TABLE
  2
VPORT
  5
8
330
0
100
AcDbSymbolTable
 70
     1
  0
VPORT
  5
29
330
8
100
AcDbSymbolTableRecord
100
AcDbViewportTableRecord
  2
*Active
 70
     0
 10
0.0
 20
0.0
 11
1.0
 21
1.0
 12
105.0
 22
148.5
 13
0.0
 23
0.0
 14
10.0
 24
10.0
 15
10.0
 25
10.0
 16
0.0
 26
0.0
 36
1.0
 17
0.0
 27
0.0
 37
0.0
 40
297.0
 41
0.7070707071
 42
50.0
 43
0.0
 44
0.0
 50
0.0
 51
0.0
 71
     0
 72
  2000
 73
     1
 74
     3
 75
     0
 76
     0
 77
     0
 78
     0
281
     0
 65
     1
110
0.0
120
0.0
130
0.0
111
1.0
121
0.0
131
0.0
112
0.0
122
1.0
132
0.0
 79
     0
146
0.0
  0
ENDTAB
  0
TABLE
  2
LTYPE
  5
5
330
0
100
AcDbSymbolTable
 70
     6
  0
LTYPE
  5
14
330
5
100
AcDbSymbolTableRecord
100
AcDbLinetypeTableRecord
  2
ByBlock
 70
     0
  3

 72
    65
 73
     0
 40
0.0
  0
LTYPE
  5
15
330
5
100
AcDbSymbolTableRecord
100
AcDbLinetypeTableRecord
  2
ByLayer
 70
     0
  3

 72
    65
 73
     0
 40
0.0
  0
LTYPE
  5
16
330
5
100
AcDbSymbolTableRecord
100
AcDbLinetypeTableRecord
  2
Continuous
 70
     0
  3
Solid line
 72
    65
 73
     0
 40
0.0
  0
LTYPE
  5
3F
330
5
100
AcDbSymbolTableRecord
100
AcDbLinetypeTableRecord
  2
HIDDEN
 70
     0
  3
Hidden __ __ __ __ __ __ __ __ __ __ __ __ __ __
 72
    65
 73
     2
 40
1.905
 49
1.27
 74
     0
 49
-0.635
 74
     0
  0
LTYPE
  5
40
330
5
100
AcDbSymbolTableRecord
100
AcDbLinetypeTableRecord
  2
PHANTOM
 70
     0
  3
Phantom ______  __  __  ______  __  __  ______
 72
    65
 73
     6
 40
12.7
 49
6.35
 74
     0
 49
-1.27
 74
     0
 49
1.27
 74
     0
 49
-1.27
 74
     0
 49
1.27
 74
     0
 49
-1.27
 74
     0
  0
LTYPE
  5
41
330
5
100
AcDbSymbolTableRecord
100
AcDbLinetypeTableRecord
  2
CENTER
 70
     0
  3
Center ____ _ ____ _ ____ _ ____ _ ____ _ ____
 72
    65
 73
     4
 40
10.16
 49
6.35
 74
     0
 49
-1.27
 74
     0
 49
1.27
 74
     0
 49
-1.27
 74
     0
  0
LTYPE
  5
42
330
5
100
AcDbSymbolTableRecord
100
AcDbLinetypeTableRecord
  2
CENTERX2
 70
     0
  3
Center (2x) ________  __  ________  __  _____
 72
    65
 73
     4
 40
20.32
 49
12.7
 74
     0
 49
-2.54
 74
     0
 49
2.54
 74
     0
 49
-2.54
 74
     0
  0
LTYPE
  5
43
330
5
100
AcDbSymbolTableRecord
100
AcDbLinetypeTableRecord
  2
DOT2
 70
     0
  3
Dot (.5x) ........................................
 72
    65
 73
     2
 40
0.635
 49
0.0
 74
     0
 49
-0.635
 74
     0
  0
ENDTAB
  0
TABLE
  2
LAYER
  5
2
330
0
100
AcDbSymbolTable
 70
     1
  0
LAYER
  5
10
330
2
100
AcDbSymbolTableRecord
100
AcDbLayerTableRecord
  2
0
 70
     0
 62
     7
  6
Continuous
370
    -3
390
F
  0
ENDTAB
  0
TABLE
  2
STYLE
  5
3
330
0
100
AcDbSymbolTable
 70
     3
  0
STYLE
  5
11
330
3
100
AcDbSymbolTableRecord
100
AcDbTextStyleTableRecord
  2
Standard
 70
     0
 40
0.0
 41
1.0
 50
0.0
 71
     0
 42
3.5
  3
txt
  4
bigfont
  0
STYLE
  5
4C
330
3
100
AcDbSymbolTableRecord
100
AcDbTextStyleTableRecord
  2
SLDTEXTSTYLE0
 70
     0
 40
0.0
 41
0.7
 50
0.0
 71
     0
 42
0.2
  3
TXT
  4
bigfont
  0
STYLE
  5
1BF
330
3
100
AcDbSymbolTableRecord
100
AcDbTextStyleTableRecord
  2
SLDTEXTSTYLE1
 70
     0
 40
0.0
 41
0.75
 50
0.0
 71
     0
 42
0.2
  3
TXT
  4
bigfont
  0
ENDTAB
  0
TABLE
  2
VIEW
  5
6
330
0
100
AcDbSymbolTable
 70
     0
  0
ENDTAB
  0
TABLE
  2
UCS
  5
7
330
0
100
AcDbSymbolTable
 70
     0
  0
ENDTAB
  0
TABLE
  2
APPID
  5
9
330
0
100
AcDbSymbolTable
 70
     1
  0
APPID
  5
12
330
9
100
AcDbSymbolTableRecord
100
AcDbRegAppTableRecord
  2
ACAD
 70
     0
  0
ENDTAB
  0
TABLE
  2
DIMSTYLE
  5
A
330
0
100
AcDbSymbolTable
 70
     7
100
AcDbDimStyleTable
  0
DIMSTYLE
105
27
330
A
100
AcDbSymbolTableRecord
100
AcDbDimStyleTableRecord
  2
ISO-25
 70
     0
 41
2.5
 42
0.625
 43
3.75
 44
1.25
 73
     0
 74
     0
 77
     1
 78
     8
140
2.5
141
2.5
143
0.0393700787
147
0.625
171
     3
172
     1
178
     0
271
     2
272
     2
274
     3
278
    44
283
     0
284
     8
340
11
  0
DIMSTYLE
105
1C0
102
{ACAD_REACTORS
330
1BE
330
1CA
330
203
330
20D
330
373
330
37D
330
489
330
494
330
49E
330
4A8
102
}
330
A
100
AcDbSymbolTableRecord
100
AcDbDimStyleTableRecord
  2
SLDDIMSTYLE0
 70
     0
 41
2.0
 44
0.0
 45
0.000000001
 73
     0
 74
     0
 77
     3
 78
    12
 79
     3
140
3.5
147
0.875
173
     1
178
     0
271
     2
272
     2
276
     2
284
    12
340
1BF
  0
DIMSTYLE
105
1D5
102
{ACAD_REACTORS
330
1D4
102
}
330
A
100
AcDbSymbolTableRecord
100
AcDbDimStyleTableRecord
  2
SLDDIMSTYLE1
 70
     0
 41
2.0
 44
0.0
 45
0.000000001
 73
     0
 74
     0
 77
     3
 78
    12
 79
     3
140
3.5
147
0.875
172
     1
173
     1
178
     0
271
     2
272
     2
276
     2
284
    12
289
     0
340
1BF
344
1D6
  0
DIMSTYLE
105
1EA
102
{ACAD_REACTORS
330
1E9
102
}
330
A
100
AcDbSymbolTableRecord
100
AcDbDimStyleTableRecord
  2
SLDDIMSTYLE2
 70
     0
 41
1.5
 44
0.0
 45
0.000000001
 73
     0
 74
     0
 77
     3
 78
    12
 79
     3
140
3.5
147
0.875
172
     1
173
     1
178
     0
271
     1
272
     1
276
     2
284
    12
289
     0
340
1BF
341
1D6
343
1D6
  0
DIMSTYLE
105
1F7
102
{ACAD_REACTORS
330
1F6
102
}
330
A
100
AcDbSymbolTableRecord
100
AcDbDimStyleTableRecord
  2
SLDDIMSTYLE3
 70
     0
 41
2.0
 44
0.0
 45
0.000000001
 73
     0
 74
     0
 77
     3
 78
    12
 79
     3
140
3.5
147
0.875
172
     1
173
     1
178
     0
271
     1
272
     1
276
     2
284
    12
289
     0
340
1BF
  0
DIMSTYLE
105
218
330
A
100
AcDbSymbolTableRecord
100
AcDbDimStyleTableRecord
  2
SLDDIMSTYLE4
 70
     0
 41
2.0
 44
0.0
 45
0.000000001
140
0.0
146
2.0
147
0.0
173
     1
178
     0
271
     0
272
     0
276
     2
340
11
  0
DIMSTYLE
105
388
102
{ACAD_REACTORS
330
387
102
}
330
A
100
AcDbSymbolTableRecord
100
AcDbDimStyleTableRecord
  2
SLDDIMSTYLE5
 70
     0
 41
2.0
 44
0.0
 45
0.000000001
 73
     0
 74
     0
 77
     3
 78
    12
 79
     3
140
3.5
147
0.875
173
     1
178
     0
271
     1
272
     2
276
     2
284
    12
340
1BF
  0
ENDTAB
  0
TABLE
  2
BLOCK_RECORD
  5
1
330
0
100
AcDbSymbolTable
 70
    25
  0
BLOCK_RECORD
  5
1F
330
1
100
AcDbSymbolTableRecord
100
AcDbBlockTableRecord
  2
*Model_Space
340
22
  0
BLOCK_RECORD
  5
1B
330
1
100
AcDbSymbolTableRecord
100
AcDbBlockTableRecord
  2
*Paper_Space
340
1E
  0
BLOCK_RECORD
  5
23
330
1
100
AcDbSymbolTableRecord
100
AcDbBlockTableRecord
  2
*Paper_Space0
340
26
  0
BLOCK_RECORD
  5
1C1
330
1
100
AcDbSymbolTableRecord
100
AcDbBlockTableRecord
  2
_D
340
0
  0
BLOCK_RECORD
  5
1CB
330
1
100
AcDbSymbolTableRecord
100
AcDbBlockTableRecord
  2
_D_1
340
0
  0
BLOCK_RECORD
  5
1D6
330
1
100
AcDbSymbolTableRecord
100
AcDbBlockTableRecord
  2
_DOT
340
0
102
{BLKREFS
331
1E2
331
1EE
102
}
  0
BLOCK_RECORD
  5
1DE
330
1
100
AcDbSymbolTableRecord
100
AcDbBlockTableRecord
  2
_D_2
340
0
  0
BLOCK_RECORD
  5
1EB
330
1
100
AcDbSymbolTableRecord
100
AcDbBlockTableRecord
  2
_D_3
340
0
  0
BLOCK_RECORD
  5
1F8
330
1
100
AcDbSymbolTableRecord
100
AcDbBlockTableRecord
  2
_D_4
340
0
  0
BLOCK_RECORD
  5
204
330
1
100
AcDbSymbolTableRecord
100
AcDbBlockTableRecord
  2
_D_5
340
0
  0
BLOCK_RECORD
  5
20E
330
1
100
AcDbSymbolTableRecord
100
AcDbBlockTableRecord
  2
_D_6
340
0
  0
BLOCK_RECORD
  5
21A
330
1
100
AcDbSymbolTableRecord
100
AcDbBlockTableRecord
  2
SW_NOTE_0
340
0
102
{BLKREFS
331
224
102
}
  0
BLOCK_RECORD
  5
228
330
1
100
AcDbSymbolTableRecord
100
AcDbBlockTableRecord
  2
SW_CENTERMARKSYMBOL_0
340
0
102
{BLKREFS
331
233
102
}
  0
BLOCK_RECORD
  5
234
330
1
100
AcDbSymbolTableRecord
100
AcDbBlockTableRecord
  2
SW_CENTERMARKSYMBOL_1
340
0
102
{BLKREFS
331
23F
102
}
  0
BLOCK_RECORD
  5
374
330
1
100
AcDbSymbolTableRecord
100
AcDbBlockTableRecord
  2
_D_7
340
0
  0
BLOCK_RECORD
  5
37E
330
1
100
AcDbSymbolTableRecord
100
AcDbBlockTableRecord
  2
_D_8
340
0
  0
BLOCK_RECORD
  5
389
330
1
100
AcDbSymbolTableRecord
100
AcDbBlockTableRecord
  2
_D_9
340
0
  0
BLOCK_RECORD
  5
392
330
1
100
AcDbSymbolTableRecord
100
AcDbBlockTableRecord
  2
SW_CENTERMARKSYMBOL_2
340
0
102
{BLKREFS
331
39D
102
}
  0
BLOCK_RECORD
  5
39E
330
1
100
AcDbSymbolTableRecord
100
AcDbBlockTableRecord
  2
SW_CENTERMARKSYMBOL_3
340
0
102
{BLKREFS
331
3A9
102
}
  0
BLOCK_RECORD
  5
3AA
330
1
100
AcDbSymbolTableRecord
100
AcDbBlockTableRecord
  2
SW_CENTERMARKSYMBOL_4
340
0
102
{BLKREFS
331
3B5
102
}
  0
BLOCK_RECORD
  5
3B6
330
1
100
AcDbSymbolTableRecord
100
AcDbBlockTableRecord
  2
SW_CENTERMARKSYMBOL_5
340
0
102
{BLKREFS
331
3C1
102
}
  0
BLOCK_RECORD
  5
3C2
330
1
100
AcDbSymbolTableRecord
100
AcDbBlockTableRecord
  2
SW_CENTERMARKSYMBOL_6
340
0
102
{BLKREFS
331
3CD
102
}
  0
BLOCK_RECORD
  5
48A
330
1
100
AcDbSymbolTableRecord
100
AcDbBlockTableRecord
  2
_D_10
340
0
  0
BLOCK_RECORD
  5
495
330
1
100
AcDbSymbolTableRecord
100
AcDbBlockTableRecord
  2
_D_11
340
0
  0
BLOCK_RECORD
  5
49F
330
1
100
AcDbSymbolTableRecord
100
AcDbBlockTableRecord
  2
_D_12
340
0
  0
BLOCK_RECORD
  5
4A9
330
1
100
AcDbSymbolTableRecord
100
AcDbBlockTableRecord
  2
_D_13
340
0
  0
BLOCK_RECORD
  5
4B2
330
1
100
AcDbSymbolTableRecord
100
AcDbBlockTableRecord
  2
SW_CENTERMARKSYMBOL_7
340
0
102
{BLKREFS
331
4BD
102
}
  0
ENDTAB
  0
ENDSEC
  0
SECTION
  2
BLOCKS
  0
BLOCK
  5
20
330
1F
100
AcDbEntity
  8
0
100
AcDbBlockBegin
  2
*Model_Space
 70
     0
 10
0.0
 20
0.0
 30
0.0
  3
*Model_Space
  1

  0
ENDBLK
  5
21
330
1F
100
AcDbEntity
  8
0
100
AcDbBlockEnd
  0
BLOCK
  5
1C
330
1B
100
AcDbEntity
 67
     1
  8
0
100
AcDbBlockBegin
  2
*Paper_Space
 70
     0
 10
0.0
 20
0.0
 30
0.0
  3
*Paper_Space
  1

  0
ENDBLK
  5
1D
330
1B
100
AcDbEntity
 67
     1
  8
0
100
AcDbBlockEnd
  0
BLOCK
  5
24
330
23
100
AcDbEntity
  8
0
100
AcDbBlockBegin
  2
*Paper_Space0
 70
     0
 10
0.0
 20
0.0
 30
0.0
  3
*Paper_Space0
  1

  0
ENDBLK
  5
25
330
23
100
AcDbEntity
  8
0
100
AcDbBlockEnd
  0
BLOCK
  5
1C2
330
1C1
100
AcDbEntity
  8
0
100
AcDbBlockBegin
  2
_D
 70
     0
 10
0.0
 20
0.0
 30
0.0
  3
_D
  1

  0
SOLID
  5
1C4
330
1C1
100
AcDbEntity
  8
0
  6
Continuous
 62
     7
370
     0
100
AcDbTrace
 10
111.4524575438
 20
204.5896871423
 30
0.0
 11
110.7024575438
 21
202.5896871423
 31
0.0
 12
112.2024575438
 22
202.5896871423
 32
0.0
 13
112.2024575438
 23
202.5896871423
 33
0.0
  0
SOLID
  5
1C5
330
1C1
100
AcDbEntity
  8
0
  6
Continuous
 62
     7
370
     0
100
AcDbTrace
 10
111.4524575438
 20
163.5896871423
 30
0.0
 11
112.2024575438
 21
165.5896871423
 31
0.0
 12
110.7024575438
 22
165.5896871423
 32
0.0
 13
110.7024575438
 23
165.5896871423
 33
0.0
  0
LINE
  5
1C6
330
1C1
100
AcDbEntity
  8
0
  6
Continuous
 62
     7
370
     0
100
AcDbLine
 10
128.5087336425
 20
204.5896871423
 30
0.0
 11
110.4524575438
 21
204.5896871423
 31
0.0
  0
LINE
  5
1C7
330
1C1
100
AcDbEntity
  8
0
  6
Continuous
 62
     7
370
     0
100
AcDbLine
 10
147.9524575438
 20
163.5896871423
 30
0.0
 11
110.4524575438
 21
163.5896871423
 31
0.0
  0
LINE
  5
1C8
330
1C1
100
AcDbEntity
  8
0
  6
Continuous
 62
     7
370
     0
100
AcDbLine
 10
111.4524575438
 20
204.5896871423
 30
0.0
 11
111.4524575438
 21
163.5896871423
 31
0.0
  0
MTEXT
  5
1C9
330
1C1
100
AcDbEntity
  8
0
  6
Continuous
 62
     7
370
     0
100
AcDbMText
 10
106.9407206292
 20
180.7379977766
 30
0.1
 40
3.5
 41
0.0
 71
     1
 72
     1
  1
41
  7
SLDTEXTSTYLE1
 11
-7.044195017643634E-15
 21
1.0
 31
0.0
 73
     1
 44
1.0
  0
ENDBLK
  5
1C3
330
1C1
100
AcDbEntity
  8
0
100
AcDbBlockEnd
  0
BLOCK
  5
1CC
330
1CB
100
AcDbEntity
  8
0
100
AcDbBlockBegin
  2
_D_1
 70
     0
 10
0.0
 20
0.0
 30
0.0
  3
_D_1
  1

  0
SOLID
  5
1CE
330
1CB
100
AcDbEntity
  8
0
  6
Continuous
 62
     7
370
     0
100
AcDbTrace
 10
121.4491955892
 20
211.5896871423
 30
0.0
 11
120.6991955892
 21
209.5896871423
 31
0.0
 12
122.1991955892
 22
209.5896871423
 32
0.0
 13
122.1991955892
 23
209.5896871423
 33
0.0
  0
SOLID
  5
1CF
330
1CB
100
AcDbEntity
  8
0
  6
Continuous
 62
     7
370
     0
100
AcDbTrace
 10
121.4491955892
 20
189.5896871423
 30
0.0
 11
122.1991955892
 21
191.5896871423
 31
0.0
 12
120.6991955892
 22
191.5896871423
 32
0.0
 13
120.6991955892
 23
191.5896871423
 33
0.0
  0
LINE
  5
1D0
330
1CB
100
AcDbEntity
  8
0
  6
Continuous
 62
     7
370
     0
100
AcDbLine
 10
128.9524575438
 20
211.5896871423
 30
0.0
 11
120.4491955892
 21
211.5896871423
 31
0.0
  0
LINE
  5
1D1
330
1CB
100
AcDbEntity
  8
0
  6
Continuous
 62
     7
370
     0
100
AcDbLine
 10
128.9524575438
 20
189.5896871423
 30
0.0
 11
120.4491955892
 21
189.5896871423
 31
0.0
  0
LINE
  5
1D2
330
1CB
100
AcDbEntity
  8
0
  6
Continuous
 62
     7
370
     0
100
AcDbLine
 10
121.4491955892
 20
211.5896871423
 30
0.0
 11
121.4491955892
 21
189.5896871423
 31
0.0
  0
MTEXT
  5
1D3
330
1CB
100
AcDbEntity
  8
0
  6
Continuous
 62
     7
370
     0
100
AcDbMText
 10
116.9374586746
 20
197.4391356252
 30
-6.860690685
 40
3.5
 41
0.0
 71
     1
 72
     1
  1
22
  7
SLDTEXTSTYLE1
 11
-7.044195017643634E-15
 21
1.0
 31
0.0
 73
     1
 44
1.0
  0
ENDBLK
  5
1CD
330
1CB
100
AcDbEntity
  8
0
100
AcDbBlockEnd
  0
BLOCK
  5
1D7
330
1D6
100
AcDbEntity
  8
0
100
AcDbBlockBegin
  2
_DOT
 70
     0
 10
0.0
 20
0.0
 30
0.0
  3
_DOT
  1

  0
POLYLINE
  5
1D9
330
1D6
100
AcDbEntity
  8
0
  6
ByBlock
 62
     0
100
AcDb2dPolyline
 66
     1
 10
0.0
 20
0.0
 30
0.0
 70
     1
 40
0.5
 41
0.5
  0
VERTEX
  5
1DB
330
1D9
100
AcDbEntity
  8
0
  6
ByBlock
 62
     0
100
AcDbVertex
100
AcDb2dVertex
 10
-0.25
 20
0.0
 30
0.0
 42
1.0
  0
VERTEX
  5
1DC
330
1D9
100
AcDbEntity
  8
0
  6
ByBlock
 62
     0
100
AcDbVertex
100
AcDb2dVertex
 10
0.25
 20
0.0
 30
0.0
 42
1.0
  0
SEQEND
  5
1DD
330
1D9
100
AcDbEntity
  8
0
  6
ByBlock
 62
     0
  0
LINE
  5
1DA
330
1D6
100
AcDbEntity
  8
0
  6
ByBlock
 62
     0
370
    -2
100
AcDbLine
 10
-0.5
 20
0.0
 30
0.0
 11
-1.0
 21
0.0
 31
0.0
  0
ENDBLK
  5
1D8
330
1D6
100
AcDbEntity
  8
0
100
AcDbBlockEnd
  0
BLOCK
  5
1DF
330
1DE
100
AcDbEntity
  8
0
100
AcDbBlockBegin
  2
_D_2
 70
     0
 10
0.0
 20
0.0
 30
0.0
  3
_D_2
  1

  0
SOLID
  5
1E1
330
1DE
100
AcDbEntity
  8
0
  6
Continuous
 62
     7
370
     0
100
AcDbTrace
 10
187.7235411683
 20
207.0896871423
 30
0.0
 11
188.4735411683
 21
209.0896871423
 31
0.0
 12
186.9735411683
 22
209.0896871423
 32
0.0
 13
186.9735411683
 23
209.0896871423
 33
0.0
  0
INSERT
  5
1E2
330
1DE
100
AcDbEntity
  8
0
  6
Continuous
 62
     7
370
     0
100
AcDbBlockReference
  2
_DOT
 10
187.7235411683
 20
202.0896871423
 30
-6.860690685
 41
1.5
 42
1.5
 50
90.0
  0
LINE
  5
1E3
330
1DE
100
AcDbEntity
  8
0
  6
Continuous
 62
     7
370
     0
100
AcDbLine
 10
176.7024575438
 20
207.0896871423
 30
0.0
 11
188.7235411683
 21
207.0896871423
 31
0.0
  0
LINE
  5
1E4
330
1DE
100
AcDbEntity
  8
0
  6
Continuous
 62
     7
370
     0
100
AcDbLine
 10
176.7024575438
 20
202.0896871423
 30
0.0
 11
188.7235411683
 21
202.0896871423
 31
0.0
  0
LINE
  5
1E5
330
1DE
100
AcDbEntity
  8
0
  6
Continuous
 62
     7
370
     0
100
AcDbLine
 10
187.7235411683
 20
207.0896871423
 30
0.0
 11
187.7235411683
 21
212.0896871423
 31
0.0
  0
LINE
  5
1E6
330
1DE
100
AcDbEntity
  8
0
  6
Continuous
 62
     7
370
     0
100
AcDbLine
 10
187.7235411683
 20
207.0896871423
 30
0.0
 11
187.7235411683
 21
202.0896871423
 31
0.0
  0
LINE
  5
1E7
330
1DE
100
AcDbEntity
  8
0
  6
Continuous
 62
     7
370
     0
100
AcDbLine
 10
187.7235411683
 20
202.0896871423
 30
0.0
 11
187.7235411683
 21
197.0896871423
 31
0.0
  0
MTEXT
  5
1E8
330
1DE
100
AcDbEntity
  8
0
  6
Continuous
 62
     7
370
     0
100
AcDbMText
 10
183.2118042538
 20
203.2966315455
 30
-6.860690685
 40
3.5
 41
0.0
 71
     1
 72
     1
  1
5
  7
SLDTEXTSTYLE1
 11
-7.044195017643634E-15
 21
1.0
 31
0.0
 73
     1
 44
1.0
  0
ENDBLK
  5
1E0
330
1DE
100
AcDbEntity
  8
0
100
AcDbBlockEnd
  0
BLOCK
  5
1EC
330
1EB
100
AcDbEntity
  8
0
100
AcDbBlockBegin
  2
_D_3
 70
     0
 10
0.0
 20
0.0
 30
0.0
  3
_D_3
  1

  0
INSERT
  5
1EE
330
1EB
100
AcDbEntity
  8
0
  6
Continuous
 62
     7
370
     0
100
AcDbBlockReference
  2
_DOT
 10
187.7235411683
 20
202.0896871423
 30
-6.860690685
 41
1.5
 42
1.5
 50
270.0
  0
SOLID
  5
1EF
330
1EB
100
AcDbEntity
  8
0
  6
Continuous
 62
     7
370
     0
100
AcDbTrace
 10
187.7235411683
 20
189.5896871423
 30
0.0
 11
186.9735411683
 21
187.5896871423
 31
0.0
 12
188.4735411683
 22
187.5896871423
 32
0.0
 13
188.4735411683
 23
187.5896871423
 33
0.0
  0
LINE
  5
1F0
330
1EB
100
AcDbEntity
  8
0
  6
Continuous
 62
     7
370
     0
100
AcDbLine
 10
176.7024575438
 20
202.0896871423
 30
0.0
 11
188.7235411683
 21
202.0896871423
 31
0.0
  0
LINE
  5
1F1
330
1EB
100
AcDbEntity
  8
0
  6
Continuous
 62
     7
370
     0
100
AcDbLine
 10
174.9524575438
 20
189.5896871423
 30
0.0
 11
188.7235411683
 21
189.5896871423
 31
0.0
  0
LINE
  5
1F2
330
1EB
100
AcDbEntity
  8
0
  6
Continuous
 62
     7
370
     0
100
AcDbLine
 10
187.7235411683
 20
202.0896871423
 30
0.0
 11
187.7235411683
 21
207.0896871423
 31
0.0
  0
LINE
  5
1F3
330
1EB
100
AcDbEntity
  8
0
  6
Continuous
 62
     7
370
     0
100
AcDbLine
 10
187.7235411683
 20
202.0896871423
 30
0.0
 11
187.7235411683
 21
189.5896871423
 31
0.0
  0
LINE
  5
1F4
330
1EB
100
AcDbEntity
  8
0
  6
Continuous
 62
     7
370
     0
100
AcDbLine
 10
187.7235411683
 20
189.5896871423
 30
0.0
 11
187.7235411683
 21
184.5896871423
 31
0.0
  0
MTEXT
  5
1F5
330
1EB
100
AcDbEntity
  8
0
  6
Continuous
 62
     7
370
     0
100
AcDbMText
 10
183.2118042538
 20
191.3139926118
 30
-6.860690685
 40
3.5
 41
0.0
 71
     1
 72
     1
  1
12.5
  7
SLDTEXTSTYLE1
 11
-7.044195017643634E-15
 21
1.0
 31
0.0
 73
     1
 44
1.0
  0
ENDBLK
  5
1ED
330
1EB
100
AcDbEntity
  8
0
100
AcDbBlockEnd
  0
BLOCK
  5
1F9
330
1F8
100
AcDbEntity
  8
0
100
AcDbBlockBegin
  2
_D_4
 70
     0
 10
0.0
 20
0.0
 30
0.0
  3
_D_4
  1

  0
SOLID
  5
1FB
330
1F8
100
AcDbEntity
  8
0
  6
Continuous
 62
     7
370
     0
100
AcDbTrace
 10
168.7024575438
 20
179.9510662398
 30
0.0
 11
166.7024575438
 21
180.7010662398
 31
0.0
 12
166.7024575438
 22
179.2010662398
 32
0.0
 13
166.7024575438
 23
179.2010662398
 33
0.0
  0
SOLID
  5
1FC
330
1F8
100
AcDbEntity
  8
0
  6
Continuous
 62
     7
370
     0
100
AcDbTrace
 10
173.2024575438
 20
179.9510662398
 30
0.0
 11
175.2024575438
 21
179.2010662398
 31
0.0
 12
175.2024575438
 22
180.7010662398
 32
0.0
 13
175.2024575438
 23
180.7010662398
 33
0.0
  0
LINE
  5
1FD
330
1F8
100
AcDbEntity
  8
0
  6
Continuous
 62
     7
370
     0
100
AcDbLine
 10
168.7024575438
 20
201.0896871423
 30
0.0
 11
168.7024575438
 21
178.9510662398
 31
0.0
  0
LINE
  5
1FE
330
1F8
100
AcDbEntity
  8
0
  6
Continuous
 62
     7
370
     0
100
AcDbLine
 10
173.2024575438
 20
201.0896871423
 30
0.0
 11
173.2024575438
 21
178.9510662398
 31
0.0
  0
LINE
  5
1FF
330
1F8
100
AcDbEntity
  8
0
  6
Continuous
 62
     7
370
     0
100
AcDbLine
 10
168.7024575438
 20
179.9510662398
 30
0.0
 11
157.9908254781
 21
179.9510662398
 31
0.0
  0
LINE
  5
200
330
1F8
100
AcDbEntity
  8
0
  6
Continuous
 62
     7
370
     0
100
AcDbLine
 10
168.7024575438
 20
179.9510662398
 30
0.0
 11
173.2024575438
 21
179.9510662398
 31
0.0
  0
LINE
  5
201
330
1F8
100
AcDbEntity
  8
0
  6
Continuous
 62
     7
370
     0
100
AcDbLine
 10
173.2024575438
 20
179.9510662398
 30
0.0
 11
178.2024575438
 21
179.9510662398
 31
0.0
  0
MTEXT
  5
202
330
1F8
100
AcDbEntity
  8
0
  6
Continuous
 62
     7
370
     0
100
AcDbMText
 10
157.9908254781
 20
184.4628031544
 30
-6.860690685
 40
3.5
 41
0.0
 71
     1
 72
     1
  1
4.5
  7
SLDTEXTSTYLE1
 73
     1
 44
1.0
  0
ENDBLK
  5
1FA
330
1F8
100
AcDbEntity
  8
0
100
AcDbBlockEnd
  0
BLOCK
  5
205
330
204
100
AcDbEntity
  8
0
100
AcDbBlockBegin
  2
_D_5
 70
     0
 10
0.0
 20
0.0
 30
0.0
  3
_D_5
  1

  0
SOLID
  5
207
330
204
100
AcDbEntity
  8
0
  6
Continuous
 62
     7
370
     0
100
AcDbTrace
 10
170.9524575438
 20
156.2171916764
 30
0.0
 11
168.9524575438
 21
156.9671916764
 31
0.0
 12
168.9524575438
 22
155.4671916764
 32
0.0
 13
168.9524575438
 23
155.4671916764
 33
0.0
  0
SOLID
  5
208
330
204
100
AcDbEntity
  8
0
  6
Continuous
 62
     7
370
     0
100
AcDbTrace
 10
132.9524575438
 20
156.2171916764
 30
0.0
 11
134.9524575438
 21
155.4671916764
 31
0.0
 12
134.9524575438
 22
156.9671916764
 32
0.0
 13
134.9524575438
 23
156.9671916764
 33
0.0
  0
LINE
  5
209
330
204
100
AcDbEntity
  8
0
  6
Continuous
 62
     7
370
     0
100
AcDbLine
 10
170.9524575438
 20
196.3396871423
 30
0.0
 11
170.9524575438
 21
155.2171916764
 31
0.0
  0
LINE
  5
20A
330
204
100
AcDbEntity
  8
0
  6
Continuous
 62
     7
370
     0
100
AcDbLine
 10
132.9524575438
 20
199.0896871423
 30
0.0
 11
132.9524575438
 21
155.2171916764
 31
0.0
  0
LINE
  5
20B
330
204
100
AcDbEntity
  8
0
  6
Continuous
 62
     7
370
     0
100
AcDbLine
 10
170.9524575438
 20
156.2171916764
 30
0.0
 11
132.9524575438
 21
156.2171916764
 31
0.0
  0
MTEXT
  5
20C
330
204
100
AcDbEntity
  8
0
  6
Continuous
 62
     7
370
     0
100
AcDbMText
 10
149.5345382888
 20
160.7289285909
 30
-6.860690685
 40
3.5
 41
0.0
 71
     1
 72
     1
  1
38
  7
SLDTEXTSTYLE1
 73
     1
 44
1.0
  0
ENDBLK
  5
206
330
204
100
AcDbEntity
  8
0
100
AcDbBlockEnd
  0
BLOCK
  5
20F
330
20E
100
AcDbEntity
  8
0
100
AcDbBlockBegin
  2
_D_6
 70
     0
 10
0.0
 20
0.0
 30
0.0
  3
_D_6
  1

  0
SOLID
  5
211
330
20E
100
AcDbEntity
  8
0
  6
Continuous
 62
     7
370
     0
100
AcDbTrace
 10
175.9524575438
 20
143.5346724002
 30
0.0
 11
173.9524575438
 21
144.2846724002
 31
0.0
 12
173.9524575438
 22
142.7846724002
 32
0.0
 13
173.9524575438
 23
142.7846724002
 33
0.0
  0
SOLID
  5
212
330
20E
100
AcDbEntity
  8
0
  6
Continuous
 62
     7
370
     0
100
AcDbTrace
 10
127.9524575438
 20
143.5346724002
 30
0.0
 11
129.9524575438
 21
142.7846724002
 31
0.0
 12
129.9524575438
 22
144.2846724002
 32
0.0
 13
129.9524575438
 23
144.2846724002
 33
0.0
  0
LINE
  5
213
330
20E
100
AcDbEntity
  8
0
  6
Continuous
 62
     7
370
     0
100
AcDbLine
 10
175.9524575438
 20
190.5896871423
 30
0.0
 11
175.9524575438
 21
142.5346724002
 31
0.0
  0
LINE
  5
214
330
20E
100
AcDbEntity
  8
0
  6
Continuous
 62
     7
370
     0
100
AcDbLine
 10
127.9524575438
 20
190.5896871423
 30
0.0
 11
127.9524575438
 21
142.5346724002
 31
0.0
  0
LINE
  5
215
330
20E
100
AcDbEntity
  8
0
  6
Continuous
 62
     7
370
     0
100
AcDbLine
 10
175.9524575438
 20
143.5346724002
 30
0.0
 11
127.9524575438
 21
143.5346724002
 31
0.0
  0
MTEXT
  5
216
330
20E
100
AcDbEntity
  8
0
  6
Continuous
 62
     7
370
     0
100
AcDbMText
 10
149.5345382888
 20
148.0464093148
 30
-6.860690685
 40
3.5
 41
0.0
 71
     1
 72
     1
  1
48
  7
SLDTEXTSTYLE1
 73
     1
 44
1.0
  0
ENDBLK
  5
210
330
20E
100
AcDbEntity
  8
0
100
AcDbBlockEnd
  0
BLOCK
  5
21B
330
21A
100
AcDbEntity
  8
0
100
AcDbBlockBegin
  2
SW_NOTE_0
 70
     0
 10
0.0
 20
0.0
 30
0.0
  3
SW_NOTE_0
  1

  0
LINE
  5
21D
330
21A
100
AcDbEntity
  8
0
  6
Continuous
 62
     0
370
     0
100
AcDbLine
 10
0.0
 20
0.4679014599
 30
0.0
 11
5.1094890511
 21
0.4679014599
 31
0.0
  0
LINE
  5
21E
330
21A
100
AcDbEntity
  8
0
  6
Continuous
 62
     0
370
     0
100
AcDbLine
 10
5.1094890511
 20
0.4679014599
 30
0.0
 11
0.0
 21
0.4679014599
 31
0.0
  0
LINE
  5
21F
330
21A
100
AcDbEntity
  8
0
  6
Continuous
 62
     0
370
     0
100
AcDbLine
 10
0.0
 20
0.4679014599
 30
0.0
 11
5.1094890511
 21
0.4679014599
 31
0.0
  0
LINE
  5
220
330
21A
100
AcDbEntity
  8
0
  6
Continuous
 62
     0
370
     0
100
AcDbLine
 10
5.1094890511
 20
0.4679014599
 30
0.0
 11
0.0
 21
0.4679014599
 31
0.0
  0
LINE
  5
221
330
21A
100
AcDbEntity
  8
0
  6
Continuous
 62
     0
370
     0
100
AcDbLine
 10
0.0
 20
0.4679014599
 30
0.0
 11
5.1094890511
 21
0.4679014599
 31
0.0
  0
LINE
  5
222
330
21A
100
AcDbEntity
  8
0
  6
Continuous
 62
     0
370
     0
100
AcDbLine
 10
5.1094890511
 20
0.4679014599
 30
0.0
 11
0.0
 21
0.4679014599
 31
0.0
  0
MTEXT
  5
223
330
21A
100
AcDbEntity
  8
0
  6
Continuous
 62
     0
370
     0
100
AcDbMText
 10
0.1754980783
 20
4.5482045873
 30
0.0
 40
3.5
 41
0.0
 71
     1
 72
     1
  1
PF
  7
SLDTEXTSTYLE1
 73
     1
 44
1.0
  0
ENDBLK
  5
21C
330
21A
100
AcDbEntity
  8
0
100
AcDbBlockEnd
  0
BLOCK
  5
229
330
228
100
AcDbEntity
  8
0
100
AcDbBlockBegin
  2
SW_CENTERMARKSYMBOL_0
 70
     0
 10
0.0
 20
0.0
 30
0.0
  3
SW_CENTERMARKSYMBOL_0
  1

  0
LINE
  5
22B
330
228
100
AcDbEntity
  8
0
  6
Continuous
 62
     0
370
     0
100
AcDbLine
 10
0.0
 20
0.0
 30
0.0
 11
0.0
 21
2.5
 31
0.0
  0
LINE
  5
22C
330
228
100
AcDbEntity
  8
0
  6
Continuous
 62
     0
370
     0
100
AcDbLine
 10
0.0
 20
0.0
 30
0.0
 11
-2.5
 21
0.0
 31
0.0
  0
LINE
  5
22D
330
228
100
AcDbEntity
  8
0
  6
Continuous
 62
     0
370
     0
100
AcDbLine
 10
0.0
 20
0.0
 30
0.0
 11
0.0
 21
-2.5
 31
0.0
  0
LINE
  5
22E
330
228
100
AcDbEntity
  8
0
  6
Continuous
 62
     0
370
     0
100
AcDbLine
 10
0.0
 20
0.0
 30
0.0
 11
2.5
 21
0.0
 31
0.0
  0
LINE
  5
22F
330
228
100
AcDbEntity
  8
0
  6
Continuous
 62
     0
370
     0
100
AcDbLine
 10
0.0
 20
2.5
 30
0.0
 11
0.0
 21
4.75
 31
0.0
  0
LINE
  5
230
330
228
100
AcDbEntity
  8
0
  6
Continuous
 62
     0
370
     0
100
AcDbLine
 10
-2.5
 20
0.0
 30
0.0
 11
-4.75
 21
0.0
 31
0.0
  0
LINE
  5
231
330
228
100
AcDbEntity
  8
0
  6
Continuous
 62
     0
370
     0
100
AcDbLine
 10
0.0
 20
-2.5
 30
0.0
 11
0.0
 21
-4.75
 31
0.0
  0
LINE
  5
232
330
228
100
AcDbEntity
  8
0
  6
Continuous
 62
     0
370
     0
100
AcDbLine
 10
2.5
 20
0.0
 30
0.0
 11
4.75
 21
0.0
 31
0.0
  0
ENDBLK
  5
22A
330
228
100
AcDbEntity
  8
0
100
AcDbBlockEnd
  0
BLOCK
  5
235
330
234
100
AcDbEntity
  8
0
100
AcDbBlockBegin
  2
SW_CENTERMARKSYMBOL_1
 70
     0
 10
0.0
 20
0.0
 30
0.0
  3
SW_CENTERMARKSYMBOL_1
  1

  0
LINE
  5
237
330
234
100
AcDbEntity
  8
0
  6
Continuous
 62
     0
370
     0
100
AcDbLine
 10
0.0
 20
0.0
 30
0.0
 11
0.0
 21
2.5
 31
0.0
  0
LINE
  5
238
330
234
100
AcDbEntity
  8
0
  6
Continuous
 62
     0
370
     0
100
AcDbLine
 10
0.0
 20
0.0
 30
0.0
 11
-2.5
 21
0.0
 31
0.0
  0
LINE
  5
239
330
234
100
AcDbEntity
  8
0
  6
Continuous
 62
     0
370
     0
100
AcDbLine
 10
0.0
 20
0.0
 30
0.0
 11
0.0
 21
-2.5
 31
0.0
  0
LINE
  5
23A
330
234
100
AcDbEntity
  8
0
  6
Continuous
 62
     0
370
     0
100
AcDbLine
 10
0.0
 20
0.0
 30
0.0
 11
2.5
 21
0.0
 31
0.0
  0
LINE
  5
23B
330
234
100
AcDbEntity
  8
0
  6
Continuous
 62
     0
370
     0
100
AcDbLine
 10
0.0
 20
2.5
 30
0.0
 11
0.0
 21
4.75
 31
0.0
  0
LINE
  5
23C
330
234
100
AcDbEntity
  8
0
  6
Continuous
 62
     0
370
     0
100
AcDbLine
 10
-2.5
 20
0.0
 30
0.0
 11
-4.75
 21
0.0
 31
0.0
  0
LINE
  5
23D
330
234
100
AcDbEntity
  8
0
  6
Continuous
 62
     0
370
     0
100
AcDbLine
 10
0.0
 20
-2.5
 30
0.0
 11
0.0
 21
-4.75
 31
0.0
  0
LINE
  5
23E
330
234
100
AcDbEntity
  8
0
  6
Continuous
 62
     0
370
     0
100
AcDbLine
 10
2.5
 20
0.0
 30
0.0
 11
4.75
 21
0.0
 31
0.0
  0
ENDBLK
  5
236
330
234
100
AcDbEntity
  8
0
100
AcDbBlockEnd
  0
BLOCK
  5
375
330
374
100
AcDbEntity
  8
0
100
AcDbBlockBegin
  2
_D_7
 70
     0
 10
0.0
 20
0.0
 30
0.0
  3
_D_7
  1

  0
SOLID
  5
377
330
374
100
AcDbEntity
  8
0
  6
Continuous
 62
     7
370
     0
100
AcDbTrace
 10
185.9524575438
 20
96.3659762856
 30
0.0
 11
185.2024575438
 21
94.3659762856
 31
0.0
 12
186.7024575438
 22
94.3659762856
 32
0.0
 13
186.7024575438
 23
94.3659762856
 33
0.0
  0
SOLID
  5
378
330
374
100
AcDbEntity
  8
0
  6
Continuous
 62
     7
370
     0
100
AcDbTrace
 10
185.9524575438
 20
68.3659762856
 30
0.0
 11
186.7024575438
 21
70.3659762856
 31
0.0
 12
185.2024575438
 22
70.3659762856
 32
0.0
 13
185.2024575438
 23
70.3659762856
 33
0.0
  0
LINE
  5
379
330
374
100
AcDbEntity
  8
0
  6
Continuous
 62
     7
370
     0
100
AcDbLine
 10
163.6368172552
 20
96.3659762856
 30
0.0
 11
186.9524575438
 21
96.3659762856
 31
0.0
  0
LINE
  5
37A
330
374
100
AcDbEntity
  8
0
  6
Continuous
 62
     7
370
     0
100
AcDbLine
 10
176.9524575438
 20
68.3659762856
 30
0.0
 11
186.9524575438
 21
68.3659762856
 31
0.0
  0
LINE
  5
37B
330
374
100
AcDbEntity
  8
0
  6
Continuous
 62
     7
370
     0
100
AcDbLine
 10
185.9524575438
 20
96.3659762856
 30
0.0
 11
185.9524575438
 21
68.3659762856
 31
0.0
  0
MTEXT
  5
37C
330
374
100
AcDbEntity
  8
0
  6
Continuous
 62
     7
370
     0
100
AcDbMText
 10
181.4407206292
 20
78.3388245355
 30
-25.3013600821
 40
3.5
 41
0.0
 71
     1
 72
     1
  1
28
  7
SLDTEXTSTYLE1
 11
-7.044195017643634E-15
 21
1.0
 31
0.0
 73
     1
 44
1.0
  0
ENDBLK
  5
376
330
374
100
AcDbEntity
  8
0
100
AcDbBlockEnd
  0
BLOCK
  5
37F
330
37E
100
AcDbEntity
  8
0
100
AcDbBlockBegin
  2
_D_8
 70
     0
 10
0.0
 20
0.0
 30
0.0
  3
_D_8
  1

  0
SOLID
  5
381
330
37E
100
AcDbEntity
  8
0
  6
Continuous
 62
     7
370
     0
100
AcDbTrace
 10
158.4524575438
 20
102.5687417422
 30
0.0
 11
156.4524575438
 21
103.3187417422
 31
0.0
 12
156.4524575438
 22
101.8187417422
 32
0.0
 13
156.4524575438
 23
101.8187417422
 33
0.0
  0
SOLID
  5
382
330
37E
100
AcDbEntity
  8
0
  6
Continuous
 62
     7
370
     0
100
AcDbTrace
 10
145.4524575438
 20
102.5687417422
 30
0.0
 11
147.4524575438
 21
101.8187417422
 31
0.0
 12
147.4524575438
 22
103.3187417422
 32
0.0
 13
147.4524575438
 23
103.3187417422
 33
0.0
  0
LINE
  5
383
330
37E
100
AcDbEntity
  8
0
  6
Continuous
 62
     7
370
     0
100
AcDbLine
 10
158.4524575438
 20
99.8659762856
 30
0.0
 11
158.4524575438
 21
103.5687417422
 31
0.0
  0
LINE
  5
384
330
37E
100
AcDbEntity
  8
0
  6
Continuous
 62
     7
370
     0
100
AcDbLine
 10
145.4524575438
 20
99.8659762856
 30
0.0
 11
145.4524575438
 21
103.5687417422
 31
0.0
  0
LINE
  5
385
330
37E
100
AcDbEntity
  8
0
  6
Continuous
 62
     7
370
     0
100
AcDbLine
 10
158.4524575438
 20
102.5687417422
 30
0.0
 11
145.4524575438
 21
102.5687417422
 31
0.0
  0
MTEXT
  5
386
330
37E
100
AcDbEntity
  8
0
  6
Continuous
 62
     7
370
     0
100
AcDbMText
 10
149.5146596229
 20
107.0804786568
 30
-25.3013600821
 40
3.5
 41
0.0
 71
     1
 72
     1
  1
13
  7
SLDTEXTSTYLE1
 73
     1
 44
1.0
  0
ENDBLK
  5
380
330
37E
100
AcDbEntity
  8
0
100
AcDbBlockEnd
  0
BLOCK
  5
38A
330
389
100
AcDbEntity
  8
0
100
AcDbBlockBegin
  2
_D_9
 70
     0
 10
0.0
 20
0.0
 30
0.0
  3
_D_9
  1

  0
SOLID
  5
38C
330
389
100
AcDbEntity
  8
0
  6
Continuous
 62
     7
370
     0
100
AcDbTrace
 10
137.7524575438
 20
110.1718157332
 30
0.0
 11
139.7524575438
 21
109.4218157332
 31
0.0
 12
139.7524575438
 22
110.9218157332
 32
0.0
 13
139.7524575438
 23
110.9218157332
 33
0.0
  0
SOLID
  5
38D
330
389
100
AcDbEntity
  8
0
  6
Continuous
 62
     7
370
     0
100
AcDbTrace
 10
166.1524575438
 20
110.1718157332
 30
0.0
 11
164.1524575438
 21
110.9218157332
 31
0.0
 12
164.1524575438
 22
109.4218157332
 32
0.0
 13
164.1524575438
 23
109.4218157332
 33
0.0
  0
LINE
  5
38E
330
389
100
AcDbEntity
  8
0
  6
Continuous
 62
     7
370
     0
100
AcDbLine
 10
137.7524575438
 20
93.8503359969
 30
0.0
 11
137.7524575438
 21
111.1718157332
 31
0.0
  0
LINE
  5
38F
330
389
100
AcDbEntity
  8
0
  6
Continuous
 62
     7
370
     0
100
AcDbLine
 10
166.1524575438
 20
93.8503359969
 30
0.0
 11
166.1524575438
 21
111.1718157332
 31
0.0
  0
LINE
  5
390
330
389
100
AcDbEntity
  8
0
  6
Continuous
 62
     7
370
     0
100
AcDbLine
 10
137.7524575438
 20
110.1718157332
 30
0.0
 11
166.1524575438
 21
110.1718157332
 31
0.0
  0
MTEXT
  5
391
330
389
100
AcDbEntity
  8
0
  6
Continuous
 62
     7
370
     0
100
AcDbMText
 10
147.575076286
 20
114.6835526478
 30
-25.3013600821
 40
3.5
 41
0.0
 71
     1
 72
     1
  1
28.4
  7
SLDTEXTSTYLE1
 73
     1
 44
1.0
  0
ENDBLK
  5
38B
330
389
100
AcDbEntity
  8
0
100
AcDbBlockEnd
  0
BLOCK
  5
393
330
392
100
AcDbEntity
  8
0
100
AcDbBlockBegin
  2
SW_CENTERMARKSYMBOL_2
 70
     0
 10
0.0
 20
0.0
 30
0.0
  3
SW_CENTERMARKSYMBOL_2
  1

  0
LINE
  5
395
330
392
100
AcDbEntity
  8
0
  6
Continuous
 62
     0
370
     0
100
AcDbLine
 10
0.0
 20
0.0
 30
0.0
 11
0.0
 21
2.5
 31
0.0
  0
LINE
  5
396
330
392
100
AcDbEntity
  8
0
  6
Continuous
 62
     0
370
     0
100
AcDbLine
 10
0.0
 20
0.0
 30
0.0
 11
-2.5
 21
0.0
 31
0.0
  0
LINE
  5
397
330
392
100
AcDbEntity
  8
0
  6
Continuous
 62
     0
370
     0
100
AcDbLine
 10
0.0
 20
0.0
 30
0.0
 11
0.0
 21
-2.5
 31
0.0
  0
LINE
  5
398
330
392
100
AcDbEntity
  8
0
  6
Continuous
 62
     0
370
     0
100
AcDbLine
 10
0.0
 20
0.0
 30
0.0
 11
2.5
 21
0.0
 31
0.0
  0
LINE
  5
399
330
392
100
AcDbEntity
  8
0
  6
Continuous
 62
     0
370
     0
100
AcDbLine
 10
0.0
 20
2.5
 30
0.0
 11
0.0
 21
4.75
 31
0.0
  0
LINE
  5
39A
330
392
100
AcDbEntity
  8
0
  6
Continuous
 62
     0
370
     0
100
AcDbLine
 10
-2.5
 20
0.0
 30
0.0
 11
-4.75
 21
0.0
 31
0.0
  0
LINE
  5
39B
330
392
100
AcDbEntity
  8
0
  6
Continuous
 62
     0
370
     0
100
AcDbLine
 10
0.0
 20
-2.5
 30
0.0
 11
0.0
 21
-4.75
 31
0.0
  0
LINE
  5
39C
330
392
100
AcDbEntity
  8
0
  6
Continuous
 62
     0
370
     0
100
AcDbLine
 10
2.5
 20
0.0
 30
0.0
 11
4.75
 21
0.0
 31
0.0
  0
ENDBLK
  5
394
330
392
100
AcDbEntity
  8
0
100
AcDbBlockEnd
  0
BLOCK
  5
39F
330
39E
100
AcDbEntity
  8
0
100
AcDbBlockBegin
  2
SW_CENTERMARKSYMBOL_3
 70
     0
 10
0.0
 20
0.0
 30
0.0
  3
SW_CENTERMARKSYMBOL_3
  1

  0
LINE
  5
3A1
330
39E
100
AcDbEntity
  8
0
  6
Continuous
 62
     0
370
     0
100
AcDbLine
 10
0.0
 20
0.0
 30
0.0
 11
0.0
 21
2.5
 31
0.0
  0
LINE
  5
3A2
330
39E
100
AcDbEntity
  8
0
  6
Continuous
 62
     0
370
     0
100
AcDbLine
 10
0.0
 20
0.0
 30
0.0
 11
-2.5
 21
0.0
 31
0.0
  0
LINE
  5
3A3
330
39E
100
AcDbEntity
  8
0
  6
Continuous
 62
     0
370
     0
100
AcDbLine
 10
0.0
 20
0.0
 30
0.0
 11
0.0
 21
-2.5
 31
0.0
  0
LINE
  5
3A4
330
39E
100
AcDbEntity
  8
0
  6
Continuous
 62
     0
370
     0
100
AcDbLine
 10
0.0
 20
0.0
 30
0.0
 11
2.5
 21
0.0
 31
0.0
  0
LINE
  5
3A5
330
39E
100
AcDbEntity
  8
0
  6
Continuous
 62
     0
370
     0
100
AcDbLine
 10
0.0
 20
5.0
 30
0.0
 11
0.0
 21
10.0
 31
0.0
  0
LINE
  5
3A6
330
39E
100
AcDbEntity
  8
0
  6
Continuous
 62
     0
370
     0
100
AcDbLine
 10
-5.0
 20
0.0
 30
0.0
 11
-10.0
 21
0.0
 31
0.0
  0
LINE
  5
3A7
330
39E
100
AcDbEntity
  8
0
  6
Continuous
 62
     0
370
     0
100
AcDbLine
 10
0.0
 20
-5.0
 30
0.0
 11
0.0
 21
-10.0
 31
0.0
  0
LINE
  5
3A8
330
39E
100
AcDbEntity
  8
0
  6
Continuous
 62
     0
370
     0
100
AcDbLine
 10
5.0
 20
0.0
 30
0.0
 11
10.0
 21
0.0
 31
0.0
  0
ENDBLK
  5
3A0
330
39E
100
AcDbEntity
  8
0
100
AcDbBlockEnd
  0
BLOCK
  5
3AB
330
3AA
100
AcDbEntity
  8
0
100
AcDbBlockBegin
  2
SW_CENTERMARKSYMBOL_4
 70
     0
 10
0.0
 20
0.0
 30
0.0
  3
SW_CENTERMARKSYMBOL_4
  1

  0
LINE
  5
3AD
330
3AA
100
AcDbEntity
  8
0
  6
Continuous
 62
     0
370
     0
100
AcDbLine
 10
0.0
 20
0.0
 30
0.0
 11
0.0
 21
2.5
 31
0.0
  0
LINE
  5
3AE
330
3AA
100
AcDbEntity
  8
0
  6
Continuous
 62
     0
370
     0
100
AcDbLine
 10
0.0
 20
0.0
 30
0.0
 11
-2.5
 21
0.0
 31
0.0
  0
LINE
  5
3AF
330
3AA
100
AcDbEntity
  8
0
  6
Continuous
 62
     0
370
     0
100
AcDbLine
 10
0.0
 20
0.0
 30
0.0
 11
0.0
 21
-2.5
 31
0.0
  0
LINE
  5
3B0
330
3AA
100
AcDbEntity
  8
0
  6
Continuous
 62
     0
370
     0
100
AcDbLine
 10
0.0
 20
0.0
 30
0.0
 11
2.5
 21
0.0
 31
0.0
  0
LINE
  5
3B1
330
3AA
100
AcDbEntity
  8
0
  6
Continuous
 62
     0
370
     0
100
AcDbLine
 10
0.0
 20
2.5
 30
0.0
 11
0.0
 21
4.75
 31
0.0
  0
LINE
  5
3B2
330
3AA
100
AcDbEntity
  8
0
  6
Continuous
 62
     0
370
     0
100
AcDbLine
 10
-2.5
 20
0.0
 30
0.0
 11
-4.75
 21
0.0
 31
0.0
  0
LINE
  5
3B3
330
3AA
100
AcDbEntity
  8
0
  6
Continuous
 62
     0
370
     0
100
AcDbLine
 10
0.0
 20
-2.5
 30
0.0
 11
0.0
 21
-4.75
 31
0.0
  0
LINE
  5
3B4
330
3AA
100
AcDbEntity
  8
0
  6
Continuous
 62
     0
370
     0
100
AcDbLine
 10
2.5
 20
0.0
 30
0.0
 11
4.75
 21
0.0
 31
0.0
  0
ENDBLK
  5
3AC
330
3AA
100
AcDbEntity
  8
0
100
AcDbBlockEnd
  0
BLOCK
  5
3B7
330
3B6
100
AcDbEntity
  8
0
100
AcDbBlockBegin
  2
SW_CENTERMARKSYMBOL_5
 70
     0
 10
0.0
 20
0.0
 30
0.0
  3
SW_CENTERMARKSYMBOL_5
  1

  0
LINE
  5
3B9
330
3B6
100
AcDbEntity
  8
0
  6
Continuous
 62
     0
370
     0
100
AcDbLine
 10
0.0
 20
0.0
 30
0.0
 11
0.0
 21
2.5
 31
0.0
  0
LINE
  5
3BA
330
3B6
100
AcDbEntity
  8
0
  6
Continuous
 62
     0
370
     0
100
AcDbLine
 10
0.0
 20
0.0
 30
0.0
 11
-2.5
 21
0.0
 31
0.0
  0
LINE
  5
3BB
330
3B6
100
AcDbEntity
  8
0
  6
Continuous
 62
     0
370
     0
100
AcDbLine
 10
0.0
 20
0.0
 30
0.0
 11
0.0
 21
-2.5
 31
0.0
  0
LINE
  5
3BC
330
3B6
100
AcDbEntity
  8
0
  6
Continuous
 62
     0
370
     0
100
AcDbLine
 10
0.0
 20
0.0
 30
0.0
 11
2.5
 21
0.0
 31
0.0
  0
LINE
  5
3BD
330
3B6
100
AcDbEntity
  8
0
  6
Continuous
 62
     0
370
     0
100
AcDbLine
 10
0.0
 20
2.5
 30
0.0
 11
0.0
 21
4.75
 31
0.0
  0
LINE
  5
3BE
330
3B6
100
AcDbEntity
  8
0
  6
Continuous
 62
     0
370
     0
100
AcDbLine
 10
-2.5
 20
0.0
 30
0.0
 11
-4.75
 21
0.0
 31
0.0
  0
LINE
  5
3BF
330
3B6
100
AcDbEntity
  8
0
  6
Continuous
 62
     0
370
     0
100
AcDbLine
 10
0.0
 20
-2.5
 30
0.0
 11
0.0
 21
-4.75
 31
0.0
  0
LINE
  5
3C0
330
3B6
100
AcDbEntity
  8
0
  6
Continuous
 62
     0
370
     0
100
AcDbLine
 10
2.5
 20
0.0
 30
0.0
 11
4.75
 21
0.0
 31
0.0
  0
ENDBLK
  5
3B8
330
3B6
100
AcDbEntity
  8
0
100
AcDbBlockEnd
  0
BLOCK
  5
3C3
330
3C2
100
AcDbEntity
  8
0
100
AcDbBlockBegin
  2
SW_CENTERMARKSYMBOL_6
 70
     0
 10
0.0
 20
0.0
 30
0.0
  3
SW_CENTERMARKSYMBOL_6
  1

  0
LINE
  5
3C5
330
3C2
100
AcDbEntity
  8
0
  6
Continuous
 62
     0
370
     0
100
AcDbLine
 10
0.0
 20
0.0
 30
0.0
 11
0.0
 21
2.5
 31
0.0
  0
LINE
  5
3C6
330
3C2
100
AcDbEntity
  8
0
  6
Continuous
 62
     0
370
     0
100
AcDbLine
 10
0.0
 20
0.0
 30
0.0
 11
-2.5
 21
0.0
 31
0.0
  0
LINE
  5
3C7
330
3C2
100
AcDbEntity
  8
0
  6
Continuous
 62
     0
370
     0
100
AcDbLine
 10
0.0
 20
0.0
 30
0.0
 11
0.0
 21
-2.5
 31
0.0
  0
LINE
  5
3C8
330
3C2
100
AcDbEntity
  8
0
  6
Continuous
 62
     0
370
     0
100
AcDbLine
 10
0.0
 20
0.0
 30
0.0
 11
2.5
 21
0.0
 31
0.0
  0
LINE
  5
3C9
330
3C2
100
AcDbEntity
  8
0
  6
Continuous
 62
     0
370
     0
100
AcDbLine
 10
0.0
 20
2.5
 30
0.0
 11
0.0
 21
4.75
 31
0.0
  0
LINE
  5
3CA
330
3C2
100
AcDbEntity
  8
0
  6
Continuous
 62
     0
370
     0
100
AcDbLine
 10
-2.5
 20
0.0
 30
0.0
 11
-4.75
 21
0.0
 31
0.0
  0
LINE
  5
3CB
330
3C2
100
AcDbEntity
  8
0
  6
Continuous
 62
     0
370
     0
100
AcDbLine
 10
0.0
 20
-2.5
 30
0.0
 11
0.0
 21
-4.75
 31
0.0
  0
LINE
  5
3CC
330
3C2
100
AcDbEntity
  8
0
  6
Continuous
 62
     0
370
     0
100
AcDbLine
 10
2.5
 20
0.0
 30
0.0
 11
4.75
 21
0.0
 31
0.0
  0
ENDBLK
  5
3C4
330
3C2
100
AcDbEntity
  8
0
100
AcDbBlockEnd
  0
BLOCK
  5
48B
330
48A
100
AcDbEntity
  8
0
100
AcDbBlockBegin
  2
_D_10
 70
     0
 10
0.0
 20
0.0
 30
0.0
  3
_D_10
  1

  0
SOLID
  5
48D
330
48A
100
AcDbEntity
  8
0
  6
Continuous
 62
     7
370
     0
100
AcDbTrace
 10
109.1065494371
 20
97.0003721398
 30
0.0
 11
107.1065494371
 21
97.7503721398
 31
0.0
 12
107.1065494371
 22
96.2503721398
 32
0.0
 13
107.1065494371
 23
96.2503721398
 33
0.0
  0
SOLID
  5
48E
330
48A
100
AcDbEntity
  8
0
  6
Continuous
 62
     7
370
     0
100
AcDbTrace
 10
89.1065494371
 20
97.0003721398
 30
0.0
 11
91.1065494371
 21
96.2503721398
 31
0.0
 12
91.1065494371
 22
97.7503721398
 32
0.0
 13
91.1065494371
 23
97.7503721398
 33
0.0
  0
LINE
  5
48F
330
48A
100
AcDbEntity
  8
0
  6
Continuous
 62
     7
370
     0
100
AcDbLine
 10
109.1065494371
 20
88.8659762856
 30
0.0
 11
109.1065494371
 21
98.0003721398
 31
0.0
  0
LINE
  5
490
330
48A
100
AcDbEntity
  8
0
  6
Continuous
 62
     7
370
     0
100
AcDbLine
 10
89.1065494371
 20
89.8659762856
 30
0.0
 11
89.1065494371
 21
98.0003721398
 31
0.0
  0
LINE
  5
491
330
48A
100
AcDbEntity
  8
0
  6
Continuous
 62
     7
370
     0
100
AcDbLine
 10
109.1065494371
 20
97.0003721398
 30
0.0
 11
89.1065494371
 21
97.0003721398
 31
0.0
  0
MTEXT
  5
492
330
48A
100
AcDbEntity
  8
0
  6
Continuous
 62
     7
370
     0
100
AcDbMText
 10
95.1991482524
 20
101.5121090543
 30
0.1
 40
3.5
 41
0.0
 71
     1
 72
     1
  1
20
  7
SLDTEXTSTYLE1
 73
     1
 44
1.0
  0
MTEXT
  5
493
330
48A
100
AcDbEntity
  8
0
  6
Continuous
 62
     7
370
     0
100
AcDbMText
 10
100.3713706394
 20
101.5121090543
 30
0.1
 40
3.5
 41
0.0
 71
     1
 72
     1
  1
st
  7
SLDTEXTSTYLE1
 73
     1
 44
1.0
  0
ENDBLK
  5
48C
330
48A
100
AcDbEntity
  8
0
100
AcDbBlockEnd
  0
BLOCK
  5
496
330
495
100
AcDbEntity
  8
0
100
AcDbBlockBegin
  2
_D_11
 70
     0
 10
0.0
 20
0.0
 30
0.0
  3
_D_11
  1

  0
SOLID
  5
498
330
495
100
AcDbEntity
  8
0
  6
Continuous
 62
     7
370
     0
100
AcDbTrace
 10
31.1065494371
 20
58.3659762856
 30
0.0
 11
33.1065494371
 21
57.6159762856
 31
0.0
 12
33.1065494371
 22
59.1159762856
 32
0.0
 13
33.1065494371
 23
59.1159762856
 33
0.0
  0
SOLID
  5
499
330
495
100
AcDbEntity
  8
0
  6
Continuous
 62
     7
370
     0
100
AcDbTrace
 10
76.1065494371
 20
58.3659762856
 30
0.0
 11
74.1065494371
 21
59.1159762856
 31
0.0
 12
74.1065494371
 22
57.6159762856
 32
0.0
 13
74.1065494371
 23
57.6159762856
 33
0.0
  0
LINE
  5
49A
330
495
100
AcDbEntity
  8
0
  6
Continuous
 62
     7
370
     0
100
AcDbLine
 10
31.1065494371
 20
73.4802922657
 30
0.0
 11
31.1065494371
 21
57.3659762856
 31
0.0
  0
LINE
  5
49B
330
495
100
AcDbEntity
  8
0
  6
Continuous
 62
     7
370
     0
100
AcDbLine
 10
76.1065494371
 20
77.3659762856
 30
0.0
 11
76.1065494371
 21
57.3659762856
 31
0.0
  0
LINE
  5
49C
330
495
100
AcDbEntity
  8
0
  6
Continuous
 62
     7
370
     0
100
AcDbLine
 10
31.1065494371
 20
58.3659762856
 30
0.0
 11
76.1065494371
 21
58.3659762856
 31
0.0
  0
MTEXT
  5
49D
330
495
100
AcDbEntity
  8
0
  6
Continuous
 62
     7
370
     0
100
AcDbMText
 10
51.7392440529
 20
62.8777132001
 30
-9.2024880709
 40
3.5
 41
0.0
 71
     1
 72
     1
  1
45
  7
SLDTEXTSTYLE1
 73
     1
 44
1.0
  0
ENDBLK
  5
497
330
495
100
AcDbEntity
  8
0
100
AcDbBlockEnd
  0
BLOCK
  5
4A0
330
49F
100
AcDbEntity
  8
0
100
AcDbBlockBegin
  2
_D_12
 70
     0
 10
0.0
 20
0.0
 30
0.0
  3
_D_12
  1

  0
SOLID
  5
4A2
330
49F
100
AcDbEntity
  8
0
  6
Continuous
 62
     7
370
     0
100
AcDbTrace
 10
109.1065494371
 20
122.1718157332
 30
0.0
 11
107.1065494371
 21
122.9218157332
 31
0.0
 12
107.1065494371
 22
121.4218157332
 32
0.0
 13
107.1065494371
 23
121.4218157332
 33
0.0
  0
SOLID
  5
4A3
330
49F
100
AcDbEntity
  8
0
  6
Continuous
 62
     7
370
     0
100
AcDbTrace
 10
31.1065494371
 20
122.1718157332
 30
0.0
 11
33.1065494371
 21
121.4218157332
 31
0.0
 12
33.1065494371
 22
122.9218157332
 32
0.0
 13
33.1065494371
 23
122.9218157332
 33
0.0
  0
LINE
  5
4A4
330
49F
100
AcDbEntity
  8
0
  6
Continuous
 62
     7
370
     0
100
AcDbLine
 10
109.1065494371
 20
88.8659762856
 30
0.0
 11
109.1065494371
 21
123.1718157332
 31
0.0
  0
LINE
  5
4A5
330
49F
100
AcDbEntity
  8
0
  6
Continuous
 62
     7
370
     0
100
AcDbLine
 10
31.1065494371
 20
94.1309626739
 30
0.0
 11
31.1065494371
 21
123.1718157332
 31
0.0
  0
LINE
  5
4A6
330
49F
100
AcDbEntity
  8
0
  6
Continuous
 62
     7
370
     0
100
AcDbLine
 10
109.1065494371
 20
122.1718157332
 30
0.0
 11
31.1065494371
 21
122.1718157332
 31
0.0
  0
MTEXT
  5
4A7
330
49F
100
AcDbEntity
  8
0
  6
Continuous
 62
     7
370
     0
100
AcDbMText
 10
67.5204382436
 20
126.6835526478
 30
-9.2024880709
 40
3.5
 41
0.0
 71
     1
 72
     1
  1
78
  7
SLDTEXTSTYLE1
 73
     1
 44
1.0
  0
ENDBLK
  5
4A1
330
49F
100
AcDbEntity
  8
0
100
AcDbBlockEnd
  0
BLOCK
  5
4AA
330
4A9
100
AcDbEntity
  8
0
100
AcDbBlockBegin
  2
_D_13
 70
     0
 10
0.0
 20
0.0
 30
0.0
  3
_D_13
  1

  0
SOLID
  5
4AC
330
4A9
100
AcDbEntity
  8
0
  6
Continuous
 62
     7
370
     0
100
AcDbTrace
 10
83.1065494371
 20
110.1718157332
 30
0.0
 11
81.1065494371
 21
110.9218157332
 31
0.0
 12
81.1065494371
 22
109.4218157332
 32
0.0
 13
81.1065494371
 23
109.4218157332
 33
0.0
  0
SOLID
  5
4AD
330
4A9
100
AcDbEntity
  8
0
  6
Continuous
 62
     7
370
     0
100
AcDbTrace
 10
31.1065494371
 20
110.1718157332
 30
0.0
 11
33.1065494371
 21
109.4218157332
 31
0.0
 12
33.1065494371
 22
110.9218157332
 32
0.0
 13
33.1065494371
 23
110.9218157332
 33
0.0
  0
LINE
  5
4AE
330
4A9
100
AcDbEntity
  8
0
  6
Continuous
 62
     7
370
     0
100
AcDbLine
 10
83.1065494371
 20
97.3659762856
 30
0.0
 11
83.1065494371
 21
111.1718157332
 31
0.0
  0
LINE
  5
4AF
330
4A9
100
AcDbEntity
  8
0
  6
Continuous
 62
     7
370
     0
100
AcDbLine
 10
31.1065494371
 20
94.1309626739
 30
0.0
 11
31.1065494371
 21
111.1718157332
 31
0.0
  0
LINE
  5
4B0
330
4A9
100
AcDbEntity
  8
0
  6
Continuous
 62
     7
370
     0
100
AcDbLine
 10
83.1065494371
 20
110.1718157332
 30
0.0
 11
31.1065494371
 21
110.1718157332
 31
0.0
  0
MTEXT
  5
4B1
330
4A9
100
AcDbEntity
  8
0
  6
Continuous
 62
     7
370
     0
100
AcDbMText
 10
54.5204382436
 20
114.6835526478
 30
-9.2024880709
 40
3.5
 41
0.0
 71
     1
 72
     1
  1
52
  7
SLDTEXTSTYLE1
 73
     1
 44
1.0
  0
ENDBLK
  5
4AB
330
4A9
100
AcDbEntity
  8
0
100
AcDbBlockEnd
  0
BLOCK
  5
4B3
330
4B2
100
AcDbEntity
  8
0
100
AcDbBlockBegin
  2
SW_CENTERMARKSYMBOL_7
 70
     0
 10
0.0
 20
0.0
 30
0.0
  3
SW_CENTERMARKSYMBOL_7
  1

  0
LINE
  5
4B5
330
4B2
100
AcDbEntity
  8
0
  6
Continuous
 62
     0
370
     0
100
AcDbLine
 10
0.0
 20
0.0
 30
0.0
 11
0.0
 21
2.5
 31
0.0
  0
LINE
  5
4B6
330
4B2
100
AcDbEntity
  8
0
  6
Continuous
 62
     0
370
     0
100
AcDbLine
 10
0.0
 20
0.0
 30
0.0
 11
-2.5
 21
0.0
 31
0.0
  0
LINE
  5
4B7
330
4B2
100
AcDbEntity
  8
0
  6
Continuous
 62
     0
370
     0
100
AcDbLine
 10
0.0
 20
0.0
 30
0.0
 11
0.0
 21
-2.5
 31
0.0
  0
LINE
  5
4B8
330
4B2
100
AcDbEntity
  8
0
  6
Continuous
 62
     0
370
     0
100
AcDbLine
 10
0.0
 20
0.0
 30
0.0
 11
2.5
 21
0.0
 31
0.0
  0
LINE
  5
4B9
330
4B2
100
AcDbEntity
  8
0
  6
Continuous
 62
     0
370
     0
100
AcDbLine
 10
0.0
 20
5.0
 30
0.0
 11
0.0
 21
6.5
 31
0.0
  0
LINE
  5
4BA
330
4B2
100
AcDbEntity
  8
0
  6
Continuous
 62
     0
370
     0
100
AcDbLine
 10
-5.0
 20
0.0
 30
0.0
 11
-44.7528314745
 21
0.0
 31
0.0
  0
LINE
  5
4BB
330
4B2
100
AcDbEntity
  8
0
  6
Continuous
 62
     0
370
     0
100
AcDbLine
 10
0.0
 20
-5.0
 30
0.0
 11
0.0
 21
-6.5
 31
0.0
  0
LINE
  5
4BC
330
4B2
100
AcDbEntity
  8
0
  6
Continuous
 62
     0
370
     0
100
AcDbLine
 10
5.0
 20
0.0
 30
0.0
 11
36.2397816257
 21
0.0
 31
0.0
  0
ENDBLK
  5
4B4
330
4B2
100
AcDbEntity
  8
0
100
AcDbBlockEnd
  0
ENDSEC
  0
SECTION
  2
ENTITIES
  0
LINE
  5
44
330
1F
100
AcDbEntity
  8
0
  6
Continuous
 62
     7
370
     0
100
AcDbLine
 10
20.2604743903
 20
285.0
 30
0.0
 11
196.7604743903
 21
285.0
 31
0.0
  0
LINE
  5
45
330
1F
100
AcDbEntity
  8
0
  6
Continuous
 62
     7
370
     0
100
AcDbLine
 10
20.2604743903
 20
285.0
 30
0.0
 11
20.2604743903
 21
10.0
 31
0.0
  0
LINE
  5
46
330
1F
100
AcDbEntity
  8
0
  6
Continuous
 62
     7
370
     0
100
AcDbLine
 10
20.2604743903
 20
10.0
 30
0.0
 11
196.7604743903
 21
10.0
 31
0.0
  0
LINE
  5
47
330
1F
100
AcDbEntity
  8
0
  6
Continuous
 62
     7
370
     0
100
AcDbLine
 10
196.7604743903
 20
285.0
 30
0.0
 11
196.7604743903
 21
10.0
 31
0.0
  0
LINE
  5
48
330
1F
100
AcDbEntity
  8
0
  6
Continuous
 62
     7
370
     0
100
AcDbLine
 10
127.0104743903
 20
50.75
 30
0.0
 11
196.7604743903
 21
50.75
 31
0.0
  0
LINE
  5
49
330
1F
100
AcDbEntity
  8
0
  6
Continuous
 62
     7
370
     0
100
AcDbLine
 10
127.0104743903
 20
50.75
 30
0.0
 11
127.0104743903
 21
10.0
 31
0.0
  0
LINE
  5
4A
330
1F
100
AcDbEntity
  8
0
  6
Continuous
 62
     7
370
     0
100
AcDbLine
 10
127.0104743903
 20
22.75
 30
0.0
 11
196.7604743903
 21
22.75
 31
0.0
  0
LINE
  5
4B
330
1F
100
AcDbEntity
  8
0
  6
Continuous
 62
     7
370
     0
100
AcDbLine
 10
127.0104743903
 20
36.75
 30
0.0
 11
196.7604743903
 21
36.75
 31
0.0
  0
MTEXT
  5
4D
330
1F
100
AcDbEntity
  8
0
  6
Continuous
 62
     7
370
     0
100
AcDbMText
 10
162.3475118209
 20
30.4171582345
 30
0.0
 40
4.2333333333
 41
0.0
 71
     2
 72
     1
  1
MCE-20T
  7
SLDTEXTSTYLE0
 73
     1
 44
1.0
  0
MTEXT
  5
4E
330
1F
100
AcDbEntity
  8
0
  6
Continuous
 62
     7
370
     0
100
AcDbMText
 10
160.0255246172
 20
43.9643957194
 30
0.0
 40
3.7041666667
 41
0.0
 71
     2
 72
     1
  1
ミニシリンダー・MCE20st(引込)
  7
SLDTEXTSTYLE0
 73
     1
 44
1.0
  0
MTEXT
  5
4F
330
1F
100
AcDbEntity
  8
0
  6
Continuous
 62
     7
370
     0
100
AcDbMText
 10
162.5922541865
 20
16.8228189052
 30
0.0
 40
4.2333333333
 41
0.0
 71
     2
 72
     1
  1
123507
  7
SLDTEXTSTYLE0
 73
     1
 44
1.0
  0
LINE
  5
50
330
1F
100
AcDbEntity
  8
0
  6
Continuous
 62
     7
370
    15
100
AcDbLine
 10
155.9524575438
 20
167.5896871423
 30
0.0
 11
155.9524575438
 21
186.5896871423
 31
0.0
  0
LINE
  5
51
330
1F
100
AcDbEntity
  8
0
  6
Continuous
 62
     7
370
    15
100
AcDbLine
 10
147.9524575438
 20
186.5896871423
 30
0.0
 11
147.9524575438
 21
167.5896871423
 31
0.0
  0
LINE
  5
52
330
1F
100
AcDbEntity
  8
0
  6
Continuous
 62
     7
370
    15
100
AcDbLine
 10
163.2830501576
 20
238.5896871423
 30
0.0
 11
163.2830501576
 21
240.0896871423
 31
0.0
  0
LINE
  5
53
330
1F
100
AcDbEntity
  8
0
  6
Continuous
 62
     7
370
    15
100
AcDbLine
 10
140.62186493
 20
240.0896871423
 30
0.0
 11
140.62186493
 21
238.5896871423
 31
0.0
  0
LINE
  5
54
330
1F
100
AcDbEntity
  8
0
  6
Continuous
 62
     7
370
    15
100
AcDbLine
 10
163.3341252897
 20
189.5896871423
 30
0.0
 11
163.3341252897
 21
238.5896871423
 31
0.0
  0
LINE
  5
55
330
1F
100
AcDbEntity
  8
0
  6
Continuous
 62
     7
370
    15
100
AcDbLine
 10
140.5707897979
 20
238.5896871423
 30
0.0
 11
140.5707897979
 21
189.5896871423
 31
0.0
  0
LINE
  5
56
330
1F
100
AcDbEntity
  8
0
  6
Continuous
 62
     7
370
    15
100
AcDbLine
 10
165.3227735885
 20
194.5424554172
 30
0.0
 11
165.3459302399
 21
194.5025316912
 31
0.0
  0
LINE
  5
57
330
1F
100
AcDbEntity
  8
0
  6
Continuous
 62
     7
370
    15
100
AcDbLine
 10
165.1399289088
 20
194.5231268017
 30
0.0
 11
165.3436527579
 21
194.5231268017
 31
0.0
  0
ARC
  5
58
330
1F
100
AcDbEntity
  8
0
  6
Continuous
 62
     7
370
    15
100
AcDbCircle
 10
146.7024575438
 20
187.7949949024
 30
0.0
 40
1.0
100
AcDbArc
 50
306.3843518158
 51
0.0
  0
ARC
  5
59
330
1F
100
AcDbEntity
  8
0
  6
Continuous
 62
     7
370
    15
100
AcDbCircle
 10
144.2024575438
 20
187.7949949024
 30
0.0
 40
1.0
100
AcDbArc
 50
180.0
 51
233.6156481842
  0
LINE
  5
5A
330
1F
100
AcDbEntity
  8
0
  6
Continuous
 62
     7
370
    15
100
AcDbLine
 10
143.2024575438
 20
188.0896871423
 30
0.0
 11
143.2024575438
 21
187.7949949024
 31
0.0
  0
LINE
  5
5B
330
1F
100
AcDbEntity
  8
0
  6
Continuous
 62
     7
370
    15
100
AcDbLine
 10
147.7024575438
 20
187.7949949024
 30
0.0
 11
147.7024575438
 21
188.0896871423
 31
0.0
  0
LINE
  5
5C
330
1F
100
AcDbEntity
  8
0
  6
Continuous
 62
     7
370
    15
100
AcDbLine
 10
143.6092585058
 20
186.9899390651
 30
0.0
 11
144.0201740049
 21
186.6871592236
 31
0.0
  0
LINE
  5
5D
330
1F
100
AcDbEntity
  8
0
  6
Continuous
 62
     7
370
    15
100
AcDbLine
 10
146.8847410828
 20
186.6871592236
 30
0.0
 11
147.2956565819
 21
186.9899390651
 31
0.0
  0
ARC
  5
5E
330
1F
100
AcDbEntity
  8
0
  6
Continuous
 62
     7
370
    15
100
AcDbCircle
 10
144.3167735239
 20
187.0896871423
 30
0.0
 40
0.5000000000000173
100
AcDbArc
 50
233.6156481842
 51
270.0
  0
ARC
  5
5F
330
1F
100
AcDbEntity
  8
0
  6
Continuous
 62
     7
370
    15
100
AcDbCircle
 10
146.5881415637
 20
187.0896871423
 30
0.0
 40
0.5000000000000006
100
AcDbArc
 50
270.0
 51
306.3843518158
  0
ARC
  5
60
330
1F
100
AcDbEntity
  8
0
  6
Continuous
 62
     7
370
    15
100
AcDbCircle
 10
159.7024575438
 20
187.7949949024
 30
0.0
 40
1.0
100
AcDbArc
 50
306.3843518158
 51
0.0
  0
ARC
  5
61
330
1F
100
AcDbEntity
  8
0
  6
Continuous
 62
     7
370
    15
100
AcDbCircle
 10
157.2024575438
 20
187.7949949024
 30
0.0
 40
1.0
100
AcDbArc
 50
180.0
 51
233.6156481842
  0
LINE
  5
62
330
1F
100
AcDbEntity
  8
0
  6
Continuous
 62
     7
370
    15
100
AcDbLine
 10
156.2024575438
 20
188.0896871423
 30
0.0
 11
156.2024575438
 21
187.7949949024
 31
0.0
  0
LINE
  5
63
330
1F
100
AcDbEntity
  8
0
  6
Continuous
 62
     7
370
    15
100
AcDbLine
 10
160.7024575438
 20
187.7949949024
 30
0.0
 11
160.7024575438
 21
188.0896871423
 31
0.0
  0
LINE
  5
64
330
1F
100
AcDbEntity
  8
0
  6
Continuous
 62
     7
370
    15
100
AcDbLine
 10
156.6092585058
 20
186.9899390651
 30
0.0
 11
157.0201740049
 21
186.6871592236
 31
0.0
  0
LINE
  5
65
330
1F
100
AcDbEntity
  8
0
  6
Continuous
 62
     7
370
    15
100
AcDbLine
 10
159.8847410828
 20
186.6871592236
 30
0.0
 11
160.2956565819
 21
186.9899390651
 31
0.0
  0
ARC
  5
66
330
1F
100
AcDbEntity
  8
0
  6
Continuous
 62
     7
370
    15
100
AcDbCircle
 10
157.3167735239
 20
187.0896871423
 30
0.0
 40
0.5000000000000173
100
AcDbArc
 50
233.6156481842
 51
270.0
  0
ARC
  5
67
330
1F
100
AcDbEntity
  8
0
  6
Continuous
 62
     7
370
    15
100
AcDbCircle
 10
159.5881415637
 20
187.0896871423
 30
0.0
 40
0.5000000000000173
100
AcDbArc
 50
270.0
 51
306.3843518158
  0
ARC
  5
68
330
1F
100
AcDbEntity
  8
0
  6
Continuous
 62
     7
370
    15
100
AcDbCircle
 10
157.2024575438
 20
240.3843793822
 30
0.0
 40
1.000000000000035
100
AcDbArc
 50
126.3843518158
 51
180.0
  0
ARC
  5
69
330
1F
100
AcDbEntity
  8
0
  6
Continuous
 62
     7
370
    15
100
AcDbCircle
 10
159.7024575438
 20
240.3843793822
 30
0.0
 40
1.000000000000018
100
AcDbArc
 50
0.0
 51
53.6156481842
  0
LINE
  5
6A
330
1F
100
AcDbEntity
  8
0
  6
Continuous
 62
     7
370
    15
100
AcDbLine
 10
160.7024575438
 20
240.0896871423
 30
0.0
 11
160.7024575438
 21
240.3843793822
 31
0.0
  0
LINE
  5
6B
330
1F
100
AcDbEntity
  8
0
  6
Continuous
 62
     7
370
    15
100
AcDbLine
 10
156.2024575438
 20
240.3843793822
 30
0.0
 11
156.2024575438
 21
240.0896871423
 31
0.0
  0
LINE
  5
6C
330
1F
100
AcDbEntity
  8
0
  6
Continuous
 62
     7
370
    15
100
AcDbLine
 10
160.2956565819
 20
241.1894352195
 30
0.0
 11
159.8847410828
 21
241.492215061
 31
0.0
  0
LINE
  5
6D
330
1F
100
AcDbEntity
  8
0
  6
Continuous
 62
     7
370
    15
100
AcDbLine
 10
157.0201740049
 20
241.492215061
 30
0.0
 11
156.6092585058
 21
241.1894352195
 31
0.0
  0
ARC
  5
6E
330
1F
100
AcDbEntity
  8
0
  6
Continuous
 62
     7
370
    15
100
AcDbCircle
 10
159.5881415637
 20
241.0896871423
 30
0.0
 40
0.5
100
AcDbArc
 50
53.6156481842
 51
90.0
  0
ARC
  5
6F
330
1F
100
AcDbEntity
  8
0
  6
Continuous
 62
     7
370
    15
100
AcDbCircle
 10
157.3167735239
 20
241.0896871423
 30
0.0
 40
0.5000000000000113
100
AcDbArc
 50
90.0
 51
126.3843518158
  0
ARC
  5
70
330
1F
100
AcDbEntity
  8
0
  6
Continuous
 62
     7
370
    15
100
AcDbCircle
 10
144.2024575438
 20
240.3843793822
 30
0.0
 40
1.000000000000001
100
AcDbArc
 50
126.3843518158
 51
180.0
  0
ARC
  5
71
330
1F
100
AcDbEntity
  8
0
  6
Continuous
 62
     7
370
    15
100
AcDbCircle
 10
146.7024575438
 20
240.3843793822
 30
0.0
 40
1.000000000000035
100
AcDbArc
 50
0.0
 51
53.6156481842
  0
LINE
  5
72
330
1F
100
AcDbEntity
  8
0
  6
Continuous
 62
     7
370
    15
100
AcDbLine
 10
147.7024575438
 20
240.0896871423
 30
0.0
 11
147.7024575438
 21
240.3843793822
 31
0.0
  0
LINE
  5
73
330
1F
100
AcDbEntity
  8
0
  6
Continuous
 62
     7
370
    15
100
AcDbLine
 10
143.2024575438
 20
240.3843793822
 30
0.0
 11
143.2024575438
 21
240.0896871423
 31
0.0
  0
LINE
  5
74
330
1F
100
AcDbEntity
  8
0
  6
Continuous
 62
     7
370
    15
100
AcDbLine
 10
147.2956565819
 20
241.1894352195
 30
0.0
 11
146.8847410828
 21
241.492215061
 31
0.0
  0
LINE
  5
75
330
1F
100
AcDbEntity
  8
0
  6
Continuous
 62
     7
370
    15
100
AcDbLine
 10
144.0201740049
 20
241.492215061
 30
0.0
 11
143.6092585058
 21
241.1894352195
 31
0.0
  0
ARC
  5
76
330
1F
100
AcDbEntity
  8
0
  6
Continuous
 62
     7
370
    15
100
AcDbCircle
 10
146.5881415637
 20
241.0896871423
 30
0.0
 40
0.5
100
AcDbArc
 50
53.6156481842
 51
90.0
  0
ARC
  5
77
330
1F
100
AcDbEntity
  8
0
  6
Continuous
 62
     7
370
    15
100
AcDbCircle
 10
144.3167735239
 20
241.0896871423
 30
0.0
 40
0.5
100
AcDbArc
 50
90.0
 51
126.3843518158
  0
LINE
  5
78
330
1F
100
AcDbEntity
  8
0
  6
Continuous
 62
     7
370
    15
100
AcDbLine
 10
132.4524575438
 20
198.3396871423
 30
0.0
 11
129.9524575438
 21
198.0896871423
 31
0.0
  0
LINE
  5
79
330
1F
100
AcDbEntity
  8
0
  6
Continuous
 62
     7
370
    15
100
AcDbLine
 10
129.9524575438
 20
195.0896871423
 30
0.0
 11
132.4524575438
 21
194.8396871423
 31
0.0
  0
LINE
  5
7A
330
1F
100
AcDbEntity
  8
0
  6
Continuous
 62
     7
370
    15
100
AcDbLine
 10
129.9524575438
 20
198.3396871423
 30
0.0
 11
127.4524575438
 21
198.0896871423
 31
0.0
  0
LINE
  5
7B
330
1F
100
AcDbEntity
  8
0
  6
Continuous
 62
     7
370
    15
100
AcDbLine
 10
127.4524575438
 20
195.0896871423
 30
0.0
 11
129.9524575438
 21
194.8396871423
 31
0.0
  0
LINE
  5
7C
330
1F
100
AcDbEntity
  8
0
  6
Continuous
 62
     7
370
    15
100
AcDbLine
 10
132.4524575438
 20
194.9896871423
 30
0.0
 11
134.4524575438
 21
194.9896871423
 31
0.0
  0
LINE
  5
7D
330
1F
100
AcDbEntity
  8
0
  6
Continuous
 62
     7
370
    15
100
AcDbLine
 10
134.4524575438
 20
198.1896871423
 30
0.0
 11
132.4524575438
 21
198.1896871423
 31
0.0
  0
LINE
  5
7E
330
1F
100
AcDbEntity
  8
0
  6
Continuous
 62
     7
370
    15
100
AcDbLine
 10
137.7524575438
 20
200.5896871423
 30
0.0
 11
136.9524575438
 21
200.5896871423
 31
0.0
  0
LINE
  5
7F
330
1F
100
AcDbEntity
  8
0
  6
Continuous
 62
     7
370
    15
100
AcDbLine
 10
136.9524575438
 20
192.5896871423
 30
0.0
 11
137.7524575438
 21
192.5896871423
 31
0.0
  0
LINE
  5
80
330
1F
100
AcDbEntity
  8
0
  6
Continuous
 62
     7
370
    15
100
AcDbLine
 10
166.9524575438
 20
200.5896871423
 30
0.0
 11
166.1524575438
 21
200.5896871423
 31
0.0
  0
LINE
  5
81
330
1F
100
AcDbEntity
  8
0
  6
Continuous
 62
     7
370
    15
100
AcDbLine
 10
166.1524575438
 20
192.5896871423
 30
0.0
 11
166.9524575438
 21
192.5896871423
 31
0.0
  0
ARC
  5
82
330
1F
100
AcDbEntity
  8
0
  6
Continuous
 62
     7
370
    15
100
AcDbCircle
 10
151.9524575438
 20
163.5896871423
 30
0.0
 40
4.000000000000006
100
AcDbArc
 50
48.5903778907
 51
131.4096221093
  0
LINE
  5
83
330
1F
100
AcDbEntity
  8
0
  6
Continuous
 62
     7
370
    15
100
AcDbLine
 10
154.5982088549
 20
166.5896871423
 30
0.0
 11
149.3067062328
 21
166.5896871423
 31
0.0
  0
LINE
  5
84
330
1F
100
AcDbEntity
  8
0
  6
Continuous
 62
     7
370
    15
100
AcDbLine
 10
154.9524575438
 20
166.5896871423
 30
0.0
 11
155.9524575438
 21
167.5896871423
 31
0.0
  0
LINE
  5
85
330
1F
100
AcDbEntity
  8
0
  6
Continuous
 62
     7
370
    15
100
AcDbLine
 10
154.9524575438
 20
166.5896871423
 30
0.0
 11
154.9524575438
 21
164.0896871423
 31
0.0
  0
LINE
  5
86
330
1F
100
AcDbEntity
  8
0
  6
Continuous
 62
     7
370
    15
100
AcDbLine
 10
154.5982088549
 20
164.0896871423
 30
0.0
 11
154.9524575438
 21
164.0896871423
 31
0.0
  0
LINE
  5
87
330
1F
100
AcDbEntity
  8
0
  6
Continuous
 62
     7
370
    15
100
AcDbLine
 10
154.5982088549
 20
166.5896871423
 30
0.0
 11
154.5982088549
 21
164.0896871423
 31
0.0
  0
LINE
  5
88
330
1F
100
AcDbEntity
  8
0
  6
Continuous
 62
     7
370
    15
100
AcDbLine
 10
149.3067062328
 20
166.5896871423
 30
0.0
 11
149.3067062328
 21
164.0896871423
 31
0.0
  0
LINE
  5
89
330
1F
100
AcDbEntity
  8
0
  6
Continuous
 62
     7
370
    15
100
AcDbLine
 10
148.9524575438
 20
164.0896871423
 30
0.0
 11
149.3067062328
 21
164.0896871423
 31
0.0
  0
LINE
  5
8A
330
1F
100
AcDbEntity
  8
0
  6
Continuous
 62
     7
370
    15
100
AcDbLine
 10
148.9524575438
 20
166.5896871423
 30
0.0
 11
148.9524575438
 21
164.0896871423
 31
0.0
  0
LINE
  5
8B
330
1F
100
AcDbEntity
  8
0
  6
Continuous
 62
     7
370
    15
100
AcDbLine
 10
147.9524575438
 20
167.5896871423
 30
0.0
 11
148.9524575438
 21
166.5896871423
 31
0.0
  0
SPLINE
  5
8C
330
1F
100
AcDbEntity
  8
0
  6
Continuous
 62
     7
370
    15
100
AcDbSpline
210
0.0
220
0.0
230
1.0
 70
    24
 71
     3
 72
     8
 73
     4
 74
     0
 42
0.00000001
 43
0.00000001
 12
1.0
 22
0.0
 32
0.0
 13
1.0
 23
0.0
 33
0.0
 40
0.0
 40
0.0
 40
0.0
 40
0.0
 40
1.0
 40
1.0
 40
1.0
 40
1.0
 10
154.9524575438157
 20
164.0896871422806
 30
0.0
 10
154.9524575438157
 20
163.9092363201776
 30
0.0
 10
154.9524575438157
 20
163.7395529601107
 30
0.0
 10
154.9524575438157
 20
163.5896871422806
 30
0.0
  0
LINE
  5
8D
330
1F
100
AcDbEntity
  8
0
  6
Continuous
 62
     7
370
    15
100
AcDbLine
 10
154.9524575438
 20
163.5896871423
 30
0.0
 11
153.7552331815
 21
163.5896871423
 31
0.0
  0
SPLINE
  5
8E
330
1F
100
AcDbEntity
  8
0
  6
Continuous
 62
     7
370
    15
100
AcDbSpline
210
0.0
220
0.0
230
1.0
 70
     8
 71
     3
 72
     8
 73
     4
 74
     0
 42
0.00000001
 43
0.00000001
 12
1.0
 22
0.0
 32
0.0
 13
1.0
 23
0.0
 33
0.0
 40
0.0
 40
0.0
 40
0.0
 40
0.0
 40
1.0
 40
1.0
 40
1.0
 40
1.0
 10
153.7552331815477
 20
163.5896871422806
 30
0.0
 10
154.0461902765002
 20
163.7395529601107
 30
0.0
 10
154.3253928553594
 20
163.9092363201776
 30
0.0
 10
154.5982088548803
 20
164.0896871422806
 30
0.0
  0
SPLINE
  5
8F
330
1F
100
AcDbEntity
  8
0
  6
Continuous
 62
     7
370
    15
100
AcDbSpline
210
0.0
220
0.0
230
1.0
 70
     8
 71
     3
 72
     8
 73
     4
 74
     0
 42
0.00000001
 43
0.00000001
 12
1.0
 22
0.0
 32
0.0
 13
1.0
 23
0.0
 33
0.0
 40
0.0
 40
0.0
 40
0.0
 40
0.0
 40
1.0
 40
1.0
 40
1.0
 40
1.0
 10
149.3067062327511
 20
164.0896871422806
 30
0.0
 10
149.579522232272
 20
163.9092363201776
 30
0.0
 10
149.8587248111313
 20
163.7395529601107
 30
0.0
 10
150.1496819060837
 20
163.5896871422806
 30
0.0
  0
LINE
  5
90
330
1F
100
AcDbEntity
  8
0
  6
Continuous
 62
     7
370
    15
100
AcDbLine
 10
153.7552331815
 20
163.5896871423
 30
0.0
 11
150.1496819061
 21
163.5896871423
 31
0.0
  0
SPLINE
  5
91
330
1F
100
AcDbEntity
  8
0
  6
Continuous
 62
     7
370
    15
100
AcDbSpline
210
0.0
220
0.0
230
1.0
 70
    24
 71
     3
 72
     8
 73
     4
 74
     0
 42
0.00000001
 43
0.00000001
 12
1.0
 22
0.0
 32
0.0
 13
1.0
 23
0.0
 33
0.0
 40
0.0
 40
0.0
 40
0.0
 40
0.0
 40
1.0
 40
1.0
 40
1.0
 40
1.0
 10
148.9524575438157
 20
163.5896871422806
 30
0.0
 10
148.9524575438157
 20
163.7395529601107
 30
0.0
 10
148.9524575438157
 20
163.9092363201776
 30
0.0
 10
148.9524575438157
 20
164.0896871422806
 30
0.0
  0
LINE
  5
92
330
1F
100
AcDbEntity
  8
0
  6
Continuous
 62
     7
370
    15
100
AcDbLine
 10
150.1496819061
 20
163.5896871423
 30
0.0
 11
148.9524575438
 21
163.5896871423
 31
0.0
  0
LINE
  5
93
330
1F
100
AcDbEntity
  8
0
  6
Continuous
 62
     7
370
    15
100
AcDbLine
 10
162.6368172552
 20
240.0896871423
 30
0.0
 11
162.6368172552
 21
238.5896871423
 31
0.0
  0
LINE
  5
94
330
1F
100
AcDbEntity
  8
0
  6
Continuous
 62
     7
370
    15
100
AcDbLine
 10
162.6368172552
 20
240.0896871423
 30
0.0
 11
163.1654718937
 21
240.0896871423
 31
0.0
  0
LINE
  5
95
330
1F
100
AcDbEntity
  8
0
  6
Continuous
 62
     7
370
    15
100
AcDbLine
 10
163.1654718937
 20
238.5896871423
 30
0.0
 11
163.1654718937
 21
240.0896871423
 31
0.0
  0
LINE
  5
96
330
1F
100
AcDbEntity
  8
0
  6
Continuous
 62
     7
370
    15
100
AcDbLine
 10
163.1654718937
 20
238.5896871423
 30
0.0
 11
162.6368172552
 21
238.5896871423
 31
0.0
  0
LINE
  5
97
330
1F
100
AcDbEntity
  8
0
  6
Continuous
 62
     7
370
    15
100
AcDbLine
 10
157.8889492169
 20
238.5896871423
 30
0.0
 11
162.6368172552
 21
238.5896871423
 31
0.0
  0
LINE
  5
98
330
1F
100
AcDbEntity
  8
0
  6
Continuous
 62
     7
370
    15
100
AcDbLine
 10
157.8889492169
 20
240.0896871423
 30
0.0
 11
157.8889492169
 21
238.5896871423
 31
0.0
  0
LINE
  5
99
330
1F
100
AcDbEntity
  8
0
  6
Continuous
 62
     7
370
    15
100
AcDbLine
 10
157.8889492169
 20
240.0896871423
 30
0.0
 11
162.6368172552
 21
240.0896871423
 31
0.0
  0
LINE
  5
9A
330
1F
100
AcDbEntity
  8
0
  6
Continuous
 62
     7
370
    15
100
AcDbLine
 10
156.3276997173
 20
240.0896871423
 30
0.0
 11
156.3276997173
 21
238.5896871423
 31
0.0
  0
LINE
  5
9B
330
1F
100
AcDbEntity
  8
0
  6
Continuous
 62
     7
370
    15
100
AcDbLine
 10
156.3276997173
 20
240.0896871423
 30
0.0
 11
157.8889492169
 21
240.0896871423
 31
0.0
  0
LINE
  5
9C
330
1F
100
AcDbEntity
  8
0
  6
Continuous
 62
     7
370
    15
100
AcDbLine
 10
157.8889492169
 20
238.5896871423
 30
0.0
 11
156.3276997173
 21
238.5896871423
 31
0.0
  0
LINE
  5
9D
330
1F
100
AcDbEntity
  8
0
  6
Continuous
 62
     7
370
    15
100
AcDbLine
 10
146.0159658707
 20
238.5896871423
 30
0.0
 11
146.0159658707
 21
240.0896871423
 31
0.0
  0
LINE
  5
9E
330
1F
100
AcDbEntity
  8
0
  6
Continuous
 62
     7
370
    15
100
AcDbLine
 10
147.5772153703
 20
238.5896871423
 30
0.0
 11
147.5772153703
 21
240.0896871423
 31
0.0
  0
LINE
  5
9F
330
1F
100
AcDbEntity
  8
0
  6
Continuous
 62
     7
370
    15
100
AcDbLine
 10
146.0159658707
 20
240.0896871423
 30
0.0
 11
147.5772153703
 21
240.0896871423
 31
0.0
  0
LINE
  5
A0
330
1F
100
AcDbEntity
  8
0
  6
Continuous
 62
     7
370
    15
100
AcDbLine
 10
147.5772153703
 20
238.5896871423
 30
0.0
 11
146.0159658707
 21
238.5896871423
 31
0.0
  0
LINE
  5
A1
330
1F
100
AcDbEntity
  8
0
  6
Continuous
 62
     7
370
    15
100
AcDbLine
 10
141.2680978325
 20
240.0896871423
 30
0.0
 11
141.2680978325
 21
238.5896871423
 31
0.0
  0
LINE
  5
A2
330
1F
100
AcDbEntity
  8
0
  6
Continuous
 62
     7
370
    15
100
AcDbLine
 10
140.7394431939
 20
240.0896871423
 30
0.0
 11
140.7394431939
 21
238.5896871423
 31
0.0
  0
LINE
  5
A3
330
1F
100
AcDbEntity
  8
0
  6
Continuous
 62
     7
370
    15
100
AcDbLine
 10
141.2680978325
 20
240.0896871423
 30
0.0
 11
140.7394431939
 21
240.0896871423
 31
0.0
  0
LINE
  5
A4
330
1F
100
AcDbEntity
  8
0
  6
Continuous
 62
     7
370
    15
100
AcDbLine
 10
141.2680978325
 20
238.5896871423
 30
0.0
 11
140.7394431939
 21
238.5896871423
 31
0.0
  0
LINE
  5
A5
330
1F
100
AcDbEntity
  8
0
  6
Continuous
 62
     7
370
    15
100
AcDbLine
 10
141.2680978325
 20
240.0896871423
 30
0.0
 11
146.0159658707
 21
240.0896871423
 31
0.0
  0
LINE
  5
A6
330
1F
100
AcDbEntity
  8
0
  6
Continuous
 62
     7
370
    15
100
AcDbLine
 10
141.2680978325
 20
238.5896871423
 30
0.0
 11
146.0159658707
 21
238.5896871423
 31
0.0
  0
LINE
  5
A7
330
1F
100
AcDbEntity
  8
0
  6
Continuous
 62
     7
370
    15
100
AcDbLine
 10
163.1654718937
 20
240.0896871423
 30
0.0
 11
163.2830501576
 21
240.0896871423
 31
0.0
  0
LINE
  5
A8
330
1F
100
AcDbEntity
  8
0
  6
Continuous
 62
     7
370
    15
100
AcDbLine
 10
140.62186493
 20
240.0896871423
 30
0.0
 11
140.7394431939
 21
240.0896871423
 31
0.0
  0
LINE
  5
A9
330
1F
100
AcDbEntity
  8
0
  6
Continuous
 62
     7
370
    15
100
AcDbLine
 10
149.1384648699
 20
241.5896871423
 30
0.0
 11
149.1384648699
 21
238.5896871423
 31
0.0
  0
LINE
  5
AA
330
1F
100
AcDbEntity
  8
0
  6
Continuous
 62
     7
370
    15
100
AcDbLine
 10
148.789659009
 20
241.5896871423
 30
0.0
 11
148.789659009
 21
240.0896871423
 31
0.0
  0
LINE
  5
AB
330
1F
100
AcDbEntity
  8
0
  6
Continuous
 62
     7
370
    15
100
AcDbLine
 10
148.789659009
 20
241.5896871423
 30
0.0
 11
149.1384648699
 21
241.5896871423
 31
0.0
  0
LINE
  5
AC
330
1F
100
AcDbEntity
  8
0
  6
Continuous
 62
     7
370
    15
100
AcDbLine
 10
147.5772153703
 20
240.0896871423
 30
0.0
 11
148.789659009
 21
240.0896871423
 31
0.0
  0
LINE
  5
AD
330
1F
100
AcDbEntity
  8
0
  6
Continuous
 62
     7
370
    15
100
AcDbLine
 10
149.1384648699
 20
238.5896871423
 30
0.0
 11
147.5772153703
 21
238.5896871423
 31
0.0
  0
LINE
  5
AE
330
1F
100
AcDbEntity
  8
0
  6
Continuous
 62
     7
370
    15
100
AcDbLine
 10
154.7664502177
 20
238.5896871423
 30
0.0
 11
154.7664502177
 21
241.5896871423
 31
0.0
  0
LINE
  5
AF
330
1F
100
AcDbEntity
  8
0
  6
Continuous
 62
     7
370
    15
100
AcDbLine
 10
154.7664502177
 20
241.5896871423
 30
0.0
 11
155.1152560786
 21
241.5896871423
 31
0.0
  0
LINE
  5
B0
330
1F
100
AcDbEntity
  8
0
  6
Continuous
 62
     7
370
    15
100
AcDbLine
 10
155.1152560786
 20
240.0896871423
 30
0.0
 11
155.1152560786
 21
241.5896871423
 31
0.0
  0
LINE
  5
B1
330
1F
100
AcDbEntity
  8
0
  6
Continuous
 62
     7
370
    15
100
AcDbLine
 10
155.1152560786
 20
240.0896871423
 30
0.0
 11
156.3276997173
 21
240.0896871423
 31
0.0
  0
LINE
  5
B2
330
1F
100
AcDbEntity
  8
0
  6
Continuous
 62
     7
370
    15
100
AcDbLine
 10
156.3276997173
 20
238.5896871423
 30
0.0
 11
154.7664502177
 21
238.5896871423
 31
0.0
  0
LINE
  5
B3
330
1F
100
AcDbEntity
  8
0
  6
Continuous
 62
     7
370
    15
100
AcDbLine
 10
164.8022687611
 20
238.5896871423
 30
0.0
 11
164.8022687611
 21
241.5896871423
 31
0.0
  0
LINE
  5
B4
330
1F
100
AcDbEntity
  8
0
  6
Continuous
 62
     7
370
    15
100
AcDbLine
 10
162.3270891709
 20
240.0896871423
 30
0.0
 11
162.3270891709
 21
241.5896871423
 31
0.0
  0
LINE
  5
B5
330
1F
100
AcDbEntity
  8
0
  6
Continuous
 62
     7
370
    15
100
AcDbLine
 10
164.8022687611
 20
241.5896871423
 30
0.0
 11
162.3270891709
 21
241.5896871423
 31
0.0
  0
LINE
  5
B6
330
1F
100
AcDbEntity
  8
0
  6
Continuous
 62
     7
370
    15
100
AcDbLine
 10
139.1026463265
 20
238.5896871423
 30
0.0
 11
139.1026463265
 21
241.5896871423
 31
0.0
  0
LINE
  5
B7
330
1F
100
AcDbEntity
  8
0
  6
Continuous
 62
     7
370
    15
100
AcDbLine
 10
141.5778259167
 20
241.5896871423
 30
0.0
 11
139.1026463265
 21
241.5896871423
 31
0.0
  0
LINE
  5
B8
330
1F
100
AcDbEntity
  8
0
  6
Continuous
 62
     7
370
    15
100
AcDbLine
 10
141.5778259167
 20
240.0896871423
 30
0.0
 11
141.5778259167
 21
241.5896871423
 31
0.0
  0
LINE
  5
B9
330
1F
100
AcDbEntity
  8
0
  6
Continuous
 62
     7
370
    15
100
AcDbLine
 10
155.7024575438
 20
241.5896871423
 30
0.0
 11
155.7024575438
 21
240.0896871423
 31
0.0
  0
LINE
  5
BA
330
1F
100
AcDbEntity
  8
0
  6
Continuous
 62
     7
370
    15
100
AcDbLine
 10
155.1152560786
 20
241.5896871423
 30
0.0
 11
155.7024575438
 21
241.5896871423
 31
0.0
  0
LINE
  5
BB
330
1F
100
AcDbEntity
  8
0
  6
Continuous
 62
     7
370
    15
100
AcDbLine
 10
148.2024575438
 20
240.0896871423
 30
0.0
 11
148.2024575438
 21
241.5896871423
 31
0.0
  0
LINE
  5
BC
330
1F
100
AcDbEntity
  8
0
  6
Continuous
 62
     7
370
    15
100
AcDbLine
 10
148.2024575438
 20
241.5896871423
 30
0.0
 11
148.789659009
 21
241.5896871423
 31
0.0
  0
LINE
  5
BD
330
1F
100
AcDbEntity
  8
0
  6
Continuous
 62
     7
370
    15
100
AcDbLine
 10
154.7664502177
 20
241.5896871423
 30
0.0
 11
149.1384648699
 21
241.5896871423
 31
0.0
  0
LINE
  5
BE
330
1F
100
AcDbEntity
  8
0
  6
Continuous
 62
     7
370
    15
100
AcDbLine
 10
154.7664502177
 20
238.5896871423
 30
0.0
 11
149.1384648699
 21
238.5896871423
 31
0.0
  0
LINE
  5
BF
330
1F
100
AcDbEntity
  8
0
  6
Continuous
 62
     7
370
    15
100
AcDbLine
 10
157.3167735239
 20
241.5896871423
 30
0.0
 11
155.7024575438
 21
241.5896871423
 31
0.0
  0
LINE
  5
C0
330
1F
100
AcDbEntity
  8
0
  6
Continuous
 62
     7
370
    15
100
AcDbLine
 10
148.2024575438
 20
241.5896871423
 30
0.0
 11
146.5881415637
 21
241.5896871423
 31
0.0
  0
LINE
  5
C1
330
1F
100
AcDbEntity
  8
0
  6
Continuous
 62
     7
370
    15
100
AcDbLine
 10
165.3165025355
 20
238.5896871423
 30
0.0
 11
165.3165025355
 21
241.5896871423
 31
0.0
  0
LINE
  5
C2
330
1F
100
AcDbEntity
  8
0
  6
Continuous
 62
     7
370
    15
100
AcDbLine
 10
165.7667990303
 20
241.5896871423
 30
0.0
 11
165.7667990303
 21
238.5896871423
 31
0.0
  0
LINE
  5
C3
330
1F
100
AcDbEntity
  8
0
  6
Continuous
 62
     7
370
    15
100
AcDbLine
 10
165.3165025355
 20
241.5896871423
 30
0.0
 11
165.7667990303
 21
241.5896871423
 31
0.0
  0
LINE
  5
C4
330
1F
100
AcDbEntity
  8
0
  6
Continuous
 62
     7
370
    15
100
AcDbLine
 10
138.5884125521
 20
241.5896871423
 30
0.0
 11
138.5884125521
 21
238.5896871423
 31
0.0
  0
LINE
  5
C5
330
1F
100
AcDbEntity
  8
0
  6
Continuous
 62
     7
370
    15
100
AcDbLine
 10
138.1381160573
 20
238.5896871423
 30
0.0
 11
138.1381160573
 21
241.5896871423
 31
0.0
  0
LINE
  5
C6
330
1F
100
AcDbEntity
  8
0
  6
Continuous
 62
     7
370
    15
100
AcDbLine
 10
138.1381160573
 20
241.5896871423
 30
0.0
 11
138.5884125521
 21
241.5896871423
 31
0.0
  0
LINE
  5
C7
330
1F
100
AcDbEntity
  8
0
  6
Continuous
 62
     7
370
    15
100
AcDbLine
 10
165.3165025355
 20
241.5896871423
 30
0.0
 11
164.8022687611
 21
241.5896871423
 31
0.0
  0
LINE
  5
C8
330
1F
100
AcDbEntity
  8
0
  6
Continuous
 62
     7
370
    15
100
AcDbLine
 10
165.3165025355
 20
238.5896871423
 30
0.0
 11
164.8022687611
 21
238.5896871423
 31
0.0
  0
LINE
  5
C9
330
1F
100
AcDbEntity
  8
0
  6
Continuous
 62
     7
370
    15
100
AcDbLine
 10
139.1026463265
 20
241.5896871423
 30
0.0
 11
138.5884125521
 21
241.5896871423
 31
0.0
  0
LINE
  5
CA
330
1F
100
AcDbEntity
  8
0
  6
Continuous
 62
     7
370
    15
100
AcDbLine
 10
139.1026463265
 20
238.5896871423
 30
0.0
 11
138.5884125521
 21
238.5896871423
 31
0.0
  0
LINE
  5
CB
330
1F
100
AcDbEntity
  8
0
  6
Continuous
 62
     7
370
    15
100
AcDbLine
 10
166.1524575438
 20
241.3896871423
 30
0.0
 11
165.9524575438
 21
241.5896871423
 31
0.0
  0
LINE
  5
CC
330
1F
100
AcDbEntity
  8
0
  6
Continuous
 62
     7
370
    15
100
AcDbLine
 10
166.1524575438
 20
241.3896871423
 30
0.0
 11
166.1524575438
 21
238.5896871423
 31
0.0
  0
LINE
  5
CD
330
1F
100
AcDbEntity
  8
0
  6
Continuous
 62
     7
370
    15
100
AcDbLine
 10
165.9524575438
 20
241.5896871423
 30
0.0
 11
165.7667990303
 21
241.5896871423
 31
0.0
  0
LINE
  5
CE
330
1F
100
AcDbEntity
  8
0
  6
Continuous
 62
     7
370
    15
100
AcDbLine
 10
166.1524575438
 20
238.5896871423
 30
0.0
 11
165.7667990303
 21
238.5896871423
 31
0.0
  0
LINE
  5
CF
330
1F
100
AcDbEntity
  8
0
  6
Continuous
 62
     7
370
    15
100
AcDbLine
 10
137.7524575438
 20
241.3896871423
 30
0.0
 11
137.7524575438
 21
238.5896871423
 31
0.0
  0
LINE
  5
D0
330
1F
100
AcDbEntity
  8
0
  6
Continuous
 62
     7
370
    15
100
AcDbLine
 10
137.9524575438
 20
241.5896871423
 30
0.0
 11
137.7524575438
 21
241.3896871423
 31
0.0
  0
LINE
  5
D1
330
1F
100
AcDbEntity
  8
0
  6
Continuous
 62
     7
370
    15
100
AcDbLine
 10
138.1381160573
 20
241.5896871423
 30
0.0
 11
137.9524575438
 21
241.5896871423
 31
0.0
  0
LINE
  5
D2
330
1F
100
AcDbEntity
  8
0
  6
Continuous
 62
     7
370
    15
100
AcDbLine
 10
138.1381160573
 20
238.5896871423
 30
0.0
 11
137.7524575438
 21
238.5896871423
 31
0.0
  0
LINE
  5
D3
330
1F
100
AcDbEntity
  8
0
  6
Continuous
 62
     7
370
    15
100
AcDbLine
 10
162.3270891709
 20
241.5896871423
 30
0.0
 11
159.5881415637
 21
241.5896871423
 31
0.0
  0
LINE
  5
D4
330
1F
100
AcDbEntity
  8
0
  6
Continuous
 62
     7
370
    15
100
AcDbLine
 10
144.3167735239
 20
241.5896871423
 30
0.0
 11
141.5778259167
 21
241.5896871423
 31
0.0
  0
LINE
  5
D5
330
1F
100
AcDbEntity
  8
0
  6
Continuous
 62
     7
370
    15
100
AcDbLine
 10
141.2680978325
 20
238.5896871423
 30
0.0
 11
141.2680978325
 21
189.5896871423
 31
0.0
  0
LINE
  5
D6
330
1F
100
AcDbEntity
  8
0
  6
Continuous
 62
     7
370
    15
100
AcDbLine
 10
140.647867077
 20
189.5896871423
 30
0.0
 11
141.2680978325
 21
189.5896871423
 31
0.0
  0
LINE
  5
D7
330
1F
100
AcDbEntity
  8
0
  6
Continuous
 62
     7
370
    15
100
AcDbLine
 10
140.647867077
 20
238.5896871423
 30
0.0
 11
140.647867077
 21
189.5896871423
 31
0.0
  0
LINE
  5
D8
330
1F
100
AcDbEntity
  8
0
  6
Continuous
 62
     7
370
    15
100
AcDbLine
 10
140.647867077
 20
238.5896871423
 30
0.0
 11
141.2680978325
 21
238.5896871423
 31
0.0
  0
LINE
  5
D9
330
1F
100
AcDbEntity
  8
0
  6
Continuous
 62
     7
370
    15
100
AcDbLine
 10
145.0398805587
 20
199.8896871423
 30
0.0
 11
145.0398805587
 21
196.0896871423
 31
0.0
  0
LINE
  5
DA
330
1F
100
AcDbEntity
  8
0
  6
Continuous
 62
     7
370
    15
100
AcDbLine
 10
144.2825697004
 20
238.5896871423
 30
0.0
 11
144.2825697004
 21
189.5896871423
 31
0.0
  0
LINE
  5
DB
330
1F
100
AcDbEntity
  8
0
  6
Continuous
 62
     7
370
    15
100
AcDbLine
 10
145.0398805587
 20
232.0896871423
 30
0.0
 11
145.0398805587
 21
228.2896871423
 31
0.0
  0
LINE
  5
DC
330
1F
100
AcDbEntity
  8
0
  6
Continuous
 62
     7
370
    15
100
AcDbLine
 10
145.0398805587
 20
228.2896871423
 30
0.0
 11
145.0524575438
 21
228.2746656268
 31
0.0
  0
LINE
  5
DD
330
1F
100
AcDbEntity
  8
0
  6
Continuous
 62
     7
370
    15
100
AcDbLine
 10
145.0524575438
 20
228.2746656268
 30
0.0
 11
145.0524575438
 21
199.9047086578
 31
0.0
  0
LINE
  5
DE
330
1F
100
AcDbEntity
  8
0
  6
Continuous
 62
     7
370
    15
100
AcDbLine
 10
145.0524575438
 20
199.9047086578
 30
0.0
 11
145.0398805587
 21
199.8896871423
 31
0.0
  0
LINE
  5
DF
330
1F
100
AcDbEntity
  8
0
  6
Continuous
 62
     7
370
    15
100
AcDbLine
 10
162.6368172552
 20
238.5896871423
 30
0.0
 11
162.6368172552
 21
189.5896871423
 31
0.0
  0
LINE
  5
E0
330
1F
100
AcDbEntity
  8
0
  6
Continuous
 62
     7
370
    15
100
AcDbLine
 10
162.6368172552
 20
189.5896871423
 30
0.0
 11
159.6223453873
 21
189.5896871423
 31
0.0
  0
LINE
  5
E1
330
1F
100
AcDbEntity
  8
0
  6
Continuous
 62
     7
370
    15
100
AcDbLine
 10
159.6223453873
 20
238.5896871423
 30
0.0
 11
159.6223453873
 21
189.5896871423
 31
0.0
  0
LINE
  5
E2
330
1F
100
AcDbEntity
  8
0
  6
Continuous
 62
     7
370
    15
100
AcDbLine
 10
162.6368172552
 20
238.5896871423
 30
0.0
 11
159.6223453873
 21
238.5896871423
 31
0.0
  0
LINE
  5
E3
330
1F
100
AcDbEntity
  8
0
  6
Continuous
 62
     7
370
    15
100
AcDbLine
 10
144.2825697004
 20
238.5896871423
 30
0.0
 11
141.2680978325
 21
238.5896871423
 31
0.0
  0
LINE
  5
E4
330
1F
100
AcDbEntity
  8
0
  6
Continuous
 62
     7
370
    15
100
AcDbLine
 10
144.2825697004
 20
189.5896871423
 30
0.0
 11
141.2680978325
 21
189.5896871423
 31
0.0
  0
LINE
  5
E5
330
1F
100
AcDbEntity
  8
0
  6
Continuous
 62
     7
370
    15
100
AcDbLine
 10
158.8650345289
 20
196.0896871423
 30
0.0
 11
158.8650345289
 21
199.8896871423
 31
0.0
  0
LINE
  5
E6
330
1F
100
AcDbEntity
  8
0
  6
Continuous
 62
     7
370
    15
100
AcDbLine
 10
158.8650345289
 20
199.8896871423
 30
0.0
 11
158.8524575438
 21
199.9047086578
 31
0.0
  0
LINE
  5
E7
330
1F
100
AcDbEntity
  8
0
  6
Continuous
 62
     7
370
    15
100
AcDbLine
 10
158.8524575438
 20
228.2746656268
 30
0.0
 11
158.8524575438
 21
199.9047086578
 31
0.0
  0
LINE
  5
E8
330
1F
100
AcDbEntity
  8
0
  6
Continuous
 62
     7
370
    15
100
AcDbLine
 10
158.8524575438
 20
228.2746656268
 30
0.0
 11
158.8650345289
 21
228.2896871423
 31
0.0
  0
LINE
  5
E9
330
1F
100
AcDbEntity
  8
0
  6
Continuous
 62
     7
370
    15
100
AcDbLine
 10
158.8650345289
 20
228.2896871423
 30
0.0
 11
158.8650345289
 21
232.0896871423
 31
0.0
  0
LINE
  5
EA
330
1F
100
AcDbEntity
  8
0
  6
Continuous
 62
     7
370
    15
100
AcDbLine
 10
163.2570480107
 20
189.5896871423
 30
0.0
 11
163.2570480107
 21
238.5896871423
 31
0.0
  0
LINE
  5
EB
330
1F
100
AcDbEntity
  8
0
  6
Continuous
 62
     7
370
    15
100
AcDbLine
 10
162.6368172552
 20
238.5896871423
 30
0.0
 11
163.2570480107
 21
238.5896871423
 31
0.0
  0
LINE
  5
EC
330
1F
100
AcDbEntity
  8
0
  6
Continuous
 62
     7
370
    15
100
AcDbLine
 10
162.6368172552
 20
189.5896871423
 30
0.0
 11
163.2570480107
 21
189.5896871423
 31
0.0
  0
LINE
  5
ED
330
1F
100
AcDbEntity
  8
0
  6
Continuous
 62
     7
370
    15
100
AcDbLine
 10
156.3276997173
 20
238.5896871423
 30
0.0
 11
156.3276997173
 21
189.5896871423
 31
0.0
  0
LINE
  5
EE
330
1F
100
AcDbEntity
  8
0
  6
Continuous
 62
     7
370
    15
100
AcDbLine
 10
157.3287853247
 20
238.5896871423
 30
0.0
 11
157.3287853247
 21
189.5896871423
 31
0.0
  0
LINE
  5
EF
330
1F
100
AcDbEntity
  8
0
  6
Continuous
 62
     7
370
    15
100
AcDbLine
 10
156.3276997173
 20
238.5896871423
 30
0.0
 11
157.3287853247
 21
238.5896871423
 31
0.0
  0
LINE
  5
F0
330
1F
100
AcDbEntity
  8
0
  6
Continuous
 62
     7
370
    15
100
AcDbLine
 10
157.3287853247
 20
189.5896871423
 30
0.0
 11
156.3276997173
 21
189.5896871423
 31
0.0
  0
LINE
  5
F1
330
1F
100
AcDbEntity
  8
0
  6
Continuous
 62
     7
370
    15
100
AcDbLine
 10
158.0398805587
 20
199.8896871423
 30
0.0
 11
158.0398805587
 21
196.0896871423
 31
0.0
  0
LINE
  5
F2
330
1F
100
AcDbEntity
  8
0
  6
Continuous
 62
     7
370
    15
100
AcDbLine
 10
158.0398805587
 20
232.0896871423
 30
0.0
 11
158.0398805587
 21
228.2896871423
 31
0.0
  0
LINE
  5
F3
330
1F
100
AcDbEntity
  8
0
  6
Continuous
 62
     7
370
    15
100
AcDbLine
 10
158.0398805587
 20
228.2896871423
 30
0.0
 11
158.0524575438
 21
228.2746656268
 31
0.0
  0
LINE
  5
F4
330
1F
100
AcDbEntity
  8
0
  6
Continuous
 62
     7
370
    15
100
AcDbLine
 10
158.0524575438
 20
228.2746656268
 30
0.0
 11
158.0524575438
 21
199.9047086578
 31
0.0
  0
LINE
  5
F5
330
1F
100
AcDbEntity
  8
0
  6
Continuous
 62
     7
370
    15
100
AcDbLine
 10
158.0524575438
 20
199.9047086578
 30
0.0
 11
158.0398805587
 21
199.8896871423
 31
0.0
  0
LINE
  5
F6
330
1F
100
AcDbEntity
  8
0
  6
Continuous
 62
     7
370
    15
100
AcDbLine
 10
145.8650345289
 20
196.0896871423
 30
0.0
 11
145.8650345289
 21
199.8896871423
 31
0.0
  0
LINE
  5
F7
330
1F
100
AcDbEntity
  8
0
  6
Continuous
 62
     7
370
    15
100
AcDbLine
 10
145.8650345289
 20
199.8896871423
 30
0.0
 11
145.8524575438
 21
199.9047086578
 31
0.0
  0
LINE
  5
F8
330
1F
100
AcDbEntity
  8
0
  6
Continuous
 62
     7
370
    15
100
AcDbLine
 10
145.8524575438
 20
228.2746656268
 30
0.0
 11
145.8524575438
 21
199.9047086578
 31
0.0
  0
LINE
  5
F9
330
1F
100
AcDbEntity
  8
0
  6
Continuous
 62
     7
370
    15
100
AcDbLine
 10
145.8524575438
 20
228.2746656268
 30
0.0
 11
145.8650345289
 21
228.2896871423
 31
0.0
  0
LINE
  5
FA
330
1F
100
AcDbEntity
  8
0
  6
Continuous
 62
     7
370
    15
100
AcDbLine
 10
145.8650345289
 20
228.2896871423
 30
0.0
 11
145.8650345289
 21
232.0896871423
 31
0.0
  0
LINE
  5
FB
330
1F
100
AcDbEntity
  8
0
  6
Continuous
 62
     7
370
    15
100
AcDbLine
 10
146.5761297629
 20
238.5896871423
 30
0.0
 11
146.5761297629
 21
189.5896871423
 31
0.0
  0
LINE
  5
FC
330
1F
100
AcDbEntity
  8
0
  6
Continuous
 62
     7
370
    15
100
AcDbLine
 10
147.5772153703
 20
189.5896871423
 30
0.0
 11
147.5772153703
 21
238.5896871423
 31
0.0
  0
LINE
  5
FD
330
1F
100
AcDbEntity
  8
0
  6
Continuous
 62
     7
370
    15
100
AcDbLine
 10
146.5761297629
 20
238.5896871423
 30
0.0
 11
147.5772153703
 21
238.5896871423
 31
0.0
  0
LINE
  5
FE
330
1F
100
AcDbEntity
  8
0
  6
Continuous
 62
     7
370
    15
100
AcDbLine
 10
147.5772153703
 20
189.5896871423
 30
0.0
 11
146.5761297629
 21
189.5896871423
 31
0.0
  0
LINE
  5
FF
330
1F
100
AcDbEntity
  8
0
  6
Continuous
 62
     7
370
    15
100
AcDbLine
 10
163.2570480107
 20
238.5896871423
 30
0.0
 11
163.3341252897
 21
238.5896871423
 31
0.0
  0
LINE
  5
100
330
1F
100
AcDbEntity
  8
0
  6
Continuous
 62
     7
370
    15
100
AcDbLine
 10
140.5707897979
 20
238.5896871423
 30
0.0
 11
140.647867077
 21
238.5896871423
 31
0.0
  0
LINE
  5
101
330
1F
100
AcDbEntity
  8
0
  6
Continuous
 62
     7
370
    15
100
AcDbLine
 10
149.1384648699
 20
238.5896871423
 30
0.0
 11
149.1384648699
 21
189.5896871423
 31
0.0
  0
LINE
  5
102
330
1F
100
AcDbEntity
  8
0
  6
Continuous
 62
     7
370
    15
100
AcDbLine
 10
149.1384648699
 20
189.5896871423
 30
0.0
 11
147.5772153703
 21
189.5896871423
 31
0.0
  0
LINE
  5
103
330
1F
100
AcDbEntity
  8
0
  6
Continuous
 62
     7
370
    15
100
AcDbLine
 10
154.7664502177
 20
189.5896871423
 30
0.0
 11
154.7664502177
 21
238.5896871423
 31
0.0
  0
LINE
  5
104
330
1F
100
AcDbEntity
  8
0
  6
Continuous
 62
     7
370
    15
100
AcDbLine
 10
156.3276997173
 20
189.5896871423
 30
0.0
 11
154.7664502177
 21
189.5896871423
 31
0.0
  0
LINE
  5
105
330
1F
100
AcDbEntity
  8
0
  6
Continuous
 62
     7
370
    15
100
AcDbLine
 10
145.0524575438
 20
228.2746656268
 30
0.0
 11
145.8524575438
 21
228.2746656268
 31
0.0
  0
LINE
  5
106
330
1F
100
AcDbEntity
  8
0
  6
Continuous
 62
     7
370
    15
100
AcDbLine
 10
145.8721873202
 20
228.2896871423
 30
0.0
 11
145.0365445088
 21
228.2896871423
 31
0.0
  0
LINE
  5
107
330
1F
100
AcDbEntity
  8
0
  6
Continuous
 62
     7
370
    15
100
AcDbLine
 10
158.0327277674
 20
199.8896871423
 30
0.0
 11
158.8683705788
 21
199.8896871423
 31
0.0
  0
LINE
  5
108
330
1F
100
AcDbEntity
  8
0
  6
Continuous
 62
     7
370
    15
100
AcDbLine
 10
158.8591613931
 20
199.9047086578
 30
0.0
 11
158.0524575438
 21
199.9047086578
 31
0.0
  0
LINE
  5
109
330
1F
100
AcDbEntity
  8
0
  6
Continuous
 62
     7
370
    15
100
AcDbLine
 10
145.0327277674
 20
199.8896871423
 30
0.0
 11
145.8683705788
 21
199.8896871423
 31
0.0
  0
LINE
  5
10A
330
1F
100
AcDbEntity
  8
0
  6
Continuous
 62
     7
370
    15
100
AcDbLine
 10
145.8591613931
 20
199.9047086578
 30
0.0
 11
145.0524575438
 21
199.9047086578
 31
0.0
  0
LINE
  5
10B
330
1F
100
AcDbEntity
  8
0
  6
Continuous
 62
     7
370
    15
100
AcDbLine
 10
158.8721873202
 20
228.2896871423
 30
0.0
 11
158.0365445088
 21
228.2896871423
 31
0.0
  0
LINE
  5
10C
330
1F
100
AcDbEntity
  8
0
  6
Continuous
 62
     7
370
    15
100
AcDbLine
 10
158.0524575438
 20
228.2746656268
 30
0.0
 11
158.8524575438
 21
228.2746656268
 31
0.0
  0
LINE
  5
10D
330
1F
100
AcDbEntity
  8
0
  6
Continuous
 62
     7
370
    15
100
AcDbLine
 10
139.2037437298
 20
238.5896871423
 30
0.0
 11
139.2037437298
 21
189.5896871423
 31
0.0
  0
LINE
  5
10E
330
1F
100
AcDbEntity
  8
0
  6
Continuous
 62
     7
370
    15
100
AcDbLine
 10
140.5707897979
 20
238.5896871423
 30
0.0
 11
139.2037437298
 21
238.5896871423
 31
0.0
  0
LINE
  5
10F
330
1F
100
AcDbEntity
  8
0
  6
Continuous
 62
     7
370
    15
100
AcDbLine
 10
164.7011713579
 20
238.5896871423
 30
0.0
 11
164.7011713579
 21
189.5896871423
 31
0.0
  0
LINE
  5
110
330
1F
100
AcDbEntity
  8
0
  6
Continuous
 62
     7
370
    15
100
AcDbLine
 10
164.7011713579
 20
238.5896871423
 30
0.0
 11
163.3341252897
 21
238.5896871423
 31
0.0
  0
LINE
  5
111
330
1F
100
AcDbEntity
  8
0
  6
Continuous
 62
     7
370
    15
100
AcDbLine
 10
149.1384648699
 20
189.5896871423
 30
0.0
 11
154.7664502177
 21
189.5896871423
 31
0.0
  0
LINE
  5
112
330
1F
100
AcDbEntity
  8
0
  6
Continuous
 62
     7
370
    15
100
AcDbLine
 10
165.6960540095
 20
238.5896871423
 30
0.0
 11
165.6960540095
 21
189.5896871423
 31
0.0
  0
LINE
  5
113
330
1F
100
AcDbEntity
  8
0
  6
Continuous
 62
     7
370
    15
100
AcDbLine
 10
165.3968669895
 20
189.5896871423
 30
0.0
 11
165.3968669895
 21
238.5896871423
 31
0.0
  0
LINE
  5
114
330
1F
100
AcDbEntity
  8
0
  6
Continuous
 62
     7
370
    15
100
AcDbLine
 10
165.3968669895
 20
238.5896871423
 30
0.0
 11
165.6960540095
 21
238.5896871423
 31
0.0
  0
LINE
  5
115
330
1F
100
AcDbEntity
  8
0
  6
Continuous
 62
     7
370
    15
100
AcDbLine
 10
138.5080480981
 20
238.5896871423
 30
0.0
 11
138.5080480981
 21
189.5896871423
 31
0.0
  0
LINE
  5
116
330
1F
100
AcDbEntity
  8
0
  6
Continuous
 62
     7
370
    15
100
AcDbLine
 10
138.2088610781
 20
189.5896871423
 30
0.0
 11
138.2088610781
 21
238.5896871423
 31
0.0
  0
LINE
  5
117
330
1F
100
AcDbEntity
  8
0
  6
Continuous
 62
     7
370
    15
100
AcDbLine
 10
138.2088610781
 20
238.5896871423
 30
0.0
 11
138.5080480981
 21
238.5896871423
 31
0.0
  0
LINE
  5
118
330
1F
100
AcDbEntity
  8
0
  6
Continuous
 62
     7
370
    15
100
AcDbLine
 10
165.3968669895
 20
238.5896871423
 30
0.0
 11
164.7011713579
 21
238.5896871423
 31
0.0
  0
LINE
  5
119
330
1F
100
AcDbEntity
  8
0
  6
Continuous
 62
     7
370
    15
100
AcDbLine
 10
139.2037437298
 20
238.5896871423
 30
0.0
 11
138.5080480981
 21
238.5896871423
 31
0.0
  0
LINE
  5
11A
330
1F
100
AcDbEntity
  8
0
  6
Continuous
 62
     7
370
    15
100
AcDbLine
 10
166.1524575438
 20
238.5896871423
 30
0.0
 11
166.1524575438
 21
189.5896871423
 31
0.0
  0
LINE
  5
11B
330
1F
100
AcDbEntity
  8
0
  6
Continuous
 62
     7
370
    15
100
AcDbLine
 10
165.6960540095
 20
238.5896871423
 30
0.0
 11
166.1524575438
 21
238.5896871423
 31
0.0
  0
LINE
  5
11C
330
1F
100
AcDbEntity
  8
0
  6
Continuous
 62
     7
370
    15
100
AcDbLine
 10
165.6960540095
 20
189.5896871423
 30
0.0
 11
166.1524575438
 21
189.5896871423
 31
0.0
  0
LINE
  5
11D
330
1F
100
AcDbEntity
  8
0
  6
Continuous
 62
     7
370
    15
100
AcDbLine
 10
137.7524575438
 20
238.5896871423
 30
0.0
 11
137.7524575438
 21
189.5896871423
 31
0.0
  0
LINE
  5
11E
330
1F
100
AcDbEntity
  8
0
  6
Continuous
 62
     7
370
    15
100
AcDbLine
 10
137.7524575438
 20
238.5896871423
 30
0.0
 11
138.2088610781
 21
238.5896871423
 31
0.0
  0
LINE
  5
11F
330
1F
100
AcDbEntity
  8
0
  6
Continuous
 62
     7
370
    15
100
AcDbLine
 10
137.7524575438
 20
189.5896871423
 30
0.0
 11
138.2088610781
 21
189.5896871423
 31
0.0
  0
LINE
  5
120
330
1F
100
AcDbEntity
  8
0
  6
Continuous
 62
     7
370
    15
100
AcDbLine
 10
137.7524575438
 20
211.5896871423
 30
0.0
 11
137.4967120377
 21
211.5896871423
 31
0.0
  0
LINE
  5
121
330
1F
100
AcDbEntity
  8
0
  6
Continuous
 62
     7
370
    15
100
AcDbLine
 10
137.7524575438
 20
189.5896871423
 30
0.0
 11
137.4967120377
 21
189.5896871423
 31
0.0
  0
LINE
  5
122
330
1F
100
AcDbEntity
  8
0
  6
Continuous
 62
     7
370
    15
100
AcDbLine
 10
166.4082030499
 20
211.5896871423
 30
0.0
 11
166.1524575438
 21
211.5896871423
 31
0.0
  0
LINE
  5
123
330
1F
100
AcDbEntity
  8
0
  6
Continuous
 62
     7
370
    15
100
AcDbLine
 10
166.4082030499
 20
189.5896871423
 30
0.0
 11
166.1524575438
 21
189.5896871423
 31
0.0
  0
LINE
  5
124
330
1F
100
AcDbEntity
  8
0
  6
Continuous
 62
     7
370
    15
100
AcDbLine
 10
174.9524575438
 20
210.5896871423
 30
0.0
 11
173.9524575438
 21
211.5896871423
 31
0.0
  0
LINE
  5
125
330
1F
100
AcDbEntity
  8
0
  6
Continuous
 62
     7
370
    15
100
AcDbLine
 10
174.9524575438
 20
190.5896871423
 30
0.0
 11
174.9524575438
 21
210.5896871423
 31
0.0
  0
LINE
  5
126
330
1F
100
AcDbEntity
  8
0
  6
Continuous
 62
     7
370
    15
100
AcDbLine
 10
173.9524575438
 20
189.5896871423
 30
0.0
 11
174.9524575438
 21
190.5896871423
 31
0.0
  0
LINE
  5
127
330
1F
100
AcDbEntity
  8
0
  6
Continuous
 62
     7
370
    15
100
AcDbLine
 10
173.2024575438
 20
207.0896871423
 30
0.0
 11
173.2024575438
 21
202.0896871423
 31
0.0
  0
ARC
  5
128
330
1F
100
AcDbEntity
  8
0
  6
Continuous
 62
     7
370
    15
100
AcDbCircle
 10
170.9524575438
 20
207.0896871423
 30
0.0
 40
2.25
100
AcDbArc
 50
0.0
 51
180.0
  0
LINE
  5
129
330
1F
100
AcDbEntity
  8
0
  6
Continuous
 62
     7
370
    15
100
AcDbLine
 10
168.7024575438
 20
202.0896871423
 30
0.0
 11
168.7024575438
 21
207.0896871423
 31
0.0
  0
ARC
  5
12A
330
1F
100
AcDbEntity
  8
0
  6
Continuous
 62
     7
370
    15
100
AcDbCircle
 10
170.9524575438
 20
202.0896871423
 30
0.0
 40
2.25
100
AcDbArc
 50
180.0
 51
0.0
  0
LINE
  5
12B
330
1F
100
AcDbEntity
  8
0
  6
Continuous
 62
     7
370
    15
100
AcDbLine
 10
166.4082030499
 20
211.5896871423
 30
0.0
 11
173.9524575438
 21
211.5896871423
 31
0.0
  0
LINE
  5
12C
330
1F
100
AcDbEntity
  8
0
  6
Continuous
 62
     7
370
    15
100
AcDbLine
 10
173.9524575438
 20
189.5896871423
 30
0.0
 11
166.4082030499
 21
189.5896871423
 31
0.0
  0
LINE
  5
12D
330
1F
100
AcDbEntity
  8
0
  6
Continuous
 62
     7
370
    15
100
AcDbLine
 10
129.9524575438
 20
211.5896871423
 30
0.0
 11
128.9524575438
 21
210.5896871423
 31
0.0
  0
LINE
  5
12E
330
1F
100
AcDbEntity
  8
0
  6
Continuous
 62
     7
370
    15
100
AcDbLine
 10
128.9524575438
 20
190.5896871423
 30
0.0
 11
129.9524575438
 21
189.5896871423
 31
0.0
  0
LINE
  5
12F
330
1F
100
AcDbEntity
  8
0
  6
Continuous
 62
     7
370
    15
100
AcDbLine
 10
130.7024575438
 20
202.0896871423
 30
0.0
 11
130.7024575438
 21
207.0896871423
 31
0.0
  0
ARC
  5
130
330
1F
100
AcDbEntity
  8
0
  6
Continuous
 62
     7
370
    15
100
AcDbCircle
 10
132.9524575438
 20
207.0896871423
 30
0.0
 40
2.250000000000028
100
AcDbArc
 50
0.0
 51
180.0
  0
LINE
  5
131
330
1F
100
AcDbEntity
  8
0
  6
Continuous
 62
     7
370
    15
100
AcDbLine
 10
135.2024575438
 20
207.0896871423
 30
0.0
 11
135.2024575438
 21
202.0896871423
 31
0.0
  0
ARC
  5
132
330
1F
100
AcDbEntity
  8
0
  6
Continuous
 62
     7
370
    15
100
AcDbCircle
 10
132.9524575438
 20
202.0896871423
 30
0.0
 40
2.25
100
AcDbArc
 50
180.0
 51
0.0
  0
LINE
  5
133
330
1F
100
AcDbEntity
  8
0
  6
Continuous
 62
     7
370
    15
100
AcDbLine
 10
129.9524575438
 20
211.5896871423
 30
0.0
 11
137.4967120377
 21
211.5896871423
 31
0.0
  0
LINE
  5
134
330
1F
100
AcDbEntity
  8
0
  6
Continuous
 62
     7
370
    15
100
AcDbLine
 10
137.4967120377
 20
189.5896871423
 30
0.0
 11
129.9524575438
 21
189.5896871423
 31
0.0
  0
LINE
  5
135
330
1F
100
AcDbEntity
  8
0
  6
Continuous
 62
     7
370
    15
100
AcDbLine
 10
175.9524575438
 20
209.5896871423
 30
0.0
 11
175.9524575438
 21
191.5896871423
 31
0.0
  0
LINE
  5
136
330
1F
100
AcDbEntity
  8
0
  6
Continuous
 62
     7
370
    15
100
AcDbLine
 10
174.9524575438
 20
190.5896871423
 30
0.0
 11
175.9524575438
 21
191.5896871423
 31
0.0
  0
LINE
  5
137
330
1F
100
AcDbEntity
  8
0
  6
Continuous
 62
     7
370
    15
100
AcDbLine
 10
175.9524575438
 20
209.5896871423
 30
0.0
 11
174.9524575438
 21
210.5896871423
 31
0.0
  0
LINE
  5
138
330
1F
100
AcDbEntity
  8
0
  6
Continuous
 62
     7
370
    15
100
AcDbLine
 10
128.9524575438
 20
210.5896871423
 30
0.0
 11
127.9524575438
 21
209.5896871423
 31
0.0
  0
LINE
  5
139
330
1F
100
AcDbEntity
  8
0
  6
Continuous
 62
     7
370
    15
100
AcDbLine
 10
127.9524575438
 20
191.5896871423
 30
0.0
 11
128.9524575438
 21
190.5896871423
 31
0.0
  0
LINE
  5
13A
330
1F
100
AcDbEntity
  8
0
  6
Continuous
 62
     7
370
    15
100
AcDbLine
 10
127.9524575438
 20
191.5896871423
 30
0.0
 11
127.9524575438
 21
195.0396871423
 31
0.0
  0
LINE
  5
13B
330
1F
100
AcDbEntity
  8
0
  6
Continuous
 62
     7
370
    15
100
AcDbLine
 10
127.9524575438
 20
198.1396871423
 30
0.0
 11
127.9524575438
 21
209.5896871423
 31
0.0
  0
LINE
  5
13C
330
1F
100
AcDbEntity
  8
0
  6
Continuous
 62
     7
370
    15
100
AcDbLine
 10
166.9524575438
 20
196.2151288593
 30
0.0
 11
169.4524575438
 21
196.2151288594
 31
0.0
  0
LINE
  5
13D
330
1F
100
AcDbEntity
  8
0
  6
Continuous
 62
     7
370
    15
100
AcDbLine
 10
169.4524575438
 20
199.8947789103
 30
0.0
 11
166.9524575438
 21
199.8947789103
 31
0.0
  0
LINE
  5
13E
330
1F
100
AcDbEntity
  8
0
  6
Continuous
 62
     7
370
    15
100
AcDbLine
 10
169.4524575438
 20
199.8947789103
 30
0.0
 11
169.4524575438
 21
196.2151288594
 31
0.0
  0
LINE
  5
13F
330
1F
100
AcDbEntity
  8
0
  6
Continuous
 62
     7
370
    15
100
AcDbLine
 10
166.9524575438
 20
199.8947789103
 30
0.0
 11
166.9524575438
 21
199.8021525436
 31
0.0
  0
LINE
  5
140
330
1F
100
AcDbEntity
  8
0
  6
Continuous
 62
     7
370
    15
100
AcDbLine
 10
166.9524575438
 20
196.307755226
 30
0.0
 11
166.9524575438
 21
196.2151288593
 31
0.0
  0
LINE
  5
141
330
1F
100
AcDbEntity
  8
0
  6
Continuous
 62
     7
370
    15
100
AcDbLine
 10
166.9524575438
 20
192.9100370913
 30
0.0
 11
169.4524575438
 21
192.9100370913
 31
0.0
  0
LINE
  5
142
330
1F
100
AcDbEntity
  8
0
  6
Continuous
 62
     7
370
    15
100
AcDbLine
 10
169.4524575438
 20
196.2151288594
 30
0.0
 11
169.4524575438
 21
192.9100370913
 31
0.0
  0
LINE
  5
143
330
1F
100
AcDbEntity
  8
0
  6
Continuous
 62
     7
370
    15
100
AcDbLine
 10
166.9524575438
 20
196.2151288593
 30
0.0
 11
166.9524575438
 21
196.1319310992
 31
0.0
  0
LINE
  5
144
330
1F
100
AcDbEntity
  8
0
  6
Continuous
 62
     7
370
    15
100
AcDbLine
 10
166.9524575438
 20
192.9932348514
 30
0.0
 11
166.9524575438
 21
192.9100370913
 31
0.0
  0
LINE
  5
145
330
1F
100
AcDbEntity
  8
0
  6
Continuous
 62
     7
370
    15
100
AcDbLine
 10
166.9524575438
 20
200.2693371933
 30
0.0
 11
169.4524575438
 21
200.2693371933
 31
0.0
  0
LINE
  5
146
330
1F
100
AcDbEntity
  8
0
  6
Continuous
 62
     7
370
    15
100
AcDbLine
 10
169.4524575438
 20
200.2693371933
 30
0.0
 11
169.4524575438
 21
199.8947789103
 31
0.0
  0
LINE
  5
147
330
1F
100
AcDbEntity
  8
0
  6
Continuous
 62
     7
370
    15
100
AcDbLine
 10
166.9524575438
 20
199.9042075169
 30
0.0
 11
166.9524575438
 21
199.8947789103
 31
0.0
  0
LINE
  5
148
330
1F
100
AcDbEntity
  8
0
  6
Continuous
 62
     7
370
    15
100
AcDbLine
 10
146.5881415637
 20
186.5896871423
 30
0.0
 11
144.3167735239
 21
186.5896871423
 31
0.0
  0
LINE
  5
149
330
1F
100
AcDbEntity
  8
0
  6
Continuous
 62
     7
370
    15
100
AcDbLine
 10
145.9780878506
 20
195.8896871423
 30
0.0
 11
144.926827237
 21
195.8896871423
 31
0.0
  0
LINE
  5
14A
330
1F
100
AcDbEntity
  8
0
  6
Continuous
 62
     7
370
    15
100
AcDbLine
 10
145.0398805587
 20
196.0896871423
 30
0.0
 11
145.8650345289
 21
196.0896871423
 31
0.0
  0
LINE
  5
14B
330
1F
100
AcDbEntity
  8
0
  6
Continuous
 62
     7
370
    15
100
AcDbLine
 10
159.5881415637
 20
186.5896871423
 30
0.0
 11
157.3167735239
 21
186.5896871423
 31
0.0
  0
LINE
  5
14C
330
1F
100
AcDbEntity
  8
0
  6
Continuous
 62
     7
370
    15
100
AcDbLine
 10
158.9780878506
 20
195.8896871423
 30
0.0
 11
157.926827237
 21
195.8896871423
 31
0.0
  0
LINE
  5
14D
330
1F
100
AcDbEntity
  8
0
  6
Continuous
 62
     7
370
    15
100
AcDbLine
 10
158.0398805587
 20
196.0896871423
 30
0.0
 11
158.8650345289
 21
196.0896871423
 31
0.0
  0
ARC
  5
14E
330
1F
100
AcDbEntity
  8
0
  6
Continuous
 62
     7
370
    15
100
AcDbCircle
 10
154.6524575438
 20
175.2896871423
 30
0.0
 40
13.99999999999984
100
AcDbArc
 50
53.8177127788
 51
55.2280559681
  0
LINE
  5
14F
330
1F
100
AcDbEntity
  8
0
  6
Continuous
 62
     7
370
    15
100
AcDbLine
 10
162.6368172552
 20
186.7896871423
 30
0.0
 11
162.6368172552
 21
189.5896871423
 31
0.0
  0
LINE
  5
150
330
1F
100
AcDbEntity
  8
0
  6
Continuous
 62
     7
370
    15
100
AcDbLine
 10
162.6368172552
 20
189.5896871423
 30
0.0
 11
166.1524575438
 21
189.5896871423
 31
0.0
  0
LINE
  5
151
330
1F
100
AcDbEntity
  8
0
  6
Continuous
 62
     7
370
    15
100
AcDbLine
 10
166.1524575438
 20
186.7896871423
 30
0.0
 11
166.1524575438
 21
189.5896871423
 31
0.0
  0
LINE
  5
152
330
1F
100
AcDbEntity
  8
0
  6
Continuous
 62
     7
370
    15
100
AcDbLine
 10
165.9524575438
 20
186.5896871423
 30
0.0
 11
166.1524575438
 21
186.7896871423
 31
0.0
  0
LINE
  5
153
330
1F
100
AcDbEntity
  8
0
  6
Continuous
 62
     7
370
    15
100
AcDbLine
 10
162.9174439322
 20
186.5896871423
 30
0.0
 11
165.9524575438
 21
186.5896871423
 31
0.0
  0
LINE
  5
154
330
1F
100
AcDbEntity
  8
0
  6
Continuous
 62
     7
370
    15
100
AcDbLine
 10
142.7024575438
 20
186.5896871423
 30
0.0
 11
140.9874711554
 21
186.5896871423
 31
0.0
  0
ARC
  5
155
330
1F
100
AcDbEntity
  8
0
  6
Continuous
 62
     7
370
    15
100
AcDbCircle
 10
149.2524575438
 20
175.2896871423
 30
0.0
 40
13.99999999999984
100
AcDbArc
 50
124.7719440319
 51
126.1822872212
  0
LINE
  5
156
330
1F
100
AcDbEntity
  8
0
  6
Continuous
 62
     7
370
    15
100
AcDbLine
 10
141.2680978325
 20
186.7896871423
 30
0.0
 11
142.7024575438
 21
186.7896871423
 31
0.0
  0
LINE
  5
157
330
1F
100
AcDbEntity
  8
0
  6
Continuous
 62
     7
370
    15
100
AcDbLine
 10
142.7024575438
 20
186.7896871423
 30
0.0
 11
142.7024575438
 21
186.5896871423
 31
0.0
  0
LINE
  5
158
330
1F
100
AcDbEntity
  8
0
  6
Continuous
 62
     7
370
    15
100
AcDbLine
 10
161.2024575438
 20
186.7896871423
 30
0.0
 11
162.6368172552
 21
186.7896871423
 31
0.0
  0
LINE
  5
159
330
1F
100
AcDbEntity
  8
0
  6
Continuous
 62
     7
370
    15
100
AcDbLine
 10
161.2024575438
 20
188.0896871423
 30
0.0
 11
161.2024575438
 21
186.7896871423
 31
0.0
  0
LINE
  5
15A
330
1F
100
AcDbEntity
  8
0
  6
Continuous
 62
     7
370
    15
100
AcDbLine
 10
157.8889492169
 20
189.5896871423
 30
0.0
 11
157.8889492169
 21
188.0896871423
 31
0.0
  0
LINE
  5
15B
330
1F
100
AcDbEntity
  8
0
  6
Continuous
 62
     7
370
    15
100
AcDbLine
 10
162.6368172552
 20
189.5896871423
 30
0.0
 11
157.8889492169
 21
189.5896871423
 31
0.0
  0
LINE
  5
15C
330
1F
100
AcDbEntity
  8
0
  6
Continuous
 62
     7
370
    15
100
AcDbLine
 10
161.2024575438
 20
188.0896871423
 30
0.0
 11
157.8889492169
 21
188.0896871423
 31
0.0
  0
LINE
  5
15D
330
1F
100
AcDbEntity
  8
0
  6
Continuous
 62
     7
370
    15
100
AcDbLine
 10
137.7524575438
 20
189.5896871423
 30
0.0
 11
141.2680978325
 21
189.5896871423
 31
0.0
  0
LINE
  5
15E
330
1F
100
AcDbEntity
  8
0
  6
Continuous
 62
     7
370
    15
100
AcDbLine
 10
141.2680978325
 20
186.7896871423
 30
0.0
 11
141.2680978325
 21
189.5896871423
 31
0.0
  0
LINE
  5
15F
330
1F
100
AcDbEntity
  8
0
  6
Continuous
 62
     7
370
    15
100
AcDbLine
 10
137.9524575438
 20
186.5896871423
 30
0.0
 11
140.9874711554
 21
186.5896871423
 31
0.0
  0
LINE
  5
160
330
1F
100
AcDbEntity
  8
0
  6
Continuous
 62
     7
370
    15
100
AcDbLine
 10
137.7524575438
 20
186.7896871423
 30
0.0
 11
137.9524575438
 21
186.5896871423
 31
0.0
  0
LINE
  5
161
330
1F
100
AcDbEntity
  8
0
  6
Continuous
 62
     7
370
    15
100
AcDbLine
 10
137.7524575438
 20
186.7896871423
 30
0.0
 11
137.7524575438
 21
189.5896871423
 31
0.0
  0
LINE
  5
162
330
1F
100
AcDbEntity
  8
0
  6
Continuous
 62
     7
370
    15
100
AcDbLine
 10
162.9174439322
 20
186.5896871423
 30
0.0
 11
161.2024575438
 21
186.5896871423
 31
0.0
  0
LINE
  5
163
330
1F
100
AcDbEntity
  8
0
  6
Continuous
 62
     7
370
    15
100
AcDbLine
 10
161.2024575438
 20
186.5896871423
 30
0.0
 11
161.2024575438
 21
186.7896871423
 31
0.0
  0
LINE
  5
164
330
1F
100
AcDbEntity
  8
0
  6
Continuous
 62
     7
370
    15
100
AcDbLine
 10
146.0159658707
 20
188.0896871423
 30
0.0
 11
146.0159658707
 21
189.5896871423
 31
0.0
  0
LINE
  5
165
330
1F
100
AcDbEntity
  8
0
  6
Continuous
 62
     7
370
    15
100
AcDbLine
 10
146.0159658707
 20
189.5896871423
 30
0.0
 11
141.2680978325
 21
189.5896871423
 31
0.0
  0
LINE
  5
166
330
1F
100
AcDbEntity
  8
0
  6
Continuous
 62
     7
370
    15
100
AcDbLine
 10
142.7024575438
 20
188.0896871423
 30
0.0
 11
142.7024575438
 21
186.7896871423
 31
0.0
  0
LINE
  5
167
330
1F
100
AcDbEntity
  8
0
  6
Continuous
 62
     7
370
    15
100
AcDbLine
 10
146.0159658707
 20
188.0896871423
 30
0.0
 11
142.7024575438
 21
188.0896871423
 31
0.0
  0
LINE
  5
168
330
1F
100
AcDbEntity
  8
0
  6
Continuous
 62
     7
370
    15
100
AcDbLine
 10
147.5772153703
 20
188.0896871423
 30
0.0
 11
147.5772153703
 21
189.5896871423
 31
0.0
  0
LINE
  5
169
330
1F
100
AcDbEntity
  8
0
  6
Continuous
 62
     7
370
    15
100
AcDbLine
 10
146.0159658707
 20
189.5896871423
 30
0.0
 11
147.5772153703
 21
189.5896871423
 31
0.0
  0
LINE
  5
16A
330
1F
100
AcDbEntity
  8
0
  6
Continuous
 62
     7
370
    15
100
AcDbLine
 10
147.5772153703
 20
188.0896871423
 30
0.0
 11
146.0159658707
 21
188.0896871423
 31
0.0
  0
LINE
  5
16B
330
1F
100
AcDbEntity
  8
0
  6
Continuous
 62
     7
370
    15
100
AcDbLine
 10
156.3276997173
 20
189.5896871423
 30
0.0
 11
156.3276997173
 21
188.0896871423
 31
0.0
  0
LINE
  5
16C
330
1F
100
AcDbEntity
  8
0
  6
Continuous
 62
     7
370
    15
100
AcDbLine
 10
156.3276997173
 20
189.5896871423
 30
0.0
 11
157.8889492169
 21
189.5896871423
 31
0.0
  0
LINE
  5
16D
330
1F
100
AcDbEntity
  8
0
  6
Continuous
 62
     7
370
    15
100
AcDbLine
 10
157.8889492169
 20
188.0896871423
 30
0.0
 11
156.3276997173
 21
188.0896871423
 31
0.0
  0
LINE
  5
16E
330
1F
100
AcDbEntity
  8
0
  6
Continuous
 62
     7
370
    15
100
AcDbLine
 10
149.1384648699
 20
189.5896871423
 30
0.0
 11
149.1384648699
 21
188.0896871423
 31
0.0
  0
LINE
  5
16F
330
1F
100
AcDbEntity
  8
0
  6
Continuous
 62
     7
370
    15
100
AcDbLine
 10
149.1384648699
 20
188.0896871423
 30
0.0
 11
147.5772153703
 21
188.0896871423
 31
0.0
  0
LINE
  5
170
330
1F
100
AcDbEntity
  8
0
  6
Continuous
 62
     7
370
    15
100
AcDbLine
 10
154.7664502177
 20
188.0896871423
 30
0.0
 11
154.7664502177
 21
189.5896871423
 31
0.0
  0
LINE
  5
171
330
1F
100
AcDbEntity
  8
0
  6
Continuous
 62
     7
370
    15
100
AcDbLine
 10
156.3276997173
 20
188.0896871423
 30
0.0
 11
154.7664502177
 21
188.0896871423
 31
0.0
  0
LINE
  5
172
330
1F
100
AcDbEntity
  8
0
  6
Continuous
 62
     7
370
    15
100
AcDbLine
 10
148.1963396274
 20
186.5896871423
 30
0.0
 11
148.1963396274
 21
188.0896871423
 31
0.0
  0
LINE
  5
173
330
1F
100
AcDbEntity
  8
0
  6
Continuous
 62
     7
370
    15
100
AcDbLine
 10
149.1941149306
 20
188.0896871423
 30
0.0
 11
149.1941149306
 21
186.5896871423
 31
0.0
  0
LINE
  5
174
330
1F
100
AcDbEntity
  8
0
  6
Continuous
 62
     7
370
    15
100
AcDbLine
 10
149.1941149306
 20
186.5896871423
 30
0.0
 11
148.1963396274
 21
186.5896871423
 31
0.0
  0
LINE
  5
175
330
1F
100
AcDbEntity
  8
0
  6
Continuous
 62
     7
370
    15
100
AcDbLine
 10
155.7085754602
 20
188.0896871423
 30
0.0
 11
155.7085754602
 21
186.5896871423
 31
0.0
  0
LINE
  5
176
330
1F
100
AcDbEntity
  8
0
  6
Continuous
 62
     7
370
    15
100
AcDbLine
 10
154.710800157
 20
186.5896871423
 30
0.0
 11
154.710800157
 21
188.0896871423
 31
0.0
  0
LINE
  5
177
330
1F
100
AcDbEntity
  8
0
  6
Continuous
 62
     7
370
    15
100
AcDbLine
 10
155.7085754602
 20
186.5896871423
 30
0.0
 11
154.710800157
 21
186.5896871423
 31
0.0
  0
LINE
  5
178
330
1F
100
AcDbEntity
  8
0
  6
Continuous
 62
     7
370
    15
100
AcDbLine
 10
149.1941149306
 20
186.5896871423
 30
0.0
 11
154.710800157
 21
186.5896871423
 31
0.0
  0
LINE
  5
179
330
1F
100
AcDbEntity
  8
0
  6
Continuous
 62
     7
370
    15
100
AcDbLine
 10
154.710800157
 20
188.0896871423
 30
0.0
 11
154.7664502177
 21
188.0896871423
 31
0.0
  0
LINE
  5
17A
330
1F
100
AcDbEntity
  8
0
  6
Continuous
 62
     7
370
    15
100
AcDbLine
 10
149.1384648699
 20
188.0896871423
 30
0.0
 11
149.1941149306
 21
188.0896871423
 31
0.0
  0
LINE
  5
17B
330
1F
100
AcDbEntity
  8
0
  6
Continuous
 62
     7
370
    15
100
AcDbLine
 10
142.7024575438
 20
186.5896871423
 30
0.0
 11
144.3167735239
 21
186.5896871423
 31
0.0
  0
LINE
  5
17C
330
1F
100
AcDbEntity
  8
0
  6
Continuous
 62
     7
370
    15
100
AcDbLine
 10
146.5881415637
 20
186.5896871423
 30
0.0
 11
148.1963396274
 21
186.5896871423
 31
0.0
  0
LINE
  5
17D
330
1F
100
AcDbEntity
  8
0
  6
Continuous
 62
     7
370
    15
100
AcDbLine
 10
155.7085754602
 20
186.5896871423
 30
0.0
 11
157.3167735239
 21
186.5896871423
 31
0.0
  0
LINE
  5
17E
330
1F
100
AcDbEntity
  8
0
  6
Continuous
 62
     7
370
    15
100
AcDbLine
 10
159.5881415637
 20
186.5896871423
 30
0.0
 11
161.2024575438
 21
186.5896871423
 31
0.0
  0
LINE
  5
17F
330
1F
100
AcDbEntity
  8
0
  6
Continuous
 62
     7
370
    15
100
AcDbLine
 10
158.3368758072
 20
241.5896871423
 30
0.0
 11
159.5881415637
 21
241.5896871423
 31
0.0
  0
LINE
  5
180
330
1F
100
AcDbEntity
  8
0
  6
Continuous
 62
     7
370
    15
100
AcDbLine
 10
157.3167735239
 20
241.5896871423
 30
0.0
 11
158.3368758072
 21
241.5896871423
 31
0.0
  0
LINE
  5
181
330
1F
100
AcDbEntity
  8
0
  6
Continuous
 62
     7
370
    15
100
AcDbLine
 10
158.3252415505
 20
232.2896871423
 30
0.0
 11
159.7024575438
 21
232.2896871423
 31
0.0
  0
LINE
  5
182
330
1F
100
AcDbEntity
  8
0
  6
Continuous
 62
     7
370
    15
100
AcDbLine
 10
157.926827237
 20
232.2896871423
 30
0.0
 11
158.3252415505
 21
232.2896871423
 31
0.0
  0
LINE
  5
183
330
1F
100
AcDbEntity
  8
0
  6
Continuous
 62
     7
370
    15
100
AcDbLine
 10
158.3455961094
 20
232.0896871423
 30
0.0
 11
158.0398805587
 21
232.0896871423
 31
0.0
  0
LINE
  5
184
330
1F
100
AcDbEntity
  8
0
  6
Continuous
 62
     7
370
    15
100
AcDbLine
 10
158.8650345289
 20
232.0896871423
 30
0.0
 11
158.3455961094
 21
232.0896871423
 31
0.0
  0
LINE
  5
185
330
1F
100
AcDbEntity
  8
0
  6
Continuous
 62
     7
370
    15
100
AcDbLine
 10
145.3368758072
 20
241.5896871423
 30
0.0
 11
146.5881415637
 21
241.5896871423
 31
0.0
  0
LINE
  5
186
330
1F
100
AcDbEntity
  8
0
  6
Continuous
 62
     7
370
    15
100
AcDbLine
 10
144.3167735239
 20
241.5896871423
 30
0.0
 11
145.3368758072
 21
241.5896871423
 31
0.0
  0
LINE
  5
187
330
1F
100
AcDbEntity
  8
0
  6
Continuous
 62
     7
370
    15
100
AcDbLine
 10
145.3252415505
 20
232.2896871423
 30
0.0
 11
146.7024575438
 21
232.2896871423
 31
0.0
  0
LINE
  5
188
330
1F
100
AcDbEntity
  8
0
  6
Continuous
 62
     7
370
    15
100
AcDbLine
 10
144.926827237
 20
232.2896871423
 30
0.0
 11
145.3252415505
 21
232.2896871423
 31
0.0
  0
LINE
  5
189
330
1F
100
AcDbEntity
  8
0
  6
Continuous
 62
     7
370
    15
100
AcDbLine
 10
145.3455961094
 20
232.0896871423
 30
0.0
 11
145.0398805587
 21
232.0896871423
 31
0.0
  0
LINE
  5
18A
330
1F
100
AcDbEntity
  8
0
  6
Continuous
 62
     7
370
    15
100
AcDbLine
 10
145.8650345289
 20
232.0896871423
 30
0.0
 11
145.3455961094
 21
232.0896871423
 31
0.0
  0
LINE
  5
18B
330
1F
100
AcDbEntity
  8
0
  6
Continuous
 62
     7
370
    15
100
AcDbLine
 10
134.4524575438
 20
196.5875065626
 30
0.0
 11
136.9524575438
 21
196.5875065626
 31
0.0
  0
LINE
  5
18C
330
1F
100
AcDbEntity
  8
0
  6
Continuous
 62
     7
370
    15
100
AcDbLine
 10
134.4524575438
 20
196.5875065626
 30
0.0
 11
134.4524575438
 21
200.0959992294
 31
0.0
  0
LINE
  5
18D
330
1F
100
AcDbEntity
  8
0
  6
Continuous
 62
     7
370
    15
100
AcDbLine
 10
136.9524575438
 20
200.0959992294
 30
0.0
 11
134.4524575438
 21
200.0959992294
 31
0.0
  0
LINE
  5
18E
330
1F
100
AcDbEntity
  8
0
  6
Continuous
 62
     7
370
    15
100
AcDbLine
 10
136.9524575438
 20
196.5875065626
 30
0.0
 11
136.9524575438
 21
196.6758244526
 31
0.0
  0
LINE
  5
18F
330
1F
100
AcDbEntity
  8
0
  6
Continuous
 62
     7
370
    15
100
AcDbLine
 10
136.9524575438
 20
200.0076813394
 30
0.0
 11
136.9524575438
 21
200.0959992294
 31
0.0
  0
LINE
  5
190
330
1F
100
AcDbEntity
  8
0
  6
Continuous
 62
     7
370
    15
100
AcDbLine
 10
136.9524575438
 20
193.0811944756
 30
0.0
 11
134.4524575438
 21
193.0811944755
 31
0.0
  0
LINE
  5
191
330
1F
100
AcDbEntity
  8
0
  6
Continuous
 62
     7
370
    15
100
AcDbLine
 10
134.4524575438
 20
193.0811944755
 30
0.0
 11
134.4524575438
 21
196.5875065626
 31
0.0
  0
LINE
  5
192
330
1F
100
AcDbEntity
  8
0
  6
Continuous
 62
     7
370
    15
100
AcDbLine
 10
136.9524575438
 20
193.0811944756
 30
0.0
 11
136.9524575438
 21
193.1694574746
 31
0.0
  0
LINE
  5
193
330
1F
100
AcDbEntity
  8
0
  6
Continuous
 62
     7
370
    15
100
AcDbLine
 10
136.9524575438
 20
196.4992435635
 30
0.0
 11
136.9524575438
 21
196.5875065626
 31
0.0
  0
LINE
  5
194
330
1F
100
AcDbEntity
  8
0
  6
Continuous
 62
     7
370
    15
100
AcDbLine
 10
136.9524575438
 20
200.098179809
 30
0.0
 11
134.4524575438
 21
200.098179809
 31
0.0
  0
LINE
  5
195
330
1F
100
AcDbEntity
  8
0
  6
Continuous
 62
     7
370
    15
100
AcDbLine
 10
134.4524575438
 20
200.0959992294
 30
0.0
 11
134.4524575438
 21
200.098179809
 31
0.0
  0
LINE
  5
196
330
1F
100
AcDbEntity
  8
0
  6
Continuous
 62
     7
370
    15
100
AcDbLine
 10
136.9524575438
 20
200.0959992294
 30
0.0
 11
136.9524575438
 21
200.0960541203
 31
0.0
  0
LINE
  5
197
330
1F
100
AcDbEntity
  8
0
  6
Continuous
 62
     7
370
    15
100
AcDbLine
 10
132.4524575438
 20
195.0736717924
 30
0.0
 11
132.4524575438
 21
198.3396871423
 31
0.0
  0
LINE
  5
198
330
1F
100
AcDbEntity
  8
0
  6
Continuous
 62
     7
370
    15
100
AcDbLine
 10
132.4524575438
 20
194.8396871423
 30
0.0
 11
132.4524575438
 21
195.0736717924
 31
0.0
  0
LINE
  5
199
330
1F
100
AcDbEntity
  8
0
  6
Continuous
 62
     7
370
    15
100
AcDbLine
 10
127.4524575438
 20
197.3389876123
 30
0.0
 11
127.4524575438
 21
198.0896871423
 31
0.0
  0
LINE
  5
19A
330
1F
100
AcDbEntity
  8
0
  6
Continuous
 62
     7
370
    15
100
AcDbLine
 10
127.4524575438
 20
195.0896871423
 30
0.0
 11
127.4524575438
 21
197.3389876123
 31
0.0
  0
LINE
  5
19B
330
1F
100
AcDbEntity
  8
0
  6
Continuous
 62
     7
370
    15
100
AcDbLine
 10
129.9524575438
 20
195.0736717924
 30
0.0
 11
129.9524575438
 21
198.3396871423
 31
0.0
  0
LINE
  5
19C
330
1F
100
AcDbEntity
  8
0
  6
Continuous
 62
     7
370
    15
100
AcDbLine
 10
129.9524575438
 20
194.8396871423
 30
0.0
 11
129.9524575438
 21
195.0736717924
 31
0.0
  0
LINE
  5
19D
330
1F
100
AcDbEntity
  8
0
  6
Continuous
 62
     7
370
    15
100
AcDbLine
 10
136.9524575438
 20
192.5896871423
 30
0.0
 11
136.9524575438
 21
193.0811944756
 31
0.0
  0
LINE
  5
19E
330
1F
100
AcDbEntity
  8
0
  6
Continuous
 62
     7
370
    15
100
AcDbLine
 10
136.9524575438
 20
193.1694574746
 30
0.0
 11
136.9524575438
 21
196.4992435635
 31
0.0
  0
LINE
  5
19F
330
1F
100
AcDbEntity
  8
0
  6
Continuous
 62
     7
370
    15
100
AcDbLine
 10
136.9524575438
 20
196.6758244526
 30
0.0
 11
136.9524575438
 21
200.0076813394
 31
0.0
  0
LINE
  5
1A0
330
1F
100
AcDbEntity
  8
0
  6
Continuous
 62
     7
370
    15
100
AcDbLine
 10
136.9524575438
 20
200.098179809
 30
0.0
 11
136.9524575438
 21
200.5896871423
 31
0.0
  0
LINE
  5
1A1
330
1F
100
AcDbEntity
  8
0
  6
Continuous
 62
     7
370
    15
100
AcDbLine
 10
166.9524575438
 20
192.5896871423
 30
0.0
 11
166.9524575438
 21
192.9100370913
 31
0.0
  0
LINE
  5
1A2
330
1F
100
AcDbEntity
  8
0
  6
Continuous
 62
     7
370
    15
100
AcDbLine
 10
166.9524575438
 20
192.9932348514
 30
0.0
 11
166.9524575438
 21
196.1319310992
 31
0.0
  0
LINE
  5
1A3
330
1F
100
AcDbEntity
  8
0
  6
Continuous
 62
     7
370
    15
100
AcDbLine
 10
166.9524575438
 20
196.307755226
 30
0.0
 11
166.9524575438
 21
199.8021525436
 31
0.0
  0
LINE
  5
1A4
330
1F
100
AcDbEntity
  8
0
  6
Continuous
 62
     7
370
    15
100
AcDbLine
 10
166.9524575438
 20
199.8947789103
 30
0.0
 11
166.9524575438
 21
200.5896871423
 31
0.0
  0
LINE
  5
1A5
330
1F
100
AcDbEntity
  8
0
  6
Continuous
 62
     8
370
    15
100
AcDbLine
 10
137.4967120377
 20
189.5896871423
 30
0.0
 11
137.4967120377
 21
192.5896871423
 31
0.0
  0
LINE
  5
1A6
330
1F
100
AcDbEntity
  8
0
  6
Continuous
 62
     8
370
    15
100
AcDbLine
 10
137.4967120377
 20
200.5896871423
 30
0.0
 11
137.4967120377
 21
211.5896871423
 31
0.0
  0
LINE
  5
1A7
330
1F
100
AcDbEntity
  8
0
  6
Continuous
 62
     8
370
    15
100
AcDbLine
 10
166.4082030499
 20
211.5896871423
 30
0.0
 11
166.4082030499
 21
200.5896871423
 31
0.0
  0
LINE
  5
1A8
330
1F
100
AcDbEntity
  8
0
  6
Continuous
 62
     8
370
    15
100
AcDbLine
 10
166.4082030499
 20
192.5896871423
 30
0.0
 11
166.4082030499
 21
189.5896871423
 31
0.0
  0
LINE
  5
1A9
330
1F
100
AcDbEntity
  8
0
  6
Continuous
 62
     8
370
    15
100
AcDbLine
 10
128.9524575438
 20
210.5896871423
 30
0.0
 11
128.9524575438
 21
198.2396871423
 31
0.0
  0
LINE
  5
1AA
330
1F
100
AcDbEntity
  8
0
  6
Continuous
 62
     8
370
    15
100
AcDbLine
 10
128.9524575438
 20
194.9396871423
 30
0.0
 11
128.9524575438
 21
190.5896871423
 31
0.0
  0
LINE
  5
1AB
330
1F
100
AcDbEntity
  8
0
  6
Continuous
 62
     8
370
    15
100
AcDbLine
 10
147.5185446958
 20
187.7949949024
 30
0.0
 11
147.7024575438
 21
187.7949949024
 31
0.0
  0
LINE
  5
1AC
330
1F
100
AcDbEntity
  8
0
  6
Continuous
 62
     8
370
    15
100
AcDbLine
 10
143.2024575438
 20
187.7949949024
 30
0.0
 11
147.5185446958
 21
187.7949949024
 31
0.0
  0
LINE
  5
1AD
330
1F
100
AcDbEntity
  8
0
  6
Continuous
 62
     8
370
    15
100
AcDbLine
 10
147.2956565819
 20
186.9899390651
 30
0.0
 11
143.6092585058
 21
186.9899390651
 31
0.0
  0
LINE
  5
1AE
330
1F
100
AcDbEntity
  8
0
  6
Continuous
 62
     8
370
    15
100
AcDbLine
 10
146.7676675962
 20
186.6871592236
 30
0.0
 11
146.8847410828
 21
186.6871592236
 31
0.0
  0
LINE
  5
1AF
330
1F
100
AcDbEntity
  8
0
  6
Continuous
 62
     8
370
    15
100
AcDbLine
 10
144.0201740049
 20
186.6871592236
 30
0.0
 11
146.7676675962
 21
186.6871592236
 31
0.0
  0
LINE
  5
1B0
330
1F
100
AcDbEntity
  8
0
  6
Continuous
 62
     8
370
    15
100
AcDbLine
 10
160.5185446958
 20
187.7949949024
 30
0.0
 11
160.7024575438
 21
187.7949949024
 31
0.0
  0
LINE
  5
1B1
330
1F
100
AcDbEntity
  8
0
  6
Continuous
 62
     8
370
    15
100
AcDbLine
 10
156.2024575438
 20
187.7949949024
 30
0.0
 11
160.5185446958
 21
187.7949949024
 31
0.0
  0
LINE
  5
1B2
330
1F
100
AcDbEntity
  8
0
  6
Continuous
 62
     8
370
    15
100
AcDbLine
 10
160.2956565819
 20
186.9899390651
 30
0.0
 11
156.6092585058
 21
186.9899390651
 31
0.0
  0
LINE
  5
1B3
330
1F
100
AcDbEntity
  8
0
  6
Continuous
 62
     8
370
    15
100
AcDbLine
 10
159.7676675962
 20
186.6871592236
 30
0.0
 11
159.8847410828
 21
186.6871592236
 31
0.0
  0
LINE
  5
1B4
330
1F
100
AcDbEntity
  8
0
  6
Continuous
 62
     8
370
    15
100
AcDbLine
 10
157.0201740049
 20
186.6871592236
 30
0.0
 11
159.7676675962
 21
186.6871592236
 31
0.0
  0
LINE
  5
1B5
330
1F
100
AcDbEntity
  8
0
  6
Continuous
 62
     8
370
    15
100
AcDbLine
 10
160.7024575438
 20
240.3843793822
 30
0.0
 11
156.2024575438
 21
240.3843793822
 31
0.0
  0
LINE
  5
1B6
330
1F
100
AcDbEntity
  8
0
  6
Continuous
 62
     8
370
    15
100
AcDbLine
 10
158.2648700266
 20
241.1894352195
 30
0.0
 11
160.2956565819
 21
241.1894352195
 31
0.0
  0
LINE
  5
1B7
330
1F
100
AcDbEntity
  8
0
  6
Continuous
 62
     8
370
    15
100
AcDbLine
 10
156.6092585058
 20
241.1894352195
 30
0.0
 11
158.2648700266
 21
241.1894352195
 31
0.0
  0
LINE
  5
1B8
330
1F
100
AcDbEntity
  8
0
  6
Continuous
 62
     8
370
    15
100
AcDbLine
 10
159.8847410828
 20
241.492215061
 30
0.0
 11
157.0201740049
 21
241.492215061
 31
0.0
  0
LINE
  5
1B9
330
1F
100
AcDbEntity
  8
0
  6
Continuous
 62
     8
370
    15
100
AcDbLine
 10
147.7024575438
 20
240.3843793822
 30
0.0
 11
143.2024575438
 21
240.3843793822
 31
0.0
  0
LINE
  5
1BA
330
1F
100
AcDbEntity
  8
0
  6
Continuous
 62
     8
370
    15
100
AcDbLine
 10
145.2648700266
 20
241.1894352195
 30
0.0
 11
147.2956565819
 21
241.1894352195
 31
0.0
  0
LINE
  5
1BB
330
1F
100
AcDbEntity
  8
0
  6
Continuous
 62
     8
370
    15
100
AcDbLine
 10
143.6092585058
 20
241.1894352195
 30
0.0
 11
145.2648700266
 21
241.1894352195
 31
0.0
  0
LINE
  5
1BC
330
1F
100
AcDbEntity
  8
0
  6
Continuous
 62
     8
370
    15
100
AcDbLine
 10
146.8847410828
 20
241.492215061
 30
0.0
 11
144.0201740049
 21
241.492215061
 31
0.0
  0
LINE
  5
1BD
330
1F
100
AcDbEntity
  8
0
  6
Continuous
 62
     7
370
     0
100
AcDbLine
 10
129.5087336425
 20
204.5896871423
 30
0.0
 11
136.4652185667
 21
204.5896871423
 31
0.0
  0
DIMENSION
  5
1BE
330
1F
100
AcDbEntity
  8
0
  6
Continuous
 62
     7
370
     0
100
AcDbDimension
  2
_D
 10
111.4524575438
 20
163.5896871423
 30
0.0
 11
111.4524575438
 21
183.3241089701
 31
0.0
 70
   160
  1
<>
 71
     2
 42
-1.0
  3
SLDDIMSTYLE0
100
AcDbAlignedDimension
 13
129.5087336425
 23
204.5896871423
 33
0.0
 14
148.9524575438
 24
163.5896871423
 34
0.0
 50
90.0
100
AcDbRotatedDimension
  0
DIMENSION
  5
1CA
330
1F
100
AcDbEntity
  8
0
  6
Continuous
 62
     7
370
     0
100
AcDbDimension
  2
_D_1
 10
121.4491955892
 20
189.5896871423
 30
0.0
 11
121.4491955892
 21
200.0252468187
 31
0.0
 70
   160
  1
<>
 71
     2
 42
-1.0
  3
SLDDIMSTYLE0
100
AcDbAlignedDimension
 13
129.9524575438
 23
211.5896871423
 33
0.0
 14
129.9524575438
 24
189.5896871423
 34
0.0
 50
90.0
100
AcDbRotatedDimension
  0
DIMENSION
  5
1D4
330
1F
100
AcDbEntity
  8
0
  6
Continuous
 62
     7
370
     0
100
AcDbDimension
  2
_D_2
 10
187.7235411683
 20
202.0896871423
 30
0.0
 11
187.7235411683
 21
204.5896871423
 31
0.0
 70
   160
  1
<>
 71
     2
 42
-1.0
  3
SLDDIMSTYLE1
100
AcDbAlignedDimension
 13
175.7024575438
 23
207.0896871423
 33
0.0
 14
175.7024575438
 24
202.0896871423
 34
0.0
 50
90.0
100
AcDbRotatedDimension
  0
DIMENSION
  5
1E9
330
1F
100
AcDbEntity
  8
0
  6
Continuous
 62
     7
370
     0
100
AcDbDimension
  2
_D_3
 10
187.7235411683
 20
189.5896871423
 30
0.0
 11
187.7235411683
 21
195.8396871423
 31
0.0
 70
   160
  1
<>
 71
     2
 42
-1.0
  3
SLDDIMSTYLE2
100
AcDbAlignedDimension
 13
175.7024575438
 23
202.0896871423
 33
0.0
 14
173.9524575438
 24
189.5896871423
 34
0.0
 50
90.0
100
AcDbRotatedDimension
  0
DIMENSION
  5
1F6
330
1F
100
AcDbEntity
  8
0
  6
Continuous
 62
     7
370
     0
100
AcDbDimension
  2
_D_4
 10
173.2024575438
 20
179.9510662398
 30
0.0
 11
161.2234642954
 21
179.9510662398
 31
0.0
 70
   160
  1
<>
 71
     2
 42
-1.0
  3
SLDDIMSTYLE3
100
AcDbAlignedDimension
 13
168.7024575438
 23
202.0896871423
 33
0.0
 14
173.2024575438
 24
202.0896871423
 34
0.0
100
AcDbRotatedDimension
  0
DIMENSION
  5
203
330
1F
100
AcDbEntity
  8
0
  6
Continuous
 62
     7
370
     0
100
AcDbDimension
  2
_D_5
 10
132.9524575438
 20
156.2171916764
 30
0.0
 11
152.1206494823
 21
156.2171916764
 31
0.0
 70
   160
  1
<>
 71
     2
 42
-1.0
  3
SLDDIMSTYLE0
100
AcDbAlignedDimension
 13
170.9524575438
 23
197.3396871423
 33
0.0
 14
132.9524575438
 24
200.0896871423
 34
0.0
100
AcDbRotatedDimension
  0
DIMENSION
  5
20D
330
1F
100
AcDbEntity
  8
0
  6
Continuous
 62
     7
370
     0
100
AcDbDimension
  2
_D_6
 10
127.9524575438
 20
143.5346724002
 30
0.0
 11
152.1206494823
 21
143.5346724002
 31
0.0
 70
   160
  1
<>
 71
     2
 42
-1.0
  3
SLDDIMSTYLE0
100
AcDbAlignedDimension
 13
175.9524575438
 23
191.5896871423
 33
0.0
 14
127.9524575438
 24
191.5896871423
 34
0.0
100
AcDbRotatedDimension
  0
MTEXT
  5
217
330
1F
100
AcDbEntity
  8
0
  6
Continuous
 62
     7
370
     0
100
AcDbMText
 10
104.9970136769
 20
219.9599136759
 30
0.0
 40
3.5
 41
0.0
 71
     1
 72
     1
  1
BF-5
  7
SLDTEXTSTYLE1
 73
     1
 44
1.0
  0
LEADER
  5
219
330
1F
100
AcDbEntity
  8
0
  6
Continuous
 62
     7
370
     0
100
AcDbLeader
  3
SLDDIMSTYLE4
 76
     3
 10
131.2736475119
 20
196.7762860976
 30
0.0
 10
114.5510948905
 20
215.4197080292
 30
0.0
 10
104.9270072993
 20
215.4197080292
 30
0.0
  0
INSERT
  5
224
330
1F
100
AcDbEntity
  8
0
  6
Continuous
 62
     7
370
     0
100
AcDbBlockReference
  2
SW_NOTE_0
 10
181.204379562
 20
213.4124087591
 30
0.0
  0
LEADER
  5
225
330
1F
100
AcDbEntity
  8
0
  6
Continuous
 62
     7
370
     0
100
AcDbLeader
  3
SLDDIMSTYLE4
 76
     2
 10
168.6399494404
 20
197.915946586
 30
0.0
 10
181.204379562
 20
213.4124087591
 30
0.0
  0
MTEXT
  5
226
330
1F
100
AcDbEntity
  8
0
  6
Continuous
 62
     7
370
     0
100
AcDbMText
 10
103.2164729374
 20
147.6868566502
 30
0.0
 40
3.5
 41
0.0
 71
     1
 72
     1
  1
M4 深8
  7
SLDTEXTSTYLE0
 73
     1
 44
1.0
  0
LEADER
  5
227
330
1F
100
AcDbEntity
  8
0
  6
Continuous
 62
     7
370
     0
100
AcDbLeader
  3
SLDDIMSTYLE4
 76
     3
 10
151.4084291431
 20
163.5896871423
 30
0.0
 10
119.295620438
 20
143.1569343066
 30
0.0
 10
103.102189781
 20
143.1569343066
 30
0.0
  0
INSERT
  5
233
330
1F
100
AcDbEntity
  8
0
  6
Continuous
 62
     7
370
     0
100
AcDbBlockReference
  2
SW_CENTERMARKSYMBOL_0
 10
170.9524575438
 20
207.0896871423
 30
0.0
  0
INSERT
  5
23F
330
1F
100
AcDbEntity
  8
0
  6
Continuous
 62
     7
370
     0
100
AcDbBlockReference
  2
SW_CENTERMARKSYMBOL_1
 10
170.9524575438
 20
202.0896871423
 30
0.0
  0
LINE
  5
240
330
1F
100
AcDbEntity
  8
0
  6
CENTERX2
 62
     7
370
     0
100
AcDbLine
 10
132.9524575438
 20
200.0896871423
 30
0.0
 11
132.9524575438
 21
209.0896871423
 31
0.0
  0
LINE
  5
241
330
1F
100
AcDbEntity
  8
0
  6
CENTERX2
 62
     7
370
     0
100
AcDbLine
 10
154.9081190985
 20
195.3896871423
 30
0.0
 11
148.9967959892
 21
195.3896871423
 31
0.0
  0
LINE
  5
242
330
1F
100
AcDbEntity
  8
0
  6
CENTERX2
 62
     7
370
     0
100
AcDbLine
 10
151.9524575438
 20
194.8896871423
 30
0.0
 11
151.9524575438
 21
197.0896871423
 31
0.0
  0
LINE
  5
243
330
1F
100
AcDbEntity
  8
0
  6
CENTERX2
 62
     7
370
     0
100
AcDbLine
 10
151.9524575438
 20
207.2896871423
 30
0.0
 11
151.9524575438
 21
204.5386113685
 31
0.0
  0
LINE
  5
244
330
1F
100
AcDbEntity
  8
0
  6
CENTERX2
 62
     7
370
     0
100
AcDbLine
 10
151.9524575438
 20
207.2896871423
 30
0.0
 11
151.9524575438
 21
244.2600583147
 31
0.0
  0
LINE
  5
245
330
1F
100
AcDbEntity
  8
0
  6
CENTERX2
 62
     7
370
     0
100
AcDbLine
 10
151.9524575438
 20
194.8896871423
 30
0.0
 11
151.9524575438
 21
161.5896871423
 31
0.0
  0
LINE
  5
246
330
1F
100
AcDbEntity
  8
0
  6
CENTERX2
 62
     7
370
     0
100
AcDbLine
 10
151.9524575438
 20
165.5896871423
 30
0.0
 11
151.9524575438
 21
194.8896871423
 31
0.0
  0
LINE
  5
247
330
1F
100
AcDbEntity
  8
0
  6
Continuous
 62
     7
370
    15
100
AcDbLine
 10
129.952456781
 20
86.6159763143
 30
0.0
 11
127.4524591652
 21
86.3659767389
 31
0.0
  0
LINE
  5
248
330
1F
100
AcDbEntity
  8
0
  6
Continuous
 62
     7
370
    15
100
AcDbLine
 10
127.4524591652
 20
83.3659762472
 30
0.0
 11
129.952456781
 21
83.1159762062
 31
0.0
  0
LINE
  5
249
330
1F
100
AcDbEntity
  8
0
  6
Continuous
 62
     7
370
    15
100
AcDbLine
 10
132.4524581221
 20
86.6159763143
 30
0.0
 11
129.952456781
 21
86.3659767389
 31
0.0
  0
LINE
  5
24A
330
1F
100
AcDbEntity
  8
0
  6
Continuous
 62
     7
370
    15
100
AcDbLine
 10
129.952456781
 20
83.3659762472
 30
0.0
 11
132.4524581221
 21
83.1159762062
 31
0.0
  0
LINE
  5
24B
330
1F
100
AcDbEntity
  8
0
  6
Continuous
 62
     7
370
    15
100
AcDbLine
 10
132.4524581221
 20
83.2659764171
 30
0.0
 11
134.45245845
 21
83.2659764171
 31
0.0
  0
LINE
  5
24C
330
1F
100
AcDbEntity
  8
0
  6
Continuous
 62
     7
370
    15
100
AcDbLine
 10
134.45245845
 20
86.4659765691
 30
0.0
 11
132.4524581221
 21
86.4659765691
 31
0.0
  0
LINE
  5
24D
330
1F
100
AcDbEntity
  8
0
  6
Continuous
 62
     7
370
    15
100
AcDbLine
 10
137.7524584321
 20
88.8659762174
 30
0.0
 11
136.9524579284
 21
88.8659762174
 31
0.0
  0
LINE
  5
24E
330
1F
100
AcDbEntity
  8
0
  6
Continuous
 62
     7
370
    15
100
AcDbLine
 10
136.9524579284
 20
80.8659763031
 30
0.0
 11
137.7524584321
 21
80.8659763031
 31
0.0
  0
LINE
  5
24F
330
1F
100
AcDbEntity
  8
0
  6
Continuous
 62
     7
370
    15
100
AcDbLine
 10
166.9524577235
 20
88.8659762174
 30
0.0
 11
166.1524576855
 21
88.8659762174
 31
0.0
  0
LINE
  5
250
330
1F
100
AcDbEntity
  8
0
  6
Continuous
 62
     7
370
    15
100
AcDbLine
 10
166.1524576855
 20
80.8659763031
 30
0.0
 11
166.9524577235
 21
80.8659763031
 31
0.0
  0
LINE
  5
251
330
1F
100
AcDbEntity
  8
0
  6
Continuous
 62
     7
370
    15
100
AcDbLine
 10
157.5922993732
 20
75.7166131122
 30
0.0
 11
158.1095324153
 21
76.4112136282
 31
0.0
  0
LINE
  5
252
330
1F
100
AcDbEntity
  8
0
  6
Continuous
 62
     7
370
    15
100
AcDbLine
 10
157.9352244524
 20
74.9213757414
 30
0.0
 11
157.5922993732
 21
75.7166131122
 31
0.0
  0
LINE
  5
253
330
1F
100
AcDbEntity
  8
0
  6
Continuous
 62
     7
370
    15
100
AcDbLine
 10
158.7953825736
 20
74.8207388867
 30
0.0
 11
157.9352244524
 21
74.9213757414
 31
0.0
  0
LINE
  5
254
330
1F
100
AcDbEntity
  8
0
  6
Continuous
 62
     7
370
    15
100
AcDbLine
 10
159.3126158485
 20
75.5153394027
 30
0.0
 11
158.7953825736
 21
74.8207388867
 31
0.0
  0
LINE
  5
255
330
1F
100
AcDbEntity
  8
0
  6
Continuous
 62
     7
370
    15
100
AcDbLine
 10
158.1095324153
 20
76.4112136282
 30
0.0
 11
158.9696907693
 21
76.3105767734
 31
0.0
  0
CIRCLE
  5
256
330
1F
100
AcDbEntity
  8
0
  6
Continuous
 62
     7
370
    15
100
AcDbCircle
 10
158.4524575438
 20
75.6159762856
 30
0.0
 40
1.135684019913863
  0
LINE
  5
257
330
1F
100
AcDbEntity
  8
0
  6
Continuous
 62
     7
370
    15
100
AcDbLine
 10
158.9696907693
 20
76.3105767734
 30
0.0
 11
159.3126158485
 21
75.5153394027
 31
0.0
  0
CIRCLE
  5
258
330
1F
100
AcDbEntity
  8
0
  6
Continuous
 62
     7
370
    15
100
AcDbCircle
 10
158.4524575438
 20
75.6159762856
 30
0.0
 40
1.432283538938782
  0
CIRCLE
  5
259
330
1F
100
AcDbEntity
  8
0
  6
Continuous
 62
     7
370
    15
100
AcDbCircle
 10
158.4524575438
 20
75.6159762856
 30
0.0
 40
1.843199038049869
  0
CIRCLE
  5
25A
330
1F
100
AcDbEntity
  8
0
  6
Continuous
 62
     7
370
    15
100
AcDbCircle
 10
158.4524575438
 20
75.6159762856
 30
0.0
 40
2.249999999999988
  0
ARC
  5
25B
330
1F
100
AcDbEntity
  8
0
  6
Continuous
 62
     7
370
    15
100
AcDbCircle
 10
158.4524575438
 20
75.6159762856
 30
0.0
 40
0.7500000000000121
100
AcDbArc
 50
203.3268446696
 51
263.3268446696
  0
ARC
  5
25C
330
1F
100
AcDbEntity
  8
0
  6
Continuous
 62
     7
370
    15
100
AcDbCircle
 10
158.4524575438
 20
75.6159762856
 30
0.0
 40
0.7499999999999948
100
AcDbArc
 50
23.3268446696
 51
83.3268446696
  0
ARC
  5
25D
330
1F
100
AcDbEntity
  8
0
  6
Continuous
 62
     7
370
    15
100
AcDbCircle
 10
158.4524575438
 20
75.6159762856
 30
0.0
 40
0.7500000000000121
100
AcDbArc
 50
263.3268446696
 51
323.3268446696
  0
ARC
  5
25E
330
1F
100
AcDbEntity
  8
0
  6
Continuous
 62
     7
370
    15
100
AcDbCircle
 10
158.4524575438
 20
75.6159762856
 30
0.0
 40
0.7500000000000112
100
AcDbArc
 50
83.3268446696
 51
143.3268446696
  0
ARC
  5
25F
330
1F
100
AcDbEntity
  8
0
  6
Continuous
 62
     7
370
    15
100
AcDbCircle
 10
158.4524575438
 20
75.6159762856
 30
0.0
 40
0.7500000000000112
100
AcDbArc
 50
143.3268446696
 51
203.3268446696
  0
ARC
  5
260
330
1F
100
AcDbEntity
  8
0
  6
Continuous
 62
     7
370
    15
100
AcDbCircle
 10
158.4524575438
 20
75.6159762856
 30
0.0
 40
0.7499999999999883
100
AcDbArc
 50
323.3268446696
 51
23.3268446696
  0
ARC
  5
261
330
1F
100
AcDbEntity
  8
0
  6
Continuous
 62
     7
370
    15
100
AcDbCircle
 10
151.9524575438
 20
84.8659762856
 30
0.0
 40
3.500000000000026
100
AcDbArc
 50
211.0027191339
 51
238.9972808661
  0
ARC
  5
262
330
1F
100
AcDbEntity
  8
0
  6
Continuous
 62
     7
370
    15
100
AcDbCircle
 10
151.9524575438
 20
84.8659762856
 30
0.0
 40
3.500000000000033
100
AcDbArc
 50
121.0027191339
 51
148.9972808661
  0
LINE
  5
263
330
1F
100
AcDbEntity
  8
0
  6
Continuous
 62
     7
370
    15
100
AcDbLine
 10
153.7552331363
 20
87.8659760535
 30
0.0
 11
150.1496815843
 21
87.8659760535
 31
0.0
  0
ARC
  5
264
330
1F
100
AcDbEntity
  8
0
  6
Continuous
 62
     7
370
    15
100
AcDbCircle
 10
151.9524575438
 20
84.8659762856
 30
0.0
 40
3.500000000000008
100
AcDbArc
 50
31.0027191339
 51
58.9972808661
  0
LINE
  5
265
330
1F
100
AcDbEntity
  8
0
  6
Continuous
 62
     7
370
    15
100
AcDbLine
 10
154.9524576192
 20
83.0632004842
 30
0.0
 11
154.9524576192
 21
86.6687515706
 31
0.0
  0
ARC
  5
266
330
1F
100
AcDbEntity
  8
0
  6
Continuous
 62
     7
370
    15
100
AcDbCircle
 10
151.9524575438
 20
84.8659762856
 30
0.0
 40
3.499999999999994
100
AcDbArc
 50
301.0027191339
 51
328.9972808661
  0
LINE
  5
267
330
1F
100
AcDbEntity
  8
0
  6
Continuous
 62
     7
370
    15
100
AcDbLine
 10
148.9524571014
 20
86.6687515706
 30
0.0
 11
148.9524571014
 21
83.0632004842
 31
0.0
  0
LINE
  5
268
330
1F
100
AcDbEntity
  8
0
  6
Continuous
 62
     7
370
    15
100
AcDbLine
 10
150.1496815843
 20
81.865976467
 30
0.0
 11
153.7552331363
 21
81.865976467
 31
0.0
  0
CIRCLE
  5
269
330
1F
100
AcDbEntity
  8
0
  6
Continuous
 62
     7
370
    15
100
AcDbCircle
 10
151.9524575438
 20
84.8659762856
 30
0.0
 40
1.649999999999977
  0
ARC
  5
26A
330
1F
100
AcDbEntity
  8
0
  6
Continuous
 62
     7
370
    15
100
AcDbCircle
 10
151.9524575438
 20
84.8659762856
 30
0.0
 40
3.999999999999997
100
AcDbArc
 50
311.4096221093
 51
318.5903778907
  0
SPLINE
  5
26B
330
1F
100
AcDbEntity
  8
0
  6
Continuous
 62
     7
370
    15
100
AcDbSpline
210
0.0
220
0.0
230
1.0
 70
    24
 71
     3
 72
     8
 73
     4
 74
     0
 42
0.00000001
 43
0.00000001
 12
1.0
 22
0.0
 32
0.0
 13
1.0
 23
0.0
 33
0.0
 40
0.0
 40
0.0
 40
0.0
 40
0.0
 40
1.0
 40
1.0
 40
1.0
 40
1.0
 10
154.9524575438157
 20
83.06320064783633
 30
0.0
 10
154.9524575438157
 20
82.7722435528839
 30
0.0
 10
154.9524575438157
 20
82.49304097402462
 30
0.0
 10
154.9524575438157
 20
82.22022497450372
 30
0.0
  0
SPLINE
  5
26C
330
1F
100
AcDbEntity
  8
0
  6
Continuous
 62
     7
370
    15
100
AcDbSpline
210
0.0
220
0.0
230
1.0
 70
    24
 71
     3
 72
     8
 73
     4
 74
     0
 42
0.00000001
 43
0.00000001
 12
1.0
 22
0.0
 32
0.0
 13
1.0
 23
0.0
 33
0.0
 40
0.0
 40
0.0
 40
0.0
 40
0.0
 40
1.0
 40
1.0
 40
1.0
 40
1.0
 10
154.5982088548803
 20
81.86597628556831
 30
0.0
 10
154.3253928553594
 20
81.86597628556831
 30
0.0
 10
154.0461902765002
 20
81.86597628556831
 30
0.0
 10
153.7552331815477
 20
81.86597628556831
 30
0.0
  0
ARC
  5
26D
330
1F
100
AcDbEntity
  8
0
  6
Continuous
 62
     7
370
    15
100
AcDbCircle
 10
151.9524575438
 20
84.8659762856
 30
0.0
 40
4.000000000000028
100
AcDbArc
 50
131.4096221093
 51
138.5903778907
  0
SPLINE
  5
26E
330
1F
100
AcDbEntity
  8
0
  6
Continuous
 62
     7
370
    15
100
AcDbSpline
210
0.0
220
0.0
230
1.0
 70
    24
 71
     3
 72
     8
 73
     4
 74
     0
 42
0.00000001
 43
0.00000001
 12
1.0
 22
0.0
 32
0.0
 13
1.0
 23
0.0
 33
0.0
 40
0.0
 40
0.0
 40
0.0
 40
0.0
 40
1.0
 40
1.0
 40
1.0
 40
1.0
 10
149.3067062327511
 20
87.86597628556832
 30
0.0
 10
149.579522232272
 20
87.86597628556832
 30
0.0
 10
149.8587248111313
 20
87.86597628556832
 30
0.0
 10
150.1496819060837
 20
87.86597628556832
 30
0.0
  0
SPLINE
  5
26F
330
1F
100
AcDbEntity
  8
0
  6
Continuous
 62
     7
370
    15
100
AcDbSpline
210
0.0
220
0.0
230
1.0
 70
    24
 71
     3
 72
     8
 73
     4
 74
     0
 42
0.00000001
 43
0.00000001
 12
1.0
 22
0.0
 32
0.0
 13
1.0
 23
0.0
 33
0.0
 40
0.0
 40
0.0
 40
0.0
 40
0.0
 40
1.0
 40
1.0
 40
1.0
 40
1.0
 10
148.9524575438157
 20
86.66875192330032
 30
0.0
 10
148.9524575438157
 20
86.95970901825275
 30
0.0
 10
148.9524575438157
 20
87.23891159711201
 30
0.0
 10
148.9524575438157
 20
87.51172759663291
 30
0.0
  0
ARC
  5
270
330
1F
100
AcDbEntity
  8
0
  6
Continuous
 62
     7
370
    15
100
AcDbCircle
 10
151.9524575438
 20
84.8659762856
 30
0.0
 40
4.000000000000019
100
AcDbArc
 50
221.4096221093
 51
228.5903778907
  0
SPLINE
  5
271
330
1F
100
AcDbEntity
  8
0
  6
Continuous
 62
     7
370
    15
100
AcDbSpline
210
0.0
220
0.0
230
1.0
 70
    24
 71
     3
 72
     8
 73
     4
 74
     0
 42
0.00000001
 43
0.00000001
 12
1.0
 22
0.0
 32
0.0
 13
1.0
 23
0.0
 33
0.0
 40
0.0
 40
0.0
 40
0.0
 40
0.0
 40
1.0
 40
1.0
 40
1.0
 40
1.0
 10
148.9524575438157
 20
82.22022497450372
 30
0.0
 10
148.9524575438157
 20
82.49304097402462
 30
0.0
 10
148.9524575438157
 20
82.77224355288388
 30
0.0
 10
148.9524575438157
 20
83.06320064783631
 30
0.0
  0
SPLINE
  5
272
330
1F
100
AcDbEntity
  8
0
  6
Continuous
 62
     7
370
    15
100
AcDbSpline
210
0.0
220
0.0
230
1.0
 70
    24
 71
     3
 72
     8
 73
     4
 74
     0
 42
0.00000001
 43
0.00000001
 12
1.0
 22
0.0
 32
0.0
 13
1.0
 23
0.0
 33
0.0
 40
0.0
 40
0.0
 40
0.0
 40
0.0
 40
1.0
 40
1.0
 40
1.0
 40
1.0
 10
150.1496819060837
 20
81.86597628556831
 30
0.0
 10
149.8587248111313
 20
81.86597628556831
 30
0.0
 10
149.579522232272
 20
81.86597628556831
 30
0.0
 10
149.3067062327511
 20
81.86597628556831
 30
0.0
  0
ARC
  5
273
330
1F
100
AcDbEntity
  8
0
  6
Continuous
 62
     7
370
    15
100
AcDbCircle
 10
151.9524575438
 20
84.8659762856
 30
0.0
 40
4.000000000000006
100
AcDbArc
 50
41.4096221093
 51
48.5903778907
  0
SPLINE
  5
274
330
1F
100
AcDbEntity
  8
0
  6
Continuous
 62
     7
370
    15
100
AcDbSpline
210
0.0
220
0.0
230
1.0
 70
    24
 71
     3
 72
     8
 73
     4
 74
     0
 42
0.00000001
 43
0.00000001
 12
1.0
 22
0.0
 32
0.0
 13
1.0
 23
0.0
 33
0.0
 40
0.0
 40
0.0
 40
0.0
 40
0.0
 40
1.0
 40
1.0
 40
1.0
 40
1.0
 10
154.9524575438157
 20
87.51172759663291
 30
0.0
 10
154.9524575438157
 20
87.23891159711202
 30
0.0
 10
154.9524575438157
 20
86.95970901825275
 30
0.0
 10
154.9524575438157
 20
86.66875192330032
 30
0.0
  0
SPLINE
  5
275
330
1F
100
AcDbEntity
  8
0
  6
Continuous
 62
     7
370
    15
100
AcDbSpline
210
0.0
220
0.0
230
1.0
 70
    24
 71
     3
 72
     8
 73
     4
 74
     0
 42
0.00000001
 43
0.00000001
 12
1.0
 22
0.0
 32
0.0
 13
1.0
 23
0.0
 33
0.0
 40
0.0
 40
0.0
 40
0.0
 40
0.0
 40
1.0
 40
1.0
 40
1.0
 40
1.0
 10
153.7552331815477
 20
87.86597628556832
 30
0.0
 10
154.0461902765002
 20
87.86597628556832
 30
0.0
 10
154.3253928553594
 20
87.86597628556832
 30
0.0
 10
154.5982088548803
 20
87.86597628556832
 30
0.0
  0
ARC
  5
276
330
1F
100
AcDbEntity
  8
0
  6
Continuous
 62
     7
370
    15
100
AcDbCircle
 10
151.9524575438
 20
84.8659762856
 30
0.0
 40
4.000000000000028
100
AcDbArc
 50
138.5903778907
 51
221.4096221093
  0
ARC
  5
277
330
1F
100
AcDbEntity
  8
0
  6
Continuous
 62
     7
370
    15
100
AcDbCircle
 10
151.9524575438
 20
84.8659762856
 30
0.0
 40
4.000000000000017
100
AcDbArc
 50
48.5903778907
 51
131.4096221093
  0
ARC
  5
278
330
1F
100
AcDbEntity
  8
0
  6
Continuous
 62
     7
370
    15
100
AcDbCircle
 10
151.9524575438
 20
84.8659762856
 30
0.0
 40
4.000000000000006
100
AcDbArc
 50
228.5903778907
 51
311.4096221093
  0
ARC
  5
279
330
1F
100
AcDbEntity
  8
0
  6
Continuous
 62
     7
370
    15
100
AcDbCircle
 10
151.9524575438
 20
84.8659762856
 30
0.0
 40
4.000000000000006
100
AcDbArc
 50
318.5903778907
 51
41.4096221093
  0
ARC
  5
27A
330
1F
100
AcDbEntity
  8
0
  6
Continuous
 62
     7
370
    15
100
AcDbCircle
 10
166.225811083
 20
76.1244257305
 30
0.0
 40
3.0
100
AcDbArc
 50
190.7803039923
 51
220.9981734199
  0
LINE
  5
27B
330
1F
100
AcDbEntity
  8
0
  6
Continuous
 62
     7
370
    15
100
AcDbLine
 10
165.6534727452
 20
72.2099411257
 30
0.0
 11
163.9616195833
 21
74.1563207891
 31
0.0
  0
LINE
  5
27C
330
1F
100
AcDbEntity
  8
0
  6
Continuous
 62
     7
370
    15
100
AcDbLine
 10
173.9524574739
 20
71.8659762249
 30
0.0
 11
166.4082030555
 21
71.8659762249
 31
0.0
  0
LINE
  5
27D
330
1F
100
AcDbEntity
  8
0
  6
Continuous
 62
     7
370
    15
100
AcDbLine
 10
173.9524574739
 20
68.3659765825
 30
0.0
 11
173.9524574739
 21
71.8659762249
 31
0.0
  0
ARC
  5
27E
330
1F
100
AcDbEntity
  8
0
  6
Continuous
 62
     7
370
    15
100
AcDbCircle
 10
165.7245847908
 20
71.3659762856
 30
0.0
 40
3.000000000000014
100
AcDbArc
 50
220.9981734199
 51
270.0
  0
ARC
  5
27F
330
1F
100
AcDbEntity
  8
0
  6
Continuous
 62
     7
370
    15
100
AcDbCircle
 10
159.5554489202
 20
72.3659762856
 30
0.0
 40
1.000000000000005
100
AcDbArc
 50
40.9981734199
 51
86.0869570946
  0
LINE
  5
280
330
1F
100
AcDbEntity
  8
0
  6
Continuous
 62
     7
370
    15
100
AcDbLine
 10
159.6236913254
 20
73.3636449047
 30
0.0
 11
159.6223453315
 21
73.3659764707
 31
0.0
  0
LINE
  5
281
330
1F
100
AcDbEntity
  8
0
  6
Continuous
 62
     7
370
    15
100
AcDbLine
 10
140.4445227025
 20
69.3978717506
 30
0.0
 11
143.5947362123
 21
73.0220111042
 31
0.0
  0
ARC
  5
282
330
1F
100
AcDbEntity
  8
0
  6
Continuous
 62
     7
370
    15
100
AcDbCircle
 10
138.1803302969
 20
71.3659762856
 30
0.0
 40
3.000000000000014
100
AcDbArc
 50
270.0
 51
319.0018265801
  0
LINE
  5
283
330
1F
100
AcDbEntity
  8
0
  6
Continuous
 62
     7
370
    15
100
AcDbLine
 10
129.952456781
 20
68.3659765825
 30
0.0
 11
138.1803303746
 21
68.3659765825
 31
0.0
  0
LINE
  5
284
330
1F
100
AcDbEntity
  8
0
  6
Continuous
 62
     7
370
    15
100
AcDbLine
 10
129.952456781
 20
71.8659762249
 30
0.0
 11
129.952456781
 21
68.3659765825
 31
0.0
  0
LINE
  5
285
330
1F
100
AcDbEntity
  8
0
  6
Continuous
 62
     7
370
    15
100
AcDbLine
 10
137.4967116652
 20
71.8659762249
 30
0.0
 11
129.952456781
 21
71.8659762249
 31
0.0
  0
ARC
  5
286
330
1F
100
AcDbEntity
  8
0
  6
Continuous
 62
     7
370
    15
100
AcDbCircle
 10
137.4967120377
 20
72.8659762856
 30
0.0
 40
1.0
100
AcDbArc
 50
270.0
 51
319.0018265801
  0
LINE
  5
287
330
1F
100
AcDbEntity
  8
0
  6
Continuous
 62
     7
370
    15
100
AcDbLine
 10
139.9432960687
 20
74.1563207891
 30
0.0
 11
138.2514424411
 21
72.2099411257
 31
0.0
  0
ARC
  5
288
330
1F
100
AcDbEntity
  8
0
  6
Continuous
 62
     7
370
    15
100
AcDbCircle
 10
137.6791040046
 20
76.1244257305
 30
0.0
 40
3.000000000000011
100
AcDbArc
 50
319.0018265801
 51
349.2196960077
  0
ARC
  5
289
330
1F
100
AcDbEntity
  8
0
  6
Continuous
 62
     7
370
    15
100
AcDbCircle
 10
166.4082030499
 20
72.8659762856
 30
0.0
 40
1.0
100
AcDbArc
 50
220.9981734199
 51
270.0
  0
ARC
  5
28A
330
1F
100
AcDbEntity
  8
0
  6
Continuous
 62
     7
370
    15
100
AcDbCircle
 10
144.3494661674
 20
72.3659762856
 30
0.0
 40
1.000000000000005
100
AcDbArc
 50
93.9130429054
 51
139.0018265801
  0
LINE
  5
28B
330
1F
100
AcDbEntity
  8
0
  6
Continuous
 62
     7
370
    15
100
AcDbLine
 10
144.2825700877
 20
73.3659764707
 30
0.0
 11
144.2812233952
 21
73.3636449047
 31
0.0
  0
LINE
  5
28C
330
1F
100
AcDbEntity
  8
0
  6
Continuous
 62
     7
370
    15
100
AcDbLine
 10
165.7245848117
 20
68.3659765825
 30
0.0
 11
173.9524574739
 21
68.3659765825
 31
0.0
  0
LINE
  5
28D
330
1F
100
AcDbEntity
  8
0
  6
Continuous
 62
     7
370
    15
100
AcDbLine
 10
160.3101794397
 20
73.0220111042
 30
0.0
 11
163.4603934152
 21
69.3978717506
 31
0.0
  0
LINE
  5
28E
330
1F
100
AcDbEntity
  8
0
  6
Continuous
 62
     7
370
    15
100
AcDbLine
 10
129.952456781
 20
68.3659765825
 30
0.0
 11
127.9524564532
 21
68.3659765825
 31
0.0
  0
LINE
  5
28F
330
1F
100
AcDbEntity
  8
0
  6
Continuous
 62
     7
370
    15
100
AcDbLine
 10
127.9524564532
 20
68.3659765825
 30
0.0
 11
127.9524564532
 21
70.8659760609
 31
0.0
  0
ARC
  5
290
330
1F
100
AcDbEntity
  8
0
  6
Continuous
 62
     7
370
    15
100
AcDbCircle
 10
128.9524575438
 20
70.8659762856
 30
0.0
 40
1.0
100
AcDbArc
 50
90.0
 51
180.0
  0
LINE
  5
291
330
1F
100
AcDbEntity
  8
0
  6
Continuous
 62
     7
370
    15
100
AcDbLine
 10
128.9524584798
 20
71.8659762249
 30
0.0
 11
129.952456781
 21
71.8659762249
 31
0.0
  0
ARC
  5
292
330
1F
100
AcDbEntity
  8
0
  6
Continuous
 62
     7
370
    15
100
AcDbCircle
 10
174.9524575438
 20
70.8659762856
 30
0.0
 40
1.0
100
AcDbArc
 50
0.0
 51
90.0
  0
LINE
  5
293
330
1F
100
AcDbEntity
  8
0
  6
Continuous
 62
     7
370
    15
100
AcDbLine
 10
175.9524578018
 20
70.8659760609
 30
0.0
 11
175.9524578018
 21
68.3659765825
 31
0.0
  0
LINE
  5
294
330
1F
100
AcDbEntity
  8
0
  6
Continuous
 62
     7
370
    15
100
AcDbLine
 10
173.9524574739
 20
71.8659762249
 30
0.0
 11
174.9524576379
 21
71.8659762249
 31
0.0
  0
LINE
  5
295
330
1F
100
AcDbEntity
  8
0
  6
Continuous
 62
     7
370
    15
100
AcDbLine
 10
175.9524578018
 20
68.3659765825
 30
0.0
 11
173.9524574739
 21
68.3659765825
 31
0.0
  0
LINE
  5
296
330
1F
100
AcDbEntity
  8
0
  6
Continuous
 62
     7
370
    15
100
AcDbLine
 10
166.9524577235
 20
86.5579204589
 30
0.0
 11
169.4524576677
 21
86.5579204589
 31
0.0
  0
LINE
  5
297
330
1F
100
AcDbEntity
  8
0
  6
Continuous
 62
     7
370
    15
100
AcDbLine
 10
166.9524577235
 20
88.8986190736
 30
0.0
 11
166.9524577235
 21
88.8396970883
 31
0.0
  0
LINE
  5
298
330
1F
100
AcDbEntity
  8
0
  6
Continuous
 62
     7
370
    15
100
AcDbLine
 10
166.9524577235
 20
86.6168424443
 30
0.0
 11
166.9524577235
 21
86.5579204589
 31
0.0
  0
LINE
  5
299
330
1F
100
AcDbEntity
  8
0
  6
Continuous
 62
     7
370
    15
100
AcDbLine
 10
166.9524577235
 20
88.8986190736
 30
0.0
 11
169.4524576677
 21
88.8986190736
 31
0.0
  0
LINE
  5
29A
330
1F
100
AcDbEntity
  8
0
  6
Continuous
 62
     7
370
    15
100
AcDbLine
 10
169.4524576677
 20
88.8986190736
 30
0.0
 11
169.4524576677
 21
86.5579204589
 31
0.0
  0
LINE
  5
29B
330
1F
100
AcDbEntity
  8
0
  6
Continuous
 62
     7
370
    15
100
AcDbLine
 10
166.9524577235
 20
82.5252778784
 30
0.0
 11
169.4524576677
 21
82.5252778784
 31
0.0
  0
LINE
  5
29C
330
1F
100
AcDbEntity
  8
0
  6
Continuous
 62
     7
370
    15
100
AcDbLine
 10
166.9524577235
 20
86.5579204589
 30
0.0
 11
166.9524577235
 21
86.4564081609
 31
0.0
  0
LINE
  5
29D
330
1F
100
AcDbEntity
  8
0
  6
Continuous
 62
     7
370
    15
100
AcDbLine
 10
166.9524577235
 20
82.6267901763
 30
0.0
 11
166.9524577235
 21
82.5252778784
 31
0.0
  0
LINE
  5
29E
330
1F
100
AcDbEntity
  8
0
  6
Continuous
 62
     7
370
    15
100
AcDbLine
 10
169.4524576677
 20
86.5579204589
 30
0.0
 11
169.4524576677
 21
82.5252778784
 31
0.0
  0
LINE
  5
29F
330
1F
100
AcDbEntity
  8
0
  6
Continuous
 62
     7
370
    15
100
AcDbLine
 10
166.9524577235
 20
80.8333336797
 30
0.0
 11
169.4524576677
 21
80.8333336797
 31
0.0
  0
LINE
  5
2A0
330
1F
100
AcDbEntity
  8
0
  6
Continuous
 62
     7
370
    15
100
AcDbLine
 10
166.9524577235
 20
82.5252778784
 30
0.0
 11
166.9524577235
 21
82.4826875657
 31
0.0
  0
LINE
  5
2A1
330
1F
100
AcDbEntity
  8
0
  6
Continuous
 62
     7
370
    15
100
AcDbLine
 10
166.9524577235
 20
80.8659763031
 30
0.0
 11
166.9524577235
 21
80.8333336797
 31
0.0
  0
LINE
  5
2A2
330
1F
100
AcDbEntity
  8
0
  6
Continuous
 62
     7
370
    15
100
AcDbLine
 10
169.4524576677
 20
82.5252778784
 30
0.0
 11
169.4524576677
 21
80.8333336797
 31
0.0
  0
CIRCLE
  5
2A3
330
1F
100
AcDbEntity
  8
0
  6
Continuous
 62
     7
370
    15
100
AcDbCircle
 10
145.4524575438
 20
94.1159762856
 30
0.0
 40
1.432283538938787
  0
CIRCLE
  5
2A4
330
1F
100
AcDbEntity
  8
0
  6
Continuous
 62
     7
370
    15
100
AcDbCircle
 10
145.4524575438
 20
94.1159762856
 30
0.0
 40
1.135684019913863
  0
LINE
  5
2A5
330
1F
100
AcDbEntity
  8
0
  6
Continuous
 62
     7
370
    15
100
AcDbLine
 10
144.5923000363
 20
94.2166125357
 30
0.0
 11
145.1095323799
 21
94.911213401
 31
0.0
  0
LINE
  5
2A6
330
1F
100
AcDbEntity
  8
0
  6
Continuous
 62
     7
370
    15
100
AcDbLine
 10
144.9352241842
 20
93.4213766784
 30
0.0
 11
144.5923000363
 21
94.2166125357
 31
0.0
  0
LINE
  5
2A7
330
1F
100
AcDbEntity
  8
0
  6
Continuous
 62
     7
370
    15
100
AcDbLine
 10
145.7953825382
 20
93.3207398236
 30
0.0
 11
144.9352241842
 21
93.4213766784
 31
0.0
  0
LINE
  5
2A8
330
1F
100
AcDbEntity
  8
0
  6
Continuous
 62
     7
370
    15
100
AcDbLine
 10
146.3126158131
 20
94.0153388262
 30
0.0
 11
145.7953825382
 21
93.3207398236
 31
0.0
  0
LINE
  5
2A9
330
1F
100
AcDbEntity
  8
0
  6
Continuous
 62
     7
370
    15
100
AcDbLine
 10
145.9696907339
 20
94.8105765462
 30
0.0
 11
146.3126158131
 21
94.0153388262
 31
0.0
  0
LINE
  5
2AA
330
1F
100
AcDbEntity
  8
0
  6
Continuous
 62
     7
370
    15
100
AcDbLine
 10
145.1095323799
 20
94.911213401
 30
0.0
 11
145.9696907339
 21
94.8105765462
 31
0.0
  0
CIRCLE
  5
2AB
330
1F
100
AcDbEntity
  8
0
  6
Continuous
 62
     7
370
    15
100
AcDbCircle
 10
145.4524575438
 20
94.1159762856
 30
0.0
 40
1.843199038049822
  0
CIRCLE
  5
2AC
330
1F
100
AcDbEntity
  8
0
  6
Continuous
 62
     7
370
    15
100
AcDbCircle
 10
145.4524575438
 20
94.1159762856
 30
0.0
 40
2.250000000000015
  0
ARC
  5
2AD
330
1F
100
AcDbEntity
  8
0
  6
Continuous
 62
     7
370
    15
100
AcDbCircle
 10
145.4524575438
 20
94.1159762856
 30
0.0
 40
0.7499999999999912
100
AcDbArc
 50
143.3268446696
 51
203.3268446696
  0
ARC
  5
2AE
330
1F
100
AcDbEntity
  8
0
  6
Continuous
 62
     7
370
    15
100
AcDbCircle
 10
145.4524575438
 20
94.1159762856
 30
0.0
 40
0.7500000000000121
100
AcDbArc
 50
83.3268446696
 51
143.3268446696
  0
ARC
  5
2AF
330
1F
100
AcDbEntity
  8
0
  6
Continuous
 62
     7
370
    15
100
AcDbCircle
 10
145.4524575438
 20
94.1159762856
 30
0.0
 40
0.7499999999999948
100
AcDbArc
 50
203.3268446696
 51
263.3268446696
  0
ARC
  5
2B0
330
1F
100
AcDbEntity
  8
0
  6
Continuous
 62
     7
370
    15
100
AcDbCircle
 10
145.4524575438
 20
94.1159762856
 30
0.0
 40
0.7500000000000121
100
AcDbArc
 50
23.3268446696
 51
83.3268446696
  0
ARC
  5
2B1
330
1F
100
AcDbEntity
  8
0
  6
Continuous
 62
     7
370
    15
100
AcDbCircle
 10
145.4524575438
 20
94.1159762856
 30
0.0
 40
0.7500000000000117
100
AcDbArc
 50
323.3268446696
 51
23.3268446696
  0
ARC
  5
2B2
330
1F
100
AcDbEntity
  8
0
  6
Continuous
 62
     7
370
    15
100
AcDbCircle
 10
145.4524575438
 20
94.1159762856
 30
0.0
 40
0.7500000000000112
100
AcDbArc
 50
263.3268446696
 51
323.3268446696
  0
LINE
  5
2B3
330
1F
100
AcDbEntity
  8
0
  6
Continuous
 62
     7
370
    15
100
AcDbLine
 10
157.5922993732
 20
94.2166125357
 30
0.0
 11
158.1095324153
 21
94.911213401
 31
0.0
  0
LINE
  5
2B4
330
1F
100
AcDbEntity
  8
0
  6
Continuous
 62
     7
370
    15
100
AcDbLine
 10
157.9352244524
 20
93.4213766784
 30
0.0
 11
157.5922993732
 21
94.2166125357
 31
0.0
  0
LINE
  5
2B5
330
1F
100
AcDbEntity
  8
0
  6
Continuous
 62
     7
370
    15
100
AcDbLine
 10
158.9696907693
 20
94.8105765462
 30
0.0
 11
159.3126158485
 21
94.0153388262
 31
0.0
  0
LINE
  5
2B6
330
1F
100
AcDbEntity
  8
0
  6
Continuous
 62
     7
370
    15
100
AcDbLine
 10
158.1095324153
 20
94.911213401
 30
0.0
 11
158.9696907693
 21
94.8105765462
 31
0.0
  0
CIRCLE
  5
2B7
330
1F
100
AcDbEntity
  8
0
  6
Continuous
 62
     7
370
    15
100
AcDbCircle
 10
158.4524575438
 20
94.1159762856
 30
0.0
 40
1.135684019913863
  0
LINE
  5
2B8
330
1F
100
AcDbEntity
  8
0
  6
Continuous
 62
     7
370
    15
100
AcDbLine
 10
159.3126158485
 20
94.0153388262
 30
0.0
 11
158.7953825736
 21
93.3207398236
 31
0.0
  0
LINE
  5
2B9
330
1F
100
AcDbEntity
  8
0
  6
Continuous
 62
     7
370
    15
100
AcDbLine
 10
158.7953825736
 20
93.3207398236
 30
0.0
 11
157.9352244524
 21
93.4213766784
 31
0.0
  0
CIRCLE
  5
2BA
330
1F
100
AcDbEntity
  8
0
  6
Continuous
 62
     7
370
    15
100
AcDbCircle
 10
158.4524575438
 20
94.1159762856
 30
0.0
 40
1.432283538938787
  0
CIRCLE
  5
2BB
330
1F
100
AcDbEntity
  8
0
  6
Continuous
 62
     7
370
    15
100
AcDbCircle
 10
158.4524575438
 20
94.1159762856
 30
0.0
 40
1.843199038049875
  0
CIRCLE
  5
2BC
330
1F
100
AcDbEntity
  8
0
  6
Continuous
 62
     7
370
    15
100
AcDbCircle
 10
158.4524575438
 20
94.1159762856
 30
0.0
 40
2.249999999999962
  0
ARC
  5
2BD
330
1F
100
AcDbEntity
  8
0
  6
Continuous
 62
     7
370
    15
100
AcDbCircle
 10
158.4524575438
 20
94.1159762856
 30
0.0
 40
0.749999999999998
100
AcDbArc
 50
263.3268446696
 51
323.3268446696
  0
ARC
  5
2BE
330
1F
100
AcDbEntity
  8
0
  6
Continuous
 62
     7
370
    15
100
AcDbCircle
 10
158.4524575438
 20
94.1159762856
 30
0.0
 40
0.7500000000000089
100
AcDbArc
 50
23.3268446696
 51
83.3268446696
  0
ARC
  5
2BF
330
1F
100
AcDbEntity
  8
0
  6
Continuous
 62
     7
370
    15
100
AcDbCircle
 10
158.4524575438
 20
94.1159762856
 30
0.0
 40
0.7499999999999883
100
AcDbArc
 50
323.3268446696
 51
23.3268446696
  0
ARC
  5
2C0
330
1F
100
AcDbEntity
  8
0
  6
Continuous
 62
     7
370
    15
100
AcDbCircle
 10
158.4524575438
 20
94.1159762856
 30
0.0
 40
0.749999999999998
100
AcDbArc
 50
203.3268446696
 51
263.3268446696
  0
ARC
  5
2C1
330
1F
100
AcDbEntity
  8
0
  6
Continuous
 62
     7
370
    15
100
AcDbCircle
 10
158.4524575438
 20
94.1159762856
 30
0.0
 40
0.7500000000000112
100
AcDbArc
 50
143.3268446696
 51
203.3268446696
  0
ARC
  5
2C2
330
1F
100
AcDbEntity
  8
0
  6
Continuous
 62
     7
370
    15
100
AcDbCircle
 10
158.4524575438
 20
94.1159762856
 30
0.0
 40
0.7500000000000112
100
AcDbArc
 50
83.3268446696
 51
143.3268446696
  0
ARC
  5
2C3
330
1F
100
AcDbEntity
  8
0
  6
Continuous
 62
     7
370
    15
100
AcDbCircle
 10
151.9524575438
 20
84.8659762856
 30
0.0
 40
10.49999999999999
100
AcDbArc
 50
335.1642486217
 51
24.8357513783
  0
LWPOLYLINE
  5
2C4
330
1F
100
AcDbEntity
  8
0
  6
Continuous
 62
     7
370
    15
100
AcDbPolyline
 90
        9
 70
   128
 43
0.0
 10
161.481371041
 20
80.4557827257
 10
161.3928472878
 20
80.4967534684
 10
161.3077254813
 20
80.5361498103
 10
161.2292767321
 20
80.5724576537
 10
161.1605158476
 20
80.6042816445
 10
161.1040852447
 20
80.6303989563
 10
161.0621535227
 20
80.6498058561
 10
161.036332095
 20
80.6617565874
 10
161.0276132677
 20
80.6657920081
  0
ARC
  5
2C5
330
1F
100
AcDbEntity
  8
0
  6
Continuous
 62
     7
370
    15
100
AcDbCircle
 10
151.9524575438
 20
84.8659762856
 30
0.0
 40
9.999999999999993
100
AcDbArc
 50
335.1642486217
 51
24.8357513783
  0
LWPOLYLINE
  5
2C6
330
1F
100
AcDbEntity
  8
0
  6
Continuous
 62
     7
370
    15
100
AcDbPolyline
 90
        9
 70
   128
 43
0.0
 10
161.481371041
 20
89.2761697948
 10
161.3928472878
 20
89.2351990521
 10
161.3077254813
 20
89.1958031759
 10
161.2292767321
 20
89.159494634
 10
161.1605158476
 20
89.1276713416
 10
161.1040852447
 20
89.1015533313
 10
161.0621535227
 20
89.0821464315
 10
161.036332095
 20
89.0701957002
 10
161.0276132677
 20
89.0661602795
  0
LINE
  5
2C7
330
1F
100
AcDbEntity
  8
0
  6
Continuous
 62
     7
370
    15
100
AcDbLine
 10
142.7024584053
 20
96.1659768552
 30
0.0
 11
140.987470725
 21
96.1659768552
 31
0.0
  0
ARC
  5
2C8
330
1F
100
AcDbEntity
  8
0
  6
Continuous
 62
     7
370
    15
100
AcDbCircle
 10
149.2524575438
 20
84.8659762856
 30
0.0
 40
14.00000000000001
100
AcDbArc
 50
124.7719440319
 51
126.1822872212
  0
LINE
  5
2C9
330
1F
100
AcDbEntity
  8
0
  6
Continuous
 62
     7
370
    15
100
AcDbLine
 10
141.2680987058
 20
96.3659765154
 30
0.0
 11
142.7024584053
 21
96.3659765154
 31
0.0
  0
LINE
  5
2CA
330
1F
100
AcDbEntity
  8
0
  6
Continuous
 62
     7
370
    15
100
AcDbLine
 10
142.7024584053
 20
96.3659765154
 30
0.0
 11
142.7024584053
 21
96.1659768552
 31
0.0
  0
ARC
  5
2CB
330
1F
100
AcDbEntity
  8
0
  6
Continuous
 62
     7
370
    15
100
AcDbCircle
 10
159.6663399094
 20
88.4361329837
 30
0.0
 40
2.000000000000005
100
AcDbArc
 50
24.8357513783
 51
125.0
  0
ARC
  5
2CC
330
1F
100
AcDbEntity
  8
0
  6
Continuous
 62
     7
370
    15
100
AcDbCircle
 10
159.6663399094
 20
88.4361329837
 30
0.0
 40
1.500000000000004
100
AcDbArc
 50
24.8357513783
 51
125.0
  0
LWPOLYLINE
  5
2CD
330
1F
100
AcDbEntity
  8
0
  6
Continuous
 62
     7
370
    15
100
AcDbPolyline
 90
        9
 70
   128
 43
0.0
 10
158.5191869897
 20
90.0744371072
 10
158.5751366591
 20
89.9945324242
 10
158.6289361374
 20
89.9176992431
 10
158.6785181215
 20
89.8468889251
 10
158.7219768924
 20
89.7848227948
 10
158.7576428217
 20
89.7338869006
 10
158.7841447698
 20
89.6960379511
 10
158.8004648009
 20
89.6727306724
 10
158.8059752037
 20
89.6648609966
  0
ARC
  5
2CE
330
1F
100
AcDbEntity
  8
0
  6
Continuous
 62
     7
370
    15
100
AcDbCircle
 10
158.6148192826
 20
81.4217149625
 30
0.0
 40
0.999999999999998
100
AcDbArc
 50
152.6622556608
 51
235.0
  0
LWPOLYLINE
  5
2CF
330
1F
100
AcDbEntity
  8
0
  6
Continuous
 62
     7
370
    15
100
AcDbPolyline
 90
        9
 70
   128
 43
0.0
 10
158.0412429547
 20
80.6025628887
 10
158.035732319
 20
80.5946929801
 10
158.0194122878
 20
80.5713857014
 10
157.9929103398
 20
80.5335369848
 10
157.9572444105
 20
80.4826008577
 10
157.9137856396
 20
80.420535193
 10
157.8642036555
 20
80.349724875
 10
157.8104041772
 20
80.2728912283
 10
157.7544547407
 20
80.192987011
  0
ARC
  5
2D0
330
1F
100
AcDbEntity
  8
0
  6
Continuous
 62
     7
370
    15
100
AcDbCircle
 10
158.6148192826
 20
81.4217149625
 30
0.0
 40
1.499999999999999
100
AcDbArc
 50
152.6622556608
 51
235.0
  0
LWPOLYLINE
  5
2D1
330
1F
100
AcDbEntity
  8
0
  6
Continuous
 62
     7
370
    15
100
AcDbPolyline
 90
        9
 70
   128
 43
0.0
 10
157.7265043532
 20
81.8809498057
 10
157.717969946
 20
81.8853619464
 10
157.6926950154
 20
81.8984284021
 10
157.6516504654
 20
81.91964719
 10
157.5964137235
 20
81.9482034028
 10
157.5291075067
 20
81.9829985455
 10
157.4523185635
 20
82.0226966359
 10
157.3689977893
 20
82.0657712363
 10
157.2823468385
 20
82.1105673865
  0
LINE
  5
2D2
330
1F
100
AcDbEntity
  8
0
  6
Continuous
 62
     7
370
    15
100
AcDbLine
 10
158.0412429547
 20
80.6025628887
 30
0.0
 11
158.8059752037
 21
80.0670915239
 31
0.0
  0
LWPOLYLINE
  5
2D3
330
1F
100
AcDbEntity
  8
0
  6
Continuous
 62
     7
370
    15
100
AcDbPolyline
 90
        9
 70
   128
 43
0.0
 10
158.8059752037
 20
80.0670915239
 10
158.8004648009
 20
80.0592216153
 10
158.7841447698
 20
80.0359143365
 10
158.7576428217
 20
79.9980656199
 10
158.7219768924
 20
79.9471294928
 10
158.6785181215
 20
79.8850638282
 10
158.6289361374
 20
79.8142535102
 10
158.5751366591
 20
79.7374198634
 10
158.5191869897
 20
79.6575154133
  0
LINE
  5
2D4
330
1F
100
AcDbEntity
  8
0
  6
Continuous
 62
     7
370
    15
100
AcDbLine
 10
158.5191869897
 20
79.6575154133
 30
0.0
 11
157.7544547407
 21
80.192987011
 31
0.0
  0
ARC
  5
2D5
330
1F
100
AcDbEntity
  8
0
  6
Continuous
 62
     7
370
    15
100
AcDbCircle
 10
145.290095805
 20
81.4217149625
 30
0.0
 40
1.000000000000014
100
AcDbArc
 50
305.0
 51
27.3377443392
  0
LWPOLYLINE
  5
2D6
330
1F
100
AcDbEntity
  8
0
  6
Continuous
 62
     7
370
    15
100
AcDbPolyline
 90
        9
 70
   128
 43
0.0
 10
146.1784103674
 20
81.8809498057
 10
146.1869450075
 20
81.8853619464
 10
146.2122201709
 20
81.8984284021
 10
146.2532644881
 20
81.91964719
 10
146.30850123
 20
81.9482034028
 10
146.3758079124
 20
81.9829985455
 10
146.45259639
 20
82.0226966359
 10
146.5359171642
 20
82.0657712363
 10
146.6225683478
 20
82.1105673865
  0
ARC
  5
2D7
330
1F
100
AcDbEntity
  8
0
  6
Continuous
 62
     7
370
    15
100
AcDbCircle
 10
145.290095805
 20
81.4217149625
 30
0.0
 40
1.500000000000003
100
AcDbArc
 50
305.0
 51
27.3377443392
  0
LWPOLYLINE
  5
2D8
330
1F
100
AcDbEntity
  8
0
  6
Continuous
 62
     7
370
    15
100
AcDbPolyline
 90
        9
 70
   128
 43
0.0
 10
146.1504604457
 20
80.192987011
 10
146.094511242
 20
80.2728912283
 10
146.0407115308
 20
80.349724875
 10
145.9911297796
 20
80.420535193
 10
145.947670543
 20
80.4826008577
 10
145.9120046137
 20
80.5335369848
 10
145.8855028985
 20
80.5713857014
 10
145.8691824017
 20
80.5946929801
 10
145.8636726973
 20
80.6025628887
  0
LINE
  5
2D9
330
1F
100
AcDbEntity
  8
0
  6
Continuous
 62
     7
370
    15
100
AcDbLine
 10
137.7524584321
 20
80.8659763031
 30
0.0
 11
137.7524584321
 21
92.8503362417
 31
0.0
  0
ARC
  5
2DA
330
1F
100
AcDbEntity
  8
0
  6
Continuous
 62
     7
370
    15
100
AcDbCircle
 10
149.2524575438
 20
84.8659762856
 30
0.0
 40
13.99999999999999
100
AcDbArc
 50
143.8177127788
 51
145.2280559681
  0
LINE
  5
2DB
330
1F
100
AcDbEntity
  8
0
  6
Continuous
 62
     7
370
    15
100
AcDbLine
 10
137.9524580923
 20
93.1309623599
 30
0.0
 11
137.9524580923
 21
80.6132588957
 31
0.0
  0
LINE
  5
2DC
330
1F
100
AcDbEntity
  8
0
  6
Continuous
 62
     7
370
    15
100
AcDbLine
 10
137.9524580923
 20
80.6132588957
 30
0.0
 11
137.7524584321
 21
80.8659763031
 31
0.0
  0
LINE
  5
2DD
330
1F
100
AcDbEntity
  8
0
  6
Continuous
 62
     7
370
    15
100
AcDbLine
 10
166.1524576855
 20
92.8503362417
 30
0.0
 11
166.1524576855
 21
80.8659763031
 31
0.0
  0
LINE
  5
2DE
330
1F
100
AcDbEntity
  8
0
  6
Continuous
 62
     7
370
    15
100
AcDbLine
 10
165.9524575596
 20
80.6132588957
 30
0.0
 11
165.9524575596
 21
93.1309623599
 31
0.0
  0
ARC
  5
2DF
330
1F
100
AcDbEntity
  8
0
  6
Continuous
 62
     7
370
    15
100
AcDbCircle
 10
154.6524575438
 20
84.8659762856
 30
0.0
 40
14.00000000000001
100
AcDbArc
 50
34.7719440319
 51
36.1822872212
  0
LINE
  5
2E0
330
1F
100
AcDbEntity
  8
0
  6
Continuous
 62
     7
370
    15
100
AcDbLine
 10
166.1524576855
 20
80.8659763031
 30
0.0
 11
165.9524575596
 21
80.6132588957
 31
0.0
  0
ARC
  5
2E1
330
1F
100
AcDbEntity
  8
0
  6
Continuous
 62
     7
370
    15
100
AcDbCircle
 10
151.9524575438
 20
84.8659762856
 30
0.0
 40
10.50000000000002
100
AcDbArc
 50
155.1642486217
 51
204.8357513783
  0
LWPOLYLINE
  5
2E2
330
1F
100
AcDbEntity
  8
0
  6
Continuous
 62
     7
370
    15
100
AcDbPolyline
 90
        9
 70
   128
 43
0.0
 10
142.423544058
 20
89.2761697948
 10
142.5120681313
 20
89.2351990521
 10
142.597189152
 20
89.1958031759
 10
142.6756381778
 20
89.159494634
 10
142.7443995861
 20
89.1276713416
 10
142.8008302835
 20
89.1015533313
 10
142.8427621511
 20
89.0821464315
 10
142.8685821382
 20
89.0701957002
 10
142.8773011801
 20
89.0661602795
  0
ARC
  5
2E3
330
1F
100
AcDbEntity
  8
0
  6
Continuous
 62
     7
370
    15
100
AcDbCircle
 10
151.9524575438
 20
84.8659762856
 30
0.0
 40
10.00000000000001
100
AcDbArc
 50
155.1642486217
 51
204.8357513783
  0
LWPOLYLINE
  5
2E4
330
1F
100
AcDbEntity
  8
0
  6
Continuous
 62
     7
370
    15
100
AcDbPolyline
 90
        9
 70
   128
 43
0.0
 10
142.423544058
 20
80.4557827257
 10
142.5120681313
 20
80.4967534684
 10
142.597189152
 20
80.5361498103
 10
142.6756381778
 20
80.5724576537
 10
142.7443995861
 20
80.6042816445
 10
142.8008302835
 20
80.6303989563
 10
142.8427621511
 20
80.6498058561
 10
142.8685821382
 20
80.6617565874
 10
142.8773011801
 20
80.6657920081
  0
ARC
  5
2E5
330
1F
100
AcDbEntity
  8
0
  6
Continuous
 62
     7
370
    15
100
AcDbCircle
 10
144.2385751782
 20
88.4361329837
 30
0.0
 40
1.499999999999999
100
AcDbArc
 50
55.0
 51
155.1642486217
  0
ARC
  5
2E6
330
1F
100
AcDbEntity
  8
0
  6
Continuous
 62
     7
370
    15
100
AcDbCircle
 10
144.2385751782
 20
88.4361329837
 30
0.0
 40
1.999999999999999
100
AcDbArc
 50
55.0
 51
155.1642486217
  0
LWPOLYLINE
  5
2E7
330
1F
100
AcDbEntity
  8
0
  6
Continuous
 62
     7
370
    15
100
AcDbPolyline
 90
        9
 70
   128
 43
0.0
 10
145.0989395169
 20
89.6648609966
 10
145.1044510839
 20
89.6727306724
 10
145.1207697181
 20
89.6960379511
 10
145.1472714332
 20
89.7338869006
 10
145.1829373626
 20
89.7848227948
 10
145.2263965992
 20
89.8468889251
 10
145.2759783504
 20
89.9176992431
 10
145.3297789929
 20
89.9945324242
 10
145.3857281966
 20
90.0744371072
  0
LINE
  5
2E8
330
1F
100
AcDbEntity
  8
0
  6
Continuous
 62
     7
370
    15
100
AcDbLine
 10
161.2024575377
 20
96.3659765154
 30
0.0
 11
162.6368172954
 21
96.3659765154
 31
0.0
  0
ARC
  5
2E9
330
1F
100
AcDbEntity
  8
0
  6
Continuous
 62
     7
370
    15
100
AcDbCircle
 10
154.6524575438
 20
84.8659762856
 30
0.0
 40
14.00000000000001
100
AcDbArc
 50
53.8177127788
 51
55.2280559681
  0
LINE
  5
2EA
330
1F
100
AcDbEntity
  8
0
  6
Continuous
 62
     7
370
    15
100
AcDbLine
 10
162.9174438793
 20
96.1659768552
 30
0.0
 11
161.2024575377
 21
96.1659768552
 31
0.0
  0
LINE
  5
2EB
330
1F
100
AcDbEntity
  8
0
  6
Continuous
 62
     7
370
    15
100
AcDbLine
 10
161.2024575377
 20
96.1659768552
 30
0.0
 11
161.2024575377
 21
96.3659765154
 31
0.0
  0
ARC
  5
2EC
330
1F
100
AcDbEntity
  8
0
  6
Continuous
 62
     7
370
    15
100
AcDbCircle
 10
158.6148192826
 20
88.3102376086
 30
0.0
 40
1.000000000000004
100
AcDbArc
 50
125.0
 51
207.3377443392
  0
LWPOLYLINE
  5
2ED
330
1F
100
AcDbEntity
  8
0
  6
Continuous
 62
     7
370
    15
100
AcDbPolyline
 90
        9
 70
   128
 43
0.0
 10
157.7265043532
 20
87.8510031805
 10
157.717969946
 20
87.8465905741
 10
157.6926950154
 20
87.8335241184
 10
157.6516504654
 20
87.8123048648
 10
157.5964137235
 20
87.7837495834
 10
157.5291075067
 20
87.7489535093
 10
157.4523185635
 20
87.7092558846
 10
157.3689977893
 20
87.6661812842
 10
157.2823468385
 20
87.6213855997
  0
ARC
  5
2EE
330
1F
100
AcDbEntity
  8
0
  6
Continuous
 62
     7
370
    15
100
AcDbCircle
 10
158.6148192826
 20
88.3102376086
 30
0.0
 40
1.499999999999992
100
AcDbArc
 50
125.0
 51
207.3377443392
  0
LWPOLYLINE
  5
2EF
330
1F
100
AcDbEntity
  8
0
  6
Continuous
 62
     7
370
    15
100
AcDbPolyline
 90
        9
 70
   128
 43
0.0
 10
157.7544547407
 20
89.5389657423
 10
157.8104041772
 20
89.4590610594
 10
157.8642036555
 20
89.3822278783
 10
157.9137856396
 20
89.3114175603
 10
157.9572444105
 20
89.24935143
 10
157.9929103398
 20
89.1984155357
 10
158.0194122878
 20
89.1605665863
 10
158.035732319
 20
89.1372593075
 10
158.0412429547
 20
89.1293896318
  0
LINE
  5
2F0
330
1F
100
AcDbEntity
  8
0
  6
Continuous
 62
     7
370
    15
100
AcDbLine
 10
145.8636726973
 20
89.1293896318
 30
0.0
 11
145.0989395169
 21
89.6648609966
 31
0.0
  0
LINE
  5
2F1
330
1F
100
AcDbEntity
  8
0
  6
Continuous
 62
     7
370
    15
100
AcDbLine
 10
145.3857281966
 20
90.0744371072
 30
0.0
 11
146.1504604457
 21
89.5389657423
 31
0.0
  0
LWPOLYLINE
  5
2F2
330
1F
100
AcDbEntity
  8
0
  6
Continuous
 62
     7
370
    15
100
AcDbPolyline
 90
        9
 70
   128
 43
0.0
 10
145.8636726973
 20
89.1293896318
 10
145.8691824017
 20
89.1372593075
 10
145.8855028985
 20
89.1605665863
 10
145.9120046137
 20
89.1984155357
 10
145.947670543
 20
89.24935143
 10
145.9911297796
 20
89.3114175603
 10
146.0407115308
 20
89.3822278783
 10
146.094511242
 20
89.4590610594
 10
146.1504604457
 20
89.5389657423
  0
ARC
  5
2F3
330
1F
100
AcDbEntity
  8
0
  6
Continuous
 62
     7
370
    15
100
AcDbCircle
 10
159.6663399094
 20
81.2958195874
 30
0.0
 40
1.499999999999999
100
AcDbArc
 50
235.0
 51
335.1642486217
  0
ARC
  5
2F4
330
1F
100
AcDbEntity
  8
0
  6
Continuous
 62
     7
370
    15
100
AcDbCircle
 10
159.6663399094
 20
81.2958195874
 30
0.0
 40
1.999999999999999
100
AcDbArc
 50
235.0
 51
335.1642486217
  0
ARC
  5
2F5
330
1F
100
AcDbEntity
  8
0
  6
Continuous
 62
     7
370
    15
100
AcDbCircle
 10
145.290095805
 20
88.3102376086
 30
0.0
 40
0.999999999999998
100
AcDbArc
 50
332.6622556608
 51
55.0
  0
ARC
  5
2F6
330
1F
100
AcDbEntity
  8
0
  6
Continuous
 62
     7
370
    15
100
AcDbCircle
 10
145.290095805
 20
88.3102376086
 30
0.0
 40
1.500000000000019
100
AcDbArc
 50
332.6622556608
 51
55.0
  0
LWPOLYLINE
  5
2F7
330
1F
100
AcDbEntity
  8
0
  6
Continuous
 62
     7
370
    15
100
AcDbPolyline
 90
        9
 70
   128
 43
0.0
 10
146.1784103674
 20
87.8510031805
 10
146.1869450075
 20
87.8465905741
 10
146.2122201709
 20
87.8335241184
 10
146.2532644881
 20
87.8123048648
 10
146.30850123
 20
87.7837495834
 10
146.3758079124
 20
87.7489535093
 10
146.45259639
 20
87.7092558846
 10
146.5359171642
 20
87.6661812842
 10
146.6225683478
 20
87.6213855997
  0
LINE
  5
2F8
330
1F
100
AcDbEntity
  8
0
  6
Continuous
 62
     7
370
    15
100
AcDbLine
 10
145.452457459
 20
78.3659762425
 30
0.0
 11
139.730952659
 21
78.3659762425
 31
0.0
  0
LINE
  5
2F9
330
1F
100
AcDbEntity
  8
0
  6
Continuous
 62
     7
370
    15
100
AcDbLine
 10
149.1941148204
 20
94.8659772009
 30
0.0
 11
154.7108003659
 21
94.8659772009
 31
0.0
  0
LINE
  5
2FA
330
1F
100
AcDbEntity
  8
0
  6
Continuous
 62
     7
370
    15
100
AcDbLine
 10
154.7108003659
 20
74.8659762509
 30
0.0
 11
149.1941148204
 21
74.8659762509
 31
0.0
  0
ARC
  5
2FB
330
1F
100
AcDbEntity
  8
0
  6
Continuous
 62
     7
370
    15
100
AcDbCircle
 10
144.2385751782
 20
81.2958195874
 30
0.0
 40
2.000000000000011
100
AcDbArc
 50
204.8357513783
 51
305.0
  0
LINE
  5
2FC
330
1F
100
AcDbEntity
  8
0
  6
Continuous
 62
     7
370
    15
100
AcDbLine
 10
146.1504604457
 20
80.192987011
 30
0.0
 11
145.3857281966
 21
79.6575154133
 31
0.0
  0
ARC
  5
2FD
330
1F
100
AcDbEntity
  8
0
  6
Continuous
 62
     7
370
    15
100
AcDbCircle
 10
151.9524575438
 20
84.8659762856
 30
0.0
 40
6.000000000000008
100
AcDbArc
 50
152.6622556608
 51
207.3377443392
  0
LINE
  5
2FE
330
1F
100
AcDbEntity
  8
0
  6
Continuous
 62
     7
370
    15
100
AcDbLine
 10
157.7544547407
 20
89.5389657423
 30
0.0
 11
158.5191869897
 21
90.0744371072
 31
0.0
  0
ARC
  5
2FF
330
1F
100
AcDbEntity
  8
0
  6
Continuous
 62
     7
370
    15
100
AcDbCircle
 10
151.9524575438
 20
84.8659762856
 30
0.0
 40
6.000000000000014
100
AcDbArc
 50
332.6622556608
 51
27.3377443392
  0
ARC
  5
300
330
1F
100
AcDbEntity
  8
0
  6
Continuous
 62
     7
370
    15
100
AcDbCircle
 10
149.1941149306
 20
93.8659762856
 30
0.0
 40
1.0
100
AcDbArc
 50
90.0
 51
176.1774462707
  0
ARC
  5
301
330
1F
100
AcDbEntity
  8
0
  6
Continuous
 62
     7
370
    15
100
AcDbCircle
 10
154.710800157
 20
93.8659762856
 30
0.0
 40
1.0
100
AcDbArc
 50
3.8225537293
 51
90.0
  0
ARC
  5
302
330
1F
100
AcDbEntity
  8
0
  6
Continuous
 62
     7
370
    15
100
AcDbCircle
 10
149.1941149306
 20
75.8659762856
 30
0.0
 40
1.000000000000002
100
AcDbArc
 50
183.8225537293
 51
270.0
  0
ARC
  5
303
330
1F
100
AcDbEntity
  8
0
  6
Continuous
 62
     7
370
    15
100
AcDbCircle
 10
149.2524575438
 20
84.8659762856
 30
0.0
 40
14.00000000000001
100
AcDbArc
 50
126.1822872212
 51
143.8177127788
  0
ARC
  5
304
330
1F
100
AcDbEntity
  8
0
  6
Continuous
 62
     7
370
    15
100
AcDbCircle
 10
154.6524575438
 20
84.8659762856
 30
0.0
 40
14.00000000000001
100
AcDbArc
 50
36.1822872212
 51
53.8177127788
  0
LINE
  5
305
330
1F
100
AcDbEntity
  8
0
  6
Continuous
 62
     7
370
    15
100
AcDbLine
 10
164.1739629929
 20
78.3659762425
 30
0.0
 11
158.4524574944
 21
78.3659762425
 31
0.0
  0
LINE
  5
306
330
1F
100
AcDbEntity
  8
0
  6
Continuous
 62
     7
370
    15
100
AcDbLine
 10
161.2024575377
 20
94.115975681
 30
0.0
 11
161.2024575377
 21
96.1659768552
 31
0.0
  0
LINE
  5
307
330
1F
100
AcDbEntity
  8
0
  6
Continuous
 62
     7
370
    15
100
AcDbLine
 10
142.7024584053
 20
96.1659768552
 30
0.0
 11
142.7024584053
 21
94.115975681
 31
0.0
  0
ARC
  5
308
330
1F
100
AcDbEntity
  8
0
  6
Continuous
 62
     7
370
    15
100
AcDbCircle
 10
145.4524575438
 20
75.6159762856
 30
0.0
 40
2.750000000000023
100
AcDbArc
 50
3.8225537293
 51
90.0
  0
LINE
  5
309
330
1F
100
AcDbEntity
  8
0
  6
Continuous
 62
     7
370
    15
100
AcDbLine
 10
165.9524575596
 20
80.6132588957
 30
0.0
 11
164.1739629929
 21
78.3659762425
 31
0.0
  0
ARC
  5
30A
330
1F
100
AcDbEntity
  8
0
  6
Continuous
 62
     7
370
    15
100
AcDbCircle
 10
158.4524575438
 20
94.1159762856
 30
0.0
 40
2.750000000000023
100
AcDbArc
 50
183.8225537293
 51
0.0
  0
ARC
  5
30B
330
1F
100
AcDbEntity
  8
0
  6
Continuous
 62
     7
370
    15
100
AcDbCircle
 10
145.4524575438
 20
94.1159762856
 30
0.0
 40
2.750000000000023
100
AcDbArc
 50
180.0
 51
356.1774462707
  0
ARC
  5
30C
330
1F
100
AcDbEntity
  8
0
  6
Continuous
 62
     7
370
    15
100
AcDbCircle
 10
158.4524575438
 20
75.6159762856
 30
0.0
 40
2.75
100
AcDbArc
 50
90.0
 51
176.1774462707
  0
LINE
  5
30D
330
1F
100
AcDbEntity
  8
0
  6
Continuous
 62
     7
370
    15
100
AcDbLine
 10
139.730952659
 20
78.3659762425
 30
0.0
 11
137.9524580923
 21
80.6132588957
 31
0.0
  0
ARC
  5
30E
330
1F
100
AcDbEntity
  8
0
  6
Continuous
 62
     7
370
    15
100
AcDbCircle
 10
154.710800157
 20
75.8659762856
 30
0.0
 40
1.00000000000003
100
AcDbArc
 50
270.0
 51
356.1774462707
  0
LINE
  5
30F
330
1F
100
AcDbEntity
  8
0
  6
Continuous
 62
     7
370
    15
100
AcDbLine
 10
158.8059752037
 20
89.6648609966
 30
0.0
 11
158.0412429547
 21
89.1293896318
 31
0.0
  0
ARC
  5
310
330
1F
100
AcDbEntity
  8
0
  6
Continuous
 62
     7
370
    15
100
AcDbCircle
 10
144.2385751782
 20
81.2958195874
 30
0.0
 40
1.500000000000003
100
AcDbArc
 50
204.8357513783
 51
305.0
  0
LWPOLYLINE
  5
311
330
1F
100
AcDbEntity
  8
0
  6
Continuous
 62
     7
370
    15
100
AcDbPolyline
 90
        9
 70
   128
 43
0.0
 10
145.3857281966
 20
79.6575154133
 10
145.3297789929
 20
79.7374198634
 10
145.2759783504
 20
79.8142535102
 10
145.2263965992
 20
79.8850638282
 10
145.1829373626
 20
79.9471294928
 10
145.1472714332
 20
79.9980656199
 10
145.1207697181
 20
80.0359143365
 10
145.1044510839
 20
80.0592216153
 10
145.0989395169
 20
80.0670915239
  0
ARC
  5
312
330
1F
100
AcDbEntity
  8
0
  6
Continuous
 62
     7
370
    15
100
AcDbCircle
 10
151.9524575438
 20
84.8659762856
 30
0.0
 40
6.500000000000021
100
AcDbArc
 50
152.6622556608
 51
207.3377443392
  0
ARC
  5
313
330
1F
100
AcDbEntity
  8
0
  6
Continuous
 62
     7
370
    15
100
AcDbCircle
 10
151.9524575438
 20
84.8659762856
 30
0.0
 40
6.499999999999991
100
AcDbArc
 50
332.6622556608
 51
27.3377443392
  0
LINE
  5
314
330
1F
100
AcDbEntity
  8
0
  6
Continuous
 62
     7
370
    15
100
AcDbLine
 10
145.0989395169
 20
80.0670915239
 30
0.0
 11
145.8636726973
 21
80.6025628887
 31
0.0
  0
ARC
  5
315
330
1F
100
AcDbEntity
  8
0
  6
Continuous
 62
     7
370
    15
100
AcDbCircle
 10
144.2385751782
 20
88.4361329837
 30
0.0
 40
1.000000000000009
100
AcDbArc
 50
55.0
 51
155.1642486217
  0
LWPOLYLINE
  5
316
330
1F
100
AcDbEntity
  8
0
  6
Continuous
 62
     7
370
    15
100
AcDbPolyline
 90
        9
 70
   128
 43
0.0
 10
142.8773011801
 20
89.0661602795
 10
142.8860202221
 20
89.0621257901
 10
142.9118420718
 20
89.0501750589
 10
142.9537739394
 20
89.030768159
 10
143.0102046368
 20
89.0046501488
 10
143.0789660452
 20
88.9728259251
 10
143.1574132083
 20
88.9365183145
 10
143.2425360916
 20
88.8971224383
 10
143.3310601649
 20
88.8561516956
  0
LWPOLYLINE
  5
317
330
1F
100
AcDbEntity
  8
0
  6
Continuous
 62
     7
370
    15
100
AcDbPolyline
 90
        9
 70
   128
 43
0.0
 10
144.8121517686
 20
89.2552848861
 10
144.8681019036
 20
89.335189569
 10
144.9219006834
 20
89.4120227501
 10
144.9714824346
 20
89.4828330681
 10
145.0149416713
 20
89.5448991984
 10
145.0506076006
 20
89.5958350927
 10
145.0771093158
 20
89.6336840421
 10
145.0934298126
 20
89.6569913209
 10
145.0989395169
 20
89.6648609966
  0
ARC
  5
318
330
1F
100
AcDbEntity
  8
0
  6
Continuous
 62
     7
370
    15
100
AcDbCircle
 10
158.6148192826
 20
88.3102376086
 30
0.0
 40
0.5000000000000022
100
AcDbArc
 50
125.0
 51
207.3377443392
  0
LWPOLYLINE
  5
319
330
1F
100
AcDbEntity
  8
0
  6
Continuous
 62
     7
370
    15
100
AcDbPolyline
 90
        9
 70
   128
 43
0.0
 10
158.1706618679
 20
88.0806198299
 10
158.0840109171
 20
88.0358241454
 10
158.000690143
 20
87.992749545
 10
157.9239011997
 20
87.9530519202
 10
157.8565949829
 20
87.9182558462
 10
157.8013584738
 20
87.8897005648
 10
157.7603139238
 20
87.8684813112
 10
157.7350387605
 20
87.8554148555
 10
157.7265043532
 20
87.8510031805
  0
LWPOLYLINE
  5
31A
330
1F
100
AcDbEntity
  8
0
  6
Continuous
 62
     7
370
    15
100
AcDbPolyline
 90
        9
 70
   128
 43
0.0
 10
158.0412429547
 20
89.1293896318
 10
158.0467533575
 20
89.121519956
 10
158.0630733886
 20
89.0982126773
 10
158.0895753366
 20
89.0603637278
 10
158.125241266
 20
89.0094278336
 10
158.1687000369
 20
88.9473617032
 10
158.218282021
 20
88.8765513852
 10
158.2720814993
 20
88.7997182042
 10
158.3280311687
 20
88.7198135212
  0
ARC
  5
31B
330
1F
100
AcDbEntity
  8
0
  6
Continuous
 62
     7
370
    15
100
AcDbCircle
 10
151.9524575438
 20
84.8659762856
 30
0.0
 40
6.999999999999994
100
AcDbArc
 50
332.6622556608
 51
27.3377443392
  0
LWPOLYLINE
  5
31C
330
1F
100
AcDbEntity
  8
0
  6
Continuous
 62
     7
370
    15
100
AcDbPolyline
 90
        9
 70
   128
 43
0.0
 10
158.1706618679
 20
81.6513322249
 10
158.0840109171
 20
81.6961283751
 10
158.000690143
 20
81.7392029755
 10
157.9239011997
 20
81.7789010659
 10
157.8565949829
 20
81.8136962086
 10
157.8013584738
 20
81.8422524214
 10
157.7603139238
 20
81.8634712093
 10
157.7350387605
 20
81.876537665
 10
157.7265043532
 20
81.8809498057
  0
LINE
  5
31D
330
1F
100
AcDbEntity
  8
0
  6
Continuous
 62
     7
370
    15
100
AcDbLine
 10
145.5768840177
 20
88.7198135212
 30
0.0
 11
144.8121517686
 21
89.2552848861
 31
0.0
  0
LWPOLYLINE
  5
31E
330
1F
100
AcDbEntity
  8
0
  6
Continuous
 62
     7
370
    15
100
AcDbPolyline
 90
        9
 70
   128
 43
0.0
 10
145.5768840177
 20
88.7198135212
 10
145.6328332213
 20
88.7997182042
 10
145.6866329325
 20
88.8765513852
 10
145.7362146837
 20
88.9473617032
 10
145.7796739203
 20
89.0094278336
 10
145.8153398497
 20
89.0603637278
 10
145.8418415648
 20
89.0982126773
 10
145.8581620616
 20
89.121519956
 10
145.8636726973
 20
89.1293896318
  0
LWPOLYLINE
  5
31F
330
1F
100
AcDbEntity
  8
0
  6
Continuous
 62
     7
370
    15
100
AcDbPolyline
 90
        9
 70
   128
 43
0.0
 10
158.8059752037
 20
89.6648609966
 10
158.8114858394
 20
89.6569913209
 10
158.8278056377
 20
89.6336840421
 10
158.8543078186
 20
89.5958350927
 10
158.889973515
 20
89.5448991984
 10
158.9334325188
 20
89.4828330681
 10
158.9830142701
 20
89.4120227501
 10
159.0368139812
 20
89.335189569
 10
159.0927634177
 20
89.2552848861
  0
LINE
  5
320
330
1F
100
AcDbEntity
  8
0
  6
Continuous
 62
     7
370
    15
100
AcDbLine
 10
159.0927634177
 20
89.2552848861
 30
0.0
 11
158.3280311687
 21
88.7198135212
 31
0.0
  0
ARC
  5
321
330
1F
100
AcDbEntity
  8
0
  6
Continuous
 62
     7
370
    15
100
AcDbCircle
 10
151.9524575438
 20
84.8659762856
 30
0.0
 40
9.500000000000016
100
AcDbArc
 50
155.1642486217
 51
204.8357513783
  0
LWPOLYLINE
  5
322
330
1F
100
AcDbEntity
  8
0
  6
Continuous
 62
     7
370
    15
100
AcDbPolyline
 90
        9
 70
   128
 43
0.0
 10
142.8773011801
 20
80.6657920081
 10
142.8860202221
 20
80.669827196
 10
142.9118420718
 20
80.6817779273
 10
142.9537739394
 20
80.7011848271
 10
143.0102046368
 20
80.7273021389
 10
143.0789660452
 20
80.7591263626
 10
143.1574132083
 20
80.795434206
 10
143.2425360916
 20
80.8348303151
 10
143.3310601649
 20
80.8758010578
  0
LWPOLYLINE
  5
323
330
1F
100
AcDbEntity
  8
0
  6
Continuous
 62
     7
370
    15
100
AcDbPolyline
 90
        9
 70
   128
 43
0.0
 10
161.0276132677
 20
89.0661602795
 10
161.0188944395
 20
89.0621257901
 10
160.9930730136
 20
89.0501750589
 10
160.9511412942
 20
89.030768159
 10
160.8947106877
 20
89.0046501488
 10
160.825949796
 20
88.9728259251
 10
160.7475010758
 20
88.9365183145
 10
160.6623792403
 20
88.8971224383
 10
160.573855487
 20
88.8561516956
  0
ARC
  5
324
330
1F
100
AcDbEntity
  8
0
  6
Continuous
 62
     7
370
    15
100
AcDbCircle
 10
159.6663399094
 20
88.4361329837
 30
0.0
 40
1.000000000000028
100
AcDbArc
 50
24.8357513783
 51
125.0
  0
LINE
  5
325
330
1F
100
AcDbEntity
  8
0
  6
Continuous
 62
     7
370
    15
100
AcDbLine
 10
158.3280311687
 20
81.0121389993
 30
0.0
 11
159.0927634177
 21
80.4766676344
 31
0.0
  0
LWPOLYLINE
  5
326
330
1F
100
AcDbEntity
  8
0
  6
Continuous
 62
     7
370
    15
100
AcDbPolyline
 90
        9
 70
   128
 43
0.0
 10
159.0927634177
 20
80.4766676344
 10
159.0368139812
 20
80.3967631843
 10
158.9830142701
 20
80.3199295376
 10
158.9334325188
 20
80.2491192196
 10
158.889973515
 20
80.1870535549
 10
158.8543078186
 20
80.1361174278
 10
158.8278056377
 20
80.0982687112
 10
158.8114858394
 20
80.0749614325
 10
158.8059752037
 20
80.0670915239
  0
LWPOLYLINE
  5
327
330
1F
100
AcDbEntity
  8
0
  6
Continuous
 62
     7
370
    15
100
AcDbPolyline
 90
        9
 70
   128
 43
0.0
 10
158.3280311687
 20
81.0121389993
 10
158.2720814993
 20
80.9322345492
 10
158.218282021
 20
80.8554009024
 10
158.1687000369
 20
80.7845905844
 10
158.125241266
 20
80.7225249197
 10
158.0895753366
 20
80.6715890255
 10
158.0630733886
 20
80.6337400761
 10
158.0467533575
 20
80.6104327973
 10
158.0412429547
 20
80.6025628887
  0
LWPOLYLINE
  5
328
330
1F
100
AcDbEntity
  8
0
  6
Continuous
 62
     7
370
    15
100
AcDbPolyline
 90
        9
 70
   128
 43
0.0
 10
145.0989395169
 20
80.0670915239
 10
145.0934298126
 20
80.0749614325
 10
145.0771093158
 20
80.0982687112
 10
145.0506076006
 20
80.1361174278
 10
145.0149416713
 20
80.1870535549
 10
144.9714824346
 20
80.2491192196
 10
144.9219006834
 20
80.3199295376
 10
144.8681019036
 20
80.3967631843
 10
144.8121517686
 20
80.4766676344
  0
LINE
  5
329
330
1F
100
AcDbEntity
  8
0
  6
Continuous
 62
     7
370
    15
100
AcDbLine
 10
144.8121517686
 20
80.4766676344
 30
0.0
 11
145.5768840177
 21
81.0121389993
 31
0.0
  0
LWPOLYLINE
  5
32A
330
1F
100
AcDbEntity
  8
0
  6
Continuous
 62
     7
370
    15
100
AcDbPolyline
 90
        9
 70
   128
 43
0.0
 10
145.8636726973
 20
80.6025628887
 10
145.8581620616
 20
80.6104327973
 10
145.8418415648
 20
80.6337400761
 10
145.8153398497
 20
80.6715890255
 10
145.7796739203
 20
80.7225249197
 10
145.7362146837
 20
80.7845905844
 10
145.6866329325
 20
80.8554009024
 10
145.6328332213
 20
80.9322345492
 10
145.5768840177
 20
81.0121389993
  0
ARC
  5
32B
330
1F
100
AcDbEntity
  8
0
  6
Continuous
 62
     7
370
    15
100
AcDbCircle
 10
159.6663399094
 20
81.2958195874
 30
0.0
 40
1.000000000000022
100
AcDbArc
 50
235.0
 51
335.1642486217
  0
LWPOLYLINE
  5
32C
330
1F
100
AcDbEntity
  8
0
  6
Continuous
 62
     7
370
    15
100
AcDbPolyline
 90
        9
 70
   128
 43
0.0
 10
161.0276132677
 20
80.6657920081
 10
161.0188944395
 20
80.669827196
 10
160.9930730136
 20
80.6817779273
 10
160.9511412942
 20
80.7011848271
 10
160.8947106877
 20
80.7273021389
 10
160.825949796
 20
80.7591263626
 10
160.7475010758
 20
80.795434206
 10
160.6623792403
 20
80.8348303151
 10
160.573855487
 20
80.8758010578
  0
ARC
  5
32D
330
1F
100
AcDbEntity
  8
0
  6
Continuous
 62
     7
370
    15
100
AcDbCircle
 10
145.290095805
 20
81.4217149625
 30
0.0
 40
0.5000000000000128
100
AcDbArc
 50
305.0
 51
27.3377443392
  0
LWPOLYLINE
  5
32E
330
1F
100
AcDbEntity
  8
0
  6
Continuous
 62
     7
370
    15
100
AcDbPolyline
 90
        9
 70
   128
 43
0.0
 10
145.7342533184
 20
81.6513322249
 10
145.820904502
 20
81.6961283751
 10
145.9042252762
 20
81.7392029755
 10
145.9810137538
 20
81.7789010659
 10
146.0483204363
 20
81.8136962086
 10
146.1035562468
 20
81.8422524214
 10
146.1446014953
 20
81.8634712093
 10
146.1698766587
 20
81.876537665
 10
146.1784103674
 20
81.8809498057
  0
ARC
  5
32F
330
1F
100
AcDbEntity
  8
0
  6
Continuous
 62
     7
370
    15
100
AcDbCircle
 10
158.6148192826
 20
81.4217149625
 30
0.0
 40
0.5000000000000022
100
AcDbArc
 50
152.6622556608
 51
235.0
  0
ARC
  5
330
330
1F
100
AcDbEntity
  8
0
  6
Continuous
 62
     7
370
    15
100
AcDbCircle
 10
151.9524575438
 20
84.8659762856
 30
0.0
 40
9.500000000000018
100
AcDbArc
 50
335.1642486217
 51
24.8357513783
  0
ARC
  5
331
330
1F
100
AcDbEntity
  8
0
  6
Continuous
 62
     7
370
    15
100
AcDbCircle
 10
145.290095805
 20
88.3102376086
 30
0.0
 40
0.500000000000021
100
AcDbArc
 50
332.6622556608
 51
55.0
  0
LWPOLYLINE
  5
332
330
1F
100
AcDbEntity
  8
0
  6
Continuous
 62
     7
370
    15
100
AcDbPolyline
 90
        9
 70
   128
 43
0.0
 10
145.7342533184
 20
88.0806198299
 10
145.820904502
 20
88.0358241454
 10
145.9042252762
 20
87.992749545
 10
145.9810137538
 20
87.9530519202
 10
146.0483204363
 20
87.9182558462
 10
146.1035562468
 20
87.8897005648
 10
146.1446014953
 20
87.8684813112
 10
146.1698766587
 20
87.8554148555
 10
146.1784103674
 20
87.8510031805
  0
ARC
  5
333
330
1F
100
AcDbEntity
  8
0
  6
Continuous
 62
     7
370
    15
100
AcDbCircle
 10
151.9524575438
 20
84.8659762856
 30
0.0
 40
7.000000000000005
100
AcDbArc
 50
152.6622556608
 51
207.3377443392
  0
ARC
  5
334
330
1F
100
AcDbEntity
  8
0
  6
Continuous
 62
     7
370
    15
100
AcDbCircle
 10
144.2385751782
 20
81.2958195874
 30
0.0
 40
0.9999999999999905
100
AcDbArc
 50
204.8357513783
 51
305.0
  0
ARC
  5
335
330
1F
100
AcDbEntity
  8
0
  6
Continuous
 62
     7
370
    15
100
AcDbCircle
 10
160.3881330618
 20
76.3659762856
 30
0.0
 40
3.0
100
AcDbArc
 50
270.0
 51
359.845992817
  0
LINE
  5
336
330
1F
100
AcDbEntity
  8
0
  6
Continuous
 62
     7
370
    15
100
AcDbLine
 10
157.8889491291
 20
73.3659764707
 30
0.0
 11
160.3881330601
 21
73.3659764707
 31
0.0
  0
ARC
  5
337
330
1F
100
AcDbEntity
  8
0
  6
Continuous
 62
     7
370
    15
100
AcDbCircle
 10
157.8889492169
 20
75.3659762856
 30
0.0
 40
2.0
100
AcDbArc
 50
218.6821874535
 51
270.0
  0
ARC
  5
338
330
1F
100
AcDbEntity
  8
0
  6
Continuous
 62
     7
370
    15
100
AcDbCircle
 10
154.7664502177
 20
72.8659762856
 30
0.0
 40
2.0
100
AcDbArc
 50
38.6821874535
 51
90.0
  0
ARC
  5
339
330
1F
100
AcDbEntity
  8
0
  6
Continuous
 62
     7
370
    15
100
AcDbCircle
 10
166.3881113869
 20
76.3498487105
 30
0.0
 40
3.000000000000018
100
AcDbArc
 50
146.900066766
 51
179.845992817
  0
LINE
  5
33A
330
1F
100
AcDbEntity
  8
0
  6
Continuous
 62
     7
370
    15
100
AcDbLine
 10
163.8749532656
 20
77.9881516543
 30
0.0
 11
164.1739629929
 21
78.3659762425
 31
0.0
  0
ARC
  5
33B
330
1F
100
AcDbEntity
  8
0
  6
Continuous
 62
     7
370
    15
100
AcDbCircle
 10
143.5167820258
 20
76.3659762856
 30
0.0
 40
3.0
100
AcDbArc
 50
180.154007183
 51
270.0
  0
ARC
  5
33C
330
1F
100
AcDbEntity
  8
0
  6
Continuous
 62
     7
370
    15
100
AcDbCircle
 10
137.5168037007
 20
76.3498487105
 30
0.0
 40
2.999999999999989
100
AcDbArc
 50
0.154007183
 51
33.099933234
  0
ARC
  5
33D
330
1F
100
AcDbEntity
  8
0
  6
Continuous
 62
     7
370
    15
100
AcDbCircle
 10
149.1384648699
 20
72.8659762856
 30
0.0
 40
2.0
100
AcDbArc
 50
90.0
 51
141.3178125465
  0
LINE
  5
33E
330
1F
100
AcDbEntity
  8
0
  6
Continuous
 62
     7
370
    15
100
AcDbLine
 10
143.5167826501
 20
73.3659764707
 30
0.0
 11
146.01596629
 21
73.3659764707
 31
0.0
  0
ARC
  5
33F
330
1F
100
AcDbEntity
  8
0
  6
Continuous
 62
     7
370
    15
100
AcDbCircle
 10
146.0159658707
 20
75.3659762856
 30
0.0
 40
2.0
100
AcDbArc
 50
270.0
 51
321.3178125465
  0
LINE
  5
340
330
1F
100
AcDbEntity
  8
0
  6
Continuous
 62
     7
370
    15
100
AcDbLine
 10
140.0299612222
 20
77.9881516543
 30
0.0
 11
139.730952659
 21
78.3659762425
 31
0.0
  0
ARC
  5
341
330
1F
100
AcDbEntity
  8
0
  6
Continuous
 62
     7
370
    15
100
AcDbCircle
 10
146.0159658707
 20
94.3659762856
 30
0.0
 40
2.0
100
AcDbArc
 50
38.6821874535
 51
90.0
  0
ARC
  5
342
330
1F
100
AcDbEntity
  8
0
  6
Continuous
 62
     7
370
    15
100
AcDbCircle
 10
149.1384648699
 20
96.8659762856
 30
0.0
 40
2.0
100
AcDbArc
 50
218.6821874535
 51
270.0
  0
LINE
  5
343
330
1F
100
AcDbEntity
  8
0
  6
Continuous
 62
     7
370
    15
100
AcDbLine
 10
146.01596629
 20
96.3659765154
 30
0.0
 11
142.7024584053
 21
96.3659765154
 31
0.0
  0
LINE
  5
344
330
1F
100
AcDbEntity
  8
0
  6
Continuous
 62
     7
370
    15
100
AcDbLine
 10
149.1384645713
 20
94.8659772009
 30
0.0
 11
149.1941148204
 21
94.8659772009
 31
0.0
  0
ARC
  5
345
330
1F
100
AcDbEntity
  8
0
  6
Continuous
 62
     7
370
    15
100
AcDbCircle
 10
154.7664502177
 20
96.8659762856
 30
0.0
 40
2.0
100
AcDbArc
 50
270.0
 51
321.3178125465
  0
ARC
  5
346
330
1F
100
AcDbEntity
  8
0
  6
Continuous
 62
     7
370
    15
100
AcDbCircle
 10
157.8889492169
 20
94.3659762856
 30
0.0
 40
2.0
100
AcDbArc
 50
90.0
 51
141.3178125465
  0
LINE
  5
347
330
1F
100
AcDbEntity
  8
0
  6
Continuous
 62
     7
370
    15
100
AcDbLine
 10
161.2024575377
 20
96.3659765154
 30
0.0
 11
157.8889491291
 21
96.3659765154
 31
0.0
  0
LINE
  5
348
330
1F
100
AcDbEntity
  8
0
  6
Continuous
 62
     7
370
    15
100
AcDbLine
 10
154.7108003659
 20
94.8659772009
 30
0.0
 11
154.7664501493
 21
94.8659772009
 31
0.0
  0
LINE
  5
349
330
1F
100
AcDbEntity
  8
0
  6
Continuous
 62
     7
370
    15
100
AcDbLine
 10
144.9352241842
 20
74.9213757414
 30
0.0
 11
144.5923000363
 21
75.7166131122
 31
0.0
  0
LINE
  5
34A
330
1F
100
AcDbEntity
  8
0
  6
Continuous
 62
     7
370
    15
100
AcDbLine
 10
145.7953825382
 20
74.8207388867
 30
0.0
 11
144.9352241842
 21
74.9213757414
 31
0.0
  0
CIRCLE
  5
34B
330
1F
100
AcDbEntity
  8
0
  6
Continuous
 62
     7
370
    15
100
AcDbCircle
 10
145.4524575438
 20
75.6159762856
 30
0.0
 40
1.135684019913863
  0
LINE
  5
34C
330
1F
100
AcDbEntity
  8
0
  6
Continuous
 62
     7
370
    15
100
AcDbLine
 10
145.1095323799
 20
76.4112136282
 30
0.0
 11
145.9696907339
 21
76.3105767734
 31
0.0
  0
LINE
  5
34D
330
1F
100
AcDbEntity
  8
0
  6
Continuous
 62
     7
370
    15
100
AcDbLine
 10
144.5923000363
 20
75.7166131122
 30
0.0
 11
145.1095323799
 21
76.4112136282
 31
0.0
  0
LINE
  5
34E
330
1F
100
AcDbEntity
  8
0
  6
Continuous
 62
     7
370
    15
100
AcDbLine
 10
145.9696907339
 20
76.3105767734
 30
0.0
 11
146.3126158131
 21
75.5153394027
 31
0.0
  0
LINE
  5
34F
330
1F
100
AcDbEntity
  8
0
  6
Continuous
 62
     7
370
    15
100
AcDbLine
 10
146.3126158131
 20
75.5153394027
 30
0.0
 11
145.7953825382
 21
74.8207388867
 31
0.0
  0
CIRCLE
  5
350
330
1F
100
AcDbEntity
  8
0
  6
Continuous
 62
     7
370
    15
100
AcDbCircle
 10
145.4524575438
 20
75.6159762856
 30
0.0
 40
1.432283538938808
  0
CIRCLE
  5
351
330
1F
100
AcDbEntity
  8
0
  6
Continuous
 62
     7
370
    15
100
AcDbCircle
 10
145.4524575438
 20
75.6159762856
 30
0.0
 40
1.843199038049817
  0
CIRCLE
  5
352
330
1F
100
AcDbEntity
  8
0
  6
Continuous
 62
     7
370
    15
100
AcDbCircle
 10
145.4524575438
 20
75.6159762856
 30
0.0
 40
2.250000000000015
  0
ARC
  5
353
330
1F
100
AcDbEntity
  8
0
  6
Continuous
 62
     7
370
    15
100
AcDbCircle
 10
145.4524575438
 20
75.6159762856
 30
0.0
 40
0.749999999999998
100
AcDbArc
 50
83.3268446696
 51
143.3268446696
  0
ARC
  5
354
330
1F
100
AcDbEntity
  8
0
  6
Continuous
 62
     7
370
    15
100
AcDbCircle
 10
145.4524575438
 20
75.6159762856
 30
0.0
 40
0.7499999999999912
100
AcDbArc
 50
143.3268446696
 51
203.3268446696
  0
ARC
  5
355
330
1F
100
AcDbEntity
  8
0
  6
Continuous
 62
     7
370
    15
100
AcDbCircle
 10
145.4524575438
 20
75.6159762856
 30
0.0
 40
0.7500000000000089
100
AcDbArc
 50
203.3268446696
 51
263.3268446696
  0
ARC
  5
356
330
1F
100
AcDbEntity
  8
0
  6
Continuous
 62
     7
370
    15
100
AcDbCircle
 10
145.4524575438
 20
75.6159762856
 30
0.0
 40
0.7500000000000379
100
AcDbArc
 50
323.3268446696
 51
23.3268446696
  0
ARC
  5
357
330
1F
100
AcDbEntity
  8
0
  6
Continuous
 62
     7
370
    15
100
AcDbCircle
 10
145.4524575438
 20
75.6159762856
 30
0.0
 40
0.7500000000000112
100
AcDbArc
 50
263.3268446696
 51
323.3268446696
  0
ARC
  5
358
330
1F
100
AcDbEntity
  8
0
  6
Continuous
 62
     7
370
    15
100
AcDbCircle
 10
145.4524575438
 20
75.6159762856
 30
0.0
 40
0.7500000000000379
100
AcDbArc
 50
23.3268446696
 51
83.3268446696
  0
LINE
  5
359
330
1F
100
AcDbEntity
  8
0
  6
Continuous
 62
     7
370
    15
100
AcDbLine
 10
136.9524579284
 20
82.8390879512
 30
0.0
 11
134.45245845
 21
82.8390879512
 31
0.0
  0
LINE
  5
35A
330
1F
100
AcDbEntity
  8
0
  6
Continuous
 62
     7
370
    15
100
AcDbLine
 10
136.9524579284
 20
86.8890875906
 30
0.0
 11
134.45245845
 21
86.8890875906
 31
0.0
  0
LINE
  5
35B
330
1F
100
AcDbEntity
  8
0
  6
Continuous
 62
     7
370
    15
100
AcDbLine
 10
136.9524579284
 20
82.8390879512
 30
0.0
 11
136.9524579284
 21
82.9410370395
 31
0.0
  0
LINE
  5
35C
330
1F
100
AcDbEntity
  8
0
  6
Continuous
 62
     7
370
    15
100
AcDbLine
 10
136.9524579284
 20
86.7871385023
 30
0.0
 11
136.9524579284
 21
86.8890875906
 31
0.0
  0
LINE
  5
35D
330
1F
100
AcDbEntity
  8
0
  6
Continuous
 62
     7
370
    15
100
AcDbLine
 10
134.45245845
 20
82.8390879512
 30
0.0
 11
134.45245845
 21
86.8890875906
 31
0.0
  0
LINE
  5
35E
330
1F
100
AcDbEntity
  8
0
  6
Continuous
 62
     7
370
    15
100
AcDbLine
 10
134.45245845
 20
88.9159761325
 30
0.0
 11
136.9524579284
 21
88.9159761325
 31
0.0
  0
LINE
  5
35F
330
1F
100
AcDbEntity
  8
0
  6
Continuous
 62
     7
370
    15
100
AcDbLine
 10
136.9524579284
 20
86.8890875906
 30
0.0
 11
136.9524579284
 21
86.9401091665
 31
0.0
  0
LINE
  5
360
330
1F
100
AcDbEntity
  8
0
  6
Continuous
 62
     7
370
    15
100
AcDbLine
 10
136.9524579284
 20
88.8649536252
 30
0.0
 11
136.9524579284
 21
88.9159761325
 31
0.0
  0
LINE
  5
361
330
1F
100
AcDbEntity
  8
0
  6
Continuous
 62
     7
370
    15
100
AcDbLine
 10
134.45245845
 20
86.8890875906
 30
0.0
 11
134.45245845
 21
88.9159761325
 31
0.0
  0
LINE
  5
362
330
1F
100
AcDbEntity
  8
0
  6
Continuous
 62
     7
370
    15
100
AcDbLine
 10
136.9524579284
 20
80.8159768537
 30
0.0
 11
134.45245845
 21
80.8159768537
 31
0.0
  0
LINE
  5
363
330
1F
100
AcDbEntity
  8
0
  6
Continuous
 62
     7
370
    15
100
AcDbLine
 10
136.9524579284
 20
80.8159768537
 30
0.0
 11
136.9524579284
 21
80.8669039004
 31
0.0
  0
LINE
  5
364
330
1F
100
AcDbEntity
  8
0
  6
Continuous
 62
     7
370
    15
100
AcDbLine
 10
136.9524579284
 20
82.7881613702
 30
0.0
 11
136.9524579284
 21
82.8390879512
 31
0.0
  0
LINE
  5
365
330
1F
100
AcDbEntity
  8
0
  6
Continuous
 62
     7
370
    15
100
AcDbLine
 10
134.45245845
 20
80.8159768537
 30
0.0
 11
134.45245845
 21
82.8390879512
 31
0.0
  0
LINE
  5
366
330
1F
100
AcDbEntity
  8
0
  6
Continuous
 62
     7
370
    15
100
AcDbLine
 10
127.4524591652
 20
83.3659762472
 30
0.0
 11
127.4524591652
 21
86.3659767389
 31
0.0
  0
LINE
  5
367
330
1F
100
AcDbEntity
  8
0
  6
Continuous
 62
     7
370
    15
100
AcDbLine
 10
129.952456781
 20
85.7401605651
 30
0.0
 11
129.952456781
 21
86.6159763143
 31
0.0
  0
LINE
  5
368
330
1F
100
AcDbEntity
  8
0
  6
Continuous
 62
     7
370
    15
100
AcDbLine
 10
129.952456781
 20
83.1159762062
 30
0.0
 11
129.952456781
 21
85.7401605651
 31
0.0
  0
LINE
  5
369
330
1F
100
AcDbEntity
  8
0
  6
Continuous
 62
     7
370
    15
100
AcDbLine
 10
132.4524581221
 20
83.1159762062
 30
0.0
 11
132.4524581221
 21
85.7401605651
 31
0.0
  0
LINE
  5
36A
330
1F
100
AcDbEntity
  8
0
  6
Continuous
 62
     7
370
    15
100
AcDbLine
 10
132.4524581221
 20
85.7401605651
 30
0.0
 11
132.4524581221
 21
86.6159763143
 31
0.0
  0
LINE
  5
36B
330
1F
100
AcDbEntity
  8
0
  6
Continuous
 62
     7
370
    15
100
AcDbLine
 10
136.9524579284
 20
84.8659764931
 30
0.0
 11
136.9524579284
 21
86.7871385023
 31
0.0
  0
LINE
  5
36C
330
1F
100
AcDbEntity
  8
0
  6
Continuous
 62
     7
370
    15
100
AcDbLine
 10
136.9524579284
 20
86.9401091665
 30
0.0
 11
136.9524579284
 21
88.8649536252
 31
0.0
  0
LINE
  5
36D
330
1F
100
AcDbEntity
  8
0
  6
Continuous
 62
     7
370
    15
100
AcDbLine
 10
136.9524579284
 20
80.8669039004
 30
0.0
 11
136.9524579284
 21
82.7881613702
 31
0.0
  0
LINE
  5
36E
330
1F
100
AcDbEntity
  8
0
  6
Continuous
 62
     7
370
    15
100
AcDbLine
 10
136.9524579284
 20
82.9410370395
 30
0.0
 11
136.9524579284
 21
84.8659764931
 31
0.0
  0
LINE
  5
36F
330
1F
100
AcDbEntity
  8
0
  6
Continuous
 62
     7
370
    15
100
AcDbLine
 10
166.9524577235
 20
84.8659764931
 30
0.0
 11
166.9524577235
 21
86.4564081609
 31
0.0
  0
LINE
  5
370
330
1F
100
AcDbEntity
  8
0
  6
Continuous
 62
     7
370
    15
100
AcDbLine
 10
166.9524577235
 20
86.6168424443
 30
0.0
 11
166.9524577235
 21
88.8396970883
 31
0.0
  0
LINE
  5
371
330
1F
100
AcDbEntity
  8
0
  6
Continuous
 62
     7
370
    15
100
AcDbLine
 10
166.9524577235
 20
80.8659763031
 30
0.0
 11
166.9524577235
 21
82.4826875657
 31
0.0
  0
LINE
  5
372
330
1F
100
AcDbEntity
  8
0
  6
Continuous
 62
     7
370
    15
100
AcDbLine
 10
166.9524577235
 20
82.6267901763
 30
0.0
 11
166.9524577235
 21
84.8659764931
 31
0.0
  0
DIMENSION
  5
373
330
1F
100
AcDbEntity
  8
0
  6
Continuous
 62
     7
370
     0
100
AcDbDimension
  2
_D_7
 10
185.9524575438
 20
68.3659762856
 30
0.0
 11
185.9524575438
 21
80.924935729
 31
0.0
 70
   160
  1
<>
 71
     2
 42
-1.0
  3
SLDDIMSTYLE0
100
AcDbAlignedDimension
 13
162.6368172552
 23
96.3659762856
 33
0.0
 14
175.9524575438
 24
68.3659762856
 34
0.0
 50
90.0
100
AcDbRotatedDimension
  0
DIMENSION
  5
37D
330
1F
100
AcDbEntity
  8
0
  6
Continuous
 62
     7
370
     0
100
AcDbDimension
  2
_D_8
 10
145.4524575438
 20
102.5687417422
 30
0.0
 11
152.1007708164
 21
102.5687417422
 31
0.0
 70
   160
  1
<>
 71
     2
 42
-1.0
  3
SLDDIMSTYLE0
100
AcDbAlignedDimension
 13
158.4524575438
 23
98.8659762856
 33
0.0
 14
145.4524575438
 24
98.8659762856
 34
0.0
100
AcDbRotatedDimension
  0
DIMENSION
  5
387
330
1F
100
AcDbEntity
  8
0
  6
Continuous
 62
     7
370
     0
100
AcDbDimension
  2
_D_9
 10
166.1524575438
 20
110.1718157332
 30
0.0
 11
152.1007708164
 21
110.1718157332
 31
0.0
 70
   160
  1
<>
 71
     2
 42
-1.0
  3
SLDDIMSTYLE5
100
AcDbAlignedDimension
 13
137.7524575438
 23
92.8503359969
 33
0.0
 14
166.1524575438
 24
92.8503359969
 34
0.0
100
AcDbRotatedDimension
  0
INSERT
  5
39D
330
1F
100
AcDbEntity
  8
0
  6
Continuous
 62
     7
370
     0
100
AcDbBlockReference
  2
SW_CENTERMARKSYMBOL_2
 10
158.4524575438
 20
75.6159762856
 30
0.0
  0
INSERT
  5
3A9
330
1F
100
AcDbEntity
  8
0
  6
Continuous
 62
     7
370
     0
100
AcDbBlockReference
  2
SW_CENTERMARKSYMBOL_3
 10
151.9524575438
 20
84.8659762856
 30
0.0
  0
INSERT
  5
3B5
330
1F
100
AcDbEntity
  8
0
  6
Continuous
 62
     7
370
     0
100
AcDbBlockReference
  2
SW_CENTERMARKSYMBOL_4
 10
145.4524575438
 20
94.1159762856
 30
0.0
  0
INSERT
  5
3C1
330
1F
100
AcDbEntity
  8
0
  6
Continuous
 62
     7
370
     0
100
AcDbBlockReference
  2
SW_CENTERMARKSYMBOL_5
 10
158.4524575438
 20
94.1159762856
 30
0.0
  0
INSERT
  5
3CD
330
1F
100
AcDbEntity
  8
0
  6
Continuous
 62
     7
370
     0
100
AcDbBlockReference
  2
SW_CENTERMARKSYMBOL_6
 10
145.4524575438
 20
75.6159762856
 30
0.0
  0
LINE
  5
3CE
330
1F
100
AcDbEntity
  8
0
  6
CENTERX2
 62
     7
370
     0
100
AcDbLine
 10
132.9524575438
 20
73.8659762856
 30
0.0
 11
132.9524575438
 21
66.3659762856
 31
0.0
  0
LINE
  5
3CF
330
1F
100
AcDbEntity
  8
0
  6
CENTERX2
 62
     7
370
     0
100
AcDbLine
 10
170.9524575438
 20
73.8659762856
 30
0.0
 11
170.9524575438
 21
66.3659762856
 31
0.0
  0
LINE
  5
3D0
330
1F
100
AcDbEntity
  8
0
  6
CENTERX2
 62
     7
370
     0
100
AcDbLine
 10
168.1524575438
 20
84.8659762856
 30
0.0
 11
160.6524574939
 21
84.8659762856
 31
0.0
  0
LINE
  5
3D1
330
1F
100
AcDbEntity
  8
0
  6
CENTERX2
 62
     7
370
     0
100
AcDbLine
 10
143.2524575937
 20
84.8659762856
 30
0.0
 11
135.7524575438
 21
84.8659762856
 31
0.0
  0
LINE
  5
3D2
330
1F
100
AcDbEntity
  8
0
  6
Continuous
 62
     7
370
    15
100
AcDbLine
 10
105.1065494371
 20
88.8659762856
 30
0.0
 11
86.1065494371
 21
88.8659762856
 31
0.0
  0
LINE
  5
3D3
330
1F
100
AcDbEntity
  8
0
  6
Continuous
 62
     7
370
    15
100
AcDbLine
 10
86.1065494371
 20
80.8659762856
 30
0.0
 11
105.1065494371
 21
80.8659762856
 31
0.0
  0
LINE
  5
3D4
330
1F
100
AcDbEntity
  8
0
  6
Continuous
 62
     7
370
    15
100
AcDbLine
 10
34.1065494371
 20
93.4965688994
 30
0.0
 11
31.1065494371
 21
93.4965688994
 31
0.0
  0
LINE
  5
3D5
330
1F
100
AcDbEntity
  8
0
  6
Continuous
 62
     7
370
    15
100
AcDbLine
 10
83.1065494371
 20
93.5476440315
 30
0.0
 11
34.1065494371
 21
93.5476440315
 31
0.0
  0
ARC
  5
3D6
330
1F
100
AcDbEntity
  8
0
  6
Continuous
 62
     7
370
    15
100
AcDbCircle
 10
32.3118571972
 20
74.3659762856
 30
0.0
 40
1.0
100
AcDbArc
 50
216.3843518158
 51
270.0
  0
ARC
  5
3D7
330
1F
100
AcDbEntity
  8
0
  6
Continuous
 62
     7
370
    15
100
AcDbCircle
 10
32.3118571972
 20
76.8659762856
 30
0.0
 40
1.000000000000003
100
AcDbArc
 50
90.0
 51
143.6156481842
  0
LINE
  5
3D8
330
1F
100
AcDbEntity
  8
0
  6
Continuous
 62
     7
370
    15
100
AcDbLine
 10
32.6065494371
 20
77.8659762856
 30
0.0
 11
32.3118571972
 21
77.8659762856
 31
0.0
  0
LINE
  5
3D9
330
1F
100
AcDbEntity
  8
0
  6
Continuous
 62
     7
370
    15
100
AcDbLine
 10
32.3118571972
 20
73.3659762856
 30
0.0
 11
32.6065494371
 21
73.3659762856
 31
0.0
  0
LINE
  5
3DA
330
1F
100
AcDbEntity
  8
0
  6
Continuous
 62
     7
370
    15
100
AcDbLine
 10
31.5068013599
 20
77.4591753236
 30
0.0
 11
31.2040215184
 21
77.0482598245
 31
0.0
  0
LINE
  5
3DB
330
1F
100
AcDbEntity
  8
0
  6
Continuous
 62
     7
370
    15
100
AcDbLine
 10
31.2040215184
 20
74.1836927466
 30
0.0
 11
31.5068013599
 21
73.7727772475
 31
0.0
  0
ARC
  5
3DC
330
1F
100
AcDbEntity
  8
0
  6
Continuous
 62
     7
370
    15
100
AcDbCircle
 10
31.6065494371
 20
76.7516603055
 30
0.0
 40
0.5000000000000031
100
AcDbArc
 50
143.6156481842
 51
180.0
  0
ARC
  5
3DD
330
1F
100
AcDbEntity
  8
0
  6
Continuous
 62
     7
370
    15
100
AcDbCircle
 10
31.6065494371
 20
74.4802922657
 30
0.0
 40
0.4999999999999964
100
AcDbArc
 50
180.0
 51
216.3843518158
  0
LINE
  5
3DE
330
1F
100
AcDbEntity
  8
0
  6
Continuous
 62
     7
370
    15
100
AcDbLine
 10
84.6065494371
 20
73.3659762856
 30
0.0
 11
84.901241677
 21
73.3659762856
 31
0.0
  0
LINE
  5
3DF
330
1F
100
AcDbEntity
  8
0
  6
Continuous
 62
     7
370
    15
100
AcDbLine
 10
84.901241677
 20
77.8659762856
 30
0.0
 11
84.6065494371
 21
77.8659762856
 31
0.0
  0
ARC
  5
3E0
330
1F
100
AcDbEntity
  8
0
  6
Continuous
 62
     7
370
    15
100
AcDbCircle
 10
84.901241677
 20
76.8659762856
 30
0.0
 40
1.0
100
AcDbArc
 50
36.3843518158
 51
90.0
  0
ARC
  5
3E1
330
1F
100
AcDbEntity
  8
0
  6
Continuous
 62
     7
370
    15
100
AcDbCircle
 10
84.901241677
 20
74.3659762856
 30
0.0
 40
1.000000000000003
100
AcDbArc
 50
270.0
 51
323.6156481842
  0
LINE
  5
3E2
330
1F
100
AcDbEntity
  8
0
  6
Continuous
 62
     7
370
    15
100
AcDbLine
 10
85.7062975143
 20
73.7727772475
 30
0.0
 11
86.0090773558
 21
74.1836927466
 31
0.0
  0
LINE
  5
3E3
330
1F
100
AcDbEntity
  8
0
  6
Continuous
 62
     7
370
    15
100
AcDbLine
 10
86.0090773558
 20
77.0482598245
 30
0.0
 11
85.7062975143
 21
77.4591753236
 31
0.0
  0
ARC
  5
3E4
330
1F
100
AcDbEntity
  8
0
  6
Continuous
 62
     7
370
    15
100
AcDbCircle
 10
85.6065494371
 20
74.4802922657
 30
0.0
 40
0.5000000000000089
100
AcDbArc
 50
323.6156481842
 51
0.0
  0
ARC
  5
3E5
330
1F
100
AcDbEntity
  8
0
  6
Continuous
 62
     7
370
    15
100
AcDbCircle
 10
85.6065494371
 20
76.7516603055
 30
0.0
 40
0.5000000000000173
100
AcDbArc
 50
0.0
 51
36.3843518158
  0
ARC
  5
3E6
330
1F
100
AcDbEntity
  8
0
  6
Continuous
 62
     7
370
    15
100
AcDbCircle
 10
32.3118571972
 20
95.3659762856
 30
0.0
 40
1.0
100
AcDbArc
 50
90.0
 51
143.6156481842
  0
LINE
  5
3E7
330
1F
100
AcDbEntity
  8
0
  6
Continuous
 62
     7
370
    15
100
AcDbLine
 10
32.6065494371
 20
96.3659762856
 30
0.0
 11
32.3118571972
 21
96.3659762856
 31
0.0
  0
LINE
  5
3E8
330
1F
100
AcDbEntity
  8
0
  6
Continuous
 62
     7
370
    15
100
AcDbLine
 10
31.5068013599
 20
95.9591753236
 30
0.0
 11
31.2040215184
 21
95.5482598245
 31
0.0
  0
ARC
  5
3E9
330
1F
100
AcDbEntity
  8
0
  6
Continuous
 62
     7
370
    15
100
AcDbCircle
 10
31.6065494371
 20
95.2516603055
 30
0.0
 40
0.4999999999999964
100
AcDbArc
 50
143.6156481842
 51
180.0
  0
LINE
  5
3EA
330
1F
100
AcDbEntity
  8
0
  6
Continuous
 62
     7
370
    15
100
AcDbLine
 10
108.6065494371
 20
81.8659762856
 30
0.0
 11
108.6065494371
 21
82.2202249745
 31
0.0
  0
LINE
  5
3EB
330
1F
100
AcDbEntity
  8
0
  6
Continuous
 62
     7
370
    15
100
AcDbLine
 10
106.1065494371
 20
81.8659762856
 30
0.0
 11
108.6065494371
 21
81.8659762856
 31
0.0
  0
LINE
  5
3EC
330
1F
100
AcDbEntity
  8
0
  6
Continuous
 62
     7
370
    15
100
AcDbLine
 10
105.1065494371
 20
80.8659762856
 30
0.0
 11
106.1065494371
 21
81.8659762856
 31
0.0
  0
LINE
  5
3ED
330
1F
100
AcDbEntity
  8
0
  6
Continuous
 62
     7
370
    15
100
AcDbLine
 10
106.1065494371
 20
87.8659762856
 30
0.0
 11
105.1065494371
 21
88.8659762856
 31
0.0
  0
LINE
  5
3EE
330
1F
100
AcDbEntity
  8
0
  6
Continuous
 62
     7
370
    15
100
AcDbLine
 10
106.1065494371
 20
87.8659762856
 30
0.0
 11
108.6065494371
 21
87.8659762856
 31
0.0
  0
LINE
  5
3EF
330
1F
100
AcDbEntity
  8
0
  6
Continuous
 62
     7
370
    15
100
AcDbLine
 10
108.6065494371
 20
87.5117275966
 30
0.0
 11
108.6065494371
 21
87.8659762856
 31
0.0
  0
LINE
  5
3F0
330
1F
100
AcDbEntity
  8
0
  6
Continuous
 62
     7
370
    15
100
AcDbLine
 10
106.1065494371
 20
87.5117275966
 30
0.0
 11
108.6065494371
 21
87.5117275966
 31
0.0
  0
ARC
  5
3F1
330
1F
100
AcDbEntity
  8
0
  6
Continuous
 62
     7
370
    15
100
AcDbCircle
 10
109.1065494371
 20
84.8659762856
 30
0.0
 40
4.000000000000006
100
AcDbArc
 50
138.5903778907
 51
221.4096221093
  0
LINE
  5
3F2
330
1F
100
AcDbEntity
  8
0
  6
Continuous
 62
     7
370
    15
100
AcDbLine
 10
106.1065494371
 20
82.2202249745
 30
0.0
 11
108.6065494371
 21
82.2202249745
 31
0.0
  0
LINE
  5
3F3
330
1F
100
AcDbEntity
  8
0
  6
Continuous
 62
     7
370
    15
100
AcDbLine
 10
106.1065494371
 20
87.5117275966
 30
0.0
 11
106.1065494371
 21
82.2202249745
 31
0.0
  0
SPLINE
  5
3F4
330
1F
100
AcDbEntity
  8
0
  6
Continuous
 62
     7
370
    15
100
AcDbSpline
210
0.0
220
0.0
230
1.0
 70
     8
 71
     3
 72
     8
 73
     4
 74
     0
 42
0.00000001
 43
0.00000001
 12
1.0
 22
0.0
 32
0.0
 13
1.0
 23
0.0
 33
0.0
 40
0.0
 40
0.0
 40
0.0
 40
0.0
 40
1.0
 40
1.0
 40
1.0
 40
1.0
 10
108.6065494370885
 20
82.22022497450372
 30
0.0
 10
108.7870002591914
 20
82.49304097402462
 30
0.0
 10
108.9566836192583
 20
82.77224355288388
 30
0.0
 10
109.1065494370885
 20
83.06320064783631
 30
0.0
  0
SPLINE
  5
3F5
330
1F
100
AcDbEntity
  8
0
  6
Continuous
 62
     7
370
    15
100
AcDbSpline
210
0.0
220
0.0
230
1.0
 70
     8
 71
     3
 72
     8
 73
     4
 74
     0
 42
0.00000001
 43
0.00000001
 12
1.0
 22
0.0
 32
0.0
 13
1.0
 23
0.0
 33
0.0
 40
0.0
 40
0.0
 40
0.0
 40
0.0
 40
1.0
 40
1.0
 40
1.0
 40
1.0
 10
109.1065494370885
 20
86.66875192330032
 30
0.0
 10
108.9566836192583
 20
86.95970901825275
 30
0.0
 10
108.7870002591914
 20
87.23891159711201
 30
0.0
 10
108.6065494370885
 20
87.51172759663291
 30
0.0
  0
LINE
  5
3F6
330
1F
100
AcDbEntity
  8
0
  6
Continuous
 62
     7
370
    15
100
AcDbLine
 10
109.1065494371
 20
86.6687519233
 30
0.0
 11
109.1065494371
 21
83.0632006478
 31
0.0
  0
SPLINE
  5
3F7
330
1F
100
AcDbEntity
  8
0
  6
Continuous
 62
     7
370
    15
100
AcDbSpline
210
0.0
220
0.0
230
1.0
 70
    24
 71
     3
 72
     8
 73
     4
 74
     0
 42
0.00000001
 43
0.00000001
 12
1.0
 22
0.0
 32
0.0
 13
1.0
 23
0.0
 33
0.0
 40
0.0
 40
0.0
 40
0.0
 40
0.0
 40
1.0
 40
1.0
 40
1.0
 40
1.0
 10
108.6065494370885
 20
87.86597628556832
 30
0.0
 10
108.7870002591914
 20
87.86597628556832
 30
0.0
 10
108.9566836192583
 20
87.86597628556832
 30
0.0
 10
109.1065494370885
 20
87.86597628556832
 30
0.0
  0
LINE
  5
3F8
330
1F
100
AcDbEntity
  8
0
  6
Continuous
 62
     7
370
    15
100
AcDbLine
 10
109.1065494371
 20
87.8659762856
 30
0.0
 11
109.1065494371
 21
86.6687519233
 31
0.0
  0
LINE
  5
3F9
330
1F
100
AcDbEntity
  8
0
  6
Continuous
 62
     7
370
    15
100
AcDbLine
 10
109.1065494371
 20
83.0632006478
 30
0.0
 11
109.1065494371
 21
81.8659762856
 31
0.0
  0
SPLINE
  5
3FA
330
1F
100
AcDbEntity
  8
0
  6
Continuous
 62
     7
370
    15
100
AcDbSpline
210
0.0
220
0.0
230
1.0
 70
    24
 71
     3
 72
     8
 73
     4
 74
     0
 42
0.00000001
 43
0.00000001
 12
1.0
 22
0.0
 32
0.0
 13
1.0
 23
0.0
 33
0.0
 40
0.0
 40
0.0
 40
0.0
 40
0.0
 40
1.0
 40
1.0
 40
1.0
 40
1.0
 10
109.1065494370885
 20
81.86597628556831
 30
0.0
 10
108.9566836192583
 20
81.86597628556831
 30
0.0
 10
108.7870002591914
 20
81.86597628556831
 30
0.0
 10
108.6065494370885
 20
81.86597628556831
 30
0.0
  0
LINE
  5
3FB
330
1F
100
AcDbEntity
  8
0
  6
Continuous
 62
     7
370
    15
100
AcDbLine
 10
34.1065494371
 20
92.8503359969
 30
0.0
 11
34.1065494371
 21
80.8659762856
 31
0.0
  0
LINE
  5
3FC
330
1F
100
AcDbEntity
  8
0
  6
Continuous
 62
     7
370
    15
100
AcDbLine
 10
31.3065494371
 20
80.8659762856
 30
0.0
 11
34.1065494371
 21
80.8659762856
 31
0.0
  0
LINE
  5
3FD
330
1F
100
AcDbEntity
  8
0
  6
Continuous
 62
     7
370
    15
100
AcDbLine
 10
31.3065494371
 20
92.8503359969
 30
0.0
 11
31.3065494371
 21
80.8659762856
 31
0.0
  0
LINE
  5
3FE
330
1F
100
AcDbEntity
  8
0
  6
Continuous
 62
     7
370
    15
100
AcDbLine
 10
31.3065494371
 20
92.8503359969
 30
0.0
 11
34.1065494371
 21
92.8503359969
 31
0.0
  0
LINE
  5
3FF
330
1F
100
AcDbEntity
  8
0
  6
Continuous
 62
     7
370
    15
100
AcDbLine
 10
34.1065494371
 20
93.3789906354
 30
0.0
 11
31.1065494371
 21
93.3789906354
 31
0.0
  0
LINE
  5
400
330
1F
100
AcDbEntity
  8
0
  6
Continuous
 62
     7
370
    15
100
AcDbLine
 10
34.1065494371
 20
93.3789906354
 30
0.0
 11
34.1065494371
 21
92.8503359969
 31
0.0
  0
ARC
  5
401
330
1F
100
AcDbEntity
  8
0
  6
Continuous
 62
     7
370
    15
100
AcDbCircle
 10
19.8065494371
 20
84.8659762856
 30
0.0
 40
13.99999999999984
100
AcDbArc
 50
34.7719440319
 51
36.1822872212
  0
LINE
  5
402
330
1F
100
AcDbEntity
  8
0
  6
Continuous
 62
     7
370
    15
100
AcDbLine
 10
31.1065494371
 20
93.3789906354
 30
0.0
 11
31.1065494371
 21
93.1309626739
 31
0.0
  0
LINE
  5
403
330
1F
100
AcDbEntity
  8
0
  6
Continuous
 62
     7
370
    15
100
AcDbLine
 10
34.1065494371
 20
80.8659762856
 30
0.0
 11
34.1065494371
 21
77.9865067372
 31
0.0
  0
LINE
  5
404
330
1F
100
AcDbEntity
  8
0
  6
Continuous
 62
     7
370
    15
100
AcDbLine
 10
32.6065494371
 20
77.9865067372
 30
0.0
 11
34.1065494371
 21
77.9865067372
 31
0.0
  0
LINE
  5
405
330
1F
100
AcDbEntity
  8
0
  6
Continuous
 62
     7
370
    15
100
AcDbLine
 10
32.6065494371
 20
78.3659762856
 30
0.0
 11
32.6065494371
 21
77.9865067372
 31
0.0
  0
LINE
  5
406
330
1F
100
AcDbEntity
  8
0
  6
Continuous
 62
     7
370
    15
100
AcDbLine
 10
32.6065494371
 20
78.3659762856
 30
0.0
 11
31.1065494371
 21
78.3659762856
 31
0.0
  0
LINE
  5
407
330
1F
100
AcDbEntity
  8
0
  6
Continuous
 62
     7
370
    15
100
AcDbLine
 10
31.1065494371
 20
80.6132588943
 30
0.0
 11
31.1065494371
 21
78.3659762856
 31
0.0
  0
LINE
  5
408
330
1F
100
AcDbEntity
  8
0
  6
Continuous
 62
     7
370
    15
100
AcDbLine
 10
31.3065494371
 20
80.8659762856
 30
0.0
 11
31.1065494371
 21
80.6132588943
 31
0.0
  0
LINE
  5
409
330
1F
100
AcDbEntity
  8
0
  6
Continuous
 62
     7
370
    15
100
AcDbLine
 10
31.1065494371
 20
80.6132588943
 30
0.0
 11
31.1065494371
 21
93.1309626739
 31
0.0
  0
LINE
  5
40A
330
1F
100
AcDbEntity
  8
0
  6
Continuous
 62
     7
370
    15
100
AcDbLine
 10
31.1065494371
 20
93.3789906354
 30
0.0
 11
31.1065494371
 21
93.4965688994
 31
0.0
  0
LINE
  5
40B
330
1F
100
AcDbEntity
  8
0
  6
Continuous
 62
     7
370
    15
100
AcDbLine
 10
32.6065494371
 20
95.0157875029
 30
0.0
 11
32.6065494371
 21
93.666792644
 31
0.0
  0
LINE
  5
40C
330
1F
100
AcDbEntity
  8
0
  6
Continuous
 62
     7
370
    15
100
AcDbLine
 10
34.1065494371
 20
95.0157875029
 30
0.0
 11
32.6065494371
 21
95.0157875029
 31
0.0
  0
LINE
  5
40D
330
1F
100
AcDbEntity
  8
0
  6
Continuous
 62
     7
370
    15
100
AcDbLine
 10
32.6065494371
 20
76.6567250765
 30
0.0
 11
34.1065494371
 21
76.6567250765
 31
0.0
  0
LINE
  5
40E
330
1F
100
AcDbEntity
  8
0
  6
Continuous
 62
     7
370
    15
100
AcDbLine
 10
32.6065494371
 20
77.9865067372
 30
0.0
 11
32.6065494371
 21
76.6567250765
 31
0.0
  0
LINE
  5
40F
330
1F
100
AcDbEntity
  8
0
  6
Continuous
 62
     7
370
    15
100
AcDbLine
 10
34.1065494371
 20
77.9865067372
 30
0.0
 11
34.1065494371
 21
76.6567250765
 31
0.0
  0
LINE
  5
410
330
1F
100
AcDbEntity
  8
0
  6
Continuous
 62
     7
370
    15
100
AcDbLine
 10
34.1065494371
 20
95.5300212773
 30
0.0
 11
32.6065494371
 21
95.5300212773
 31
0.0
  0
LINE
  5
411
330
1F
100
AcDbEntity
  8
0
  6
Continuous
 62
     7
370
    15
100
AcDbLine
 10
32.6065494371
 20
95.5300212773
 30
0.0
 11
32.6065494371
 21
95.9803177721
 31
0.0
  0
LINE
  5
412
330
1F
100
AcDbEntity
  8
0
  6
Continuous
 62
     7
370
    15
100
AcDbLine
 10
32.6065494371
 20
95.9803177721
 30
0.0
 11
34.1065494371
 21
95.9803177721
 31
0.0
  0
LINE
  5
413
330
1F
100
AcDbEntity
  8
0
  6
Continuous
 62
     7
370
    15
100
AcDbLine
 10
34.1065494371
 20
73.3659762856
 30
0.0
 11
32.6065494371
 21
73.3659762856
 31
0.0
  0
LINE
  5
414
330
1F
100
AcDbEntity
  8
0
  6
Continuous
 62
     7
370
    15
100
AcDbLine
 10
32.6065494371
 20
76.6567250765
 30
0.0
 11
32.6065494371
 21
73.3659762856
 31
0.0
  0
LINE
  5
415
330
1F
100
AcDbEntity
  8
0
  6
Continuous
 62
     7
370
    15
100
AcDbLine
 10
34.1065494371
 20
76.2235402853
 30
0.0
 11
34.1065494371
 21
74.6776771694
 31
0.0
  0
LINE
  5
416
330
1F
100
AcDbEntity
  8
0
  6
Continuous
 62
     7
370
    15
100
AcDbLine
 10
34.1065494371
 20
74.1695324357
 30
0.0
 11
34.1065494371
 21
73.5278974619
 31
0.0
  0
LINE
  5
417
330
1F
100
AcDbEntity
  8
0
  6
Continuous
 62
     7
370
    15
100
AcDbLine
 10
32.6065494371
 20
95.0157875029
 30
0.0
 11
32.6065494371
 21
95.5300212773
 31
0.0
  0
LINE
  5
418
330
1F
100
AcDbEntity
  8
0
  6
Continuous
 62
     7
370
    15
100
AcDbLine
 10
34.1065494371
 20
95.5300212773
 30
0.0
 11
34.1065494371
 21
95.0157875029
 31
0.0
  0
LINE
  5
419
330
1F
100
AcDbEntity
  8
0
  6
Continuous
 62
     7
370
    15
100
AcDbLine
 10
32.6065494371
 20
96.3659762856
 30
0.0
 11
34.1065494371
 21
96.3659762856
 31
0.0
  0
LINE
  5
41A
330
1F
100
AcDbEntity
  8
0
  6
Continuous
 62
     7
370
    15
100
AcDbLine
 10
32.6065494371
 20
96.3659762856
 30
0.0
 11
32.6065494371
 21
95.9803177721
 31
0.0
  0
LINE
  5
41B
330
1F
100
AcDbEntity
  8
0
  6
Continuous
 62
     7
370
    15
100
AcDbLine
 10
34.1065494371
 20
96.3659762856
 30
0.0
 11
34.1065494371
 21
95.9803177721
 31
0.0
  0
LINE
  5
41C
330
1F
100
AcDbEntity
  8
0
  6
Continuous
 62
     7
370
    15
100
AcDbLine
 10
31.1065494371
 20
78.3659762856
 30
0.0
 11
31.1065494371
 21
76.7516603055
 31
0.0
  0
ARC
  5
41D
330
1F
100
AcDbEntity
  8
0
  6
Continuous
 62
     7
370
    15
100
AcDbCircle
 10
62.1065494371
 20
70.8659762856
 30
0.0
 40
1.0
100
AcDbArc
 50
0.0
 51
90.0
  0
LINE
  5
41E
330
1F
100
AcDbEntity
  8
0
  6
Continuous
 62
     7
370
    15
100
AcDbLine
 10
63.1065494371
 20
70.8659762856
 30
0.0
 11
63.1065494371
 21
68.3659762856
 31
0.0
  0
LINE
  5
41F
330
1F
100
AcDbEntity
  8
0
  6
Continuous
 62
     7
370
    15
100
AcDbLine
 10
63.1065494371
 20
68.3659762856
 30
0.0
 11
61.1065494371
 21
68.3659762856
 31
0.0
  0
LINE
  5
420
330
1F
100
AcDbEntity
  8
0
  6
Continuous
 62
     7
370
    15
100
AcDbLine
 10
61.1065494371
 20
68.3659762856
 30
0.0
 11
61.1065494371
 21
71.8659762856
 31
0.0
  0
LINE
  5
421
330
1F
100
AcDbEntity
  8
0
  6
Continuous
 62
     7
370
    15
100
AcDbLine
 10
61.1065494371
 20
71.8659762856
 30
0.0
 11
62.1065494371
 21
71.8659762856
 31
0.0
  0
LINE
  5
422
330
1F
100
AcDbEntity
  8
0
  6
Continuous
 62
     7
370
    15
100
AcDbLine
 10
62.1065494371
 20
71.8659762856
 30
0.0
 11
82.1065494371
 21
71.8659762856
 31
0.0
  0
ARC
  5
423
330
1F
100
AcDbEntity
  8
0
  6
Continuous
 62
     7
370
    15
100
AcDbCircle
 10
82.1065494371
 20
70.8659762856
 30
0.0
 40
1.000000000000014
100
AcDbArc
 50
90.0
 51
180.0
  0
LINE
  5
424
330
1F
100
AcDbEntity
  8
0
  6
Continuous
 62
     7
370
    15
100
AcDbLine
 10
81.1065494371
 20
70.8659762856
 30
0.0
 11
63.1065494371
 21
70.8659762856
 31
0.0
  0
LINE
  5
425
330
1F
100
AcDbEntity
  8
0
  6
Continuous
 62
     7
370
    15
100
AcDbLine
 10
81.1065494371
 20
68.3659762856
 30
0.0
 11
81.1065494371
 21
70.8659762856
 31
0.0
  0
LINE
  5
426
330
1F
100
AcDbEntity
  8
0
  6
Continuous
 62
     7
370
    15
100
AcDbLine
 10
63.1065494371
 20
68.3659762856
 30
0.0
 11
81.1065494371
 21
68.3659762856
 31
0.0
  0
LINE
  5
427
330
1F
100
AcDbEntity
  8
0
  6
Continuous
 62
     7
370
    15
100
AcDbLine
 10
82.1065494371
 20
71.8659762856
 30
0.0
 11
83.1065494371
 21
71.8659762856
 31
0.0
  0
LINE
  5
428
330
1F
100
AcDbEntity
  8
0
  6
Continuous
 62
     7
370
    15
100
AcDbLine
 10
83.1065494371
 20
71.8659762856
 30
0.0
 11
83.1065494371
 21
68.3659762856
 31
0.0
  0
LINE
  5
429
330
1F
100
AcDbEntity
  8
0
  6
Continuous
 62
     7
370
    15
100
AcDbLine
 10
83.1065494371
 20
68.3659762856
 30
0.0
 11
81.1065494371
 21
68.3659762856
 31
0.0
  0
LINE
  5
42A
330
1F
100
AcDbEntity
  8
0
  6
Continuous
 62
     7
370
    15
100
AcDbLine
 10
61.1065494371
 20
72.2099413169
 30
0.0
 11
83.1065494371
 21
72.2099413169
 31
0.0
  0
LINE
  5
42B
330
1F
100
AcDbEntity
  8
0
  6
Continuous
 62
     7
370
    15
100
AcDbLine
 10
83.1065494371
 20
72.2099413169
 30
0.0
 11
83.1065494371
 21
71.8659762856
 31
0.0
  0
LINE
  5
42C
330
1F
100
AcDbEntity
  8
0
  6
Continuous
 62
     7
370
    15
100
AcDbLine
 10
61.1065494371
 20
72.2099413169
 30
0.0
 11
61.1065494371
 21
71.8659762856
 31
0.0
  0
LINE
  5
42D
330
1F
100
AcDbEntity
  8
0
  6
Continuous
 62
     7
370
    15
100
AcDbLine
 10
34.1065494371
 20
92.8503359969
 30
0.0
 11
83.1065494371
 21
92.8503359969
 31
0.0
  0
LINE
  5
42E
330
1F
100
AcDbEntity
  8
0
  6
Continuous
 62
     7
370
    15
100
AcDbLine
 10
34.1065494371
 20
92.8503359969
 30
0.0
 11
34.1065494371
 21
93.4705667524
 31
0.0
  0
LINE
  5
42F
330
1F
100
AcDbEntity
  8
0
  6
Continuous
 62
     7
370
    15
100
AcDbLine
 10
83.1065494371
 20
93.4705667524
 30
0.0
 11
34.1065494371
 21
93.4705667524
 31
0.0
  0
LINE
  5
430
330
1F
100
AcDbEntity
  8
0
  6
Continuous
 62
     7
370
    15
100
AcDbLine
 10
83.1065494371
 20
92.8503359969
 30
0.0
 11
83.1065494371
 21
93.4705667524
 31
0.0
  0
LINE
  5
431
330
1F
100
AcDbEntity
  8
0
  6
Continuous
 62
     7
370
    15
100
AcDbLine
 10
34.1065494371
 20
80.8659762856
 30
0.0
 11
76.0178749152
 21
80.8659762856
 31
0.0
  0
LINE
  5
432
330
1F
100
AcDbEntity
  8
0
  6
Continuous
 62
     7
370
    15
100
AcDbLine
 10
76.1910781633
 20
80.8659762856
 30
0.0
 11
83.1065494371
 21
80.8659762856
 31
0.0
  0
LINE
  5
433
330
1F
100
AcDbEntity
  8
0
  6
Continuous
 62
     7
370
    15
100
AcDbLine
 10
83.1065494371
 20
80.8659762856
 30
0.0
 11
83.1065494371
 21
92.8503359969
 31
0.0
  0
LINE
  5
434
330
1F
100
AcDbEntity
  8
0
  6
Continuous
 62
     7
370
    15
100
AcDbLine
 10
34.1065494371
 20
77.986145798
 30
0.0
 11
83.1065494371
 21
77.986145798
 31
0.0
  0
LINE
  5
435
330
1F
100
AcDbEntity
  8
0
  6
Continuous
 62
     7
370
    15
100
AcDbLine
 10
34.1065494371
 20
80.8659762856
 30
0.0
 11
34.1065494371
 21
77.986145798
 31
0.0
  0
LINE
  5
436
330
1F
100
AcDbEntity
  8
0
  6
Continuous
 62
     7
370
    15
100
AcDbLine
 10
83.1065494371
 20
80.8659762856
 30
0.0
 11
83.1065494371
 21
77.988151665
 31
0.0
  0
LINE
  5
437
330
1F
100
AcDbEntity
  8
0
  6
Continuous
 62
     7
370
    15
100
AcDbLine
 10
34.1065494371
 20
93.4705667524
 30
0.0
 11
34.1065494371
 21
93.5476440315
 31
0.0
  0
LINE
  5
438
330
1F
100
AcDbEntity
  8
0
  6
Continuous
 62
     7
370
    15
100
AcDbLine
 10
83.1065494371
 20
74.1563208246
 30
0.0
 11
61.1065494371
 21
74.1563208246
 31
0.0
  0
LINE
  5
439
330
1F
100
AcDbEntity
  8
0
  6
Continuous
 62
     7
370
    15
100
AcDbLine
 10
83.1065494371
 20
74.1563208246
 30
0.0
 11
83.1065494371
 21
72.2099413169
 31
0.0
  0
LINE
  5
43A
330
1F
100
AcDbEntity
  8
0
  6
Continuous
 62
     7
370
    15
100
AcDbLine
 10
61.1065494371
 20
72.2099413169
 30
0.0
 11
61.1065494371
 21
74.1563208246
 31
0.0
  0
LINE
  5
43B
330
1F
100
AcDbEntity
  8
0
  6
Continuous
 62
     7
370
    15
100
AcDbLine
 10
34.1065494371
 20
94.9146900996
 30
0.0
 11
83.1065494371
 21
94.9146900996
 31
0.0
  0
LINE
  5
43C
330
1F
100
AcDbEntity
  8
0
  6
Continuous
 62
     7
370
    15
100
AcDbLine
 10
34.1065494371
 20
94.9146900996
 30
0.0
 11
34.1065494371
 21
93.5476440315
 31
0.0
  0
LINE
  5
43D
330
1F
100
AcDbEntity
  8
0
  6
Continuous
 62
     7
370
    15
100
AcDbLine
 10
34.1065494371
 20
76.3339165505
 30
0.0
 11
61.1065494371
 21
76.3339165505
 31
0.0
  0
LINE
  5
43E
330
1F
100
AcDbEntity
  8
0
  6
Continuous
 62
     7
370
    15
100
AcDbLine
 10
34.1065494371
 20
76.3339165505
 30
0.0
 11
34.1065494371
 21
76.6409762856
 31
0.0
  0
LINE
  5
43F
330
1F
100
AcDbEntity
  8
0
  6
Continuous
 62
     7
370
    15
100
AcDbLine
 10
83.1065494371
 20
75.5632948337
 30
0.0
 11
83.1065494371
 21
74.1563208246
 31
0.0
  0
LINE
  5
440
330
1F
100
AcDbEntity
  8
0
  6
Continuous
 62
     7
370
    15
100
AcDbLine
 10
61.1065494371
 20
76.3339165505
 30
0.0
 11
61.1065494371
 21
74.1563208246
 31
0.0
  0
LINE
  5
441
330
1F
100
AcDbEntity
  8
0
  6
Continuous
 62
     7
370
    15
100
AcDbLine
 10
34.1065494371
 20
95.9095727513
 30
0.0
 11
83.1065494371
 21
95.9095727513
 31
0.0
  0
LINE
  5
442
330
1F
100
AcDbEntity
  8
0
  6
Continuous
 62
     7
370
    15
100
AcDbLine
 10
83.1065494371
 20
95.6103857313
 30
0.0
 11
34.1065494371
 21
95.6103857313
 31
0.0
  0
LINE
  5
443
330
1F
100
AcDbEntity
  8
0
  6
Continuous
 62
     7
370
    15
100
AcDbLine
 10
34.1065494371
 20
95.6103857313
 30
0.0
 11
34.1065494371
 21
95.9095727513
 31
0.0
  0
LINE
  5
444
330
1F
100
AcDbEntity
  8
0
  6
Continuous
 62
     7
370
    15
100
AcDbLine
 10
34.1065494371
 20
95.6103857313
 30
0.0
 11
34.1065494371
 21
94.9146900996
 31
0.0
  0
LINE
  5
445
330
1F
100
AcDbEntity
  8
0
  6
Continuous
 62
     7
370
    15
100
AcDbLine
 10
34.1065494371
 20
96.3659762856
 30
0.0
 11
83.1065494371
 21
96.3659762856
 31
0.0
  0
LINE
  5
446
330
1F
100
AcDbEntity
  8
0
  6
Continuous
 62
     7
370
    15
100
AcDbLine
 10
34.1065494371
 20
95.9095727513
 30
0.0
 11
34.1065494371
 21
96.3659762856
 31
0.0
  0
LINE
  5
447
330
1F
100
AcDbEntity
  8
0
  6
Continuous
 62
     7
370
    15
100
AcDbLine
 10
83.1065494371
 20
95.9095727513
 30
0.0
 11
83.1065494371
 21
96.3659762856
 31
0.0
  0
LINE
  5
448
330
1F
100
AcDbEntity
  8
0
  6
Continuous
 62
     7
370
    15
100
AcDbLine
 10
61.1065494371
 20
74.3530104232
 30
0.0
 11
34.1065494371
 21
74.3530104232
 31
0.0
  0
LINE
  5
449
330
1F
100
AcDbEntity
  8
0
  6
Continuous
 62
     7
370
    15
100
AcDbLine
 10
34.1065494371
 20
74.3530104232
 30
0.0
 11
34.1065494371
 21
74.6569326042
 31
0.0
  0
LINE
  5
44A
330
1F
100
AcDbEntity
  8
0
  6
Continuous
 62
     7
370
    15
100
AcDbLine
 10
34.1065494371
 20
76.2235402853
 30
0.0
 11
34.1065494371
 21
76.3339165505
 31
0.0
  0
LINE
  5
44B
330
1F
100
AcDbEntity
  8
0
  6
Continuous
 62
     7
370
    15
100
AcDbLine
 10
61.1065494371
 20
73.3659762856
 30
0.0
 11
34.1065494371
 21
73.3659762856
 31
0.0
  0
LINE
  5
44C
330
1F
100
AcDbEntity
  8
0
  6
Continuous
 62
     7
370
    15
100
AcDbLine
 10
34.1065494371
 20
73.3659762856
 30
0.0
 11
34.1065494371
 21
73.5278974619
 31
0.0
  0
LINE
  5
44D
330
1F
100
AcDbEntity
  8
0
  6
Continuous
 62
     7
370
    15
100
AcDbLine
 10
34.1065494371
 20
74.1695324357
 30
0.0
 11
34.1065494371
 21
74.3530104232
 31
0.0
  0
LINE
  5
44E
330
1F
100
AcDbEntity
  8
0
  6
Continuous
 62
     7
370
    15
100
AcDbLine
 10
85.9065494371
 20
92.8503359969
 30
0.0
 11
83.1065494371
 21
92.8503359969
 31
0.0
  0
LINE
  5
44F
330
1F
100
AcDbEntity
  8
0
  6
Continuous
 62
     7
370
    15
100
AcDbLine
 10
85.9065494371
 20
80.8659762856
 30
0.0
 11
85.9065494371
 21
92.8503359969
 31
0.0
  0
LINE
  5
450
330
1F
100
AcDbEntity
  8
0
  6
Continuous
 62
     7
370
    15
100
AcDbLine
 10
85.9065494371
 20
80.8659762856
 30
0.0
 11
83.1065494371
 21
80.8659762856
 31
0.0
  0
LINE
  5
451
330
1F
100
AcDbEntity
  8
0
  6
Continuous
 62
     7
370
    15
100
AcDbLine
 10
85.9065494371
 20
96.3659762856
 30
0.0
 11
83.1065494371
 21
96.3659762856
 31
0.0
  0
LINE
  5
452
330
1F
100
AcDbEntity
  8
0
  6
Continuous
 62
     7
370
    15
100
AcDbLine
 10
86.1065494371
 20
96.1659762856
 30
0.0
 11
85.9065494371
 21
96.3659762856
 31
0.0
  0
LINE
  5
453
330
1F
100
AcDbEntity
  8
0
  6
Continuous
 62
     7
370
    15
100
AcDbLine
 10
86.1065494371
 20
93.1309626739
 30
0.0
 11
86.1065494371
 21
96.1659762856
 31
0.0
  0
ARC
  5
454
330
1F
100
AcDbEntity
  8
0
  6
Continuous
 62
     7
370
    15
100
AcDbCircle
 10
97.4065494371
 20
84.8659762856
 30
0.0
 40
14.00000000000003
100
AcDbArc
 50
143.8177127788
 51
145.2280559681
  0
LINE
  5
455
330
1F
100
AcDbEntity
  8
0
  6
Continuous
 62
     7
370
    15
100
AcDbLine
 10
83.1065494371
 20
92.8503359969
 30
0.0
 11
83.1065494371
 21
96.3659762856
 31
0.0
  0
LINE
  5
456
330
1F
100
AcDbEntity
  8
0
  6
Continuous
 62
     7
370
    15
100
AcDbLine
 10
84.6065494371
 20
77.988151665
 30
0.0
 11
84.6065494371
 21
78.3659762856
 31
0.0
  0
LINE
  5
457
330
1F
100
AcDbEntity
  8
0
  6
Continuous
 62
     7
370
    15
100
AcDbLine
 10
84.6065494371
 20
77.988151665
 30
0.0
 11
83.1065494371
 21
77.988151665
 31
0.0
  0
LINE
  5
458
330
1F
100
AcDbEntity
  8
0
  6
Continuous
 62
     7
370
    15
100
AcDbLine
 10
86.1065494371
 20
80.6132588943
 30
0.0
 11
85.9065494371
 21
80.8659762856
 31
0.0
  0
LINE
  5
459
330
1F
100
AcDbEntity
  8
0
  6
Continuous
 62
     7
370
    15
100
AcDbLine
 10
86.1065494371
 20
78.3659762856
 30
0.0
 11
86.1065494371
 21
80.6132588943
 31
0.0
  0
LINE
  5
45A
330
1F
100
AcDbEntity
  8
0
  6
Continuous
 62
     7
370
    15
100
AcDbLine
 10
86.1065494371
 20
78.3659762856
 30
0.0
 11
84.6065494371
 21
78.3659762856
 31
0.0
  0
LINE
  5
45B
330
1F
100
AcDbEntity
  8
0
  6
Continuous
 62
     7
370
    15
100
AcDbLine
 10
86.1065494371
 20
93.1309626739
 30
0.0
 11
86.1065494371
 21
80.6132588943
 31
0.0
  0
LINE
  5
45C
330
1F
100
AcDbEntity
  8
0
  6
Continuous
 62
     7
370
    15
100
AcDbLine
 10
83.1065494371
 20
76.357912498
 30
0.0
 11
84.6065494371
 21
76.357912498
 31
0.0
  0
LINE
  5
45D
330
1F
100
AcDbEntity
  8
0
  6
Continuous
 62
     7
370
    15
100
AcDbLine
 10
84.6065494371
 20
76.357912498
 30
0.0
 11
84.6065494371
 21
77.988151665
 31
0.0
  0
LINE
  5
45E
330
1F
100
AcDbEntity
  8
0
  6
Continuous
 62
     7
370
    15
100
AcDbLine
 10
83.1065494371
 20
76.357912498
 30
0.0
 11
83.1065494371
 21
77.988151665
 31
0.0
  0
LINE
  5
45F
330
1F
100
AcDbEntity
  8
0
  6
Continuous
 62
     7
370
    15
100
AcDbLine
 10
84.6065494371
 20
73.3659762856
 30
0.0
 11
83.1065494371
 21
73.3659762856
 31
0.0
  0
LINE
  5
460
330
1F
100
AcDbEntity
  8
0
  6
Continuous
 62
     7
370
    15
100
AcDbLine
 10
84.6065494371
 20
76.357912498
 30
0.0
 11
84.6065494371
 21
73.3659762856
 31
0.0
  0
LINE
  5
461
330
1F
100
AcDbEntity
  8
0
  6
Continuous
 62
     7
370
    15
100
AcDbLine
 10
83.1065494371
 20
75.5632948337
 30
0.0
 11
83.1065494371
 21
76.357912498
 31
0.0
  0
LINE
  5
462
330
1F
100
AcDbEntity
  8
0
  6
Continuous
 62
     7
370
    15
100
AcDbLine
 10
86.1065494371
 20
76.7516603055
 30
0.0
 11
86.1065494371
 21
78.3659762856
 31
0.0
  0
LINE
  5
463
330
1F
100
AcDbEntity
  8
0
  6
Continuous
 62
     7
370
    15
100
AcDbLine
 10
31.1065494371
 20
76.7457634581
 30
0.0
 11
31.1065494371
 21
76.7516603055
 31
0.0
  0
LINE
  5
464
330
1F
100
AcDbEntity
  8
0
  6
Continuous
 62
     7
370
    15
100
AcDbLine
 10
31.1065494371
 20
74.4802922657
 30
0.0
 11
31.1065494371
 21
76.7457634581
 31
0.0
  0
LINE
  5
465
330
1F
100
AcDbEntity
  8
0
  6
Continuous
 62
     7
370
    15
100
AcDbLine
 10
75.6065494371
 20
85.7320016894
 30
0.0
 11
75.6065494371
 21
83.9999508818
 31
0.0
  0
LINE
  5
466
330
1F
100
AcDbEntity
  8
0
  6
Continuous
 62
     7
370
    15
100
AcDbLine
 10
86.1065494371
 20
75.1662729235
 30
0.0
 11
86.1065494371
 21
74.4802922657
 31
0.0
  0
LINE
  5
467
330
1F
100
AcDbEntity
  8
0
  6
Continuous
 62
     7
370
    15
100
AcDbLine
 10
86.1065494371
 20
76.7516603055
 30
0.0
 11
86.1065494371
 21
75.1662729235
 31
0.0
  0
LINE
  5
468
330
1F
100
AcDbEntity
  8
0
  6
Continuous
 62
     7
370
    15
100
AcDbLine
 10
32.6065494371
 20
93.666792644
 30
0.0
 11
32.6065494371
 21
93.4965688994
 31
0.0
  0
LINE
  5
469
330
1F
100
AcDbEntity
  8
0
  6
Continuous
 62
     7
370
    15
100
AcDbLine
 10
31.1065494371
 20
95.2457634581
 30
0.0
 11
31.1065494371
 21
95.2516603055
 31
0.0
  0
LINE
  5
46A
330
1F
100
AcDbEntity
  8
0
  6
Continuous
 62
     7
370
    15
100
AcDbLine
 10
31.1065494371
 20
93.4965688994
 30
0.0
 11
31.1065494371
 21
95.2457634581
 31
0.0
  0
ARC
  5
46B
330
1F
100
AcDbEntity
  8
0
  6
Continuous
 62
     7
370
    15
100
AcDbCircle
 10
76.1065494371
 20
84.8659762856
 30
0.0
 40
1.749999999999834
100
AcDbArc
 50
29.9691511071
 51
209.9691511071
  0
ARC
  5
46C
330
1F
100
AcDbEntity
  8
0
  6
Continuous
 62
     7
370
    15
100
AcDbCircle
 10
76.1065494371
 20
84.8659762856
 30
0.0
 40
1.749999999999834
100
AcDbArc
 50
209.9691511071
 51
29.9691511071
  0
CIRCLE
  5
46D
330
1F
100
AcDbEntity
  8
0
  6
Continuous
 62
     7
370
    15
100
AcDbCircle
 10
76.1065494371
 20
84.8659762856
 30
0.0
 40
1.500000000000432
  0
CIRCLE
  5
46E
330
1F
100
AcDbEntity
  8
0
  6
Continuous
 62
     7
370
    15
100
AcDbCircle
 10
76.1065494371
 20
84.8659762856
 30
0.0
 40
1.000000000000188
  0
LINE
  5
46F
330
1F
100
AcDbEntity
  8
0
  6
Continuous
 62
     7
370
    15
100
AcDbLine
 10
76.1043688575
 20
80.8159768726
 30
0.0
 11
79.6128615242
 21
82.8390881417
 31
0.0
  0
LINE
  5
470
330
1F
100
AcDbEntity
  8
0
  6
Continuous
 62
     7
370
    15
100
AcDbLine
 10
72.5980567703
 20
82.8428650166
 30
0.0
 11
76.1043688575
 21
80.8159768726
 31
0.0
  0
LINE
  5
471
330
1F
100
AcDbEntity
  8
0
  6
Continuous
 62
     7
370
    15
100
AcDbLine
 10
72.60023735
 20
86.8928644294
 30
0.0
 11
72.5980567703
 21
82.8428650166
 31
0.0
  0
LINE
  5
472
330
1F
100
AcDbEntity
  8
0
  6
Continuous
 62
     7
370
    15
100
AcDbLine
 10
76.1087300167
 20
88.9159756985
 30
0.0
 11
72.60023735
 21
86.8928644294
 31
0.0
  0
LINE
  5
473
330
1F
100
AcDbEntity
  8
0
  6
Continuous
 62
     7
370
    15
100
AcDbLine
 10
79.6150421039
 20
86.8890875545
 30
0.0
 11
76.1087300167
 21
88.9159756985
 31
0.0
  0
LINE
  5
474
330
1F
100
AcDbEntity
  8
0
  6
Continuous
 62
     7
370
    15
100
AcDbLine
 10
79.6128615242
 20
82.8390881417
 30
0.0
 11
79.6150421039
 21
86.8890875545
 31
0.0
  0
ARC
  5
475
330
1F
100
AcDbEntity
  8
0
  6
Continuous
 62
     7
370
    15
100
AcDbCircle
 10
76.1065494371
 20
84.8659762856
 30
0.0
 40
4.000000000000011
100
AcDbArc
 50
0.0
 51
28.9550243719
  0
ARC
  5
476
330
1F
100
AcDbEntity
  8
0
  6
Continuous
 62
     7
370
    15
100
AcDbCircle
 10
76.1065494371
 20
84.8659762856
 30
0.0
 40
4.000000000000017
100
AcDbArc
 50
31.2339214651
 51
88.7043807492
  0
ARC
  5
477
330
1F
100
AcDbEntity
  8
0
  6
Continuous
 62
     7
370
    15
100
AcDbCircle
 10
76.1065494371
 20
84.8659762856
 30
0.0
 40
4.00000000000001
100
AcDbArc
 50
91.2339214651
 51
148.7043807492
  0
ARC
  5
478
330
1F
100
AcDbEntity
  8
0
  6
Continuous
 62
     7
370
    15
100
AcDbCircle
 10
76.1065494371
 20
84.8659762856
 30
0.0
 40
3.999999999999997
100
AcDbArc
 50
151.0449756281
 51
208.9550243719
  0
ARC
  5
479
330
1F
100
AcDbEntity
  8
0
  6
Continuous
 62
     7
370
    15
100
AcDbCircle
 10
76.1065494371
 20
84.8659762856
 30
0.0
 40
4.000000000000001
100
AcDbArc
 50
211.2339214651
 51
268.7043807491
  0
ARC
  5
47A
330
1F
100
AcDbEntity
  8
0
  6
Continuous
 62
     7
370
    15
100
AcDbCircle
 10
76.1065494371
 20
84.8659762856
 30
0.0
 40
3.999999999999999
100
AcDbArc
 50
271.2339214651
 51
328.7043807491
  0
ARC
  5
47B
330
1F
100
AcDbEntity
  8
0
  6
Continuous
 62
     7
370
    15
100
AcDbCircle
 10
76.1065494371
 20
84.8659762856
 30
0.0
 40
4.0
100
AcDbArc
 50
331.0449756281
 51
0.0
  0
LINE
  5
47C
330
1F
100
AcDbEntity
  8
0
  6
Continuous
 62
     8
370
    15
100
AcDbLine
 10
32.3118571972
 20
77.8659762856
 30
0.0
 11
32.3118571972
 21
73.3659762856
 31
0.0
  0
LINE
  5
47D
330
1F
100
AcDbEntity
  8
0
  6
Continuous
 62
     8
370
    15
100
AcDbLine
 10
31.5068013599
 20
77.4496048241
 30
0.0
 11
31.5068013599
 21
77.4591753236
 31
0.0
  0
LINE
  5
47E
330
1F
100
AcDbEntity
  8
0
  6
Continuous
 62
     8
370
    15
100
AcDbLine
 10
31.5068013599
 20
73.7727772475
 30
0.0
 11
31.5068013599
 21
77.4496048241
 31
0.0
  0
LINE
  5
47F
330
1F
100
AcDbEntity
  8
0
  6
Continuous
 62
     8
370
    15
100
AcDbLine
 10
31.2040215184
 20
77.0482598245
 30
0.0
 11
31.2040215184
 21
74.1836927466
 31
0.0
  0
LINE
  5
480
330
1F
100
AcDbEntity
  8
0
  6
Continuous
 62
     8
370
    15
100
AcDbLine
 10
84.901241677
 20
73.3659762856
 30
0.0
 11
84.901241677
 21
77.8659762856
 31
0.0
  0
LINE
  5
481
330
1F
100
AcDbEntity
  8
0
  6
Continuous
 62
     8
370
    15
100
AcDbLine
 10
85.7062975143
 20
74.8861141146
 30
0.0
 11
85.7062975143
 21
73.7727772475
 31
0.0
  0
LINE
  5
482
330
1F
100
AcDbEntity
  8
0
  6
Continuous
 62
     8
370
    15
100
AcDbLine
 10
85.7062975143
 20
77.4591753236
 30
0.0
 11
85.7062975143
 21
74.8861141146
 31
0.0
  0
LINE
  5
483
330
1F
100
AcDbEntity
  8
0
  6
Continuous
 62
     8
370
    15
100
AcDbLine
 10
86.0090773558
 20
74.1836927466
 30
0.0
 11
86.0090773558
 21
77.0482598245
 31
0.0
  0
LINE
  5
484
330
1F
100
AcDbEntity
  8
0
  6
Continuous
 62
     8
370
    15
100
AcDbLine
 10
32.3118571972
 20
96.3659762856
 30
0.0
 11
32.3118571972
 21
93.4965688994
 31
0.0
  0
LINE
  5
485
330
1F
100
AcDbEntity
  8
0
  6
Continuous
 62
     8
370
    15
100
AcDbLine
 10
31.5068013599
 20
95.9496048241
 30
0.0
 11
31.5068013599
 21
95.9591753236
 31
0.0
  0
LINE
  5
486
330
1F
100
AcDbEntity
  8
0
  6
Continuous
 62
     8
370
    15
100
AcDbLine
 10
31.5068013599
 20
93.4965688994
 30
0.0
 11
31.5068013599
 21
95.9496048241
 31
0.0
  0
LINE
  5
487
330
1F
100
AcDbEntity
  8
0
  6
Continuous
 62
     8
370
    15
100
AcDbLine
 10
31.2040215184
 20
95.5482598245
 30
0.0
 11
31.2040215184
 21
93.4965688994
 31
0.0
  0
LINE
  5
488
330
1F
100
AcDbEntity
  8
0
  6
CENTERX2
 62
     7
370
     0
100
AcDbLine
 10
89.1065494371
 20
88.8659762856
 30
0.0
 11
89.1065494371
 21
80.8659762856
 31
0.0
  0
DIMENSION
  5
489
330
1F
100
AcDbEntity
  8
0
  6
Continuous
 62
     7
370
     0
100
AcDbDimension
  2
_D_10
 10
89.1065494371
 20
97.0003721398
 30
0.0
 11
99.4817871486
 21
97.0003721398
 31
0.0
 70
   160
  1
<>st
 71
     2
 42
-1.0
  3
SLDDIMSTYLE0
100
AcDbAlignedDimension
 13
109.1065494371
 23
87.8659762856
 33
0.0
 14
89.1065494371
 24
88.8659762856
 34
0.0
100
AcDbRotatedDimension
  0
DIMENSION
  5
494
330
1F
100
AcDbEntity
  8
0
  6
Continuous
 62
     7
370
     0
100
AcDbDimension
  2
_D_11
 10
76.1065494371
 20
58.3659762856
 30
0.0
 11
54.3253552464
 21
58.3659762856
 31
0.0
 70
   160
  1
<>
 71
     2
 42
-1.0
  3
SLDDIMSTYLE0
100
AcDbAlignedDimension
 13
31.1065494371
 23
74.4802922657
 33
0.0
 14
76.1065494371
 24
78.3659762856
 34
0.0
 50
0.0
100
AcDbRotatedDimension
  0
DIMENSION
  5
49E
330
1F
100
AcDbEntity
  8
0
  6
Continuous
 62
     7
370
     0
100
AcDbDimension
  2
_D_12
 10
31.1065494371
 20
122.1718157332
 30
0.0
 11
70.1065494371
 21
122.1718157332
 31
0.0
 70
   160
  1
<>
 71
     2
 42
-1.0
  3
SLDDIMSTYLE0
100
AcDbAlignedDimension
 13
109.1065494371
 23
87.8659762856
 33
0.0
 14
31.1065494371
 24
93.1309626739
 34
0.0
 50
0.0
100
AcDbRotatedDimension
  0
DIMENSION
  5
4A8
330
1F
100
AcDbEntity
  8
0
  6
Continuous
 62
     7
370
     0
100
AcDbDimension
  2
_D_13
 10
31.1065494371
 20
110.1718157332
 30
0.0
 11
57.1065494371
 21
110.1718157332
 31
0.0
 70
   160
  1
<>
 71
     2
 42
-1.0
  3
SLDDIMSTYLE0
100
AcDbAlignedDimension
 13
83.1065494371
 23
96.3659762856
 33
0.0
 14
31.1065494371
 24
93.1309626739
 34
0.0
 50
0.0
100
AcDbRotatedDimension
  0
INSERT
  5
4BD
330
1F
100
AcDbEntity
  8
0
  6
Continuous
 62
     7
370
     0
100
AcDbBlockReference
  2
SW_CENTERMARKSYMBOL_7
 10
76.1065494371
 20
84.8659762856
 30
0.0
  0
ENDSEC
  0
SECTION
  2
OBJECTS
  0
DICTIONARY
  5
C
330
0
100
AcDbDictionary
281
     1
  3
ACAD_GROUP
350
D
  3
ACAD_LAYOUT
350
1A
  3
ACAD_MLINESTYLE
350
17
  3
ACAD_PLOTSETTINGS
350
19
  3
ACAD_PLOTSTYLENAME
350
E
  0
DICTIONARY
  5
D
102
{ACAD_REACTORS
330
C
102
}
330
C
100
AcDbDictionary
281
     1
  0
DICTIONARY
  5
1A
102
{ACAD_REACTORS
330
C
102
}
330
C
100
AcDbDictionary
281
     1
  3
Layout1
350
1E
  3
Layout2
350
26
  3
Model
350
22
  0
DICTIONARY
  5
17
102
{ACAD_REACTORS
330
C
102
}
330
C
100
AcDbDictionary
281
     1
  3
Standard
350
18
  0
DICTIONARY
  5
19
102
{ACAD_REACTORS
330
C
102
}
330
C
100
AcDbDictionary
281
     1
  0
ACDBDICTIONARYWDFLT
  5
E
102
{ACAD_REACTORS
330
C
102
}
330
C
100
AcDbDictionary
281
     1
  3
Normal
350
F
100
AcDbDictionaryWithDefault
340
F
  0
LAYOUT
  5
1E
102
{ACAD_REACTORS
330
1A
102
}
330
1A
100
AcDbPlotSettings
  1

  2
none_device
  4

  6

 40
0.0
 41
0.0
 42
0.0
 43
0.0
 44
0.0
 45
0.0
 46
0.0
 47
0.0
 48
0.0
 49
0.0
140
0.0
141
0.0
142
1.0
143
1.0
 70
   688
 72
     0
 73
     0
 74
     5
  7

 75
    16
147
1.0
148
0.0
149
0.0
100
AcDbLayout
  1
Layout1
 70
     1
 71
     1
 10
0.0
 20
0.0
 11
420.0
 21
297.0
 12
0.0
 22
0.0
 32
0.0
 14
1.0000000000E+20
 24
1.0000000000E+20
 34
1.0000000000E+20
 15
-1.0000000000E+20
 25
-1.0000000000E+20
 35
-1.0000000000E+20
146
0.0
 13
0.0
 23
0.0
 33
0.0
 16
1.0
 26
0.0
 36
0.0
 17
0.0
 27
1.0
 37
0.0
 76
     0
330
1B
  0
LAYOUT
  5
26
102
{ACAD_REACTORS
330
1A
102
}
330
1A
100
AcDbPlotSettings
  1

  2
none_device
  4

  6

 40
0.0
 41
0.0
 42
0.0
 43
0.0
 44
0.0
 45
0.0
 46
0.0
 47
0.0
 48
0.0
 49
0.0
140
0.0
141
0.0
142
1.0
143
1.0
 70
   688
 72
     0
 73
     0
 74
     5
  7

 75
    16
147
1.0
148
0.0
149
0.0
100
AcDbLayout
  1
Layout2
 70
     1
 71
     2
 10
0.0
 20
0.0
 11
0.0
 21
0.0
 12
0.0
 22
0.0
 32
0.0
 14
0.0
 24
0.0
 34
0.0
 15
0.0
 25
0.0
 35
0.0
146
0.0
 13
0.0
 23
0.0
 33
0.0
 16
1.0
 26
0.0
 36
0.0
 17
0.0
 27
1.0
 37
0.0
 76
     0
330
23
  0
LAYOUT
  5
22
102
{ACAD_REACTORS
330
1A
102
}
330
1A
100
AcDbPlotSettings
  1

  2
none_device
  4

  6

 40
0.0
 41
0.0
 42
0.0
 43
0.0
 44
0.0
 45
0.0
 46
0.0
 47
0.0
 48
0.0
 49
0.0
140
0.0
141
0.0
142
1.0
143
1.0
 70
  1712
 72
     0
 73
     0
 74
     0
  7

 75
     0
147
1.0
148
0.0
149
0.0
100
AcDbLayout
  1
Model
 70
     1
 71
     0
 10
0.0
 20
0.0
 11
210.0
 21
297.0
 12
0.0
 22
0.0
 32
0.0
 14
0.0
 24
0.0
 34
0.0
 15
210.0
 25
297.0
 35
0.0
146
0.0
 13
0.0
 23
0.0
 33
0.0
 16
1.0
 26
0.0
 36
0.0
 17
0.0
 27
1.0
 37
0.0
 76
     0
330
1F
331
29
  0
MLINESTYLE
  5
18
102
{ACAD_REACTORS
330
17
102
}
330
17
100
AcDbMlineStyle
  2
Standard
 70
     0
  3

 62
   256
 51
90.0
 52
90.0
 71
     2
 49
0.5
 62
   256
  6
BYLAYER
 49
-0.5
 62
   256
  6
BYLAYER
  0
ACDBPLACEHOLDER
  5
F
102
{ACAD_REACTORS
330
E
102
}
330
E
  0
ENDSEC
  0
EOF
