  0
SECTION
  2
HEADER
  9
$ACADVER
  1
AC1015
  9
$ACADMAINTVER
 70
     6
  9
$DWGCODEPAGE
  3
DOS932
  9
$INSBASE
 10
0.0
 20
0.0
 30
0.0
  9
$EXTMIN
 10
0.0
 20
0.0
 30
0.0
  9
$EXTMAX
 10
210.0
 20
297.0
 30
0.0
  9
$LIMMIN
 10
0.0
 20
0.0
  9
$LIMMAX
 10
210.0
 20
297.0
  9
$ORTHOMODE
 70
     0
  9
$REGENMODE
 70
     1
  9
$FILLMODE
 70
     1
  9
$QTEXTMODE
 70
     0
  9
$MIRRTEXT
 70
     1
  9
$LTSCALE
 40
1.0
  9
$ATTMODE
 70
     1
  9
$TEXTSIZE
 40
3.5
  9
$TRACEWID
 40
1.0
  9
$TEXTSTYLE
  7
Standard
  9
$CLAYER
  8
0
  9
$CELTYPE
  6
ByLayer
  9
$CECOLOR
 62
   256
  9
$CELTSCALE
 40
1.0
  9
$DISPSILH
 70
     0
  9
$DIMSCALE
 40
1.0
  9
$DIMASZ
 40
2.0
  9
$DIMEXO
 40
1.0
  9
$DIMDLI
 40
3.75
  9
$DIMRND
 40
0.0
  9
$DIMDLE
 40
0.0
  9
$DIMEXE
 40
1.0
  9
$DIMTP
 40
0.0
  9
$DIMTM
 40
0.0
  9
$DIMTXT
 40
3.5
  9
$DIMCEN
 40
2.5
  9
$DIMTSZ
 40
0.0
  9
$DIMTOL
 70
     0
  9
$DIMLIM
 70
     0
  9
$DIMTIH
 70
     1
  9
$DIMTOH
 70
     1
  9
$DIMSE1
 70
     0
  9
$DIMSE2
 70
     0
  9
$DIMTAD
 70
     1
  9
$DIMZIN
 70
     0
  9
$DIMBLK
  1

  9
$DIMASO
 70
     1
  9
$DIMSHO
 70
     1
  9
$DIMPOST
  1

  9
$DIMAPOST
  1

  9
$DIMALT
 70
     0
  9
$DIMALTD
 70
     3
  9
$DIMALTF
 40
0.0393700787
  9
$DIMLFAC
 40
1.0
  9
$DIMTOFL
 70
     1
  9
$DIMTVP
 40
0.0
  9
$DIMTIX
 70
     0
  9
$DIMSOXD
 70
     0
  9
$DIMSAH
 70
     0
  9
$DIMBLK1
  1

  9
$DIMBLK2
  1

  9
$DIMSTYLE
  2
ISO-25
  9
$DIMCLRD
 70
     0
  9
$DIMCLRE
 70
     0
  9
$DIMCLRT
 70
     0
  9
$DIMTFAC
 40
1.0
  9
$DIMGAP
 40
1.524
  9
$DIMJUST
 70
     0
  9
$DIMSD1
 70
     0
  9
$DIMSD2
 70
     0
  9
$DIMTOLJ
 70
     0
  9
$DIMTZIN
 70
     0
  9
$DIMALTZ
 70
     0
  9
$DIMALTTZ
 70
     0
  9
$DIMUPT
 70
     0
  9
$DIMDEC
 70
     2
  9
$DIMTDEC
 70
     2
  9
$DIMALTU
 70
     2
  9
$DIMALTTD
 70
     3
  9
$DIMTXSTY
  7
Standard
  9
$DIMAUNIT
 70
     0
  9
$DIMADEC
 70
     2
  9
$DIMALTRND
 40
0.0
  9
$DIMAZIN
 70
     0
  9
$DIMDSEP
 70
    44
  9
$DIMATFIT
 70
     3
  9
$DIMFRAC
 70
     0
  9
$DIMLDRBLK
  1

  9
$DIMLUNIT
 70
     2
  9
$DIMLWD
 70
    -2
  9
$DIMLWE
 70
    -2
  9
$DIMTMOVE
 70
     0
  9
$LUNITS
 70
     2
  9
$LUPREC
 70
     2
  9
$SKETCHINC
 40
1.0
  9
$FILLETRAD
 40
10.0
  9
$AUNITS
 70
     0
  9
$AUPREC
 70
     2
  9
$MENU
  1
.
  9
$ELEVATION
 40
0.0
  9
$PELEVATION
 40
0.0
  9
$THICKNESS
 40
0.0
  9
$LIMCHECK
 70
     0
  9
$CHAMFERA
 40
10.0
  9
$CHAMFERB
 40
10.0
  9
$CHAMFERC
 40
20.0
  9
$CHAMFERD
 40
0.0
  9
$SKPOLY
 70
     0
  9
$TDCREATE
 40
2456911.691114606
  9
$TDUCREATE
 40
2456911.316114606
  9
$TDUPDATE
 40
2456911.691116956
  9
$TDUUPDATE
 40
2456911.316116956
  9
$TDINDWG
 40
0.0000000116
  9
$TDUSRTIMER
 40
0.0000000116
  9
$USRTIMER
 70
     1
  9
$ANGBASE
 50
0.0
  9
$ANGDIR
 70
     0
  9
$PDMODE
 70
     0
  9
$PDSIZE
 40
-1.0
  9
$PLINEWID
 40
0.0
  9
$SPLFRAME
 70
     0
  9
$SPLINETYPE
 70
     6
  9
$SPLINESEGS
 70
     8
  9
$HANDSEED
  5
4FE
  9
$SURFTAB1
 70
     6
  9
$SURFTAB2
 70
     6
  9
$SURFTYPE
 70
     6
  9
$SURFU
 70
     6
  9
$SURFV
 70
     6
  9
$UCSBASE
  2

  9
$UCSNAME
  2

  9
$UCSORG
 10
0.0
 20
0.0
 30
0.0
  9
$UCSXDIR
 10
1.0
 20
0.0
 30
0.0
  9
$UCSYDIR
 10
0.0
 20
1.0
 30
0.0
  9
$UCSORTHOREF
  2

  9
$UCSORTHOVIEW
 70
     0
  9
$UCSORGTOP
 10
0.0
 20
0.0
 30
0.0
  9
$UCSORGBOTTOM
 10
0.0
 20
0.0
 30
0.0
  9
$UCSORGLEFT
 10
0.0
 20
0.0
 30
0.0
  9
$UCSORGRIGHT
 10
0.0
 20
0.0
 30
0.0
  9
$UCSORGFRONT
 10
0.0
 20
0.0
 30
0.0
  9
$UCSORGBACK
 10
0.0
 20
0.0
 30
0.0
  9
$PUCSBASE
  2

  9
$PUCSNAME
  2

  9
$PUCSORG
 10
0.0
 20
0.0
 30
0.0
  9
$PUCSXDIR
 10
1.0
 20
0.0
 30
0.0
  9
$PUCSYDIR
 10
0.0
 20
1.0
 30
0.0
  9
$PUCSORTHOREF
  2

  9
$PUCSORTHOVIEW
 70
     0
  9
$PUCSORGTOP
 10
0.0
 20
0.0
 30
0.0
  9
$PUCSORGBOTTOM
 10
0.0
 20
0.0
 30
0.0
  9
$PUCSORGLEFT
 10
0.0
 20
0.0
 30
0.0
  9
$PUCSORGRIGHT
 10
0.0
 20
0.0
 30
0.0
  9
$PUCSORGFRONT
 10
0.0
 20
0.0
 30
0.0
  9
$PUCSORGBACK
 10
0.0
 20
0.0
 30
0.0
  9
$USERI1
 70
     0
  9
$USERI2
 70
     0
  9
$USERI3
 70
     0
  9
$USERI4
 70
     0
  9
$USERI5
 70
     0
  9
$USERR1
 40
0.0
  9
$USERR2
 40
0.0
  9
$USERR3
 40
0.0
  9
$USERR4
 40
0.0
  9
$USERR5
 40
0.0
  9
$WORLDVIEW
 70
     1
  9
$SHADEDGE
 70
     3
  9
$SHADEDIF
 70
    70
  9
$TILEMODE
 70
     1
  9
$MAXACTVP
 70
    64
  9
$PINSBASE
 10
0.0
 20
0.0
 30
0.0
  9
$PLIMCHECK
 70
     0
  9
$PEXTMIN
 10
1.0000000000E+20
 20
1.0000000000E+20
 30
1.0000000000E+20
  9
$PEXTMAX
 10
-1.0000000000E+20
 20
-1.0000000000E+20
 30
-1.0000000000E+20
  9
$PLIMMIN
 10
0.0
 20
0.0
  9
$PLIMMAX
 10
420.0
 20
297.0
  9
$UNITMODE
 70
     0
  9
$VISRETAIN
 70
     1
  9
$PLINEGEN
 70
     0
  9
$PSLTSCALE
 70
     1
  9
$TREEDEPTH
 70
  3020
  9
$CMLSTYLE
  2
Standard
  9
$CMLJUST
 70
     0
  9
$CMLSCALE
 40
20.0
  9
$PROXYGRAPHICS
 70
     1
  9
$MEASUREMENT
 70
     1
  9
$CELWEIGHT
370
    -1
  9
$ENDCAPS
280
     0
  9
$JOINSTYLE
280
     0
  9
$LWDISPLAY
290
     1
  9
$INSUNITS
 70
     4
  9
$HYPERLINKBASE
  1

  9
$STYLESHEET
  1

  9
$XEDIT
290
     1
  9
$CEPSNTYPE
380
     0
  9
$PSTYLEMODE
290
     1
  9
$FINGERPRINTGUID
  2
{EB99BA1F-AF37-470B-ABE1-37043D773228}
  9
$VERSIONGUID
  2
{FAEB1C32-E019-11D5-929B-00C0DF256EC4}
  9
$EXTNAMES
290
     1
  9
$PSVPSCALE
 40
0.0
  9
$OLESTARTUP
290
     0
  0
ENDSEC
  0
SECTION
  2
CLASSES
  0
CLASS
  1
ACDBDICTIONARYWDFLT
  2
AcDbDictionaryWithDefault
  3
ObjectDBX Classes
 90
        0
280
     0
281
     0
  0
CLASS
  1
VISUALSTYLE
  2
AcDbVisualStyle
  3
ObjectDBX Classes
 90
     4095
280
     0
281
     0
  0
CLASS
  1
MATERIAL
  2
AcDbMaterial
  3
ObjectDBX Classes
 90
     1153
280
     0
281
     0
  0
CLASS
  1
ACDBPLACEHOLDER
  2
AcDbPlaceHolder
  3
ObjectDBX Classes
 90
        0
280
     0
281
     0
  0
CLASS
  1
LAYOUT
  2
AcDbLayout
  3
ObjectDBX Classes
 90
        0
280
     0
281
     0
  0
ENDSEC
  0
SECTION
  2
TABLES
  0
TABLE
  2
VPORT
  5
8
330
0
100
AcDbSymbolTable
 70
     1
  0
VPORT
  5
29
330
8
100
AcDbSymbolTableRecord
100
AcDbViewportTableRecord
  2
*Active
 70
     0
 10
0.0
 20
0.0
 11
1.0
 21
1.0
 12
105.0
 22
148.5
 13
0.0
 23
0.0
 14
10.0
 24
10.0
 15
10.0
 25
10.0
 16
0.0
 26
0.0
 36
1.0
 17
0.0
 27
0.0
 37
0.0
 40
297.0
 41
0.7070707071
 42
50.0
 43
0.0
 44
0.0
 50
0.0
 51
0.0
 71
     0
 72
  2000
 73
     1
 74
     3
 75
     0
 76
     0
 77
     0
 78
     0
281
     0
 65
     1
110
0.0
120
0.0
130
0.0
111
1.0
121
0.0
131
0.0
112
0.0
122
1.0
132
0.0
 79
     0
146
0.0
  0
ENDTAB
  0
TABLE
  2
LTYPE
  5
5
330
0
100
AcDbSymbolTable
 70
     6
  0
LTYPE
  5
14
330
5
100
AcDbSymbolTableRecord
100
AcDbLinetypeTableRecord
  2
ByBlock
 70
     0
  3

 72
    65
 73
     0
 40
0.0
  0
LTYPE
  5
15
330
5
100
AcDbSymbolTableRecord
100
AcDbLinetypeTableRecord
  2
ByLayer
 70
     0
  3

 72
    65
 73
     0
 40
0.0
  0
LTYPE
  5
16
330
5
100
AcDbSymbolTableRecord
100
AcDbLinetypeTableRecord
  2
Continuous
 70
     0
  3
Solid line
 72
    65
 73
     0
 40
0.0
  0
LTYPE
  5
3F
330
5
100
AcDbSymbolTableRecord
100
AcDbLinetypeTableRecord
  2
HIDDEN
 70
     0
  3
Hidden __ __ __ __ __ __ __ __ __ __ __ __ __ __
 72
    65
 73
     2
 40
1.905
 49
1.27
 74
     0
 49
-0.635
 74
     0
  0
LTYPE
  5
40
330
5
100
AcDbSymbolTableRecord
100
AcDbLinetypeTableRecord
  2
PHANTOM
 70
     0
  3
Phantom ______  __  __  ______  __  __  ______
 72
    65
 73
     6
 40
12.7
 49
6.35
 74
     0
 49
-1.27
 74
     0
 49
1.27
 74
     0
 49
-1.27
 74
     0
 49
1.27
 74
     0
 49
-1.27
 74
     0
  0
LTYPE
  5
41
330
5
100
AcDbSymbolTableRecord
100
AcDbLinetypeTableRecord
  2
CENTER
 70
     0
  3
Center ____ _ ____ _ ____ _ ____ _ ____ _ ____
 72
    65
 73
     4
 40
10.16
 49
6.35
 74
     0
 49
-1.27
 74
     0
 49
1.27
 74
     0
 49
-1.27
 74
     0
  0
LTYPE
  5
42
330
5
100
AcDbSymbolTableRecord
100
AcDbLinetypeTableRecord
  2
CENTERX2
 70
     0
  3
Center (2x) ________  __  ________  __  _____
 72
    65
 73
     4
 40
20.32
 49
12.7
 74
     0
 49
-2.54
 74
     0
 49
2.54
 74
     0
 49
-2.54
 74
     0
  0
LTYPE
  5
43
330
5
100
AcDbSymbolTableRecord
100
AcDbLinetypeTableRecord
  2
DOT2
 70
     0
  3
Dot (.5x) ........................................
 72
    65
 73
     2
 40
0.635
 49
0.0
 74
     0
 49
-0.635
 74
     0
  0
ENDTAB
  0
TABLE
  2
LAYER
  5
2
330
0
100
AcDbSymbolTable
 70
     1
  0
LAYER
  5
10
330
2
100
AcDbSymbolTableRecord
100
AcDbLayerTableRecord
  2
0
 70
     0
 62
     7
  6
Continuous
370
    -3
390
F
  0
ENDTAB
  0
TABLE
  2
STYLE
  5
3
330
0
100
AcDbSymbolTable
 70
     3
  0
STYLE
  5
11
330
3
100
AcDbSymbolTableRecord
100
AcDbTextStyleTableRecord
  2
Standard
 70
     0
 40
0.0
 41
1.0
 50
0.0
 71
     0
 42
3.5
  3
txt
  4
bigfont
  0
STYLE
  5
4C
330
3
100
AcDbSymbolTableRecord
100
AcDbTextStyleTableRecord
  2
SLDTEXTSTYLE0
 70
     0
 40
0.0
 41
0.7
 50
0.0
 71
     0
 42
0.2
  3
TXT
  4
bigfont
  0
STYLE
  5
1EC
330
3
100
AcDbSymbolTableRecord
100
AcDbTextStyleTableRecord
  2
SLDTEXTSTYLE1
 70
     0
 40
0.0
 41
0.75
 50
0.0
 71
     0
 42
0.2
  3
TXT
  4
bigfont
  0
ENDTAB
  0
TABLE
  2
VIEW
  5
6
330
0
100
AcDbSymbolTable
 70
     0
  0
ENDTAB
  0
TABLE
  2
UCS
  5
7
330
0
100
AcDbSymbolTable
 70
     0
  0
ENDTAB
  0
TABLE
  2
APPID
  5
9
330
0
100
AcDbSymbolTable
 70
     1
  0
APPID
  5
12
330
9
100
AcDbSymbolTableRecord
100
AcDbRegAppTableRecord
  2
ACAD
 70
     0
  0
ENDTAB
  0
TABLE
  2
DIMSTYLE
  5
A
330
0
100
AcDbSymbolTable
 70
     8
100
AcDbDimStyleTable
  0
DIMSTYLE
105
27
330
A
100
AcDbSymbolTableRecord
100
AcDbDimStyleTableRecord
  2
ISO-25
 70
     0
 41
2.5
 42
0.625
 43
3.75
 44
1.25
 73
     0
 74
     0
 77
     1
 78
     8
140
2.5
141
2.5
143
0.0393700787
147
0.625
171
     3
172
     1
178
     0
271
     2
272
     2
274
     3
278
    44
283
     0
284
     8
340
11
  0
DIMSTYLE
105
1ED
102
{ACAD_REACTORS
330
1EB
330
1F7
330
201
330
238
330
38F
330
399
330
4AF
330
4C8
330
4D2
330
4DC
102
}
330
A
100
AcDbSymbolTableRecord
100
AcDbDimStyleTableRecord
  2
SLDDIMSTYLE0
 70
     0
 41
2.0
 44
0.0
 45
0.000000001
 73
     0
 74
     0
 77
     3
 78
    12
 79
     3
140
3.5
147
0.875
173
     1
178
     0
271
     2
272
     2
276
     2
284
    12
340
1EC
  0
DIMSTYLE
105
20C
102
{ACAD_REACTORS
330
20B
102
}
330
A
100
AcDbSymbolTableRecord
100
AcDbDimStyleTableRecord
  2
SLDDIMSTYLE1
 70
     0
 41
2.0
 44
0.0
 45
0.000000001
 73
     0
 74
     0
 77
     3
 78
    12
 79
     3
140
3.5
147
0.875
172
     1
173
     1
178
     0
271
     2
272
     2
276
     2
284
    12
289
     0
340
1EC
344
20D
  0
DIMSTYLE
105
221
102
{ACAD_REACTORS
330
220
102
}
330
A
100
AcDbSymbolTableRecord
100
AcDbDimStyleTableRecord
  2
SLDDIMSTYLE2
 70
     0
 41
1.5
 44
0.0
 45
0.000000001
 73
     0
 74
     0
 77
     3
 78
    12
 79
     3
140
3.5
147
0.875
173
     1
178
     0
271
     1
272
     2
276
     2
284
    12
340
1EC
341
20D
343
20D
  0
DIMSTYLE
105
22C
102
{ACAD_REACTORS
330
22B
102
}
330
A
100
AcDbSymbolTableRecord
100
AcDbDimStyleTableRecord
  2
SLDDIMSTYLE3
 70
     0
 41
2.0
 44
0.0
 45
0.000000001
 73
     0
 74
     0
 77
     3
 78
    12
 79
     3
140
3.5
147
0.875
172
     1
173
     1
178
     0
271
     1
272
     1
276
     2
284
    12
289
     0
340
1EC
  0
DIMSTYLE
105
243
330
A
100
AcDbSymbolTableRecord
100
AcDbDimStyleTableRecord
  2
SLDDIMSTYLE4
 70
     0
 41
2.0
 44
0.0
 45
0.000000001
140
0.0
146
2.0
147
0.0
173
     1
178
     0
271
     0
272
     0
276
     2
340
11
  0
DIMSTYLE
105
3A4
102
{ACAD_REACTORS
330
3A3
102
}
330
A
100
AcDbSymbolTableRecord
100
AcDbDimStyleTableRecord
  2
SLDDIMSTYLE5
 70
     0
 41
2.0
 44
0.0
 45
0.000000001
 73
     0
 74
     0
 77
     3
 78
    12
 79
     3
140
3.5
147
0.875
173
     1
178
     0
271
     1
272
     2
276
     2
284
    12
340
1EC
  0
DIMSTYLE
105
4BC
102
{ACAD_REACTORS
330
4BB
102
}
330
A
100
AcDbSymbolTableRecord
100
AcDbDimStyleTableRecord
  2
SLDDIMSTYLE6
 70
     0
 41
2.0
 44
0.0
 45
0.000000001
 73
     0
 74
     0
 77
     3
 78
    12
 79
     3
140
3.5
147
0.875
172
     1
173
     1
178
     0
271
     2
272
     2
276
     2
284
    12
289
     0
340
1EC
  0
ENDTAB
  0
TABLE
  2
BLOCK_RECORD
  5
1
330
0
100
AcDbSymbolTable
 70
    26
  0
BLOCK_RECORD
  5
1F
330
1
100
AcDbSymbolTableRecord
100
AcDbBlockTableRecord
  2
*Model_Space
340
22
  0
BLOCK_RECORD
  5
1B
330
1
100
AcDbSymbolTableRecord
100
AcDbBlockTableRecord
  2
*Paper_Space
340
1E
  0
BLOCK_RECORD
  5
23
330
1
100
AcDbSymbolTableRecord
100
AcDbBlockTableRecord
  2
*Paper_Space0
340
26
  0
BLOCK_RECORD
  5
1EE
330
1
100
AcDbSymbolTableRecord
100
AcDbBlockTableRecord
  2
_D
340
0
  0
BLOCK_RECORD
  5
1F8
330
1
100
AcDbSymbolTableRecord
100
AcDbBlockTableRecord
  2
_D_1
340
0
  0
BLOCK_RECORD
  5
202
330
1
100
AcDbSymbolTableRecord
100
AcDbBlockTableRecord
  2
_D_2
340
0
  0
BLOCK_RECORD
  5
20D
330
1
100
AcDbSymbolTableRecord
100
AcDbBlockTableRecord
  2
_DOT
340
0
102
{BLKREFS
331
219
331
225
102
}
  0
BLOCK_RECORD
  5
215
330
1
100
AcDbSymbolTableRecord
100
AcDbBlockTableRecord
  2
_D_3
340
0
  0
BLOCK_RECORD
  5
222
330
1
100
AcDbSymbolTableRecord
100
AcDbBlockTableRecord
  2
_D_4
340
0
  0
BLOCK_RECORD
  5
22D
330
1
100
AcDbSymbolTableRecord
100
AcDbBlockTableRecord
  2
_D_5
340
0
  0
BLOCK_RECORD
  5
239
330
1
100
AcDbSymbolTableRecord
100
AcDbBlockTableRecord
  2
_D_6
340
0
  0
BLOCK_RECORD
  5
249
330
1
100
AcDbSymbolTableRecord
100
AcDbBlockTableRecord
  2
SW_CENTERMARKSYMBOL_0
340
0
102
{BLKREFS
331
254
102
}
  0
BLOCK_RECORD
  5
255
330
1
100
AcDbSymbolTableRecord
100
AcDbBlockTableRecord
  2
SW_CENTERMARKSYMBOL_1
340
0
102
{BLKREFS
331
260
102
}
  0
BLOCK_RECORD
  5
390
330
1
100
AcDbSymbolTableRecord
100
AcDbBlockTableRecord
  2
_D_7
340
0
  0
BLOCK_RECORD
  5
39A
330
1
100
AcDbSymbolTableRecord
100
AcDbBlockTableRecord
  2
_D_8
340
0
  0
BLOCK_RECORD
  5
3A5
330
1
100
AcDbSymbolTableRecord
100
AcDbBlockTableRecord
  2
_D_9
340
0
  0
BLOCK_RECORD
  5
3AE
330
1
100
AcDbSymbolTableRecord
100
AcDbBlockTableRecord
  2
SW_CENTERMARKSYMBOL_2
340
0
102
{BLKREFS
331
3B9
102
}
  0
BLOCK_RECORD
  5
3BA
330
1
100
AcDbSymbolTableRecord
100
AcDbBlockTableRecord
  2
SW_CENTERMARKSYMBOL_3
340
0
102
{BLKREFS
331
3C5
102
}
  0
BLOCK_RECORD
  5
3C6
330
1
100
AcDbSymbolTableRecord
100
AcDbBlockTableRecord
  2
SW_CENTERMARKSYMBOL_4
340
0
102
{BLKREFS
331
3D1
102
}
  0
BLOCK_RECORD
  5
3D2
330
1
100
AcDbSymbolTableRecord
100
AcDbBlockTableRecord
  2
SW_CENTERMARKSYMBOL_5
340
0
102
{BLKREFS
331
3DD
102
}
  0
BLOCK_RECORD
  5
3DE
330
1
100
AcDbSymbolTableRecord
100
AcDbBlockTableRecord
  2
SW_CENTERMARKSYMBOL_6
340
0
102
{BLKREFS
331
3E9
102
}
  0
BLOCK_RECORD
  5
4B0
330
1
100
AcDbSymbolTableRecord
100
AcDbBlockTableRecord
  2
_D_10
340
0
  0
BLOCK_RECORD
  5
4BD
330
1
100
AcDbSymbolTableRecord
100
AcDbBlockTableRecord
  2
_D_11
340
0
  0
BLOCK_RECORD
  5
4C9
330
1
100
AcDbSymbolTableRecord
100
AcDbBlockTableRecord
  2
_D_12
340
0
  0
BLOCK_RECORD
  5
4D3
330
1
100
AcDbSymbolTableRecord
100
AcDbBlockTableRecord
  2
_D_13
340
0
  0
BLOCK_RECORD
  5
4DD
330
1
100
AcDbSymbolTableRecord
100
AcDbBlockTableRecord
  2
_D_14
340
0
  0
BLOCK_RECORD
  5
4E6
330
1
100
AcDbSymbolTableRecord
100
AcDbBlockTableRecord
  2
SW_CENTERMARKSYMBOL_7
340
0
102
{BLKREFS
331
4F1
102
}
  0
BLOCK_RECORD
  5
4F2
330
1
100
AcDbSymbolTableRecord
100
AcDbBlockTableRecord
  2
SW_CENTERMARKSYMBOL_8
340
0
102
{BLKREFS
331
4FD
102
}
  0
ENDTAB
  0
ENDSEC
  0
SECTION
  2
BLOCKS
  0
BLOCK
  5
20
330
1F
100
AcDbEntity
  8
0
100
AcDbBlockBegin
  2
*Model_Space
 70
     0
 10
0.0
 20
0.0
 30
0.0
  3
*Model_Space
  1

  0
ENDBLK
  5
21
330
1F
100
AcDbEntity
  8
0
100
AcDbBlockEnd
  0
BLOCK
  5
1C
330
1B
100
AcDbEntity
 67
     1
  8
0
100
AcDbBlockBegin
  2
*Paper_Space
 70
     0
 10
0.0
 20
0.0
 30
0.0
  3
*Paper_Space
  1

  0
ENDBLK
  5
1D
330
1B
100
AcDbEntity
 67
     1
  8
0
100
AcDbBlockEnd
  0
BLOCK
  5
24
330
23
100
AcDbEntity
  8
0
100
AcDbBlockBegin
  2
*Paper_Space0
 70
     0
 10
0.0
 20
0.0
 30
0.0
  3
*Paper_Space0
  1

  0
ENDBLK
  5
25
330
23
100
AcDbEntity
  8
0
100
AcDbBlockEnd
  0
BLOCK
  5
1EF
330
1EE
100
AcDbEntity
  8
0
100
AcDbBlockBegin
  2
_D
 70
     0
 10
0.0
 20
0.0
 30
0.0
  3
_D
  1

  0
SOLID
  5
1F1
330
1EE
100
AcDbEntity
  8
0
  6
Continuous
 62
     7
370
     0
100
AcDbTrace
 10
104.0926304868
 20
168.9834661399
 30
0.0
 11
103.3426304868
 21
166.9834661399
 31
0.0
 12
104.8426304868
 22
166.9834661399
 32
0.0
 13
104.8426304868
 23
166.9834661399
 33
0.0
  0
SOLID
  5
1F2
330
1EE
100
AcDbEntity
  8
0
  6
Continuous
 62
     7
370
     0
100
AcDbTrace
 10
104.0926304868
 20
147.9834661399
 30
0.0
 11
104.8426304868
 21
149.9834661399
 31
0.0
 12
103.3426304868
 22
149.9834661399
 32
0.0
 13
103.3426304868
 23
149.9834661399
 33
0.0
  0
LINE
  5
1F3
330
1EE
100
AcDbEntity
  8
0
  6
Continuous
 62
     7
370
     0
100
AcDbLine
 10
118.0928506144
 20
168.9834661399
 30
0.0
 11
103.0926304868
 21
168.9834661399
 31
0.0
  0
LINE
  5
1F4
330
1EE
100
AcDbEntity
  8
0
  6
Continuous
 62
     7
370
     0
100
AcDbLine
 10
136.3428506144
 20
147.9834661399
 30
0.0
 11
103.0926304868
 21
147.9834661399
 31
0.0
  0
LINE
  5
1F5
330
1EE
100
AcDbEntity
  8
0
  6
Continuous
 62
     7
370
     0
100
AcDbLine
 10
104.0926304868
 20
168.9834661399
 30
0.0
 11
104.0926304868
 21
147.9834661399
 31
0.0
  0
MTEXT
  5
1F6
330
1EE
100
AcDbEntity
  8
0
  6
Continuous
 62
     7
370
     0
100
AcDbMText
 10
99.5808935723
 20
155.8973549464
 30
0.1
 40
3.5
 41
0.0
 71
     1
 72
     1
  1
21
  7
SLDTEXTSTYLE1
 11
-8.269460797427576E-16
 21
1.0
 31
0.0
 73
     1
 44
1.0
  0
ENDBLK
  5
1F0
330
1EE
100
AcDbEntity
  8
0
100
AcDbBlockEnd
  0
BLOCK
  5
1F9
330
1F8
100
AcDbEntity
  8
0
100
AcDbBlockBegin
  2
_D_1
 70
     0
 10
0.0
 20
0.0
 30
0.0
  3
_D_1
  1

  0
SOLID
  5
1FB
330
1F8
100
AcDbEntity
  8
0
  6
Continuous
 62
     7
370
     0
100
AcDbTrace
 10
159.3428506144
 20
137.9834661399
 30
0.0
 11
157.3428506144
 21
138.7334661399
 31
0.0
 12
157.3428506144
 22
137.2334661399
 32
0.0
 13
157.3428506144
 23
137.2334661399
 33
0.0
  0
SOLID
  5
1FC
330
1F8
100
AcDbEntity
  8
0
  6
Continuous
 62
     7
370
     0
100
AcDbTrace
 10
121.3428506144
 20
137.9834661399
 30
0.0
 11
123.3428506144
 21
137.2334661399
 31
0.0
 12
123.3428506144
 22
138.7334661399
 32
0.0
 13
123.3428506144
 23
138.7334661399
 33
0.0
  0
LINE
  5
1FD
330
1F8
100
AcDbEntity
  8
0
  6
Continuous
 62
     7
370
     0
100
AcDbLine
 10
159.3428506144
 20
160.7334661399
 30
0.0
 11
159.3428506144
 21
136.9834661399
 31
0.0
  0
LINE
  5
1FE
330
1F8
100
AcDbEntity
  8
0
  6
Continuous
 62
     7
370
     0
100
AcDbLine
 10
121.3428506144
 20
163.2334661399
 30
0.0
 11
121.3428506144
 21
136.9834661399
 31
0.0
  0
LINE
  5
1FF
330
1F8
100
AcDbEntity
  8
0
  6
Continuous
 62
     7
370
     0
100
AcDbLine
 10
159.3428506144
 20
137.9834661399
 30
0.0
 11
121.3428506144
 21
137.9834661399
 31
0.0
  0
MTEXT
  5
200
330
1F8
100
AcDbEntity
  8
0
  6
Continuous
 62
     7
370
     0
100
AcDbMText
 10
137.7567394208
 20
142.4952030545
 30
0.1
 40
3.5
 41
0.0
 71
     1
 72
     1
  1
38
  7
SLDTEXTSTYLE1
 73
     1
 44
1.0
  0
ENDBLK
  5
1FA
330
1F8
100
AcDbEntity
  8
0
100
AcDbBlockEnd
  0
BLOCK
  5
203
330
202
100
AcDbEntity
  8
0
100
AcDbBlockBegin
  2
_D_2
 70
     0
 10
0.0
 20
0.0
 30
0.0
  3
_D_2
  1

  0
SOLID
  5
205
330
202
100
AcDbEntity
  8
0
  6
Continuous
 62
     7
370
     0
100
AcDbTrace
 10
112.499122621
 20
175.9834661399
 30
0.0
 11
111.749122621
 21
173.9834661399
 31
0.0
 12
113.249122621
 22
173.9834661399
 32
0.0
 13
113.249122621
 23
173.9834661399
 33
0.0
  0
SOLID
  5
206
330
202
100
AcDbEntity
  8
0
  6
Continuous
 62
     7
370
     0
100
AcDbTrace
 10
112.499122621
 20
153.9834661399
 30
0.0
 11
113.249122621
 21
155.9834661399
 31
0.0
 12
111.749122621
 22
155.9834661399
 32
0.0
 13
111.749122621
 23
155.9834661399
 33
0.0
  0
LINE
  5
207
330
202
100
AcDbEntity
  8
0
  6
Continuous
 62
     7
370
     0
100
AcDbLine
 10
117.3428506144
 20
175.9834661399
 30
0.0
 11
111.499122621
 21
175.9834661399
 31
0.0
  0
LINE
  5
208
330
202
100
AcDbEntity
  8
0
  6
Continuous
 62
     7
370
     0
100
AcDbLine
 10
117.3428506144
 20
153.9834661399
 30
0.0
 11
111.499122621
 21
153.9834661399
 31
0.0
  0
LINE
  5
209
330
202
100
AcDbEntity
  8
0
  6
Continuous
 62
     7
370
     0
100
AcDbLine
 10
112.499122621
 20
175.9834661399
 30
0.0
 11
112.499122621
 21
153.9834661399
 31
0.0
  0
MTEXT
  5
20A
330
202
100
AcDbEntity
  8
0
  6
Continuous
 62
     7
370
     0
100
AcDbMText
 10
107.9873857064
 20
159.6913324429
 30
-6.860690685
 40
3.5
 41
0.0
 71
     1
 72
     1
  1
22
  7
SLDTEXTSTYLE1
 11
-7.044195017643634E-15
 21
1.0
 31
0.0
 73
     1
 44
1.0
  0
ENDBLK
  5
204
330
202
100
AcDbEntity
  8
0
100
AcDbBlockEnd
  0
BLOCK
  5
20E
330
20D
100
AcDbEntity
  8
0
100
AcDbBlockBegin
  2
_DOT
 70
     0
 10
0.0
 20
0.0
 30
0.0
  3
_DOT
  1

  0
POLYLINE
  5
210
330
20D
100
AcDbEntity
  8
0
  6
ByBlock
 62
     0
100
AcDb2dPolyline
 66
     1
 10
0.0
 20
0.0
 30
0.0
 70
     1
 40
0.5
 41
0.5
  0
VERTEX
  5
212
330
210
100
AcDbEntity
  8
0
  6
ByBlock
 62
     0
100
AcDbVertex
100
AcDb2dVertex
 10
-0.25
 20
0.0
 30
0.0
 42
1.0
  0
VERTEX
  5
213
330
210
100
AcDbEntity
  8
0
  6
ByBlock
 62
     0
100
AcDbVertex
100
AcDb2dVertex
 10
0.25
 20
0.0
 30
0.0
 42
1.0
  0
SEQEND
  5
214
330
210
100
AcDbEntity
  8
0
  6
ByBlock
 62
     0
  0
LINE
  5
211
330
20D
100
AcDbEntity
  8
0
  6
ByBlock
 62
     0
370
    -2
100
AcDbLine
 10
-0.5
 20
0.0
 30
0.0
 11
-1.0
 21
0.0
 31
0.0
  0
ENDBLK
  5
20F
330
20D
100
AcDbEntity
  8
0
100
AcDbBlockEnd
  0
BLOCK
  5
216
330
215
100
AcDbEntity
  8
0
100
AcDbBlockBegin
  2
_D_3
 70
     0
 10
0.0
 20
0.0
 30
0.0
  3
_D_3
  1

  0
SOLID
  5
218
330
215
100
AcDbEntity
  8
0
  6
Continuous
 62
     7
370
     0
100
AcDbTrace
 10
177.1098743491
 20
171.4834661399
 30
0.0
 11
177.8598743491
 21
173.4834661399
 31
0.0
 12
176.3598743491
 22
173.4834661399
 32
0.0
 13
176.3598743491
 23
173.4834661399
 33
0.0
  0
INSERT
  5
219
330
215
100
AcDbEntity
  8
0
  6
Continuous
 62
     7
370
     0
100
AcDbBlockReference
  2
_DOT
 10
177.1098743491
 20
166.4834661399
 30
-6.860690685
 41
1.5
 42
1.5
 50
90.0
  0
LINE
  5
21A
330
215
100
AcDbEntity
  8
0
  6
Continuous
 62
     7
370
     0
100
AcDbLine
 10
165.0928506144
 20
171.4834661399
 30
0.0
 11
178.1098743491
 21
171.4834661399
 31
0.0
  0
LINE
  5
21B
330
215
100
AcDbEntity
  8
0
  6
Continuous
 62
     7
370
     0
100
AcDbLine
 10
162.5928506144
 20
166.4834661399
 30
0.0
 11
178.1098743491
 21
166.4834661399
 31
0.0
  0
LINE
  5
21C
330
215
100
AcDbEntity
  8
0
  6
Continuous
 62
     7
370
     0
100
AcDbLine
 10
177.1098743491
 20
171.4834661399
 30
0.0
 11
177.1098743491
 21
176.4834661399
 31
0.0
  0
LINE
  5
21D
330
215
100
AcDbEntity
  8
0
  6
Continuous
 62
     7
370
     0
100
AcDbLine
 10
177.1098743491
 20
171.4834661399
 30
0.0
 11
177.1098743491
 21
166.4834661399
 31
0.0
  0
LINE
  5
21E
330
215
100
AcDbEntity
  8
0
  6
Continuous
 62
     7
370
     0
100
AcDbLine
 10
177.1098743491
 20
166.4834661399
 30
0.0
 11
177.1098743491
 21
161.4834661399
 31
0.0
  0
MTEXT
  5
21F
330
215
100
AcDbEntity
  8
0
  6
Continuous
 62
     7
370
     0
100
AcDbMText
 10
172.5981374345
 20
167.6406600463
 30
-6.860690685
 40
3.5
 41
0.0
 71
     1
 72
     1
  1
5
  7
SLDTEXTSTYLE1
 11
-7.044195017643634E-15
 21
1.0
 31
0.0
 73
     1
 44
1.0
  0
ENDBLK
  5
217
330
215
100
AcDbEntity
  8
0
100
AcDbBlockEnd
  0
BLOCK
  5
223
330
222
100
AcDbEntity
  8
0
100
AcDbBlockBegin
  2
_D_4
 70
     0
 10
0.0
 20
0.0
 30
0.0
  3
_D_4
  1

  0
INSERT
  5
225
330
222
100
AcDbEntity
  8
0
  6
Continuous
 62
     7
370
     0
100
AcDbBlockReference
  2
_DOT
 10
177.1098743491
 20
166.4834661399
 30
-6.860690685
 41
1.5
 42
1.5
 50
90.0
  0
SOLID
  5
226
330
222
100
AcDbEntity
  8
0
  6
Continuous
 62
     7
370
     0
100
AcDbTrace
 10
177.1098743491
 20
153.9834661399
 30
0.0
 11
177.8598743491
 21
155.9834661399
 31
0.0
 12
176.3598743491
 22
155.9834661399
 32
0.0
 13
176.3598743491
 23
155.9834661399
 33
0.0
  0
LINE
  5
227
330
222
100
AcDbEntity
  8
0
  6
Continuous
 62
     7
370
     0
100
AcDbLine
 10
165.0928506144
 20
166.4834661399
 30
0.0
 11
178.1098743491
 21
166.4834661399
 31
0.0
  0
LINE
  5
228
330
222
100
AcDbEntity
  8
0
  6
Continuous
 62
     7
370
     0
100
AcDbLine
 10
163.3428506144
 20
153.9834661399
 30
0.0
 11
178.1098743491
 21
153.9834661399
 31
0.0
  0
LINE
  5
229
330
222
100
AcDbEntity
  8
0
  6
Continuous
 62
     7
370
     0
100
AcDbLine
 10
177.1098743491
 20
166.4834661399
 30
0.0
 11
177.1098743491
 21
153.9834661399
 31
0.0
  0
MTEXT
  5
22A
330
222
100
AcDbEntity
  8
0
  6
Continuous
 62
     7
370
     0
100
AcDbMText
 10
172.5981374345
 20
155.1737462635
 30
-6.860690685
 40
3.5
 41
0.0
 71
     1
 72
     1
  1
12.5
  7
SLDTEXTSTYLE1
 11
-7.044195017643634E-15
 21
1.0
 31
0.0
 73
     1
 44
1.0
  0
ENDBLK
  5
224
330
222
100
AcDbEntity
  8
0
100
AcDbBlockEnd
  0
BLOCK
  5
22E
330
22D
100
AcDbEntity
  8
0
100
AcDbBlockBegin
  2
_D_5
 70
     0
 10
0.0
 20
0.0
 30
0.0
  3
_D_5
  1

  0
SOLID
  5
230
330
22D
100
AcDbEntity
  8
0
  6
Continuous
 62
     7
370
     0
100
AcDbTrace
 10
157.0928506144
 20
143.4018692581
 30
0.0
 11
155.0928506144
 21
144.1518692581
 31
0.0
 12
155.0928506144
 22
142.6518692581
 32
0.0
 13
155.0928506144
 23
142.6518692581
 33
0.0
  0
SOLID
  5
231
330
22D
100
AcDbEntity
  8
0
  6
Continuous
 62
     7
370
     0
100
AcDbTrace
 10
161.5928506144
 20
143.4018692581
 30
0.0
 11
163.5928506144
 21
142.6518692581
 31
0.0
 12
163.5928506144
 22
144.1518692581
 32
0.0
 13
163.5928506144
 23
144.1518692581
 33
0.0
  0
LINE
  5
232
330
22D
100
AcDbEntity
  8
0
  6
Continuous
 62
     7
370
     0
100
AcDbLine
 10
157.0928506144
 20
165.4834661399
 30
0.0
 11
157.0928506144
 21
142.4018692581
 31
0.0
  0
LINE
  5
233
330
22D
100
AcDbEntity
  8
0
  6
Continuous
 62
     7
370
     0
100
AcDbLine
 10
161.5928506144
 20
165.4834661399
 30
0.0
 11
161.5928506144
 21
142.4018692581
 31
0.0
  0
LINE
  5
234
330
22D
100
AcDbEntity
  8
0
  6
Continuous
 62
     7
370
     0
100
AcDbLine
 10
157.0928506144
 20
143.4018692581
 30
0.0
 11
146.9078569854
 21
143.4018692581
 31
0.0
  0
LINE
  5
235
330
22D
100
AcDbEntity
  8
0
  6
Continuous
 62
     7
370
     0
100
AcDbLine
 10
157.0928506144
 20
143.4018692581
 30
0.0
 11
161.5928506144
 21
143.4018692581
 31
0.0
  0
LINE
  5
236
330
22D
100
AcDbEntity
  8
0
  6
Continuous
 62
     7
370
     0
100
AcDbLine
 10
161.5928506144
 20
143.4018692581
 30
0.0
 11
166.5928506144
 21
143.4018692581
 31
0.0
  0
MTEXT
  5
237
330
22D
100
AcDbEntity
  8
0
  6
Continuous
 62
     7
370
     0
100
AcDbMText
 10
146.9078569854
 20
147.9136061727
 30
-6.860690685
 40
3.5
 41
0.0
 71
     1
 72
     1
  1
4.5
  7
SLDTEXTSTYLE1
 73
     1
 44
1.0
  0
ENDBLK
  5
22F
330
22D
100
AcDbEntity
  8
0
100
AcDbBlockEnd
  0
BLOCK
  5
23A
330
239
100
AcDbEntity
  8
0
100
AcDbBlockBegin
  2
_D_6
 70
     0
 10
0.0
 20
0.0
 30
0.0
  3
_D_6
  1

  0
SOLID
  5
23C
330
239
100
AcDbEntity
  8
0
  6
Continuous
 62
     7
370
     0
100
AcDbTrace
 10
116.3428506144
 20
129.6128870827
 30
0.0
 11
118.3428506144
 21
128.8628870827
 31
0.0
 12
118.3428506144
 22
130.3628870827
 32
0.0
 13
118.3428506144
 23
130.3628870827
 33
0.0
  0
SOLID
  5
23D
330
239
100
AcDbEntity
  8
0
  6
Continuous
 62
     7
370
     0
100
AcDbTrace
 10
164.3428506144
 20
129.6128870827
 30
0.0
 11
162.3428506144
 21
130.3628870827
 31
0.0
 12
162.3428506144
 22
128.8628870827
 32
0.0
 13
162.3428506144
 23
128.8628870827
 33
0.0
  0
LINE
  5
23E
330
239
100
AcDbEntity
  8
0
  6
Continuous
 62
     7
370
     0
100
AcDbLine
 10
116.3428506144
 20
154.9834661399
 30
0.0
 11
116.3428506144
 21
128.6128870827
 31
0.0
  0
LINE
  5
23F
330
239
100
AcDbEntity
  8
0
  6
Continuous
 62
     7
370
     0
100
AcDbLine
 10
164.3428506144
 20
154.9834661399
 30
0.0
 11
164.3428506144
 21
128.6128870827
 31
0.0
  0
LINE
  5
240
330
239
100
AcDbEntity
  8
0
  6
Continuous
 62
     7
370
     0
100
AcDbLine
 10
116.3428506144
 20
129.6128870827
 30
0.0
 11
164.3428506144
 21
129.6128870827
 31
0.0
  0
MTEXT
  5
241
330
239
100
AcDbEntity
  8
0
  6
Continuous
 62
     7
370
     0
100
AcDbMText
 10
137.7567394208
 20
134.1246239973
 30
-6.860690685
 40
3.5
 41
0.0
 71
     1
 72
     1
  1
48
  7
SLDTEXTSTYLE1
 73
     1
 44
1.0
  0
ENDBLK
  5
23B
330
239
100
AcDbEntity
  8
0
100
AcDbBlockEnd
  0
BLOCK
  5
24A
330
249
100
AcDbEntity
  8
0
100
AcDbBlockBegin
  2
SW_CENTERMARKSYMBOL_0
 70
     0
 10
0.0
 20
0.0
 30
0.0
  3
SW_CENTERMARKSYMBOL_0
  1

  0
LINE
  5
24C
330
249
100
AcDbEntity
  8
0
  6
Continuous
 62
     0
370
     0
100
AcDbLine
 10
0.0
 20
0.0
 30
0.0
 11
0.0
 21
2.5
 31
0.0
  0
LINE
  5
24D
330
249
100
AcDbEntity
  8
0
  6
Continuous
 62
     0
370
     0
100
AcDbLine
 10
0.0
 20
0.0
 30
0.0
 11
-2.5
 21
0.0
 31
0.0
  0
LINE
  5
24E
330
249
100
AcDbEntity
  8
0
  6
Continuous
 62
     0
370
     0
100
AcDbLine
 10
0.0
 20
0.0
 30
0.0
 11
0.0
 21
-2.5
 31
0.0
  0
LINE
  5
24F
330
249
100
AcDbEntity
  8
0
  6
Continuous
 62
     0
370
     0
100
AcDbLine
 10
0.0
 20
0.0
 30
0.0
 11
2.5
 21
0.0
 31
0.0
  0
LINE
  5
250
330
249
100
AcDbEntity
  8
0
  6
Continuous
 62
     0
370
     0
100
AcDbLine
 10
0.0
 20
2.5
 30
0.0
 11
0.0
 21
4.75
 31
0.0
  0
LINE
  5
251
330
249
100
AcDbEntity
  8
0
  6
Continuous
 62
     0
370
     0
100
AcDbLine
 10
-2.5
 20
0.0
 30
0.0
 11
-4.75
 21
0.0
 31
0.0
  0
LINE
  5
252
330
249
100
AcDbEntity
  8
0
  6
Continuous
 62
     0
370
     0
100
AcDbLine
 10
0.0
 20
-2.5
 30
0.0
 11
0.0
 21
-4.75
 31
0.0
  0
LINE
  5
253
330
249
100
AcDbEntity
  8
0
  6
Continuous
 62
     0
370
     0
100
AcDbLine
 10
2.5
 20
0.0
 30
0.0
 11
4.75
 21
0.0
 31
0.0
  0
ENDBLK
  5
24B
330
249
100
AcDbEntity
  8
0
100
AcDbBlockEnd
  0
BLOCK
  5
256
330
255
100
AcDbEntity
  8
0
100
AcDbBlockBegin
  2
SW_CENTERMARKSYMBOL_1
 70
     0
 10
0.0
 20
0.0
 30
0.0
  3
SW_CENTERMARKSYMBOL_1
  1

  0
LINE
  5
258
330
255
100
AcDbEntity
  8
0
  6
Continuous
 62
     0
370
     0
100
AcDbLine
 10
0.0
 20
0.0
 30
0.0
 11
0.0
 21
2.5
 31
0.0
  0
LINE
  5
259
330
255
100
AcDbEntity
  8
0
  6
Continuous
 62
     0
370
     0
100
AcDbLine
 10
0.0
 20
0.0
 30
0.0
 11
-2.5
 21
0.0
 31
0.0
  0
LINE
  5
25A
330
255
100
AcDbEntity
  8
0
  6
Continuous
 62
     0
370
     0
100
AcDbLine
 10
0.0
 20
0.0
 30
0.0
 11
0.0
 21
-2.5
 31
0.0
  0
LINE
  5
25B
330
255
100
AcDbEntity
  8
0
  6
Continuous
 62
     0
370
     0
100
AcDbLine
 10
0.0
 20
0.0
 30
0.0
 11
2.5
 21
0.0
 31
0.0
  0
LINE
  5
25C
330
255
100
AcDbEntity
  8
0
  6
Continuous
 62
     0
370
     0
100
AcDbLine
 10
0.0
 20
2.5
 30
0.0
 11
0.0
 21
4.75
 31
0.0
  0
LINE
  5
25D
330
255
100
AcDbEntity
  8
0
  6
Continuous
 62
     0
370
     0
100
AcDbLine
 10
-2.5
 20
0.0
 30
0.0
 11
-4.75
 21
0.0
 31
0.0
  0
LINE
  5
25E
330
255
100
AcDbEntity
  8
0
  6
Continuous
 62
     0
370
     0
100
AcDbLine
 10
0.0
 20
-2.5
 30
0.0
 11
0.0
 21
-4.75
 31
0.0
  0
LINE
  5
25F
330
255
100
AcDbEntity
  8
0
  6
Continuous
 62
     0
370
     0
100
AcDbLine
 10
2.5
 20
0.0
 30
0.0
 11
4.75
 21
0.0
 31
0.0
  0
ENDBLK
  5
257
330
255
100
AcDbEntity
  8
0
100
AcDbBlockEnd
  0
BLOCK
  5
391
330
390
100
AcDbEntity
  8
0
100
AcDbBlockBegin
  2
_D_7
 70
     0
 10
0.0
 20
0.0
 30
0.0
  3
_D_7
  1

  0
SOLID
  5
393
330
390
100
AcDbEntity
  8
0
  6
Continuous
 62
     7
370
     0
100
AcDbTrace
 10
174.3428506144
 20
92.5265777635
 30
0.0
 11
173.5928506144
 21
90.5265777635
 31
0.0
 12
175.0928506144
 22
90.5265777635
 32
0.0
 13
175.0928506144
 23
90.5265777635
 33
0.0
  0
SOLID
  5
394
330
390
100
AcDbEntity
  8
0
  6
Continuous
 62
     7
370
     0
100
AcDbTrace
 10
174.3428506144
 20
64.5265777635
 30
0.0
 11
175.0928506144
 21
66.5265777635
 31
0.0
 12
173.5928506144
 22
66.5265777635
 32
0.0
 13
173.5928506144
 23
66.5265777635
 33
0.0
  0
LINE
  5
395
330
390
100
AcDbEntity
  8
0
  6
Continuous
 62
     7
370
     0
100
AcDbLine
 10
152.0272103257
 20
92.5265777635
 30
0.0
 11
175.3428506144
 21
92.5265777635
 31
0.0
  0
LINE
  5
396
330
390
100
AcDbEntity
  8
0
  6
Continuous
 62
     7
370
     0
100
AcDbLine
 10
165.3428506144
 20
64.5265777635
 30
0.0
 11
175.3428506144
 21
64.5265777635
 31
0.0
  0
LINE
  5
397
330
390
100
AcDbEntity
  8
0
  6
Continuous
 62
     7
370
     0
100
AcDbLine
 10
174.3428506144
 20
92.5265777635
 30
0.0
 11
174.3428506144
 21
64.5265777635
 31
0.0
  0
MTEXT
  5
398
330
390
100
AcDbEntity
  8
0
  6
Continuous
 62
     7
370
     0
100
AcDbMText
 10
169.8311136998
 20
76.6409911435
 30
-10.3013600821
 40
3.5
 41
0.0
 71
     1
 72
     1
  1
28
  7
SLDTEXTSTYLE1
 11
-7.044195017643634E-15
 21
1.0
 31
0.0
 73
     1
 44
1.0
  0
ENDBLK
  5
392
330
390
100
AcDbEntity
  8
0
100
AcDbBlockEnd
  0
BLOCK
  5
39B
330
39A
100
AcDbEntity
  8
0
100
AcDbBlockBegin
  2
_D_8
 70
     0
 10
0.0
 20
0.0
 30
0.0
  3
_D_8
  1

  0
SOLID
  5
39D
330
39A
100
AcDbEntity
  8
0
  6
Continuous
 62
     7
370
     0
100
AcDbTrace
 10
146.8428506144
 20
99.6744262539
 30
0.0
 11
144.8428506144
 21
100.4244262539
 31
0.0
 12
144.8428506144
 22
98.9244262539
 32
0.0
 13
144.8428506144
 23
98.9244262539
 33
0.0
  0
SOLID
  5
39E
330
39A
100
AcDbEntity
  8
0
  6
Continuous
 62
     7
370
     0
100
AcDbTrace
 10
133.8428506144
 20
99.6744262539
 30
0.0
 11
135.8428506144
 21
98.9244262539
 31
0.0
 12
135.8428506144
 22
100.4244262539
 32
0.0
 13
135.8428506144
 23
100.4244262539
 33
0.0
  0
LINE
  5
39F
330
39A
100
AcDbEntity
  8
0
  6
Continuous
 62
     7
370
     0
100
AcDbLine
 10
146.8428506144
 20
96.0265777635
 30
0.0
 11
146.8428506144
 21
100.6744262539
 31
0.0
  0
LINE
  5
3A0
330
39A
100
AcDbEntity
  8
0
  6
Continuous
 62
     7
370
     0
100
AcDbLine
 10
133.8428506144
 20
96.0265777635
 30
0.0
 11
133.8428506144
 21
100.6744262539
 31
0.0
  0
LINE
  5
3A1
330
39A
100
AcDbEntity
  8
0
  6
Continuous
 62
     7
370
     0
100
AcDbLine
 10
146.8428506144
 20
99.6744262539
 30
0.0
 11
133.8428506144
 21
99.6744262539
 31
0.0
  0
MTEXT
  5
3A2
330
39A
100
AcDbEntity
  8
0
  6
Continuous
 62
     7
370
     0
100
AcDbMText
 10
137.7567394208
 20
104.1861631685
 30
-10.3013600821
 40
3.5
 41
0.0
 71
     1
 72
     1
  1
13
  7
SLDTEXTSTYLE1
 73
     1
 44
1.0
  0
ENDBLK
  5
39C
330
39A
100
AcDbEntity
  8
0
100
AcDbBlockEnd
  0
BLOCK
  5
3A6
330
3A5
100
AcDbEntity
  8
0
100
AcDbBlockBegin
  2
_D_9
 70
     0
 10
0.0
 20
0.0
 30
0.0
  3
_D_9
  1

  0
SOLID
  5
3A8
330
3A5
100
AcDbEntity
  8
0
  6
Continuous
 62
     7
370
     0
100
AcDbTrace
 10
126.1428506144
 20
108.4374406068
 30
0.0
 11
128.1428506144
 21
107.6874406068
 31
0.0
 12
128.1428506144
 22
109.1874406068
 32
0.0
 13
128.1428506144
 23
109.1874406068
 33
0.0
  0
SOLID
  5
3A9
330
3A5
100
AcDbEntity
  8
0
  6
Continuous
 62
     7
370
     0
100
AcDbTrace
 10
154.5428506144
 20
108.4374406068
 30
0.0
 11
152.5428506144
 21
109.1874406068
 31
0.0
 12
152.5428506144
 22
107.6874406068
 32
0.0
 13
152.5428506144
 23
107.6874406068
 33
0.0
  0
LINE
  5
3AA
330
3A5
100
AcDbEntity
  8
0
  6
Continuous
 62
     7
370
     0
100
AcDbLine
 10
126.1428506144
 20
90.0109374749
 30
0.0
 11
126.1428506144
 21
109.4374406068
 31
0.0
  0
LINE
  5
3AB
330
3A5
100
AcDbEntity
  8
0
  6
Continuous
 62
     7
370
     0
100
AcDbLine
 10
154.5428506144
 20
90.0109374749
 30
0.0
 11
154.5428506144
 21
109.4374406068
 31
0.0
  0
LINE
  5
3AC
330
3A5
100
AcDbEntity
  8
0
  6
Continuous
 62
     7
370
     0
100
AcDbLine
 10
126.1428506144
 20
108.4374406068
 30
0.0
 11
154.5428506144
 21
108.4374406068
 31
0.0
  0
MTEXT
  5
3AD
330
3A5
100
AcDbEntity
  8
0
  6
Continuous
 62
     7
370
     0
100
AcDbMText
 10
135.8171560839
 20
112.9491775214
 30
-10.3013600821
 40
3.5
 41
0.0
 71
     1
 72
     1
  1
28.4
  7
SLDTEXTSTYLE1
 73
     1
 44
1.0
  0
ENDBLK
  5
3A7
330
3A5
100
AcDbEntity
  8
0
100
AcDbBlockEnd
  0
BLOCK
  5
3AF
330
3AE
100
AcDbEntity
  8
0
100
AcDbBlockBegin
  2
SW_CENTERMARKSYMBOL_2
 70
     0
 10
0.0
 20
0.0
 30
0.0
  3
SW_CENTERMARKSYMBOL_2
  1

  0
LINE
  5
3B1
330
3AE
100
AcDbEntity
  8
0
  6
Continuous
 62
     0
370
     0
100
AcDbLine
 10
0.0
 20
0.0
 30
0.0
 11
0.0
 21
2.5
 31
0.0
  0
LINE
  5
3B2
330
3AE
100
AcDbEntity
  8
0
  6
Continuous
 62
     0
370
     0
100
AcDbLine
 10
0.0
 20
0.0
 30
0.0
 11
-2.5
 21
0.0
 31
0.0
  0
LINE
  5
3B3
330
3AE
100
AcDbEntity
  8
0
  6
Continuous
 62
     0
370
     0
100
AcDbLine
 10
0.0
 20
0.0
 30
0.0
 11
0.0
 21
-2.5
 31
0.0
  0
LINE
  5
3B4
330
3AE
100
AcDbEntity
  8
0
  6
Continuous
 62
     0
370
     0
100
AcDbLine
 10
0.0
 20
0.0
 30
0.0
 11
2.5
 21
0.0
 31
0.0
  0
LINE
  5
3B5
330
3AE
100
AcDbEntity
  8
0
  6
Continuous
 62
     0
370
     0
100
AcDbLine
 10
0.0
 20
2.5
 30
0.0
 11
0.0
 21
4.75
 31
0.0
  0
LINE
  5
3B6
330
3AE
100
AcDbEntity
  8
0
  6
Continuous
 62
     0
370
     0
100
AcDbLine
 10
-2.5
 20
0.0
 30
0.0
 11
-4.75
 21
0.0
 31
0.0
  0
LINE
  5
3B7
330
3AE
100
AcDbEntity
  8
0
  6
Continuous
 62
     0
370
     0
100
AcDbLine
 10
0.0
 20
-2.5
 30
0.0
 11
0.0
 21
-4.75
 31
0.0
  0
LINE
  5
3B8
330
3AE
100
AcDbEntity
  8
0
  6
Continuous
 62
     0
370
     0
100
AcDbLine
 10
2.5
 20
0.0
 30
0.0
 11
4.75
 21
0.0
 31
0.0
  0
ENDBLK
  5
3B0
330
3AE
100
AcDbEntity
  8
0
100
AcDbBlockEnd
  0
BLOCK
  5
3BB
330
3BA
100
AcDbEntity
  8
0
100
AcDbBlockBegin
  2
SW_CENTERMARKSYMBOL_3
 70
     0
 10
0.0
 20
0.0
 30
0.0
  3
SW_CENTERMARKSYMBOL_3
  1

  0
LINE
  5
3BD
330
3BA
100
AcDbEntity
  8
0
  6
Continuous
 62
     0
370
     0
100
AcDbLine
 10
0.0
 20
0.0
 30
0.0
 11
0.0
 21
2.5
 31
0.0
  0
LINE
  5
3BE
330
3BA
100
AcDbEntity
  8
0
  6
Continuous
 62
     0
370
     0
100
AcDbLine
 10
0.0
 20
0.0
 30
0.0
 11
-2.5
 21
0.0
 31
0.0
  0
LINE
  5
3BF
330
3BA
100
AcDbEntity
  8
0
  6
Continuous
 62
     0
370
     0
100
AcDbLine
 10
0.0
 20
0.0
 30
0.0
 11
0.0
 21
-2.5
 31
0.0
  0
LINE
  5
3C0
330
3BA
100
AcDbEntity
  8
0
  6
Continuous
 62
     0
370
     0
100
AcDbLine
 10
0.0
 20
0.0
 30
0.0
 11
2.5
 21
0.0
 31
0.0
  0
LINE
  5
3C1
330
3BA
100
AcDbEntity
  8
0
  6
Continuous
 62
     0
370
     0
100
AcDbLine
 10
0.0
 20
5.0
 30
0.0
 11
0.0
 21
10.0
 31
0.0
  0
LINE
  5
3C2
330
3BA
100
AcDbEntity
  8
0
  6
Continuous
 62
     0
370
     0
100
AcDbLine
 10
-5.0
 20
0.0
 30
0.0
 11
-10.0
 21
0.0
 31
0.0
  0
LINE
  5
3C3
330
3BA
100
AcDbEntity
  8
0
  6
Continuous
 62
     0
370
     0
100
AcDbLine
 10
0.0
 20
-5.0
 30
0.0
 11
0.0
 21
-10.0
 31
0.0
  0
LINE
  5
3C4
330
3BA
100
AcDbEntity
  8
0
  6
Continuous
 62
     0
370
     0
100
AcDbLine
 10
5.0
 20
0.0
 30
0.0
 11
10.0
 21
0.0
 31
0.0
  0
ENDBLK
  5
3BC
330
3BA
100
AcDbEntity
  8
0
100
AcDbBlockEnd
  0
BLOCK
  5
3C7
330
3C6
100
AcDbEntity
  8
0
100
AcDbBlockBegin
  2
SW_CENTERMARKSYMBOL_4
 70
     0
 10
0.0
 20
0.0
 30
0.0
  3
SW_CENTERMARKSYMBOL_4
  1

  0
LINE
  5
3C9
330
3C6
100
AcDbEntity
  8
0
  6
Continuous
 62
     0
370
     0
100
AcDbLine
 10
0.0
 20
0.0
 30
0.0
 11
0.0
 21
2.5
 31
0.0
  0
LINE
  5
3CA
330
3C6
100
AcDbEntity
  8
0
  6
Continuous
 62
     0
370
     0
100
AcDbLine
 10
0.0
 20
0.0
 30
0.0
 11
-2.5
 21
0.0
 31
0.0
  0
LINE
  5
3CB
330
3C6
100
AcDbEntity
  8
0
  6
Continuous
 62
     0
370
     0
100
AcDbLine
 10
0.0
 20
0.0
 30
0.0
 11
0.0
 21
-2.5
 31
0.0
  0
LINE
  5
3CC
330
3C6
100
AcDbEntity
  8
0
  6
Continuous
 62
     0
370
     0
100
AcDbLine
 10
0.0
 20
0.0
 30
0.0
 11
2.5
 21
0.0
 31
0.0
  0
LINE
  5
3CD
330
3C6
100
AcDbEntity
  8
0
  6
Continuous
 62
     0
370
     0
100
AcDbLine
 10
0.0
 20
2.5
 30
0.0
 11
0.0
 21
4.75
 31
0.0
  0
LINE
  5
3CE
330
3C6
100
AcDbEntity
  8
0
  6
Continuous
 62
     0
370
     0
100
AcDbLine
 10
-2.5
 20
0.0
 30
0.0
 11
-4.75
 21
0.0
 31
0.0
  0
LINE
  5
3CF
330
3C6
100
AcDbEntity
  8
0
  6
Continuous
 62
     0
370
     0
100
AcDbLine
 10
0.0
 20
-2.5
 30
0.0
 11
0.0
 21
-4.75
 31
0.0
  0
LINE
  5
3D0
330
3C6
100
AcDbEntity
  8
0
  6
Continuous
 62
     0
370
     0
100
AcDbLine
 10
2.5
 20
0.0
 30
0.0
 11
4.75
 21
0.0
 31
0.0
  0
ENDBLK
  5
3C8
330
3C6
100
AcDbEntity
  8
0
100
AcDbBlockEnd
  0
BLOCK
  5
3D3
330
3D2
100
AcDbEntity
  8
0
100
AcDbBlockBegin
  2
SW_CENTERMARKSYMBOL_5
 70
     0
 10
0.0
 20
0.0
 30
0.0
  3
SW_CENTERMARKSYMBOL_5
  1

  0
LINE
  5
3D5
330
3D2
100
AcDbEntity
  8
0
  6
Continuous
 62
     0
370
     0
100
AcDbLine
 10
0.0
 20
0.0
 30
0.0
 11
0.0
 21
2.5
 31
0.0
  0
LINE
  5
3D6
330
3D2
100
AcDbEntity
  8
0
  6
Continuous
 62
     0
370
     0
100
AcDbLine
 10
0.0
 20
0.0
 30
0.0
 11
-2.5
 21
0.0
 31
0.0
  0
LINE
  5
3D7
330
3D2
100
AcDbEntity
  8
0
  6
Continuous
 62
     0
370
     0
100
AcDbLine
 10
0.0
 20
0.0
 30
0.0
 11
0.0
 21
-2.5
 31
0.0
  0
LINE
  5
3D8
330
3D2
100
AcDbEntity
  8
0
  6
Continuous
 62
     0
370
     0
100
AcDbLine
 10
0.0
 20
0.0
 30
0.0
 11
2.5
 21
0.0
 31
0.0
  0
LINE
  5
3D9
330
3D2
100
AcDbEntity
  8
0
  6
Continuous
 62
     0
370
     0
100
AcDbLine
 10
0.0
 20
2.5
 30
0.0
 11
0.0
 21
4.75
 31
0.0
  0
LINE
  5
3DA
330
3D2
100
AcDbEntity
  8
0
  6
Continuous
 62
     0
370
     0
100
AcDbLine
 10
-2.5
 20
0.0
 30
0.0
 11
-4.75
 21
0.0
 31
0.0
  0
LINE
  5
3DB
330
3D2
100
AcDbEntity
  8
0
  6
Continuous
 62
     0
370
     0
100
AcDbLine
 10
0.0
 20
-2.5
 30
0.0
 11
0.0
 21
-4.75
 31
0.0
  0
LINE
  5
3DC
330
3D2
100
AcDbEntity
  8
0
  6
Continuous
 62
     0
370
     0
100
AcDbLine
 10
2.5
 20
0.0
 30
0.0
 11
4.75
 21
0.0
 31
0.0
  0
ENDBLK
  5
3D4
330
3D2
100
AcDbEntity
  8
0
100
AcDbBlockEnd
  0
BLOCK
  5
3DF
330
3DE
100
AcDbEntity
  8
0
100
AcDbBlockBegin
  2
SW_CENTERMARKSYMBOL_6
 70
     0
 10
0.0
 20
0.0
 30
0.0
  3
SW_CENTERMARKSYMBOL_6
  1

  0
LINE
  5
3E1
330
3DE
100
AcDbEntity
  8
0
  6
Continuous
 62
     0
370
     0
100
AcDbLine
 10
0.0
 20
0.0
 30
0.0
 11
0.0
 21
2.5
 31
0.0
  0
LINE
  5
3E2
330
3DE
100
AcDbEntity
  8
0
  6
Continuous
 62
     0
370
     0
100
AcDbLine
 10
0.0
 20
0.0
 30
0.0
 11
-2.5
 21
0.0
 31
0.0
  0
LINE
  5
3E3
330
3DE
100
AcDbEntity
  8
0
  6
Continuous
 62
     0
370
     0
100
AcDbLine
 10
0.0
 20
0.0
 30
0.0
 11
0.0
 21
-2.5
 31
0.0
  0
LINE
  5
3E4
330
3DE
100
AcDbEntity
  8
0
  6
Continuous
 62
     0
370
     0
100
AcDbLine
 10
0.0
 20
0.0
 30
0.0
 11
2.5
 21
0.0
 31
0.0
  0
LINE
  5
3E5
330
3DE
100
AcDbEntity
  8
0
  6
Continuous
 62
     0
370
     0
100
AcDbLine
 10
0.0
 20
2.5
 30
0.0
 11
0.0
 21
4.75
 31
0.0
  0
LINE
  5
3E6
330
3DE
100
AcDbEntity
  8
0
  6
Continuous
 62
     0
370
     0
100
AcDbLine
 10
-2.5
 20
0.0
 30
0.0
 11
-4.75
 21
0.0
 31
0.0
  0
LINE
  5
3E7
330
3DE
100
AcDbEntity
  8
0
  6
Continuous
 62
     0
370
     0
100
AcDbLine
 10
0.0
 20
-2.5
 30
0.0
 11
0.0
 21
-4.75
 31
0.0
  0
LINE
  5
3E8
330
3DE
100
AcDbEntity
  8
0
  6
Continuous
 62
     0
370
     0
100
AcDbLine
 10
2.5
 20
0.0
 30
0.0
 11
4.75
 21
0.0
 31
0.0
  0
ENDBLK
  5
3E0
330
3DE
100
AcDbEntity
  8
0
100
AcDbBlockEnd
  0
BLOCK
  5
4B1
330
4B0
100
AcDbEntity
  8
0
100
AcDbBlockBegin
  2
_D_10
 70
     0
 10
0.0
 20
0.0
 30
0.0
  3
_D_10
  1

  0
SOLID
  5
4B3
330
4B0
100
AcDbEntity
  8
0
  6
Continuous
 62
     7
370
     0
100
AcDbTrace
 10
97.7552483026
 20
93.9482055206
 30
0.0
 11
95.7552483026
 21
94.6982055206
 31
0.0
 12
95.7552483026
 22
93.1982055206
 32
0.0
 13
95.7552483026
 23
93.1982055206
 33
0.0
  0
SOLID
  5
4B4
330
4B0
100
AcDbEntity
  8
0
  6
Continuous
 62
     7
370
     0
100
AcDbTrace
 10
87.7552483026
 20
93.9482055206
 30
0.0
 11
89.7552483026
 21
93.1982055206
 31
0.0
 12
89.7552483026
 22
94.6982055206
 32
0.0
 13
89.7552483026
 23
94.6982055206
 33
0.0
  0
LINE
  5
4B5
330
4B0
100
AcDbEntity
  8
0
  6
Continuous
 62
     7
370
     0
100
AcDbLine
 10
97.7552483026
 20
85.0265777635
 30
0.0
 11
97.7552483026
 21
94.9482055206
 31
0.0
  0
LINE
  5
4B6
330
4B0
100
AcDbEntity
  8
0
  6
Continuous
 62
     7
370
     0
100
AcDbLine
 10
87.7552483026
 20
85.0265777635
 30
0.0
 11
87.7552483026
 21
94.9482055206
 31
0.0
  0
LINE
  5
4B7
330
4B0
100
AcDbEntity
  8
0
  6
Continuous
 62
     7
370
     0
100
AcDbLine
 10
97.7552483026
 20
93.9482055206
 30
0.0
 11
108.0378871989
 21
93.9482055206
 31
0.0
  0
LINE
  5
4B8
330
4B0
100
AcDbEntity
  8
0
  6
Continuous
 62
     7
370
     0
100
AcDbLine
 10
97.7552483026
 20
93.9482055206
 30
0.0
 11
87.7552483026
 21
93.9482055206
 31
0.0
  0
MTEXT
  5
4B9
330
4B0
100
AcDbEntity
  8
0
  6
Continuous
 62
     7
370
     0
100
AcDbMText
 10
99.4726094064
 20
98.4599424351
 30
0.1
 40
3.5
 41
0.0
 71
     1
 72
     1
  1
10
  7
SLDTEXTSTYLE1
 73
     1
 44
1.0
  0
MTEXT
  5
4BA
330
4B0
100
AcDbEntity
  8
0
  6
Continuous
 62
     7
370
     0
100
AcDbMText
 10
104.6448317934
 20
98.4599424351
 30
0.1
 40
3.5
 41
0.0
 71
     1
 72
     1
  1
st
  7
SLDTEXTSTYLE1
 73
     1
 44
1.0
  0
ENDBLK
  5
4B2
330
4B0
100
AcDbEntity
  8
0
100
AcDbBlockEnd
  0
BLOCK
  5
4BE
330
4BD
100
AcDbEntity
  8
0
100
AcDbBlockBegin
  2
_D_11
 70
     0
 10
0.0
 20
0.0
 30
0.0
  3
_D_11
  1

  0
SOLID
  5
4C0
330
4BD
100
AcDbEntity
  8
0
  6
Continuous
 62
     7
370
     0
100
AcDbTrace
 10
39.7552483026
 20
54.5265777635
 30
0.0
 11
37.7552483026
 21
55.2765777635
 31
0.0
 12
37.7552483026
 22
53.7765777635
 32
0.0
 13
37.7552483026
 23
53.7765777635
 33
0.0
  0
SOLID
  5
4C1
330
4BD
100
AcDbEntity
  8
0
  6
Continuous
 62
     7
370
     0
100
AcDbTrace
 10
46.7552483026
 20
54.5265777635
 30
0.0
 11
48.7552483026
 21
53.7765777635
 31
0.0
 12
48.7552483026
 22
55.2765777635
 32
0.0
 13
48.7552483026
 23
55.2765777635
 33
0.0
  0
LINE
  5
4C2
330
4BD
100
AcDbEntity
  8
0
  6
Continuous
 62
     7
370
     0
100
AcDbLine
 10
39.7552483026
 20
69.6408937436
 30
0.0
 11
39.7552483026
 21
53.5265777635
 31
0.0
  0
LINE
  5
4C3
330
4BD
100
AcDbEntity
  8
0
  6
Continuous
 62
     7
370
     0
100
AcDbLine
 10
46.7552483026
 20
73.5265777635
 30
0.0
 11
46.7552483026
 21
53.5265777635
 31
0.0
  0
LINE
  5
4C4
330
4BD
100
AcDbEntity
  8
0
  6
Continuous
 62
     7
370
     0
100
AcDbLine
 10
39.7552483026
 20
54.5265777635
 30
0.0
 11
34.7552483026
 21
54.5265777635
 31
0.0
  0
LINE
  5
4C5
330
4BD
100
AcDbEntity
  8
0
  6
Continuous
 62
     7
370
     0
100
AcDbLine
 10
39.7552483026
 20
54.5265777635
 30
0.0
 11
46.7552483026
 21
54.5265777635
 31
0.0
  0
LINE
  5
4C6
330
4BD
100
AcDbEntity
  8
0
  6
Continuous
 62
     7
370
     0
100
AcDbLine
 10
46.7552483026
 20
54.5265777635
 30
0.0
 11
51.7552483026
 21
54.5265777635
 31
0.0
  0
MTEXT
  5
4C7
330
4BD
100
AcDbEntity
  8
0
  6
Continuous
 62
     7
370
     0
100
AcDbMText
 10
42.1615352978
 20
59.0383146781
 30
-9.2024880709
 40
3.5
 41
0.0
 71
     1
 72
     1
  1
7
  7
SLDTEXTSTYLE1
 73
     1
 44
1.0
  0
ENDBLK
  5
4BF
330
4BD
100
AcDbEntity
  8
0
100
AcDbBlockEnd
  0
BLOCK
  5
4CA
330
4C9
100
AcDbEntity
  8
0
100
AcDbBlockBegin
  2
_D_12
 70
     0
 10
0.0
 20
0.0
 30
0.0
  3
_D_12
  1

  0
SOLID
  5
4CC
330
4C9
100
AcDbEntity
  8
0
  6
Continuous
 62
     7
370
     0
100
AcDbTrace
 10
46.7552483026
 20
54.5265777635
 30
0.0
 11
48.7552483026
 21
53.7765777635
 31
0.0
 12
48.7552483026
 22
55.2765777635
 32
0.0
 13
48.7552483026
 23
55.2765777635
 33
0.0
  0
SOLID
  5
4CD
330
4C9
100
AcDbEntity
  8
0
  6
Continuous
 62
     7
370
     0
100
AcDbTrace
 10
74.7552483026
 20
54.5265777635
 30
0.0
 11
72.7552483026
 21
55.2765777635
 31
0.0
 12
72.7552483026
 22
53.7765777635
 32
0.0
 13
72.7552483026
 23
53.7765777635
 33
0.0
  0
LINE
  5
4CE
330
4C9
100
AcDbEntity
  8
0
  6
Continuous
 62
     7
370
     0
100
AcDbLine
 10
46.7552483026
 20
73.5265777635
 30
0.0
 11
46.7552483026
 21
53.5265777635
 31
0.0
  0
LINE
  5
4CF
330
4C9
100
AcDbEntity
  8
0
  6
Continuous
 62
     7
370
     0
100
AcDbLine
 10
74.7552483026
 20
73.5265777635
 30
0.0
 11
74.7552483026
 21
53.5265777635
 31
0.0
  0
LINE
  5
4D0
330
4C9
100
AcDbEntity
  8
0
  6
Continuous
 62
     7
370
     0
100
AcDbLine
 10
46.7552483026
 20
54.5265777635
 30
0.0
 11
74.7552483026
 21
54.5265777635
 31
0.0
  0
MTEXT
  5
4D1
330
4C9
100
AcDbEntity
  8
0
  6
Continuous
 62
     7
370
     0
100
AcDbMText
 10
58.1691371091
 20
59.0383146781
 30
-9.2024880709
 40
3.5
 41
0.0
 71
     1
 72
     1
  1
28
  7
SLDTEXTSTYLE1
 73
     1
 44
1.0
  0
ENDBLK
  5
4CB
330
4C9
100
AcDbEntity
  8
0
100
AcDbBlockEnd
  0
BLOCK
  5
4D4
330
4D3
100
AcDbEntity
  8
0
100
AcDbBlockBegin
  2
_D_13
 70
     0
 10
0.0
 20
0.0
 30
0.0
  3
_D_13
  1

  0
SOLID
  5
4D6
330
4D3
100
AcDbEntity
  8
0
  6
Continuous
 62
     7
370
     0
100
AcDbTrace
 10
87.7552483026
 20
112.3324172112
 30
0.0
 11
85.7552483026
 21
113.0824172112
 31
0.0
 12
85.7552483026
 22
111.5824172112
 32
0.0
 13
85.7552483026
 23
111.5824172112
 33
0.0
  0
SOLID
  5
4D7
330
4D3
100
AcDbEntity
  8
0
  6
Continuous
 62
     7
370
     0
100
AcDbTrace
 10
39.7552483026
 20
112.3324172112
 30
0.0
 11
41.7552483026
 21
111.5824172112
 31
0.0
 12
41.7552483026
 22
113.0824172112
 32
0.0
 13
41.7552483026
 23
113.0824172112
 33
0.0
  0
LINE
  5
4D8
330
4D3
100
AcDbEntity
  8
0
  6
Continuous
 62
     7
370
     0
100
AcDbLine
 10
87.7552483026
 20
85.0265777635
 30
0.0
 11
87.7552483026
 21
113.3324172112
 31
0.0
  0
LINE
  5
4D9
330
4D3
100
AcDbEntity
  8
0
  6
Continuous
 62
     7
370
     0
100
AcDbLine
 10
39.7552483026
 20
90.2915641519
 30
0.0
 11
39.7552483026
 21
113.3324172112
 31
0.0
  0
LINE
  5
4DA
330
4D3
100
AcDbEntity
  8
0
  6
Continuous
 62
     7
370
     0
100
AcDbLine
 10
87.7552483026
 20
112.3324172112
 30
0.0
 11
39.7552483026
 21
112.3324172112
 31
0.0
  0
MTEXT
  5
4DB
330
4D3
100
AcDbEntity
  8
0
  6
Continuous
 62
     7
370
     0
100
AcDbMText
 10
61.1691371091
 20
116.8441541258
 30
-9.2024880709
 40
3.5
 41
0.0
 71
     1
 72
     1
  1
48
  7
SLDTEXTSTYLE1
 73
     1
 44
1.0
  0
ENDBLK
  5
4D5
330
4D3
100
AcDbEntity
  8
0
100
AcDbBlockEnd
  0
BLOCK
  5
4DE
330
4DD
100
AcDbEntity
  8
0
100
AcDbBlockBegin
  2
_D_14
 70
     0
 10
0.0
 20
0.0
 30
0.0
  3
_D_14
  1

  0
SOLID
  5
4E0
330
4DD
100
AcDbEntity
  8
0
  6
Continuous
 62
     7
370
     0
100
AcDbTrace
 10
39.7552483026
 20
102.0560644555
 30
0.0
 11
41.7552483026
 21
101.3060644555
 31
0.0
 12
41.7552483026
 22
102.8060644555
 32
0.0
 13
41.7552483026
 23
102.8060644555
 33
0.0
  0
SOLID
  5
4E1
330
4DD
100
AcDbEntity
  8
0
  6
Continuous
 62
     7
370
     0
100
AcDbTrace
 10
81.7552483026
 20
102.0560644555
 30
0.0
 11
79.7552483026
 21
102.8060644555
 31
0.0
 12
79.7552483026
 22
101.3060644555
 32
0.0
 13
79.7552483026
 23
101.3060644555
 33
0.0
  0
LINE
  5
4E2
330
4DD
100
AcDbEntity
  8
0
  6
Continuous
 62
     7
370
     0
100
AcDbLine
 10
39.7552483026
 20
92.4122617835
 30
0.0
 11
39.7552483026
 21
103.0560644555
 31
0.0
  0
LINE
  5
4E3
330
4DD
100
AcDbEntity
  8
0
  6
Continuous
 62
     7
370
     0
100
AcDbLine
 10
81.7552483026
 20
93.5265777635
 30
0.0
 11
81.7552483026
 21
103.0560644555
 31
0.0
  0
LINE
  5
4E4
330
4DD
100
AcDbEntity
  8
0
  6
Continuous
 62
     7
370
     0
100
AcDbLine
 10
39.7552483026
 20
102.0560644555
 30
0.0
 11
81.7552483026
 21
102.0560644555
 31
0.0
  0
MTEXT
  5
4E5
330
4DD
100
AcDbEntity
  8
0
  6
Continuous
 62
     7
370
     0
100
AcDbMText
 10
58.1691371091
 20
106.56780137
 30
-9.2024880709
 40
3.5
 41
0.0
 71
     1
 72
     1
  1
42
  7
SLDTEXTSTYLE1
 73
     1
 44
1.0
  0
ENDBLK
  5
4DF
330
4DD
100
AcDbEntity
  8
0
100
AcDbBlockEnd
  0
BLOCK
  5
4E7
330
4E6
100
AcDbEntity
  8
0
100
AcDbBlockBegin
  2
SW_CENTERMARKSYMBOL_7
 70
     0
 10
0.0
 20
0.0
 30
0.0
  3
SW_CENTERMARKSYMBOL_7
  1

  0
LINE
  5
4E9
330
4E6
100
AcDbEntity
  8
0
  6
Continuous
 62
     0
370
     0
100
AcDbLine
 10
0.0
 20
0.0
 30
0.0
 11
0.0
 21
2.5
 31
0.0
  0
LINE
  5
4EA
330
4E6
100
AcDbEntity
  8
0
  6
Continuous
 62
     0
370
     0
100
AcDbLine
 10
0.0
 20
0.0
 30
0.0
 11
-2.5
 21
0.0
 31
0.0
  0
LINE
  5
4EB
330
4E6
100
AcDbEntity
  8
0
  6
Continuous
 62
     0
370
     0
100
AcDbLine
 10
0.0
 20
0.0
 30
0.0
 11
0.0
 21
-2.5
 31
0.0
  0
LINE
  5
4EC
330
4E6
100
AcDbEntity
  8
0
  6
Continuous
 62
     0
370
     0
100
AcDbLine
 10
0.0
 20
0.0
 30
0.0
 11
2.5
 21
0.0
 31
0.0
  0
LINE
  5
4ED
330
4E6
100
AcDbEntity
  8
0
  6
Continuous
 62
     0
370
     0
100
AcDbLine
 10
0.0
 20
5.0
 30
0.0
 11
0.0
 21
6.5
 31
0.0
  0
LINE
  5
4EE
330
4E6
100
AcDbEntity
  8
0
  6
Continuous
 62
     0
370
     0
100
AcDbLine
 10
-5.0
 20
0.0
 30
0.0
 11
-12.1573865222
 21
0.0
 31
0.0
  0
LINE
  5
4EF
330
4E6
100
AcDbEntity
  8
0
  6
Continuous
 62
     0
370
     0
100
AcDbLine
 10
0.0
 20
-5.0
 30
0.0
 11
0.0
 21
-6.5
 31
0.0
  0
LINE
  5
4F0
330
4E6
100
AcDbEntity
  8
0
  6
Continuous
 62
     0
370
     0
100
AcDbLine
 10
5.0
 20
0.0
 30
0.0
 11
6.5
 21
0.0
 31
0.0
  0
ENDBLK
  5
4E8
330
4E6
100
AcDbEntity
  8
0
100
AcDbBlockEnd
  0
BLOCK
  5
4F3
330
4F2
100
AcDbEntity
  8
0
100
AcDbBlockBegin
  2
SW_CENTERMARKSYMBOL_8
 70
     0
 10
0.0
 20
0.0
 30
0.0
  3
SW_CENTERMARKSYMBOL_8
  1

  0
LINE
  5
4F5
330
4F2
100
AcDbEntity
  8
0
  6
Continuous
 62
     0
370
     0
100
AcDbLine
 10
0.0
 20
0.0
 30
0.0
 11
0.0
 21
2.5
 31
0.0
  0
LINE
  5
4F6
330
4F2
100
AcDbEntity
  8
0
  6
Continuous
 62
     0
370
     0
100
AcDbLine
 10
0.0
 20
0.0
 30
0.0
 11
-2.5
 21
0.0
 31
0.0
  0
LINE
  5
4F7
330
4F2
100
AcDbEntity
  8
0
  6
Continuous
 62
     0
370
     0
100
AcDbLine
 10
0.0
 20
0.0
 30
0.0
 11
0.0
 21
-2.5
 31
0.0
  0
LINE
  5
4F8
330
4F2
100
AcDbEntity
  8
0
  6
Continuous
 62
     0
370
     0
100
AcDbLine
 10
0.0
 20
0.0
 30
0.0
 11
2.5
 21
0.0
 31
0.0
  0
LINE
  5
4F9
330
4F2
100
AcDbEntity
  8
0
  6
Continuous
 62
     0
370
     0
100
AcDbLine
 10
0.0
 20
5.0
 30
0.0
 11
0.0
 21
6.5
 31
0.0
  0
LINE
  5
4FA
330
4F2
100
AcDbEntity
  8
0
  6
Continuous
 62
     0
370
     0
100
AcDbLine
 10
-5.0
 20
0.0
 30
0.0
 11
-18.9055806167
 21
0.0
 31
0.0
  0
LINE
  5
4FB
330
4F2
100
AcDbEntity
  8
0
  6
Continuous
 62
     0
370
     0
100
AcDbLine
 10
0.0
 20
-5.0
 30
0.0
 11
0.0
 21
-6.5
 31
0.0
  0
LINE
  5
4FC
330
4F2
100
AcDbEntity
  8
0
  6
Continuous
 62
     0
370
     0
100
AcDbLine
 10
5.0
 20
0.0
 30
0.0
 11
14.8201113638
 21
0.0
 31
0.0
  0
ENDBLK
  5
4F4
330
4F2
100
AcDbEntity
  8
0
100
AcDbBlockEnd
  0
ENDSEC
  0
SECTION
  2
ENTITIES
  0
LINE
  5
44
330
1F
100
AcDbEntity
  8
0
  6
Continuous
 62
     7
370
     0
100
AcDbLine
 10
20.2604743903
 20
285.0
 30
0.0
 11
196.7604743903
 21
285.0
 31
0.0
  0
LINE
  5
45
330
1F
100
AcDbEntity
  8
0
  6
Continuous
 62
     7
370
     0
100
AcDbLine
 10
20.2604743903
 20
285.0
 30
0.0
 11
20.2604743903
 21
10.0
 31
0.0
  0
LINE
  5
46
330
1F
100
AcDbEntity
  8
0
  6
Continuous
 62
     7
370
     0
100
AcDbLine
 10
20.2604743903
 20
10.0
 30
0.0
 11
196.7604743903
 21
10.0
 31
0.0
  0
LINE
  5
47
330
1F
100
AcDbEntity
  8
0
  6
Continuous
 62
     7
370
     0
100
AcDbLine
 10
196.7604743903
 20
285.0
 30
0.0
 11
196.7604743903
 21
10.0
 31
0.0
  0
LINE
  5
48
330
1F
100
AcDbEntity
  8
0
  6
Continuous
 62
     7
370
     0
100
AcDbLine
 10
127.0104743903
 20
50.75
 30
0.0
 11
196.7604743903
 21
50.75
 31
0.0
  0
LINE
  5
49
330
1F
100
AcDbEntity
  8
0
  6
Continuous
 62
     7
370
     0
100
AcDbLine
 10
127.0104743903
 20
50.75
 30
0.0
 11
127.0104743903
 21
10.0
 31
0.0
  0
LINE
  5
4A
330
1F
100
AcDbEntity
  8
0
  6
Continuous
 62
     7
370
     0
100
AcDbLine
 10
127.0104743903
 20
22.75
 30
0.0
 11
196.7604743903
 21
22.75
 31
0.0
  0
LINE
  5
4B
330
1F
100
AcDbEntity
  8
0
  6
Continuous
 62
     7
370
     0
100
AcDbLine
 10
127.0104743903
 20
36.75
 30
0.0
 11
196.7604743903
 21
36.75
 31
0.0
  0
MTEXT
  5
4D
330
1F
100
AcDbEntity
  8
0
  6
Continuous
 62
     7
370
     0
100
AcDbMText
 10
162.3886697594
 20
30.4171582345
 30
0.0
 40
4.2333333333
 41
0.0
 71
     2
 72
     1
  1
MCE-10W
  7
SLDTEXTSTYLE0
 73
     1
 44
1.0
  0
MTEXT
  5
4E
330
1F
100
AcDbEntity
  8
0
  6
Continuous
 62
     7
370
     0
100
AcDbMText
 10
158.4075228139
 20
43.9643957194
 30
0.0
 40
3.7041666667
 41
0.0
 71
     2
 72
     1
  1
ミニシリンダー・MCE10st(複動)
  7
SLDTEXTSTYLE0
 73
     1
 44
1.0
  0
MTEXT
  5
4F
330
1F
100
AcDbEntity
  8
0
  6
Continuous
 62
     7
370
     0
100
AcDbMText
 10
162.580005432
 20
16.8228189052
 30
0.0
 40
4.2333333333
 41
0.0
 71
     2
 72
     1
  1
123508
  7
SLDTEXTSTYLE0
 73
     1
 44
1.0
  0
LINE
  5
50
330
1F
100
AcDbEntity
  8
0
  6
Continuous
 62
     7
370
    15
100
AcDbLine
 10
151.6734432282
 20
192.9834661399
 30
0.0
 11
151.6734432282
 21
194.4834661399
 31
0.0
  0
LINE
  5
51
330
1F
100
AcDbEntity
  8
0
  6
Continuous
 62
     7
370
    15
100
AcDbLine
 10
129.0122580005
 20
194.4834661399
 30
0.0
 11
129.0122580005
 21
192.9834661399
 31
0.0
  0
LINE
  5
52
330
1F
100
AcDbEntity
  8
0
  6
Continuous
 62
     7
370
    15
100
AcDbLine
 10
151.7245183603
 20
153.9834661399
 30
0.0
 11
151.7245183603
 21
192.9834661399
 31
0.0
  0
LINE
  5
53
330
1F
100
AcDbEntity
  8
0
  6
Continuous
 62
     7
370
    15
100
AcDbLine
 10
128.9611828685
 20
192.9834661399
 30
0.0
 11
128.9611828685
 21
153.9834661399
 31
0.0
  0
LINE
  5
54
330
1F
100
AcDbEntity
  8
0
  6
Continuous
 62
     7
370
    15
100
AcDbLine
 10
153.7131666591
 20
158.9362344148
 30
0.0
 11
153.7363233104
 21
158.8963106889
 31
0.0
  0
LINE
  5
55
330
1F
100
AcDbEntity
  8
0
  6
Continuous
 62
     7
370
    15
100
AcDbLine
 10
153.5303219793
 20
158.9169057993
 30
0.0
 11
153.7340458284
 21
158.9169057993
 31
0.0
  0
LINE
  5
56
330
1F
100
AcDbEntity
  8
0
  6
Continuous
 62
     7
370
    15
100
AcDbLine
 10
131.5928506144
 20
152.4834661399
 30
0.0
 11
131.5928506144
 21
152.1887739
 31
0.0
  0
LINE
  5
57
330
1F
100
AcDbEntity
  8
0
  6
Continuous
 62
     7
370
    15
100
AcDbLine
 10
136.0928506144
 20
152.1887739
 30
0.0
 11
136.0928506144
 21
152.4834661399
 31
0.0
  0
ARC
  5
58
330
1F
100
AcDbEntity
  8
0
  6
Continuous
 62
     7
370
    15
100
AcDbCircle
 10
135.0928506144
 20
152.1887739
 30
0.0
 40
1.0
100
AcDbArc
 50
306.3843518158
 51
0.0
  0
ARC
  5
59
330
1F
100
AcDbEntity
  8
0
  6
Continuous
 62
     7
370
    15
100
AcDbCircle
 10
132.5928506144
 20
152.1887739
 30
0.0
 40
1.0
100
AcDbArc
 50
180.0
 51
233.6156481842
  0
LINE
  5
5A
330
1F
100
AcDbEntity
  8
0
  6
Continuous
 62
     7
370
    15
100
AcDbLine
 10
131.9996515763
 20
151.3837180627
 30
0.0
 11
132.4105670754
 21
151.0809382212
 31
0.0
  0
LINE
  5
5B
330
1F
100
AcDbEntity
  8
0
  6
Continuous
 62
     7
370
    15
100
AcDbLine
 10
135.2751341533
 20
151.0809382212
 30
0.0
 11
135.6860496524
 21
151.3837180627
 31
0.0
  0
ARC
  5
5C
330
1F
100
AcDbEntity
  8
0
  6
Continuous
 62
     7
370
    15
100
AcDbCircle
 10
132.7071665944
 20
151.4834661399
 30
0.0
 40
0.5000000000000173
100
AcDbArc
 50
233.6156481842
 51
270.0
  0
ARC
  5
5D
330
1F
100
AcDbEntity
  8
0
  6
Continuous
 62
     7
370
    15
100
AcDbCircle
 10
134.9785346343
 20
151.4834661399
 30
0.0
 40
0.5000000000000006
100
AcDbArc
 50
270.0
 51
306.3843518158
  0
ARC
  5
5E
330
1F
100
AcDbEntity
  8
0
  6
Continuous
 62
     7
370
    15
100
AcDbCircle
 10
148.0928506144
 20
152.1887739
 30
0.0
 40
1.0
100
AcDbArc
 50
306.3843518158
 51
0.0
  0
ARC
  5
5F
330
1F
100
AcDbEntity
  8
0
  6
Continuous
 62
     7
370
    15
100
AcDbCircle
 10
145.5928506144
 20
152.1887739
 30
0.0
 40
1.000000000000012
100
AcDbArc
 50
180.0
 51
233.6156481842
  0
LINE
  5
60
330
1F
100
AcDbEntity
  8
0
  6
Continuous
 62
     7
370
    15
100
AcDbLine
 10
144.5928506144
 20
152.4834661399
 30
0.0
 11
144.5928506144
 21
152.1887739
 31
0.0
  0
LINE
  5
61
330
1F
100
AcDbEntity
  8
0
  6
Continuous
 62
     7
370
    15
100
AcDbLine
 10
149.0928506144
 20
152.1887739
 30
0.0
 11
149.0928506144
 21
152.4834661399
 31
0.0
  0
LINE
  5
62
330
1F
100
AcDbEntity
  8
0
  6
Continuous
 62
     7
370
    15
100
AcDbLine
 10
144.9996515763
 20
151.3837180627
 30
0.0
 11
145.4105670754
 21
151.0809382212
 31
0.0
  0
LINE
  5
63
330
1F
100
AcDbEntity
  8
0
  6
Continuous
 62
     7
370
    15
100
AcDbLine
 10
148.2751341533
 20
151.0809382212
 30
0.0
 11
148.6860496524
 21
151.3837180627
 31
0.0
  0
ARC
  5
64
330
1F
100
AcDbEntity
  8
0
  6
Continuous
 62
     7
370
    15
100
AcDbCircle
 10
145.7071665944
 20
151.4834661399
 30
0.0
 40
0.5000000000000173
100
AcDbArc
 50
233.6156481842
 51
270.0
  0
ARC
  5
65
330
1F
100
AcDbEntity
  8
0
  6
Continuous
 62
     7
370
    15
100
AcDbCircle
 10
147.9785346343
 20
151.4834661399
 30
0.0
 40
0.5000000000000173
100
AcDbArc
 50
270.0
 51
306.3843518158
  0
ARC
  5
66
330
1F
100
AcDbEntity
  8
0
  6
Continuous
 62
     7
370
    15
100
AcDbCircle
 10
145.5928506144
 20
194.7781583798
 30
0.0
 40
1.0
100
AcDbArc
 50
126.3843518158
 51
180.0
  0
ARC
  5
67
330
1F
100
AcDbEntity
  8
0
  6
Continuous
 62
     7
370
    15
100
AcDbCircle
 10
148.0928506144
 20
194.7781583798
 30
0.0
 40
1.0
100
AcDbArc
 50
0.0
 51
53.6156481842
  0
LINE
  5
68
330
1F
100
AcDbEntity
  8
0
  6
Continuous
 62
     7
370
    15
100
AcDbLine
 10
149.0928506144
 20
194.4834661399
 30
0.0
 11
149.0928506144
 21
194.7781583798
 31
0.0
  0
LINE
  5
69
330
1F
100
AcDbEntity
  8
0
  6
Continuous
 62
     7
370
    15
100
AcDbLine
 10
144.5928506144
 20
194.7781583798
 30
0.0
 11
144.5928506144
 21
194.4834661399
 31
0.0
  0
LINE
  5
6A
330
1F
100
AcDbEntity
  8
0
  6
Continuous
 62
     7
370
    15
100
AcDbLine
 10
148.6860496524
 20
195.5832142171
 30
0.0
 11
148.2751341533
 21
195.8859940586
 31
0.0
  0
LINE
  5
6B
330
1F
100
AcDbEntity
  8
0
  6
Continuous
 62
     7
370
    15
100
AcDbLine
 10
145.4105670754
 20
195.8859940586
 30
0.0
 11
144.9996515763
 21
195.5832142171
 31
0.0
  0
ARC
  5
6C
330
1F
100
AcDbEntity
  8
0
  6
Continuous
 62
     7
370
    15
100
AcDbCircle
 10
147.9785346343
 20
195.4834661399
 30
0.0
 40
0.5
100
AcDbArc
 50
53.6156481842
 51
90.0
  0
ARC
  5
6D
330
1F
100
AcDbEntity
  8
0
  6
Continuous
 62
     7
370
    15
100
AcDbCircle
 10
145.7071665944
 20
195.4834661399
 30
0.0
 40
0.5000000000000113
100
AcDbArc
 50
90.0
 51
126.3843518158
  0
LINE
  5
6E
330
1F
100
AcDbEntity
  8
0
  6
Continuous
 62
     7
370
    15
100
AcDbLine
 10
136.0928506144
 20
194.4834661399
 30
0.0
 11
136.0928506144
 21
194.7781583798
 31
0.0
  0
LINE
  5
6F
330
1F
100
AcDbEntity
  8
0
  6
Continuous
 62
     7
370
    15
100
AcDbLine
 10
131.5928506144
 20
194.7781583798
 30
0.0
 11
131.5928506144
 21
194.4834661399
 31
0.0
  0
ARC
  5
70
330
1F
100
AcDbEntity
  8
0
  6
Continuous
 62
     7
370
    15
100
AcDbCircle
 10
132.5928506144
 20
194.7781583798
 30
0.0
 40
0.9999999999999716
100
AcDbArc
 50
126.3843518158
 51
180.0
  0
ARC
  5
71
330
1F
100
AcDbEntity
  8
0
  6
Continuous
 62
     7
370
    15
100
AcDbCircle
 10
135.0928506144
 20
194.7781583798
 30
0.0
 40
1.0
100
AcDbArc
 50
0.0
 51
53.6156481842
  0
LINE
  5
72
330
1F
100
AcDbEntity
  8
0
  6
Continuous
 62
     7
370
    15
100
AcDbLine
 10
135.6860496524
 20
195.5832142171
 30
0.0
 11
135.2751341533
 21
195.8859940586
 31
0.0
  0
LINE
  5
73
330
1F
100
AcDbEntity
  8
0
  6
Continuous
 62
     7
370
    15
100
AcDbLine
 10
132.4105670754
 20
195.8859940586
 30
0.0
 11
131.9996515763
 21
195.5832142171
 31
0.0
  0
ARC
  5
74
330
1F
100
AcDbEntity
  8
0
  6
Continuous
 62
     7
370
    15
100
AcDbCircle
 10
134.9785346343
 20
195.4834661399
 30
0.0
 40
0.5
100
AcDbArc
 50
53.6156481842
 51
90.0
  0
ARC
  5
75
330
1F
100
AcDbEntity
  8
0
  6
Continuous
 62
     7
370
    15
100
AcDbCircle
 10
132.7071665944
 20
195.4834661399
 30
0.0
 40
0.5
100
AcDbArc
 50
90.0
 51
126.3843518158
  0
LINE
  5
76
330
1F
100
AcDbEntity
  8
0
  6
Continuous
 62
     7
370
    15
100
AcDbLine
 10
120.8428506144
 20
190.7334661399
 30
0.0
 11
118.3428506144
 21
190.4834661399
 31
0.0
  0
LINE
  5
77
330
1F
100
AcDbEntity
  8
0
  6
Continuous
 62
     7
370
    15
100
AcDbLine
 10
118.3428506144
 20
187.4834661399
 30
0.0
 11
120.8428506144
 21
187.2334661399
 31
0.0
  0
LINE
  5
78
330
1F
100
AcDbEntity
  8
0
  6
Continuous
 62
     7
370
    15
100
AcDbLine
 10
118.3428506144
 20
190.7334661399
 30
0.0
 11
115.8428506144
 21
190.4834661399
 31
0.0
  0
LINE
  5
79
330
1F
100
AcDbEntity
  8
0
  6
Continuous
 62
     7
370
    15
100
AcDbLine
 10
115.8428506144
 20
187.4834661399
 30
0.0
 11
118.3428506144
 21
187.2334661399
 31
0.0
  0
LINE
  5
7A
330
1F
100
AcDbEntity
  8
0
  6
Continuous
 62
     7
370
    15
100
AcDbLine
 10
120.8428506144
 20
187.3834661399
 30
0.0
 11
122.8428506144
 21
187.3834661399
 31
0.0
  0
LINE
  5
7B
330
1F
100
AcDbEntity
  8
0
  6
Continuous
 62
     7
370
    15
100
AcDbLine
 10
122.8428506144
 20
190.5834661399
 30
0.0
 11
120.8428506144
 21
190.5834661399
 31
0.0
  0
LINE
  5
7C
330
1F
100
AcDbEntity
  8
0
  6
Continuous
 62
     7
370
    15
100
AcDbLine
 10
120.8428506144
 20
162.7334661399
 30
0.0
 11
118.3428506144
 21
162.4834661399
 31
0.0
  0
LINE
  5
7D
330
1F
100
AcDbEntity
  8
0
  6
Continuous
 62
     7
370
    15
100
AcDbLine
 10
118.3428506144
 20
159.4834661399
 30
0.0
 11
120.8428506144
 21
159.2334661399
 31
0.0
  0
LINE
  5
7E
330
1F
100
AcDbEntity
  8
0
  6
Continuous
 62
     7
370
    15
100
AcDbLine
 10
118.3428506144
 20
162.7334661399
 30
0.0
 11
115.8428506144
 21
162.4834661399
 31
0.0
  0
LINE
  5
7F
330
1F
100
AcDbEntity
  8
0
  6
Continuous
 62
     7
370
    15
100
AcDbLine
 10
115.8428506144
 20
159.4834661399
 30
0.0
 11
118.3428506144
 21
159.2334661399
 31
0.0
  0
LINE
  5
80
330
1F
100
AcDbEntity
  8
0
  6
Continuous
 62
     7
370
    15
100
AcDbLine
 10
120.8428506144
 20
159.3834661399
 30
0.0
 11
122.8428506144
 21
159.3834661399
 31
0.0
  0
LINE
  5
81
330
1F
100
AcDbEntity
  8
0
  6
Continuous
 62
     7
370
    15
100
AcDbLine
 10
122.8428506144
 20
162.5834661399
 30
0.0
 11
120.8428506144
 21
162.5834661399
 31
0.0
  0
LINE
  5
82
330
1F
100
AcDbEntity
  8
0
  6
Continuous
 62
     7
370
    15
100
AcDbLine
 10
153.7131666591
 20
186.9362344148
 30
0.0
 11
153.7363233104
 21
186.8963106889
 31
0.0
  0
LINE
  5
83
330
1F
100
AcDbEntity
  8
0
  6
Continuous
 62
     7
370
    15
100
AcDbLine
 10
153.5303219793
 20
186.9169057993
 30
0.0
 11
153.7340458284
 21
186.9169057993
 31
0.0
  0
LINE
  5
84
330
1F
100
AcDbEntity
  8
0
  6
Continuous
 62
     7
370
    15
100
AcDbLine
 10
126.1428506144
 20
192.9834661399
 30
0.0
 11
125.3428506144
 21
192.9834661399
 31
0.0
  0
LINE
  5
85
330
1F
100
AcDbEntity
  8
0
  6
Continuous
 62
     7
370
    15
100
AcDbLine
 10
125.3428506144
 20
184.9834661399
 30
0.0
 11
126.1428506144
 21
184.9834661399
 31
0.0
  0
LINE
  5
86
330
1F
100
AcDbEntity
  8
0
  6
Continuous
 62
     7
370
    15
100
AcDbLine
 10
126.1428506144
 20
164.9834661399
 30
0.0
 11
125.3428506144
 21
164.9834661399
 31
0.0
  0
LINE
  5
87
330
1F
100
AcDbEntity
  8
0
  6
Continuous
 62
     7
370
    15
100
AcDbLine
 10
125.3428506144
 20
156.9834661399
 30
0.0
 11
126.1428506144
 21
156.9834661399
 31
0.0
  0
LINE
  5
88
330
1F
100
AcDbEntity
  8
0
  6
Continuous
 62
     7
370
    15
100
AcDbLine
 10
155.3428506144
 20
192.9834661399
 30
0.0
 11
154.5428506144
 21
192.9834661399
 31
0.0
  0
LINE
  5
89
330
1F
100
AcDbEntity
  8
0
  6
Continuous
 62
     7
370
    15
100
AcDbLine
 10
154.5428506144
 20
184.9834661399
 30
0.0
 11
155.3428506144
 21
184.9834661399
 31
0.0
  0
LINE
  5
8A
330
1F
100
AcDbEntity
  8
0
  6
Continuous
 62
     7
370
    15
100
AcDbLine
 10
155.3428506144
 20
164.9834661399
 30
0.0
 11
154.5428506144
 21
164.9834661399
 31
0.0
  0
LINE
  5
8B
330
1F
100
AcDbEntity
  8
0
  6
Continuous
 62
     7
370
    15
100
AcDbLine
 10
154.5428506144
 20
156.9834661399
 30
0.0
 11
155.3428506144
 21
156.9834661399
 31
0.0
  0
LINE
  5
8C
330
1F
100
AcDbEntity
  8
0
  6
Continuous
 62
     7
370
    15
100
AcDbLine
 10
129.658490903
 20
194.4834661399
 30
0.0
 11
129.658490903
 21
192.9834661399
 31
0.0
  0
LINE
  5
8D
330
1F
100
AcDbEntity
  8
0
  6
Continuous
 62
     7
370
    15
100
AcDbLine
 10
129.658490903
 20
194.4834661399
 30
0.0
 11
134.4063589413
 21
194.4834661399
 31
0.0
  0
LINE
  5
8E
330
1F
100
AcDbEntity
  8
0
  6
Continuous
 62
     7
370
    15
100
AcDbLine
 10
134.4063589413
 20
192.9834661399
 30
0.0
 11
134.4063589413
 21
194.4834661399
 31
0.0
  0
LINE
  5
8F
330
1F
100
AcDbEntity
  8
0
  6
Continuous
 62
     7
370
    15
100
AcDbLine
 10
129.658490903
 20
192.9834661399
 30
0.0
 11
134.4063589413
 21
192.9834661399
 31
0.0
  0
LINE
  5
90
330
1F
100
AcDbEntity
  8
0
  6
Continuous
 62
     7
370
    15
100
AcDbLine
 10
129.658490903
 20
192.9834661399
 30
0.0
 11
129.1298362645
 21
192.9834661399
 31
0.0
  0
LINE
  5
91
330
1F
100
AcDbEntity
  8
0
  6
Continuous
 62
     7
370
    15
100
AcDbLine
 10
129.1298362645
 20
194.4834661399
 30
0.0
 11
129.1298362645
 21
192.9834661399
 31
0.0
  0
LINE
  5
92
330
1F
100
AcDbEntity
  8
0
  6
Continuous
 62
     7
370
    15
100
AcDbLine
 10
129.658490903
 20
194.4834661399
 30
0.0
 11
129.1298362645
 21
194.4834661399
 31
0.0
  0
LINE
  5
93
330
1F
100
AcDbEntity
  8
0
  6
Continuous
 62
     7
370
    15
100
AcDbLine
 10
151.0272103257
 20
194.4834661399
 30
0.0
 11
151.0272103257
 21
192.9834661399
 31
0.0
  0
LINE
  5
94
330
1F
100
AcDbEntity
  8
0
  6
Continuous
 62
     7
370
    15
100
AcDbLine
 10
151.5558649642
 20
192.9834661399
 30
0.0
 11
151.5558649642
 21
194.4834661399
 31
0.0
  0
LINE
  5
95
330
1F
100
AcDbEntity
  8
0
  6
Continuous
 62
     7
370
    15
100
AcDbLine
 10
151.5558649642
 20
192.9834661399
 30
0.0
 11
151.0272103257
 21
192.9834661399
 31
0.0
  0
LINE
  5
96
330
1F
100
AcDbEntity
  8
0
  6
Continuous
 62
     7
370
    15
100
AcDbLine
 10
151.0272103257
 20
194.4834661399
 30
0.0
 11
151.5558649642
 21
194.4834661399
 31
0.0
  0
LINE
  5
97
330
1F
100
AcDbEntity
  8
0
  6
Continuous
 62
     7
370
    15
100
AcDbLine
 10
146.2793422875
 20
194.4834661399
 30
0.0
 11
146.2793422875
 21
192.9834661399
 31
0.0
  0
LINE
  5
98
330
1F
100
AcDbEntity
  8
0
  6
Continuous
 62
     7
370
    15
100
AcDbLine
 10
144.7180927879
 20
194.4834661399
 30
0.0
 11
144.7180927879
 21
192.9834661399
 31
0.0
  0
LINE
  5
99
330
1F
100
AcDbEntity
  8
0
  6
Continuous
 62
     7
370
    15
100
AcDbLine
 10
146.2793422875
 20
192.9834661399
 30
0.0
 11
144.7180927879
 21
192.9834661399
 31
0.0
  0
LINE
  5
9A
330
1F
100
AcDbEntity
  8
0
  6
Continuous
 62
     7
370
    15
100
AcDbLine
 10
144.7180927879
 20
194.4834661399
 30
0.0
 11
146.2793422875
 21
194.4834661399
 31
0.0
  0
LINE
  5
9B
330
1F
100
AcDbEntity
  8
0
  6
Continuous
 62
     7
370
    15
100
AcDbLine
 10
134.4063589413
 20
194.4834661399
 30
0.0
 11
135.9676084409
 21
194.4834661399
 31
0.0
  0
LINE
  5
9C
330
1F
100
AcDbEntity
  8
0
  6
Continuous
 62
     7
370
    15
100
AcDbLine
 10
135.9676084409
 20
192.9834661399
 30
0.0
 11
135.9676084409
 21
194.4834661399
 31
0.0
  0
LINE
  5
9D
330
1F
100
AcDbEntity
  8
0
  6
Continuous
 62
     7
370
    15
100
AcDbLine
 10
135.9676084409
 20
192.9834661399
 30
0.0
 11
134.4063589413
 21
192.9834661399
 31
0.0
  0
LINE
  5
9E
330
1F
100
AcDbEntity
  8
0
  6
Continuous
 62
     7
370
    15
100
AcDbLine
 10
146.2793422875
 20
192.9834661399
 30
0.0
 11
151.0272103257
 21
192.9834661399
 31
0.0
  0
LINE
  5
9F
330
1F
100
AcDbEntity
  8
0
  6
Continuous
 62
     7
370
    15
100
AcDbLine
 10
146.2793422875
 20
194.4834661399
 30
0.0
 11
151.0272103257
 21
194.4834661399
 31
0.0
  0
LINE
  5
A0
330
1F
100
AcDbEntity
  8
0
  6
Continuous
 62
     7
370
    15
100
AcDbLine
 10
151.5558649642
 20
194.4834661399
 30
0.0
 11
151.6734432282
 21
194.4834661399
 31
0.0
  0
LINE
  5
A1
330
1F
100
AcDbEntity
  8
0
  6
Continuous
 62
     7
370
    15
100
AcDbLine
 10
129.0122580005
 20
194.4834661399
 30
0.0
 11
129.1298362645
 21
194.4834661399
 31
0.0
  0
LINE
  5
A2
330
1F
100
AcDbEntity
  8
0
  6
Continuous
 62
     7
370
    15
100
AcDbLine
 10
137.5288579405
 20
195.9834661399
 30
0.0
 11
137.5288579405
 21
192.9834661399
 31
0.0
  0
LINE
  5
A3
330
1F
100
AcDbEntity
  8
0
  6
Continuous
 62
     7
370
    15
100
AcDbLine
 10
137.1800520796
 20
195.9834661399
 30
0.0
 11
137.1800520796
 21
194.4834661399
 31
0.0
  0
LINE
  5
A4
330
1F
100
AcDbEntity
  8
0
  6
Continuous
 62
     7
370
    15
100
AcDbLine
 10
137.1800520796
 20
195.9834661399
 30
0.0
 11
137.5288579405
 21
195.9834661399
 31
0.0
  0
LINE
  5
A5
330
1F
100
AcDbEntity
  8
0
  6
Continuous
 62
     7
370
    15
100
AcDbLine
 10
135.9676084409
 20
194.4834661399
 30
0.0
 11
137.1800520796
 21
194.4834661399
 31
0.0
  0
LINE
  5
A6
330
1F
100
AcDbEntity
  8
0
  6
Continuous
 62
     7
370
    15
100
AcDbLine
 10
137.5288579405
 20
192.9834661399
 30
0.0
 11
135.9676084409
 21
192.9834661399
 31
0.0
  0
LINE
  5
A7
330
1F
100
AcDbEntity
  8
0
  6
Continuous
 62
     7
370
    15
100
AcDbLine
 10
143.1568432883
 20
192.9834661399
 30
0.0
 11
143.1568432883
 21
195.9834661399
 31
0.0
  0
LINE
  5
A8
330
1F
100
AcDbEntity
  8
0
  6
Continuous
 62
     7
370
    15
100
AcDbLine
 10
143.1568432883
 20
195.9834661399
 30
0.0
 11
143.5056491491
 21
195.9834661399
 31
0.0
  0
LINE
  5
A9
330
1F
100
AcDbEntity
  8
0
  6
Continuous
 62
     7
370
    15
100
AcDbLine
 10
143.5056491491
 20
194.4834661399
 30
0.0
 11
143.5056491491
 21
195.9834661399
 31
0.0
  0
LINE
  5
AA
330
1F
100
AcDbEntity
  8
0
  6
Continuous
 62
     7
370
    15
100
AcDbLine
 10
144.7180927879
 20
192.9834661399
 30
0.0
 11
143.1568432883
 21
192.9834661399
 31
0.0
  0
LINE
  5
AB
330
1F
100
AcDbEntity
  8
0
  6
Continuous
 62
     7
370
    15
100
AcDbLine
 10
143.5056491491
 20
194.4834661399
 30
0.0
 11
144.7180927879
 21
194.4834661399
 31
0.0
  0
LINE
  5
AC
330
1F
100
AcDbEntity
  8
0
  6
Continuous
 62
     7
370
    15
100
AcDbLine
 10
127.493039397
 20
192.9834661399
 30
0.0
 11
127.493039397
 21
195.9834661399
 31
0.0
  0
LINE
  5
AD
330
1F
100
AcDbEntity
  8
0
  6
Continuous
 62
     7
370
    15
100
AcDbLine
 10
129.9682189873
 20
195.9834661399
 30
0.0
 11
127.493039397
 21
195.9834661399
 31
0.0
  0
LINE
  5
AE
330
1F
100
AcDbEntity
  8
0
  6
Continuous
 62
     7
370
    15
100
AcDbLine
 10
129.9682189873
 20
194.4834661399
 30
0.0
 11
129.9682189873
 21
195.9834661399
 31
0.0
  0
LINE
  5
AF
330
1F
100
AcDbEntity
  8
0
  6
Continuous
 62
     7
370
    15
100
AcDbLine
 10
153.1926618317
 20
192.9834661399
 30
0.0
 11
153.1926618317
 21
195.9834661399
 31
0.0
  0
LINE
  5
B0
330
1F
100
AcDbEntity
  8
0
  6
Continuous
 62
     7
370
    15
100
AcDbLine
 10
150.7174822414
 20
194.4834661399
 30
0.0
 11
150.7174822414
 21
195.9834661399
 31
0.0
  0
LINE
  5
B1
330
1F
100
AcDbEntity
  8
0
  6
Continuous
 62
     7
370
    15
100
AcDbLine
 10
153.1926618317
 20
195.9834661399
 30
0.0
 11
150.7174822414
 21
195.9834661399
 31
0.0
  0
LINE
  5
B2
330
1F
100
AcDbEntity
  8
0
  6
Continuous
 62
     7
370
    15
100
AcDbLine
 10
144.0928506144
 20
195.9834661399
 30
0.0
 11
144.0928506144
 21
194.4834661399
 31
0.0
  0
LINE
  5
B3
330
1F
100
AcDbEntity
  8
0
  6
Continuous
 62
     7
370
    15
100
AcDbLine
 10
143.5056491491
 20
195.9834661399
 30
0.0
 11
144.0928506144
 21
195.9834661399
 31
0.0
  0
LINE
  5
B4
330
1F
100
AcDbEntity
  8
0
  6
Continuous
 62
     7
370
    15
100
AcDbLine
 10
136.5928506144
 20
194.4834661399
 30
0.0
 11
136.5928506144
 21
195.9834661399
 31
0.0
  0
LINE
  5
B5
330
1F
100
AcDbEntity
  8
0
  6
Continuous
 62
     7
370
    15
100
AcDbLine
 10
136.5928506144
 20
195.9834661399
 30
0.0
 11
137.1800520796
 21
195.9834661399
 31
0.0
  0
LINE
  5
B6
330
1F
100
AcDbEntity
  8
0
  6
Continuous
 62
     7
370
    15
100
AcDbLine
 10
143.1568432883
 20
195.9834661399
 30
0.0
 11
137.5288579405
 21
195.9834661399
 31
0.0
  0
LINE
  5
B7
330
1F
100
AcDbEntity
  8
0
  6
Continuous
 62
     7
370
    15
100
AcDbLine
 10
143.1568432883
 20
192.9834661399
 30
0.0
 11
137.5288579405
 21
192.9834661399
 31
0.0
  0
LINE
  5
B8
330
1F
100
AcDbEntity
  8
0
  6
Continuous
 62
     7
370
    15
100
AcDbLine
 10
145.7071665944
 20
195.9834661399
 30
0.0
 11
144.0928506144
 21
195.9834661399
 31
0.0
  0
LINE
  5
B9
330
1F
100
AcDbEntity
  8
0
  6
Continuous
 62
     7
370
    15
100
AcDbLine
 10
136.5928506144
 20
195.9834661399
 30
0.0
 11
134.9785346343
 21
195.9834661399
 31
0.0
  0
LINE
  5
BA
330
1F
100
AcDbEntity
  8
0
  6
Continuous
 62
     7
370
    15
100
AcDbLine
 10
126.9788056226
 20
195.9834661399
 30
0.0
 11
126.9788056226
 21
192.9834661399
 31
0.0
  0
LINE
  5
BB
330
1F
100
AcDbEntity
  8
0
  6
Continuous
 62
     7
370
    15
100
AcDbLine
 10
126.5285091278
 20
192.9834661399
 30
0.0
 11
126.5285091278
 21
195.9834661399
 31
0.0
  0
LINE
  5
BC
330
1F
100
AcDbEntity
  8
0
  6
Continuous
 62
     7
370
    15
100
AcDbLine
 10
126.5285091278
 20
195.9834661399
 30
0.0
 11
126.9788056226
 21
195.9834661399
 31
0.0
  0
LINE
  5
BD
330
1F
100
AcDbEntity
  8
0
  6
Continuous
 62
     7
370
    15
100
AcDbLine
 10
153.7068956061
 20
192.9834661399
 30
0.0
 11
153.7068956061
 21
195.9834661399
 31
0.0
  0
LINE
  5
BE
330
1F
100
AcDbEntity
  8
0
  6
Continuous
 62
     7
370
    15
100
AcDbLine
 10
154.1571921009
 20
195.9834661399
 30
0.0
 11
154.1571921009
 21
192.9834661399
 31
0.0
  0
LINE
  5
BF
330
1F
100
AcDbEntity
  8
0
  6
Continuous
 62
     7
370
    15
100
AcDbLine
 10
153.7068956061
 20
195.9834661399
 30
0.0
 11
154.1571921009
 21
195.9834661399
 31
0.0
  0
LINE
  5
C0
330
1F
100
AcDbEntity
  8
0
  6
Continuous
 62
     7
370
    15
100
AcDbLine
 10
127.493039397
 20
195.9834661399
 30
0.0
 11
126.9788056226
 21
195.9834661399
 31
0.0
  0
LINE
  5
C1
330
1F
100
AcDbEntity
  8
0
  6
Continuous
 62
     7
370
    15
100
AcDbLine
 10
127.493039397
 20
192.9834661399
 30
0.0
 11
126.9788056226
 21
192.9834661399
 31
0.0
  0
LINE
  5
C2
330
1F
100
AcDbEntity
  8
0
  6
Continuous
 62
     7
370
    15
100
AcDbLine
 10
153.7068956061
 20
195.9834661399
 30
0.0
 11
153.1926618317
 21
195.9834661399
 31
0.0
  0
LINE
  5
C3
330
1F
100
AcDbEntity
  8
0
  6
Continuous
 62
     7
370
    15
100
AcDbLine
 10
153.7068956061
 20
192.9834661399
 30
0.0
 11
153.1926618317
 21
192.9834661399
 31
0.0
  0
LINE
  5
C4
330
1F
100
AcDbEntity
  8
0
  6
Continuous
 62
     7
370
    15
100
AcDbLine
 10
126.1428506144
 20
195.7834661399
 30
0.0
 11
126.1428506144
 21
192.9834661399
 31
0.0
  0
LINE
  5
C5
330
1F
100
AcDbEntity
  8
0
  6
Continuous
 62
     7
370
    15
100
AcDbLine
 10
126.3428506144
 20
195.9834661399
 30
0.0
 11
126.1428506144
 21
195.7834661399
 31
0.0
  0
LINE
  5
C6
330
1F
100
AcDbEntity
  8
0
  6
Continuous
 62
     7
370
    15
100
AcDbLine
 10
126.5285091278
 20
195.9834661399
 30
0.0
 11
126.3428506144
 21
195.9834661399
 31
0.0
  0
LINE
  5
C7
330
1F
100
AcDbEntity
  8
0
  6
Continuous
 62
     7
370
    15
100
AcDbLine
 10
126.5285091278
 20
192.9834661399
 30
0.0
 11
126.1428506144
 21
192.9834661399
 31
0.0
  0
LINE
  5
C8
330
1F
100
AcDbEntity
  8
0
  6
Continuous
 62
     7
370
    15
100
AcDbLine
 10
154.5428506144
 20
195.7834661399
 30
0.0
 11
154.3428506144
 21
195.9834661399
 31
0.0
  0
LINE
  5
C9
330
1F
100
AcDbEntity
  8
0
  6
Continuous
 62
     7
370
    15
100
AcDbLine
 10
154.5428506144
 20
195.7834661399
 30
0.0
 11
154.5428506144
 21
192.9834661399
 31
0.0
  0
LINE
  5
CA
330
1F
100
AcDbEntity
  8
0
  6
Continuous
 62
     7
370
    15
100
AcDbLine
 10
154.3428506144
 20
195.9834661399
 30
0.0
 11
154.1571921009
 21
195.9834661399
 31
0.0
  0
LINE
  5
CB
330
1F
100
AcDbEntity
  8
0
  6
Continuous
 62
     7
370
    15
100
AcDbLine
 10
154.5428506144
 20
192.9834661399
 30
0.0
 11
154.1571921009
 21
192.9834661399
 31
0.0
  0
LINE
  5
CC
330
1F
100
AcDbEntity
  8
0
  6
Continuous
 62
     7
370
    15
100
AcDbLine
 10
150.7174822414
 20
195.9834661399
 30
0.0
 11
147.9785346343
 21
195.9834661399
 31
0.0
  0
LINE
  5
CD
330
1F
100
AcDbEntity
  8
0
  6
Continuous
 62
     7
370
    15
100
AcDbLine
 10
132.7071665944
 20
195.9834661399
 30
0.0
 11
129.9682189873
 21
195.9834661399
 31
0.0
  0
LINE
  5
CE
330
1F
100
AcDbEntity
  8
0
  6
Continuous
 62
     7
370
    15
100
AcDbLine
 10
151.0272103257
 20
192.9834661399
 30
0.0
 11
151.0272103257
 21
153.9834661399
 31
0.0
  0
LINE
  5
CF
330
1F
100
AcDbEntity
  8
0
  6
Continuous
 62
     7
370
    15
100
AcDbLine
 10
151.0272103257
 20
153.9834661399
 30
0.0
 11
148.0127384578
 21
153.9834661399
 31
0.0
  0
LINE
  5
D0
330
1F
100
AcDbEntity
  8
0
  6
Continuous
 62
     7
370
    15
100
AcDbLine
 10
148.0127384578
 20
192.9834661399
 30
0.0
 11
148.0127384578
 21
153.9834661399
 31
0.0
  0
LINE
  5
D1
330
1F
100
AcDbEntity
  8
0
  6
Continuous
 62
     7
370
    15
100
AcDbLine
 10
151.0272103257
 20
192.9834661399
 30
0.0
 11
148.0127384578
 21
192.9834661399
 31
0.0
  0
LINE
  5
D2
330
1F
100
AcDbEntity
  8
0
  6
Continuous
 62
     7
370
    15
100
AcDbLine
 10
129.658490903
 20
192.9834661399
 30
0.0
 11
129.658490903
 21
153.9834661399
 31
0.0
  0
LINE
  5
D3
330
1F
100
AcDbEntity
  8
0
  6
Continuous
 62
     7
370
    15
100
AcDbLine
 10
129.0382601475
 20
153.9834661399
 30
0.0
 11
129.658490903
 21
153.9834661399
 31
0.0
  0
LINE
  5
D4
330
1F
100
AcDbEntity
  8
0
  6
Continuous
 62
     7
370
    15
100
AcDbLine
 10
129.0382601475
 20
192.9834661399
 30
0.0
 11
129.0382601475
 21
153.9834661399
 31
0.0
  0
LINE
  5
D5
330
1F
100
AcDbEntity
  8
0
  6
Continuous
 62
     7
370
    15
100
AcDbLine
 10
129.0382601475
 20
192.9834661399
 30
0.0
 11
129.658490903
 21
192.9834661399
 31
0.0
  0
LINE
  5
D6
330
1F
100
AcDbEntity
  8
0
  6
Continuous
 62
     7
370
    15
100
AcDbLine
 10
133.4302736293
 20
164.2834661399
 30
0.0
 11
133.4302736293
 21
160.4834661399
 31
0.0
  0
LINE
  5
D7
330
1F
100
AcDbEntity
  8
0
  6
Continuous
 62
     7
370
    15
100
AcDbLine
 10
132.6729627709
 20
192.9834661399
 30
0.0
 11
132.6729627709
 21
153.9834661399
 31
0.0
  0
LINE
  5
D8
330
1F
100
AcDbEntity
  8
0
  6
Continuous
 62
     7
370
    15
100
AcDbLine
 10
133.4302736293
 20
186.4834661399
 30
0.0
 11
133.4302736293
 21
182.6834661399
 31
0.0
  0
LINE
  5
D9
330
1F
100
AcDbEntity
  8
0
  6
Continuous
 62
     7
370
    15
100
AcDbLine
 10
133.4302736293
 20
182.6834661399
 30
0.0
 11
133.4428506144
 21
182.6684446244
 31
0.0
  0
LINE
  5
DA
330
1F
100
AcDbEntity
  8
0
  6
Continuous
 62
     7
370
    15
100
AcDbLine
 10
133.4428506144
 20
182.6684446244
 30
0.0
 11
133.4428506144
 21
164.2984876554
 31
0.0
  0
LINE
  5
DB
330
1F
100
AcDbEntity
  8
0
  6
Continuous
 62
     7
370
    15
100
AcDbLine
 10
133.4428506144
 20
164.2984876554
 30
0.0
 11
133.4302736293
 21
164.2834661399
 31
0.0
  0
LINE
  5
DC
330
1F
100
AcDbEntity
  8
0
  6
Continuous
 62
     7
370
    15
100
AcDbLine
 10
147.2554275994
 20
160.4834661399
 30
0.0
 11
147.2554275994
 21
164.2834661399
 31
0.0
  0
LINE
  5
DD
330
1F
100
AcDbEntity
  8
0
  6
Continuous
 62
     7
370
    15
100
AcDbLine
 10
147.2554275994
 20
164.2834661399
 30
0.0
 11
147.2428506144
 21
164.2984876554
 31
0.0
  0
LINE
  5
DE
330
1F
100
AcDbEntity
  8
0
  6
Continuous
 62
     7
370
    15
100
AcDbLine
 10
147.2428506144
 20
182.6684446244
 30
0.0
 11
147.2428506144
 21
164.2984876554
 31
0.0
  0
LINE
  5
DF
330
1F
100
AcDbEntity
  8
0
  6
Continuous
 62
     7
370
    15
100
AcDbLine
 10
147.2428506144
 20
182.6684446244
 30
0.0
 11
147.2554275994
 21
182.6834661399
 31
0.0
  0
LINE
  5
E0
330
1F
100
AcDbEntity
  8
0
  6
Continuous
 62
     7
370
    15
100
AcDbLine
 10
147.2554275994
 20
182.6834661399
 30
0.0
 11
147.2554275994
 21
186.4834661399
 31
0.0
  0
LINE
  5
E1
330
1F
100
AcDbEntity
  8
0
  6
Continuous
 62
     7
370
    15
100
AcDbLine
 10
151.6474410812
 20
153.9834661399
 30
0.0
 11
151.6474410812
 21
192.9834661399
 31
0.0
  0
LINE
  5
E2
330
1F
100
AcDbEntity
  8
0
  6
Continuous
 62
     7
370
    15
100
AcDbLine
 10
151.0272103257
 20
153.9834661399
 30
0.0
 11
151.6474410812
 21
153.9834661399
 31
0.0
  0
LINE
  5
E3
330
1F
100
AcDbEntity
  8
0
  6
Continuous
 62
     7
370
    15
100
AcDbLine
 10
151.0272103257
 20
192.9834661399
 30
0.0
 11
151.6474410812
 21
192.9834661399
 31
0.0
  0
LINE
  5
E4
330
1F
100
AcDbEntity
  8
0
  6
Continuous
 62
     7
370
    15
100
AcDbLine
 10
132.6729627709
 20
153.9834661399
 30
0.0
 11
129.658490903
 21
153.9834661399
 31
0.0
  0
LINE
  5
E5
330
1F
100
AcDbEntity
  8
0
  6
Continuous
 62
     7
370
    15
100
AcDbLine
 10
132.6729627709
 20
192.9834661399
 30
0.0
 11
129.658490903
 21
192.9834661399
 31
0.0
  0
LINE
  5
E6
330
1F
100
AcDbEntity
  8
0
  6
Continuous
 62
     7
370
    15
100
AcDbLine
 10
134.2554275994
 20
160.4834661399
 30
0.0
 11
134.2554275994
 21
164.2834661399
 31
0.0
  0
LINE
  5
E7
330
1F
100
AcDbEntity
  8
0
  6
Continuous
 62
     7
370
    15
100
AcDbLine
 10
134.2554275994
 20
164.2834661399
 30
0.0
 11
134.2428506144
 21
164.2984876554
 31
0.0
  0
LINE
  5
E8
330
1F
100
AcDbEntity
  8
0
  6
Continuous
 62
     7
370
    15
100
AcDbLine
 10
134.2428506144
 20
182.6684446244
 30
0.0
 11
134.2428506144
 21
164.2984876554
 31
0.0
  0
LINE
  5
E9
330
1F
100
AcDbEntity
  8
0
  6
Continuous
 62
     7
370
    15
100
AcDbLine
 10
134.2428506144
 20
182.6684446244
 30
0.0
 11
134.2554275994
 21
182.6834661399
 31
0.0
  0
LINE
  5
EA
330
1F
100
AcDbEntity
  8
0
  6
Continuous
 62
     7
370
    15
100
AcDbLine
 10
134.2554275994
 20
182.6834661399
 30
0.0
 11
134.2554275994
 21
186.4834661399
 31
0.0
  0
LINE
  5
EB
330
1F
100
AcDbEntity
  8
0
  6
Continuous
 62
     7
370
    15
100
AcDbLine
 10
134.9665228335
 20
192.9834661399
 30
0.0
 11
134.9665228335
 21
153.9834661399
 31
0.0
  0
LINE
  5
EC
330
1F
100
AcDbEntity
  8
0
  6
Continuous
 62
     7
370
    15
100
AcDbLine
 10
135.9676084409
 20
153.9834661399
 30
0.0
 11
135.9676084409
 21
192.9834661399
 31
0.0
  0
LINE
  5
ED
330
1F
100
AcDbEntity
  8
0
  6
Continuous
 62
     7
370
    15
100
AcDbLine
 10
135.9676084409
 20
153.9834661399
 30
0.0
 11
134.9665228335
 21
153.9834661399
 31
0.0
  0
LINE
  5
EE
330
1F
100
AcDbEntity
  8
0
  6
Continuous
 62
     7
370
    15
100
AcDbLine
 10
134.9665228335
 20
192.9834661399
 30
0.0
 11
135.9676084409
 21
192.9834661399
 31
0.0
  0
LINE
  5
EF
330
1F
100
AcDbEntity
  8
0
  6
Continuous
 62
     7
370
    15
100
AcDbLine
 10
144.7180927879
 20
192.9834661399
 30
0.0
 11
144.7180927879
 21
153.9834661399
 31
0.0
  0
LINE
  5
F0
330
1F
100
AcDbEntity
  8
0
  6
Continuous
 62
     7
370
    15
100
AcDbLine
 10
145.7191783952
 20
192.9834661399
 30
0.0
 11
145.7191783952
 21
153.9834661399
 31
0.0
  0
LINE
  5
F1
330
1F
100
AcDbEntity
  8
0
  6
Continuous
 62
     7
370
    15
100
AcDbLine
 10
145.7191783952
 20
153.9834661399
 30
0.0
 11
144.7180927879
 21
153.9834661399
 31
0.0
  0
LINE
  5
F2
330
1F
100
AcDbEntity
  8
0
  6
Continuous
 62
     7
370
    15
100
AcDbLine
 10
144.7180927879
 20
192.9834661399
 30
0.0
 11
145.7191783952
 21
192.9834661399
 31
0.0
  0
LINE
  5
F3
330
1F
100
AcDbEntity
  8
0
  6
Continuous
 62
     7
370
    15
100
AcDbLine
 10
146.4302736293
 20
164.2834661399
 30
0.0
 11
146.4302736293
 21
160.4834661399
 31
0.0
  0
LINE
  5
F4
330
1F
100
AcDbEntity
  8
0
  6
Continuous
 62
     7
370
    15
100
AcDbLine
 10
146.4302736293
 20
186.4834661399
 30
0.0
 11
146.4302736293
 21
182.6834661399
 31
0.0
  0
LINE
  5
F5
330
1F
100
AcDbEntity
  8
0
  6
Continuous
 62
     7
370
    15
100
AcDbLine
 10
146.4302736293
 20
182.6834661399
 30
0.0
 11
146.4428506144
 21
182.6684446244
 31
0.0
  0
LINE
  5
F6
330
1F
100
AcDbEntity
  8
0
  6
Continuous
 62
     7
370
    15
100
AcDbLine
 10
146.4428506144
 20
182.6684446244
 30
0.0
 11
146.4428506144
 21
164.2984876554
 31
0.0
  0
LINE
  5
F7
330
1F
100
AcDbEntity
  8
0
  6
Continuous
 62
     7
370
    15
100
AcDbLine
 10
146.4428506144
 20
164.2984876554
 30
0.0
 11
146.4302736293
 21
164.2834661399
 31
0.0
  0
LINE
  5
F8
330
1F
100
AcDbEntity
  8
0
  6
Continuous
 62
     7
370
    15
100
AcDbLine
 10
151.6474410812
 20
192.9834661399
 30
0.0
 11
151.7245183603
 21
192.9834661399
 31
0.0
  0
LINE
  5
F9
330
1F
100
AcDbEntity
  8
0
  6
Continuous
 62
     7
370
    15
100
AcDbLine
 10
128.9611828685
 20
192.9834661399
 30
0.0
 11
129.0382601475
 21
192.9834661399
 31
0.0
  0
LINE
  5
FA
330
1F
100
AcDbEntity
  8
0
  6
Continuous
 62
     7
370
    15
100
AcDbLine
 10
137.5288579405
 20
192.9834661399
 30
0.0
 11
137.5288579405
 21
153.9834661399
 31
0.0
  0
LINE
  5
FB
330
1F
100
AcDbEntity
  8
0
  6
Continuous
 62
     7
370
    15
100
AcDbLine
 10
137.5288579405
 20
153.9834661399
 30
0.0
 11
135.9676084409
 21
153.9834661399
 31
0.0
  0
LINE
  5
FC
330
1F
100
AcDbEntity
  8
0
  6
Continuous
 62
     7
370
    15
100
AcDbLine
 10
143.1568432883
 20
153.9834661399
 30
0.0
 11
143.1568432883
 21
192.9834661399
 31
0.0
  0
LINE
  5
FD
330
1F
100
AcDbEntity
  8
0
  6
Continuous
 62
     7
370
    15
100
AcDbLine
 10
144.7180927879
 20
153.9834661399
 30
0.0
 11
143.1568432883
 21
153.9834661399
 31
0.0
  0
LINE
  5
FE
330
1F
100
AcDbEntity
  8
0
  6
Continuous
 62
     7
370
    15
100
AcDbLine
 10
146.4231208379
 20
164.2834661399
 30
0.0
 11
147.2587636493
 21
164.2834661399
 31
0.0
  0
LINE
  5
FF
330
1F
100
AcDbEntity
  8
0
  6
Continuous
 62
     7
370
    15
100
AcDbLine
 10
133.4428506144
 20
182.6684446244
 30
0.0
 11
134.2428506144
 21
182.6684446244
 31
0.0
  0
LINE
  5
100
330
1F
100
AcDbEntity
  8
0
  6
Continuous
 62
     7
370
    15
100
AcDbLine
 10
134.2625803908
 20
182.6834661399
 30
0.0
 11
133.4269375794
 21
182.6834661399
 31
0.0
  0
LINE
  5
101
330
1F
100
AcDbEntity
  8
0
  6
Continuous
 62
     7
370
    15
100
AcDbLine
 10
147.2495544637
 20
164.2984876554
 30
0.0
 11
146.4428506144
 21
164.2984876554
 31
0.0
  0
LINE
  5
102
330
1F
100
AcDbEntity
  8
0
  6
Continuous
 62
     7
370
    15
100
AcDbLine
 10
133.4231208379
 20
164.2834661399
 30
0.0
 11
134.2587636493
 21
164.2834661399
 31
0.0
  0
LINE
  5
103
330
1F
100
AcDbEntity
  8
0
  6
Continuous
 62
     7
370
    15
100
AcDbLine
 10
134.2495544637
 20
164.2984876554
 30
0.0
 11
133.4428506144
 21
164.2984876554
 31
0.0
  0
LINE
  5
104
330
1F
100
AcDbEntity
  8
0
  6
Continuous
 62
     7
370
    15
100
AcDbLine
 10
147.2625803908
 20
182.6834661399
 30
0.0
 11
146.4269375794
 21
182.6834661399
 31
0.0
  0
LINE
  5
105
330
1F
100
AcDbEntity
  8
0
  6
Continuous
 62
     7
370
    15
100
AcDbLine
 10
146.4428506144
 20
182.6684446244
 30
0.0
 11
147.2428506144
 21
182.6684446244
 31
0.0
  0
LINE
  5
106
330
1F
100
AcDbEntity
  8
0
  6
Continuous
 62
     7
370
    15
100
AcDbLine
 10
127.5941368003
 20
192.9834661399
 30
0.0
 11
127.5941368003
 21
153.9834661399
 31
0.0
  0
LINE
  5
107
330
1F
100
AcDbEntity
  8
0
  6
Continuous
 62
     7
370
    15
100
AcDbLine
 10
128.9611828685
 20
192.9834661399
 30
0.0
 11
127.5941368003
 21
192.9834661399
 31
0.0
  0
LINE
  5
108
330
1F
100
AcDbEntity
  8
0
  6
Continuous
 62
     7
370
    15
100
AcDbLine
 10
153.0915644284
 20
192.9834661399
 30
0.0
 11
153.0915644284
 21
153.9834661399
 31
0.0
  0
LINE
  5
109
330
1F
100
AcDbEntity
  8
0
  6
Continuous
 62
     7
370
    15
100
AcDbLine
 10
153.0915644284
 20
192.9834661399
 30
0.0
 11
151.7245183603
 21
192.9834661399
 31
0.0
  0
LINE
  5
10A
330
1F
100
AcDbEntity
  8
0
  6
Continuous
 62
     7
370
    15
100
AcDbLine
 10
137.5288579405
 20
153.9834661399
 30
0.0
 11
143.1568432883
 21
153.9834661399
 31
0.0
  0
LINE
  5
10B
330
1F
100
AcDbEntity
  8
0
  6
Continuous
 62
     7
370
    15
100
AcDbLine
 10
154.0864470801
 20
192.9834661399
 30
0.0
 11
154.0864470801
 21
153.9834661399
 31
0.0
  0
LINE
  5
10C
330
1F
100
AcDbEntity
  8
0
  6
Continuous
 62
     7
370
    15
100
AcDbLine
 10
153.78726006
 20
153.9834661399
 30
0.0
 11
153.78726006
 21
192.9834661399
 31
0.0
  0
LINE
  5
10D
330
1F
100
AcDbEntity
  8
0
  6
Continuous
 62
     7
370
    15
100
AcDbLine
 10
153.78726006
 20
192.9834661399
 30
0.0
 11
154.0864470801
 21
192.9834661399
 31
0.0
  0
LINE
  5
10E
330
1F
100
AcDbEntity
  8
0
  6
Continuous
 62
     7
370
    15
100
AcDbLine
 10
126.8984411687
 20
192.9834661399
 30
0.0
 11
126.8984411687
 21
153.9834661399
 31
0.0
  0
LINE
  5
10F
330
1F
100
AcDbEntity
  8
0
  6
Continuous
 62
     7
370
    15
100
AcDbLine
 10
126.5992541486
 20
153.9834661399
 30
0.0
 11
126.5992541486
 21
192.9834661399
 31
0.0
  0
LINE
  5
110
330
1F
100
AcDbEntity
  8
0
  6
Continuous
 62
     7
370
    15
100
AcDbLine
 10
126.5992541486
 20
192.9834661399
 30
0.0
 11
126.8984411687
 21
192.9834661399
 31
0.0
  0
LINE
  5
111
330
1F
100
AcDbEntity
  8
0
  6
Continuous
 62
     7
370
    15
100
AcDbLine
 10
153.78726006
 20
192.9834661399
 30
0.0
 11
153.0915644284
 21
192.9834661399
 31
0.0
  0
LINE
  5
112
330
1F
100
AcDbEntity
  8
0
  6
Continuous
 62
     7
370
    15
100
AcDbLine
 10
127.5941368003
 20
192.9834661399
 30
0.0
 11
126.8984411687
 21
192.9834661399
 31
0.0
  0
LINE
  5
113
330
1F
100
AcDbEntity
  8
0
  6
Continuous
 62
     7
370
    15
100
AcDbLine
 10
154.5428506144
 20
192.9834661399
 30
0.0
 11
154.5428506144
 21
153.9834661399
 31
0.0
  0
LINE
  5
114
330
1F
100
AcDbEntity
  8
0
  6
Continuous
 62
     7
370
    15
100
AcDbLine
 10
154.0864470801
 20
153.9834661399
 30
0.0
 11
154.5428506144
 21
153.9834661399
 31
0.0
  0
LINE
  5
115
330
1F
100
AcDbEntity
  8
0
  6
Continuous
 62
     7
370
    15
100
AcDbLine
 10
154.0864470801
 20
192.9834661399
 30
0.0
 11
154.5428506144
 21
192.9834661399
 31
0.0
  0
LINE
  5
116
330
1F
100
AcDbEntity
  8
0
  6
Continuous
 62
     7
370
    15
100
AcDbLine
 10
126.1428506144
 20
192.9834661399
 30
0.0
 11
126.1428506144
 21
153.9834661399
 31
0.0
  0
LINE
  5
117
330
1F
100
AcDbEntity
  8
0
  6
Continuous
 62
     7
370
    15
100
AcDbLine
 10
126.1428506144
 20
153.9834661399
 30
0.0
 11
126.5992541486
 21
153.9834661399
 31
0.0
  0
LINE
  5
118
330
1F
100
AcDbEntity
  8
0
  6
Continuous
 62
     7
370
    15
100
AcDbLine
 10
126.1428506144
 20
192.9834661399
 30
0.0
 11
126.5992541486
 21
192.9834661399
 31
0.0
  0
LINE
  5
119
330
1F
100
AcDbEntity
  8
0
  6
Continuous
 62
     7
370
    15
100
AcDbLine
 10
126.1428506144
 20
175.9834661399
 30
0.0
 11
125.8871051083
 21
175.9834661399
 31
0.0
  0
LINE
  5
11A
330
1F
100
AcDbEntity
  8
0
  6
Continuous
 62
     7
370
    15
100
AcDbLine
 10
126.1428506144
 20
153.9834661399
 30
0.0
 11
125.8871051083
 21
153.9834661399
 31
0.0
  0
LINE
  5
11B
330
1F
100
AcDbEntity
  8
0
  6
Continuous
 62
     7
370
    15
100
AcDbLine
 10
154.7985961205
 20
175.9834661399
 30
0.0
 11
154.5428506144
 21
175.9834661399
 31
0.0
  0
LINE
  5
11C
330
1F
100
AcDbEntity
  8
0
  6
Continuous
 62
     7
370
    15
100
AcDbLine
 10
154.7985961205
 20
153.9834661399
 30
0.0
 11
154.5428506144
 21
153.9834661399
 31
0.0
  0
LINE
  5
11D
330
1F
100
AcDbEntity
  8
0
  6
Continuous
 62
     7
370
    15
100
AcDbLine
 10
118.3428506144
 20
175.9834661399
 30
0.0
 11
117.3428506144
 21
174.9834661399
 31
0.0
  0
LINE
  5
11E
330
1F
100
AcDbEntity
  8
0
  6
Continuous
 62
     7
370
    15
100
AcDbLine
 10
117.3428506144
 20
154.9834661399
 30
0.0
 11
118.3428506144
 21
153.9834661399
 31
0.0
  0
LINE
  5
11F
330
1F
100
AcDbEntity
  8
0
  6
Continuous
 62
     7
370
    15
100
AcDbLine
 10
119.0928506144
 20
166.4834661399
 30
0.0
 11
119.0928506144
 21
171.4834661399
 31
0.0
  0
ARC
  5
120
330
1F
100
AcDbEntity
  8
0
  6
Continuous
 62
     7
370
    15
100
AcDbCircle
 10
121.3428506144
 20
166.4834661399
 30
0.0
 40
2.25
100
AcDbArc
 50
180.0
 51
0.0
  0
ARC
  5
121
330
1F
100
AcDbEntity
  8
0
  6
Continuous
 62
     7
370
    15
100
AcDbCircle
 10
121.3428506144
 20
171.4834661399
 30
0.0
 40
2.250000000000014
100
AcDbArc
 50
0.0
 51
180.0
  0
LINE
  5
122
330
1F
100
AcDbEntity
  8
0
  6
Continuous
 62
     7
370
    15
100
AcDbLine
 10
123.5928506144
 20
171.4834661399
 30
0.0
 11
123.5928506144
 21
166.4834661399
 31
0.0
  0
LINE
  5
123
330
1F
100
AcDbEntity
  8
0
  6
Continuous
 62
     7
370
    15
100
AcDbLine
 10
118.3428506144
 20
175.9834661399
 30
0.0
 11
125.8871051083
 21
175.9834661399
 31
0.0
  0
LINE
  5
124
330
1F
100
AcDbEntity
  8
0
  6
Continuous
 62
     7
370
    15
100
AcDbLine
 10
125.8871051083
 20
153.9834661399
 30
0.0
 11
118.3428506144
 21
153.9834661399
 31
0.0
  0
LINE
  5
125
330
1F
100
AcDbEntity
  8
0
  6
Continuous
 62
     7
370
    15
100
AcDbLine
 10
163.3428506144
 20
174.9834661399
 30
0.0
 11
162.3428506144
 21
175.9834661399
 31
0.0
  0
LINE
  5
126
330
1F
100
AcDbEntity
  8
0
  6
Continuous
 62
     7
370
    15
100
AcDbLine
 10
163.3428506144
 20
154.9834661399
 30
0.0
 11
163.3428506144
 21
174.9834661399
 31
0.0
  0
LINE
  5
127
330
1F
100
AcDbEntity
  8
0
  6
Continuous
 62
     7
370
    15
100
AcDbLine
 10
162.3428506144
 20
153.9834661399
 30
0.0
 11
163.3428506144
 21
154.9834661399
 31
0.0
  0
ARC
  5
128
330
1F
100
AcDbEntity
  8
0
  6
Continuous
 62
     7
370
    15
100
AcDbCircle
 10
159.3428506144
 20
166.4834661399
 30
0.0
 40
2.25
100
AcDbArc
 50
180.0
 51
0.0
  0
ARC
  5
129
330
1F
100
AcDbEntity
  8
0
  6
Continuous
 62
     7
370
    15
100
AcDbCircle
 10
159.3428506144
 20
171.4834661399
 30
0.0
 40
2.25
100
AcDbArc
 50
0.0
 51
180.0
  0
LINE
  5
12A
330
1F
100
AcDbEntity
  8
0
  6
Continuous
 62
     7
370
    15
100
AcDbLine
 10
161.5928506144
 20
171.4834661399
 30
0.0
 11
161.5928506144
 21
166.4834661399
 31
0.0
  0
LINE
  5
12B
330
1F
100
AcDbEntity
  8
0
  6
Continuous
 62
     7
370
    15
100
AcDbLine
 10
157.0928506144
 20
166.4834661399
 30
0.0
 11
157.0928506144
 21
171.4834661399
 31
0.0
  0
LINE
  5
12C
330
1F
100
AcDbEntity
  8
0
  6
Continuous
 62
     7
370
    15
100
AcDbLine
 10
154.7985961205
 20
175.9834661399
 30
0.0
 11
162.3428506144
 21
175.9834661399
 31
0.0
  0
LINE
  5
12D
330
1F
100
AcDbEntity
  8
0
  6
Continuous
 62
     7
370
    15
100
AcDbLine
 10
162.3428506144
 20
153.9834661399
 30
0.0
 11
154.7985961205
 21
153.9834661399
 31
0.0
  0
LINE
  5
12E
330
1F
100
AcDbEntity
  8
0
  6
Continuous
 62
     7
370
    15
100
AcDbLine
 10
117.3428506144
 20
174.9834661399
 30
0.0
 11
116.3428506144
 21
173.9834661399
 31
0.0
  0
LINE
  5
12F
330
1F
100
AcDbEntity
  8
0
  6
Continuous
 62
     7
370
    15
100
AcDbLine
 10
116.3428506144
 20
155.9834661399
 30
0.0
 11
116.3428506144
 21
159.4334661399
 31
0.0
  0
LINE
  5
130
330
1F
100
AcDbEntity
  8
0
  6
Continuous
 62
     7
370
    15
100
AcDbLine
 10
116.3428506144
 20
162.5334661399
 30
0.0
 11
116.3428506144
 21
173.9834661399
 31
0.0
  0
LINE
  5
131
330
1F
100
AcDbEntity
  8
0
  6
Continuous
 62
     7
370
    15
100
AcDbLine
 10
116.3428506144
 20
155.9834661399
 30
0.0
 11
117.3428506144
 21
154.9834661399
 31
0.0
  0
LINE
  5
132
330
1F
100
AcDbEntity
  8
0
  6
Continuous
 62
     7
370
    15
100
AcDbLine
 10
164.3428506144
 20
173.9834661399
 30
0.0
 11
164.3428506144
 21
155.9834661399
 31
0.0
  0
LINE
  5
133
330
1F
100
AcDbEntity
  8
0
  6
Continuous
 62
     7
370
    15
100
AcDbLine
 10
164.3428506144
 20
173.9834661399
 30
0.0
 11
163.3428506144
 21
174.9834661399
 31
0.0
  0
LINE
  5
134
330
1F
100
AcDbEntity
  8
0
  6
Continuous
 62
     7
370
    15
100
AcDbLine
 10
163.3428506144
 20
154.9834661399
 30
0.0
 11
164.3428506144
 21
155.9834661399
 31
0.0
  0
LINE
  5
135
330
1F
100
AcDbEntity
  8
0
  6
Continuous
 62
     7
370
    15
100
AcDbLine
 10
155.3428506144
 20
160.6089078569
 30
0.0
 11
157.8428506144
 21
160.608907857
 31
0.0
  0
LINE
  5
136
330
1F
100
AcDbEntity
  8
0
  6
Continuous
 62
     7
370
    15
100
AcDbLine
 10
155.3428506144
 20
164.2885579079
 30
0.0
 11
155.3428506144
 21
164.1959315412
 31
0.0
  0
LINE
  5
137
330
1F
100
AcDbEntity
  8
0
  6
Continuous
 62
     7
370
    15
100
AcDbLine
 10
155.3428506144
 20
160.7015342236
 30
0.0
 11
155.3428506144
 21
160.6089078569
 31
0.0
  0
LINE
  5
138
330
1F
100
AcDbEntity
  8
0
  6
Continuous
 62
     7
370
    15
100
AcDbLine
 10
157.8428506144
 20
164.2885579079
 30
0.0
 11
155.3428506144
 21
164.2885579079
 31
0.0
  0
LINE
  5
139
330
1F
100
AcDbEntity
  8
0
  6
Continuous
 62
     7
370
    15
100
AcDbLine
 10
157.8428506144
 20
164.2885579079
 30
0.0
 11
157.8428506144
 21
160.608907857
 31
0.0
  0
LINE
  5
13A
330
1F
100
AcDbEntity
  8
0
  6
Continuous
 62
     7
370
    15
100
AcDbLine
 10
155.3428506144
 20
157.3038160889
 30
0.0
 11
157.8428506144
 21
157.3038160889
 31
0.0
  0
LINE
  5
13B
330
1F
100
AcDbEntity
  8
0
  6
Continuous
 62
     7
370
    15
100
AcDbLine
 10
157.8428506144
 20
160.608907857
 30
0.0
 11
157.8428506144
 21
157.3038160889
 31
0.0
  0
LINE
  5
13C
330
1F
100
AcDbEntity
  8
0
  6
Continuous
 62
     7
370
    15
100
AcDbLine
 10
155.3428506144
 20
160.6089078569
 30
0.0
 11
155.3428506144
 21
160.5257100968
 31
0.0
  0
LINE
  5
13D
330
1F
100
AcDbEntity
  8
0
  6
Continuous
 62
     7
370
    15
100
AcDbLine
 10
155.3428506144
 20
157.387013849
 30
0.0
 11
155.3428506144
 21
157.3038160889
 31
0.0
  0
LINE
  5
13E
330
1F
100
AcDbEntity
  8
0
  6
Continuous
 62
     7
370
    15
100
AcDbLine
 10
155.3428506144
 20
164.6631161909
 30
0.0
 11
157.8428506144
 21
164.6631161909
 31
0.0
  0
LINE
  5
13F
330
1F
100
AcDbEntity
  8
0
  6
Continuous
 62
     7
370
    15
100
AcDbLine
 10
157.8428506144
 20
164.6631161909
 30
0.0
 11
157.8428506144
 21
164.2885579079
 31
0.0
  0
LINE
  5
140
330
1F
100
AcDbEntity
  8
0
  6
Continuous
 62
     7
370
    15
100
AcDbLine
 10
155.3428506144
 20
164.2979865145
 30
0.0
 11
155.3428506144
 21
164.2885579079
 31
0.0
  0
LINE
  5
141
330
1F
100
AcDbEntity
  8
0
  6
Continuous
 62
     7
370
    15
100
AcDbLine
 10
134.9785346343
 20
150.9834661399
 30
0.0
 11
132.7071665944
 21
150.9834661399
 31
0.0
  0
LINE
  5
142
330
1F
100
AcDbEntity
  8
0
  6
Continuous
 62
     7
370
    15
100
AcDbLine
 10
134.3684809211
 20
160.2834661399
 30
0.0
 11
133.3172203076
 21
160.2834661399
 31
0.0
  0
LINE
  5
143
330
1F
100
AcDbEntity
  8
0
  6
Continuous
 62
     7
370
    15
100
AcDbLine
 10
133.4302736293
 20
160.4834661399
 30
0.0
 11
134.2554275994
 21
160.4834661399
 31
0.0
  0
LINE
  5
144
330
1F
100
AcDbEntity
  8
0
  6
Continuous
 62
     7
370
    15
100
AcDbLine
 10
143.3428506144
 20
150.9834661399
 30
0.0
 11
143.3428506144
 21
148.4834661399
 31
0.0
  0
LINE
  5
145
330
1F
100
AcDbEntity
  8
0
  6
Continuous
 62
     7
370
    15
100
AcDbLine
 10
142.9886019254
 20
148.4834661399
 30
0.0
 11
143.3428506144
 21
148.4834661399
 31
0.0
  0
LINE
  5
146
330
1F
100
AcDbEntity
  8
0
  6
Continuous
 62
     7
370
    15
100
AcDbLine
 10
142.9886019254
 20
150.9834661399
 30
0.0
 11
142.9886019254
 21
148.4834661399
 31
0.0
  0
LINE
  5
147
330
1F
100
AcDbEntity
  8
0
  6
Continuous
 62
     7
370
    15
100
AcDbLine
 10
137.6970993033
 20
150.9834661399
 30
0.0
 11
137.6970993033
 21
148.4834661399
 31
0.0
  0
LINE
  5
148
330
1F
100
AcDbEntity
  8
0
  6
Continuous
 62
     7
370
    15
100
AcDbLine
 10
137.3428506144
 20
148.4834661399
 30
0.0
 11
137.6970993033
 21
148.4834661399
 31
0.0
  0
LINE
  5
149
330
1F
100
AcDbEntity
  8
0
  6
Continuous
 62
     7
370
    15
100
AcDbLine
 10
137.3428506144
 20
150.9834661399
 30
0.0
 11
137.3428506144
 21
148.4834661399
 31
0.0
  0
SPLINE
  5
14A
330
1F
100
AcDbEntity
  8
0
  6
Continuous
 62
     7
370
    15
100
AcDbSpline
210
0.0
220
0.0
230
1.0
 70
     8
 71
     3
 72
     8
 73
     4
 74
     0
 42
0.00000001
 43
0.00000001
 12
1.0
 22
0.0
 32
0.0
 13
1.0
 23
0.0
 33
0.0
 40
0.0
 40
0.0
 40
0.0
 40
0.0
 40
1.0
 40
1.0
 40
1.0
 40
1.0
 10
142.1456262520886
 20
147.9834661398963
 30
0.0
 10
142.4365833470411
 20
148.1333319577264
 30
0.0
 10
142.7157859259003
 20
148.3030153177933
 30
0.0
 10
142.9886019254212
 20
148.4834661398963
 30
0.0
  0
LINE
  5
14B
330
1F
100
AcDbEntity
  8
0
  6
Continuous
 62
     7
370
    15
100
AcDbLine
 10
142.1456262521
 20
147.9834661399
 30
0.0
 11
138.5400749766
 21
147.9834661399
 31
0.0
  0
SPLINE
  5
14C
330
1F
100
AcDbEntity
  8
0
  6
Continuous
 62
     7
370
    15
100
AcDbSpline
210
0.0
220
0.0
230
1.0
 70
     8
 71
     3
 72
     8
 73
     4
 74
     0
 42
0.00000001
 43
0.00000001
 12
1.0
 22
0.0
 32
0.0
 13
1.0
 23
0.0
 33
0.0
 40
0.0
 40
0.0
 40
0.0
 40
0.0
 40
1.0
 40
1.0
 40
1.0
 40
1.0
 10
137.697099303292
 20
148.4834661398963
 30
0.0
 10
137.9699153028129
 20
148.3030153177933
 30
0.0
 10
138.2491178816722
 20
148.1333319577264
 30
0.0
 10
138.5400749766246
 20
147.9834661398963
 30
0.0
  0
SPLINE
  5
14D
330
1F
100
AcDbEntity
  8
0
  6
Continuous
 62
     7
370
    15
100
AcDbSpline
210
0.0
220
0.0
230
1.0
 70
    24
 71
     3
 72
     8
 73
     4
 74
     0
 42
0.00000001
 43
0.00000001
 12
1.0
 22
0.0
 32
0.0
 13
1.0
 23
0.0
 33
0.0
 40
0.0
 40
0.0
 40
0.0
 40
0.0
 40
1.0
 40
1.0
 40
1.0
 40
1.0
 10
143.3428506143566
 20
148.4834661398963
 30
0.0
 10
143.3428506143566
 20
148.3030153177933
 30
0.0
 10
143.3428506143566
 20
148.1333319577264
 30
0.0
 10
143.3428506143566
 20
147.9834661398963
 30
0.0
  0
LINE
  5
14E
330
1F
100
AcDbEntity
  8
0
  6
Continuous
 62
     7
370
    15
100
AcDbLine
 10
143.3428506144
 20
147.9834661399
 30
0.0
 11
142.1456262521
 21
147.9834661399
 31
0.0
  0
SPLINE
  5
14F
330
1F
100
AcDbEntity
  8
0
  6
Continuous
 62
     7
370
    15
100
AcDbSpline
210
0.0
220
0.0
230
1.0
 70
    24
 71
     3
 72
     8
 73
     4
 74
     0
 42
0.00000001
 43
0.00000001
 12
1.0
 22
0.0
 32
0.0
 13
1.0
 23
0.0
 33
0.0
 40
0.0
 40
0.0
 40
0.0
 40
0.0
 40
1.0
 40
1.0
 40
1.0
 40
1.0
 10
137.3428506143566
 20
147.9834661398963
 30
0.0
 10
137.3428506143566
 20
148.1333319577264
 30
0.0
 10
137.3428506143566
 20
148.3030153177933
 30
0.0
 10
137.3428506143566
 20
148.4834661398963
 30
0.0
  0
LINE
  5
150
330
1F
100
AcDbEntity
  8
0
  6
Continuous
 62
     7
370
    15
100
AcDbLine
 10
138.5400749766
 20
147.9834661399
 30
0.0
 11
137.3428506144
 21
147.9834661399
 31
0.0
  0
LINE
  5
151
330
1F
100
AcDbEntity
  8
0
  6
Continuous
 62
     7
370
    15
100
AcDbLine
 10
147.9785346343
 20
150.9834661399
 30
0.0
 11
145.7071665944
 21
150.9834661399
 31
0.0
  0
LINE
  5
152
330
1F
100
AcDbEntity
  8
0
  6
Continuous
 62
     7
370
    15
100
AcDbLine
 10
147.3684809211
 20
160.2834661399
 30
0.0
 11
146.3172203076
 21
160.2834661399
 31
0.0
  0
LINE
  5
153
330
1F
100
AcDbEntity
  8
0
  6
Continuous
 62
     7
370
    15
100
AcDbLine
 10
146.4302736293
 20
160.4834661399
 30
0.0
 11
147.2554275994
 21
160.4834661399
 31
0.0
  0
LINE
  5
154
330
1F
100
AcDbEntity
  8
0
  6
Continuous
 62
     7
370
    15
100
AcDbLine
 10
131.0928506144
 20
152.4834661399
 30
0.0
 11
131.0928506144
 21
151.1834661399
 31
0.0
  0
LINE
  5
155
330
1F
100
AcDbEntity
  8
0
  6
Continuous
 62
     7
370
    15
100
AcDbLine
 10
129.658490903
 20
151.1834661399
 30
0.0
 11
131.0928506144
 21
151.1834661399
 31
0.0
  0
LINE
  5
156
330
1F
100
AcDbEntity
  8
0
  6
Continuous
 62
     7
370
    15
100
AcDbLine
 10
129.658490903
 20
151.1834661399
 30
0.0
 11
129.658490903
 21
153.9834661399
 31
0.0
  0
LINE
  5
157
330
1F
100
AcDbEntity
  8
0
  6
Continuous
 62
     7
370
    15
100
AcDbLine
 10
134.4063589413
 20
153.9834661399
 30
0.0
 11
129.658490903
 21
153.9834661399
 31
0.0
  0
LINE
  5
158
330
1F
100
AcDbEntity
  8
0
  6
Continuous
 62
     7
370
    15
100
AcDbLine
 10
134.4063589413
 20
152.4834661399
 30
0.0
 11
134.4063589413
 21
153.9834661399
 31
0.0
  0
LINE
  5
159
330
1F
100
AcDbEntity
  8
0
  6
Continuous
 62
     7
370
    15
100
AcDbLine
 10
134.4063589413
 20
152.4834661399
 30
0.0
 11
131.0928506144
 21
152.4834661399
 31
0.0
  0
LINE
  5
15A
330
1F
100
AcDbEntity
  8
0
  6
Continuous
 62
     7
370
    15
100
AcDbLine
 10
146.2793422875
 20
153.9834661399
 30
0.0
 11
146.2793422875
 21
152.4834661399
 31
0.0
  0
LINE
  5
15B
330
1F
100
AcDbEntity
  8
0
  6
Continuous
 62
     7
370
    15
100
AcDbLine
 10
146.2793422875
 20
152.4834661399
 30
0.0
 11
144.7180927879
 21
152.4834661399
 31
0.0
  0
LINE
  5
15C
330
1F
100
AcDbEntity
  8
0
  6
Continuous
 62
     7
370
    15
100
AcDbLine
 10
144.7180927879
 20
153.9834661399
 30
0.0
 11
144.7180927879
 21
152.4834661399
 31
0.0
  0
LINE
  5
15D
330
1F
100
AcDbEntity
  8
0
  6
Continuous
 62
     7
370
    15
100
AcDbLine
 10
144.7180927879
 20
153.9834661399
 30
0.0
 11
146.2793422875
 21
153.9834661399
 31
0.0
  0
LINE
  5
15E
330
1F
100
AcDbEntity
  8
0
  6
Continuous
 62
     7
370
    15
100
AcDbLine
 10
135.9676084409
 20
152.4834661399
 30
0.0
 11
135.9676084409
 21
153.9834661399
 31
0.0
  0
LINE
  5
15F
330
1F
100
AcDbEntity
  8
0
  6
Continuous
 62
     7
370
    15
100
AcDbLine
 10
135.9676084409
 20
152.4834661399
 30
0.0
 11
134.4063589413
 21
152.4834661399
 31
0.0
  0
LINE
  5
160
330
1F
100
AcDbEntity
  8
0
  6
Continuous
 62
     7
370
    15
100
AcDbLine
 10
134.4063589413
 20
153.9834661399
 30
0.0
 11
135.9676084409
 21
153.9834661399
 31
0.0
  0
LINE
  5
161
330
1F
100
AcDbEntity
  8
0
  6
Continuous
 62
     7
370
    15
100
AcDbLine
 10
151.0272103257
 20
151.1834661399
 30
0.0
 11
151.0272103257
 21
153.9834661399
 31
0.0
  0
LINE
  5
162
330
1F
100
AcDbEntity
  8
0
  6
Continuous
 62
     7
370
    15
100
AcDbLine
 10
149.5928506144
 20
151.1834661399
 30
0.0
 11
151.0272103257
 21
151.1834661399
 31
0.0
  0
LINE
  5
163
330
1F
100
AcDbEntity
  8
0
  6
Continuous
 62
     7
370
    15
100
AcDbLine
 10
149.5928506144
 20
152.4834661399
 30
0.0
 11
146.2793422875
 21
152.4834661399
 31
0.0
  0
LINE
  5
164
330
1F
100
AcDbEntity
  8
0
  6
Continuous
 62
     7
370
    15
100
AcDbLine
 10
151.0272103257
 20
153.9834661399
 30
0.0
 11
146.2793422875
 21
153.9834661399
 31
0.0
  0
LINE
  5
165
330
1F
100
AcDbEntity
  8
0
  6
Continuous
 62
     7
370
    15
100
AcDbLine
 10
149.5928506144
 20
152.4834661399
 30
0.0
 11
149.5928506144
 21
151.1834661399
 31
0.0
  0
ARC
  5
166
330
1F
100
AcDbEntity
  8
0
  6
Continuous
 62
     7
370
    15
100
AcDbCircle
 10
143.0428506144
 20
139.6834661399
 30
0.0
 40
13.99999999999986
100
AcDbArc
 50
53.8177127788
 51
55.2280559681
  0
LINE
  5
167
330
1F
100
AcDbEntity
  8
0
  6
Continuous
 62
     7
370
    15
100
AcDbLine
 10
154.5428506144
 20
151.1834661399
 30
0.0
 11
154.5428506144
 21
153.9834661399
 31
0.0
  0
LINE
  5
168
330
1F
100
AcDbEntity
  8
0
  6
Continuous
 62
     7
370
    15
100
AcDbLine
 10
154.3428506144
 20
150.9834661399
 30
0.0
 11
154.5428506144
 21
151.1834661399
 31
0.0
  0
LINE
  5
169
330
1F
100
AcDbEntity
  8
0
  6
Continuous
 62
     7
370
    15
100
AcDbLine
 10
151.3078370027
 20
150.9834661399
 30
0.0
 11
154.3428506144
 21
150.9834661399
 31
0.0
  0
LINE
  5
16A
330
1F
100
AcDbEntity
  8
0
  6
Continuous
 62
     7
370
    15
100
AcDbLine
 10
151.0272103257
 20
153.9834661399
 30
0.0
 11
154.5428506144
 21
153.9834661399
 31
0.0
  0
LINE
  5
16B
330
1F
100
AcDbEntity
  8
0
  6
Continuous
 62
     7
370
    15
100
AcDbLine
 10
151.3078370027
 20
150.9834661399
 30
0.0
 11
149.5928506144
 21
150.9834661399
 31
0.0
  0
LINE
  5
16C
330
1F
100
AcDbEntity
  8
0
  6
Continuous
 62
     7
370
    15
100
AcDbLine
 10
149.5928506144
 20
150.9834661399
 30
0.0
 11
149.5928506144
 21
151.1834661399
 31
0.0
  0
LINE
  5
16D
330
1F
100
AcDbEntity
  8
0
  6
Continuous
 62
     7
370
    15
100
AcDbLine
 10
131.0928506144
 20
150.9834661399
 30
0.0
 11
129.377864226
 21
150.9834661399
 31
0.0
  0
ARC
  5
16E
330
1F
100
AcDbEntity
  8
0
  6
Continuous
 62
     7
370
    15
100
AcDbCircle
 10
137.6428506144
 20
139.6834661399
 30
0.0
 40
13.99999999999986
100
AcDbArc
 50
124.7719440319
 51
126.1822872212
  0
LINE
  5
16F
330
1F
100
AcDbEntity
  8
0
  6
Continuous
 62
     7
370
    15
100
AcDbLine
 10
131.0928506144
 20
151.1834661399
 30
0.0
 11
131.0928506144
 21
150.9834661399
 31
0.0
  0
LINE
  5
170
330
1F
100
AcDbEntity
  8
0
  6
Continuous
 62
     7
370
    15
100
AcDbLine
 10
126.3428506144
 20
150.9834661399
 30
0.0
 11
129.377864226
 21
150.9834661399
 31
0.0
  0
LINE
  5
171
330
1F
100
AcDbEntity
  8
0
  6
Continuous
 62
     7
370
    15
100
AcDbLine
 10
126.1428506144
 20
151.1834661399
 30
0.0
 11
126.3428506144
 21
150.9834661399
 31
0.0
  0
LINE
  5
172
330
1F
100
AcDbEntity
  8
0
  6
Continuous
 62
     7
370
    15
100
AcDbLine
 10
126.1428506144
 20
151.1834661399
 30
0.0
 11
126.1428506144
 21
153.9834661399
 31
0.0
  0
LINE
  5
173
330
1F
100
AcDbEntity
  8
0
  6
Continuous
 62
     7
370
    15
100
AcDbLine
 10
126.1428506144
 20
153.9834661399
 30
0.0
 11
129.658490903
 21
153.9834661399
 31
0.0
  0
LINE
  5
174
330
1F
100
AcDbEntity
  8
0
  6
Continuous
 62
     7
370
    15
100
AcDbLine
 10
137.5288579405
 20
153.9834661399
 30
0.0
 11
137.5288579405
 21
152.4834661399
 31
0.0
  0
LINE
  5
175
330
1F
100
AcDbEntity
  8
0
  6
Continuous
 62
     7
370
    15
100
AcDbLine
 10
137.5288579405
 20
152.4834661399
 30
0.0
 11
135.9676084409
 21
152.4834661399
 31
0.0
  0
LINE
  5
176
330
1F
100
AcDbEntity
  8
0
  6
Continuous
 62
     7
370
    15
100
AcDbLine
 10
143.1568432883
 20
152.4834661399
 30
0.0
 11
143.1568432883
 21
153.9834661399
 31
0.0
  0
LINE
  5
177
330
1F
100
AcDbEntity
  8
0
  6
Continuous
 62
     7
370
    15
100
AcDbLine
 10
144.7180927879
 20
152.4834661399
 30
0.0
 11
143.1568432883
 21
152.4834661399
 31
0.0
  0
LINE
  5
178
330
1F
100
AcDbEntity
  8
0
  6
Continuous
 62
     7
370
    15
100
AcDbLine
 10
144.0989685307
 20
152.4834661399
 30
0.0
 11
144.0989685307
 21
150.9834661399
 31
0.0
  0
LINE
  5
179
330
1F
100
AcDbEntity
  8
0
  6
Continuous
 62
     7
370
    15
100
AcDbLine
 10
143.1011932276
 20
150.9834661399
 30
0.0
 11
143.1011932276
 21
152.4834661399
 31
0.0
  0
LINE
  5
17A
330
1F
100
AcDbEntity
  8
0
  6
Continuous
 62
     7
370
    15
100
AcDbLine
 10
144.0989685307
 20
150.9834661399
 30
0.0
 11
143.1011932276
 21
150.9834661399
 31
0.0
  0
LINE
  5
17B
330
1F
100
AcDbEntity
  8
0
  6
Continuous
 62
     7
370
    15
100
AcDbLine
 10
136.586732698
 20
150.9834661399
 30
0.0
 11
136.586732698
 21
152.4834661399
 31
0.0
  0
LINE
  5
17C
330
1F
100
AcDbEntity
  8
0
  6
Continuous
 62
     7
370
    15
100
AcDbLine
 10
137.5845080011
 20
152.4834661399
 30
0.0
 11
137.5845080011
 21
150.9834661399
 31
0.0
  0
LINE
  5
17D
330
1F
100
AcDbEntity
  8
0
  6
Continuous
 62
     7
370
    15
100
AcDbLine
 10
137.5845080011
 20
150.9834661399
 30
0.0
 11
136.586732698
 21
150.9834661399
 31
0.0
  0
LINE
  5
17E
330
1F
100
AcDbEntity
  8
0
  6
Continuous
 62
     7
370
    15
100
AcDbLine
 10
137.5845080011
 20
150.9834661399
 30
0.0
 11
143.1011932276
 21
150.9834661399
 31
0.0
  0
LINE
  5
17F
330
1F
100
AcDbEntity
  8
0
  6
Continuous
 62
     7
370
    15
100
AcDbLine
 10
143.1011932276
 20
152.4834661399
 30
0.0
 11
143.1568432883
 21
152.4834661399
 31
0.0
  0
LINE
  5
180
330
1F
100
AcDbEntity
  8
0
  6
Continuous
 62
     7
370
    15
100
AcDbLine
 10
137.5288579405
 20
152.4834661399
 30
0.0
 11
137.5845080011
 21
152.4834661399
 31
0.0
  0
LINE
  5
181
330
1F
100
AcDbEntity
  8
0
  6
Continuous
 62
     7
370
    15
100
AcDbLine
 10
144.0989685307
 20
150.9834661399
 30
0.0
 11
145.7071665944
 21
150.9834661399
 31
0.0
  0
LINE
  5
182
330
1F
100
AcDbEntity
  8
0
  6
Continuous
 62
     7
370
    15
100
AcDbLine
 10
147.9785346343
 20
150.9834661399
 30
0.0
 11
149.5928506144
 21
150.9834661399
 31
0.0
  0
LINE
  5
183
330
1F
100
AcDbEntity
  8
0
  6
Continuous
 62
     7
370
    15
100
AcDbLine
 10
131.0928506144
 20
150.9834661399
 30
0.0
 11
132.7071665944
 21
150.9834661399
 31
0.0
  0
LINE
  5
184
330
1F
100
AcDbEntity
  8
0
  6
Continuous
 62
     7
370
    15
100
AcDbLine
 10
134.9785346343
 20
150.9834661399
 30
0.0
 11
136.586732698
 21
150.9834661399
 31
0.0
  0
LINE
  5
185
330
1F
100
AcDbEntity
  8
0
  6
Continuous
 62
     7
370
    15
100
AcDbLine
 10
145.8609521675
 20
195.9834661399
 30
0.0
 11
147.9785346343
 21
195.9834661399
 31
0.0
  0
LINE
  5
186
330
1F
100
AcDbEntity
  8
0
  6
Continuous
 62
     7
370
    15
100
AcDbLine
 10
145.7071665944
 20
195.9834661399
 30
0.0
 11
145.8609521675
 21
195.9834661399
 31
0.0
  0
LINE
  5
187
330
1F
100
AcDbEntity
  8
0
  6
Continuous
 62
     7
370
    15
100
AcDbLine
 10
147.2554275994
 20
186.4834661399
 30
0.0
 11
146.4302736293
 21
186.4834661399
 31
0.0
  0
LINE
  5
188
330
1F
100
AcDbEntity
  8
0
  6
Continuous
 62
     7
370
    15
100
AcDbLine
 10
146.3172203076
 20
186.6834661399
 30
0.0
 11
147.3684809211
 21
186.6834661399
 31
0.0
  0
LINE
  5
189
330
1F
100
AcDbEntity
  8
0
  6
Continuous
 62
     7
370
    15
100
AcDbLine
 10
132.8609521675
 20
195.9834661399
 30
0.0
 11
134.9785346343
 21
195.9834661399
 31
0.0
  0
LINE
  5
18A
330
1F
100
AcDbEntity
  8
0
  6
Continuous
 62
     7
370
    15
100
AcDbLine
 10
132.7071665944
 20
195.9834661399
 30
0.0
 11
132.8609521675
 21
195.9834661399
 31
0.0
  0
LINE
  5
18B
330
1F
100
AcDbEntity
  8
0
  6
Continuous
 62
     7
370
    15
100
AcDbLine
 10
133.3172203076
 20
186.6834661399
 30
0.0
 11
134.3684809211
 21
186.6834661399
 31
0.0
  0
LINE
  5
18C
330
1F
100
AcDbEntity
  8
0
  6
Continuous
 62
     7
370
    15
100
AcDbLine
 10
134.2554275994
 20
186.4834661399
 30
0.0
 11
133.4302736293
 21
186.4834661399
 31
0.0
  0
LINE
  5
18D
330
1F
100
AcDbEntity
  8
0
  6
Continuous
 62
     7
370
    15
100
AcDbLine
 10
125.3428506144
 20
185.3610303745
 30
0.0
 11
122.8428506144
 21
185.3610303745
 31
0.0
  0
LINE
  5
18E
330
1F
100
AcDbEntity
  8
0
  6
Continuous
 62
     7
370
    15
100
AcDbLine
 10
122.8428506144
 20
185.3610303745
 30
0.0
 11
122.8428506144
 21
188.7407967403
 31
0.0
  0
LINE
  5
18F
330
1F
100
AcDbEntity
  8
0
  6
Continuous
 62
     7
370
    15
100
AcDbLine
 10
125.3428506144
 20
188.7407967406
 30
0.0
 11
122.8428506144
 21
188.7407967403
 31
0.0
  0
LINE
  5
190
330
1F
100
AcDbEntity
  8
0
  6
Continuous
 62
     7
370
    15
100
AcDbLine
 10
125.3428506144
 20
185.3610303745
 30
0.0
 11
125.3428506144
 21
185.4461078886
 31
0.0
  0
LINE
  5
191
330
1F
100
AcDbEntity
  8
0
  6
Continuous
 62
     7
370
    15
100
AcDbLine
 10
125.3428506144
 20
188.6557192264
 30
0.0
 11
125.3428506144
 21
188.7407967406
 31
0.0
  0
LINE
  5
192
330
1F
100
AcDbEntity
  8
0
  6
Continuous
 62
     7
370
    15
100
AcDbLine
 10
122.8428506144
 20
188.7407967403
 30
0.0
 11
122.8428506144
 21
192.3632325058
 31
0.0
  0
LINE
  5
193
330
1F
100
AcDbEntity
  8
0
  6
Continuous
 62
     7
370
    15
100
AcDbLine
 10
122.8428506144
 20
192.3632325058
 30
0.0
 11
125.3428506144
 21
192.3632325058
 31
0.0
  0
LINE
  5
194
330
1F
100
AcDbEntity
  8
0
  6
Continuous
 62
     7
370
    15
100
AcDbLine
 10
125.3428506144
 20
188.7407967406
 30
0.0
 11
125.3428506144
 21
188.8319828747
 31
0.0
  0
LINE
  5
195
330
1F
100
AcDbEntity
  8
0
  6
Continuous
 62
     7
370
    15
100
AcDbLine
 10
125.3428506144
 20
192.2720463716
 30
0.0
 11
125.3428506144
 21
192.3632325058
 31
0.0
  0
LINE
  5
196
330
1F
100
AcDbEntity
  8
0
  6
Continuous
 62
     7
370
    15
100
AcDbLine
 10
125.3428506144
 20
192.6059019053
 30
0.0
 11
122.8428506144
 21
192.6059019053
 31
0.0
  0
LINE
  5
197
330
1F
100
AcDbEntity
  8
0
  6
Continuous
 62
     7
370
    15
100
AcDbLine
 10
122.8428506144
 20
192.3632325058
 30
0.0
 11
122.8428506144
 21
192.6059019053
 31
0.0
  0
LINE
  5
198
330
1F
100
AcDbEntity
  8
0
  6
Continuous
 62
     7
370
    15
100
AcDbLine
 10
125.3428506144
 20
192.3632325058
 30
0.0
 11
125.3428506144
 21
192.3693411261
 31
0.0
  0
LINE
  5
199
330
1F
100
AcDbEntity
  8
0
  6
Continuous
 62
     7
370
    15
100
AcDbLine
 10
120.8428506144
 20
187.2334661399
 30
0.0
 11
120.8428506144
 21
188.878608992
 31
0.0
  0
LINE
  5
19A
330
1F
100
AcDbEntity
  8
0
  6
Continuous
 62
     7
370
    15
100
AcDbLine
 10
120.8428506144
 20
188.878608992
 30
0.0
 11
120.8428506144
 21
190.7334661399
 31
0.0
  0
LINE
  5
19B
330
1F
100
AcDbEntity
  8
0
  6
Continuous
 62
     7
370
    15
100
AcDbLine
 10
118.3428506144
 20
188.878608992
 30
0.0
 11
118.3428506144
 21
190.7334661399
 31
0.0
  0
LINE
  5
19C
330
1F
100
AcDbEntity
  8
0
  6
Continuous
 62
     7
370
    15
100
AcDbLine
 10
118.3428506144
 20
187.2334661399
 30
0.0
 11
118.3428506144
 21
188.878608992
 31
0.0
  0
LINE
  5
19D
330
1F
100
AcDbEntity
  8
0
  6
Continuous
 62
     7
370
    15
100
AcDbLine
 10
115.8428506144
 20
190.4807710604
 30
0.0
 11
115.8428506144
 21
190.4834661399
 31
0.0
  0
LINE
  5
19E
330
1F
100
AcDbEntity
  8
0
  6
Continuous
 62
     7
370
    15
100
AcDbLine
 10
115.8428506144
 20
187.4834661399
 30
0.0
 11
115.8428506144
 21
190.4807710604
 31
0.0
  0
LINE
  5
19F
330
1F
100
AcDbEntity
  8
0
  6
Continuous
 62
     7
370
    15
100
AcDbLine
 10
125.3428506144
 20
157.4749734733
 30
0.0
 11
122.8428506144
 21
157.4749734731
 31
0.0
  0
LINE
  5
1A0
330
1F
100
AcDbEntity
  8
0
  6
Continuous
 62
     7
370
    15
100
AcDbLine
 10
122.8428506144
 20
157.4749734731
 30
0.0
 11
122.8428506144
 21
160.9812855603
 31
0.0
  0
LINE
  5
1A1
330
1F
100
AcDbEntity
  8
0
  6
Continuous
 62
     7
370
    15
100
AcDbLine
 10
122.8428506144
 20
160.9812855603
 30
0.0
 11
125.3428506144
 21
160.9812855603
 31
0.0
  0
LINE
  5
1A2
330
1F
100
AcDbEntity
  8
0
  6
Continuous
 62
     7
370
    15
100
AcDbLine
 10
125.3428506144
 20
157.4749734733
 30
0.0
 11
125.3428506144
 21
157.5632364723
 31
0.0
  0
LINE
  5
1A3
330
1F
100
AcDbEntity
  8
0
  6
Continuous
 62
     7
370
    15
100
AcDbLine
 10
125.3428506144
 20
160.8930225611
 30
0.0
 11
125.3428506144
 21
160.9812855603
 31
0.0
  0
LINE
  5
1A4
330
1F
100
AcDbEntity
  8
0
  6
Continuous
 62
     7
370
    15
100
AcDbLine
 10
122.8428506144
 20
160.9812855603
 30
0.0
 11
122.8428506144
 21
164.489778227
 31
0.0
  0
LINE
  5
1A5
330
1F
100
AcDbEntity
  8
0
  6
Continuous
 62
     7
370
    15
100
AcDbLine
 10
125.3428506144
 20
164.489778227
 30
0.0
 11
122.8428506144
 21
164.489778227
 31
0.0
  0
LINE
  5
1A6
330
1F
100
AcDbEntity
  8
0
  6
Continuous
 62
     7
370
    15
100
AcDbLine
 10
125.3428506144
 20
160.9812855603
 30
0.0
 11
125.3428506144
 21
161.0696034502
 31
0.0
  0
LINE
  5
1A7
330
1F
100
AcDbEntity
  8
0
  6
Continuous
 62
     7
370
    15
100
AcDbLine
 10
125.3428506144
 20
164.401460337
 30
0.0
 11
125.3428506144
 21
164.489778227
 31
0.0
  0
LINE
  5
1A8
330
1F
100
AcDbEntity
  8
0
  6
Continuous
 62
     7
370
    15
100
AcDbLine
 10
125.3428506144
 20
164.4919588067
 30
0.0
 11
122.8428506144
 21
164.4919588067
 31
0.0
  0
LINE
  5
1A9
330
1F
100
AcDbEntity
  8
0
  6
Continuous
 62
     7
370
    15
100
AcDbLine
 10
122.8428506144
 20
164.489778227
 30
0.0
 11
122.8428506144
 21
164.4919588067
 31
0.0
  0
LINE
  5
1AA
330
1F
100
AcDbEntity
  8
0
  6
Continuous
 62
     7
370
    15
100
AcDbLine
 10
125.3428506144
 20
164.489778227
 30
0.0
 11
125.3428506144
 21
164.4898331179
 31
0.0
  0
LINE
  5
1AB
330
1F
100
AcDbEntity
  8
0
  6
Continuous
 62
     7
370
    15
100
AcDbLine
 10
120.8428506144
 20
159.4674507901
 30
0.0
 11
120.8428506144
 21
162.7334661399
 31
0.0
  0
LINE
  5
1AC
330
1F
100
AcDbEntity
  8
0
  6
Continuous
 62
     7
370
    15
100
AcDbLine
 10
120.8428506144
 20
159.2334661399
 30
0.0
 11
120.8428506144
 21
159.4674507901
 31
0.0
  0
LINE
  5
1AD
330
1F
100
AcDbEntity
  8
0
  6
Continuous
 62
     7
370
    15
100
AcDbLine
 10
118.3428506144
 20
159.4674507901
 30
0.0
 11
118.3428506144
 21
162.7334661399
 31
0.0
  0
LINE
  5
1AE
330
1F
100
AcDbEntity
  8
0
  6
Continuous
 62
     7
370
    15
100
AcDbLine
 10
118.3428506144
 20
159.2334661399
 30
0.0
 11
118.3428506144
 21
159.4674507901
 31
0.0
  0
LINE
  5
1AF
330
1F
100
AcDbEntity
  8
0
  6
Continuous
 62
     7
370
    15
100
AcDbLine
 10
115.8428506144
 20
161.7327666099
 30
0.0
 11
115.8428506144
 21
162.4834661399
 31
0.0
  0
LINE
  5
1B0
330
1F
100
AcDbEntity
  8
0
  6
Continuous
 62
     7
370
    15
100
AcDbLine
 10
115.8428506144
 20
159.4834661399
 30
0.0
 11
115.8428506144
 21
161.7327666099
 31
0.0
  0
LINE
  5
1B1
330
1F
100
AcDbEntity
  8
0
  6
Continuous
 62
     7
370
    15
100
AcDbLine
 10
155.3428506144
 20
185.3038160889
 30
0.0
 11
157.8428506144
 21
185.3038160889
 31
0.0
  0
LINE
  5
1B2
330
1F
100
AcDbEntity
  8
0
  6
Continuous
 62
     7
370
    15
100
AcDbLine
 10
155.3428506144
 20
188.6089078569
 30
0.0
 11
155.3428506144
 21
188.5257100968
 31
0.0
  0
LINE
  5
1B3
330
1F
100
AcDbEntity
  8
0
  6
Continuous
 62
     7
370
    15
100
AcDbLine
 10
155.3428506144
 20
185.387013849
 30
0.0
 11
155.3428506144
 21
185.3038160889
 31
0.0
  0
LINE
  5
1B4
330
1F
100
AcDbEntity
  8
0
  6
Continuous
 62
     7
370
    15
100
AcDbLine
 10
155.3428506144
 20
188.6089078569
 30
0.0
 11
157.8428506144
 21
188.608907857
 31
0.0
  0
LINE
  5
1B5
330
1F
100
AcDbEntity
  8
0
  6
Continuous
 62
     7
370
    15
100
AcDbLine
 10
157.8428506144
 20
188.608907857
 30
0.0
 11
157.8428506144
 21
185.3038160889
 31
0.0
  0
LINE
  5
1B6
330
1F
100
AcDbEntity
  8
0
  6
Continuous
 62
     7
370
    15
100
AcDbLine
 10
157.8428506144
 20
192.2885579079
 30
0.0
 11
155.3428506144
 21
192.2885579079
 31
0.0
  0
LINE
  5
1B7
330
1F
100
AcDbEntity
  8
0
  6
Continuous
 62
     7
370
    15
100
AcDbLine
 10
157.8428506144
 20
192.2885579079
 30
0.0
 11
157.8428506144
 21
188.608907857
 31
0.0
  0
LINE
  5
1B8
330
1F
100
AcDbEntity
  8
0
  6
Continuous
 62
     7
370
    15
100
AcDbLine
 10
155.3428506144
 20
192.2885579079
 30
0.0
 11
155.3428506144
 21
192.1959315412
 31
0.0
  0
LINE
  5
1B9
330
1F
100
AcDbEntity
  8
0
  6
Continuous
 62
     7
370
    15
100
AcDbLine
 10
155.3428506144
 20
188.7015342236
 30
0.0
 11
155.3428506144
 21
188.6089078569
 31
0.0
  0
LINE
  5
1BA
330
1F
100
AcDbEntity
  8
0
  6
Continuous
 62
     7
370
    15
100
AcDbLine
 10
155.3428506144
 20
192.6631161909
 30
0.0
 11
157.8428506144
 21
192.6631161909
 31
0.0
  0
LINE
  5
1BB
330
1F
100
AcDbEntity
  8
0
  6
Continuous
 62
     7
370
    15
100
AcDbLine
 10
157.8428506144
 20
192.6631161909
 30
0.0
 11
157.8428506144
 21
192.2885579079
 31
0.0
  0
LINE
  5
1BC
330
1F
100
AcDbEntity
  8
0
  6
Continuous
 62
     7
370
    15
100
AcDbLine
 10
155.3428506144
 20
192.2979865145
 30
0.0
 11
155.3428506144
 21
192.2885579079
 31
0.0
  0
LINE
  5
1BD
330
1F
100
AcDbEntity
  8
0
  6
Continuous
 62
     7
370
    15
100
AcDbLine
 10
125.3428506144
 20
185.0684089521
 30
0.0
 11
125.3428506144
 21
185.3610303745
 31
0.0
  0
LINE
  5
1BE
330
1F
100
AcDbEntity
  8
0
  6
Continuous
 62
     7
370
    15
100
AcDbLine
 10
125.3428506144
 20
185.4461078886
 30
0.0
 11
125.3428506144
 21
188.6557192264
 31
0.0
  0
LINE
  5
1BF
330
1F
100
AcDbEntity
  8
0
  6
Continuous
 62
     7
370
    15
100
AcDbLine
 10
125.3428506144
 20
188.8319828747
 30
0.0
 11
125.3428506144
 21
192.2720463716
 31
0.0
  0
LINE
  5
1C0
330
1F
100
AcDbEntity
  8
0
  6
Continuous
 62
     7
370
    15
100
AcDbLine
 10
125.3428506144
 20
192.3632325058
 30
0.0
 11
125.3428506144
 21
192.9834661399
 31
0.0
  0
LINE
  5
1C1
330
1F
100
AcDbEntity
  8
0
  6
Continuous
 62
     7
370
    15
100
AcDbLine
 10
125.3428506144
 20
184.9834661399
 30
0.0
 11
125.3428506144
 21
185.0684089521
 31
0.0
  0
LINE
  5
1C2
330
1F
100
AcDbEntity
  8
0
  6
Continuous
 62
     7
370
    15
100
AcDbLine
 10
125.3428506144
 20
157.0684089521
 30
0.0
 11
125.3428506144
 21
157.4749734733
 31
0.0
  0
LINE
  5
1C3
330
1F
100
AcDbEntity
  8
0
  6
Continuous
 62
     7
370
    15
100
AcDbLine
 10
125.3428506144
 20
157.5632364723
 30
0.0
 11
125.3428506144
 21
160.8930225611
 31
0.0
  0
LINE
  5
1C4
330
1F
100
AcDbEntity
  8
0
  6
Continuous
 62
     7
370
    15
100
AcDbLine
 10
125.3428506144
 20
161.0696034502
 30
0.0
 11
125.3428506144
 21
164.401460337
 31
0.0
  0
LINE
  5
1C5
330
1F
100
AcDbEntity
  8
0
  6
Continuous
 62
     7
370
    15
100
AcDbLine
 10
125.3428506144
 20
164.4919588067
 30
0.0
 11
125.3428506144
 21
164.9834661399
 31
0.0
  0
LINE
  5
1C6
330
1F
100
AcDbEntity
  8
0
  6
Continuous
 62
     7
370
    15
100
AcDbLine
 10
125.3428506144
 20
156.9834661399
 30
0.0
 11
125.3428506144
 21
157.0684089521
 31
0.0
  0
LINE
  5
1C7
330
1F
100
AcDbEntity
  8
0
  6
Continuous
 62
     7
370
    15
100
AcDbLine
 10
155.3428506144
 20
185.0684089521
 30
0.0
 11
155.3428506144
 21
185.3038160889
 31
0.0
  0
LINE
  5
1C8
330
1F
100
AcDbEntity
  8
0
  6
Continuous
 62
     7
370
    15
100
AcDbLine
 10
155.3428506144
 20
185.387013849
 30
0.0
 11
155.3428506144
 21
188.5257100968
 31
0.0
  0
LINE
  5
1C9
330
1F
100
AcDbEntity
  8
0
  6
Continuous
 62
     7
370
    15
100
AcDbLine
 10
155.3428506144
 20
188.7015342236
 30
0.0
 11
155.3428506144
 21
192.1959315412
 31
0.0
  0
LINE
  5
1CA
330
1F
100
AcDbEntity
  8
0
  6
Continuous
 62
     7
370
    15
100
AcDbLine
 10
155.3428506144
 20
192.2885579079
 30
0.0
 11
155.3428506144
 21
192.9834661399
 31
0.0
  0
LINE
  5
1CB
330
1F
100
AcDbEntity
  8
0
  6
Continuous
 62
     7
370
    15
100
AcDbLine
 10
155.3428506144
 20
184.9834661399
 30
0.0
 11
155.3428506144
 21
185.0684089521
 31
0.0
  0
LINE
  5
1CC
330
1F
100
AcDbEntity
  8
0
  6
Continuous
 62
     7
370
    15
100
AcDbLine
 10
155.3428506144
 20
157.0684089521
 30
0.0
 11
155.3428506144
 21
157.3038160889
 31
0.0
  0
LINE
  5
1CD
330
1F
100
AcDbEntity
  8
0
  6
Continuous
 62
     7
370
    15
100
AcDbLine
 10
155.3428506144
 20
157.387013849
 30
0.0
 11
155.3428506144
 21
160.5257100968
 31
0.0
  0
LINE
  5
1CE
330
1F
100
AcDbEntity
  8
0
  6
Continuous
 62
     7
370
    15
100
AcDbLine
 10
155.3428506144
 20
160.7015342236
 30
0.0
 11
155.3428506144
 21
164.1959315412
 31
0.0
  0
LINE
  5
1CF
330
1F
100
AcDbEntity
  8
0
  6
Continuous
 62
     7
370
    15
100
AcDbLine
 10
155.3428506144
 20
164.2885579079
 30
0.0
 11
155.3428506144
 21
164.9834661399
 31
0.0
  0
LINE
  5
1D0
330
1F
100
AcDbEntity
  8
0
  6
Continuous
 62
     7
370
    15
100
AcDbLine
 10
155.3428506144
 20
156.9834661399
 30
0.0
 11
155.3428506144
 21
157.0684089521
 31
0.0
  0
LINE
  5
1D1
330
1F
100
AcDbEntity
  8
0
  6
Continuous
 62
     8
370
    15
100
AcDbLine
 10
125.8871051083
 20
153.9834661399
 30
0.0
 11
125.8871051083
 21
156.9834661399
 31
0.0
  0
LINE
  5
1D2
330
1F
100
AcDbEntity
  8
0
  6
Continuous
 62
     8
370
    15
100
AcDbLine
 10
125.8871051083
 20
164.9834661399
 30
0.0
 11
125.8871051083
 21
175.9834661399
 31
0.0
  0
LINE
  5
1D3
330
1F
100
AcDbEntity
  8
0
  6
Continuous
 62
     8
370
    15
100
AcDbLine
 10
154.7985961205
 20
175.9834661399
 30
0.0
 11
154.7985961205
 21
164.9834661399
 31
0.0
  0
LINE
  5
1D4
330
1F
100
AcDbEntity
  8
0
  6
Continuous
 62
     8
370
    15
100
AcDbLine
 10
154.7985961205
 20
156.9834661399
 30
0.0
 11
154.7985961205
 21
153.9834661399
 31
0.0
  0
LINE
  5
1D5
330
1F
100
AcDbEntity
  8
0
  6
Continuous
 62
     8
370
    15
100
AcDbLine
 10
117.3428506144
 20
174.9834661399
 30
0.0
 11
117.3428506144
 21
162.6334661399
 31
0.0
  0
LINE
  5
1D6
330
1F
100
AcDbEntity
  8
0
  6
Continuous
 62
     8
370
    15
100
AcDbLine
 10
117.3428506144
 20
159.3334661399
 30
0.0
 11
117.3428506144
 21
154.9834661399
 31
0.0
  0
LINE
  5
1D7
330
1F
100
AcDbEntity
  8
0
  6
Continuous
 62
     8
370
    15
100
AcDbLine
 10
135.9089377664
 20
152.1887739
 30
0.0
 11
136.0928506144
 21
152.1887739
 31
0.0
  0
LINE
  5
1D8
330
1F
100
AcDbEntity
  8
0
  6
Continuous
 62
     8
370
    15
100
AcDbLine
 10
131.5928506144
 20
152.1887739
 30
0.0
 11
135.9089377664
 21
152.1887739
 31
0.0
  0
LINE
  5
1D9
330
1F
100
AcDbEntity
  8
0
  6
Continuous
 62
     8
370
    15
100
AcDbLine
 10
135.6860496524
 20
151.3837180627
 30
0.0
 11
131.9996515763
 21
151.3837180627
 31
0.0
  0
LINE
  5
1DA
330
1F
100
AcDbEntity
  8
0
  6
Continuous
 62
     8
370
    15
100
AcDbLine
 10
135.1580606667
 20
151.0809382212
 30
0.0
 11
135.2751341533
 21
151.0809382212
 31
0.0
  0
LINE
  5
1DB
330
1F
100
AcDbEntity
  8
0
  6
Continuous
 62
     8
370
    15
100
AcDbLine
 10
132.4105670754
 20
151.0809382212
 30
0.0
 11
135.1580606667
 21
151.0809382212
 31
0.0
  0
LINE
  5
1DC
330
1F
100
AcDbEntity
  8
0
  6
Continuous
 62
     8
370
    15
100
AcDbLine
 10
148.9089377664
 20
152.1887739
 30
0.0
 11
149.0928506144
 21
152.1887739
 31
0.0
  0
LINE
  5
1DD
330
1F
100
AcDbEntity
  8
0
  6
Continuous
 62
     8
370
    15
100
AcDbLine
 10
144.5928506144
 20
152.1887739
 30
0.0
 11
148.9089377664
 21
152.1887739
 31
0.0
  0
LINE
  5
1DE
330
1F
100
AcDbEntity
  8
0
  6
Continuous
 62
     8
370
    15
100
AcDbLine
 10
148.6860496524
 20
151.3837180627
 30
0.0
 11
144.9996515763
 21
151.3837180627
 31
0.0
  0
LINE
  5
1DF
330
1F
100
AcDbEntity
  8
0
  6
Continuous
 62
     8
370
    15
100
AcDbLine
 10
148.1580606667
 20
151.0809382212
 30
0.0
 11
148.2751341533
 21
151.0809382212
 31
0.0
  0
LINE
  5
1E0
330
1F
100
AcDbEntity
  8
0
  6
Continuous
 62
     8
370
    15
100
AcDbLine
 10
145.4105670754
 20
151.0809382212
 30
0.0
 11
148.1580606667
 21
151.0809382212
 31
0.0
  0
LINE
  5
1E1
330
1F
100
AcDbEntity
  8
0
  6
Continuous
 62
     8
370
    15
100
AcDbLine
 10
149.0928506144
 20
194.7781583798
 30
0.0
 11
144.5928506144
 21
194.7781583798
 31
0.0
  0
LINE
  5
1E2
330
1F
100
AcDbEntity
  8
0
  6
Continuous
 62
     8
370
    15
100
AcDbLine
 10
145.2492433776
 20
195.5832142171
 30
0.0
 11
148.6860496524
 21
195.5832142171
 31
0.0
  0
LINE
  5
1E3
330
1F
100
AcDbEntity
  8
0
  6
Continuous
 62
     8
370
    15
100
AcDbLine
 10
144.9996515763
 20
195.5832142171
 30
0.0
 11
145.2492433776
 21
195.5832142171
 31
0.0
  0
LINE
  5
1E4
330
1F
100
AcDbEntity
  8
0
  6
Continuous
 62
     8
370
    15
100
AcDbLine
 10
148.2751341533
 20
195.8859940586
 30
0.0
 11
145.4105670754
 21
195.8859940586
 31
0.0
  0
LINE
  5
1E5
330
1F
100
AcDbEntity
  8
0
  6
Continuous
 62
     8
370
    15
100
AcDbLine
 10
136.0928506144
 20
194.7781583798
 30
0.0
 11
131.5928506144
 21
194.7781583798
 31
0.0
  0
LINE
  5
1E6
330
1F
100
AcDbEntity
  8
0
  6
Continuous
 62
     8
370
    15
100
AcDbLine
 10
132.2492433776
 20
195.5832142171
 30
0.0
 11
135.6860496524
 21
195.5832142171
 31
0.0
  0
LINE
  5
1E7
330
1F
100
AcDbEntity
  8
0
  6
Continuous
 62
     8
370
    15
100
AcDbLine
 10
131.9996515763
 20
195.5832142171
 30
0.0
 11
132.2492433776
 21
195.5832142171
 31
0.0
  0
LINE
  5
1E8
330
1F
100
AcDbEntity
  8
0
  6
Continuous
 62
     8
370
    15
100
AcDbLine
 10
135.2751341533
 20
195.8859940586
 30
0.0
 11
132.4105670754
 21
195.8859940586
 31
0.0
  0
LINE
  5
1E9
330
1F
100
AcDbEntity
  8
0
  6
CENTERX2
 62
     7
370
     0
100
AcDbLine
 10
119.0928506144
 20
168.9834661399
 30
0.0
 11
123.5928506144
 21
168.9834661399
 31
0.0
  0
LINE
  5
1EA
330
1F
100
AcDbEntity
  8
0
  6
CENTERX2
 62
     7
370
     0
100
AcDbLine
 10
121.3428506144
 20
173.7334661399
 30
0.0
 11
121.3428506144
 21
164.2334661399
 31
0.0
  0
DIMENSION
  5
1EB
330
1F
100
AcDbEntity
  8
0
  6
Continuous
 62
     7
370
     0
100
AcDbDimension
  2
_D
 10
104.0926304868
 20
147.9834661399
 30
0.0
 11
104.0926304868
 21
158.4834661399
 31
0.0
 70
   160
  1
<>
 71
     2
 42
-1.0
  3
SLDDIMSTYLE0
100
AcDbAlignedDimension
 13
119.0928506144
 23
168.9834661399
 33
0.0
 14
137.3428506144
 24
147.9834661399
 34
0.0
 50
90.0
100
AcDbRotatedDimension
  0
DIMENSION
  5
1F7
330
1F
100
AcDbEntity
  8
0
  6
Continuous
 62
     7
370
     0
100
AcDbDimension
  2
_D_1
 10
121.3428506144
 20
137.9834661399
 30
0.0
 11
140.3428506144
 21
137.9834661399
 31
0.0
 70
   160
  1
<>
 71
     2
 42
-1.0
  3
SLDDIMSTYLE0
100
AcDbAlignedDimension
 13
159.3428506144
 23
161.7334661399
 33
0.0
 14
121.3428506144
 24
164.2334661399
 34
0.0
100
AcDbRotatedDimension
  0
DIMENSION
  5
201
330
1F
100
AcDbEntity
  8
0
  6
Continuous
 62
     7
370
     0
100
AcDbDimension
  2
_D_2
 10
112.499122621
 20
153.9834661399
 30
0.0
 11
112.499122621
 21
162.2774436364
 31
0.0
 70
   160
  1
<>
 71
     2
 42
-1.0
  3
SLDDIMSTYLE0
100
AcDbAlignedDimension
 13
118.3428506144
 23
175.9834661399
 33
0.0
 14
118.3428506144
 24
153.9834661399
 34
0.0
 50
90.0
100
AcDbRotatedDimension
  0
DIMENSION
  5
20B
330
1F
100
AcDbEntity
  8
0
  6
Continuous
 62
     7
370
     0
100
AcDbDimension
  2
_D_3
 10
177.1098743491
 20
166.4834661399
 30
0.0
 11
177.1098743491
 21
168.933715643
 31
0.0
 70
   160
  1
<>
 71
     2
 42
-1.0
  3
SLDDIMSTYLE1
100
AcDbAlignedDimension
 13
164.0928506144
 23
171.4834661399
 33
0.0
 14
161.5928506144
 24
166.4834661399
 34
0.0
 50
90.0
100
AcDbRotatedDimension
  0
DIMENSION
  5
220
330
1F
100
AcDbEntity
  8
0
  6
Continuous
 62
     7
370
     0
100
AcDbDimension
  2
_D_4
 10
177.1098743491
 20
153.9834661399
 30
0.0
 11
177.1098743491
 21
159.699440794
 31
0.0
 70
   160
  1
<>
 71
     2
 42
-1.0
  3
SLDDIMSTYLE2
100
AcDbAlignedDimension
 13
164.0928506144
 23
166.4834661399
 33
0.0
 14
162.3428506144
 24
153.9834661399
 34
0.0
 50
90.0
100
AcDbRotatedDimension
  0
DIMENSION
  5
22B
330
1F
100
AcDbEntity
  8
0
  6
Continuous
 62
     7
370
     0
100
AcDbDimension
  2
_D_5
 10
161.5928506144
 20
143.4018692581
 30
0.0
 11
150.1404958027
 21
143.4018692581
 31
0.0
 70
   160
  1
<>
 71
     2
 42
-1.0
  3
SLDDIMSTYLE3
100
AcDbAlignedDimension
 13
157.0928506144
 23
166.4834661399
 33
0.0
 14
161.5928506144
 24
166.4834661399
 34
0.0
100
AcDbRotatedDimension
  0
DIMENSION
  5
238
330
1F
100
AcDbEntity
  8
0
  6
Continuous
 62
     7
370
     0
100
AcDbDimension
  2
_D_6
 10
164.3428506144
 20
129.6128870827
 30
0.0
 11
140.3428506144
 21
129.6128870827
 31
0.0
 70
   160
  1
<>
 71
     2
 42
-1.0
  3
SLDDIMSTYLE0
100
AcDbAlignedDimension
 13
116.3428506144
 23
155.9834661399
 33
0.0
 14
164.3428506144
 24
155.9834661399
 34
0.0
100
AcDbRotatedDimension
  0
MTEXT
  5
242
330
1F
100
AcDbEntity
  8
0
  6
Continuous
 62
     7
370
     0
100
AcDbMText
 10
93.5932703567
 20
208.9640358188
 30
0.0
 40
3.5
 41
0.0
 71
     1
 72
     1
  1
2-BF-5
  7
SLDTEXTSTYLE1
 73
     1
 44
1.0
  0
LEADER
  5
244
330
1F
100
AcDbEntity
  8
0
  6
Continuous
 62
     7
370
     0
100
AcDbLeader
  3
SLDDIMSTYLE4
 76
     3
 10
120.8428506144
 20
188.878608992
 30
0.0
 10
107.2518248175
 20
204.2883211679
 30
0.0
 10
93.4306569343
 20
204.2883211679
 30
0.0
  0
MTEXT
  5
245
330
1F
100
AcDbEntity
  8
0
  6
Continuous
 62
     7
370
     0
100
AcDbMText
 10
167.5263021466
 20
205.626462784
 30
0.0
 40
3.5
 41
0.0
 71
     1
 72
     1
  1
2-PF
  7
SLDTEXTSTYLE1
 73
     1
 44
1.0
  0
LEADER
  5
246
330
1F
100
AcDbEntity
  8
0
  6
Continuous
 62
     7
370
     0
100
AcDbLeader
  3
SLDDIMSTYLE4
 76
     3
 10
156.6465170099
 20
190.4487625244
 30
0.0
 10
167.0182481752
 20
201.003649635
 30
0.0
 10
176.6423357664
 20
201.003649635
 30
0.0
  0
MTEXT
  5
247
330
1F
100
AcDbEntity
  8
0
  6
Continuous
 62
     7
370
     0
100
AcDbMText
 10
106.3300597736
 20
123.0401665443
 30
0.0
 40
3.5
 41
0.0
 71
     1
 72
     1
  1
M4深8
  7
SLDTEXTSTYLE1
 73
     1
 44
1.0
  0
LEADER
  5
248
330
1F
100
AcDbEntity
  8
0
  6
Continuous
 62
     7
370
     0
100
AcDbLeader
  3
SLDDIMSTYLE4
 76
     3
 10
139.4950137665
 20
147.9834661399
 30
0.0
 10
121.1204379562
 20
118.704379562
 30
0.0
 10
106.204379562
 20
118.704379562
 30
0.0
  0
INSERT
  5
254
330
1F
100
AcDbEntity
  8
0
  6
Continuous
 62
     7
370
     0
100
AcDbBlockReference
  2
SW_CENTERMARKSYMBOL_0
 10
159.3428506144
 20
171.4834661399
 30
0.0
  0
INSERT
  5
260
330
1F
100
AcDbEntity
  8
0
  6
Continuous
 62
     7
370
     0
100
AcDbBlockReference
  2
SW_CENTERMARKSYMBOL_1
 10
159.3428506144
 20
166.4834661399
 30
0.0
  0
LINE
  5
261
330
1F
100
AcDbEntity
  8
0
  6
CENTERX2
 62
     7
370
     0
100
AcDbLine
 10
140.3428506144
 20
198.5843818544
 30
0.0
 11
140.3428506144
 21
146.4834661399
 31
0.0
  0
LINE
  5
262
330
1F
100
AcDbEntity
  8
0
  6
Continuous
 62
     7
370
    15
100
AcDbLine
 10
118.3428498516
 20
82.7765777922
 30
0.0
 11
115.8428522358
 21
82.5265782169
 31
0.0
  0
LINE
  5
263
330
1F
100
AcDbEntity
  8
0
  6
Continuous
 62
     7
370
    15
100
AcDbLine
 10
115.8428522358
 20
79.5265777252
 30
0.0
 11
118.3428498516
 21
79.2765776842
 31
0.0
  0
LINE
  5
264
330
1F
100
AcDbEntity
  8
0
  6
Continuous
 62
     7
370
    15
100
AcDbLine
 10
120.8428511927
 20
82.7765777922
 30
0.0
 11
118.3428498516
 21
82.5265782169
 31
0.0
  0
LINE
  5
265
330
1F
100
AcDbEntity
  8
0
  6
Continuous
 62
     7
370
    15
100
AcDbLine
 10
118.3428498516
 20
79.5265777252
 30
0.0
 11
120.8428511927
 21
79.2765776842
 31
0.0
  0
LINE
  5
266
330
1F
100
AcDbEntity
  8
0
  6
Continuous
 62
     7
370
    15
100
AcDbLine
 10
120.8428511927
 20
79.426577895
 30
0.0
 11
122.8428515205
 21
79.426577895
 31
0.0
  0
LINE
  5
267
330
1F
100
AcDbEntity
  8
0
  6
Continuous
 62
     7
370
    15
100
AcDbLine
 10
122.8428515205
 20
82.626578047
 30
0.0
 11
120.8428511927
 21
82.626578047
 31
0.0
  0
LINE
  5
268
330
1F
100
AcDbEntity
  8
0
  6
Continuous
 62
     7
370
    15
100
AcDbLine
 10
126.1428515026
 20
85.0265776954
 30
0.0
 11
125.342850999
 21
85.0265776954
 31
0.0
  0
LINE
  5
269
330
1F
100
AcDbEntity
  8
0
  6
Continuous
 62
     7
370
    15
100
AcDbLine
 10
125.342850999
 20
77.0265777811
 30
0.0
 11
126.1428515026
 21
77.0265777811
 31
0.0
  0
LINE
  5
26A
330
1F
100
AcDbEntity
  8
0
  6
Continuous
 62
     7
370
    15
100
AcDbLine
 10
155.3428507941
 20
85.0265776954
 30
0.0
 11
154.5428507561
 21
85.0265776954
 31
0.0
  0
LINE
  5
26B
330
1F
100
AcDbEntity
  8
0
  6
Continuous
 62
     7
370
    15
100
AcDbLine
 10
154.5428507561
 20
77.0265777811
 30
0.0
 11
155.3428507941
 21
77.0265777811
 31
0.0
  0
CIRCLE
  5
26C
330
1F
100
AcDbEntity
  8
0
  6
Continuous
 62
     7
370
    15
100
AcDbCircle
 10
146.8428506144
 20
71.7765777635
 30
0.0
 40
1.432283538938787
  0
CIRCLE
  5
26D
330
1F
100
AcDbEntity
  8
0
  6
Continuous
 62
     7
370
    15
100
AcDbCircle
 10
146.8428506144
 20
71.7765777635
 30
0.0
 40
1.135684019913863
  0
LINE
  5
26E
330
1F
100
AcDbEntity
  8
0
  6
Continuous
 62
     7
370
    15
100
AcDbLine
 10
146.4999254858
 20
72.5718151062
 30
0.0
 11
147.3600838399
 21
72.4711782514
 31
0.0
  0
LINE
  5
26F
330
1F
100
AcDbEntity
  8
0
  6
Continuous
 62
     7
370
    15
100
AcDbLine
 10
145.9826924438
 20
71.8772145902
 30
0.0
 11
146.4999254858
 21
72.5718151062
 31
0.0
  0
LINE
  5
270
330
1F
100
AcDbEntity
  8
0
  6
Continuous
 62
     7
370
    15
100
AcDbLine
 10
146.3256175229
 20
71.0819772194
 30
0.0
 11
145.9826924438
 21
71.8772145902
 31
0.0
  0
LINE
  5
271
330
1F
100
AcDbEntity
  8
0
  6
Continuous
 62
     7
370
    15
100
AcDbLine
 10
147.1857756441
 20
70.9813403647
 30
0.0
 11
146.3256175229
 21
71.0819772194
 31
0.0
  0
LINE
  5
272
330
1F
100
AcDbEntity
  8
0
  6
Continuous
 62
     7
370
    15
100
AcDbLine
 10
147.703008919
 20
71.6759408807
 30
0.0
 11
147.1857756441
 21
70.9813403647
 31
0.0
  0
LINE
  5
273
330
1F
100
AcDbEntity
  8
0
  6
Continuous
 62
     7
370
    15
100
AcDbLine
 10
147.3600838399
 20
72.4711782514
 30
0.0
 11
147.703008919
 21
71.6759408807
 31
0.0
  0
CIRCLE
  5
274
330
1F
100
AcDbEntity
  8
0
  6
Continuous
 62
     7
370
    15
100
AcDbCircle
 10
146.8428506144
 20
71.7765777635
 30
0.0
 40
1.843199038049869
  0
CIRCLE
  5
275
330
1F
100
AcDbEntity
  8
0
  6
Continuous
 62
     7
370
    15
100
AcDbCircle
 10
146.8428506144
 20
71.7765777635
 30
0.0
 40
2.249999999999994
  0
ARC
  5
276
330
1F
100
AcDbEntity
  8
0
  6
Continuous
 62
     7
370
    15
100
AcDbCircle
 10
146.8428506144
 20
71.7765777635
 30
0.0
 40
0.7499999999999856
100
AcDbArc
 50
323.3268446696
 51
23.3268446696
  0
ARC
  5
277
330
1F
100
AcDbEntity
  8
0
  6
Continuous
 62
     7
370
    15
100
AcDbCircle
 10
146.8428506144
 20
71.7765777635
 30
0.0
 40
0.749999999999998
100
AcDbArc
 50
263.3268446696
 51
323.3268446696
  0
ARC
  5
278
330
1F
100
AcDbEntity
  8
0
  6
Continuous
 62
     7
370
    15
100
AcDbCircle
 10
146.8428506144
 20
71.7765777635
 30
0.0
 40
0.749999999999998
100
AcDbArc
 50
203.3268446696
 51
263.3268446696
  0
ARC
  5
279
330
1F
100
AcDbEntity
  8
0
  6
Continuous
 62
     7
370
    15
100
AcDbCircle
 10
146.8428506144
 20
71.7765777635
 30
0.0
 40
0.7500000000000112
100
AcDbArc
 50
143.3268446696
 51
203.3268446696
  0
ARC
  5
27A
330
1F
100
AcDbEntity
  8
0
  6
Continuous
 62
     7
370
    15
100
AcDbCircle
 10
146.8428506144
 20
71.7765777635
 30
0.0
 40
0.7500000000000121
100
AcDbArc
 50
83.3268446696
 51
143.3268446696
  0
ARC
  5
27B
330
1F
100
AcDbEntity
  8
0
  6
Continuous
 62
     7
370
    15
100
AcDbCircle
 10
146.8428506144
 20
71.7765777635
 30
0.0
 40
0.7500000000000121
100
AcDbArc
 50
23.3268446696
 51
83.3268446696
  0
LINE
  5
27C
330
1F
100
AcDbEntity
  8
0
  6
Continuous
 62
     7
370
    15
100
AcDbLine
 10
162.3428505445
 20
64.5265780605
 30
0.0
 11
162.3428505445
 21
68.0265777028
 31
0.0
  0
LINE
  5
27D
330
1F
100
AcDbEntity
  8
0
  6
Continuous
 62
     7
370
    15
100
AcDbLine
 10
162.3428505445
 20
68.0265777028
 30
0.0
 11
163.3428507084
 21
68.0265777028
 31
0.0
  0
ARC
  5
27E
330
1F
100
AcDbEntity
  8
0
  6
Continuous
 62
     7
370
    15
100
AcDbCircle
 10
163.3428506144
 20
67.0265777635
 30
0.0
 40
1.0
100
AcDbArc
 50
0.0
 51
90.0
  0
LINE
  5
27F
330
1F
100
AcDbEntity
  8
0
  6
Continuous
 62
     7
370
    15
100
AcDbLine
 10
164.3428508723
 20
67.0265775389
 30
0.0
 11
164.3428508723
 21
64.5265780605
 31
0.0
  0
LINE
  5
280
330
1F
100
AcDbEntity
  8
0
  6
Continuous
 62
     7
370
    15
100
AcDbLine
 10
164.3428508723
 20
64.5265780605
 30
0.0
 11
162.3428505445
 21
64.5265780605
 31
0.0
  0
LINE
  5
281
330
1F
100
AcDbEntity
  8
0
  6
Continuous
 62
     7
370
    15
100
AcDbLine
 10
117.3428515503
 20
68.0265777028
 30
0.0
 11
118.3428498516
 21
68.0265777028
 31
0.0
  0
LINE
  5
282
330
1F
100
AcDbEntity
  8
0
  6
Continuous
 62
     7
370
    15
100
AcDbLine
 10
118.3428498516
 20
68.0265777028
 30
0.0
 11
118.3428498516
 21
64.5265780605
 31
0.0
  0
LINE
  5
283
330
1F
100
AcDbEntity
  8
0
  6
Continuous
 62
     7
370
    15
100
AcDbLine
 10
118.3428498516
 20
64.5265780605
 30
0.0
 11
116.3428495238
 21
64.5265780605
 31
0.0
  0
LINE
  5
284
330
1F
100
AcDbEntity
  8
0
  6
Continuous
 62
     7
370
    15
100
AcDbLine
 10
116.3428495238
 20
64.5265780605
 30
0.0
 11
116.3428495238
 21
67.0265775389
 31
0.0
  0
ARC
  5
285
330
1F
100
AcDbEntity
  8
0
  6
Continuous
 62
     7
370
    15
100
AcDbCircle
 10
117.3428506144
 20
67.0265777635
 30
0.0
 40
1.0
100
AcDbArc
 50
90.0
 51
180.0
  0
ARC
  5
286
330
1F
100
AcDbEntity
  8
0
  6
Continuous
 62
     7
370
    15
100
AcDbCircle
 10
154.6162041536
 20
72.2850272085
 30
0.0
 40
3.0
100
AcDbArc
 50
190.7803039923
 51
220.9981734199
  0
LINE
  5
287
330
1F
100
AcDbEntity
  8
0
  6
Continuous
 62
     7
370
    15
100
AcDbLine
 10
154.0438658157
 20
68.3705426036
 30
0.0
 11
152.3520126538
 21
70.3169222671
 31
0.0
  0
ARC
  5
288
330
1F
100
AcDbEntity
  8
0
  6
Continuous
 62
     7
370
    15
100
AcDbCircle
 10
154.7985961205
 20
69.0265777635
 30
0.0
 40
1.0
100
AcDbArc
 50
220.9981734199
 51
270.0
  0
LINE
  5
289
330
1F
100
AcDbEntity
  8
0
  6
Continuous
 62
     7
370
    15
100
AcDbLine
 10
162.3428505445
 20
68.0265777028
 30
0.0
 11
154.798596126
 21
68.0265777028
 31
0.0
  0
LINE
  5
28A
330
1F
100
AcDbEntity
  8
0
  6
Continuous
 62
     7
370
    15
100
AcDbLine
 10
154.1149778822
 20
64.5265780605
 30
0.0
 11
162.3428505445
 21
64.5265780605
 31
0.0
  0
ARC
  5
28B
330
1F
100
AcDbEntity
  8
0
  6
Continuous
 62
     7
370
    15
100
AcDbCircle
 10
154.1149778613
 20
67.5265777635
 30
0.0
 40
3.0
100
AcDbArc
 50
220.9981734199
 51
270.0
  0
LINE
  5
28C
330
1F
100
AcDbEntity
  8
0
  6
Continuous
 62
     7
370
    15
100
AcDbLine
 10
148.7005725102
 20
69.1826125822
 30
0.0
 11
151.8507864857
 21
65.5584732286
 31
0.0
  0
ARC
  5
28D
330
1F
100
AcDbEntity
  8
0
  6
Continuous
 62
     7
370
    15
100
AcDbCircle
 10
147.9458419908
 20
68.5265777635
 30
0.0
 40
1.000000000000012
100
AcDbArc
 50
40.9981734199
 51
86.0869570946
  0
LINE
  5
28E
330
1F
100
AcDbEntity
  8
0
  6
Continuous
 62
     7
370
    15
100
AcDbLine
 10
148.014084396
 20
69.5242463826
 30
0.0
 11
148.012738402
 21
69.5265779487
 31
0.0
  0
LINE
  5
28F
330
1F
100
AcDbEntity
  8
0
  6
Continuous
 62
     7
370
    15
100
AcDbLine
 10
132.6729631582
 20
69.5265779487
 30
0.0
 11
132.6716164658
 21
69.5242463826
 31
0.0
  0
ARC
  5
290
330
1F
100
AcDbEntity
  8
0
  6
Continuous
 62
     7
370
    15
100
AcDbCircle
 10
132.7398592379
 20
68.5265777635
 30
0.0
 40
1.000000000000008
100
AcDbArc
 50
93.9130429053
 51
139.0018265801
  0
LINE
  5
291
330
1F
100
AcDbEntity
  8
0
  6
Continuous
 62
     7
370
    15
100
AcDbLine
 10
128.834915773
 20
65.5584732286
 30
0.0
 11
131.9851292828
 21
69.1826125822
 31
0.0
  0
ARC
  5
292
330
1F
100
AcDbEntity
  8
0
  6
Continuous
 62
     7
370
    15
100
AcDbCircle
 10
126.5707233674
 20
67.5265777635
 30
0.0
 40
3.000000000000015
100
AcDbArc
 50
270.0
 51
319.0018265801
  0
LINE
  5
293
330
1F
100
AcDbEntity
  8
0
  6
Continuous
 62
     7
370
    15
100
AcDbLine
 10
125.8871047357
 20
68.0265777028
 30
0.0
 11
118.3428498516
 21
68.0265777028
 31
0.0
  0
ARC
  5
294
330
1F
100
AcDbEntity
  8
0
  6
Continuous
 62
     7
370
    15
100
AcDbCircle
 10
125.8871051083
 20
69.0265777635
 30
0.0
 40
1.0
100
AcDbArc
 50
270.0
 51
319.0018265801
  0
LINE
  5
295
330
1F
100
AcDbEntity
  8
0
  6
Continuous
 62
     7
370
    15
100
AcDbLine
 10
128.3336891392
 20
70.3169222671
 30
0.0
 11
126.6418355117
 21
68.3705426036
 31
0.0
  0
ARC
  5
296
330
1F
100
AcDbEntity
  8
0
  6
Continuous
 62
     7
370
    15
100
AcDbCircle
 10
126.0694970751
 20
72.2850272085
 30
0.0
 40
2.999999999999997
100
AcDbArc
 50
319.0018265801
 51
349.2196960077
  0
LINE
  5
297
330
1F
100
AcDbEntity
  8
0
  6
Continuous
 62
     7
370
    15
100
AcDbLine
 10
118.3428498516
 20
64.5265780605
 30
0.0
 11
126.5707234452
 21
64.5265780605
 31
0.0
  0
LINE
  5
298
330
1F
100
AcDbEntity
  8
0
  6
Continuous
 62
     7
370
    15
100
AcDbLine
 10
155.3428507941
 20
78.6858793563
 30
0.0
 11
157.8428507382
 21
78.6858793563
 31
0.0
  0
LINE
  5
299
330
1F
100
AcDbEntity
  8
0
  6
Continuous
 62
     7
370
    15
100
AcDbLine
 10
155.3428507941
 20
82.7185219369
 30
0.0
 11
155.3428507941
 21
82.6170096389
 31
0.0
  0
LINE
  5
29A
330
1F
100
AcDbEntity
  8
0
  6
Continuous
 62
     7
370
    15
100
AcDbLine
 10
155.3428507941
 20
78.7873916543
 30
0.0
 11
155.3428507941
 21
78.6858793563
 31
0.0
  0
LINE
  5
29B
330
1F
100
AcDbEntity
  8
0
  6
Continuous
 62
     7
370
    15
100
AcDbLine
 10
155.3428507941
 20
82.7185219369
 30
0.0
 11
157.8428507382
 21
82.7185219369
 31
0.0
  0
LINE
  5
29C
330
1F
100
AcDbEntity
  8
0
  6
Continuous
 62
     7
370
    15
100
AcDbLine
 10
157.8428507382
 20
82.7185219369
 30
0.0
 11
157.8428507382
 21
78.6858793563
 31
0.0
  0
LINE
  5
29D
330
1F
100
AcDbEntity
  8
0
  6
Continuous
 62
     7
370
    15
100
AcDbLine
 10
155.3428507941
 20
85.0592205516
 30
0.0
 11
155.3428507941
 21
85.0002985663
 31
0.0
  0
LINE
  5
29E
330
1F
100
AcDbEntity
  8
0
  6
Continuous
 62
     7
370
    15
100
AcDbLine
 10
155.3428507941
 20
82.7774439222
 30
0.0
 11
155.3428507941
 21
82.7185219369
 31
0.0
  0
LINE
  5
29F
330
1F
100
AcDbEntity
  8
0
  6
Continuous
 62
     7
370
    15
100
AcDbLine
 10
155.3428507941
 20
85.0592205516
 30
0.0
 11
157.8428507382
 21
85.0592205516
 31
0.0
  0
LINE
  5
2A0
330
1F
100
AcDbEntity
  8
0
  6
Continuous
 62
     7
370
    15
100
AcDbLine
 10
157.8428507382
 20
85.0592205516
 30
0.0
 11
157.8428507382
 21
82.7185219369
 31
0.0
  0
LINE
  5
2A1
330
1F
100
AcDbEntity
  8
0
  6
Continuous
 62
     7
370
    15
100
AcDbLine
 10
155.3428507941
 20
76.9939351576
 30
0.0
 11
157.8428507382
 21
76.9939351576
 31
0.0
  0
LINE
  5
2A2
330
1F
100
AcDbEntity
  8
0
  6
Continuous
 62
     7
370
    15
100
AcDbLine
 10
155.3428507941
 20
78.6858793563
 30
0.0
 11
155.3428507941
 21
78.6432890437
 31
0.0
  0
LINE
  5
2A3
330
1F
100
AcDbEntity
  8
0
  6
Continuous
 62
     7
370
    15
100
AcDbLine
 10
155.3428507941
 20
77.0265777811
 30
0.0
 11
155.3428507941
 21
76.9939351576
 31
0.0
  0
LINE
  5
2A4
330
1F
100
AcDbEntity
  8
0
  6
Continuous
 62
     7
370
    15
100
AcDbLine
 10
157.8428507382
 20
78.6858793563
 30
0.0
 11
157.8428507382
 21
76.9939351576
 31
0.0
  0
LINE
  5
2A5
330
1F
100
AcDbEntity
  8
0
  6
Continuous
 62
     7
370
    15
100
AcDbLine
 10
132.9826931069
 20
90.3772140137
 30
0.0
 11
133.4999254504
 21
91.0718148789
 31
0.0
  0
LINE
  5
2A6
330
1F
100
AcDbEntity
  8
0
  6
Continuous
 62
     7
370
    15
100
AcDbLine
 10
134.1857756088
 20
89.4813413016
 30
0.0
 11
133.3256172547
 21
89.5819781563
 31
0.0
  0
LINE
  5
2A7
330
1F
100
AcDbEntity
  8
0
  6
Continuous
 62
     7
370
    15
100
AcDbLine
 10
134.7030088836
 20
90.1759403042
 30
0.0
 11
134.1857756088
 21
89.4813413016
 31
0.0
  0
LINE
  5
2A8
330
1F
100
AcDbEntity
  8
0
  6
Continuous
 62
     7
370
    15
100
AcDbLine
 10
134.3600838045
 20
90.9711780242
 30
0.0
 11
134.7030088836
 21
90.1759403042
 31
0.0
  0
LINE
  5
2A9
330
1F
100
AcDbEntity
  8
0
  6
Continuous
 62
     7
370
    15
100
AcDbLine
 10
133.4999254504
 20
91.0718148789
 30
0.0
 11
134.3600838045
 21
90.9711780242
 31
0.0
  0
CIRCLE
  5
2AA
330
1F
100
AcDbEntity
  8
0
  6
Continuous
 62
     7
370
    15
100
AcDbCircle
 10
133.8428506144
 20
90.2765777635
 30
0.0
 40
1.135684019913843
  0
LINE
  5
2AB
330
1F
100
AcDbEntity
  8
0
  6
Continuous
 62
     7
370
    15
100
AcDbLine
 10
133.3256172547
 20
89.5819781563
 30
0.0
 11
132.9826931069
 21
90.3772140137
 31
0.0
  0
CIRCLE
  5
2AC
330
1F
100
AcDbEntity
  8
0
  6
Continuous
 62
     7
370
    15
100
AcDbCircle
 10
133.8428506144
 20
90.2765777635
 30
0.0
 40
1.432283538938787
  0
CIRCLE
  5
2AD
330
1F
100
AcDbEntity
  8
0
  6
Continuous
 62
     7
370
    15
100
AcDbCircle
 10
133.8428506144
 20
90.2765777635
 30
0.0
 40
1.843199038049828
  0
CIRCLE
  5
2AE
330
1F
100
AcDbEntity
  8
0
  6
Continuous
 62
     7
370
    15
100
AcDbCircle
 10
133.8428506144
 20
90.2765777635
 30
0.0
 40
2.250000000000015
  0
ARC
  5
2AF
330
1F
100
AcDbEntity
  8
0
  6
Continuous
 62
     7
370
    15
100
AcDbCircle
 10
133.8428506144
 20
90.2765777635
 30
0.0
 40
0.7500000000000061
100
AcDbArc
 50
23.3268446696
 51
83.3268446696
  0
ARC
  5
2B0
330
1F
100
AcDbEntity
  8
0
  6
Continuous
 62
     7
370
    15
100
AcDbCircle
 10
133.8428506144
 20
90.2765777635
 30
0.0
 40
0.7500000000000112
100
AcDbArc
 50
323.3268446696
 51
23.3268446696
  0
ARC
  5
2B1
330
1F
100
AcDbEntity
  8
0
  6
Continuous
 62
     7
370
    15
100
AcDbCircle
 10
133.8428506144
 20
90.2765777635
 30
0.0
 40
0.7500000000000112
100
AcDbArc
 50
263.3268446696
 51
323.3268446696
  0
ARC
  5
2B2
330
1F
100
AcDbEntity
  8
0
  6
Continuous
 62
     7
370
    15
100
AcDbCircle
 10
133.8428506144
 20
90.2765777635
 30
0.0
 40
0.7500000000000089
100
AcDbArc
 50
203.3268446696
 51
263.3268446696
  0
ARC
  5
2B3
330
1F
100
AcDbEntity
  8
0
  6
Continuous
 62
     7
370
    15
100
AcDbCircle
 10
133.8428506144
 20
90.2765777635
 30
0.0
 40
0.749999999999998
100
AcDbArc
 50
83.3268446696
 51
143.3268446696
  0
ARC
  5
2B4
330
1F
100
AcDbEntity
  8
0
  6
Continuous
 62
     7
370
    15
100
AcDbCircle
 10
133.8428506144
 20
90.2765777635
 30
0.0
 40
0.7499999999999912
100
AcDbArc
 50
143.3268446696
 51
203.3268446696
  0
ARC
  5
2B5
330
1F
100
AcDbEntity
  8
0
  6
Continuous
 62
     7
370
    15
100
AcDbCircle
 10
140.3428506144
 20
81.0265777635
 30
0.0
 40
3.999999999999996
100
AcDbArc
 50
221.4096221093
 51
228.5903778907
  0
SPLINE
  5
2B6
330
1F
100
AcDbEntity
  8
0
  6
Continuous
 62
     7
370
    15
100
AcDbSpline
210
0.0
220
0.0
230
1.0
 70
    24
 71
     3
 72
     8
 73
     4
 74
     0
 42
0.00000001
 43
0.00000001
 12
1.0
 22
0.0
 32
0.0
 13
1.0
 23
0.0
 33
0.0
 40
0.0
 40
0.0
 40
0.0
 40
0.0
 40
1.0
 40
1.0
 40
1.0
 40
1.0
 10
137.3428506143566
 20
78.38082645247516
 30
0.0
 10
137.3428506143566
 20
78.65364245199605
 30
0.0
 10
137.3428506143566
 20
78.93284503085529
 30
0.0
 10
137.3428506143566
 20
79.22380212580775
 30
0.0
  0
ARC
  5
2B7
330
1F
100
AcDbEntity
  8
0
  6
Continuous
 62
     7
370
    15
100
AcDbCircle
 10
140.3428506144
 20
81.0265777635
 30
0.0
 40
3.499999999999994
100
AcDbArc
 50
211.0027191339
 51
238.9972808661
  0
SPLINE
  5
2B8
330
1F
100
AcDbEntity
  8
0
  6
Continuous
 62
     7
370
    15
100
AcDbSpline
210
0.0
220
0.0
230
1.0
 70
    24
 71
     3
 72
     8
 73
     4
 74
     0
 42
0.00000001
 43
0.00000001
 12
1.0
 22
0.0
 32
0.0
 13
1.0
 23
0.0
 33
0.0
 40
0.0
 40
0.0
 40
0.0
 40
0.0
 40
1.0
 40
1.0
 40
1.0
 40
1.0
 10
138.5400749766246
 20
78.02657776353975
 30
0.0
 10
138.2491178816722
 20
78.02657776353975
 30
0.0
 10
137.9699153028129
 20
78.02657776353975
 30
0.0
 10
137.697099303292
 20
78.02657776353975
 30
0.0
  0
ARC
  5
2B9
330
1F
100
AcDbEntity
  8
0
  6
Continuous
 62
     7
370
    15
100
AcDbCircle
 10
140.3428506144
 20
81.0265777635
 30
0.0
 40
3.999999999999997
100
AcDbArc
 50
41.4096221093
 51
48.5903778907
  0
SPLINE
  5
2BA
330
1F
100
AcDbEntity
  8
0
  6
Continuous
 62
     7
370
    15
100
AcDbSpline
210
0.0
220
0.0
230
1.0
 70
    24
 71
     3
 72
     8
 73
     4
 74
     0
 42
0.00000001
 43
0.00000001
 12
1.0
 22
0.0
 32
0.0
 13
1.0
 23
0.0
 33
0.0
 40
0.0
 40
0.0
 40
0.0
 40
0.0
 40
1.0
 40
1.0
 40
1.0
 40
1.0
 10
143.3428506143566
 20
83.67232907460432
 30
0.0
 10
143.3428506143566
 20
83.39951307508343
 30
0.0
 10
143.3428506143566
 20
83.12031049622419
 30
0.0
 10
143.3428506143566
 20
82.82935340127175
 30
0.0
  0
ARC
  5
2BB
330
1F
100
AcDbEntity
  8
0
  6
Continuous
 62
     7
370
    15
100
AcDbCircle
 10
140.3428506144
 20
81.0265777635
 30
0.0
 40
3.500000000000008
100
AcDbArc
 50
31.0027191339
 51
58.9972808661
  0
SPLINE
  5
2BC
330
1F
100
AcDbEntity
  8
0
  6
Continuous
 62
     7
370
    15
100
AcDbSpline
210
0.0
220
0.0
230
1.0
 70
    24
 71
     3
 72
     8
 73
     4
 74
     0
 42
0.00000001
 43
0.00000001
 12
1.0
 22
0.0
 32
0.0
 13
1.0
 23
0.0
 33
0.0
 40
0.0
 40
0.0
 40
0.0
 40
0.0
 40
1.0
 40
1.0
 40
1.0
 40
1.0
 10
142.1456262520886
 20
84.02657776353973
 30
0.0
 10
142.4365833470411
 20
84.02657776353973
 30
0.0
 10
142.7157859259003
 20
84.02657776353973
 30
0.0
 10
142.9886019254212
 20
84.02657776353973
 30
0.0
  0
ARC
  5
2BD
330
1F
100
AcDbEntity
  8
0
  6
Continuous
 62
     7
370
    15
100
AcDbCircle
 10
140.3428506144
 20
81.0265777635
 30
0.0
 40
3.500000000000016
100
AcDbArc
 50
121.0027191339
 51
148.9972808661
  0
ARC
  5
2BE
330
1F
100
AcDbEntity
  8
0
  6
Continuous
 62
     7
370
    15
100
AcDbCircle
 10
140.3428506144
 20
81.0265777635
 30
0.0
 40
3.500000000000001
100
AcDbArc
 50
301.0027191339
 51
328.9972808661
  0
LINE
  5
2BF
330
1F
100
AcDbEntity
  8
0
  6
Continuous
 62
     7
370
    15
100
AcDbLine
 10
143.3428506898
 20
79.2238019622
 30
0.0
 11
143.3428506898
 21
82.8293530486
 31
0.0
  0
LINE
  5
2C0
330
1F
100
AcDbEntity
  8
0
  6
Continuous
 62
     7
370
    15
100
AcDbLine
 10
137.342850172
 20
82.8293530486
 30
0.0
 11
137.342850172
 21
79.2238019622
 31
0.0
  0
LINE
  5
2C1
330
1F
100
AcDbEntity
  8
0
  6
Continuous
 62
     7
370
    15
100
AcDbLine
 10
138.5400746549
 20
78.026577945
 30
0.0
 11
142.1456262069
 21
78.026577945
 31
0.0
  0
LINE
  5
2C2
330
1F
100
AcDbEntity
  8
0
  6
Continuous
 62
     7
370
    15
100
AcDbLine
 10
142.1456262069
 20
84.0265775315
 30
0.0
 11
138.5400746549
 21
84.0265775315
 31
0.0
  0
CIRCLE
  5
2C3
330
1F
100
AcDbEntity
  8
0
  6
Continuous
 62
     7
370
    15
100
AcDbCircle
 10
140.3428506144
 20
81.0265777635
 30
0.0
 40
1.649999999999977
  0
ARC
  5
2C4
330
1F
100
AcDbEntity
  8
0
  6
Continuous
 62
     7
370
    15
100
AcDbCircle
 10
140.3428506144
 20
81.0265777635
 30
0.0
 40
4.000000000000006
100
AcDbArc
 50
131.4096221093
 51
138.5903778907
  0
SPLINE
  5
2C5
330
1F
100
AcDbEntity
  8
0
  6
Continuous
 62
     7
370
    15
100
AcDbSpline
210
0.0
220
0.0
230
1.0
 70
    24
 71
     3
 72
     8
 73
     4
 74
     0
 42
0.00000001
 43
0.00000001
 12
1.0
 22
0.0
 32
0.0
 13
1.0
 23
0.0
 33
0.0
 40
0.0
 40
0.0
 40
0.0
 40
0.0
 40
1.0
 40
1.0
 40
1.0
 40
1.0
 10
137.3428506143566
 20
82.82935340127175
 30
0.0
 10
137.3428506143566
 20
83.12031049622419
 30
0.0
 10
137.3428506143566
 20
83.39951307508343
 30
0.0
 10
137.3428506143566
 20
83.67232907460433
 30
0.0
  0
SPLINE
  5
2C6
330
1F
100
AcDbEntity
  8
0
  6
Continuous
 62
     7
370
    15
100
AcDbSpline
210
0.0
220
0.0
230
1.0
 70
    24
 71
     3
 72
     8
 73
     4
 74
     0
 42
0.00000001
 43
0.00000001
 12
1.0
 22
0.0
 32
0.0
 13
1.0
 23
0.0
 33
0.0
 40
0.0
 40
0.0
 40
0.0
 40
0.0
 40
1.0
 40
1.0
 40
1.0
 40
1.0
 10
137.697099303292
 20
84.02657776353973
 30
0.0
 10
137.9699153028129
 20
84.02657776353973
 30
0.0
 10
138.2491178816722
 20
84.02657776353973
 30
0.0
 10
138.5400749766246
 20
84.02657776353973
 30
0.0
  0
ARC
  5
2C7
330
1F
100
AcDbEntity
  8
0
  6
Continuous
 62
     7
370
    15
100
AcDbCircle
 10
140.3428506144
 20
81.0265777635
 30
0.0
 40
3.999999999999997
100
AcDbArc
 50
311.4096221093
 51
318.5903778907
  0
SPLINE
  5
2C8
330
1F
100
AcDbEntity
  8
0
  6
Continuous
 62
     7
370
    15
100
AcDbSpline
210
0.0
220
0.0
230
1.0
 70
    24
 71
     3
 72
     8
 73
     4
 74
     0
 42
0.00000001
 43
0.00000001
 12
1.0
 22
0.0
 32
0.0
 13
1.0
 23
0.0
 33
0.0
 40
0.0
 40
0.0
 40
0.0
 40
0.0
 40
1.0
 40
1.0
 40
1.0
 40
1.0
 10
143.3428506143566
 20
79.22380212580774
 30
0.0
 10
143.3428506143566
 20
78.93284503085529
 30
0.0
 10
143.3428506143566
 20
78.65364245199605
 30
0.0
 10
143.3428506143566
 20
78.38082645247515
 30
0.0
  0
SPLINE
  5
2C9
330
1F
100
AcDbEntity
  8
0
  6
Continuous
 62
     7
370
    15
100
AcDbSpline
210
0.0
220
0.0
230
1.0
 70
    24
 71
     3
 72
     8
 73
     4
 74
     0
 42
0.00000001
 43
0.00000001
 12
1.0
 22
0.0
 32
0.0
 13
1.0
 23
0.0
 33
0.0
 40
0.0
 40
0.0
 40
0.0
 40
0.0
 40
1.0
 40
1.0
 40
1.0
 40
1.0
 10
142.9886019254212
 20
78.02657776353973
 30
0.0
 10
142.7157859259003
 20
78.02657776353973
 30
0.0
 10
142.4365833470411
 20
78.02657776353973
 30
0.0
 10
142.1456262520886
 20
78.02657776353973
 30
0.0
  0
LINE
  5
2CA
330
1F
100
AcDbEntity
  8
0
  6
Continuous
 62
     7
370
    15
100
AcDbLine
 10
145.9826924438
 20
90.3772140137
 30
0.0
 11
146.4999254858
 21
91.0718148789
 31
0.0
  0
LINE
  5
2CB
330
1F
100
AcDbEntity
  8
0
  6
Continuous
 62
     7
370
    15
100
AcDbLine
 10
146.3256175229
 20
89.5819781563
 30
0.0
 11
145.9826924438
 21
90.3772140137
 31
0.0
  0
LINE
  5
2CC
330
1F
100
AcDbEntity
  8
0
  6
Continuous
 62
     7
370
    15
100
AcDbLine
 10
147.1857756441
 20
89.4813413016
 30
0.0
 11
146.3256175229
 21
89.5819781563
 31
0.0
  0
LINE
  5
2CD
330
1F
100
AcDbEntity
  8
0
  6
Continuous
 62
     7
370
    15
100
AcDbLine
 10
147.703008919
 20
90.1759403042
 30
0.0
 11
147.1857756441
 21
89.4813413016
 31
0.0
  0
LINE
  5
2CE
330
1F
100
AcDbEntity
  8
0
  6
Continuous
 62
     7
370
    15
100
AcDbLine
 10
147.3600838399
 20
90.9711780242
 30
0.0
 11
147.703008919
 21
90.1759403042
 31
0.0
  0
LINE
  5
2CF
330
1F
100
AcDbEntity
  8
0
  6
Continuous
 62
     7
370
    15
100
AcDbLine
 10
146.4999254858
 20
91.0718148789
 30
0.0
 11
147.3600838399
 21
90.9711780242
 31
0.0
  0
CIRCLE
  5
2D0
330
1F
100
AcDbEntity
  8
0
  6
Continuous
 62
     7
370
    15
100
AcDbCircle
 10
146.8428506144
 20
90.2765777635
 30
0.0
 40
1.135684019913869
  0
CIRCLE
  5
2D1
330
1F
100
AcDbEntity
  8
0
  6
Continuous
 62
     7
370
    15
100
AcDbCircle
 10
146.8428506144
 20
90.2765777635
 30
0.0
 40
1.432283538938787
  0
CIRCLE
  5
2D2
330
1F
100
AcDbEntity
  8
0
  6
Continuous
 62
     7
370
    15
100
AcDbCircle
 10
146.8428506144
 20
90.2765777635
 30
0.0
 40
1.84319903804988
  0
CIRCLE
  5
2D3
330
1F
100
AcDbEntity
  8
0
  6
Continuous
 62
     7
370
    15
100
AcDbCircle
 10
146.8428506144
 20
90.2765777635
 30
0.0
 40
2.249999999999962
  0
ARC
  5
2D4
330
1F
100
AcDbEntity
  8
0
  6
Continuous
 62
     7
370
    15
100
AcDbCircle
 10
146.8428506144
 20
90.2765777635
 30
0.0
 40
0.7500000000000027
100
AcDbArc
 50
143.3268446696
 51
203.3268446696
  0
ARC
  5
2D5
330
1F
100
AcDbEntity
  8
0
  6
Continuous
 62
     7
370
    15
100
AcDbCircle
 10
146.8428506144
 20
90.2765777635
 30
0.0
 40
0.7500000000000121
100
AcDbArc
 50
263.3268446696
 51
323.3268446696
  0
ARC
  5
2D6
330
1F
100
AcDbEntity
  8
0
  6
Continuous
 62
     7
370
    15
100
AcDbCircle
 10
146.8428506144
 20
90.2765777635
 30
0.0
 40
0.7500000000000121
100
AcDbArc
 50
203.3268446696
 51
263.3268446696
  0
ARC
  5
2D7
330
1F
100
AcDbEntity
  8
0
  6
Continuous
 62
     7
370
    15
100
AcDbCircle
 10
146.8428506144
 20
90.2765777635
 30
0.0
 40
0.7499999999999883
100
AcDbArc
 50
323.3268446696
 51
23.3268446696
  0
ARC
  5
2D8
330
1F
100
AcDbEntity
  8
0
  6
Continuous
 62
     7
370
    15
100
AcDbCircle
 10
146.8428506144
 20
90.2765777635
 30
0.0
 40
0.7500000000000027
100
AcDbArc
 50
83.3268446696
 51
143.3268446696
  0
ARC
  5
2D9
330
1F
100
AcDbEntity
  8
0
  6
Continuous
 62
     7
370
    15
100
AcDbCircle
 10
146.8428506144
 20
90.2765777635
 30
0.0
 40
0.749999999999998
100
AcDbArc
 50
23.3268446696
 51
83.3268446696
  0
ARC
  5
2DA
330
1F
100
AcDbEntity
  8
0
  6
Continuous
 62
     7
370
    15
100
AcDbCircle
 10
133.6804888756
 20
77.5823164405
 30
0.0
 40
1.000000000000014
100
AcDbArc
 50
305.0
 51
27.3377443392
  0
LWPOLYLINE
  5
2DB
330
1F
100
AcDbEntity
  8
0
  6
Continuous
 62
     7
370
    15
100
AcDbPolyline
 90
        9
 70
   128
 43
0.0
 10
134.568803438
 20
78.0415512837
 10
134.5773380781
 20
78.0459634244
 10
134.6026132414
 20
78.0590298801
 10
134.6436575586
 20
78.080248668
 10
134.6988943005
 20
78.1088048807
 10
134.766200983
 20
78.1436000235
 10
134.8429894606
 20
78.1832981139
 10
134.9263102347
 20
78.2263727143
 10
135.0129614184
 20
78.2711688644
  0
ARC
  5
2DC
330
1F
100
AcDbEntity
  8
0
  6
Continuous
 62
     7
370
    15
100
AcDbCircle
 10
133.6804888756
 20
77.5823164405
 30
0.0
 40
1.500000000000015
100
AcDbArc
 50
305.0
 51
27.3377443392
  0
LWPOLYLINE
  5
2DD
330
1F
100
AcDbEntity
  8
0
  6
Continuous
 62
     7
370
    15
100
AcDbPolyline
 90
        9
 70
   128
 43
0.0
 10
134.5408535162
 20
76.353588489
 10
134.4849043125
 20
76.4334927063
 10
134.4311046014
 20
76.510326353
 10
134.3815228501
 20
76.581136671
 10
134.3380636135
 20
76.6432023357
 10
134.3023976842
 20
76.6941384628
 10
134.275895969
 20
76.7319871794
 10
134.2595754722
 20
76.7552944581
 10
134.2540657679
 20
76.7631643667
  0
ARC
  5
2DE
330
1F
100
AcDbEntity
  8
0
  6
Continuous
 62
     7
370
    15
100
AcDbCircle
 10
147.0052123532
 20
77.5823164405
 30
0.0
 40
0.999999999999998
100
AcDbArc
 50
152.6622556608
 51
235.0
  0
LWPOLYLINE
  5
2DF
330
1F
100
AcDbEntity
  8
0
  6
Continuous
 62
     7
370
    15
100
AcDbPolyline
 90
        9
 70
   128
 43
0.0
 10
146.4316360252
 20
76.7631643667
 10
146.4261253895
 20
76.7552944581
 10
146.4098053584
 20
76.7319871794
 10
146.3833034104
 20
76.6941384628
 10
146.3476374811
 20
76.6432023357
 10
146.3041787101
 20
76.581136671
 10
146.254596726
 20
76.510326353
 10
146.2007972477
 20
76.4334927063
 10
146.1448478112
 20
76.353588489
  0
ARC
  5
2E0
330
1F
100
AcDbEntity
  8
0
  6
Continuous
 62
     7
370
    15
100
AcDbCircle
 10
147.0052123532
 20
77.5823164405
 30
0.0
 40
1.499999999999994
100
AcDbArc
 50
152.6622556608
 51
235.0
  0
LWPOLYLINE
  5
2E1
330
1F
100
AcDbEntity
  8
0
  6
Continuous
 62
     7
370
    15
100
AcDbPolyline
 90
        9
 70
   128
 43
0.0
 10
146.1168974237
 20
78.0415512837
 10
146.1083630165
 20
78.0459634244
 10
146.083088086
 20
78.0590298801
 10
146.042043536
 20
78.080248668
 10
145.9868067941
 20
78.1088048807
 10
145.9195005773
 20
78.1436000235
 10
145.842711634
 20
78.1832981139
 10
145.7593908599
 20
78.2263727143
 10
145.672739909
 20
78.2711688644
  0
ARC
  5
2E2
330
1F
100
AcDbEntity
  8
0
  6
Continuous
 62
     7
370
    15
100
AcDbCircle
 10
148.05673298
 20
84.5967344617
 30
0.0
 40
2.000000000000005
100
AcDbArc
 50
24.8357513783
 51
125.0
  0
LWPOLYLINE
  5
2E3
330
1F
100
AcDbEntity
  8
0
  6
Continuous
 62
     7
370
    15
100
AcDbPolyline
 90
        9
 70
   128
 43
0.0
 10
149.8717641116
 20
85.4367712728
 10
149.7832403583
 20
85.3958005301
 10
149.6981185519
 20
85.3564046538
 10
149.6196698026
 20
85.320096112
 10
149.5509089181
 20
85.2882728196
 10
149.4944783153
 20
85.2621548093
 10
149.4525465932
 20
85.2427479095
 10
149.4267251655
 20
85.2307971782
 10
149.4180063382
 20
85.2267617575
  0
ARC
  5
2E4
330
1F
100
AcDbEntity
  8
0
  6
Continuous
 62
     7
370
    15
100
AcDbCircle
 10
148.05673298
 20
84.5967344617
 30
0.0
 40
1.50000000000003
100
AcDbArc
 50
24.8357513783
 51
125.0
  0
LWPOLYLINE
  5
2E5
330
1F
100
AcDbEntity
  8
0
  6
Continuous
 62
     7
370
    15
100
AcDbPolyline
 90
        9
 70
   128
 43
0.0
 10
146.9095800603
 20
86.2350385851
 10
146.9655297296
 20
86.1551339022
 10
147.0193292079
 20
86.0783007211
 10
147.068911192
 20
86.0074904031
 10
147.112369963
 20
85.9454242728
 10
147.1480358923
 20
85.8944883785
 10
147.1745378403
 20
85.8566394291
 10
147.1908578714
 20
85.8333321503
 10
147.1963682743
 20
85.8254624746
  0
ARC
  5
2E6
330
1F
100
AcDbEntity
  8
0
  6
Continuous
 62
     7
370
    15
100
AcDbCircle
 10
140.3428506144
 20
81.0265777635
 30
0.0
 40
6.500000000000021
100
AcDbArc
 50
152.6622556608
 51
207.3377443392
  0
LWPOLYLINE
  5
2E7
330
1F
100
AcDbEntity
  8
0
  6
Continuous
 62
     7
370
    15
100
AcDbPolyline
 90
        9
 70
   128
 43
0.0
 10
134.568803438
 20
84.0116046584
 10
134.5773380781
 20
84.0071920521
 10
134.6026132414
 20
83.9941255963
 10
134.6436575586
 20
83.9729063428
 10
134.6988943005
 20
83.9443510613
 10
134.766200983
 20
83.9095549873
 10
134.8429894606
 20
83.8698573626
 10
134.9263102347
 20
83.8267827622
 10
135.0129614184
 20
83.7819870777
  0
ARC
  5
2E8
330
1F
100
AcDbEntity
  8
0
  6
Continuous
 62
     7
370
    15
100
AcDbCircle
 10
140.3428506144
 20
81.0265777635
 30
0.0
 40
6.000000000000014
100
AcDbArc
 50
152.6622556608
 51
207.3377443392
  0
LINE
  5
2E9
330
1F
100
AcDbEntity
  8
0
  6
Continuous
 62
     7
370
    15
100
AcDbLine
 10
146.1448478112
 20
85.6995672203
 30
0.0
 11
146.9095800603
 21
86.2350385851
 31
0.0
  0
LINE
  5
2EA
330
1F
100
AcDbEntity
  8
0
  6
Continuous
 62
     7
370
    15
100
AcDbLine
 10
147.1963682743
 20
85.8254624746
 30
0.0
 11
146.4316360252
 21
85.2899911097
 31
0.0
  0
LWPOLYLINE
  5
2EB
330
1F
100
AcDbEntity
  8
0
  6
Continuous
 62
     7
370
    15
100
AcDbPolyline
 90
        9
 70
   128
 43
0.0
 10
146.1448478112
 20
85.6995672203
 10
146.2007972477
 20
85.6196625373
 10
146.254596726
 20
85.5428293563
 10
146.3041787101
 20
85.4720190383
 10
146.3476374811
 20
85.4099529079
 10
146.3833034104
 20
85.3590170137
 10
146.4098053584
 20
85.3211680642
 10
146.4261253895
 20
85.2978607855
 10
146.4316360252
 20
85.2899911097
  0
ARC
  5
2EC
330
1F
100
AcDbEntity
  8
0
  6
Continuous
 62
     7
370
    15
100
AcDbCircle
 10
147.0052123532
 20
84.4708390866
 30
0.0
 40
1.000000000000004
100
AcDbArc
 50
125.0
 51
207.3377443392
  0
LWPOLYLINE
  5
2ED
330
1F
100
AcDbEntity
  8
0
  6
Continuous
 62
     7
370
    15
100
AcDbPolyline
 90
        9
 70
   128
 43
0.0
 10
146.1168974237
 20
84.0116046584
 10
146.1083630165
 20
84.0071920521
 10
146.083088086
 20
83.9941255963
 10
146.042043536
 20
83.9729063428
 10
145.9868067941
 20
83.9443510613
 10
145.9195005773
 20
83.9095549873
 10
145.842711634
 20
83.8698573626
 10
145.7593908599
 20
83.8267827622
 10
145.672739909
 20
83.7819870777
  0
ARC
  5
2EE
330
1F
100
AcDbEntity
  8
0
  6
Continuous
 62
     7
370
    15
100
AcDbCircle
 10
147.0052123532
 20
84.4708390866
 30
0.0
 40
1.499999999999987
100
AcDbArc
 50
125.0
 51
207.3377443392
  0
ARC
  5
2EF
330
1F
100
AcDbEntity
  8
0
  6
Continuous
 62
     7
370
    15
100
AcDbCircle
 10
140.3428506144
 20
81.0265777635
 30
0.0
 40
6.499999999999996
100
AcDbArc
 50
332.6622556608
 51
27.3377443392
  0
ARC
  5
2F0
330
1F
100
AcDbEntity
  8
0
  6
Continuous
 62
     7
370
    15
100
AcDbCircle
 10
140.3428506144
 20
81.0265777635
 30
0.0
 40
6.000000000000008
100
AcDbArc
 50
332.6622556608
 51
27.3377443392
  0
ARC
  5
2F1
330
1F
100
AcDbEntity
  8
0
  6
Continuous
 62
     7
370
    15
100
AcDbCircle
 10
140.3428506144
 20
81.0265777635
 30
0.0
 40
4.0
100
AcDbArc
 50
0.0
 51
41.4096221093
  0
ARC
  5
2F2
330
1F
100
AcDbEntity
  8
0
  6
Continuous
 62
     7
370
    15
100
AcDbCircle
 10
140.3428506144
 20
81.0265777635
 30
0.0
 40
4.000000000000006
100
AcDbArc
 50
48.5903778907
 51
131.4096221093
  0
ARC
  5
2F3
330
1F
100
AcDbEntity
  8
0
  6
Continuous
 62
     7
370
    15
100
AcDbCircle
 10
140.3428506144
 20
81.0265777635
 30
0.0
 40
4.000000000000006
100
AcDbArc
 50
138.5903778907
 51
221.4096221093
  0
ARC
  5
2F4
330
1F
100
AcDbEntity
  8
0
  6
Continuous
 62
     7
370
    15
100
AcDbCircle
 10
140.3428506144
 20
81.0265777635
 30
0.0
 40
3.999999999999996
100
AcDbArc
 50
228.5903778907
 51
311.4096221093
  0
ARC
  5
2F5
330
1F
100
AcDbEntity
  8
0
  6
Continuous
 62
     7
370
    15
100
AcDbCircle
 10
140.3428506144
 20
81.0265777635
 30
0.0
 40
4.0
100
AcDbArc
 50
318.852464098
 51
0.0
  0
ARC
  5
2F6
330
1F
100
AcDbEntity
  8
0
  6
Continuous
 62
     7
370
    15
100
AcDbCircle
 10
137.5845080011
 20
72.0265777635
 30
0.0
 40
1.0
100
AcDbArc
 50
183.8225537293
 51
270.0
  0
ARC
  5
2F7
330
1F
100
AcDbEntity
  8
0
  6
Continuous
 62
     7
370
    15
100
AcDbCircle
 10
133.8428506144
 20
71.7765777635
 30
0.0
 40
2.750000000000024
100
AcDbArc
 50
3.8225537293
 51
90.0
  0
LINE
  5
2F8
330
1F
100
AcDbEntity
  8
0
  6
Continuous
 62
     7
370
    15
100
AcDbLine
 10
133.8428505296
 20
74.5265777205
 30
0.0
 11
128.1213457296
 21
74.5265777205
 31
0.0
  0
LINE
  5
2F9
330
1F
100
AcDbEntity
  8
0
  6
Continuous
 62
     7
370
    15
100
AcDbLine
 10
128.1213457296
 20
74.5265777205
 30
0.0
 11
126.3428511629
 21
76.7738603736
 31
0.0
  0
LINE
  5
2FA
330
1F
100
AcDbEntity
  8
0
  6
Continuous
 62
     7
370
    15
100
AcDbLine
 10
126.3428511629
 20
89.2915638379
 30
0.0
 11
126.3428511629
 21
76.7738603736
 31
0.0
  0
ARC
  5
2FB
330
1F
100
AcDbEntity
  8
0
  6
Continuous
 62
     7
370
    15
100
AcDbCircle
 10
137.6428506144
 20
81.0265777635
 30
0.0
 40
14.0
100
AcDbArc
 50
126.1822872212
 51
143.8177127788
  0
LINE
  5
2FC
330
1F
100
AcDbEntity
  8
0
  6
Continuous
 62
     7
370
    15
100
AcDbLine
 10
131.0928514758
 20
92.3265783331
 30
0.0
 11
129.3778637955
 21
92.3265783331
 31
0.0
  0
LINE
  5
2FD
330
1F
100
AcDbEntity
  8
0
  6
Continuous
 62
     7
370
    15
100
AcDbLine
 10
131.0928514758
 20
92.3265783331
 30
0.0
 11
131.0928514758
 21
90.2765771589
 31
0.0
  0
ARC
  5
2FE
330
1F
100
AcDbEntity
  8
0
  6
Continuous
 62
     7
370
    15
100
AcDbCircle
 10
133.8428506144
 20
90.2765777635
 30
0.0
 40
2.750000000000024
100
AcDbArc
 50
180.0
 51
356.1774462707
  0
ARC
  5
2FF
330
1F
100
AcDbEntity
  8
0
  6
Continuous
 62
     7
370
    15
100
AcDbCircle
 10
137.5845080011
 20
90.0265777635
 30
0.0
 40
0.9999999999999996
100
AcDbArc
 50
90.0
 51
176.1774462707
  0
LINE
  5
300
330
1F
100
AcDbEntity
  8
0
  6
Continuous
 62
     7
370
    15
100
AcDbLine
 10
137.584507891
 20
91.0265786788
 30
0.0
 11
143.1011934364
 21
91.0265786788
 31
0.0
  0
ARC
  5
301
330
1F
100
AcDbEntity
  8
0
  6
Continuous
 62
     7
370
    15
100
AcDbCircle
 10
143.1011932276
 20
90.0265777635
 30
0.0
 40
0.9999999999999996
100
AcDbArc
 50
3.8225537293
 51
90.0
  0
ARC
  5
302
330
1F
100
AcDbEntity
  8
0
  6
Continuous
 62
     7
370
    15
100
AcDbCircle
 10
146.8428506144
 20
90.2765777635
 30
0.0
 40
2.750000000000024
100
AcDbArc
 50
183.8225537293
 51
0.0
  0
LINE
  5
303
330
1F
100
AcDbEntity
  8
0
  6
Continuous
 62
     7
370
    15
100
AcDbLine
 10
149.5928506083
 20
90.2765771589
 30
0.0
 11
149.5928506083
 21
92.3265783331
 31
0.0
  0
LINE
  5
304
330
1F
100
AcDbEntity
  8
0
  6
Continuous
 62
     7
370
    15
100
AcDbLine
 10
151.3078369498
 20
92.3265783331
 30
0.0
 11
149.5928506083
 21
92.3265783331
 31
0.0
  0
ARC
  5
305
330
1F
100
AcDbEntity
  8
0
  6
Continuous
 62
     7
370
    15
100
AcDbCircle
 10
143.0428506144
 20
81.0265777635
 30
0.0
 40
14.0
100
AcDbArc
 50
36.1822872212
 51
53.8177127788
  0
LINE
  5
306
330
1F
100
AcDbEntity
  8
0
  6
Continuous
 62
     7
370
    15
100
AcDbLine
 10
154.3428506302
 20
76.7738603736
 30
0.0
 11
154.3428506302
 21
89.2915638379
 31
0.0
  0
LINE
  5
307
330
1F
100
AcDbEntity
  8
0
  6
Continuous
 62
     7
370
    15
100
AcDbLine
 10
152.5643560635
 20
74.5265777205
 30
0.0
 11
146.842850565
 21
74.5265777205
 31
0.0
  0
ARC
  5
308
330
1F
100
AcDbEntity
  8
0
  6
Continuous
 62
     7
370
    15
100
AcDbCircle
 10
146.8428506144
 20
71.7765777635
 30
0.0
 40
2.750000000000014
100
AcDbArc
 50
90.0
 51
176.1774462707
  0
ARC
  5
309
330
1F
100
AcDbEntity
  8
0
  6
Continuous
 62
     7
370
    15
100
AcDbCircle
 10
143.1011932276
 20
72.0265777635
 30
0.0
 40
1.000000000000029
100
AcDbArc
 50
270.0
 51
356.1774462707
  0
LINE
  5
30A
330
1F
100
AcDbEntity
  8
0
  6
Continuous
 62
     7
370
    15
100
AcDbLine
 10
143.1011934364
 20
71.0265777289
 30
0.0
 11
137.584507891
 21
71.0265777289
 31
0.0
  0
ARC
  5
30B
330
1F
100
AcDbEntity
  8
0
  6
Continuous
 62
     7
370
    15
100
AcDbCircle
 10
132.6289682487
 20
77.4564210654
 30
0.0
 40
2.000000000000011
100
AcDbArc
 50
204.8357513783
 51
305.0
  0
LINE
  5
30C
330
1F
100
AcDbEntity
  8
0
  6
Continuous
 62
     7
370
    15
100
AcDbLine
 10
134.5408535162
 20
76.353588489
 30
0.0
 11
133.7761212671
 21
75.8181168913
 31
0.0
  0
ARC
  5
30D
330
1F
100
AcDbEntity
  8
0
  6
Continuous
 62
     7
370
    15
100
AcDbCircle
 10
133.6804888756
 20
84.4708390866
 30
0.0
 40
1.500000000000019
100
AcDbArc
 50
332.6622556608
 51
55.0
  0
LINE
  5
30E
330
1F
100
AcDbEntity
  8
0
  6
Continuous
 62
     7
370
    15
100
AcDbLine
 10
133.7761212671
 20
86.2350385851
 30
0.0
 11
134.5408535162
 21
85.6995672203
 31
0.0
  0
ARC
  5
30F
330
1F
100
AcDbEntity
  8
0
  6
Continuous
 62
     7
370
    15
100
AcDbCircle
 10
132.6289682487
 20
84.5967344617
 30
0.0
 40
2.000000000000007
100
AcDbArc
 50
55.0
 51
155.1642486217
  0
ARC
  5
310
330
1F
100
AcDbEntity
  8
0
  6
Continuous
 62
     7
370
    15
100
AcDbCircle
 10
140.3428506144
 20
81.0265777635
 30
0.0
 40
10.50000000000002
100
AcDbArc
 50
155.1642486217
 51
204.8357513783
  0
LINE
  5
311
330
1F
100
AcDbEntity
  8
0
  6
Continuous
 62
     7
370
    15
100
AcDbLine
 10
146.9095800603
 20
75.8181168913
 30
0.0
 11
146.1448478112
 21
76.353588489
 31
0.0
  0
ARC
  5
312
330
1F
100
AcDbEntity
  8
0
  6
Continuous
 62
     7
370
    15
100
AcDbCircle
 10
148.05673298
 20
77.4564210654
 30
0.0
 40
1.999999999999999
100
AcDbArc
 50
235.0
 51
335.1642486217
  0
ARC
  5
313
330
1F
100
AcDbEntity
  8
0
  6
Continuous
 62
     7
370
    15
100
AcDbCircle
 10
140.3428506144
 20
81.0265777635
 30
0.0
 40
10.49999999999999
100
AcDbArc
 50
335.1642486217
 51
24.8357513783
  0
LINE
  5
314
330
1F
100
AcDbEntity
  8
0
  6
Continuous
 62
     7
370
    15
100
AcDbLine
 10
154.3428506302
 20
76.7738603736
 30
0.0
 11
152.5643560635
 21
74.5265777205
 31
0.0
  0
LINE
  5
315
330
1F
100
AcDbEntity
  8
0
  6
Continuous
 62
     7
370
    15
100
AcDbLine
 10
146.4316360252
 20
76.7631643667
 30
0.0
 11
147.1963682743
 21
76.2276930018
 31
0.0
  0
LWPOLYLINE
  5
316
330
1F
100
AcDbEntity
  8
0
  6
Continuous
 62
     7
370
    15
100
AcDbPolyline
 90
        9
 70
   128
 43
0.0
 10
147.1963682743
 20
76.2276930018
 10
147.1908578714
 20
76.2198230933
 10
147.1745378403
 20
76.1965158145
 10
147.1480358923
 20
76.1586670979
 10
147.112369963
 20
76.1077309708
 10
147.068911192
 20
76.0456653061
 10
147.0193292079
 20
75.9748549881
 10
146.9655297296
 20
75.8980213414
 10
146.9095800603
 20
75.8181168913
  0
LWPOLYLINE
  5
317
330
1F
100
AcDbEntity
  8
0
  6
Continuous
 62
     7
370
    15
100
AcDbPolyline
 90
        9
 70
   128
 43
0.0
 10
149.8717641116
 20
76.6163842036
 10
149.7832403583
 20
76.6573549463
 10
149.6981185519
 20
76.6967512882
 10
149.6196698026
 20
76.7330591316
 10
149.5509089181
 20
76.7648831225
 10
149.4944783153
 20
76.7910004343
 10
149.4525465932
 20
76.8104073341
 10
149.4267251655
 20
76.8223580654
 10
149.4180063382
 20
76.8263934861
  0
ARC
  5
318
330
1F
100
AcDbEntity
  8
0
  6
Continuous
 62
     7
370
    15
100
AcDbCircle
 10
140.3428506144
 20
81.0265777635
 30
0.0
 40
10.00000000000001
100
AcDbArc
 50
335.1642486217
 51
24.8357513783
  0
LINE
  5
319
330
1F
100
AcDbEntity
  8
0
  6
Continuous
 62
     7
370
    15
100
AcDbLine
 10
149.5928506083
 20
92.5265779934
 30
0.0
 11
151.027210366
 21
92.5265779934
 31
0.0
  0
ARC
  5
31A
330
1F
100
AcDbEntity
  8
0
  6
Continuous
 62
     7
370
    15
100
AcDbCircle
 10
143.0428506144
 20
81.0265777635
 30
0.0
 40
14.0
100
AcDbArc
 50
53.8177127788
 51
55.2280559681
  0
LINE
  5
31B
330
1F
100
AcDbEntity
  8
0
  6
Continuous
 62
     7
370
    15
100
AcDbLine
 10
149.5928506083
 20
92.3265783331
 30
0.0
 11
149.5928506083
 21
92.5265779934
 31
0.0
  0
LWPOLYLINE
  5
31C
330
1F
100
AcDbEntity
  8
0
  6
Continuous
 62
     7
370
    15
100
AcDbPolyline
 90
        9
 70
   128
 43
0.0
 10
133.7761212671
 20
75.8181168913
 10
133.7201720634
 20
75.8980213414
 10
133.666371421
 20
75.9748549881
 10
133.6167896697
 20
76.0456653061
 10
133.5733304331
 20
76.1077309708
 10
133.5376645038
 20
76.1586670979
 10
133.5111627886
 20
76.1965158145
 10
133.4948441545
 20
76.2198230933
 10
133.4893325875
 20
76.2276930018
  0
LINE
  5
31D
330
1F
100
AcDbEntity
  8
0
  6
Continuous
 62
     7
370
    15
100
AcDbLine
 10
133.4893325875
 20
76.2276930018
 30
0.0
 11
134.2540657679
 21
76.7631643667
 31
0.0
  0
LWPOLYLINE
  5
31E
330
1F
100
AcDbEntity
  8
0
  6
Continuous
 62
     7
370
    15
100
AcDbPolyline
 90
        9
 70
   128
 43
0.0
 10
130.8139371285
 20
76.6163842036
 10
130.9024612019
 20
76.6573549463
 10
130.9875822226
 20
76.6967512882
 10
131.0660312483
 20
76.7330591316
 10
131.1347926566
 20
76.7648831225
 10
131.1912233541
 20
76.7910004343
 10
131.2331552217
 20
76.8104073341
 10
131.2589752087
 20
76.8223580654
 10
131.2676942507
 20
76.8263934861
  0
ARC
  5
31F
330
1F
100
AcDbEntity
  8
0
  6
Continuous
 62
     7
370
    15
100
AcDbCircle
 10
132.6289682487
 20
77.4564210654
 30
0.0
 40
1.500000000000015
100
AcDbArc
 50
204.8357513783
 51
305.0
  0
LINE
  5
320
330
1F
100
AcDbEntity
  8
0
  6
Continuous
 62
     7
370
    15
100
AcDbLine
 10
134.2540657679
 20
85.2899911097
 30
0.0
 11
133.4893325875
 21
85.8254624746
 31
0.0
  0
LWPOLYLINE
  5
321
330
1F
100
AcDbEntity
  8
0
  6
Continuous
 62
     7
370
    15
100
AcDbPolyline
 90
        9
 70
   128
 43
0.0
 10
133.4893325875
 20
85.8254624746
 10
133.4948441545
 20
85.8333321503
 10
133.5111627886
 20
85.8566394291
 10
133.5376645038
 20
85.8944883785
 10
133.5733304331
 20
85.9454242728
 10
133.6167896697
 20
86.0074904031
 10
133.666371421
 20
86.0783007211
 10
133.7201720634
 20
86.1551339022
 10
133.7761212671
 20
86.2350385851
  0
LWPOLYLINE
  5
322
330
1F
100
AcDbEntity
  8
0
  6
Continuous
 62
     7
370
    15
100
AcDbPolyline
 90
        9
 70
   128
 43
0.0
 10
134.2540657679
 20
85.2899911097
 10
134.2595754722
 20
85.2978607855
 10
134.275895969
 20
85.3211680642
 10
134.3023976842
 20
85.3590170137
 10
134.3380636135
 20
85.4099529079
 10
134.3815228501
 20
85.4720190383
 10
134.4311046014
 20
85.5428293563
 10
134.4849043125
 20
85.6196625373
 10
134.5408535162
 20
85.6995672203
  0
LWPOLYLINE
  5
323
330
1F
100
AcDbEntity
  8
0
  6
Continuous
 62
     7
370
    15
100
AcDbPolyline
 90
        9
 70
   128
 43
0.0
 10
130.8139371285
 20
85.4367712728
 10
130.9024612019
 20
85.3958005301
 10
130.9875822226
 20
85.3564046538
 10
131.0660312483
 20
85.320096112
 10
131.1347926566
 20
85.2882728196
 10
131.1912233541
 20
85.2621548093
 10
131.2331552217
 20
85.2427479095
 10
131.2589752087
 20
85.2307971782
 10
131.2676942507
 20
85.2267617575
  0
ARC
  5
324
330
1F
100
AcDbEntity
  8
0
  6
Continuous
 62
     7
370
    15
100
AcDbCircle
 10
140.3428506144
 20
81.0265777635
 30
0.0
 40
10.00000000000001
100
AcDbArc
 50
155.1642486217
 51
204.8357513783
  0
ARC
  5
325
330
1F
100
AcDbEntity
  8
0
  6
Continuous
 62
     7
370
    15
100
AcDbCircle
 10
148.05673298
 20
77.4564210654
 30
0.0
 40
1.499999999999998
100
AcDbArc
 50
235.0
 51
335.1642486217
  0
ARC
  5
326
330
1F
100
AcDbEntity
  8
0
  6
Continuous
 62
     7
370
    15
100
AcDbCircle
 10
133.6804888756
 20
84.4708390866
 30
0.0
 40
0.999999999999998
100
AcDbArc
 50
332.6622556608
 51
55.0
  0
ARC
  5
327
330
1F
100
AcDbEntity
  8
0
  6
Continuous
 62
     7
370
    15
100
AcDbCircle
 10
132.6289682487
 20
84.5967344617
 30
0.0
 40
1.50000000000001
100
AcDbArc
 50
55.0
 51
155.1642486217
  0
LINE
  5
328
330
1F
100
AcDbEntity
  8
0
  6
Continuous
 62
     7
370
    15
100
AcDbLine
 10
129.6584917763
 20
92.5265779934
 30
0.0
 11
131.0928514758
 21
92.5265779934
 31
0.0
  0
LINE
  5
329
330
1F
100
AcDbEntity
  8
0
  6
Continuous
 62
     7
370
    15
100
AcDbLine
 10
131.0928514758
 20
92.5265779934
 30
0.0
 11
131.0928514758
 21
92.3265783331
 31
0.0
  0
ARC
  5
32A
330
1F
100
AcDbEntity
  8
0
  6
Continuous
 62
     7
370
    15
100
AcDbCircle
 10
137.6428506144
 20
81.0265777635
 30
0.0
 40
14.0
100
AcDbArc
 50
124.7719440319
 51
126.1822872212
  0
LINE
  5
32B
330
1F
100
AcDbEntity
  8
0
  6
Continuous
 62
     7
370
    15
100
AcDbLine
 10
126.1428515026
 20
77.0265777811
 30
0.0
 11
126.1428515026
 21
89.0109377197
 31
0.0
  0
LINE
  5
32C
330
1F
100
AcDbEntity
  8
0
  6
Continuous
 62
     7
370
    15
100
AcDbLine
 10
126.3428511629
 20
76.7738603736
 30
0.0
 11
126.1428515026
 21
77.0265777811
 31
0.0
  0
ARC
  5
32D
330
1F
100
AcDbEntity
  8
0
  6
Continuous
 62
     7
370
    15
100
AcDbCircle
 10
137.6428506144
 20
81.0265777635
 30
0.0
 40
14.0
100
AcDbArc
 50
143.8177127788
 51
145.2280559681
  0
LINE
  5
32E
330
1F
100
AcDbEntity
  8
0
  6
Continuous
 62
     7
370
    15
100
AcDbLine
 10
154.5428507561
 20
89.0109377197
 30
0.0
 11
154.5428507561
 21
77.0265777811
 31
0.0
  0
ARC
  5
32F
330
1F
100
AcDbEntity
  8
0
  6
Continuous
 62
     7
370
    15
100
AcDbCircle
 10
143.0428506144
 20
81.0265777635
 30
0.0
 40
14.00000000000001
100
AcDbArc
 50
34.7719440319
 51
36.1822872212
  0
LINE
  5
330
330
1F
100
AcDbEntity
  8
0
  6
Continuous
 62
     7
370
    15
100
AcDbLine
 10
154.5428507561
 20
77.0265777811
 30
0.0
 11
154.3428506302
 21
76.7738603736
 31
0.0
  0
LWPOLYLINE
  5
331
330
1F
100
AcDbEntity
  8
0
  6
Continuous
 62
     7
370
    15
100
AcDbPolyline
 90
        9
 70
   128
 43
0.0
 10
131.2676942507
 20
85.2267617575
 10
131.2764132926
 20
85.2227272681
 10
131.3022351423
 20
85.2107765368
 10
131.3441670099
 20
85.191369637
 10
131.4005977074
 20
85.1652516267
 10
131.4693591157
 20
85.133427403
 10
131.5478062788
 20
85.0971197925
 10
131.6329291621
 20
85.0577239162
 10
131.7214532355
 20
85.0167531735
  0
ARC
  5
332
330
1F
100
AcDbEntity
  8
0
  6
Continuous
 62
     7
370
    15
100
AcDbCircle
 10
140.3428506144
 20
81.0265777635
 30
0.0
 40
9.500000000000009
100
AcDbArc
 50
155.1642486217
 51
204.8357513783
  0
LWPOLYLINE
  5
333
330
1F
100
AcDbEntity
  8
0
  6
Continuous
 62
     7
370
    15
100
AcDbPolyline
 90
        9
 70
   128
 43
0.0
 10
131.2676942507
 20
76.8263934861
 10
131.2764132926
 20
76.830428674
 10
131.3022351423
 20
76.8423794053
 10
131.3441670099
 20
76.8617863051
 10
131.4005977074
 20
76.8879036169
 10
131.4693591157
 20
76.9197278406
 10
131.5478062788
 20
76.956035684
 10
131.6329291621
 20
76.995431793
 10
131.7214532355
 20
77.0364025357
  0
LWPOLYLINE
  5
334
330
1F
100
AcDbEntity
  8
0
  6
Continuous
 62
     7
370
    15
100
AcDbPolyline
 90
        9
 70
   128
 43
0.0
 10
149.4180063382
 20
85.2267617575
 10
149.40928751
 20
85.2227272681
 10
149.3834660841
 20
85.2107765368
 10
149.3415343648
 20
85.191369637
 10
149.2851037583
 20
85.1652516267
 10
149.2163428665
 20
85.133427403
 10
149.1378941464
 20
85.0971197925
 10
149.0527723108
 20
85.0577239162
 10
148.9642485576
 20
85.0167531735
  0
ARC
  5
335
330
1F
100
AcDbEntity
  8
0
  6
Continuous
 62
     7
370
    15
100
AcDbCircle
 10
148.05673298
 20
84.5967344617
 30
0.0
 40
1.000000000000028
100
AcDbArc
 50
24.8357513783
 51
125.0
  0
LWPOLYLINE
  5
336
330
1F
100
AcDbEntity
  8
0
  6
Continuous
 62
     7
370
    15
100
AcDbPolyline
 90
        9
 70
   128
 43
0.0
 10
147.1963682743
 20
85.8254624746
 10
147.20187891
 20
85.8175927988
 10
147.2181987083
 20
85.7942855201
 10
147.2447008891
 20
85.7564365706
 10
147.2803665856
 20
85.7055006764
 10
147.3238255894
 20
85.6434345461
 10
147.3734073406
 20
85.5726242281
 10
147.4272070518
 20
85.495791047
 10
147.4831564883
 20
85.415886364
  0
LINE
  5
337
330
1F
100
AcDbEntity
  8
0
  6
Continuous
 62
     7
370
    15
100
AcDbLine
 10
146.7184242392
 20
77.1727404772
 30
0.0
 11
147.4831564883
 21
76.6372691124
 31
0.0
  0
LWPOLYLINE
  5
338
330
1F
100
AcDbEntity
  8
0
  6
Continuous
 62
     7
370
    15
100
AcDbPolyline
 90
        9
 70
   128
 43
0.0
 10
147.4831564883
 20
76.6372691124
 10
147.4272070518
 20
76.5573646623
 10
147.3734073406
 20
76.4805310155
 10
147.3238255894
 20
76.4097206975
 10
147.2803665856
 20
76.3476550329
 10
147.2447008891
 20
76.2967189058
 10
147.2181987083
 20
76.2588701892
 10
147.20187891
 20
76.2355629104
 10
147.1963682743
 20
76.2276930018
  0
LWPOLYLINE
  5
339
330
1F
100
AcDbEntity
  8
0
  6
Continuous
 62
     7
370
    15
100
AcDbPolyline
 90
        9
 70
   128
 43
0.0
 10
146.7184242392
 20
77.1727404772
 10
146.6624745699
 20
77.0928360271
 10
146.6086750915
 20
77.0160023804
 10
146.5590931075
 20
76.9451920624
 10
146.5156343365
 20
76.8831263977
 10
146.4799684072
 20
76.8321905035
 10
146.4534664592
 20
76.794341554
 10
146.437146428
 20
76.7710342753
 10
146.4316360252
 20
76.7631643667
  0
LINE
  5
33A
330
1F
100
AcDbEntity
  8
0
  6
Continuous
 62
     7
370
    15
100
AcDbLine
 10
147.4831564883
 20
85.415886364
 30
0.0
 11
146.7184242392
 21
84.8804149992
 31
0.0
  0
LWPOLYLINE
  5
33B
330
1F
100
AcDbEntity
  8
0
  6
Continuous
 62
     7
370
    15
100
AcDbPolyline
 90
        9
 70
   128
 43
0.0
 10
146.4316360252
 20
85.2899911097
 10
146.437146428
 20
85.282121434
 10
146.4534664592
 20
85.2588141552
 10
146.4799684072
 20
85.2209652058
 10
146.5156343365
 20
85.1700293115
 10
146.5590931075
 20
85.1079631812
 10
146.6086750915
 20
85.0371528632
 10
146.6624745699
 20
84.9603196821
 10
146.7184242392
 20
84.8804149992
  0
ARC
  5
33C
330
1F
100
AcDbEntity
  8
0
  6
Continuous
 62
     7
370
    15
100
AcDbCircle
 10
132.6289682487
 20
84.5967344617
 30
0.0
 40
1.000000000000009
100
AcDbArc
 50
55.0
 51
155.1642486217
  0
LWPOLYLINE
  5
33D
330
1F
100
AcDbEntity
  8
0
  6
Continuous
 62
     7
370
    15
100
AcDbPolyline
 90
        9
 70
   128
 43
0.0
 10
133.2025448391
 20
85.415886364
 10
133.2584949741
 20
85.495791047
 10
133.312293754
 20
85.5726242281
 10
133.3618755052
 20
85.6434345461
 10
133.4053347418
 20
85.7055006764
 10
133.4410006711
 20
85.7564365706
 10
133.4675023863
 20
85.7942855201
 10
133.4838228831
 20
85.8175927988
 10
133.4893325875
 20
85.8254624746
  0
ARC
  5
33E
330
1F
100
AcDbEntity
  8
0
  6
Continuous
 62
     7
370
    15
100
AcDbCircle
 10
140.3428506144
 20
81.0265777635
 30
0.0
 40
7.000000000000012
100
AcDbArc
 50
332.6622556608
 51
27.3377443392
  0
LWPOLYLINE
  5
33F
330
1F
100
AcDbEntity
  8
0
  6
Continuous
 62
     7
370
    15
100
AcDbPolyline
 90
        9
 70
   128
 43
0.0
 10
146.5610549385
 20
77.8119337029
 10
146.4744039876
 20
77.8567298531
 10
146.3910832135
 20
77.8998044535
 10
146.3142942702
 20
77.9395025439
 10
146.2469880534
 20
77.9742976866
 10
146.1917515444
 20
78.0028538994
 10
146.1507069943
 20
78.0240726872
 10
146.125431831
 20
78.037139143
 10
146.1168974237
 20
78.0415512837
  0
LWPOLYLINE
  5
340
330
1F
100
AcDbEntity
  8
0
  6
Continuous
 62
     7
370
    15
100
AcDbPolyline
 90
        9
 70
   128
 43
0.0
 10
146.5610549385
 20
84.2412213079
 10
146.4744039876
 20
84.1964256234
 10
146.3910832135
 20
84.153351023
 10
146.3142942702
 20
84.1136533982
 10
146.2469880534
 20
84.0788573242
 10
146.1917515444
 20
84.0503020427
 10
146.1507069943
 20
84.0290827892
 10
146.125431831
 20
84.0160163335
 10
146.1168974237
 20
84.0116046584
  0
ARC
  5
341
330
1F
100
AcDbEntity
  8
0
  6
Continuous
 62
     7
370
    15
100
AcDbCircle
 10
133.6804888756
 20
77.5823164405
 30
0.0
 40
0.5000000000000128
100
AcDbArc
 50
305.0
 51
27.3377443392
  0
LWPOLYLINE
  5
342
330
1F
100
AcDbEntity
  8
0
  6
Continuous
 62
     7
370
    15
100
AcDbPolyline
 90
        9
 70
   128
 43
0.0
 10
134.1246463889
 20
77.8119337029
 10
134.2112975726
 20
77.8567298531
 10
134.2946183467
 20
77.8998044535
 10
134.3714068243
 20
77.9395025439
 10
134.4387135068
 20
77.9742976866
 10
134.4939493174
 20
78.0028538994
 10
134.5349945659
 20
78.0240726872
 10
134.5602697292
 20
78.037139143
 10
134.568803438
 20
78.0415512837
  0
LWPOLYLINE
  5
343
330
1F
100
AcDbEntity
  8
0
  6
Continuous
 62
     7
370
    15
100
AcDbPolyline
 90
        9
 70
   128
 43
0.0
 10
134.2540657679
 20
76.7631643667
 10
134.2485551322
 20
76.7710342753
 10
134.2322346354
 20
76.794341554
 10
134.2057329202
 20
76.8321905035
 10
134.1700669909
 20
76.8831263977
 10
134.1266077543
 20
76.9451920624
 10
134.077026003
 20
77.0160023804
 10
134.0232262919
 20
77.0928360271
 10
133.9672770882
 20
77.1727404772
  0
LINE
  5
344
330
1F
100
AcDbEntity
  8
0
  6
Continuous
 62
     7
370
    15
100
AcDbLine
 10
133.9672770882
 20
84.8804149992
 30
0.0
 11
133.2025448391
 21
85.415886364
 31
0.0
  0
LWPOLYLINE
  5
345
330
1F
100
AcDbEntity
  8
0
  6
Continuous
 62
     7
370
    15
100
AcDbPolyline
 90
        9
 70
   128
 43
0.0
 10
133.9672770882
 20
84.8804149992
 10
134.0232262919
 20
84.9603196821
 10
134.077026003
 20
85.0371528632
 10
134.1266077543
 20
85.1079631812
 10
134.1700669909
 20
85.1700293115
 10
134.2057329202
 20
85.2209652058
 10
134.2322346354
 20
85.2588141552
 10
134.2485551322
 20
85.282121434
 10
134.2540657679
 20
85.2899911097
  0
LWPOLYLINE
  5
346
330
1F
100
AcDbEntity
  8
0
  6
Continuous
 62
     7
370
    15
100
AcDbPolyline
 90
        9
 70
   128
 43
0.0
 10
149.4180063382
 20
76.8263934861
 10
149.40928751
 20
76.830428674
 10
149.3834660841
 20
76.8423794053
 10
149.3415343648
 20
76.8617863051
 10
149.2851037583
 20
76.8879036169
 10
149.2163428665
 20
76.9197278406
 10
149.1378941464
 20
76.956035684
 10
149.0527723108
 20
76.995431793
 10
148.9642485576
 20
77.0364025357
  0
ARC
  5
347
330
1F
100
AcDbEntity
  8
0
  6
Continuous
 62
     7
370
    15
100
AcDbCircle
 10
140.3428506144
 20
81.0265777635
 30
0.0
 40
9.500000000000012
100
AcDbArc
 50
335.1642486217
 51
24.8357513783
  0
ARC
  5
348
330
1F
100
AcDbEntity
  8
0
  6
Continuous
 62
     7
370
    15
100
AcDbCircle
 10
148.05673298
 20
77.4564210654
 30
0.0
 40
1.000000000000022
100
AcDbArc
 50
235.0
 51
335.1642486217
  0
ARC
  5
349
330
1F
100
AcDbEntity
  8
0
  6
Continuous
 62
     7
370
    15
100
AcDbCircle
 10
147.0052123532
 20
77.5823164405
 30
0.0
 40
0.5000000000000022
100
AcDbArc
 50
152.6622556608
 51
235.0
  0
ARC
  5
34A
330
1F
100
AcDbEntity
  8
0
  6
Continuous
 62
     7
370
    15
100
AcDbCircle
 10
140.3428506144
 20
81.0265777635
 30
0.0
 40
7.000000000000005
100
AcDbArc
 50
152.6622556608
 51
207.3377443392
  0
LWPOLYLINE
  5
34B
330
1F
100
AcDbEntity
  8
0
  6
Continuous
 62
     7
370
    15
100
AcDbPolyline
 90
        9
 70
   128
 43
0.0
 10
134.1246463889
 20
84.2412213079
 10
134.2112975726
 20
84.1964256234
 10
134.2946183467
 20
84.153351023
 10
134.3714068243
 20
84.1136533982
 10
134.4387135068
 20
84.0788573242
 10
134.4939493174
 20
84.0503020427
 10
134.5349945659
 20
84.0290827892
 10
134.5602697292
 20
84.0160163335
 10
134.568803438
 20
84.0116046584
  0
LWPOLYLINE
  5
34C
330
1F
100
AcDbEntity
  8
0
  6
Continuous
 62
     7
370
    15
100
AcDbPolyline
 90
        9
 70
   128
 43
0.0
 10
133.4893325875
 20
76.2276930018
 10
133.4838228831
 20
76.2355629104
 10
133.4675023863
 20
76.2588701892
 10
133.4410006711
 20
76.2967189058
 10
133.4053347418
 20
76.3476550329
 10
133.3618755052
 20
76.4097206975
 10
133.312293754
 20
76.4805310155
 10
133.2584949741
 20
76.5573646623
 10
133.2025448391
 20
76.6372691124
  0
LINE
  5
34D
330
1F
100
AcDbEntity
  8
0
  6
Continuous
 62
     7
370
    15
100
AcDbLine
 10
133.2025448391
 20
76.6372691124
 30
0.0
 11
133.9672770882
 21
77.1727404772
 31
0.0
  0
ARC
  5
34E
330
1F
100
AcDbEntity
  8
0
  6
Continuous
 62
     7
370
    15
100
AcDbCircle
 10
132.6289682487
 20
77.4564210654
 30
0.0
 40
1.000000000000002
100
AcDbArc
 50
204.8357513783
 51
305.0
  0
ARC
  5
34F
330
1F
100
AcDbEntity
  8
0
  6
Continuous
 62
     7
370
    15
100
AcDbCircle
 10
147.0052123532
 20
84.4708390866
 30
0.0
 40
0.5000000000000011
100
AcDbArc
 50
125.0
 51
207.3377443392
  0
ARC
  5
350
330
1F
100
AcDbEntity
  8
0
  6
Continuous
 62
     7
370
    15
100
AcDbCircle
 10
133.6804888756
 20
84.4708390866
 30
0.0
 40
0.500000000000021
100
AcDbArc
 50
332.6622556608
 51
55.0
  0
ARC
  5
351
330
1F
100
AcDbEntity
  8
0
  6
Continuous
 62
     7
370
    15
100
AcDbCircle
 10
131.9071750963
 20
72.5265777635
 30
0.0
 40
3.0
100
AcDbArc
 50
180.154007183
 51
270.0
  0
ARC
  5
352
330
1F
100
AcDbEntity
  8
0
  6
Continuous
 62
     7
370
    15
100
AcDbCircle
 10
137.5288579405
 20
69.0265777635
 30
0.0
 40
2.0
100
AcDbArc
 50
90.0
 51
141.3178125465
  0
ARC
  5
353
330
1F
100
AcDbEntity
  8
0
  6
Continuous
 62
     7
370
    15
100
AcDbCircle
 10
134.4063589413
 20
71.5265777635
 30
0.0
 40
2.0
100
AcDbArc
 50
270.0
 51
321.3178125465
  0
LINE
  5
354
330
1F
100
AcDbEntity
  8
0
  6
Continuous
 62
     7
370
    15
100
AcDbLine
 10
131.9071757207
 20
69.5265779487
 30
0.0
 11
134.4063593606
 21
69.5265779487
 31
0.0
  0
ARC
  5
355
330
1F
100
AcDbEntity
  8
0
  6
Continuous
 62
     7
370
    15
100
AcDbCircle
 10
125.9071967713
 20
72.5104501885
 30
0.0
 40
2.999999999999975
100
AcDbArc
 50
0.154007183
 51
33.099933234
  0
LINE
  5
356
330
1F
100
AcDbEntity
  8
0
  6
Continuous
 62
     7
370
    15
100
AcDbLine
 10
128.4203542927
 20
74.1487531323
 30
0.0
 11
128.1213457296
 21
74.5265777205
 31
0.0
  0
ARC
  5
357
330
1F
100
AcDbEntity
  8
0
  6
Continuous
 62
     7
370
    15
100
AcDbCircle
 10
154.7785044575
 20
72.5104501885
 30
0.0
 40
2.999999999999995
100
AcDbArc
 50
146.900066766
 51
179.845992817
  0
ARC
  5
358
330
1F
100
AcDbEntity
  8
0
  6
Continuous
 62
     7
370
    15
100
AcDbCircle
 10
148.7785261324
 20
72.5265777635
 30
0.0
 40
3.000000000000017
100
AcDbArc
 50
270.0
 51
359.845992817
  0
LINE
  5
359
330
1F
100
AcDbEntity
  8
0
  6
Continuous
 62
     7
370
    15
100
AcDbLine
 10
146.2793421997
 20
69.5265779487
 30
0.0
 11
148.7785261306
 21
69.5265779487
 31
0.0
  0
ARC
  5
35A
330
1F
100
AcDbEntity
  8
0
  6
Continuous
 62
     7
370
    15
100
AcDbCircle
 10
146.2793422875
 20
71.5265777635
 30
0.0
 40
2.0
100
AcDbArc
 50
218.6821874535
 51
270.0
  0
ARC
  5
35B
330
1F
100
AcDbEntity
  8
0
  6
Continuous
 62
     7
370
    15
100
AcDbCircle
 10
143.1568432883
 20
69.0265777635
 30
0.0
 40
2.0
100
AcDbArc
 50
38.6821874535
 51
90.0
  0
LINE
  5
35C
330
1F
100
AcDbEntity
  8
0
  6
Continuous
 62
     7
370
    15
100
AcDbLine
 10
152.2653463362
 20
74.1487531323
 30
0.0
 11
152.5643560635
 21
74.5265777205
 31
0.0
  0
ARC
  5
35D
330
1F
100
AcDbEntity
  8
0
  6
Continuous
 62
     7
370
    15
100
AcDbCircle
 10
143.1568432883
 20
93.0265777635
 30
0.0
 40
2.0
100
AcDbArc
 50
270.0
 51
321.3178125465
  0
ARC
  5
35E
330
1F
100
AcDbEntity
  8
0
  6
Continuous
 62
     7
370
    15
100
AcDbCircle
 10
146.2793422875
 20
90.5265777635
 30
0.0
 40
2.0
100
AcDbArc
 50
90.0
 51
141.3178125465
  0
LINE
  5
35F
330
1F
100
AcDbEntity
  8
0
  6
Continuous
 62
     7
370
    15
100
AcDbLine
 10
149.5928506083
 20
92.5265779934
 30
0.0
 11
146.2793421997
 21
92.5265779934
 31
0.0
  0
LINE
  5
360
330
1F
100
AcDbEntity
  8
0
  6
Continuous
 62
     7
370
    15
100
AcDbLine
 10
143.1011934364
 20
91.0265786788
 30
0.0
 11
143.1568432199
 21
91.0265786788
 31
0.0
  0
ARC
  5
361
330
1F
100
AcDbEntity
  8
0
  6
Continuous
 62
     7
370
    15
100
AcDbCircle
 10
137.5288579405
 20
93.0265777635
 30
0.0
 40
2.0
100
AcDbArc
 50
218.6821874535
 51
270.0
  0
ARC
  5
362
330
1F
100
AcDbEntity
  8
0
  6
Continuous
 62
     7
370
    15
100
AcDbCircle
 10
134.4063589413
 20
90.5265777635
 30
0.0
 40
2.0
100
AcDbArc
 50
38.6821874535
 51
90.0
  0
LINE
  5
363
330
1F
100
AcDbEntity
  8
0
  6
Continuous
 62
     7
370
    15
100
AcDbLine
 10
134.4063593606
 20
92.5265779934
 30
0.0
 11
131.0928514758
 21
92.5265779934
 31
0.0
  0
LINE
  5
364
330
1F
100
AcDbEntity
  8
0
  6
Continuous
 62
     7
370
    15
100
AcDbLine
 10
137.5288576419
 20
91.0265786788
 30
0.0
 11
137.584507891
 21
91.0265786788
 31
0.0
  0
LINE
  5
365
330
1F
100
AcDbEntity
  8
0
  6
Continuous
 62
     7
370
    15
100
AcDbLine
 10
132.9826931069
 20
71.8772145902
 30
0.0
 11
133.4999254504
 21
72.5718151062
 31
0.0
  0
LINE
  5
366
330
1F
100
AcDbEntity
  8
0
  6
Continuous
 62
     7
370
    15
100
AcDbLine
 10
133.3256172547
 20
71.0819772194
 30
0.0
 11
132.9826931069
 21
71.8772145902
 31
0.0
  0
LINE
  5
367
330
1F
100
AcDbEntity
  8
0
  6
Continuous
 62
     7
370
    15
100
AcDbLine
 10
134.1857756088
 20
70.9813403647
 30
0.0
 11
133.3256172547
 21
71.0819772194
 31
0.0
  0
LINE
  5
368
330
1F
100
AcDbEntity
  8
0
  6
Continuous
 62
     7
370
    15
100
AcDbLine
 10
134.7030088836
 20
71.6759408807
 30
0.0
 11
134.1857756088
 21
70.9813403647
 31
0.0
  0
LINE
  5
369
330
1F
100
AcDbEntity
  8
0
  6
Continuous
 62
     7
370
    15
100
AcDbLine
 10
134.3600838045
 20
72.4711782514
 30
0.0
 11
134.7030088836
 21
71.6759408807
 31
0.0
  0
LINE
  5
36A
330
1F
100
AcDbEntity
  8
0
  6
Continuous
 62
     7
370
    15
100
AcDbLine
 10
133.4999254504
 20
72.5718151062
 30
0.0
 11
134.3600838045
 21
72.4711782514
 31
0.0
  0
CIRCLE
  5
36B
330
1F
100
AcDbEntity
  8
0
  6
Continuous
 62
     7
370
    15
100
AcDbCircle
 10
133.8428506144
 20
71.7765777635
 30
0.0
 40
1.135684019913837
  0
CIRCLE
  5
36C
330
1F
100
AcDbEntity
  8
0
  6
Continuous
 62
     7
370
    15
100
AcDbCircle
 10
133.8428506144
 20
71.7765777635
 30
0.0
 40
1.432283538938813
  0
CIRCLE
  5
36D
330
1F
100
AcDbEntity
  8
0
  6
Continuous
 62
     7
370
    15
100
AcDbCircle
 10
133.8428506144
 20
71.7765777635
 30
0.0
 40
1.843199038049817
  0
CIRCLE
  5
36E
330
1F
100
AcDbEntity
  8
0
  6
Continuous
 62
     7
370
    15
100
AcDbCircle
 10
133.8428506144
 20
71.7765777635
 30
0.0
 40
2.25000000000002
  0
ARC
  5
36F
330
1F
100
AcDbEntity
  8
0
  6
Continuous
 62
     7
370
    15
100
AcDbCircle
 10
133.8428506144
 20
71.7765777635
 30
0.0
 40
0.7500000000000121
100
AcDbArc
 50
83.3268446696
 51
143.3268446696
  0
ARC
  5
370
330
1F
100
AcDbEntity
  8
0
  6
Continuous
 62
     7
370
    15
100
AcDbCircle
 10
133.8428506144
 20
71.7765777635
 30
0.0
 40
0.7500000000000379
100
AcDbArc
 50
323.3268446696
 51
23.3268446696
  0
ARC
  5
371
330
1F
100
AcDbEntity
  8
0
  6
Continuous
 62
     7
370
    15
100
AcDbCircle
 10
133.8428506144
 20
71.7765777635
 30
0.0
 40
0.7500000000000027
100
AcDbArc
 50
263.3268446696
 51
323.3268446696
  0
ARC
  5
372
330
1F
100
AcDbEntity
  8
0
  6
Continuous
 62
     7
370
    15
100
AcDbCircle
 10
133.8428506144
 20
71.7765777635
 30
0.0
 40
0.7499999999999948
100
AcDbArc
 50
203.3268446696
 51
263.3268446696
  0
ARC
  5
373
330
1F
100
AcDbEntity
  8
0
  6
Continuous
 62
     7
370
    15
100
AcDbCircle
 10
133.8428506144
 20
71.7765777635
 30
0.0
 40
0.7499999999999883
100
AcDbArc
 50
143.3268446696
 51
203.3268446696
  0
ARC
  5
374
330
1F
100
AcDbEntity
  8
0
  6
Continuous
 62
     7
370
    15
100
AcDbCircle
 10
133.8428506144
 20
71.7765777635
 30
0.0
 40
0.7500000000000379
100
AcDbArc
 50
23.3268446696
 51
83.3268446696
  0
LINE
  5
375
330
1F
100
AcDbEntity
  8
0
  6
Continuous
 62
     7
370
    15
100
AcDbLine
 10
125.342850999
 20
78.9996894292
 30
0.0
 11
122.8428515205
 21
78.9996894292
 31
0.0
  0
LINE
  5
376
330
1F
100
AcDbEntity
  8
0
  6
Continuous
 62
     7
370
    15
100
AcDbLine
 10
122.8428515205
 20
78.9996894292
 30
0.0
 11
122.8428515205
 21
83.0496890686
 31
0.0
  0
LINE
  5
377
330
1F
100
AcDbEntity
  8
0
  6
Continuous
 62
     7
370
    15
100
AcDbLine
 10
125.342850999
 20
83.0496890686
 30
0.0
 11
122.8428515205
 21
83.0496890686
 31
0.0
  0
LINE
  5
378
330
1F
100
AcDbEntity
  8
0
  6
Continuous
 62
     7
370
    15
100
AcDbLine
 10
125.342850999
 20
78.9996894292
 30
0.0
 11
125.342850999
 21
79.1016385174
 31
0.0
  0
LINE
  5
379
330
1F
100
AcDbEntity
  8
0
  6
Continuous
 62
     7
370
    15
100
AcDbLine
 10
125.342850999
 20
82.9477399803
 30
0.0
 11
125.342850999
 21
83.0496890686
 31
0.0
  0
LINE
  5
37A
330
1F
100
AcDbEntity
  8
0
  6
Continuous
 62
     7
370
    15
100
AcDbLine
 10
122.8428515205
 20
85.0765776104
 30
0.0
 11
125.342850999
 21
85.0765776104
 31
0.0
  0
LINE
  5
37B
330
1F
100
AcDbEntity
  8
0
  6
Continuous
 62
     7
370
    15
100
AcDbLine
 10
125.342850999
 20
83.0496890686
 30
0.0
 11
125.342850999
 21
83.1007106445
 31
0.0
  0
LINE
  5
37C
330
1F
100
AcDbEntity
  8
0
  6
Continuous
 62
     7
370
    15
100
AcDbLine
 10
125.342850999
 20
85.0255551032
 30
0.0
 11
125.342850999
 21
85.0765776104
 31
0.0
  0
LINE
  5
37D
330
1F
100
AcDbEntity
  8
0
  6
Continuous
 62
     7
370
    15
100
AcDbLine
 10
122.8428515205
 20
83.0496890686
 30
0.0
 11
122.8428515205
 21
85.0765776104
 31
0.0
  0
LINE
  5
37E
330
1F
100
AcDbEntity
  8
0
  6
Continuous
 62
     7
370
    15
100
AcDbLine
 10
125.342850999
 20
76.9765783317
 30
0.0
 11
122.8428515205
 21
76.9765783317
 31
0.0
  0
LINE
  5
37F
330
1F
100
AcDbEntity
  8
0
  6
Continuous
 62
     7
370
    15
100
AcDbLine
 10
125.342850999
 20
76.9765783317
 30
0.0
 11
125.342850999
 21
77.0275053783
 31
0.0
  0
LINE
  5
380
330
1F
100
AcDbEntity
  8
0
  6
Continuous
 62
     7
370
    15
100
AcDbLine
 10
125.342850999
 20
78.9487628481
 30
0.0
 11
125.342850999
 21
78.9996894292
 31
0.0
  0
LINE
  5
381
330
1F
100
AcDbEntity
  8
0
  6
Continuous
 62
     7
370
    15
100
AcDbLine
 10
122.8428515205
 20
76.9765783317
 30
0.0
 11
122.8428515205
 21
78.9996894292
 31
0.0
  0
LINE
  5
382
330
1F
100
AcDbEntity
  8
0
  6
Continuous
 62
     7
370
    15
100
AcDbLine
 10
118.3428498516
 20
81.9007620431
 30
0.0
 11
118.3428498516
 21
82.7765777922
 31
0.0
  0
LINE
  5
383
330
1F
100
AcDbEntity
  8
0
  6
Continuous
 62
     7
370
    15
100
AcDbLine
 10
118.3428498516
 20
79.2765776842
 30
0.0
 11
118.3428498516
 21
81.9007620431
 31
0.0
  0
LINE
  5
384
330
1F
100
AcDbEntity
  8
0
  6
Continuous
 62
     7
370
    15
100
AcDbLine
 10
115.8428522358
 20
79.5265777252
 30
0.0
 11
115.8428522358
 21
82.5265782169
 31
0.0
  0
LINE
  5
385
330
1F
100
AcDbEntity
  8
0
  6
Continuous
 62
     7
370
    15
100
AcDbLine
 10
120.8428511927
 20
81.9007620431
 30
0.0
 11
120.8428511927
 21
82.7765777922
 31
0.0
  0
LINE
  5
386
330
1F
100
AcDbEntity
  8
0
  6
Continuous
 62
     7
370
    15
100
AcDbLine
 10
120.8428511927
 20
79.2765776842
 30
0.0
 11
120.8428511927
 21
81.9007620431
 31
0.0
  0
LINE
  5
387
330
1F
100
AcDbEntity
  8
0
  6
Continuous
 62
     7
370
    15
100
AcDbLine
 10
125.342850999
 20
81.8465329922
 30
0.0
 11
125.342850999
 21
82.9477399803
 31
0.0
  0
LINE
  5
388
330
1F
100
AcDbEntity
  8
0
  6
Continuous
 62
     7
370
    15
100
AcDbLine
 10
125.342850999
 20
83.1007106445
 30
0.0
 11
125.342850999
 21
85.0255551032
 31
0.0
  0
LINE
  5
389
330
1F
100
AcDbEntity
  8
0
  6
Continuous
 62
     7
370
    15
100
AcDbLine
 10
125.342850999
 20
77.0275053783
 30
0.0
 11
125.342850999
 21
78.9487628481
 31
0.0
  0
LINE
  5
38A
330
1F
100
AcDbEntity
  8
0
  6
Continuous
 62
     7
370
    15
100
AcDbLine
 10
125.342850999
 20
79.1016385174
 30
0.0
 11
125.342850999
 21
81.8465329922
 31
0.0
  0
LINE
  5
38B
330
1F
100
AcDbEntity
  8
0
  6
Continuous
 62
     7
370
    15
100
AcDbLine
 10
155.3428507941
 20
81.8465329922
 30
0.0
 11
155.3428507941
 21
82.6170096389
 31
0.0
  0
LINE
  5
38C
330
1F
100
AcDbEntity
  8
0
  6
Continuous
 62
     7
370
    15
100
AcDbLine
 10
155.3428507941
 20
82.7774439222
 30
0.0
 11
155.3428507941
 21
85.0002985663
 31
0.0
  0
LINE
  5
38D
330
1F
100
AcDbEntity
  8
0
  6
Continuous
 62
     7
370
    15
100
AcDbLine
 10
155.3428507941
 20
77.0265777811
 30
0.0
 11
155.3428507941
 21
78.6432890437
 31
0.0
  0
LINE
  5
38E
330
1F
100
AcDbEntity
  8
0
  6
Continuous
 62
     7
370
    15
100
AcDbLine
 10
155.3428507941
 20
78.7873916543
 30
0.0
 11
155.3428507941
 21
81.8465329922
 31
0.0
  0
DIMENSION
  5
38F
330
1F
100
AcDbEntity
  8
0
  6
Continuous
 62
     7
370
     0
100
AcDbDimension
  2
_D_7
 10
174.3428506144
 20
64.5265777635
 30
0.0
 11
174.3428506144
 21
79.227102337
 31
0.0
 70
   160
  1
<>
 71
     2
 42
-1.0
  3
SLDDIMSTYLE0
100
AcDbAlignedDimension
 13
151.0272103257
 23
92.5265777635
 33
0.0
 14
164.3428506144
 24
64.5265777635
 34
0.0
 50
90.0
100
AcDbRotatedDimension
  0
DIMENSION
  5
399
330
1F
100
AcDbEntity
  8
0
  6
Continuous
 62
     7
370
     0
100
AcDbDimension
  2
_D_8
 10
133.8428506144
 20
99.6744262539
 30
0.0
 11
140.3428506144
 21
99.6744262539
 31
0.0
 70
   160
  1
<>
 71
     2
 42
-1.0
  3
SLDDIMSTYLE0
100
AcDbAlignedDimension
 13
146.8428506144
 23
95.0265777635
 33
0.0
 14
133.8428506144
 24
95.0265777635
 34
0.0
100
AcDbRotatedDimension
  0
DIMENSION
  5
3A3
330
1F
100
AcDbEntity
  8
0
  6
Continuous
 62
     7
370
     0
100
AcDbDimension
  2
_D_9
 10
154.5428506144
 20
108.4374406068
 30
0.0
 11
140.3428506144
 21
108.4374406068
 31
0.0
 70
   160
  1
<>
 71
     2
 42
-1.0
  3
SLDDIMSTYLE5
100
AcDbAlignedDimension
 13
126.1428506144
 23
89.0109374749
 33
0.0
 14
154.5428506144
 24
89.0109374749
 34
0.0
100
AcDbRotatedDimension
  0
INSERT
  5
3B9
330
1F
100
AcDbEntity
  8
0
  6
Continuous
 62
     7
370
     0
100
AcDbBlockReference
  2
SW_CENTERMARKSYMBOL_2
 10
133.8428506144
 20
71.7765777635
 30
0.0
  0
INSERT
  5
3C5
330
1F
100
AcDbEntity
  8
0
  6
Continuous
 62
     7
370
     0
100
AcDbBlockReference
  2
SW_CENTERMARKSYMBOL_3
 10
140.3428506144
 20
81.0265777635
 30
0.0
  0
INSERT
  5
3D1
330
1F
100
AcDbEntity
  8
0
  6
Continuous
 62
     7
370
     0
100
AcDbBlockReference
  2
SW_CENTERMARKSYMBOL_4
 10
146.8428506144
 20
90.2765777635
 30
0.0
  0
INSERT
  5
3DD
330
1F
100
AcDbEntity
  8
0
  6
Continuous
 62
     7
370
     0
100
AcDbBlockReference
  2
SW_CENTERMARKSYMBOL_5
 10
146.8428506144
 20
71.7765777635
 30
0.0
  0
INSERT
  5
3E9
330
1F
100
AcDbEntity
  8
0
  6
Continuous
 62
     7
370
     0
100
AcDbBlockReference
  2
SW_CENTERMARKSYMBOL_6
 10
133.8428506144
 20
90.2765777635
 30
0.0
  0
LINE
  5
3EA
330
1F
100
AcDbEntity
  8
0
  6
Continuous
 62
     7
370
    15
100
AcDbLine
 10
42.7552483026
 20
89.6571703774
 30
0.0
 11
39.7552483026
 21
89.6571703774
 31
0.0
  0
LINE
  5
3EB
330
1F
100
AcDbEntity
  8
0
  6
Continuous
 62
     7
370
    15
100
AcDbLine
 10
81.7552483026
 20
89.7082455094
 30
0.0
 11
42.7552483026
 21
89.7082455094
 31
0.0
  0
ARC
  5
3EC
330
1F
100
AcDbEntity
  8
0
  6
Continuous
 62
     7
370
    15
100
AcDbCircle
 10
40.9605560628
 20
70.5265777635
 30
0.0
 40
1.0
100
AcDbArc
 50
216.3843518158
 51
270.0
  0
ARC
  5
3ED
330
1F
100
AcDbEntity
  8
0
  6
Continuous
 62
     7
370
    15
100
AcDbCircle
 10
40.9605560628
 20
73.0265777635
 30
0.0
 40
1.000000000000014
100
AcDbArc
 50
90.0
 51
143.6156481842
  0
LINE
  5
3EE
330
1F
100
AcDbEntity
  8
0
  6
Continuous
 62
     7
370
    15
100
AcDbLine
 10
41.2552483026
 20
74.0265777635
 30
0.0
 11
40.9605560628
 21
74.0265777635
 31
0.0
  0
LINE
  5
3EF
330
1F
100
AcDbEntity
  8
0
  6
Continuous
 62
     7
370
    15
100
AcDbLine
 10
40.9605560628
 20
69.5265777635
 30
0.0
 11
41.2552483026
 21
69.5265777635
 31
0.0
  0
LINE
  5
3F0
330
1F
100
AcDbEntity
  8
0
  6
Continuous
 62
     7
370
    15
100
AcDbLine
 10
40.1555002254
 20
73.6197768016
 30
0.0
 11
39.852720384
 21
73.2088613025
 31
0.0
  0
LINE
  5
3F1
330
1F
100
AcDbEntity
  8
0
  6
Continuous
 62
     7
370
    15
100
AcDbLine
 10
39.852720384
 20
70.3442942246
 30
0.0
 11
40.1555002254
 21
69.9333787255
 31
0.0
  0
ARC
  5
3F2
330
1F
100
AcDbEntity
  8
0
  6
Continuous
 62
     7
370
    15
100
AcDbCircle
 10
40.2552483026
 20
72.9122617835
 30
0.0
 40
0.5
100
AcDbArc
 50
143.6156481842
 51
180.0
  0
ARC
  5
3F3
330
1F
100
AcDbEntity
  8
0
  6
Continuous
 62
     7
370
    15
100
AcDbCircle
 10
40.2552483026
 20
70.6408937436
 30
0.0
 40
0.5000000000000059
100
AcDbArc
 50
180.0
 51
216.3843518158
  0
LINE
  5
3F4
330
1F
100
AcDbEntity
  8
0
  6
Continuous
 62
     7
370
    15
100
AcDbLine
 10
83.2552483026
 20
69.5265777635
 30
0.0
 11
83.5499405425
 21
69.5265777635
 31
0.0
  0
LINE
  5
3F5
330
1F
100
AcDbEntity
  8
0
  6
Continuous
 62
     7
370
    15
100
AcDbLine
 10
83.5499405425
 20
74.0265777635
 30
0.0
 11
83.2552483026
 21
74.0265777635
 31
0.0
  0
ARC
  5
3F6
330
1F
100
AcDbEntity
  8
0
  6
Continuous
 62
     7
370
    15
100
AcDbCircle
 10
83.5499405425
 20
73.0265777635
 30
0.0
 40
1.000000000000014
100
AcDbArc
 50
36.3843518158
 51
90.0
  0
ARC
  5
3F7
330
1F
100
AcDbEntity
  8
0
  6
Continuous
 62
     7
370
    15
100
AcDbCircle
 10
83.5499405425
 20
70.5265777635
 30
0.0
 40
1.000000000000006
100
AcDbArc
 50
270.0
 51
323.6156481842
  0
LINE
  5
3F8
330
1F
100
AcDbEntity
  8
0
  6
Continuous
 62
     7
370
    15
100
AcDbLine
 10
84.3549963799
 20
69.9333787255
 30
0.0
 11
84.6577762213
 21
70.3442942246
 31
0.0
  0
LINE
  5
3F9
330
1F
100
AcDbEntity
  8
0
  6
Continuous
 62
     7
370
    15
100
AcDbLine
 10
84.6577762213
 20
73.2088613025
 30
0.0
 11
84.3549963799
 21
73.6197768016
 31
0.0
  0
ARC
  5
3FA
330
1F
100
AcDbEntity
  8
0
  6
Continuous
 62
     7
370
    15
100
AcDbCircle
 10
84.2552483026
 20
70.6408937436
 30
0.0
 40
0.5
100
AcDbArc
 50
323.6156481842
 51
0.0
  0
ARC
  5
3FB
330
1F
100
AcDbEntity
  8
0
  6
Continuous
 62
     7
370
    15
100
AcDbCircle
 10
84.2552483026
 20
72.9122617835
 30
0.0
 40
0.5
100
AcDbArc
 50
0.0
 51
36.3843518158
  0
ARC
  5
3FC
330
1F
100
AcDbEntity
  8
0
  6
Continuous
 62
     7
370
    15
100
AcDbCircle
 10
40.9605560628
 20
91.5265777635
 30
0.0
 40
1.0
100
AcDbArc
 50
90.0
 51
143.6156481842
  0
LINE
  5
3FD
330
1F
100
AcDbEntity
  8
0
  6
Continuous
 62
     7
370
    15
100
AcDbLine
 10
41.2552483026
 20
92.5265777635
 30
0.0
 11
40.9605560628
 21
92.5265777635
 31
0.0
  0
LINE
  5
3FE
330
1F
100
AcDbEntity
  8
0
  6
Continuous
 62
     7
370
    15
100
AcDbLine
 10
40.1555002254
 20
92.1197768016
 30
0.0
 11
39.852720384
 21
91.7088613025
 31
0.0
  0
ARC
  5
3FF
330
1F
100
AcDbEntity
  8
0
  6
Continuous
 62
     7
370
    15
100
AcDbCircle
 10
40.2552483026
 20
91.4122617835
 30
0.0
 40
0.5
100
AcDbArc
 50
143.6156481842
 51
180.0
  0
LINE
  5
400
330
1F
100
AcDbEntity
  8
0
  6
Continuous
 62
     7
370
    15
100
AcDbLine
 10
42.7552483026
 20
89.5395921134
 30
0.0
 11
39.7552483026
 21
89.5395921134
 31
0.0
  0
LINE
  5
401
330
1F
100
AcDbEntity
  8
0
  6
Continuous
 62
     7
370
    15
100
AcDbLine
 10
42.7552483026
 20
89.5395921134
 30
0.0
 11
42.7552483026
 21
89.0109374749
 31
0.0
  0
LINE
  5
402
330
1F
100
AcDbEntity
  8
0
  6
Continuous
 62
     7
370
    15
100
AcDbLine
 10
39.9552483026
 20
89.0109374749
 30
0.0
 11
42.7552483026
 21
89.0109374749
 31
0.0
  0
ARC
  5
403
330
1F
100
AcDbEntity
  8
0
  6
Continuous
 62
     7
370
    15
100
AcDbCircle
 10
28.4552483026
 20
81.0265777635
 30
0.0
 40
13.99999999999984
100
AcDbArc
 50
34.7719440319
 51
36.1822872212
  0
LINE
  5
404
330
1F
100
AcDbEntity
  8
0
  6
Continuous
 62
     7
370
    15
100
AcDbLine
 10
39.7552483026
 20
89.5395921134
 30
0.0
 11
39.7552483026
 21
89.2915641519
 31
0.0
  0
LINE
  5
405
330
1F
100
AcDbEntity
  8
0
  6
Continuous
 62
     7
370
    15
100
AcDbLine
 10
42.7552483026
 20
89.0109374749
 30
0.0
 11
42.7552483026
 21
77.0265777635
 31
0.0
  0
LINE
  5
406
330
1F
100
AcDbEntity
  8
0
  6
Continuous
 62
     7
370
    15
100
AcDbLine
 10
39.9552483026
 20
77.0265777635
 30
0.0
 11
42.7552483026
 21
77.0265777635
 31
0.0
  0
LINE
  5
407
330
1F
100
AcDbEntity
  8
0
  6
Continuous
 62
     7
370
    15
100
AcDbLine
 10
39.9552483026
 20
89.0109374749
 30
0.0
 11
39.9552483026
 21
77.0265777635
 31
0.0
  0
LINE
  5
408
330
1F
100
AcDbEntity
  8
0
  6
Continuous
 62
     7
370
    15
100
AcDbLine
 10
42.7552483026
 20
77.0265777635
 30
0.0
 11
42.7552483026
 21
74.1471082152
 31
0.0
  0
LINE
  5
409
330
1F
100
AcDbEntity
  8
0
  6
Continuous
 62
     7
370
    15
100
AcDbLine
 10
41.2552483026
 20
74.1471082152
 30
0.0
 11
42.7552483026
 21
74.1471082152
 31
0.0
  0
LINE
  5
40A
330
1F
100
AcDbEntity
  8
0
  6
Continuous
 62
     7
370
    15
100
AcDbLine
 10
41.2552483026
 20
74.5265777635
 30
0.0
 11
41.2552483026
 21
74.1471082152
 31
0.0
  0
LINE
  5
40B
330
1F
100
AcDbEntity
  8
0
  6
Continuous
 62
     7
370
    15
100
AcDbLine
 10
41.2552483026
 20
74.5265777635
 30
0.0
 11
39.7552483026
 21
74.5265777635
 31
0.0
  0
LINE
  5
40C
330
1F
100
AcDbEntity
  8
0
  6
Continuous
 62
     7
370
    15
100
AcDbLine
 10
39.7552483026
 20
76.7738603722
 30
0.0
 11
39.7552483026
 21
74.5265777635
 31
0.0
  0
LINE
  5
40D
330
1F
100
AcDbEntity
  8
0
  6
Continuous
 62
     7
370
    15
100
AcDbLine
 10
39.9552483026
 20
77.0265777635
 30
0.0
 11
39.7552483026
 21
76.7738603722
 31
0.0
  0
LINE
  5
40E
330
1F
100
AcDbEntity
  8
0
  6
Continuous
 62
     7
370
    15
100
AcDbLine
 10
39.7552483026
 20
76.7738603722
 30
0.0
 11
39.7552483026
 21
89.2915641519
 31
0.0
  0
LINE
  5
40F
330
1F
100
AcDbEntity
  8
0
  6
Continuous
 62
     7
370
    15
100
AcDbLine
 10
39.7552483026
 20
89.5395921134
 30
0.0
 11
39.7552483026
 21
89.6571703774
 31
0.0
  0
LINE
  5
410
330
1F
100
AcDbEntity
  8
0
  6
Continuous
 62
     7
370
    15
100
AcDbLine
 10
41.2552483026
 20
91.1763889809
 30
0.0
 11
41.2552483026
 21
89.827394122
 31
0.0
  0
LINE
  5
411
330
1F
100
AcDbEntity
  8
0
  6
Continuous
 62
     7
370
    15
100
AcDbLine
 10
42.7552483026
 20
91.1763889809
 30
0.0
 11
41.2552483026
 21
91.1763889809
 31
0.0
  0
LINE
  5
412
330
1F
100
AcDbEntity
  8
0
  6
Continuous
 62
     7
370
    15
100
AcDbLine
 10
41.2552483026
 20
72.8173265545
 30
0.0
 11
42.7552483026
 21
72.8173265545
 31
0.0
  0
LINE
  5
413
330
1F
100
AcDbEntity
  8
0
  6
Continuous
 62
     7
370
    15
100
AcDbLine
 10
41.2552483026
 20
74.1471082152
 30
0.0
 11
41.2552483026
 21
72.8173265545
 31
0.0
  0
LINE
  5
414
330
1F
100
AcDbEntity
  8
0
  6
Continuous
 62
     7
370
    15
100
AcDbLine
 10
42.7552483026
 20
74.1471082152
 30
0.0
 11
42.7552483026
 21
72.8173265545
 31
0.0
  0
LINE
  5
415
330
1F
100
AcDbEntity
  8
0
  6
Continuous
 62
     7
370
    15
100
AcDbLine
 10
42.7552483026
 20
91.6906227553
 30
0.0
 11
41.2552483026
 21
91.6906227553
 31
0.0
  0
LINE
  5
416
330
1F
100
AcDbEntity
  8
0
  6
Continuous
 62
     7
370
    15
100
AcDbLine
 10
41.2552483026
 20
91.6906227553
 30
0.0
 11
41.2552483026
 21
92.14091925
 31
0.0
  0
LINE
  5
417
330
1F
100
AcDbEntity
  8
0
  6
Continuous
 62
     7
370
    15
100
AcDbLine
 10
41.2552483026
 20
92.14091925
 30
0.0
 11
42.7552483026
 21
92.14091925
 31
0.0
  0
LINE
  5
418
330
1F
100
AcDbEntity
  8
0
  6
Continuous
 62
     7
370
    15
100
AcDbLine
 10
42.7552483026
 20
69.5265777635
 30
0.0
 11
41.2552483026
 21
69.5265777635
 31
0.0
  0
LINE
  5
419
330
1F
100
AcDbEntity
  8
0
  6
Continuous
 62
     7
370
    15
100
AcDbLine
 10
41.2552483026
 20
72.8173265545
 30
0.0
 11
41.2552483026
 21
69.5265777635
 31
0.0
  0
LINE
  5
41A
330
1F
100
AcDbEntity
  8
0
  6
Continuous
 62
     7
370
    15
100
AcDbLine
 10
42.7552483026
 20
72.8173265545
 30
0.0
 11
42.7552483026
 21
72.7902643827
 31
0.0
  0
LINE
  5
41B
330
1F
100
AcDbEntity
  8
0
  6
Continuous
 62
     7
370
    15
100
AcDbLine
 10
42.7552483026
 20
72.3841417632
 30
0.0
 11
42.7552483026
 21
70.8175340822
 31
0.0
  0
LINE
  5
41C
330
1F
100
AcDbEntity
  8
0
  6
Continuous
 62
     7
370
    15
100
AcDbLine
 10
42.7552483026
 20
70.3301339137
 30
0.0
 11
42.7552483026
 21
69.6884989399
 31
0.0
  0
LINE
  5
41D
330
1F
100
AcDbEntity
  8
0
  6
Continuous
 62
     7
370
    15
100
AcDbLine
 10
41.2552483026
 20
91.1763889809
 30
0.0
 11
41.2552483026
 21
91.6906227553
 31
0.0
  0
LINE
  5
41E
330
1F
100
AcDbEntity
  8
0
  6
Continuous
 62
     7
370
    15
100
AcDbLine
 10
42.7552483026
 20
91.6906227553
 30
0.0
 11
42.7552483026
 21
91.1763889809
 31
0.0
  0
LINE
  5
41F
330
1F
100
AcDbEntity
  8
0
  6
Continuous
 62
     7
370
    15
100
AcDbLine
 10
41.2552483026
 20
92.5265777635
 30
0.0
 11
42.7552483026
 21
92.5265777635
 31
0.0
  0
LINE
  5
420
330
1F
100
AcDbEntity
  8
0
  6
Continuous
 62
     7
370
    15
100
AcDbLine
 10
41.2552483026
 20
92.5265777635
 30
0.0
 11
41.2552483026
 21
92.14091925
 31
0.0
  0
LINE
  5
421
330
1F
100
AcDbEntity
  8
0
  6
Continuous
 62
     7
370
    15
100
AcDbLine
 10
42.7552483026
 20
92.5265777635
 30
0.0
 11
42.7552483026
 21
92.14091925
 31
0.0
  0
LINE
  5
422
330
1F
100
AcDbEntity
  8
0
  6
Continuous
 62
     7
370
    15
100
AcDbLine
 10
39.7552483026
 20
74.5265777635
 30
0.0
 11
39.7552483026
 21
72.9122617835
 31
0.0
  0
ARC
  5
423
330
1F
100
AcDbEntity
  8
0
  6
Continuous
 62
     7
370
    15
100
AcDbCircle
 10
60.7552483026
 20
67.0265777635
 30
0.0
 40
1.0
100
AcDbArc
 50
0.0
 51
90.0
  0
LINE
  5
424
330
1F
100
AcDbEntity
  8
0
  6
Continuous
 62
     7
370
    15
100
AcDbLine
 10
61.7552483026
 20
67.0265777635
 30
0.0
 11
61.7552483026
 21
64.5265777635
 31
0.0
  0
LINE
  5
425
330
1F
100
AcDbEntity
  8
0
  6
Continuous
 62
     7
370
    15
100
AcDbLine
 10
61.7552483026
 20
64.5265777635
 30
0.0
 11
59.7552483026
 21
64.5265777635
 31
0.0
  0
LINE
  5
426
330
1F
100
AcDbEntity
  8
0
  6
Continuous
 62
     7
370
    15
100
AcDbLine
 10
59.7552483026
 20
64.5265777635
 30
0.0
 11
59.7552483026
 21
68.0265777635
 31
0.0
  0
LINE
  5
427
330
1F
100
AcDbEntity
  8
0
  6
Continuous
 62
     7
370
    15
100
AcDbLine
 10
59.7552483026
 20
68.0265777635
 30
0.0
 11
60.7552483026
 21
68.0265777635
 31
0.0
  0
LINE
  5
428
330
1F
100
AcDbEntity
  8
0
  6
Continuous
 62
     7
370
    15
100
AcDbLine
 10
60.7552483026
 20
68.0265777635
 30
0.0
 11
80.7552483026
 21
68.0265777635
 31
0.0
  0
ARC
  5
429
330
1F
100
AcDbEntity
  8
0
  6
Continuous
 62
     7
370
    15
100
AcDbCircle
 10
80.7552483026
 20
67.0265777635
 30
0.0
 40
1.0
100
AcDbArc
 50
90.0
 51
180.0
  0
LINE
  5
42A
330
1F
100
AcDbEntity
  8
0
  6
Continuous
 62
     7
370
    15
100
AcDbLine
 10
79.7552483026
 20
67.0265777635
 30
0.0
 11
61.7552483026
 21
67.0265777635
 31
0.0
  0
LINE
  5
42B
330
1F
100
AcDbEntity
  8
0
  6
Continuous
 62
     7
370
    15
100
AcDbLine
 10
79.7552483026
 20
64.5265777635
 30
0.0
 11
79.7552483026
 21
67.0265777635
 31
0.0
  0
LINE
  5
42C
330
1F
100
AcDbEntity
  8
0
  6
Continuous
 62
     7
370
    15
100
AcDbLine
 10
61.7552483026
 20
64.5265777635
 30
0.0
 11
79.7552483026
 21
64.5265777635
 31
0.0
  0
LINE
  5
42D
330
1F
100
AcDbEntity
  8
0
  6
Continuous
 62
     7
370
    15
100
AcDbLine
 10
80.7552483026
 20
68.0265777635
 30
0.0
 11
81.7552483026
 21
68.0265777635
 31
0.0
  0
LINE
  5
42E
330
1F
100
AcDbEntity
  8
0
  6
Continuous
 62
     7
370
    15
100
AcDbLine
 10
81.7552483026
 20
68.0265777635
 30
0.0
 11
81.7552483026
 21
64.5265777635
 31
0.0
  0
LINE
  5
42F
330
1F
100
AcDbEntity
  8
0
  6
Continuous
 62
     7
370
    15
100
AcDbLine
 10
81.7552483026
 20
64.5265777635
 30
0.0
 11
79.7552483026
 21
64.5265777635
 31
0.0
  0
LINE
  5
430
330
1F
100
AcDbEntity
  8
0
  6
Continuous
 62
     7
370
    15
100
AcDbLine
 10
59.7552483026
 20
68.3705427949
 30
0.0
 11
81.7552483026
 21
68.3705427949
 31
0.0
  0
LINE
  5
431
330
1F
100
AcDbEntity
  8
0
  6
Continuous
 62
     7
370
    15
100
AcDbLine
 10
81.7552483026
 20
68.3705427949
 30
0.0
 11
81.7552483026
 21
68.0265777635
 31
0.0
  0
LINE
  5
432
330
1F
100
AcDbEntity
  8
0
  6
Continuous
 62
     7
370
    15
100
AcDbLine
 10
59.7552483026
 20
68.3705427949
 30
0.0
 11
59.7552483026
 21
68.0265777635
 31
0.0
  0
LINE
  5
433
330
1F
100
AcDbEntity
  8
0
  6
Continuous
 62
     7
370
    15
100
AcDbLine
 10
42.7552483026
 20
77.0265777635
 30
0.0
 11
46.4478719971
 21
77.0265777635
 31
0.0
  0
LINE
  5
434
330
1F
100
AcDbEntity
  8
0
  6
Continuous
 62
     7
370
    15
100
AcDbLine
 10
46.5980261392
 20
77.0265777635
 30
0.0
 11
74.6665737808
 21
77.0265777635
 31
0.0
  0
LINE
  5
435
330
1F
100
AcDbEntity
  8
0
  6
Continuous
 62
     7
370
    15
100
AcDbLine
 10
74.8397770288
 20
77.0265777635
 30
0.0
 11
81.7552483026
 21
77.0265777635
 31
0.0
  0
LINE
  5
436
330
1F
100
AcDbEntity
  8
0
  6
Continuous
 62
     7
370
    15
100
AcDbLine
 10
42.7552483026
 20
89.0109374749
 30
0.0
 11
81.7552483026
 21
89.0109374749
 31
0.0
  0
LINE
  5
437
330
1F
100
AcDbEntity
  8
0
  6
Continuous
 62
     7
370
    15
100
AcDbLine
 10
81.7552483026
 20
77.0265777635
 30
0.0
 11
81.7552483026
 21
89.0109374749
 31
0.0
  0
LINE
  5
438
330
1F
100
AcDbEntity
  8
0
  6
Continuous
 62
     7
370
    15
100
AcDbLine
 10
81.7552483026
 20
89.6311682304
 30
0.0
 11
42.7552483026
 21
89.6311682304
 31
0.0
  0
LINE
  5
439
330
1F
100
AcDbEntity
  8
0
  6
Continuous
 62
     7
370
    15
100
AcDbLine
 10
42.7552483026
 20
89.0109374749
 30
0.0
 11
42.7552483026
 21
89.6311682304
 31
0.0
  0
LINE
  5
43A
330
1F
100
AcDbEntity
  8
0
  6
Continuous
 62
     7
370
    15
100
AcDbLine
 10
81.7552483026
 20
89.0109374749
 30
0.0
 11
81.7552483026
 21
89.6311682304
 31
0.0
  0
LINE
  5
43B
330
1F
100
AcDbEntity
  8
0
  6
Continuous
 62
     7
370
    15
100
AcDbLine
 10
42.7552483026
 20
74.1467472759
 30
0.0
 11
81.7552483026
 21
74.1467472759
 31
0.0
  0
LINE
  5
43C
330
1F
100
AcDbEntity
  8
0
  6
Continuous
 62
     7
370
    15
100
AcDbLine
 10
42.7552483026
 20
77.0265777635
 30
0.0
 11
42.7552483026
 21
74.1467472759
 31
0.0
  0
LINE
  5
43D
330
1F
100
AcDbEntity
  8
0
  6
Continuous
 62
     7
370
    15
100
AcDbLine
 10
81.7552483026
 20
77.0265777635
 30
0.0
 11
81.7552483026
 21
74.148753143
 31
0.0
  0
LINE
  5
43E
330
1F
100
AcDbEntity
  8
0
  6
Continuous
 62
     7
370
    15
100
AcDbLine
 10
42.7552483026
 20
89.6311682304
 30
0.0
 11
42.7552483026
 21
89.7082455094
 31
0.0
  0
LINE
  5
43F
330
1F
100
AcDbEntity
  8
0
  6
Continuous
 62
     7
370
    15
100
AcDbLine
 10
81.7552483026
 20
70.3169223026
 30
0.0
 11
59.7552483026
 21
70.3169223026
 31
0.0
  0
LINE
  5
440
330
1F
100
AcDbEntity
  8
0
  6
Continuous
 62
     7
370
    15
100
AcDbLine
 10
81.7552483026
 20
70.3169223026
 30
0.0
 11
81.7552483026
 21
68.3705427949
 31
0.0
  0
LINE
  5
441
330
1F
100
AcDbEntity
  8
0
  6
Continuous
 62
     7
370
    15
100
AcDbLine
 10
59.7552483026
 20
68.3705427949
 30
0.0
 11
59.7552483026
 21
70.3169223026
 31
0.0
  0
LINE
  5
442
330
1F
100
AcDbEntity
  8
0
  6
Continuous
 62
     7
370
    15
100
AcDbLine
 10
42.7552483026
 20
91.0752915776
 30
0.0
 11
81.7552483026
 21
91.0752915776
 31
0.0
  0
LINE
  5
443
330
1F
100
AcDbEntity
  8
0
  6
Continuous
 62
     7
370
    15
100
AcDbLine
 10
42.7552483026
 20
91.0752915776
 30
0.0
 11
42.7552483026
 21
89.7082455094
 31
0.0
  0
LINE
  5
444
330
1F
100
AcDbEntity
  8
0
  6
Continuous
 62
     7
370
    15
100
AcDbLine
 10
42.7552483026
 20
72.4945180285
 30
0.0
 11
59.7552483026
 21
72.4945180285
 31
0.0
  0
LINE
  5
445
330
1F
100
AcDbEntity
  8
0
  6
Continuous
 62
     7
370
    15
100
AcDbLine
 10
42.7552483026
 20
72.4945180285
 30
0.0
 11
42.7552483026
 21
72.8015777635
 31
0.0
  0
LINE
  5
446
330
1F
100
AcDbEntity
  8
0
  6
Continuous
 62
     7
370
    15
100
AcDbLine
 10
81.7552483026
 20
71.7238963117
 30
0.0
 11
81.7552483026
 21
70.3169223026
 31
0.0
  0
LINE
  5
447
330
1F
100
AcDbEntity
  8
0
  6
Continuous
 62
     7
370
    15
100
AcDbLine
 10
59.7552483026
 20
72.4945180285
 30
0.0
 11
59.7552483026
 21
70.3169223026
 31
0.0
  0
LINE
  5
448
330
1F
100
AcDbEntity
  8
0
  6
Continuous
 62
     7
370
    15
100
AcDbLine
 10
42.7552483026
 20
92.0701742293
 30
0.0
 11
81.7552483026
 21
92.0701742293
 31
0.0
  0
LINE
  5
449
330
1F
100
AcDbEntity
  8
0
  6
Continuous
 62
     7
370
    15
100
AcDbLine
 10
81.7552483026
 20
91.7709872092
 30
0.0
 11
42.7552483026
 21
91.7709872092
 31
0.0
  0
LINE
  5
44A
330
1F
100
AcDbEntity
  8
0
  6
Continuous
 62
     7
370
    15
100
AcDbLine
 10
42.7552483026
 20
91.7709872092
 30
0.0
 11
42.7552483026
 21
92.0701742293
 31
0.0
  0
LINE
  5
44B
330
1F
100
AcDbEntity
  8
0
  6
Continuous
 62
     7
370
    15
100
AcDbLine
 10
42.7552483026
 20
91.7709872092
 30
0.0
 11
42.7552483026
 21
91.0752915776
 31
0.0
  0
LINE
  5
44C
330
1F
100
AcDbEntity
  8
0
  6
Continuous
 62
     7
370
    15
100
AcDbLine
 10
42.7552483026
 20
92.5265777635
 30
0.0
 11
81.7552483026
 21
92.5265777635
 31
0.0
  0
LINE
  5
44D
330
1F
100
AcDbEntity
  8
0
  6
Continuous
 62
     7
370
    15
100
AcDbLine
 10
42.7552483026
 20
92.0701742293
 30
0.0
 11
42.7552483026
 21
92.5265777635
 31
0.0
  0
LINE
  5
44E
330
1F
100
AcDbEntity
  8
0
  6
Continuous
 62
     7
370
    15
100
AcDbLine
 10
81.7552483026
 20
92.0701742293
 30
0.0
 11
81.7552483026
 21
92.5265777635
 31
0.0
  0
LINE
  5
44F
330
1F
100
AcDbEntity
  8
0
  6
Continuous
 62
     7
370
    15
100
AcDbLine
 10
59.7552483026
 20
70.5136119012
 30
0.0
 11
42.7552483026
 21
70.5136119012
 31
0.0
  0
LINE
  5
450
330
1F
100
AcDbEntity
  8
0
  6
Continuous
 62
     7
370
    15
100
AcDbLine
 10
42.7552483026
 20
70.5136119012
 30
0.0
 11
42.7552483026
 21
70.8175340822
 31
0.0
  0
LINE
  5
451
330
1F
100
AcDbEntity
  8
0
  6
Continuous
 62
     7
370
    15
100
AcDbLine
 10
42.7552483026
 20
72.3841417632
 30
0.0
 11
42.7552483026
 21
72.4945180285
 31
0.0
  0
LINE
  5
452
330
1F
100
AcDbEntity
  8
0
  6
Continuous
 62
     7
370
    15
100
AcDbLine
 10
59.7552483026
 20
69.5265777635
 30
0.0
 11
42.7552483026
 21
69.5265777635
 31
0.0
  0
LINE
  5
453
330
1F
100
AcDbEntity
  8
0
  6
Continuous
 62
     7
370
    15
100
AcDbLine
 10
42.7552483026
 20
69.5265777635
 30
0.0
 11
42.7552483026
 21
69.6884989399
 31
0.0
  0
LINE
  5
454
330
1F
100
AcDbEntity
  8
0
  6
Continuous
 62
     7
370
    15
100
AcDbLine
 10
42.7552483026
 20
70.3301339137
 30
0.0
 11
42.7552483026
 21
70.5136119012
 31
0.0
  0
LINE
  5
455
330
1F
100
AcDbEntity
  8
0
  6
Continuous
 62
     7
370
    15
100
AcDbLine
 10
87.2552483026
 20
78.0265777635
 30
0.0
 11
87.2552483026
 21
78.3808264525
 31
0.0
  0
LINE
  5
456
330
1F
100
AcDbEntity
  8
0
  6
Continuous
 62
     7
370
    15
100
AcDbLine
 10
84.7552483026
 20
78.0265777635
 30
0.0
 11
87.2552483026
 21
78.0265777635
 31
0.0
  0
LINE
  5
457
330
1F
100
AcDbEntity
  8
0
  6
Continuous
 62
     7
370
    15
100
AcDbLine
 10
84.7552483026
 20
84.0265777635
 30
0.0
 11
87.2552483026
 21
84.0265777635
 31
0.0
  0
LINE
  5
458
330
1F
100
AcDbEntity
  8
0
  6
Continuous
 62
     7
370
    15
100
AcDbLine
 10
87.2552483026
 20
83.6723290746
 30
0.0
 11
87.2552483026
 21
84.0265777635
 31
0.0
  0
LINE
  5
459
330
1F
100
AcDbEntity
  8
0
  6
Continuous
 62
     7
370
    15
100
AcDbLine
 10
84.7552483026
 20
83.6723290746
 30
0.0
 11
87.2552483026
 21
83.6723290746
 31
0.0
  0
LINE
  5
45A
330
1F
100
AcDbEntity
  8
0
  6
Continuous
 62
     7
370
    15
100
AcDbLine
 10
84.7552483026
 20
78.3808264525
 30
0.0
 11
87.2552483026
 21
78.3808264525
 31
0.0
  0
SPLINE
  5
45B
330
1F
100
AcDbEntity
  8
0
  6
Continuous
 62
     7
370
    15
100
AcDbSpline
210
0.0
220
0.0
230
1.0
 70
     8
 71
     3
 72
     8
 73
     4
 74
     0
 42
0.00000001
 43
0.00000001
 12
1.0
 22
0.0
 32
0.0
 13
1.0
 23
0.0
 33
0.0
 40
0.0
 40
0.0
 40
0.0
 40
0.0
 40
1.0
 40
1.0
 40
1.0
 40
1.0
 10
87.2552483026422
 20
78.38082645247516
 30
0.0
 10
87.43569912474516
 20
78.65364245199605
 30
0.0
 10
87.60538248481204
 20
78.93284503085529
 30
0.0
 10
87.7552483026422
 20
79.22380212580775
 30
0.0
  0
SPLINE
  5
45C
330
1F
100
AcDbEntity
  8
0
  6
Continuous
 62
     7
370
    15
100
AcDbSpline
210
0.0
220
0.0
230
1.0
 70
     8
 71
     3
 72
     8
 73
     4
 74
     0
 42
0.00000001
 43
0.00000001
 12
1.0
 22
0.0
 32
0.0
 13
1.0
 23
0.0
 33
0.0
 40
0.0
 40
0.0
 40
0.0
 40
0.0
 40
1.0
 40
1.0
 40
1.0
 40
1.0
 10
87.7552483026422
 20
82.82935340127175
 30
0.0
 10
87.60538248481204
 20
83.12031049622419
 30
0.0
 10
87.43569912474516
 20
83.39951307508343
 30
0.0
 10
87.2552483026422
 20
83.67232907460433
 30
0.0
  0
LINE
  5
45D
330
1F
100
AcDbEntity
  8
0
  6
Continuous
 62
     7
370
    15
100
AcDbLine
 10
87.7552483026
 20
82.8293534013
 30
0.0
 11
87.7552483026
 21
79.2238021258
 31
0.0
  0
LINE
  5
45E
330
1F
100
AcDbEntity
  8
0
  6
Continuous
 62
     7
370
    15
100
AcDbLine
 10
87.7552483026
 20
79.2238021258
 30
0.0
 11
87.7552483026
 21
78.0265777635
 31
0.0
  0
SPLINE
  5
45F
330
1F
100
AcDbEntity
  8
0
  6
Continuous
 62
     7
370
    15
100
AcDbSpline
210
0.0
220
0.0
230
1.0
 70
    24
 71
     3
 72
     8
 73
     4
 74
     0
 42
0.00000001
 43
0.00000001
 12
1.0
 22
0.0
 32
0.0
 13
1.0
 23
0.0
 33
0.0
 40
0.0
 40
0.0
 40
0.0
 40
0.0
 40
1.0
 40
1.0
 40
1.0
 40
1.0
 10
87.7552483026422
 20
78.02657776353975
 30
0.0
 10
87.60538248481204
 20
78.02657776353975
 30
0.0
 10
87.43569912474516
 20
78.02657776353975
 30
0.0
 10
87.2552483026422
 20
78.02657776353975
 30
0.0
  0
SPLINE
  5
460
330
1F
100
AcDbEntity
  8
0
  6
Continuous
 62
     7
370
    15
100
AcDbSpline
210
0.0
220
0.0
230
1.0
 70
    24
 71
     3
 72
     8
 73
     4
 74
     0
 42
0.00000001
 43
0.00000001
 12
1.0
 22
0.0
 32
0.0
 13
1.0
 23
0.0
 33
0.0
 40
0.0
 40
0.0
 40
0.0
 40
0.0
 40
1.0
 40
1.0
 40
1.0
 40
1.0
 10
87.2552483026422
 20
84.02657776353973
 30
0.0
 10
87.43569912474516
 20
84.02657776353973
 30
0.0
 10
87.60538248481204
 20
84.02657776353973
 30
0.0
 10
87.7552483026422
 20
84.02657776353973
 30
0.0
  0
LINE
  5
461
330
1F
100
AcDbEntity
  8
0
  6
Continuous
 62
     7
370
    15
100
AcDbLine
 10
87.7552483026
 20
84.0265777635
 30
0.0
 11
87.7552483026
 21
82.8293534013
 31
0.0
  0
LINE
  5
462
330
1F
100
AcDbEntity
  8
0
  6
Continuous
 62
     7
370
    15
100
AcDbLine
 10
83.2552483026
 20
74.148753143
 30
0.0
 11
83.2552483026
 21
74.5265777635
 31
0.0
  0
LINE
  5
463
330
1F
100
AcDbEntity
  8
0
  6
Continuous
 62
     7
370
    15
100
AcDbLine
 10
83.2552483026
 20
74.148753143
 30
0.0
 11
81.7552483026
 21
74.148753143
 31
0.0
  0
LINE
  5
464
330
1F
100
AcDbEntity
  8
0
  6
Continuous
 62
     7
370
    15
100
AcDbLine
 10
84.5552483026
 20
77.0265777635
 30
0.0
 11
81.7552483026
 21
77.0265777635
 31
0.0
  0
LINE
  5
465
330
1F
100
AcDbEntity
  8
0
  6
Continuous
 62
     7
370
    15
100
AcDbLine
 10
84.7552483026
 20
76.7738603722
 30
0.0
 11
84.5552483026
 21
77.0265777635
 31
0.0
  0
LINE
  5
466
330
1F
100
AcDbEntity
  8
0
  6
Continuous
 62
     7
370
    15
100
AcDbLine
 10
84.7552483026
 20
74.5265777635
 30
0.0
 11
84.7552483026
 21
76.7738603722
 31
0.0
  0
LINE
  5
467
330
1F
100
AcDbEntity
  8
0
  6
Continuous
 62
     7
370
    15
100
AcDbLine
 10
84.7552483026
 20
74.5265777635
 30
0.0
 11
83.2552483026
 21
74.5265777635
 31
0.0
  0
LINE
  5
468
330
1F
100
AcDbEntity
  8
0
  6
Continuous
 62
     7
370
    15
100
AcDbLine
 10
84.5552483026
 20
92.5265777635
 30
0.0
 11
81.7552483026
 21
92.5265777635
 31
0.0
  0
LINE
  5
469
330
1F
100
AcDbEntity
  8
0
  6
Continuous
 62
     7
370
    15
100
AcDbLine
 10
84.7552483026
 20
92.3265777635
 30
0.0
 11
84.5552483026
 21
92.5265777635
 31
0.0
  0
LINE
  5
46A
330
1F
100
AcDbEntity
  8
0
  6
Continuous
 62
     7
370
    15
100
AcDbLine
 10
84.7552483026
 20
89.2915641519
 30
0.0
 11
84.7552483026
 21
92.3265777635
 31
0.0
  0
ARC
  5
46B
330
1F
100
AcDbEntity
  8
0
  6
Continuous
 62
     7
370
    15
100
AcDbCircle
 10
96.0552483026
 20
81.0265777635
 30
0.0
 40
14.00000000000002
100
AcDbArc
 50
143.8177127788
 51
145.2280559681
  0
LINE
  5
46C
330
1F
100
AcDbEntity
  8
0
  6
Continuous
 62
     7
370
    15
100
AcDbLine
 10
84.5552483026
 20
89.0109374749
 30
0.0
 11
81.7552483026
 21
89.0109374749
 31
0.0
  0
LINE
  5
46D
330
1F
100
AcDbEntity
  8
0
  6
Continuous
 62
     7
370
    15
100
AcDbLine
 10
81.7552483026
 20
89.0109374749
 30
0.0
 11
81.7552483026
 21
92.5265777635
 31
0.0
  0
LINE
  5
46E
330
1F
100
AcDbEntity
  8
0
  6
Continuous
 62
     7
370
    15
100
AcDbLine
 10
84.5552483026
 20
77.0265777635
 30
0.0
 11
84.5552483026
 21
89.0109374749
 31
0.0
  0
LINE
  5
46F
330
1F
100
AcDbEntity
  8
0
  6
Continuous
 62
     7
370
    15
100
AcDbLine
 10
84.7552483026
 20
89.2915641519
 30
0.0
 11
84.7552483026
 21
76.7738603722
 31
0.0
  0
LINE
  5
470
330
1F
100
AcDbEntity
  8
0
  6
Continuous
 62
     7
370
    15
100
AcDbLine
 10
81.7552483026
 20
72.518513976
 30
0.0
 11
83.2552483026
 21
72.518513976
 31
0.0
  0
LINE
  5
471
330
1F
100
AcDbEntity
  8
0
  6
Continuous
 62
     7
370
    15
100
AcDbLine
 10
83.2552483026
 20
72.518513976
 30
0.0
 11
83.2552483026
 21
74.148753143
 31
0.0
  0
LINE
  5
472
330
1F
100
AcDbEntity
  8
0
  6
Continuous
 62
     7
370
    15
100
AcDbLine
 10
81.7552483026
 20
72.518513976
 30
0.0
 11
81.7552483026
 21
74.148753143
 31
0.0
  0
LINE
  5
473
330
1F
100
AcDbEntity
  8
0
  6
Continuous
 62
     7
370
    15
100
AcDbLine
 10
83.2552483026
 20
69.5265777635
 30
0.0
 11
81.7552483026
 21
69.5265777635
 31
0.0
  0
LINE
  5
474
330
1F
100
AcDbEntity
  8
0
  6
Continuous
 62
     7
370
    15
100
AcDbLine
 10
83.2552483026
 20
72.518513976
 30
0.0
 11
83.2552483026
 21
69.5265777635
 31
0.0
  0
LINE
  5
475
330
1F
100
AcDbEntity
  8
0
  6
Continuous
 62
     7
370
    15
100
AcDbLine
 10
81.7552483026
 20
71.7238963117
 30
0.0
 11
81.7552483026
 21
72.518513976
 31
0.0
  0
LINE
  5
476
330
1F
100
AcDbEntity
  8
0
  6
Continuous
 62
     7
370
    15
100
AcDbLine
 10
84.7552483026
 20
72.9122617835
 30
0.0
 11
84.7552483026
 21
74.5265777635
 31
0.0
  0
LINE
  5
477
330
1F
100
AcDbEntity
  8
0
  6
Continuous
 62
     7
370
    15
100
AcDbLine
 10
39.7552483026
 20
72.3472384623
 30
0.0
 11
39.7552483026
 21
72.9122617835
 31
0.0
  0
LINE
  5
478
330
1F
100
AcDbEntity
  8
0
  6
Continuous
 62
     7
370
    15
100
AcDbLine
 10
39.7552483026
 20
70.6408937436
 30
0.0
 11
39.7552483026
 21
72.3472384623
 31
0.0
  0
LINE
  5
479
330
1F
100
AcDbEntity
  8
0
  6
Continuous
 62
     7
370
    15
100
AcDbLine
 10
84.7552483026
 20
71.3268744015
 30
0.0
 11
84.7552483026
 21
70.6408937436
 31
0.0
  0
LINE
  5
47A
330
1F
100
AcDbEntity
  8
0
  6
Continuous
 62
     7
370
    15
100
AcDbLine
 10
84.7552483026
 20
72.9122617835
 30
0.0
 11
84.7552483026
 21
71.3268744015
 31
0.0
  0
LINE
  5
47B
330
1F
100
AcDbEntity
  8
0
  6
Continuous
 62
     7
370
    15
100
AcDbLine
 10
41.2552483026
 20
89.827394122
 30
0.0
 11
41.2552483026
 21
89.6571703774
 31
0.0
  0
LINE
  5
47C
330
1F
100
AcDbEntity
  8
0
  6
Continuous
 62
     7
370
    15
100
AcDbLine
 10
39.7552483026
 20
90.8472384623
 30
0.0
 11
39.7552483026
 21
91.4122617835
 31
0.0
  0
LINE
  5
47D
330
1F
100
AcDbEntity
  8
0
  6
Continuous
 62
     7
370
    15
100
AcDbLine
 10
39.7552483026
 20
89.6571703774
 30
0.0
 11
39.7552483026
 21
90.8472384623
 31
0.0
  0
ARC
  5
47E
330
1F
100
AcDbEntity
  8
0
  6
Continuous
 62
     7
370
    15
100
AcDbCircle
 10
46.7552483026
 20
81.0265777635
 30
0.0
 40
1.749999999999836
100
AcDbArc
 50
86.5648727036
 51
266.5648727036
  0
ARC
  5
47F
330
1F
100
AcDbEntity
  8
0
  6
Continuous
 62
     7
370
    15
100
AcDbCircle
 10
46.7552483026
 20
81.0265777635
 30
0.0
 40
1.749999999999836
100
AcDbArc
 50
266.5648727036
 51
86.5648727036
  0
CIRCLE
  5
480
330
1F
100
AcDbEntity
  8
0
  6
Continuous
 62
     7
370
    15
100
AcDbCircle
 10
46.7552483026
 20
81.0265777635
 30
0.0
 40
1.500000000000413
  0
CIRCLE
  5
481
330
1F
100
AcDbEntity
  8
0
  6
Continuous
 62
     7
370
    15
100
AcDbCircle
 10
46.7552483026
 20
81.0265777635
 30
0.0
 40
1.000000000000185
  0
LINE
  5
482
330
1F
100
AcDbEntity
  8
0
  6
Continuous
 62
     7
370
    15
100
AcDbLine
 10
50.1350146686
 20
78.7950582562
 30
0.0
 11
50.377684068
 21
82.8377815416
 31
0.0
  0
LINE
  5
483
330
1F
100
AcDbEntity
  8
0
  6
Continuous
 62
     7
370
    15
100
AcDbLine
 10
46.5125789031
 20
76.9838544782
 30
0.0
 11
50.1350146686
 21
78.7950582562
 31
0.0
  0
LINE
  5
484
330
1F
100
AcDbEntity
  8
0
  6
Continuous
 62
     7
370
    15
100
AcDbLine
 10
43.1328125373
 20
79.2153739855
 30
0.0
 11
46.5125789031
 21
76.9838544782
 31
0.0
  0
LINE
  5
485
330
1F
100
AcDbEntity
  8
0
  6
Continuous
 62
     7
370
    15
100
AcDbLine
 10
43.3754819367
 20
83.2580972709
 30
0.0
 11
43.1328125373
 21
79.2153739855
 31
0.0
  0
LINE
  5
486
330
1F
100
AcDbEntity
  8
0
  6
Continuous
 62
     7
370
    15
100
AcDbLine
 10
46.9979177022
 20
85.0693010489
 30
0.0
 11
43.3754819367
 21
83.2580972709
 31
0.0
  0
LINE
  5
487
330
1F
100
AcDbEntity
  8
0
  6
Continuous
 62
     7
370
    15
100
AcDbLine
 10
50.377684068
 20
82.8377815416
 30
0.0
 11
46.9979177022
 21
85.0693010489
 31
0.0
  0
ARC
  5
488
330
1F
100
AcDbEntity
  8
0
  6
Continuous
 62
     7
370
    15
100
AcDbCircle
 10
74.7552483026
 20
81.0265777635
 30
0.0
 40
1.749999999999834
100
AcDbArc
 50
29.9691511071
 51
209.9691511071
  0
ARC
  5
489
330
1F
100
AcDbEntity
  8
0
  6
Continuous
 62
     7
370
    15
100
AcDbCircle
 10
74.7552483026
 20
81.0265777635
 30
0.0
 40
1.749999999999834
100
AcDbArc
 50
209.9691511071
 51
29.9691511071
  0
CIRCLE
  5
48A
330
1F
100
AcDbEntity
  8
0
  6
Continuous
 62
     7
370
    15
100
AcDbCircle
 10
74.7552483026
 20
81.0265777635
 30
0.0
 40
1.500000000000427
  0
CIRCLE
  5
48B
330
1F
100
AcDbEntity
  8
0
  6
Continuous
 62
     7
370
    15
100
AcDbCircle
 10
74.7552483026
 20
81.0265777635
 30
0.0
 40
1.000000000000183
  0
LINE
  5
48C
330
1F
100
AcDbEntity
  8
0
  6
Continuous
 62
     7
370
    15
100
AcDbLine
 10
74.753067723
 20
76.9765783506
 30
0.0
 11
78.2615603898
 21
78.9996896197
 31
0.0
  0
LINE
  5
48D
330
1F
100
AcDbEntity
  8
0
  6
Continuous
 62
     7
370
    15
100
AcDbLine
 10
71.2467556359
 20
79.0034664946
 30
0.0
 11
74.753067723
 21
76.9765783506
 31
0.0
  0
LINE
  5
48E
330
1F
100
AcDbEntity
  8
0
  6
Continuous
 62
     7
370
    15
100
AcDbLine
 10
71.2489362155
 20
83.0534659074
 30
0.0
 11
71.2467556359
 21
79.0034664946
 31
0.0
  0
LINE
  5
48F
330
1F
100
AcDbEntity
  8
0
  6
Continuous
 62
     7
370
    15
100
AcDbLine
 10
74.7574288823
 20
85.0765771765
 30
0.0
 11
71.2489362155
 21
83.0534659074
 31
0.0
  0
LINE
  5
490
330
1F
100
AcDbEntity
  8
0
  6
Continuous
 62
     7
370
    15
100
AcDbLine
 10
78.2637409694
 20
83.0496890325
 30
0.0
 11
74.7574288823
 21
85.0765771765
 31
0.0
  0
LINE
  5
491
330
1F
100
AcDbEntity
  8
0
  6
Continuous
 62
     7
370
    15
100
AcDbLine
 10
78.2615603898
 20
78.9996896197
 30
0.0
 11
78.2637409694
 21
83.0496890325
 31
0.0
  0
ARC
  5
492
330
1F
100
AcDbEntity
  8
0
  6
Continuous
 62
     7
370
    15
100
AcDbCircle
 10
46.7552483026
 20
81.0265777635
 30
0.0
 40
3.999999999999996
100
AcDbArc
 50
11.8288495391
 51
25.3001023456
  0
ARC
  5
493
330
1F
100
AcDbEntity
  8
0
  6
Continuous
 62
     7
370
    15
100
AcDbCircle
 10
46.7552483026
 20
81.0265777635
 30
0.0
 40
4.000000000000001
100
AcDbArc
 50
27.8296430616
 51
85.3001023457
  0
ARC
  5
494
330
1F
100
AcDbEntity
  8
0
  6
Continuous
 62
     7
370
    15
100
AcDbCircle
 10
46.7552483026
 20
81.0265777635
 30
0.0
 40
4.000000000000002
100
AcDbArc
 50
87.8296430616
 51
145.3001023457
  0
ARC
  5
495
330
1F
100
AcDbEntity
  8
0
  6
Continuous
 62
     7
370
    15
100
AcDbCircle
 10
46.7552483026
 20
81.0265777635
 30
0.0
 40
4.0
100
AcDbArc
 50
147.8296430616
 51
205.3001023457
  0
ARC
  5
496
330
1F
100
AcDbEntity
  8
0
  6
Continuous
 62
     7
370
    15
100
AcDbCircle
 10
46.7552483026
 20
81.0265777635
 30
0.0
 40
4.000000000000004
100
AcDbArc
 50
207.8296430616
 51
265.3001023457
  0
ARC
  5
497
330
1F
100
AcDbEntity
  8
0
  6
Continuous
 62
     7
370
    15
100
AcDbCircle
 10
46.7552483026
 20
81.0265777635
 30
0.0
 40
4.000000000000005
100
AcDbArc
 50
267.8296430616
 51
325.3001023457
  0
ARC
  5
498
330
1F
100
AcDbEntity
  8
0
  6
Continuous
 62
     7
370
    15
100
AcDbCircle
 10
46.7552483026
 20
81.0265777635
 30
0.0
 40
4.0
100
AcDbArc
 50
327.8296430617
 51
11.8288495391
  0
ARC
  5
499
330
1F
100
AcDbEntity
  8
0
  6
Continuous
 62
     7
370
    15
100
AcDbCircle
 10
74.7552483026
 20
81.0265777635
 30
0.0
 40
3.999999999999992
100
AcDbArc
 50
11.8288495391
 51
28.9550243719
  0
ARC
  5
49A
330
1F
100
AcDbEntity
  8
0
  6
Continuous
 62
     7
370
    15
100
AcDbCircle
 10
74.7552483026
 20
81.0265777635
 30
0.0
 40
3.999999999999998
100
AcDbArc
 50
31.2339214651
 51
88.7043807492
  0
ARC
  5
49B
330
1F
100
AcDbEntity
  8
0
  6
Continuous
 62
     7
370
    15
100
AcDbCircle
 10
74.7552483026
 20
81.0265777635
 30
0.0
 40
4.00000000000001
100
AcDbArc
 50
91.2339214651
 51
148.7043807492
  0
ARC
  5
49C
330
1F
100
AcDbEntity
  8
0
  6
Continuous
 62
     7
370
    15
100
AcDbCircle
 10
74.7552483026
 20
81.0265777635
 30
0.0
 40
4.000000000000014
100
AcDbArc
 50
151.2339214651
 51
208.7043807492
  0
ARC
  5
49D
330
1F
100
AcDbEntity
  8
0
  6
Continuous
 62
     7
370
    15
100
AcDbCircle
 10
74.7552483026
 20
81.0265777635
 30
0.0
 40
3.999999999999989
100
AcDbArc
 50
211.2339214651
 51
268.7043807491
  0
ARC
  5
49E
330
1F
100
AcDbEntity
  8
0
  6
Continuous
 62
     7
370
    15
100
AcDbCircle
 10
74.7552483026
 20
81.0265777635
 30
0.0
 40
4.000000000000002
100
AcDbArc
 50
271.2339214651
 51
328.7043807491
  0
ARC
  5
49F
330
1F
100
AcDbEntity
  8
0
  6
Continuous
 62
     7
370
    15
100
AcDbCircle
 10
74.7552483026
 20
81.0265777635
 30
0.0
 40
3.999999999999992
100
AcDbArc
 50
331.0449756281
 51
11.8288495391
  0
LINE
  5
4A0
330
1F
100
AcDbEntity
  8
0
  6
Continuous
 62
     8
370
    15
100
AcDbLine
 10
40.9605560628
 20
74.0265777635
 30
0.0
 11
40.9605560628
 21
69.5265777635
 31
0.0
  0
LINE
  5
4A1
330
1F
100
AcDbEntity
  8
0
  6
Continuous
 62
     8
370
    15
100
AcDbLine
 10
40.1555002254
 20
72.7027519744
 30
0.0
 11
40.1555002254
 21
73.6197768016
 31
0.0
  0
LINE
  5
4A2
330
1F
100
AcDbEntity
  8
0
  6
Continuous
 62
     8
370
    15
100
AcDbLine
 10
40.1555002254
 20
69.9333787255
 30
0.0
 11
40.1555002254
 21
72.7027519744
 31
0.0
  0
LINE
  5
4A3
330
1F
100
AcDbEntity
  8
0
  6
Continuous
 62
     8
370
    15
100
AcDbLine
 10
39.852720384
 20
73.2088613025
 30
0.0
 11
39.852720384
 21
70.3442942246
 31
0.0
  0
LINE
  5
4A4
330
1F
100
AcDbEntity
  8
0
  6
Continuous
 62
     8
370
    15
100
AcDbLine
 10
83.5499405425
 20
69.5265777635
 30
0.0
 11
83.5499405425
 21
74.0265777635
 31
0.0
  0
LINE
  5
4A5
330
1F
100
AcDbEntity
  8
0
  6
Continuous
 62
     8
370
    15
100
AcDbLine
 10
84.3549963799
 20
71.0467155925
 30
0.0
 11
84.3549963799
 21
69.9333787255
 31
0.0
  0
LINE
  5
4A6
330
1F
100
AcDbEntity
  8
0
  6
Continuous
 62
     8
370
    15
100
AcDbLine
 10
84.3549963799
 20
73.6197768016
 30
0.0
 11
84.3549963799
 21
71.0467155925
 31
0.0
  0
LINE
  5
4A7
330
1F
100
AcDbEntity
  8
0
  6
Continuous
 62
     8
370
    15
100
AcDbLine
 10
84.6577762213
 20
70.3442942246
 30
0.0
 11
84.6577762213
 21
73.2088613025
 31
0.0
  0
LINE
  5
4A8
330
1F
100
AcDbEntity
  8
0
  6
Continuous
 62
     8
370
    15
100
AcDbLine
 10
40.9605560628
 20
92.5265777635
 30
0.0
 11
40.9605560628
 21
89.6571703774
 31
0.0
  0
LINE
  5
4A9
330
1F
100
AcDbEntity
  8
0
  6
Continuous
 62
     8
370
    15
100
AcDbLine
 10
40.1555002254
 20
91.2027519744
 30
0.0
 11
40.1555002254
 21
92.1197768016
 31
0.0
  0
LINE
  5
4AA
330
1F
100
AcDbEntity
  8
0
  6
Continuous
 62
     8
370
    15
100
AcDbLine
 10
40.1555002254
 20
89.6571703774
 30
0.0
 11
40.1555002254
 21
91.2027519744
 31
0.0
  0
LINE
  5
4AB
330
1F
100
AcDbEntity
  8
0
  6
Continuous
 62
     8
370
    15
100
AcDbLine
 10
39.852720384
 20
91.7088613025
 30
0.0
 11
39.852720384
 21
89.6571703774
 31
0.0
  0
LINE
  5
4AC
330
1F
100
AcDbEntity
  8
0
  6
CENTERX2
 62
     7
370
     0
100
AcDbLine
 10
87.7552483026
 20
84.0265777635
 30
0.0
 11
97.7552483026
 21
84.0265777635
 31
0.0
  0
LINE
  5
4AD
330
1F
100
AcDbEntity
  8
0
  6
CENTERX2
 62
     7
370
     0
100
AcDbLine
 10
97.7552483026
 20
84.0265777635
 30
0.0
 11
97.7552483026
 21
78.0265777635
 31
0.0
  0
LINE
  5
4AE
330
1F
100
AcDbEntity
  8
0
  6
CENTERX2
 62
     7
370
     0
100
AcDbLine
 10
97.7552483026
 20
78.0265777635
 30
0.0
 11
87.7552483026
 21
78.0265777635
 31
0.0
  0
DIMENSION
  5
4AF
330
1F
100
AcDbEntity
  8
0
  6
Continuous
 62
     7
370
     0
100
AcDbDimension
  2
_D_10
 10
87.7552483026
 20
93.9482055206
 30
0.0
 11
103.7552483026
 21
93.9482055206
 31
0.0
 70
   160
  1
<>st
 71
     2
 42
-1.0
  3
SLDDIMSTYLE0
100
AcDbAlignedDimension
 13
97.7552483026
 23
84.0265777635
 33
0.0
 14
87.7552483026
 24
84.0265777635
 34
0.0
100
AcDbRotatedDimension
  0
DIMENSION
  5
4BB
330
1F
100
AcDbEntity
  8
0
  6
Continuous
 62
     7
370
     0
100
AcDbDimension
  2
_D_11
 10
46.7552483026
 20
54.5265777635
 30
0.0
 11
43.4545908946
 21
54.5265777635
 31
0.0
 70
   160
  1
<>
 71
     2
 42
-1.0
  3
SLDDIMSTYLE6
100
AcDbAlignedDimension
 13
39.7552483026
 23
70.6408937436
 33
0.0
 14
46.7552483026
 24
74.5265777635
 34
0.0
 50
0.0
100
AcDbRotatedDimension
  0
DIMENSION
  5
4C8
330
1F
100
AcDbEntity
  8
0
  6
Continuous
 62
     7
370
     0
100
AcDbDimension
  2
_D_12
 10
74.7552483026
 20
54.5265777635
 30
0.0
 11
60.7552483026
 21
54.5265777635
 31
0.0
 70
   160
  1
<>
 71
     2
 42
-1.0
  3
SLDDIMSTYLE0
100
AcDbAlignedDimension
 13
46.7552483026
 23
74.5265777635
 33
0.0
 14
74.7552483026
 24
74.5265777635
 34
0.0
100
AcDbRotatedDimension
  0
DIMENSION
  5
4D2
330
1F
100
AcDbEntity
  8
0
  6
Continuous
 62
     7
370
     0
100
AcDbDimension
  2
_D_13
 10
39.7552483026
 20
112.3324172112
 30
0.0
 11
63.7552483026
 21
112.3324172112
 31
0.0
 70
   160
  1
<>
 71
     2
 42
-1.0
  3
SLDDIMSTYLE0
100
AcDbAlignedDimension
 13
87.7552483026
 23
84.0265777635
 33
0.0
 14
39.7552483026
 24
89.2915641519
 34
0.0
 50
0.0
100
AcDbRotatedDimension
  0
DIMENSION
  5
4DC
330
1F
100
AcDbEntity
  8
0
  6
Continuous
 62
     7
370
     0
100
AcDbDimension
  2
_D_14
 10
81.7552483026
 20
102.0560644555
 30
0.0
 11
60.7552483026
 21
102.0560644555
 31
0.0
 70
   160
  1
<>
 71
     2
 42
-1.0
  3
SLDDIMSTYLE0
100
AcDbAlignedDimension
 13
39.7552483026
 23
91.4122617835
 33
0.0
 14
81.7552483026
 24
92.5265777635
 34
0.0
 50
0.0
100
AcDbRotatedDimension
  0
INSERT
  5
4F1
330
1F
100
AcDbEntity
  8
0
  6
Continuous
 62
     7
370
     0
100
AcDbBlockReference
  2
SW_CENTERMARKSYMBOL_7
 10
46.7552483026
 20
81.0265777635
 30
0.0
  0
INSERT
  5
4FD
330
1F
100
AcDbEntity
  8
0
  6
Continuous
 62
     7
370
     0
100
AcDbBlockReference
  2
SW_CENTERMARKSYMBOL_8
 10
74.7552483026
 20
81.0265777635
 30
0.0
  0
ENDSEC
  0
SECTION
  2
OBJECTS
  0
DICTIONARY
  5
C
330
0
100
AcDbDictionary
281
     1
  3
ACAD_GROUP
350
D
  3
ACAD_LAYOUT
350
1A
  3
ACAD_MLINESTYLE
350
17
  3
ACAD_PLOTSETTINGS
350
19
  3
ACAD_PLOTSTYLENAME
350
E
  0
DICTIONARY
  5
D
102
{ACAD_REACTORS
330
C
102
}
330
C
100
AcDbDictionary
281
     1
  0
DICTIONARY
  5
1A
102
{ACAD_REACTORS
330
C
102
}
330
C
100
AcDbDictionary
281
     1
  3
Layout1
350
1E
  3
Layout2
350
26
  3
Model
350
22
  0
DICTIONARY
  5
17
102
{ACAD_REACTORS
330
C
102
}
330
C
100
AcDbDictionary
281
     1
  3
Standard
350
18
  0
DICTIONARY
  5
19
102
{ACAD_REACTORS
330
C
102
}
330
C
100
AcDbDictionary
281
     1
  0
ACDBDICTIONARYWDFLT
  5
E
102
{ACAD_REACTORS
330
C
102
}
330
C
100
AcDbDictionary
281
     1
  3
Normal
350
F
100
AcDbDictionaryWithDefault
340
F
  0
LAYOUT
  5
1E
102
{ACAD_REACTORS
330
1A
102
}
330
1A
100
AcDbPlotSettings
  1

  2
none_device
  4

  6

 40
0.0
 41
0.0
 42
0.0
 43
0.0
 44
0.0
 45
0.0
 46
0.0
 47
0.0
 48
0.0
 49
0.0
140
0.0
141
0.0
142
1.0
143
1.0
 70
   688
 72
     0
 73
     0
 74
     5
  7

 75
    16
147
1.0
148
0.0
149
0.0
100
AcDbLayout
  1
Layout1
 70
     1
 71
     1
 10
0.0
 20
0.0
 11
420.0
 21
297.0
 12
0.0
 22
0.0
 32
0.0
 14
1.0000000000E+20
 24
1.0000000000E+20
 34
1.0000000000E+20
 15
-1.0000000000E+20
 25
-1.0000000000E+20
 35
-1.0000000000E+20
146
0.0
 13
0.0
 23
0.0
 33
0.0
 16
1.0
 26
0.0
 36
0.0
 17
0.0
 27
1.0
 37
0.0
 76
     0
330
1B
  0
LAYOUT
  5
26
102
{ACAD_REACTORS
330
1A
102
}
330
1A
100
AcDbPlotSettings
  1

  2
none_device
  4

  6

 40
0.0
 41
0.0
 42
0.0
 43
0.0
 44
0.0
 45
0.0
 46
0.0
 47
0.0
 48
0.0
 49
0.0
140
0.0
141
0.0
142
1.0
143
1.0
 70
   688
 72
     0
 73
     0
 74
     5
  7

 75
    16
147
1.0
148
0.0
149
0.0
100
AcDbLayout
  1
Layout2
 70
     1
 71
     2
 10
0.0
 20
0.0
 11
0.0
 21
0.0
 12
0.0
 22
0.0
 32
0.0
 14
0.0
 24
0.0
 34
0.0
 15
0.0
 25
0.0
 35
0.0
146
0.0
 13
0.0
 23
0.0
 33
0.0
 16
1.0
 26
0.0
 36
0.0
 17
0.0
 27
1.0
 37
0.0
 76
     0
330
23
  0
LAYOUT
  5
22
102
{ACAD_REACTORS
330
1A
102
}
330
1A
100
AcDbPlotSettings
  1

  2
none_device
  4

  6

 40
0.0
 41
0.0
 42
0.0
 43
0.0
 44
0.0
 45
0.0
 46
0.0
 47
0.0
 48
0.0
 49
0.0
140
0.0
141
0.0
142
1.0
143
1.0
 70
  1712
 72
     0
 73
     0
 74
     0
  7

 75
     0
147
1.0
148
0.0
149
0.0
100
AcDbLayout
  1
Model
 70
     1
 71
     0
 10
0.0
 20
0.0
 11
210.0
 21
297.0
 12
0.0
 22
0.0
 32
0.0
 14
0.0
 24
0.0
 34
0.0
 15
210.0
 25
297.0
 35
0.0
146
0.0
 13
0.0
 23
0.0
 33
0.0
 16
1.0
 26
0.0
 36
0.0
 17
0.0
 27
1.0
 37
0.0
 76
     0
330
1F
331
29
  0
MLINESTYLE
  5
18
102
{ACAD_REACTORS
330
17
102
}
330
17
100
AcDbMlineStyle
  2
Standard
 70
     0
  3

 62
   256
 51
90.0
 52
90.0
 71
     2
 49
0.5
 62
   256
  6
BYLAYER
 49
-0.5
 62
   256
  6
BYLAYER
  0
ACDBPLACEHOLDER
  5
F
102
{ACAD_REACTORS
330
E
102
}
330
E
  0
ENDSEC
  0
EOF
