  0
SECTION
  2
HEADER
  9
$ACADVER
  1
AC1015
  9
$ACADMAINTVER
 70
     6
  9
$DWGCODEPAGE
  3
DOS932
  9
$INSBASE
 10
0.0
 20
0.0
 30
0.0
  9
$EXTMIN
 10
0.0
 20
0.0
 30
0.0
  9
$EXTMAX
 10
210.0
 20
297.0
 30
0.0
  9
$LIMMIN
 10
0.0
 20
0.0
  9
$LIMMAX
 10
0.0
 20
0.0
  9
$ORTHOMODE
 70
     0
  9
$REGENMODE
 70
     1
  9
$FILLMODE
 70
     1
  9
$QTEXTMODE
 70
     0
  9
$MIRRTEXT
 70
     1
  9
$LTSCALE
 40
1.0
  9
$ATTMODE
 70
     1
  9
$TEXTSIZE
 40
3.5
  9
$TRACEWID
 40
1.0
  9
$TEXTSTYLE
  7
Standard
  9
$CLAYER
  8
0
  9
$CELTYPE
  6
ByLayer
  9
$CECOLOR
 62
   256
  9
$CELTSCALE
 40
1.0
  9
$DISPSILH
 70
     0
  9
$DIMSCALE
 40
1.0
  9
$DIMASZ
 40
3.0
  9
$DIMEXO
 40
1.0
  9
$DIMDLI
 40
3.75
  9
$DIMRND
 40
0.0
  9
$DIMDLE
 40
0.0
  9
$DIMEXE
 40
1.0
  9
$DIMTP
 40
0.0
  9
$DIMTM
 40
0.0
  9
$DIMTXT
 40
3.5
  9
$DIMCEN
 40
2.5
  9
$DIMTSZ
 40
0.0
  9
$DIMTOL
 70
     0
  9
$DIMLIM
 70
     0
  9
$DIMTIH
 70
     1
  9
$DIMTOH
 70
     1
  9
$DIMSE1
 70
     0
  9
$DIMSE2
 70
     0
  9
$DIMTAD
 70
     1
  9
$DIMZIN
 70
     1
  9
$DIMBLK
  1

  9
$DIMASO
 70
     1
  9
$DIMSHO
 70
     1
  9
$DIMPOST
  1

  9
$DIMAPOST
  1

  9
$DIMALT
 70
     0
  9
$DIMALTD
 70
     3
  9
$DIMALTF
 40
0.0393700787
  9
$DIMLFAC
 40
1.0
  9
$DIMTOFL
 70
     1
  9
$DIMTVP
 40
0.0
  9
$DIMTIX
 70
     0
  9
$DIMSOXD
 70
     0
  9
$DIMSAH
 70
     0
  9
$DIMBLK1
  1

  9
$DIMBLK2
  1

  9
$DIMSTYLE
  2
ISO-25
  9
$DIMCLRD
 70
     0
  9
$DIMCLRE
 70
     0
  9
$DIMCLRT
 70
     0
  9
$DIMTFAC
 40
1.0
  9
$DIMGAP
 40
1.524
  9
$DIMJUST
 70
     0
  9
$DIMSD1
 70
     0
  9
$DIMSD2
 70
     0
  9
$DIMTOLJ
 70
     0
  9
$DIMTZIN
 70
     1
  9
$DIMALTZ
 70
     0
  9
$DIMALTTZ
 70
     0
  9
$DIMUPT
 70
     0
  9
$DIMDEC
 70
     2
  9
$DIMTDEC
 70
     2
  9
$DIMALTU
 70
     2
  9
$DIMALTTD
 70
     3
  9
$DIMTXSTY
  7
Standard
  9
$DIMAUNIT
 70
     0
  9
$DIMADEC
 70
     0
  9
$DIMALTRND
 40
0.0
  9
$DIMAZIN
 70
     0
  9
$DIMDSEP
 70
    44
  9
$DIMATFIT
 70
     3
  9
$DIMFRAC
 70
     0
  9
$DIMLDRBLK
  1

  9
$DIMLUNIT
 70
     2
  9
$DIMLWD
 70
    -2
  9
$DIMLWE
 70
    -2
  9
$DIMTMOVE
 70
     0
  9
$LUNITS
 70
     2
  9
$LUPREC
 70
     1
  9
$SKETCHINC
 40
1.0
  9
$FILLETRAD
 40
10.0
  9
$AUNITS
 70
     0
  9
$AUPREC
 70
     0
  9
$MENU
  1
.
  9
$ELEVATION
 40
0.0
  9
$PELEVATION
 40
0.0
  9
$THICKNESS
 40
0.0
  9
$LIMCHECK
 70
     0
  9
$CHAMFERA
 40
10.0
  9
$CHAMFERB
 40
10.0
  9
$CHAMFERC
 40
20.0
  9
$CHAMFERD
 40
0.0
  9
$SKPOLY
 70
     0
  9
$TDCREATE
 40
2454309.379091065
  9
$TDUCREATE
 40
2454309.004091065
  9
$TDUPDATE
 40
2454309.379091077
  9
$TDUUPDATE
 40
2454309.004091077
  9
$TDINDWG
 40
0.0000000116
  9
$TDUSRTIMER
 40
0.0000000116
  9
$USRTIMER
 70
     1
  9
$ANGBASE
 50
0.0
  9
$ANGDIR
 70
     0
  9
$PDMODE
 70
     0
  9
$PDSIZE
 40
-1.0
  9
$PLINEWID
 40
0.0
  9
$SPLFRAME
 70
     0
  9
$SPLINETYPE
 70
     6
  9
$SPLINESEGS
 70
     8
  9
$HANDSEED
  5
1FA
  9
$SURFTAB1
 70
     6
  9
$SURFTAB2
 70
     6
  9
$SURFTYPE
 70
     6
  9
$SURFU
 70
     6
  9
$SURFV
 70
     6
  9
$UCSBASE
  2

  9
$UCSNAME
  2

  9
$UCSORG
 10
0.0
 20
0.0
 30
0.0
  9
$UCSXDIR
 10
1.0
 20
0.0
 30
0.0
  9
$UCSYDIR
 10
0.0
 20
1.0
 30
0.0
  9
$UCSORTHOREF
  2

  9
$UCSORTHOVIEW
 70
     0
  9
$UCSORGTOP
 10
0.0
 20
0.0
 30
0.0
  9
$UCSORGBOTTOM
 10
0.0
 20
0.0
 30
0.0
  9
$UCSORGLEFT
 10
0.0
 20
0.0
 30
0.0
  9
$UCSORGRIGHT
 10
0.0
 20
0.0
 30
0.0
  9
$UCSORGFRONT
 10
0.0
 20
0.0
 30
0.0
  9
$UCSORGBACK
 10
0.0
 20
0.0
 30
0.0
  9
$PUCSBASE
  2

  9
$PUCSNAME
  2

  9
$PUCSORG
 10
0.0
 20
0.0
 30
0.0
  9
$PUCSXDIR
 10
1.0
 20
0.0
 30
0.0
  9
$PUCSYDIR
 10
0.0
 20
1.0
 30
0.0
  9
$PUCSORTHOREF
  2

  9
$PUCSORTHOVIEW
 70
     0
  9
$PUCSORGTOP
 10
0.0
 20
0.0
 30
0.0
  9
$PUCSORGBOTTOM
 10
0.0
 20
0.0
 30
0.0
  9
$PUCSORGLEFT
 10
0.0
 20
0.0
 30
0.0
  9
$PUCSORGRIGHT
 10
0.0
 20
0.0
 30
0.0
  9
$PUCSORGFRONT
 10
0.0
 20
0.0
 30
0.0
  9
$PUCSORGBACK
 10
0.0
 20
0.0
 30
0.0
  9
$USERI1
 70
     0
  9
$USERI2
 70
     0
  9
$USERI3
 70
     0
  9
$USERI4
 70
     0
  9
$USERI5
 70
     0
  9
$USERR1
 40
0.0
  9
$USERR2
 40
0.0
  9
$USERR3
 40
0.0
  9
$USERR4
 40
0.0
  9
$USERR5
 40
0.0
  9
$WORLDVIEW
 70
     1
  9
$SHADEDGE
 70
     3
  9
$SHADEDIF
 70
    70
  9
$TILEMODE
 70
     1
  9
$MAXACTVP
 70
    64
  9
$PINSBASE
 10
0.0
 20
0.0
 30
0.0
  9
$PLIMCHECK
 70
     0
  9
$PEXTMIN
 10
1.0000000000E+20
 20
1.0000000000E+20
 30
1.0000000000E+20
  9
$PEXTMAX
 10
-1.0000000000E+20
 20
-1.0000000000E+20
 30
-1.0000000000E+20
  9
$PLIMMIN
 10
0.0
 20
0.0
  9
$PLIMMAX
 10
420.0
 20
297.0
  9
$UNITMODE
 70
     0
  9
$VISRETAIN
 70
     1
  9
$PLINEGEN
 70
     0
  9
$PSLTSCALE
 70
     1
  9
$TREEDEPTH
 70
  3020
  9
$CMLSTYLE
  2
Standard
  9
$CMLJUST
 70
     0
  9
$CMLSCALE
 40
20.0
  9
$PROXYGRAPHICS
 70
     1
  9
$MEASUREMENT
 70
     1
  9
$CELWEIGHT
370
    -1
  9
$ENDCAPS
280
     0
  9
$JOINSTYLE
280
     0
  9
$LWDISPLAY
290
     1
  9
$INSUNITS
 70
     4
  9
$HYPERLINKBASE
  1

  9
$STYLESHEET
  1

  9
$XEDIT
290
     1
  9
$CEPSNTYPE
380
     0
  9
$PSTYLEMODE
290
     1
  9
$FINGERPRINTGUID
  2
{8747B37E-6231-46DB-8DB0-760336A7C392}
  9
$VERSIONGUID
  2
{FAEB1C32-E019-11D5-929B-00C0DF256EC4}
  9
$EXTNAMES
290
     1
  9
$PSVPSCALE
 40
0.0
  9
$OLESTARTUP
290
     0
  0
ENDSEC
  0
SECTION
  2
CLASSES
  0
CLASS
  1
ACDBDICTIONARYWDFLT
  2
AcDbDictionaryWithDefault
  3
ObjectDBX Classes
 90
        0
280
     0
281
     0
  0
CLASS
  1
ACDBPLACEHOLDER
  2
AcDbPlaceHolder
  3
ObjectDBX Classes
 90
        0
280
     0
281
     0
  0
CLASS
  1
LAYOUT
  2
AcDbLayout
  3
ObjectDBX Classes
 90
        0
280
     0
281
     0
  0
ENDSEC
  0
SECTION
  2
TABLES
  0
TABLE
  2
VPORT
  5
8
330
0
100
AcDbSymbolTable
 70
     1
  0
VPORT
  5
29
330
8
100
AcDbSymbolTableRecord
100
AcDbViewportTableRecord
  2
*Active
 70
     0
 10
0.0
 20
0.0
 11
1.0
 21
1.0
 12
105.0
 22
148.5
 13
0.0
 23
0.0
 14
10.0
 24
10.0
 15
10.0
 25
10.0
 16
0.0
 26
0.0
 36
1.0
 17
0.0
 27
0.0
 37
0.0
 40
297.0
 41
1.9729729729
 42
50.0
 43
0.0
 44
0.0
 50
0.0
 51
0.0
 71
     0
 72
  2000
 73
     1
 74
     3
 75
     0
 76
     0
 77
     0
 78
     0
281
     0
 65
     1
110
0.0
120
0.0
130
0.0
111
1.0
121
0.0
131
0.0
112
0.0
122
1.0
132
0.0
 79
     0
146
0.0
  0
ENDTAB
  0
TABLE
  2
LTYPE
  5
5
330
0
100
AcDbSymbolTable
 70
     6
  0
LTYPE
  5
14
330
5
100
AcDbSymbolTableRecord
100
AcDbLinetypeTableRecord
  2
ByBlock
 70
     0
  3

 72
    65
 73
     0
 40
0.0
  0
LTYPE
  5
15
330
5
100
AcDbSymbolTableRecord
100
AcDbLinetypeTableRecord
  2
ByLayer
 70
     0
  3

 72
    65
 73
     0
 40
0.0
  0
LTYPE
  5
16
330
5
100
AcDbSymbolTableRecord
100
AcDbLinetypeTableRecord
  2
Continuous
 70
     0
  3
Solid line
 72
    65
 73
     0
 40
0.0
  0
LTYPE
  5
2A
330
5
100
AcDbSymbolTableRecord
100
AcDbLinetypeTableRecord
  2
HIDDEN
 70
     0
  3
Hidden __ __ __ __ __ __ __ __ __ __ __ __ __ __
 72
    65
 73
     2
 40
1.905
 49
1.27
 74
     0
 49
-0.635
 74
     0
  0
LTYPE
  5
2B
330
5
100
AcDbSymbolTableRecord
100
AcDbLinetypeTableRecord
  2
PHANTOM
 70
     0
  3
Phantom ______  __  __  ______  __  __  ______
 72
    65
 73
     6
 40
12.7
 49
6.35
 74
     0
 49
-1.27
 74
     0
 49
1.27
 74
     0
 49
-1.27
 74
     0
 49
1.27
 74
     0
 49
-1.27
 74
     0
  0
LTYPE
  5
2C
330
5
100
AcDbSymbolTableRecord
100
AcDbLinetypeTableRecord
  2
CENTER
 70
     0
  3
Center ____ _ ____ _ ____ _ ____ _ ____ _ ____
 72
    65
 73
     4
 40
10.16
 49
6.35
 74
     0
 49
-1.27
 74
     0
 49
1.27
 74
     0
 49
-1.27
 74
     0
  0
LTYPE
  5
2D
330
5
100
AcDbSymbolTableRecord
100
AcDbLinetypeTableRecord
  2
CENTERX2
 70
     0
  3
Center (2x) ________  __  ________  __  _____
 72
    65
 73
     4
 40
20.32
 49
12.7
 74
     0
 49
-2.54
 74
     0
 49
2.54
 74
     0
 49
-2.54
 74
     0
  0
LTYPE
  5
2E
330
5
100
AcDbSymbolTableRecord
100
AcDbLinetypeTableRecord
  2
DOT2
 70
     0
  3
Dot (.5x) ........................................
 72
    65
 73
     2
 40
0.635
 49
0.0
 74
     0
 49
-0.635
 74
     0
  0
ENDTAB
  0
TABLE
  2
LAYER
  5
2
330
0
100
AcDbSymbolTable
 70
     4
  0
LAYER
  5
10
330
2
100
AcDbSymbolTableRecord
100
AcDbLayerTableRecord
  2
0
 70
     0
 62
     7
  6
Continuous
370
    -3
390
F
  0
LAYER
  5
2F
330
2
100
AcDbSymbolTableRecord
100
AcDbLayerTableRecord
  2
SLD-0
 70
     0
 62
   179
  6
Continuous
370
     0
390
F
  0
LAYER
  5
30
330
2
100
AcDbSymbolTableRecord
100
AcDbLayerTableRecord
  2
SLD-DEFPOINTS
 70
     0
 62
   179
  6
Continuous
370
     0
390
F
  0
LAYER
  5
A7
330
2
100
AcDbSymbolTableRecord
100
AcDbLayerTableRecord
  2
Defpoints
 70
     0
 62
     7
  6
Continuous
290
     0
370
    -3
390
F
  0
ENDTAB
  0
TABLE
  2
STYLE
  5
3
330
0
100
AcDbSymbolTable
 70
     4
  0
STYLE
  5
11
330
3
100
AcDbSymbolTableRecord
100
AcDbTextStyleTableRecord
  2
Standard
 70
     0
 40
0.0
 41
1.0
 50
0.0
 71
     0
 42
2.5
  3
txt
  4
bigfont
  0
STYLE
  5
34
330
3
100
AcDbSymbolTableRecord
100
AcDbTextStyleTableRecord
  2
SLDTEXTSTYLE0
 70
     0
 40
0.0
 41
0.7
 50
0.0
 71
     0
 42
0.2
  3
TXT
  4
bigfont
  0
STYLE
  5
3C
330
3
100
AcDbSymbolTableRecord
100
AcDbTextStyleTableRecord
  2
SLDTEXTSTYLE1
 70
     0
 40
0.0
 41
0.5526315789
 50
0.0
 71
     0
 42
0.2
  3
TXT
  4
bigfont
  0
STYLE
  5
1EF
330
3
100
AcDbSymbolTableRecord
100
AcDbTextStyleTableRecord
  2
SLDTEXTSTYLE2
 70
     0
 40
0.0
 41
0.4850102564
 50
0.0
 71
     0
 42
0.2
  3
TXT
  4
bigfont
  0
ENDTAB
  0
TABLE
  2
VIEW
  5
6
330
0
100
AcDbSymbolTable
 70
     0
  0
ENDTAB
  0
TABLE
  2
UCS
  5
7
330
0
100
AcDbSymbolTable
 70
     0
  0
ENDTAB
  0
TABLE
  2
APPID
  5
9
330
0
100
AcDbSymbolTable
 70
     1
  0
APPID
  5
12
330
9
100
AcDbSymbolTableRecord
100
AcDbRegAppTableRecord
  2
ACAD
 70
     0
  0
ENDTAB
  0
TABLE
  2
DIMSTYLE
  5
A
330
0
100
AcDbSymbolTable
 70
     6
100
AcDbDimStyleTable
  0
DIMSTYLE
105
27
330
A
100
AcDbSymbolTableRecord
100
AcDbDimStyleTableRecord
  2
ISO-25
 70
     0
 41
2.5
 42
0.625
 43
3.75
 44
1.25
 73
     0
 74
     0
 77
     1
 78
     8
140
2.5
141
2.5
143
0.0393700787
147
0.625
171
     3
172
     1
271
     2
272
     2
274
     3
278
    44
283
     0
284
     8
340
11
  0
DIMSTYLE
105
B6
102
{ACAD_REACTORS
330
A6
330
E3
330
116
330
12E
330
145
330
15D
330
174
330
18E
330
1BC
102
}
330
A
100
AcDbSymbolTableRecord
100
AcDbDimStyleTableRecord
  2
SLDDIMSTYLE0
 70
     0
 41
3.0
 44
0.0
 73
     0
 74
     0
 77
     3
 78
    12
140
3.5
147
0.875
173
     1
271
     0
272
     3
284
    12
340
3C
341
B7
343
B7
344
B7
  0
DIMSTYLE
105
D3
102
{ACAD_REACTORS
330
C6
102
}
330
A
100
AcDbSymbolTableRecord
100
AcDbDimStyleTableRecord
  2
SLDDIMSTYLE1
 70
     0
 41
3.0
 44
0.0
 47
0.1
 71
     1
 73
     0
 74
     0
 77
     3
 78
    12
140
3.5
147
0.875
173
     1
271
     0
272
     1
340
3C
341
B7
343
B7
344
B7
  0
DIMSTYLE
105
109
102
{ACAD_REACTORS
330
FB
102
}
330
A
100
AcDbSymbolTableRecord
100
AcDbDimStyleTableRecord
  2
SLDDIMSTYLE2
 70
     0
 41
3.0
 44
0.0
 73
     0
 74
     0
 77
     3
 78
    12
140
3.5
147
0.875
173
     1
271
     0
272
     1
284
    12
340
3C
341
B7
343
B7
344
B7
  0
DIMSTYLE
105
1B3
102
{ACAD_REACTORS
330
1A9
102
}
330
A
100
AcDbSymbolTableRecord
100
AcDbDimStyleTableRecord
  2
SLDDIMSTYLE3
 70
     0
 41
3.0
 44
0.0
 78
    12
140
3.5
147
0.875
172
     1
173
     1
271
     1
272
     3
284
    12
340
3C
341
B7
343
B7
344
B7
  0
DIMSTYLE
105
1E1
102
{ACAD_REACTORS
330
1D3
102
}
330
A
100
AcDbSymbolTableRecord
100
AcDbDimStyleTableRecord
  2
SLDDIMSTYLE4
 70
     0
 41
3.0
 44
0.0
 73
     0
 74
     0
 77
     3
 78
    12
140
3.5
147
0.875
173
     1
271
     1
272
     3
284
    12
340
3C
341
B7
343
B7
344
B7
  0
ENDTAB
  0
TABLE
  2
BLOCK_RECORD
  5
1
330
0
100
AcDbSymbolTable
 70
    24
  0
BLOCK_RECORD
  5
1F
330
1
100
AcDbSymbolTableRecord
100
AcDbBlockTableRecord
  2
*Model_Space
340
22
  0
BLOCK_RECORD
  5
1B
330
1
100
AcDbSymbolTableRecord
100
AcDbBlockTableRecord
  2
*Paper_Space
340
1E
  0
BLOCK_RECORD
  5
23
330
1
100
AcDbSymbolTableRecord
100
AcDbBlockTableRecord
  2
*Paper_Space0
340
26
  0
BLOCK_RECORD
  5
31
330
1
100
AcDbSymbolTableRecord
100
AcDbBlockTableRecord
  2
注記
340
0
102
{BLKREFS
331
1F3
102
}
  0
BLOCK_RECORD
  5
37
330
1
100
AcDbSymbolTableRecord
100
AcDbBlockTableRecord
  2
SURFACEFINISH40
340
0
102
{BLKREFS
331
1F1
102
}
  0
BLOCK_RECORD
  5
3E
330
1
100
AcDbSymbolTableRecord
100
AcDbBlockTableRecord
  2
SURFACEFINISH41
340
0
102
{BLKREFS
331
1F2
102
}
  0
BLOCK_RECORD
  5
45
330
1
100
AcDbSymbolTableRecord
100
AcDbBlockTableRecord
  2
SURFACEFINISH42
340
0
102
{BLKREFS
331
1F4
102
}
  0
BLOCK_RECORD
  5
4D
330
1
100
AcDbSymbolTableRecord
100
AcDbBlockTableRecord
  2
SURFACEFINISH43
340
0
102
{BLKREFS
331
1F5
102
}
  0
BLOCK_RECORD
  5
55
330
1
100
AcDbSymbolTableRecord
100
AcDbBlockTableRecord
  2
SW_CENTERMARK0
340
0
102
{BLKREFS
331
1F6
102
}
  0
BLOCK_RECORD
  5
60
330
1
100
AcDbSymbolTableRecord
100
AcDbBlockTableRecord
  2
SW_CENTERMARK1
340
0
102
{BLKREFS
331
1F7
102
}
  0
BLOCK_RECORD
  5
6B
330
1
100
AcDbSymbolTableRecord
100
AcDbBlockTableRecord
  2
SW_CENTERMARK2
340
0
102
{BLKREFS
331
1F8
102
}
  0
BLOCK_RECORD
  5
76
330
1
100
AcDbSymbolTableRecord
100
AcDbBlockTableRecord
  2
SW_CENTERMARK3
340
0
102
{BLKREFS
331
1F9
102
}
  0
BLOCK_RECORD
  5
A8
330
1
100
AcDbSymbolTableRecord
100
AcDbBlockTableRecord
  2
*D10
340
0
  0
BLOCK_RECORD
  5
B7
330
1
100
AcDbSymbolTableRecord
100
AcDbBlockTableRecord
  2
_None
340
0
102
{BLKREFS
331
AE
331
AD
331
CC
331
CB
331
E9
331
E8
331
101
331
100
331
11C
331
11B
331
134
331
133
331
14B
331
14A
331
163
331
162
331
17A
331
179
331
195
331
194
331
1AE
331
1C2
331
1C1
331
1D9
331
1D8
102
}
  0
BLOCK_RECORD
  5
C7
330
1
100
AcDbSymbolTableRecord
100
AcDbBlockTableRecord
  2
*D12
340
0
  0
BLOCK_RECORD
  5
E4
330
1
100
AcDbSymbolTableRecord
100
AcDbBlockTableRecord
  2
*D13
340
0
  0
BLOCK_RECORD
  5
FC
330
1
100
AcDbSymbolTableRecord
100
AcDbBlockTableRecord
  2
*D14
340
0
  0
BLOCK_RECORD
  5
117
330
1
100
AcDbSymbolTableRecord
100
AcDbBlockTableRecord
  2
*D15
340
0
  0
BLOCK_RECORD
  5
12F
330
1
100
AcDbSymbolTableRecord
100
AcDbBlockTableRecord
  2
*D16
340
0
  0
BLOCK_RECORD
  5
146
330
1
100
AcDbSymbolTableRecord
100
AcDbBlockTableRecord
  2
*D17
340
0
  0
BLOCK_RECORD
  5
15E
330
1
100
AcDbSymbolTableRecord
100
AcDbBlockTableRecord
  2
*D18
340
0
  0
BLOCK_RECORD
  5
175
330
1
100
AcDbSymbolTableRecord
100
AcDbBlockTableRecord
  2
*D19
340
0
  0
BLOCK_RECORD
  5
18F
330
1
100
AcDbSymbolTableRecord
100
AcDbBlockTableRecord
  2
*D20
340
0
  0
BLOCK_RECORD
  5
1AA
330
1
100
AcDbSymbolTableRecord
100
AcDbBlockTableRecord
  2
*D21
340
0
  0
BLOCK_RECORD
  5
1BD
330
1
100
AcDbSymbolTableRecord
100
AcDbBlockTableRecord
  2
*D22
340
0
  0
BLOCK_RECORD
  5
1D4
330
1
100
AcDbSymbolTableRecord
100
AcDbBlockTableRecord
  2
*D23
340
0
  0
ENDTAB
  0
ENDSEC
  0
SECTION
  2
BLOCKS
  0
BLOCK
  5
20
330
1F
100
AcDbEntity
  8
0
100
AcDbBlockBegin
  2
*Model_Space
 70
     0
 71
     0
 10
0.0
 20
0.0
 30
0.0
  3
*Model_Space
  1

  0
ENDBLK
  5
21
330
1F
100
AcDbEntity
  8
0
100
AcDbBlockEnd
  0
BLOCK
  5
1C
330
1B
100
AcDbEntity
 67
     1
  8
0
100
AcDbBlockBegin
  2
*Paper_Space
 70
     0
 71
     0
 10
0.0
 20
0.0
 30
0.0
  3
*Paper_Space
  1

  0
ENDBLK
  5
1D
330
1B
100
AcDbEntity
 67
     1
  8
0
100
AcDbBlockEnd
  0
BLOCK
  5
24
330
23
100
AcDbEntity
  8
0
100
AcDbBlockBegin
  2
*Paper_Space0
 70
     0
 71
     0
 10
0.0
 20
0.0
 30
0.0
  3
*Paper_Space0
  1

  0
ENDBLK
  5
25
330
23
100
AcDbEntity
  8
0
100
AcDbBlockEnd
  0
BLOCK
  5
32
330
31
100
AcDbEntity
  8
0
100
AcDbBlockBegin
  2
注記
 70
     0
 71
     0
 10
0.0
 20
0.0
 30
0.0
  3
注記
  1

  0
MTEXT
  5
35
330
31
100
AcDbEntity
  8
0
  6
Continuous
 62
     7
370
     0
100
AcDbMText
 10
0.2636785918
 20
9.0739778448
 30
0.0
 40
3.5
 41
0.0
 71
     1
 72
     1
  1
１．特記ナキ角部ハ、バリ　カエリノ無キコト。
  7
SLDTEXTSTYLE0
 73
     1
 44
1.0
  0
MTEXT
  5
36
330
31
100
AcDbEntity
  8
0
  6
Continuous
 62
     7
370
     0
100
AcDbMText
 10
0.2636785918
 20
3.5759549983
 30
0.0
 40
3.5
 41
0.0
 71
     1
 72
     1
  1
２．特記ナキ隅部ハ、Ｒ０．４ＭＡＸトスル。
  7
SLDTEXTSTYLE0
 73
     1
 44
1.0
  0
ENDBLK
  5
33
330
31
100
AcDbEntity
  8
0
100
AcDbBlockEnd
  0
BLOCK
  5
38
330
37
100
AcDbEntity
  8
0
100
AcDbBlockBegin
  2
SURFACEFINISH40
 70
     0
 71
     0
 10
0.0
 20
0.0
 30
0.0
  3
SURFACEFINISH40
  1

  0
LINE
  5
3A
330
37
100
AcDbEntity
  8
SLD-0
  6
Continuous
 62
   179
100
AcDbLine
 10
0.6656399396
 20
-6.0449245738
 30
0.0
 11
-2.9003789868
 21
0.0000001164
 31
0.0
  0
LINE
  5
3B
330
37
100
AcDbEntity
  8
SLD-0
  6
Continuous
 62
   179
100
AcDbLine
 10
0.6656399396
 20
-6.0449245738
 30
0.0
 11
7.7976777926
 21
6.0449248066
 31
0.0
  0
MTEXT
  5
3D
330
37
100
AcDbEntity
  8
SLD-0
100
AcDbMText
 10
0.0
 20
4.9341236929
 30
0.0
 40
3.175
 41
0.0
 71
     1
 72
     1
  1
25
  7
SLDTEXTSTYLE1
 73
     1
 44
1.0
  0
ENDBLK
  5
39
330
37
100
AcDbEntity
  8
0
100
AcDbBlockEnd
  0
BLOCK
  5
3F
330
3E
100
AcDbEntity
  8
0
100
AcDbBlockBegin
  2
SURFACEFINISH41
 70
     0
 71
     0
 10
0.0
 20
0.0
 30
0.0
  3
SURFACEFINISH41
  1

  0
LINE
  5
41
330
3E
100
AcDbEntity
  8
SLD-0
  6
Continuous
 62
   179
100
AcDbLine
 10
2.7814693727
 20
-6.0449245738
 30
0.0
 11
-0.7845495538
 21
0.0000001164
 31
0.0
  0
LINE
  5
42
330
3E
100
AcDbEntity
  8
SLD-0
  6
Continuous
 62
   179
100
AcDbLine
 10
6.3474882992
 20
0.0000001164
 30
0.0
 11
-0.7845495538
 21
0.0000001164
 31
0.0
  0
LINE
  5
43
330
3E
100
AcDbEntity
  8
SLD-0
  6
Continuous
 62
   179
100
AcDbLine
 10
2.7814693727
 20
-6.0449245738
 30
0.0
 11
9.9135072256
 21
6.0449248066
 31
0.0
  0
MTEXT
  5
44
330
3E
100
AcDbEntity
  8
SLD-0
100
AcDbMText
 10
0.0
 20
4.9341236929
 30
0.0
 40
3.175
 41
0.0
 71
     1
 72
     1
  1
6.3
  7
SLDTEXTSTYLE1
 73
     1
 44
1.0
  0
ENDBLK
  5
40
330
3E
100
AcDbEntity
  8
0
100
AcDbBlockEnd
  0
BLOCK
  5
46
330
45
100
AcDbEntity
  8
0
100
AcDbBlockBegin
  2
SURFACEFINISH42
 70
     0
 71
     0
 10
0.0
 20
0.0
 30
0.0
  3
SURFACEFINISH42
  1

  0
LINE
  5
48
330
45
100
AcDbEntity
  8
SLD-0
  6
Continuous
 62
   179
100
AcDbLine
 10
-6.8510557915
 20
3.4792733988
 30
0.0
 11
-6.8510557915
 21
1.377345951
 31
0.0
  0
LINE
  5
49
330
45
100
AcDbEntity
  8
SLD-0
  6
Continuous
 62
   179
100
AcDbLine
 10
-6.8510557915
 20
2.377345951
 30
0.0
 11
-2.821105998
 21
4.754691902
 31
0.0
  0
LINE
  5
4A
330
45
100
AcDbEntity
  8
SLD-0
  6
Continuous
 62
   179
100
AcDbLine
 10
-2.821105998
 20
0.0
 30
0.0
 11
-2.821105998
 21
4.754691902
 31
0.0
  0
LINE
  5
4B
330
45
100
AcDbEntity
  8
SLD-0
  6
Continuous
 62
   179
100
AcDbLine
 10
-6.8510557915
 20
2.377345951
 30
0.0
 11
1.2088437954
 21
-2.377345951
 31
0.0
  0
MTEXT
  5
4C
330
45
100
AcDbEntity
  8
SLD-0
100
AcDbMText
 10
-2.9130973836
 20
0.0
 30
0.0
 40
2.1166666667
 41
0.0
 71
     1
 72
     1
  1
6.3
  7
SLDTEXTSTYLE1
 11
6.123031769111886E-17
 21
1.0
 31
0.0
 73
     1
 44
1.0
  0
ENDBLK
  5
47
330
45
100
AcDbEntity
  8
0
100
AcDbBlockEnd
  0
BLOCK
  5
4E
330
4D
100
AcDbEntity
  8
0
100
AcDbBlockBegin
  2
SURFACEFINISH43
 70
     0
 71
     0
 10
0.0
 20
0.0
 30
0.0
  3
SURFACEFINISH43
  1

  0
LINE
  5
50
330
4D
100
AcDbEntity
  8
SLD-0
  6
Continuous
 62
   179
100
AcDbLine
 10
4.0299497062
 20
3.4359694102
 30
0.0
 11
4.0299497062
 21
0.8543129151
 31
0.0
  0
LINE
  5
51
330
4D
100
AcDbEntity
  8
SLD-0
  6
Continuous
 62
   179
100
AcDbLine
 10
4.0299497062
 20
1.8543129151
 30
0.0
 11
-0.0000000873
 21
-0.5230330359
 31
0.0
  0
LINE
  5
52
330
4D
100
AcDbEntity
  8
SLD-0
  6
Continuous
 62
   179
100
AcDbLine
 10
-0.0000000873
 20
4.2316588661
 30
0.0
 11
-0.0000000873
 21
-0.5230330359
 31
0.0
  0
LINE
  5
53
330
4D
100
AcDbEntity
  8
SLD-0
  6
Continuous
 62
   179
100
AcDbLine
 10
4.0299497062
 20
1.8543129151
 30
0.0
 11
-4.0299498808
 21
6.6090048171
 31
0.0
  0
MTEXT
  5
54
330
4D
100
AcDbEntity
  8
SLD-0
100
AcDbMText
 10
-2.9130973836
 20
0.0
 30
0.0
 40
2.1166666667
 41
0.0
 71
     1
 72
     1
  1
6.3
  7
SLDTEXTSTYLE1
 11
6.123031769111886E-17
 21
1.0
 31
0.0
 73
     1
 44
1.0
  0
ENDBLK
  5
4F
330
4D
100
AcDbEntity
  8
0
100
AcDbBlockEnd
  0
BLOCK
  5
56
330
55
100
AcDbEntity
  8
0
100
AcDbBlockBegin
  2
SW_CENTERMARK0
 70
     0
 71
     0
 10
0.0
 20
0.0
 30
0.0
  3
SW_CENTERMARK0
  1

  0
LINE
  5
58
330
55
100
AcDbEntity
  8
SLD-0
  6
Continuous
 62
   179
100
AcDbLine
 10
106.1110268949
 20
198.9597066015
 30
0.0
 11
106.1110268949
 21
201.4597066015
 31
0.0
  0
LINE
  5
59
330
55
100
AcDbEntity
  8
SLD-0
  6
Continuous
 62
   179
100
AcDbLine
 10
106.1110268949
 20
198.9597066015
 30
0.0
 11
103.6110268949
 21
198.9597066015
 31
0.0
  0
LINE
  5
5A
330
55
100
AcDbEntity
  8
SLD-0
  6
Continuous
 62
   179
100
AcDbLine
 10
106.1110268949
 20
198.9597066015
 30
0.0
 11
106.1110268949
 21
196.4597066015
 31
0.0
  0
LINE
  5
5B
330
55
100
AcDbEntity
  8
SLD-0
  6
Continuous
 62
   179
100
AcDbLine
 10
106.1110268949
 20
198.9597066015
 30
0.0
 11
108.6110268949
 21
198.9597066015
 31
0.0
  0
LINE
  5
5C
330
55
100
AcDbEntity
  8
SLD-0
  6
Continuous
 62
   179
100
AcDbLine
 10
106.1110268949
 20
201.4597066015
 30
0.0
 11
106.1110268949
 21
203.7097066015
 31
0.0
  0
LINE
  5
5D
330
55
100
AcDbEntity
  8
SLD-0
  6
Continuous
 62
   179
100
AcDbLine
 10
103.6110268949
 20
198.9597066015
 30
0.0
 11
101.3610268949
 21
198.9597066015
 31
0.0
  0
LINE
  5
5E
330
55
100
AcDbEntity
  8
SLD-0
  6
Continuous
 62
   179
100
AcDbLine
 10
106.1110268949
 20
196.4597066015
 30
0.0
 11
106.1110268949
 21
194.2097066015
 31
0.0
  0
LINE
  5
5F
330
55
100
AcDbEntity
  8
SLD-0
  6
Continuous
 62
   179
100
AcDbLine
 10
108.6110268949
 20
198.9597066015
 30
0.0
 11
110.8610268949
 21
198.9597066015
 31
0.0
  0
ENDBLK
  5
57
330
55
100
AcDbEntity
  8
0
100
AcDbBlockEnd
  0
BLOCK
  5
61
330
60
100
AcDbEntity
  8
0
100
AcDbBlockBegin
  2
SW_CENTERMARK1
 70
     0
 71
     0
 10
0.0
 20
0.0
 30
0.0
  3
SW_CENTERMARK1
  1

  0
LINE
  5
63
330
60
100
AcDbEntity
  8
SLD-0
  6
Continuous
 62
   179
100
AcDbLine
 10
106.1110268949
 20
183.9597066015
 30
0.0
 11
106.1110268949
 21
186.4597066015
 31
0.0
  0
LINE
  5
64
330
60
100
AcDbEntity
  8
SLD-0
  6
Continuous
 62
   179
100
AcDbLine
 10
106.1110268949
 20
183.9597066015
 30
0.0
 11
103.6110268949
 21
183.9597066015
 31
0.0
  0
LINE
  5
65
330
60
100
AcDbEntity
  8
SLD-0
  6
Continuous
 62
   179
100
AcDbLine
 10
106.1110268949
 20
183.9597066015
 30
0.0
 11
106.1110268949
 21
181.4597066015
 31
0.0
  0
LINE
  5
66
330
60
100
AcDbEntity
  8
SLD-0
  6
Continuous
 62
   179
100
AcDbLine
 10
106.1110268949
 20
183.9597066015
 30
0.0
 11
108.6110268949
 21
183.9597066015
 31
0.0
  0
LINE
  5
67
330
60
100
AcDbEntity
  8
SLD-0
  6
Continuous
 62
   179
100
AcDbLine
 10
106.1110268949
 20
186.4597066015
 30
0.0
 11
106.1110268949
 21
188.7097066015
 31
0.0
  0
LINE
  5
68
330
60
100
AcDbEntity
  8
SLD-0
  6
Continuous
 62
   179
100
AcDbLine
 10
103.6110268949
 20
183.9597066015
 30
0.0
 11
101.3610268949
 21
183.9597066015
 31
0.0
  0
LINE
  5
69
330
60
100
AcDbEntity
  8
SLD-0
  6
Continuous
 62
   179
100
AcDbLine
 10
106.1110268949
 20
181.4597066015
 30
0.0
 11
106.1110268949
 21
179.2097066015
 31
0.0
  0
LINE
  5
6A
330
60
100
AcDbEntity
  8
SLD-0
  6
Continuous
 62
   179
100
AcDbLine
 10
108.6110268949
 20
183.9597066015
 30
0.0
 11
110.8610268949
 21
183.9597066015
 31
0.0
  0
ENDBLK
  5
62
330
60
100
AcDbEntity
  8
0
100
AcDbBlockEnd
  0
BLOCK
  5
6C
330
6B
100
AcDbEntity
  8
0
100
AcDbBlockBegin
  2
SW_CENTERMARK2
 70
     0
 71
     0
 10
0.0
 20
0.0
 30
0.0
  3
SW_CENTERMARK2
  1

  0
LINE
  5
6E
330
6B
100
AcDbEntity
  8
SLD-0
  6
Continuous
 62
   179
100
AcDbLine
 10
120.1110268949
 20
191.4597066015
 30
0.0
 11
120.1110268949
 21
193.9597066015
 31
0.0
  0
LINE
  5
6F
330
6B
100
AcDbEntity
  8
SLD-0
  6
Continuous
 62
   179
100
AcDbLine
 10
120.1110268949
 20
191.4597066015
 30
0.0
 11
117.6110268949
 21
191.4597066015
 31
0.0
  0
LINE
  5
70
330
6B
100
AcDbEntity
  8
SLD-0
  6
Continuous
 62
   179
100
AcDbLine
 10
120.1110268949
 20
191.4597066015
 30
0.0
 11
120.1110268949
 21
188.9597066015
 31
0.0
  0
LINE
  5
71
330
6B
100
AcDbEntity
  8
SLD-0
  6
Continuous
 62
   179
100
AcDbLine
 10
120.1110268949
 20
191.4597066015
 30
0.0
 11
122.6110268949
 21
191.4597066015
 31
0.0
  0
LINE
  5
72
330
6B
100
AcDbEntity
  8
SLD-0
  6
Continuous
 62
   179
100
AcDbLine
 10
120.1110268949
 20
193.9597066015
 30
0.0
 11
120.1110268949
 21
196.2097066015
 31
0.0
  0
LINE
  5
73
330
6B
100
AcDbEntity
  8
SLD-0
  6
Continuous
 62
   179
100
AcDbLine
 10
117.6110268949
 20
191.4597066015
 30
0.0
 11
115.3610268949
 21
191.4597066015
 31
0.0
  0
LINE
  5
74
330
6B
100
AcDbEntity
  8
SLD-0
  6
Continuous
 62
   179
100
AcDbLine
 10
120.1110268949
 20
188.9597066015
 30
0.0
 11
120.1110268949
 21
186.7097066015
 31
0.0
  0
LINE
  5
75
330
6B
100
AcDbEntity
  8
SLD-0
  6
Continuous
 62
   179
100
AcDbLine
 10
122.6110268949
 20
191.4597066015
 30
0.0
 11
124.8610268949
 21
191.4597066015
 31
0.0
  0
ENDBLK
  5
6D
330
6B
100
AcDbEntity
  8
0
100
AcDbBlockEnd
  0
BLOCK
  5
77
330
76
100
AcDbEntity
  8
0
100
AcDbBlockBegin
  2
SW_CENTERMARK3
 70
     0
 71
     0
 10
0.0
 20
0.0
 30
0.0
  3
SW_CENTERMARK3
  1

  0
LINE
  5
79
330
76
100
AcDbEntity
  8
SLD-0
  6
Continuous
 62
   179
100
AcDbLine
 10
92.1110268949
 20
191.4597066015
 30
0.0
 11
92.1110268949
 21
193.9597066015
 31
0.0
  0
LINE
  5
7A
330
76
100
AcDbEntity
  8
SLD-0
  6
Continuous
 62
   179
100
AcDbLine
 10
92.1110268949
 20
191.4597066015
 30
0.0
 11
89.6110268949
 21
191.4597066015
 31
0.0
  0
LINE
  5
7B
330
76
100
AcDbEntity
  8
SLD-0
  6
Continuous
 62
   179
100
AcDbLine
 10
92.1110268949
 20
191.4597066015
 30
0.0
 11
92.1110268949
 21
188.9597066015
 31
0.0
  0
LINE
  5
7C
330
76
100
AcDbEntity
  8
SLD-0
  6
Continuous
 62
   179
100
AcDbLine
 10
92.1110268949
 20
191.4597066015
 30
0.0
 11
94.6110268949
 21
191.4597066015
 31
0.0
  0
LINE
  5
7D
330
76
100
AcDbEntity
  8
SLD-0
  6
Continuous
 62
   179
100
AcDbLine
 10
92.1110268949
 20
193.9597066015
 30
0.0
 11
92.1110268949
 21
196.2097066015
 31
0.0
  0
LINE
  5
7E
330
76
100
AcDbEntity
  8
SLD-0
  6
Continuous
 62
   179
100
AcDbLine
 10
89.6110268949
 20
191.4597066015
 30
0.0
 11
87.3610268949
 21
191.4597066015
 31
0.0
  0
LINE
  5
7F
330
76
100
AcDbEntity
  8
SLD-0
  6
Continuous
 62
   179
100
AcDbLine
 10
92.1110268949
 20
188.9597066015
 30
0.0
 11
92.1110268949
 21
186.7097066015
 31
0.0
  0
LINE
  5
80
330
76
100
AcDbEntity
  8
SLD-0
  6
Continuous
 62
   179
100
AcDbLine
 10
94.6110268949
 20
191.4597066015
 30
0.0
 11
96.8610268949
 21
191.4597066015
 31
0.0
  0
ENDBLK
  5
78
330
76
100
AcDbEntity
  8
0
100
AcDbBlockEnd
  0
BLOCK
  5
B4
330
A8
100
AcDbEntity
  8
0
100
AcDbBlockBegin
  2
*D10
 70
     1
 71
     0
 10
0.0
 20
0.0
 30
0.0
  3
*D10
  1

  0
LINE
  5
BA
330
A8
100
AcDbEntity
  8
SLD-0
 62
     7
100
AcDbLine
 10
125.1110268949
 20
136.4456359719
 30
0.0
 11
137.200931392
 21
136.4456359719
 31
0.0
  0
LINE
  5
BB
330
A8
100
AcDbEntity
  8
SLD-0
 62
     7
100
AcDbLine
 10
125.1110268949
 20
139.4456359719
 30
0.0
 11
137.200931392
 21
139.4456359719
 31
0.0
  0
LINE
  5
BC
330
A8
100
AcDbEntity
  8
SLD-0
 62
     7
100
AcDbLine
 10
136.200931392
 20
136.4456359719
 30
0.0
 11
136.200931392
 21
131.4456359719
 31
0.0
  0
LINE
  5
BD
330
A8
100
AcDbEntity
  8
SLD-0
 62
     7
100
AcDbLine
 10
136.200931392
 20
136.4456359719
 30
0.0
 11
136.200931392
 21
139.4456359719
 31
0.0
  0
LINE
  5
BE
330
A8
100
AcDbEntity
  8
SLD-0
 62
     7
100
AcDbLine
 10
136.200931392
 20
139.4456359719
 30
0.0
 11
136.200931392
 21
150.4107490507
 31
0.0
  0
LINE
  5
BF
330
A8
100
AcDbEntity
  8
SLD-0
 62
     7
100
AcDbLine
 10
135.397084392
 20
133.4456359719
 30
0.0
 11
136.200931392
 21
136.4456359719
 31
0.0
  0
LINE
  5
C0
330
A8
100
AcDbEntity
  8
SLD-0
 62
     7
100
AcDbLine
 10
136.200931392
 20
136.4456359719
 30
0.0
 11
137.004778392
 21
133.4456359719
 31
0.0
  0
LINE
  5
C1
330
A8
100
AcDbEntity
  8
SLD-0
 62
     7
100
AcDbLine
 10
136.200931392
 20
136.4456359719
 30
0.0
 11
136.200931392
 21
133.4456359719
 31
0.0
  0
LINE
  5
C2
330
A8
100
AcDbEntity
  8
SLD-0
 62
     7
100
AcDbLine
 10
137.004778392
 20
142.4456359719
 30
0.0
 11
136.200931392
 21
139.4456359719
 31
0.0
  0
LINE
  5
C3
330
A8
100
AcDbEntity
  8
SLD-0
 62
     7
100
AcDbLine
 10
136.200931392
 20
139.4456359719
 30
0.0
 11
135.397084392
 21
142.4456359719
 31
0.0
  0
LINE
  5
C4
330
A8
100
AcDbEntity
  8
SLD-0
 62
     7
100
AcDbLine
 10
136.200931392
 20
139.4456359719
 30
0.0
 11
136.200931392
 21
142.4456359719
 31
0.0
  0
MTEXT
  5
C5
330
A8
100
AcDbEntity
  8
SLD-0
 62
     7
100
AcDbMText
 10
131.674237696
 20
146.7878138275
 30
0.1
 40
3.5
 41
0.0
 71
     1
 72
     1
  1
3
  7
SLDTEXTSTYLE0
 11
6.123031769111886E-17
 21
1.0
 31
0.0
 73
     1
 44
1.0
  0
ENDBLK
  5
B5
330
A8
100
AcDbEntity
  8
0
100
AcDbBlockEnd
  0
BLOCK
  5
B8
330
B7
100
AcDbEntity
  8
0
100
AcDbBlockBegin
  2
_None
 70
     0
 71
     0
 10
0.0
 20
0.0
 30
0.0
  3
_None
  1

  0
ENDBLK
  5
B9
330
B7
100
AcDbEntity
  8
0
100
AcDbBlockEnd
  0
BLOCK
  5
D1
330
C7
100
AcDbEntity
  8
0
100
AcDbBlockBegin
  2
*D12
 70
     1
 71
     0
 10
0.0
 20
0.0
 30
0.0
  3
*D12
  1

  0
LINE
  5
D4
330
C7
100
AcDbEntity
  8
SLD-0
 62
     7
100
AcDbLine
 10
96.1110268949
 20
135.4456359719
 30
0.0
 11
96.1110268949
 21
109.997232112
 31
0.0
  0
LINE
  5
D5
330
C7
100
AcDbEntity
  8
SLD-0
 62
     7
100
AcDbLine
 10
116.1110268949
 20
135.4456359719
 30
0.0
 11
116.1110268949
 21
109.997232112
 31
0.0
  0
LINE
  5
D6
330
C7
100
AcDbEntity
  8
SLD-0
 62
     7
100
AcDbLine
 10
96.1110268949
 20
110.997232112
 30
0.0
 11
91.1110268949
 21
110.997232112
 31
0.0
  0
LINE
  5
D7
330
C7
100
AcDbEntity
  8
SLD-0
 62
     7
100
AcDbLine
 10
96.1110268949
 20
110.997232112
 30
0.0
 11
116.1110268949
 21
110.997232112
 31
0.0
  0
LINE
  5
D8
330
C7
100
AcDbEntity
  8
SLD-0
 62
     7
100
AcDbLine
 10
116.1110268949
 20
110.997232112
 30
0.0
 11
121.1110268949
 21
110.997232112
 31
0.0
  0
LINE
  5
D9
330
C7
100
AcDbEntity
  8
SLD-0
 62
     7
100
AcDbLine
 10
93.1110268949
 20
111.801079112
 30
0.0
 11
96.1110268949
 21
110.997232112
 31
0.0
  0
LINE
  5
DA
330
C7
100
AcDbEntity
  8
SLD-0
 62
     7
100
AcDbLine
 10
96.1110268949
 20
110.997232112
 30
0.0
 11
93.1110268949
 21
110.193385112
 31
0.0
  0
LINE
  5
DB
330
C7
100
AcDbEntity
  8
SLD-0
 62
     7
100
AcDbLine
 10
96.1110268949
 20
110.997232112
 30
0.0
 11
93.1110268949
 21
110.997232112
 31
0.0
  0
LINE
  5
DC
330
C7
100
AcDbEntity
  8
SLD-0
 62
     7
100
AcDbLine
 10
119.1110268949
 20
110.193385112
 30
0.0
 11
116.1110268949
 21
110.997232112
 31
0.0
  0
LINE
  5
DD
330
C7
100
AcDbEntity
  8
SLD-0
 62
     7
100
AcDbLine
 10
116.1110268949
 20
110.997232112
 30
0.0
 11
119.1110268949
 21
111.801079112
 31
0.0
  0
LINE
  5
DE
330
C7
100
AcDbEntity
  8
SLD-0
 62
     7
100
AcDbLine
 10
116.1110268949
 20
110.997232112
 30
0.0
 11
119.1110268949
 21
110.997232112
 31
0.0
  0
MTEXT
  5
DF
330
C7
100
AcDbEntity
  8
SLD-0
 62
     7
100
AcDbMText
 10
101.022438837
 20
115.5239258079
 30
0.1
 40
3.5
 41
0.0
 71
     1
 72
     1
  1
20
  7
SLDTEXTSTYLE0
 73
     1
 44
1.0
  0
MTEXT
  5
E0
330
C7
100
AcDbEntity
  8
SLD-0
 62
     7
100
AcDbMText
 10
107.5343698382
 20
114.3274519822
 30
0.1
 40
2.1
 41
0.0
 71
     1
 72
     1
  1
0
  7
SLDTEXTSTYLE0
 73
     1
 44
1.0
  0
MTEXT
  5
E1
330
C7
100
AcDbEntity
  8
SLD-0
 62
     7
100
AcDbMText
 10
106.3138395607
 20
116.768512537
 30
0.1
 40
2.1
 41
0.0
 71
     1
 72
     1
  1
+
  7
SLDTEXTSTYLE0
 73
     1
 44
1.0
  0
MTEXT
  5
E2
330
C7
100
AcDbEntity
  8
SLD-0
 62
     7
100
AcDbMText
 10
107.5343698382
 20
116.768512537
 30
0.1
 40
2.1
 41
0.0
 71
     1
 72
     1
  1
0.1
  7
SLDTEXTSTYLE0
 73
     1
 44
1.0
  0
ENDBLK
  5
D2
330
C7
100
AcDbEntity
  8
0
100
AcDbBlockEnd
  0
BLOCK
  5
EF
330
E4
100
AcDbEntity
  8
0
100
AcDbBlockBegin
  2
*D13
 70
     1
 71
     0
 10
0.0
 20
0.0
 30
0.0
  3
*D13
  1

  0
LINE
  5
F1
330
E4
100
AcDbEntity
  8
SLD-0
 62
     7
100
AcDbLine
 10
125.1110268949
 20
139.4456359719
 30
0.0
 11
147.6029847791
 21
139.4456359719
 31
0.0
  0
LINE
  5
F2
330
E4
100
AcDbEntity
  8
SLD-0
 62
     7
100
AcDbLine
 10
125.1110268949
 20
126.4456359719
 30
0.0
 11
147.6029847791
 21
126.4456359719
 31
0.0
  0
LINE
  5
F3
330
E4
100
AcDbEntity
  8
SLD-0
 62
     7
100
AcDbLine
 10
146.6029847791
 20
139.4456359719
 30
0.0
 11
146.6029847791
 21
126.4456359719
 31
0.0
  0
LINE
  5
F4
330
E4
100
AcDbEntity
  8
SLD-0
 62
     7
100
AcDbLine
 10
145.7991377791
 20
136.4456359719
 30
0.0
 11
146.6029847791
 21
139.4456359719
 31
0.0
  0
LINE
  5
F5
330
E4
100
AcDbEntity
  8
SLD-0
 62
     7
100
AcDbLine
 10
146.6029847791
 20
139.4456359719
 30
0.0
 11
147.4068317791
 21
136.4456359719
 31
0.0
  0
LINE
  5
F6
330
E4
100
AcDbEntity
  8
SLD-0
 62
     7
100
AcDbLine
 10
146.6029847791
 20
139.4456359719
 30
0.0
 11
146.6029847791
 21
136.4456359719
 31
0.0
  0
LINE
  5
F7
330
E4
100
AcDbEntity
  8
SLD-0
 62
     7
100
AcDbLine
 10
147.4068317791
 20
129.4456359719
 30
0.0
 11
146.6029847791
 21
126.4456359719
 31
0.0
  0
LINE
  5
F8
330
E4
100
AcDbEntity
  8
SLD-0
 62
     7
100
AcDbLine
 10
146.6029847791
 20
126.4456359719
 30
0.0
 11
145.7991377791
 21
129.4456359719
 31
0.0
  0
LINE
  5
F9
330
E4
100
AcDbEntity
  8
SLD-0
 62
     7
100
AcDbLine
 10
146.6029847791
 20
126.4456359719
 30
0.0
 11
146.6029847791
 21
129.4456359719
 31
0.0
  0
MTEXT
  5
FA
330
E4
100
AcDbEntity
  8
SLD-0
 62
     7
100
AcDbMText
 10
142.0762910832
 20
130.9102007487
 30
0.1
 40
3.5
 41
0.0
 71
     1
 72
     1
  1
13
  7
SLDTEXTSTYLE0
 11
6.123031769111886E-17
 21
1.0
 31
0.0
 73
     1
 44
1.0
  0
ENDBLK
  5
F0
330
E4
100
AcDbEntity
  8
0
100
AcDbBlockEnd
  0
BLOCK
  5
107
330
FC
100
AcDbEntity
  8
0
100
AcDbBlockBegin
  2
*D14
 70
     1
 71
     0
 10
0.0
 20
0.0
 30
0.0
  3
*D14
  1

  0
LINE
  5
10A
330
FC
100
AcDbEntity
  8
SLD-0
 62
     7
100
AcDbLine
 10
88.1110268949
 20
125.4456359719
 30
0.0
 11
88.1110268949
 21
109.997232112
 31
0.0
  0
LINE
  5
10B
330
FC
100
AcDbEntity
  8
SLD-0
 62
     7
100
AcDbLine
 10
96.1110268949
 20
125.4456359719
 30
0.0
 11
96.1110268949
 21
109.997232112
 31
0.0
  0
LINE
  5
10C
330
FC
100
AcDbEntity
  8
SLD-0
 62
     7
100
AcDbLine
 10
88.1110268949
 20
110.997232112
 30
0.0
 11
83.1110268949
 21
110.997232112
 31
0.0
  0
LINE
  5
10D
330
FC
100
AcDbEntity
  8
SLD-0
 62
     7
100
AcDbLine
 10
88.1110268949
 20
110.997232112
 30
0.0
 11
96.1110268949
 21
110.997232112
 31
0.0
  0
LINE
  5
10E
330
FC
100
AcDbEntity
  8
SLD-0
 62
     7
100
AcDbLine
 10
96.1110268949
 20
110.997232112
 30
0.0
 11
101.1110268949
 21
110.997232112
 31
0.0
  0
LINE
  5
10F
330
FC
100
AcDbEntity
  8
SLD-0
 62
     7
100
AcDbLine
 10
85.1110268949
 20
111.801079112
 30
0.0
 11
88.1110268949
 21
110.997232112
 31
0.0
  0
LINE
  5
110
330
FC
100
AcDbEntity
  8
SLD-0
 62
     7
100
AcDbLine
 10
88.1110268949
 20
110.997232112
 30
0.0
 11
85.1110268949
 21
110.193385112
 31
0.0
  0
LINE
  5
111
330
FC
100
AcDbEntity
  8
SLD-0
 62
     7
100
AcDbLine
 10
88.1110268949
 20
110.997232112
 30
0.0
 11
85.1110268949
 21
110.997232112
 31
0.0
  0
LINE
  5
112
330
FC
100
AcDbEntity
  8
SLD-0
 62
     7
100
AcDbLine
 10
99.1110268949
 20
110.193385112
 30
0.0
 11
96.1110268949
 21
110.997232112
 31
0.0
  0
LINE
  5
113
330
FC
100
AcDbEntity
  8
SLD-0
 62
     7
100
AcDbLine
 10
96.1110268949
 20
110.997232112
 30
0.0
 11
99.1110268949
 21
111.801079112
 31
0.0
  0
LINE
  5
114
330
FC
100
AcDbEntity
  8
SLD-0
 62
     7
100
AcDbLine
 10
96.1110268949
 20
110.997232112
 30
0.0
 11
99.1110268949
 21
110.997232112
 31
0.0
  0
MTEXT
  5
115
330
FC
100
AcDbEntity
  8
SLD-0
 62
     7
100
AcDbMText
 10
91.0933092833
 20
115.5239258079
 30
0.1
 40
3.5
 41
0.0
 71
     1
 72
     1
  1
8
  7
SLDTEXTSTYLE0
 73
     1
 44
1.0
  0
ENDBLK
  5
108
330
FC
100
AcDbEntity
  8
0
100
AcDbBlockEnd
  0
BLOCK
  5
122
330
117
100
AcDbEntity
  8
0
100
AcDbBlockBegin
  2
*D15
 70
     1
 71
     0
 10
0.0
 20
0.0
 30
0.0
  3
*D15
  1

  0
LINE
  5
124
330
117
100
AcDbEntity
  8
SLD-0
 62
     7
100
AcDbLine
 10
87.1110268949
 20
203.9597066015
 30
0.0
 11
73.4480196184
 21
203.9597066015
 31
0.0
  0
LINE
  5
125
330
117
100
AcDbEntity
  8
SLD-0
 62
     7
100
AcDbLine
 10
87.1110268949
 20
178.9597066015
 30
0.0
 11
73.4480196184
 21
178.9597066015
 31
0.0
  0
LINE
  5
126
330
117
100
AcDbEntity
  8
SLD-0
 62
     7
100
AcDbLine
 10
74.4480196184
 20
203.9597066015
 30
0.0
 11
74.4480196184
 21
178.9597066015
 31
0.0
  0
LINE
  5
127
330
117
100
AcDbEntity
  8
SLD-0
 62
     7
100
AcDbLine
 10
73.6441726184
 20
200.9597066015
 30
0.0
 11
74.4480196184
 21
203.9597066015
 31
0.0
  0
LINE
  5
128
330
117
100
AcDbEntity
  8
SLD-0
 62
     7
100
AcDbLine
 10
74.4480196184
 20
203.9597066015
 30
0.0
 11
75.2518666184
 21
200.9597066015
 31
0.0
  0
LINE
  5
129
330
117
100
AcDbEntity
  8
SLD-0
 62
     7
100
AcDbLine
 10
74.4480196184
 20
203.9597066015
 30
0.0
 11
74.4480196184
 21
200.9597066015
 31
0.0
  0
LINE
  5
12A
330
117
100
AcDbEntity
  8
SLD-0
 62
     7
100
AcDbLine
 10
75.2518666184
 20
181.9597066015
 30
0.0
 11
74.4480196184
 21
178.9597066015
 31
0.0
  0
LINE
  5
12B
330
117
100
AcDbEntity
  8
SLD-0
 62
     7
100
AcDbLine
 10
74.4480196184
 20
178.9597066015
 30
0.0
 11
73.6441726184
 21
181.9597066015
 31
0.0
  0
LINE
  5
12C
330
117
100
AcDbEntity
  8
SLD-0
 62
     7
100
AcDbLine
 10
74.4480196184
 20
178.9597066015
 30
0.0
 11
74.4480196184
 21
181.9597066015
 31
0.0
  0
MTEXT
  5
12D
330
117
100
AcDbEntity
  8
SLD-0
 62
     7
100
AcDbMText
 10
69.9213259225
 20
189.4242713783
 30
0.1
 40
3.5
 41
0.0
 71
     1
 72
     1
  1
25
  7
SLDTEXTSTYLE0
 11
6.123031769111886E-17
 21
1.0
 31
0.0
 73
     1
 44
1.0
  0
ENDBLK
  5
123
330
117
100
AcDbEntity
  8
0
100
AcDbBlockEnd
  0
BLOCK
  5
139
330
12F
100
AcDbEntity
  8
0
100
AcDbBlockBegin
  2
*D16
 70
     1
 71
     0
 10
0.0
 20
0.0
 30
0.0
  3
*D16
  1

  0
LINE
  5
13B
330
12F
100
AcDbEntity
  8
SLD-0
 62
     7
100
AcDbLine
 10
88.1110268949
 20
204.9597066015
 30
0.0
 11
88.1110268949
 21
227.3306326709
 31
0.0
  0
LINE
  5
13C
330
12F
100
AcDbEntity
  8
SLD-0
 62
     7
100
AcDbLine
 10
124.1110268949
 20
204.9597066015
 30
0.0
 11
124.1110268949
 21
227.3306326709
 31
0.0
  0
LINE
  5
13D
330
12F
100
AcDbEntity
  8
SLD-0
 62
     7
100
AcDbLine
 10
88.1110268949
 20
226.3306326709
 30
0.0
 11
124.1110268949
 21
226.3306326709
 31
0.0
  0
LINE
  5
13E
330
12F
100
AcDbEntity
  8
SLD-0
 62
     7
100
AcDbLine
 10
91.1110268949
 20
225.5267856709
 30
0.0
 11
88.1110268949
 21
226.3306326709
 31
0.0
  0
LINE
  5
13F
330
12F
100
AcDbEntity
  8
SLD-0
 62
     7
100
AcDbLine
 10
88.1110268949
 20
226.3306326709
 30
0.0
 11
91.1110268949
 21
227.1344796709
 31
0.0
  0
LINE
  5
140
330
12F
100
AcDbEntity
  8
SLD-0
 62
     7
100
AcDbLine
 10
88.1110268949
 20
226.3306326709
 30
0.0
 11
91.1110268949
 21
226.3306326709
 31
0.0
  0
LINE
  5
141
330
12F
100
AcDbEntity
  8
SLD-0
 62
     7
100
AcDbLine
 10
121.1110268949
 20
227.1344796709
 30
0.0
 11
124.1110268949
 21
226.3306326709
 31
0.0
  0
LINE
  5
142
330
12F
100
AcDbEntity
  8
SLD-0
 62
     7
100
AcDbLine
 10
124.1110268949
 20
226.3306326709
 30
0.0
 11
121.1110268949
 21
225.5267856709
 31
0.0
  0
LINE
  5
143
330
12F
100
AcDbEntity
  8
SLD-0
 62
     7
100
AcDbLine
 10
124.1110268949
 20
226.3306326709
 30
0.0
 11
121.1110268949
 21
226.3306326709
 31
0.0
  0
MTEXT
  5
144
330
12F
100
AcDbEntity
  8
SLD-0
 62
     7
100
AcDbMText
 10
104.0755916717
 20
230.8573263669
 30
0.1
 40
3.5
 41
0.0
 71
     1
 72
     1
  1
36
  7
SLDTEXTSTYLE0
 73
     1
 44
1.0
  0
ENDBLK
  5
13A
330
12F
100
AcDbEntity
  8
0
100
AcDbBlockEnd
  0
BLOCK
  5
151
330
146
100
AcDbEntity
  8
0
100
AcDbBlockBegin
  2
*D17
 70
     1
 71
     0
 10
0.0
 20
0.0
 30
0.0
  3
*D17
  1

  0
LINE
  5
153
330
146
100
AcDbEntity
  8
SLD-0
 62
     7
100
AcDbLine
 10
111.8610268949
 20
198.9597066015
 30
0.0
 11
136.7379523514
 21
198.9597066015
 31
0.0
  0
LINE
  5
154
330
146
100
AcDbEntity
  8
SLD-0
 62
     7
100
AcDbLine
 10
111.8610268949
 20
183.9597066015
 30
0.0
 11
136.7379523514
 21
183.9597066015
 31
0.0
  0
LINE
  5
155
330
146
100
AcDbEntity
  8
SLD-0
 62
     7
100
AcDbLine
 10
135.7379523514
 20
198.9597066015
 30
0.0
 11
135.7379523514
 21
183.9597066015
 31
0.0
  0
LINE
  5
156
330
146
100
AcDbEntity
  8
SLD-0
 62
     7
100
AcDbLine
 10
134.9341053514
 20
195.9597066015
 30
0.0
 11
135.7379523514
 21
198.9597066015
 31
0.0
  0
LINE
  5
157
330
146
100
AcDbEntity
  8
SLD-0
 62
     7
100
AcDbLine
 10
135.7379523514
 20
198.9597066015
 30
0.0
 11
136.5417993514
 21
195.9597066015
 31
0.0
  0
LINE
  5
158
330
146
100
AcDbEntity
  8
SLD-0
 62
     7
100
AcDbLine
 10
135.7379523514
 20
198.9597066015
 30
0.0
 11
135.7379523514
 21
195.9597066015
 31
0.0
  0
LINE
  5
159
330
146
100
AcDbEntity
  8
SLD-0
 62
     7
100
AcDbLine
 10
136.5417993514
 20
186.9597066015
 30
0.0
 11
135.7379523514
 21
183.9597066015
 31
0.0
  0
LINE
  5
15A
330
146
100
AcDbEntity
  8
SLD-0
 62
     7
100
AcDbLine
 10
135.7379523514
 20
183.9597066015
 30
0.0
 11
134.9341053514
 21
186.9597066015
 31
0.0
  0
LINE
  5
15B
330
146
100
AcDbEntity
  8
SLD-0
 62
     7
100
AcDbLine
 10
135.7379523514
 20
183.9597066015
 30
0.0
 11
135.7379523514
 21
186.9597066015
 31
0.0
  0
MTEXT
  5
15C
330
146
100
AcDbEntity
  8
SLD-0
 62
     7
100
AcDbMText
 10
131.2112586554
 20
189.4242713783
 30
0.1
 40
3.5
 41
0.0
 71
     1
 72
     1
  1
15
  7
SLDTEXTSTYLE0
 11
6.123031769111886E-17
 21
1.0
 31
0.0
 73
     1
 44
1.0
  0
ENDBLK
  5
152
330
146
100
AcDbEntity
  8
0
100
AcDbBlockEnd
  0
BLOCK
  5
168
330
15E
100
AcDbEntity
  8
0
100
AcDbBlockBegin
  2
*D18
 70
     1
 71
     0
 10
0.0
 20
0.0
 30
0.0
  3
*D18
  1

  0
LINE
  5
16A
330
15E
100
AcDbEntity
  8
SLD-0
 62
     7
100
AcDbLine
 10
120.1110268949
 20
197.2097066015
 30
0.0
 11
120.1110268949
 21
219.1469230961
 31
0.0
  0
LINE
  5
16B
330
15E
100
AcDbEntity
  8
SLD-0
 62
     7
100
AcDbLine
 10
92.1110268949
 20
197.2097066015
 30
0.0
 11
92.1110268949
 21
219.1469230961
 31
0.0
  0
LINE
  5
16C
330
15E
100
AcDbEntity
  8
SLD-0
 62
     7
100
AcDbLine
 10
120.1110268949
 20
218.1469230961
 30
0.0
 11
92.1110268949
 21
218.1469230961
 31
0.0
  0
LINE
  5
16D
330
15E
100
AcDbEntity
  8
SLD-0
 62
     7
100
AcDbLine
 10
117.1110268949
 20
218.9507700961
 30
0.0
 11
120.1110268949
 21
218.1469230961
 31
0.0
  0
LINE
  5
16E
330
15E
100
AcDbEntity
  8
SLD-0
 62
     7
100
AcDbLine
 10
120.1110268949
 20
218.1469230961
 30
0.0
 11
117.1110268949
 21
217.3430760961
 31
0.0
  0
LINE
  5
16F
330
15E
100
AcDbEntity
  8
SLD-0
 62
     7
100
AcDbLine
 10
120.1110268949
 20
218.1469230961
 30
0.0
 11
117.1110268949
 21
218.1469230961
 31
0.0
  0
LINE
  5
170
330
15E
100
AcDbEntity
  8
SLD-0
 62
     7
100
AcDbLine
 10
95.1110268949
 20
217.3430760961
 30
0.0
 11
92.1110268949
 21
218.1469230961
 31
0.0
  0
LINE
  5
171
330
15E
100
AcDbEntity
  8
SLD-0
 62
     7
100
AcDbLine
 10
92.1110268949
 20
218.1469230961
 30
0.0
 11
95.1110268949
 21
218.9507700961
 31
0.0
  0
LINE
  5
172
330
15E
100
AcDbEntity
  8
SLD-0
 62
     7
100
AcDbLine
 10
92.1110268949
 20
218.1469230961
 30
0.0
 11
95.1110268949
 21
218.1469230961
 31
0.0
  0
MTEXT
  5
173
330
15E
100
AcDbEntity
  8
SLD-0
 62
     7
100
AcDbMText
 10
104.0755916717
 20
222.673616792
 30
0.1
 40
3.5
 41
0.0
 71
     1
 72
     1
  1
28
  7
SLDTEXTSTYLE0
 73
     1
 44
1.0
  0
ENDBLK
  5
169
330
15E
100
AcDbEntity
  8
0
100
AcDbBlockEnd
  0
BLOCK
  5
180
330
175
100
AcDbEntity
  8
0
100
AcDbBlockBegin
  2
*D19
 70
     1
 71
     0
 10
0.0
 20
0.0
 30
0.0
  3
*D19
  1

  0
LINE
  5
182
330
175
100
AcDbEntity
  8
SLD-0
 62
     7
100
AcDbLine
 10
92.1110268949
 20
197.2097066015
 30
0.0
 11
92.1110268949
 21
219.1469230961
 31
0.0
  0
LINE
  5
183
330
175
100
AcDbEntity
  8
SLD-0
 62
     7
100
AcDbLine
 10
88.1110268949
 20
204.9597066015
 30
0.0
 11
88.1110268949
 21
219.1469230961
 31
0.0
  0
LINE
  5
184
330
175
100
AcDbEntity
  8
SLD-0
 62
     7
100
AcDbLine
 10
92.1110268949
 20
218.1469230961
 30
0.0
 11
97.1110268949
 21
218.1469230961
 31
0.0
  0
LINE
  5
185
330
175
100
AcDbEntity
  8
SLD-0
 62
     7
100
AcDbLine
 10
92.1110268949
 20
218.1469230961
 30
0.0
 11
88.1110268949
 21
218.1469230961
 31
0.0
  0
LINE
  5
186
330
175
100
AcDbEntity
  8
SLD-0
 62
     7
100
AcDbLine
 10
88.1110268949
 20
218.1469230961
 30
0.0
 11
83.1110268949
 21
218.1469230961
 31
0.0
  0
LINE
  5
187
330
175
100
AcDbEntity
  8
SLD-0
 62
     7
100
AcDbLine
 10
95.1110268949
 20
217.3430760961
 30
0.0
 11
92.1110268949
 21
218.1469230961
 31
0.0
  0
LINE
  5
188
330
175
100
AcDbEntity
  8
SLD-0
 62
     7
100
AcDbLine
 10
92.1110268949
 20
218.1469230961
 30
0.0
 11
95.1110268949
 21
218.9507700961
 31
0.0
  0
LINE
  5
189
330
175
100
AcDbEntity
  8
SLD-0
 62
     7
100
AcDbLine
 10
92.1110268949
 20
218.1469230961
 30
0.0
 11
95.1110268949
 21
218.1469230961
 31
0.0
  0
LINE
  5
18A
330
175
100
AcDbEntity
  8
SLD-0
 62
     7
100
AcDbLine
 10
85.1110268949
 20
218.9507700961
 30
0.0
 11
88.1110268949
 21
218.1469230961
 31
0.0
  0
LINE
  5
18B
330
175
100
AcDbEntity
  8
SLD-0
 62
     7
100
AcDbLine
 10
88.1110268949
 20
218.1469230961
 30
0.0
 11
85.1110268949
 21
217.3430760961
 31
0.0
  0
LINE
  5
18C
330
175
100
AcDbEntity
  8
SLD-0
 62
     7
100
AcDbLine
 10
88.1110268949
 20
218.1469230961
 30
0.0
 11
85.1110268949
 21
218.1469230961
 31
0.0
  0
MTEXT
  5
18D
330
175
100
AcDbEntity
  8
SLD-0
 62
     7
100
AcDbMText
 10
89.0933092833
 20
222.673616792
 30
0.1
 40
3.5
 41
0.0
 71
     1
 72
     1
  1
4
  7
SLDTEXTSTYLE0
 73
     1
 44
1.0
  0
ENDBLK
  5
181
330
175
100
AcDbEntity
  8
0
100
AcDbBlockEnd
  0
BLOCK
  5
19B
330
18F
100
AcDbEntity
  8
0
100
AcDbBlockBegin
  2
*D20
 70
     1
 71
     0
 10
0.0
 20
0.0
 30
0.0
  3
*D20
  1

  0
LINE
  5
19D
330
18F
100
AcDbEntity
  8
SLD-0
 62
     7
100
AcDbLine
 10
111.8610268949
 20
198.9597066015
 30
0.0
 11
136.7379523514
 21
198.9597066015
 31
0.0
  0
LINE
  5
19E
330
18F
100
AcDbEntity
  8
SLD-0
 62
     7
100
AcDbLine
 10
125.1110268949
 20
203.9597066015
 30
0.0
 11
136.7379523514
 21
203.9597066015
 31
0.0
  0
LINE
  5
19F
330
18F
100
AcDbEntity
  8
SLD-0
 62
     7
100
AcDbLine
 10
135.7379523514
 20
198.9597066015
 30
0.0
 11
135.7379523514
 21
193.9597066015
 31
0.0
  0
LINE
  5
1A0
330
18F
100
AcDbEntity
  8
SLD-0
 62
     7
100
AcDbLine
 10
135.7379523514
 20
198.9597066015
 30
0.0
 11
135.7379523514
 21
203.9597066015
 31
0.0
  0
LINE
  5
1A1
330
18F
100
AcDbEntity
  8
SLD-0
 62
     7
100
AcDbLine
 10
135.7379523514
 20
203.9597066015
 30
0.0
 11
135.7379523514
 21
216.1211106026
 31
0.0
  0
LINE
  5
1A2
330
18F
100
AcDbEntity
  8
SLD-0
 62
     7
100
AcDbLine
 10
134.9341053514
 20
195.9597066015
 30
0.0
 11
135.7379523514
 21
198.9597066015
 31
0.0
  0
LINE
  5
1A3
330
18F
100
AcDbEntity
  8
SLD-0
 62
     7
100
AcDbLine
 10
135.7379523514
 20
198.9597066015
 30
0.0
 11
136.5417993514
 21
195.9597066015
 31
0.0
  0
LINE
  5
1A4
330
18F
100
AcDbEntity
  8
SLD-0
 62
     7
100
AcDbLine
 10
135.7379523514
 20
198.9597066015
 30
0.0
 11
135.7379523514
 21
195.9597066015
 31
0.0
  0
LINE
  5
1A5
330
18F
100
AcDbEntity
  8
SLD-0
 62
     7
100
AcDbLine
 10
136.5417993514
 20
206.9597066015
 30
0.0
 11
135.7379523514
 21
203.9597066015
 31
0.0
  0
LINE
  5
1A6
330
18F
100
AcDbEntity
  8
SLD-0
 62
     7
100
AcDbLine
 10
135.7379523514
 20
203.9597066015
 30
0.0
 11
134.9341053514
 21
206.9597066015
 31
0.0
  0
LINE
  5
1A7
330
18F
100
AcDbEntity
  8
SLD-0
 62
     7
100
AcDbLine
 10
135.7379523514
 20
203.9597066015
 30
0.0
 11
135.7379523514
 21
206.9597066015
 31
0.0
  0
MTEXT
  5
1A8
330
18F
100
AcDbEntity
  8
SLD-0
 62
     7
100
AcDbMText
 10
131.2112586554
 20
212.4981753794
 30
0.1
 40
3.5
 41
0.0
 71
     1
 72
     1
  1
5
  7
SLDTEXTSTYLE0
 11
6.123031769111886E-17
 21
1.0
 31
0.0
 73
     1
 44
1.0
  0
ENDBLK
  5
19C
330
18F
100
AcDbEntity
  8
0
100
AcDbBlockEnd
  0
BLOCK
  5
1B1
330
1AA
100
AcDbEntity
  8
0
100
AcDbBlockBegin
  2
*D21
 70
     1
 71
     0
 10
0.0
 20
0.0
 30
0.0
  3
*D21
  1

  0
LINE
  5
1B4
330
1AA
100
AcDbEntity
  8
SLD-0
 62
     7
100
AcDbLine
 10
107.2068414008
 20
181.9945881397
 30
0.0
 11
114.3265280376
 21
169.2268910736
 31
0.0
  0
LINE
  5
1B5
330
1AA
100
AcDbEntity
  8
SLD-0
 62
     7
100
AcDbLine
 10
114.3265280376
 20
169.2268910736
 30
0.0
 11
133.1397433572
 21
169.2268910736
 31
0.0
  0
LINE
  5
1B6
330
1AA
100
AcDbEntity
  8
SLD-0
 62
     7
100
AcDbLine
 10
107.9658587064
 20
178.982933656
 30
0.0
 11
107.2068414008
 21
181.9945881397
 31
0.0
  0
LINE
  5
1B7
330
1AA
100
AcDbEntity
  8
SLD-0
 62
     7
100
AcDbLine
 10
107.2068414008
 20
181.9945881397
 30
0.0
 11
109.3699961109
 21
179.7659267254
 31
0.0
  0
LINE
  5
1B8
330
1AA
100
AcDbEntity
  8
SLD-0
 62
     7
100
AcDbLine
 10
107.2068414008
 20
181.9945881397
 30
0.0
 11
108.6679274086
 21
179.3744301907
 31
0.0
  0
MTEXT
  5
1B9
330
1AA
100
AcDbEntity
  8
SLD-0
 62
     7
100
AcDbMText
 10
117.5015280376
 20
173.7535847695
 30
0.1
 40
3.5
 41
0.0
 71
     1
 72
     1
  1
4-
  7
SLDTEXTSTYLE0
 73
     1
 44
1.0
  0
MTEXT
  5
1BA
330
1AA
100
AcDbEntity
  8
SLD-0
 62
     7
100
AcDbMText
 10
119.8251390325
 20
173.7535845367
 30
0.1
 40
3.5
 41
0.0
 71
     1
 72
     1
  1
%%c
  7
SLDTEXTSTYLE0
 73
     1
 44
1.0
  0
MTEXT
  5
1BB
330
1AA
100
AcDbEntity
  8
SLD-0
 62
     7
100
AcDbMText
 10
125.4422834055
 20
173.7535847695
 30
0.1
 40
3.5
 41
0.0
 71
     1
 72
     1
  1
4.5
  7
SLDTEXTSTYLE0
 73
     1
 44
1.0
  0
ENDBLK
  5
1B2
330
1AA
100
AcDbEntity
  8
0
100
AcDbBlockEnd
  0
BLOCK
  5
1C7
330
1BD
100
AcDbEntity
  8
0
100
AcDbBlockBegin
  2
*D22
 70
     1
 71
     0
 10
0.0
 20
0.0
 30
0.0
  3
*D22
  1

  0
LINE
  5
1C9
330
1BD
100
AcDbEntity
  8
SLD-0
 62
     7
100
AcDbLine
 10
88.1110268949
 20
177.9597066015
 30
0.0
 11
88.1110268949
 21
170.2623262967
 31
0.0
  0
LINE
  5
1CA
330
1BD
100
AcDbEntity
  8
SLD-0
 62
     7
100
AcDbLine
 10
106.1110268949
 20
193.2097066015
 30
0.0
 11
106.1110268949
 21
170.2623262967
 31
0.0
  0
LINE
  5
1CB
330
1BD
100
AcDbEntity
  8
SLD-0
 62
     7
100
AcDbLine
 10
88.1110268949
 20
171.2623262967
 30
0.0
 11
106.1110268949
 21
171.2623262967
 31
0.0
  0
LINE
  5
1CC
330
1BD
100
AcDbEntity
  8
SLD-0
 62
     7
100
AcDbLine
 10
91.1110268949
 20
170.4584792967
 30
0.0
 11
88.1110268949
 21
171.2623262967
 31
0.0
  0
LINE
  5
1CD
330
1BD
100
AcDbEntity
  8
SLD-0
 62
     7
100
AcDbLine
 10
88.1110268949
 20
171.2623262967
 30
0.0
 11
91.1110268949
 21
172.0661732967
 31
0.0
  0
LINE
  5
1CE
330
1BD
100
AcDbEntity
  8
SLD-0
 62
     7
100
AcDbLine
 10
88.1110268949
 20
171.2623262967
 30
0.0
 11
91.1110268949
 21
171.2623262967
 31
0.0
  0
LINE
  5
1CF
330
1BD
100
AcDbEntity
  8
SLD-0
 62
     7
100
AcDbLine
 10
103.1110268949
 20
172.0661732967
 30
0.0
 11
106.1110268949
 21
171.2623262967
 31
0.0
  0
LINE
  5
1D0
330
1BD
100
AcDbEntity
  8
SLD-0
 62
     7
100
AcDbLine
 10
106.1110268949
 20
171.2623262967
 30
0.0
 11
103.1110268949
 21
170.4584792967
 31
0.0
  0
LINE
  5
1D1
330
1BD
100
AcDbEntity
  8
SLD-0
 62
     7
100
AcDbLine
 10
106.1110268949
 20
171.2623262967
 30
0.0
 11
103.1110268949
 21
171.2623262967
 31
0.0
  0
MTEXT
  5
1D2
330
1BD
100
AcDbEntity
  8
SLD-0
 62
     7
100
AcDbMText
 10
95.0755916717
 20
175.7890199927
 30
0.1
 40
3.5
 41
0.0
 71
     1
 72
     1
  1
18
  7
SLDTEXTSTYLE0
 73
     1
 44
1.0
  0
ENDBLK
  5
1C8
330
1BD
100
AcDbEntity
  8
0
100
AcDbBlockEnd
  0
BLOCK
  5
1DF
330
1D4
100
AcDbEntity
  8
0
100
AcDbBlockBegin
  2
*D23
 70
     1
 71
     0
 10
0.0
 20
0.0
 30
0.0
  3
*D23
  1

  0
LINE
  5
1E2
330
1D4
100
AcDbEntity
  8
SLD-0
 62
     7
100
AcDbLine
 10
86.3610268949
 20
191.4597066015
 30
0.0
 11
79.7158131159
 21
191.4597066015
 31
0.0
  0
LINE
  5
1E3
330
1D4
100
AcDbEntity
  8
SLD-0
 62
     7
100
AcDbLine
 10
87.1110268949
 20
203.9597066015
 30
0.0
 11
79.7158131159
 21
203.9597066015
 31
0.0
  0
LINE
  5
1E4
330
1D4
100
AcDbEntity
  8
SLD-0
 62
     7
100
AcDbLine
 10
80.7158131159
 20
191.4597066015
 30
0.0
 11
80.7158131159
 21
203.9597066015
 31
0.0
  0
LINE
  5
1E5
330
1D4
100
AcDbEntity
  8
SLD-0
 62
     7
100
AcDbLine
 10
81.5196601159
 20
194.4597066015
 30
0.0
 11
80.7158131159
 21
191.4597066015
 31
0.0
  0
LINE
  5
1E6
330
1D4
100
AcDbEntity
  8
SLD-0
 62
     7
100
AcDbLine
 10
80.7158131159
 20
191.4597066015
 30
0.0
 11
79.9119661159
 21
194.4597066015
 31
0.0
  0
LINE
  5
1E7
330
1D4
100
AcDbEntity
  8
SLD-0
 62
     7
100
AcDbLine
 10
80.7158131159
 20
191.4597066015
 30
0.0
 11
80.7158131159
 21
194.4597066015
 31
0.0
  0
LINE
  5
1E8
330
1D4
100
AcDbEntity
  8
SLD-0
 62
     7
100
AcDbLine
 10
79.9119661159
 20
200.9597066015
 30
0.0
 11
80.7158131159
 21
203.9597066015
 31
0.0
  0
LINE
  5
1E9
330
1D4
100
AcDbEntity
  8
SLD-0
 62
     7
100
AcDbLine
 10
80.7158131159
 20
203.9597066015
 30
0.0
 11
81.5196601159
 21
200.9597066015
 31
0.0
  0
LINE
  5
1EA
330
1D4
100
AcDbEntity
  8
SLD-0
 62
     7
100
AcDbLine
 10
80.7158131159
 20
203.9597066015
 30
0.0
 11
80.7158131159
 21
200.9597066015
 31
0.0
  0
MTEXT
  5
1EB
330
1D4
100
AcDbEntity
  8
SLD-0
 62
     7
100
AcDbMText
 10
76.18911942
 20
193.637009014
 30
0.1
 40
3.5
 41
0.0
 71
     1
 72
     1
  1
12.5
  7
SLDTEXTSTYLE0
 11
6.123031769111886E-17
 21
1.0
 31
0.0
 73
     1
 44
1.0
  0
ENDBLK
  5
1E0
330
1D4
100
AcDbEntity
  8
0
100
AcDbBlockEnd
  0
ENDSEC
  0
SECTION
  2
ENTITIES
  0
LINE
  5
81
330
1F
100
AcDbEntity
  8
SLD-0
  6
Continuous
 62
   179
100
AcDbLine
 10
20.2604743903
 20
285.0
 30
0.0
 11
196.7604743903
 21
285.0
 31
0.0
  0
LINE
  5
82
330
1F
100
AcDbEntity
  8
SLD-0
  6
Continuous
 62
   179
100
AcDbLine
 10
20.2604743903
 20
285.0
 30
0.0
 11
20.2604743903
 21
10.0
 31
0.0
  0
LINE
  5
83
330
1F
100
AcDbEntity
  8
SLD-0
  6
Continuous
 62
   179
100
AcDbLine
 10
20.2604743903
 20
10.0
 30
0.0
 11
196.7604743903
 21
10.0
 31
0.0
  0
LINE
  5
84
330
1F
100
AcDbEntity
  8
SLD-0
  6
Continuous
 62
   179
100
AcDbLine
 10
196.7604743903
 20
285.0
 30
0.0
 11
196.7604743903
 21
10.0
 31
0.0
  0
LINE
  5
85
330
1F
100
AcDbEntity
  8
SLD-0
  6
Continuous
 62
   179
100
AcDbLine
 10
65.7604743903
 20
285.0
 30
0.0
 11
196.7604743903
 21
285.0
 31
0.0
  0
LINE
  5
86
330
1F
100
AcDbEntity
  8
SLD-0
  6
Continuous
 62
   179
100
AcDbLine
 10
196.7604743903
 20
285.0
 30
0.0
 11
196.7604743903
 21
264.25
 31
0.0
  0
LINE
  5
87
330
1F
100
AcDbEntity
  8
SLD-0
  6
Continuous
 62
   179
100
AcDbLine
 10
127.0104743903
 20
50.75
 30
0.0
 11
196.7604743903
 21
50.75
 31
0.0
  0
LINE
  5
88
330
1F
100
AcDbEntity
  8
SLD-0
  6
Continuous
 62
   179
100
AcDbLine
 10
127.0104743903
 20
50.75
 30
0.0
 11
127.0104743903
 21
10.0
 31
0.0
  0
LINE
  5
89
330
1F
100
AcDbEntity
  8
SLD-0
  6
Continuous
 62
   179
100
AcDbLine
 10
127.0104743903
 20
22.75
 30
0.0
 11
196.7604743903
 21
22.75
 31
0.0
  0
LINE
  5
8A
330
1F
100
AcDbEntity
  8
SLD-0
  6
Continuous
 62
   179
100
AcDbLine
 10
127.0104743903
 20
36.75
 30
0.0
 11
196.7604743903
 21
36.75
 31
0.0
  0
LINE
  5
8B
330
1F
100
AcDbEntity
  8
SLD-0
  6
Continuous
 62
   179
100
AcDbLine
 10
88.1110276697
 20
139.445635998
 30
0.0
 11
124.11102612
 21
139.445635998
 31
0.0
  0
LINE
  5
8C
330
1F
100
AcDbEntity
  8
SLD-0
  6
Continuous
 62
   179
100
AcDbLine
 10
124.11102612
 20
139.445635998
 30
0.0
 11
124.11102612
 21
126.4456361954
 31
0.0
  0
LINE
  5
8D
330
1F
100
AcDbEntity
  8
SLD-0
  6
Continuous
 62
   179
100
AcDbLine
 10
124.11102612
 20
126.4456361954
 30
0.0
 11
116.1110266713
 21
126.4456361954
 31
0.0
  0
LINE
  5
8E
330
1F
100
AcDbEntity
  8
SLD-0
  6
Continuous
 62
   179
100
AcDbLine
 10
116.1110266713
 20
126.4456361954
 30
0.0
 11
116.1110266713
 21
136.4456359719
 31
0.0
  0
LINE
  5
8F
330
1F
100
AcDbEntity
  8
SLD-0
  6
Continuous
 62
   179
100
AcDbLine
 10
96.1110271184
 20
126.4456361954
 30
0.0
 11
96.1110271184
 21
136.4456359719
 31
0.0
  0
LINE
  5
90
330
1F
100
AcDbEntity
  8
SLD-0
  6
Continuous
 62
   179
100
AcDbLine
 10
96.1110271184
 20
126.4456361954
 30
0.0
 11
88.1110276697
 21
126.4456361954
 31
0.0
  0
LINE
  5
91
330
1F
100
AcDbEntity
  8
SLD-0
  6
Continuous
 62
   179
100
AcDbLine
 10
88.1110276697
 20
139.445635998
 30
0.0
 11
88.1110276697
 21
126.4456361954
 31
0.0
  0
LINE
  5
92
330
1F
100
AcDbEntity
  8
SLD-0
  6
Continuous
 62
   179
100
AcDbLine
 10
96.1110271184
 20
136.4456359719
 30
0.0
 11
116.1110266713
 21
136.4456359719
 31
0.0
  0
LINE
  5
93
330
1F
100
AcDbEntity
  8
SLD-0
  6
HIDDEN
 62
     8
100
AcDbLine
 10
103.8610269917
 20
139.445635998
 30
0.0
 11
103.8610269917
 21
136.4456359719
 31
0.0
  0
LINE
  5
94
330
1F
100
AcDbEntity
  8
SLD-0
  6
HIDDEN
 62
     8
100
AcDbLine
 10
108.361026798
 20
136.4456359719
 30
0.0
 11
108.361026798
 21
139.445635998
 31
0.0
  0
LINE
  5
95
330
1F
100
AcDbEntity
  8
SLD-0
  6
HIDDEN
 62
     8
100
AcDbLine
 10
117.8610264925
 20
139.445635998
 30
0.0
 11
117.8610264925
 21
126.4456361954
 31
0.0
  0
LINE
  5
96
330
1F
100
AcDbEntity
  8
SLD-0
  6
HIDDEN
 62
     8
100
AcDbLine
 10
122.3610262988
 20
126.4456361954
 30
0.0
 11
122.3610262988
 21
139.445635998
 31
0.0
  0
LINE
  5
97
330
1F
100
AcDbEntity
  8
SLD-0
  6
HIDDEN
 62
     8
100
AcDbLine
 10
89.8610274909
 20
139.445635998
 30
0.0
 11
89.8610274909
 21
126.4456361954
 31
0.0
  0
LINE
  5
98
330
1F
100
AcDbEntity
  8
SLD-0
  6
HIDDEN
 62
     8
100
AcDbLine
 10
94.3610272972
 20
126.4456361954
 30
0.0
 11
94.3610272972
 21
139.445635998
 31
0.0
  0
LINE
  5
99
330
1F
100
AcDbEntity
  8
SLD-0
  6
CENTERX2
 62
   179
100
AcDbLine
 10
120.1110268949
 20
124.4456359719
 30
0.0
 11
120.1110268949
 21
141.4456359719
 31
0.0
  0
LINE
  5
9A
330
1F
100
AcDbEntity
  8
SLD-0
  6
CENTERX2
 62
   179
100
AcDbLine
 10
106.1110268949
 20
134.4456359719
 30
0.0
 11
106.1110268949
 21
141.4456359719
 31
0.0
  0
LINE
  5
9B
330
1F
100
AcDbEntity
  8
SLD-0
  6
CENTERX2
 62
   179
100
AcDbLine
 10
92.1110268949
 20
124.4456359719
 30
0.0
 11
92.1110268949
 21
141.4456359719
 31
0.0
  0
LINE
  5
9C
330
1F
100
AcDbEntity
  8
SLD-0
  6
Continuous
 62
   179
100
AcDbLine
 10
124.11102612
 20
203.9597067877
 30
0.0
 11
88.1110276697
 21
203.9597067877
 31
0.0
  0
LINE
  5
9D
330
1F
100
AcDbEntity
  8
SLD-0
  6
Continuous
 62
   179
100
AcDbLine
 10
88.1110276697
 20
178.9597064152
 30
0.0
 11
124.11102612
 21
178.9597064152
 31
0.0
  0
LINE
  5
9E
330
1F
100
AcDbEntity
  8
SLD-0
  6
Continuous
 62
   179
100
AcDbLine
 10
88.1110276697
 20
203.9597067877
 30
0.0
 11
88.1110276697
 21
178.9597064152
 31
0.0
  0
LINE
  5
9F
330
1F
100
AcDbEntity
  8
SLD-0
  6
Continuous
 62
   179
100
AcDbLine
 10
124.11102612
 20
178.9597064152
 30
0.0
 11
124.11102612
 21
203.9597067877
 31
0.0
  0
LINE
  5
A0
330
1F
100
AcDbEntity
  8
SLD-0
  6
HIDDEN
 62
     8
100
AcDbLine
 10
96.1110271184
 20
203.9597067877
 30
0.0
 11
96.1110271184
 21
178.9597064152
 31
0.0
  0
LINE
  5
A1
330
1F
100
AcDbEntity
  8
SLD-0
  6
HIDDEN
 62
     8
100
AcDbLine
 10
116.1110266713
 20
178.9597064152
 30
0.0
 11
116.1110266713
 21
203.9597067877
 31
0.0
  0
CIRCLE
  5
A2
330
1F
100
AcDbEntity
  8
SLD-0
  6
Continuous
 62
   179
100
AcDbCircle
 10
120.1110268949
 20
191.4597066015
 30
0.0
 40
2.25
  0
CIRCLE
  5
A3
330
1F
100
AcDbEntity
  8
SLD-0
  6
Continuous
 62
   179
100
AcDbCircle
 10
106.1110268949
 20
183.9597066015
 30
0.0
 40
2.250000000000014
  0
CIRCLE
  5
A4
330
1F
100
AcDbEntity
  8
SLD-0
  6
Continuous
 62
   179
100
AcDbCircle
 10
106.1110268949
 20
198.9597066015
 30
0.0
 40
2.250000000000014
  0
CIRCLE
  5
A5
330
1F
100
AcDbEntity
  8
SLD-0
  6
Continuous
 62
   179
100
AcDbCircle
 10
92.1110268949
 20
191.4597066015
 30
0.0
 40
2.250000000000014
  0
DIMENSION
  5
A6
330
1F
100
AcDbEntity
  8
SLD-0
 62
     7
100
AcDbDimension
  2
*D10
 10
136.200931392
 20
136.4456359719
 30
0.0
 11
136.200931392
 21
147.8055314391
 31
0.0
 70
   160
 71
     1
 42
3.0
  3
SLDDIMSTYLE0
100
AcDbAlignedDimension
 13
124.1110268949
 23
139.4456359719
 33
0.0
 14
124.1110268949
 24
136.4456359719
 34
0.0
 50
90.0
100
AcDbRotatedDimension
1001
ACAD
1000
DSTYLE
1002
{
1070
    77
1070
     3
1070
   143
1040
0.0393700787
1070
    41
1040
3.0
1070
    44
1040
1.0
1070
    42
1040
1.0
1070
   147
1040
1.524
1070
    73
1070
     0
1070
    74
1070
     0
1070
   140
1040
3.5
1070
   284
1070
    12
1070
    78
1070
    12
1002
}
  0
DIMENSION
  5
C6
330
1F
100
AcDbEntity
  8
SLD-0
 62
     7
100
AcDbDimension
  2
*D12
 10
96.1110268949
 20
110.997232112
 30
0.0
 11
106.1110268949
 21
110.997232112
 31
0.0
 70
   160
 71
     1
 42
20.0
  3
SLDDIMSTYLE1
100
AcDbAlignedDimension
 13
116.1110268949
 23
136.4456359719
 33
0.0
 14
96.1110268949
 24
136.4456359719
 34
0.0
100
AcDbRotatedDimension
1001
ACAD
1000
DSTYLE
1002
{
1070
    77
1070
     3
1070
   143
1040
0.0393700787
1070
    41
1040
3.0
1070
    44
1040
1.0
1070
    42
1040
1.0
1070
   147
1040
1.524
1070
    73
1070
     0
1070
    74
1070
     0
1070
   140
1040
3.5
1070
   284
1070
     0
1070
    78
1070
    12
1002
}
  0
DIMENSION
  5
E3
330
1F
100
AcDbEntity
  8
SLD-0
 62
     7
100
AcDbDimension
  2
*D13
 10
146.6029847791
 20
139.4456359719
 30
0.0
 11
146.6029847791
 21
132.9456359719
 31
0.0
 70
   160
 71
     1
 42
13.0
  3
SLDDIMSTYLE0
100
AcDbAlignedDimension
 13
124.1110268949
 23
126.4456359719
 33
0.0
 14
124.1110268949
 24
139.4456359719
 34
0.0
 50
90.0
100
AcDbRotatedDimension
1001
ACAD
1000
DSTYLE
1002
{
1070
    77
1070
     3
1070
   143
1040
0.0393700787
1070
    41
1040
3.0
1070
    44
1040
1.0
1070
    42
1040
1.0
1070
   147
1040
1.524
1070
    73
1070
     0
1070
    74
1070
     0
1070
   140
1040
3.5
1070
   284
1070
    12
1070
    78
1070
    12
1002
}
  0
DIMENSION
  5
FB
330
1F
100
AcDbEntity
  8
SLD-0
 62
     7
100
AcDbDimension
  2
*D14
 10
88.1110268949
 20
110.997232112
 30
0.0
 11
92.1110268949
 21
110.997232112
 31
0.0
 70
   160
 71
     1
 42
8.0
  3
SLDDIMSTYLE2
100
AcDbAlignedDimension
 13
96.1110268949
 23
126.4456359719
 33
0.0
 14
88.1110268949
 24
126.4456359719
 34
0.0
100
AcDbRotatedDimension
1001
ACAD
1000
DSTYLE
1002
{
1070
    77
1070
     3
1070
   143
1040
0.0393700787
1070
    41
1040
3.0
1070
    44
1040
1.0
1070
    42
1040
1.0
1070
   147
1040
1.524
1070
    73
1070
     0
1070
    74
1070
     0
1070
   140
1040
3.5
1070
   284
1070
    12
1070
    78
1070
    12
1002
}
  0
DIMENSION
  5
116
330
1F
100
AcDbEntity
  8
SLD-0
 62
     7
100
AcDbDimension
  2
*D15
 10
74.4480196184
 20
203.9597066015
 30
0.0
 11
74.4480196184
 21
191.4597066015
 31
0.0
 70
   160
 71
     1
 42
25.0
  3
SLDDIMSTYLE0
100
AcDbAlignedDimension
 13
88.1110268949
 23
178.9597066015
 33
0.0
 14
88.1110268949
 24
203.9597066015
 34
0.0
 50
90.0
100
AcDbRotatedDimension
1001
ACAD
1000
DSTYLE
1002
{
1070
    77
1070
     3
1070
   143
1040
0.0393700787
1070
    41
1040
3.0
1070
    44
1040
1.0
1070
    42
1040
1.0
1070
   147
1040
1.524
1070
    73
1070
     0
1070
    74
1070
     0
1070
   140
1040
3.5
1070
   284
1070
    12
1070
    78
1070
    12
1002
}
  0
DIMENSION
  5
12E
330
1F
100
AcDbEntity
  8
SLD-0
 62
     7
100
AcDbDimension
  2
*D16
 10
88.1110268949
 20
226.3306326709
 30
0.0
 11
106.1110268949
 21
226.3306326709
 31
0.0
 70
   160
 71
     1
 42
36.0
  3
SLDDIMSTYLE0
100
AcDbAlignedDimension
 13
124.1110268949
 23
203.9597066015
 33
0.0
 14
88.1110268949
 24
203.9597066015
 34
0.0
100
AcDbRotatedDimension
1001
ACAD
1000
DSTYLE
1002
{
1070
    77
1070
     3
1070
   143
1040
0.0393700787
1070
    41
1040
3.0
1070
    44
1040
1.0
1070
    42
1040
1.0
1070
   147
1040
1.524
1070
    73
1070
     0
1070
    74
1070
     0
1070
   140
1040
3.5
1070
   284
1070
    12
1070
    78
1070
    12
1002
}
  0
DIMENSION
  5
145
330
1F
100
AcDbEntity
  8
SLD-0
 62
     7
100
AcDbDimension
  2
*D17
 10
135.7379523514
 20
198.9597066015
 30
0.0
 11
135.7379523514
 21
191.4597066015
 31
0.0
 70
   160
 71
     1
 42
15.0
  3
SLDDIMSTYLE0
100
AcDbAlignedDimension
 13
106.1110268949
 23
183.9597066015
 33
0.0
 14
106.1110268949
 24
198.9597066015
 34
0.0
 50
90.0
100
AcDbRotatedDimension
1001
ACAD
1000
DSTYLE
1002
{
1070
    77
1070
     3
1070
   143
1040
0.0393700787
1070
    41
1040
3.0
1070
    44
1040
1.0
1070
    42
1040
1.0
1070
   147
1040
1.524
1070
    73
1070
     0
1070
    74
1070
     0
1070
   140
1040
3.5
1070
   284
1070
    12
1070
    78
1070
    12
1002
}
  0
DIMENSION
  5
15D
330
1F
100
AcDbEntity
  8
SLD-0
 62
     7
100
AcDbDimension
  2
*D18
 10
120.1110268949
 20
218.1469230961
 30
0.0
 11
106.1110268949
 21
218.1469230961
 31
0.0
 70
   160
 71
     1
 42
28.0
  3
SLDDIMSTYLE0
100
AcDbAlignedDimension
 13
92.1110268949
 23
191.4597066015
 33
0.0
 14
120.1110268949
 24
191.4597066015
 34
0.0
100
AcDbRotatedDimension
1001
ACAD
1000
DSTYLE
1002
{
1070
    77
1070
     3
1070
   143
1040
0.0393700787
1070
    41
1040
3.0
1070
    44
1040
1.0
1070
    42
1040
1.0
1070
   147
1040
1.524
1070
    73
1070
     0
1070
    74
1070
     0
1070
   140
1040
3.5
1070
   284
1070
    12
1070
    78
1070
    12
1002
}
  0
DIMENSION
  5
174
330
1F
100
AcDbEntity
  8
SLD-0
 62
     7
100
AcDbDimension
  2
*D19
 10
92.1110268949
 20
218.1469230961
 30
0.0
 11
90.1110268949
 21
218.1469230961
 31
0.0
 70
   160
 71
     1
 42
4.0
  3
SLDDIMSTYLE0
100
AcDbAlignedDimension
 13
88.1110268949
 23
203.9597066015
 33
0.0
 14
92.1110268949
 24
191.4597066015
 34
0.0
100
AcDbRotatedDimension
1001
ACAD
1000
DSTYLE
1002
{
1070
    77
1070
     3
1070
   143
1040
0.0393700787
1070
    41
1040
3.0
1070
    44
1040
1.0
1070
    42
1040
1.0
1070
   147
1040
1.524
1070
    73
1070
     0
1070
    74
1070
     0
1070
   140
1040
3.5
1070
   284
1070
    12
1070
    78
1070
    12
1002
}
  0
DIMENSION
  5
18E
330
1F
100
AcDbEntity
  8
SLD-0
 62
     7
100
AcDbDimension
  2
*D20
 10
135.7379523514
 20
198.9597066015
 30
0.0
 11
135.7379523514
 21
213.515892991
 31
0.0
 70
   160
 71
     1
 42
5.0
  3
SLDDIMSTYLE0
100
AcDbAlignedDimension
 13
124.1110268949
 23
203.9597066015
 33
0.0
 14
106.1110268949
 24
198.9597066015
 34
0.0
 50
90.0
100
AcDbRotatedDimension
1001
ACAD
1000
DSTYLE
1002
{
1070
    77
1070
     3
1070
   143
1040
0.0393700787
1070
    41
1040
3.0
1070
    44
1040
1.0
1070
    42
1040
1.0
1070
   147
1040
1.524
1070
    73
1070
     0
1070
    74
1070
     0
1070
   140
1040
3.5
1070
   284
1070
    12
1070
    78
1070
    12
1002
}
  0
DIMENSION
  5
1A9
330
1F
100
AcDbEntity
  8
SLD-0
 62
     7
100
AcDbDimension
  2
*D21
 10
2.2484396115
 20
3.8980142154
 30
0.0
 11
124.5268856974
 21
-5.1973528634
 31
0.0
 70
   163
  1
4-<>
 71
     1
 42
4.4999995011
  3
SLDDIMSTYLE3
100
AcDbDiametricDimension
 15
0.0
 25
0.0
 35
0.0
 40
0.0
1001
ACAD
1000
DSTYLE
1002
{
1070
    77
1070
     0
1070
   143
1040
0.0393700787
1070
    41
1040
3.0
1070
    44
1040
1.0
1070
    42
1040
1.0
1070
   147
1040
1.524
1070
    73
1070
     1
1070
    74
1070
     1
1070
   140
1040
3.5
1070
   284
1070
    12
1070
    78
1070
    12
1002
}
  0
DIMENSION
  5
1BC
330
1F
100
AcDbEntity
  8
SLD-0
 62
     7
100
AcDbDimension
  2
*D22
 10
88.1110268949
 20
171.2623262967
 30
0.0
 11
97.1110268949
 21
171.2623262967
 31
0.0
 70
   160
 71
     1
 42
18.0
  3
SLDDIMSTYLE0
100
AcDbAlignedDimension
 13
106.1110268949
 23
194.2097066015
 33
0.0
 14
88.1110268949
 24
178.9597066015
 34
0.0
100
AcDbRotatedDimension
1001
ACAD
1000
DSTYLE
1002
{
1070
    77
1070
     3
1070
   143
1040
0.0393700787
1070
    41
1040
3.0
1070
    44
1040
1.0
1070
    42
1040
1.0
1070
   147
1040
1.524
1070
    73
1070
     0
1070
    74
1070
     0
1070
   140
1040
3.5
1070
   284
1070
    12
1070
    78
1070
    12
1002
}
  0
DIMENSION
  5
1D3
330
1F
100
AcDbEntity
  8
SLD-0
 62
     7
100
AcDbDimension
  2
*D23
 10
80.7158131159
 20
191.4597066015
 30
0.0
 11
80.7158131159
 21
197.7097066015
 31
0.0
 70
   160
 71
     1
 42
12.5
  3
SLDDIMSTYLE4
100
AcDbAlignedDimension
 13
88.1110268949
 23
203.9597066015
 33
0.0
 14
87.3610268949
 24
191.4597066015
 34
0.0
 50
90.0
100
AcDbRotatedDimension
1001
ACAD
1000
DSTYLE
1002
{
1070
    77
1070
     3
1070
   143
1040
0.0393700787
1070
    41
1040
3.0
1070
    44
1040
1.0
1070
    42
1040
1.0
1070
   147
1040
1.524
1070
    73
1070
     0
1070
    74
1070
     0
1070
   140
1040
3.5
1070
   284
1070
    12
1070
    78
1070
    12
1002
}
  0
MTEXT
  5
1EC
330
1F
100
AcDbEntity
  8
SLD-0
 62
     7
100
AcDbMText
 10
169.1923262367
 20
249.8878123479
 30
0.0
 40
4.2333333333
 41
0.0
 71
     1
 72
     1
  1
(　　　)
  7
SLDTEXTSTYLE1
 73
     1
 44
1.0
  0
MTEXT
  5
1ED
330
1F
100
AcDbEntity
  8
SLD-0
 62
     7
100
AcDbMText
 10
156.974176547
 20
15.920827308
 30
0.0
 40
3.5
 41
0.0
 71
     1
 72
     1
  1
131029
  7
SLDTEXTSTYLE0
 73
     1
 44
1.0
  0
MTEXT
  5
1EE
330
1F
100
AcDbEntity
  8
SLD-0
 62
     7
100
AcDbMText
 10
147.3309364635
 20
29.7138882404
 30
0.0
 40
4.2333333333
 41
0.0
 71
     1
 72
     1
  1
N01911-207-0
  7
SLDTEXTSTYLE1
 73
     1
 44
1.0
  0
MTEXT
  5
1F0
330
1F
100
AcDbEntity
  8
SLD-0
 62
     7
100
AcDbMText
 10
145.5431400448
 20
43.2377018572
 30
0.0
 40
4.2333333333
 41
0.0
 71
     1
 72
     1
  1
20 Connecter F
  7
SLDTEXTSTYLE2
 73
     1
 44
1.0
  0
INSERT
  5
1F1
330
1F
100
AcDbEntity
  8
0
  6
Continuous
 62
     7
370
     0
100
AcDbBlockReference
  2
SURFACEFINISH40
 10
159.4443600604
 20
250.5749245738
 30
0.0
  0
INSERT
  5
1F2
330
1F
100
AcDbEntity
  8
0
  6
Continuous
 62
     7
370
     0
100
AcDbBlockReference
  2
SURFACEFINISH41
 10
175.4785306273
 20
250.9049245738
 30
0.0
  0
INSERT
  5
1F3
330
1F
100
AcDbEntity
  8
0
  6
Continuous
 62
     7
370
     0
100
AcDbBlockReference
  2
注記
 10
106.634475461
 20
56.6973071713
 30
0.0
  0
INSERT
  5
1F4
330
1F
100
AcDbEntity
  8
0
  6
Continuous
 62
     7
370
     0
100
AcDbBlockReference
  2
SURFACEFINISH42
 10
102.9620826864
 20
121.9663625731
 30
0.0
  0
INSERT
  5
1F5
330
1F
100
AcDbEntity
  8
0
  6
Continuous
 62
     7
370
     0
100
AcDbBlockReference
  2
SURFACEFINISH43
 10
112.0810771887
 20
122.0096665616
 30
0.0
  0
INSERT
  5
1F6
330
1F
100
AcDbEntity
  8
0
  6
Continuous
 62
     7
370
     0
100
AcDbBlockReference
  2
SW_CENTERMARK0
 10
0.0
 20
0.0
 30
0.0
  0
INSERT
  5
1F7
330
1F
100
AcDbEntity
  8
0
  6
Continuous
 62
     7
370
     0
100
AcDbBlockReference
  2
SW_CENTERMARK1
 10
0.0
 20
0.0
 30
0.0
  0
INSERT
  5
1F8
330
1F
100
AcDbEntity
  8
0
  6
Continuous
 62
     7
370
     0
100
AcDbBlockReference
  2
SW_CENTERMARK2
 10
0.0
 20
0.0
 30
0.0
  0
INSERT
  5
1F9
330
1F
100
AcDbEntity
  8
0
  6
Continuous
 62
     7
370
     0
100
AcDbBlockReference
  2
SW_CENTERMARK3
 10
0.0
 20
0.0
 30
0.0
  0
ENDSEC
  0
SECTION
  2
OBJECTS
  0
DICTIONARY
  5
C
330
0
100
AcDbDictionary
281
     1
  3
ACAD_GROUP
350
D
  3
ACAD_LAYOUT
350
1A
  3
ACAD_MLINESTYLE
350
17
  3
ACAD_PLOTSETTINGS
350
19
  3
ACAD_PLOTSTYLENAME
350
E
  0
DICTIONARY
  5
D
102
{ACAD_REACTORS
330
C
102
}
330
C
100
AcDbDictionary
281
     1
  0
DICTIONARY
  5
1A
102
{ACAD_REACTORS
330
C
102
}
330
C
100
AcDbDictionary
281
     1
  3
Layout1
350
1E
  3
Layout2
350
26
  3
Model
350
22
  0
DICTIONARY
  5
17
102
{ACAD_REACTORS
330
C
102
}
330
C
100
AcDbDictionary
281
     1
  3
Standard
350
18
  0
DICTIONARY
  5
19
102
{ACAD_REACTORS
330
C
102
}
330
C
100
AcDbDictionary
281
     1
  0
ACDBDICTIONARYWDFLT
  5
E
102
{ACAD_REACTORS
330
C
102
}
330
C
100
AcDbDictionary
281
     1
  3
Normal
350
F
100
AcDbDictionaryWithDefault
340
F
  0
LAYOUT
  5
1E
102
{ACAD_REACTORS
330
1A
102
}
330
1A
100
AcDbPlotSettings
  1

  2

  4

  6

 40
0.0
 41
0.0
 42
0.0
 43
0.0
 44
0.0
 45
0.0
 46
0.0
 47
0.0
 48
0.0
 49
0.0
140
0.0
141
0.0
142
1.0
143
1.0
 70
   688
 72
     0
 73
     0
 74
     5
  7

 75
    16
147
1.0
148
0.0
149
0.0
100
AcDbLayout
  1
Layout1
 70
     1
 71
     1
 10
0.0
 20
0.0
 11
0.0
 21
0.0
 12
0.0
 22
0.0
 32
0.0
 14
0.0
 24
0.0
 34
0.0
 15
0.0
 25
0.0
 35
0.0
146
0.0
 13
0.0
 23
0.0
 33
0.0
 16
1.0
 26
0.0
 36
0.0
 17
0.0
 27
1.0
 37
0.0
 76
     0
330
1B
  0
LAYOUT
  5
26
102
{ACAD_REACTORS
330
1A
102
}
330
1A
100
AcDbPlotSettings
  1

  2

  4

  6

 40
0.0
 41
0.0
 42
0.0
 43
0.0
 44
0.0
 45
0.0
 46
0.0
 47
0.0
 48
0.0
 49
0.0
140
0.0
141
0.0
142
1.0
143
1.0
 70
   688
 72
     0
 73
     0
 74
     5
  7

 75
    16
147
1.0
148
0.0
149
0.0
100
AcDbLayout
  1
Layout2
 70
     1
 71
     2
 10
0.0
 20
0.0
 11
0.0
 21
0.0
 12
0.0
 22
0.0
 32
0.0
 14
0.0
 24
0.0
 34
0.0
 15
0.0
 25
0.0
 35
0.0
146
0.0
 13
0.0
 23
0.0
 33
0.0
 16
1.0
 26
0.0
 36
0.0
 17
0.0
 27
1.0
 37
0.0
 76
     0
330
23
  0
LAYOUT
  5
22
102
{ACAD_REACTORS
330
1A
102
}
330
1A
100
AcDbPlotSettings
  1

  2

  4

  6

 40
0.0
 41
0.0
 42
0.0
 43
0.0
 44
0.0
 45
0.0
 46
0.0
 47
0.0
 48
0.0
 49
0.0
140
0.0
141
0.0
142
1.0
143
1.0
 70
  1712
 72
     0
 73
     0
 74
     0
  7

 75
     0
147
1.0
148
0.0
149
0.0
100
AcDbLayout
  1
Model
 70
     1
 71
     0
 10
0.0
 20
0.0
 11
0.0
 21
0.0
 12
0.0
 22
0.0
 32
0.0
 14
0.0
 24
0.0
 34
0.0
 15
210.0
 25
297.0
 35
0.0
146
0.0
 13
0.0
 23
0.0
 33
0.0
 16
1.0
 26
0.0
 36
0.0
 17
0.0
 27
1.0
 37
0.0
 76
     0
330
1F
  0
MLINESTYLE
  5
18
102
{ACAD_REACTORS
330
17
102
}
330
17
100
AcDbMlineStyle
  2
Standard
 70
     0
  3

 62
   256
 51
90.0
 52
90.0
 71
     2
 49
0.5
 62
   256
  6
BYLAYER
 49
-0.5
 62
   256
  6
BYLAYER
  0
ACDBPLACEHOLDER
  5
F
102
{ACAD_REACTORS
330
E
102
}
330
E
  0
ENDSEC
  0
EOF
