  0
SECTION
  2
HEADER
  9
$ACADVER
  1
AC1015
  9
$ACADMAINTVER
 70
     6
  9
$DWGCODEPAGE
  3
DOS932
  9
$INSBASE
 10
0.0
 20
0.0
 30
0.0
  9
$EXTMIN
 10
0.0
 20
0.0
 30
0.0
  9
$EXTMAX
 10
210.0
 20
297.0
 30
0.0
  9
$LIMMIN
 10
0.0
 20
0.0
  9
$LIMMAX
 10
0.0
 20
0.0
  9
$ORTHOMODE
 70
     0
  9
$REGENMODE
 70
     1
  9
$FILLMODE
 70
     1
  9
$QTEXTMODE
 70
     0
  9
$MIRRTEXT
 70
     1
  9
$LTSCALE
 40
1.0
  9
$ATTMODE
 70
     1
  9
$TEXTSIZE
 40
3.5
  9
$TRACEWID
 40
1.0
  9
$TEXTSTYLE
  7
Standard
  9
$CLAYER
  8
0
  9
$CELTYPE
  6
ByLayer
  9
$CECOLOR
 62
   256
  9
$CELTSCALE
 40
1.0
  9
$DISPSILH
 70
     0
  9
$DIMSCALE
 40
1.0
  9
$DIMASZ
 40
3.0
  9
$DIMEXO
 40
1.0
  9
$DIMDLI
 40
3.75
  9
$DIMRND
 40
0.0
  9
$DIMDLE
 40
0.0
  9
$DIMEXE
 40
1.0
  9
$DIMTP
 40
0.0
  9
$DIMTM
 40
0.0
  9
$DIMTXT
 40
3.5
  9
$DIMCEN
 40
2.5
  9
$DIMTSZ
 40
0.0
  9
$DIMTOL
 70
     0
  9
$DIMLIM
 70
     0
  9
$DIMTIH
 70
     1
  9
$DIMTOH
 70
     1
  9
$DIMSE1
 70
     0
  9
$DIMSE2
 70
     0
  9
$DIMTAD
 70
     1
  9
$DIMZIN
 70
     1
  9
$DIMBLK
  1

  9
$DIMASO
 70
     1
  9
$DIMSHO
 70
     1
  9
$DIMPOST
  1

  9
$DIMAPOST
  1

  9
$DIMALT
 70
     0
  9
$DIMALTD
 70
     3
  9
$DIMALTF
 40
0.0393700787
  9
$DIMLFAC
 40
1.0
  9
$DIMTOFL
 70
     1
  9
$DIMTVP
 40
0.0
  9
$DIMTIX
 70
     0
  9
$DIMSOXD
 70
     0
  9
$DIMSAH
 70
     0
  9
$DIMBLK1
  1

  9
$DIMBLK2
  1

  9
$DIMSTYLE
  2
ISO-25
  9
$DIMCLRD
 70
     0
  9
$DIMCLRE
 70
     0
  9
$DIMCLRT
 70
     0
  9
$DIMTFAC
 40
1.0
  9
$DIMGAP
 40
1.524
  9
$DIMJUST
 70
     0
  9
$DIMSD1
 70
     0
  9
$DIMSD2
 70
     0
  9
$DIMTOLJ
 70
     0
  9
$DIMTZIN
 70
     1
  9
$DIMALTZ
 70
     0
  9
$DIMALTTZ
 70
     0
  9
$DIMUPT
 70
     0
  9
$DIMDEC
 70
     2
  9
$DIMTDEC
 70
     2
  9
$DIMALTU
 70
     2
  9
$DIMALTTD
 70
     3
  9
$DIMTXSTY
  7
Standard
  9
$DIMAUNIT
 70
     0
  9
$DIMADEC
 70
     0
  9
$DIMALTRND
 40
0.0
  9
$DIMAZIN
 70
     0
  9
$DIMDSEP
 70
    44
  9
$DIMATFIT
 70
     3
  9
$DIMFRAC
 70
     0
  9
$DIMLDRBLK
  1

  9
$DIMLUNIT
 70
     2
  9
$DIMLWD
 70
    -2
  9
$DIMLWE
 70
    -2
  9
$DIMTMOVE
 70
     0
  9
$LUNITS
 70
     2
  9
$LUPREC
 70
     1
  9
$SKETCHINC
 40
1.0
  9
$FILLETRAD
 40
10.0
  9
$AUNITS
 70
     0
  9
$AUPREC
 70
     0
  9
$MENU
  1
.
  9
$ELEVATION
 40
0.0
  9
$PELEVATION
 40
0.0
  9
$THICKNESS
 40
0.0
  9
$LIMCHECK
 70
     0
  9
$CHAMFERA
 40
10.0
  9
$CHAMFERB
 40
10.0
  9
$CHAMFERC
 40
20.0
  9
$CHAMFERD
 40
0.0
  9
$SKPOLY
 70
     0
  9
$TDCREATE
 40
2454309.382997315
  9
$TDUCREATE
 40
2454309.007997315
  9
$TDUPDATE
 40
2454309.382997327
  9
$TDUUPDATE
 40
2454309.007997327
  9
$TDINDWG
 40
0.0000000116
  9
$TDUSRTIMER
 40
0.0000000116
  9
$USRTIMER
 70
     1
  9
$ANGBASE
 50
0.0
  9
$ANGDIR
 70
     0
  9
$PDMODE
 70
     0
  9
$PDSIZE
 40
-1.0
  9
$PLINEWID
 40
0.0
  9
$SPLFRAME
 70
     0
  9
$SPLINETYPE
 70
     6
  9
$SPLINESEGS
 70
     8
  9
$HANDSEED
  5
190
  9
$SURFTAB1
 70
     6
  9
$SURFTAB2
 70
     6
  9
$SURFTYPE
 70
     6
  9
$SURFU
 70
     6
  9
$SURFV
 70
     6
  9
$UCSBASE
  2

  9
$UCSNAME
  2

  9
$UCSORG
 10
0.0
 20
0.0
 30
0.0
  9
$UCSXDIR
 10
1.0
 20
0.0
 30
0.0
  9
$UCSYDIR
 10
0.0
 20
1.0
 30
0.0
  9
$UCSORTHOREF
  2

  9
$UCSORTHOVIEW
 70
     0
  9
$UCSORGTOP
 10
0.0
 20
0.0
 30
0.0
  9
$UCSORGBOTTOM
 10
0.0
 20
0.0
 30
0.0
  9
$UCSORGLEFT
 10
0.0
 20
0.0
 30
0.0
  9
$UCSORGRIGHT
 10
0.0
 20
0.0
 30
0.0
  9
$UCSORGFRONT
 10
0.0
 20
0.0
 30
0.0
  9
$UCSORGBACK
 10
0.0
 20
0.0
 30
0.0
  9
$PUCSBASE
  2

  9
$PUCSNAME
  2

  9
$PUCSORG
 10
0.0
 20
0.0
 30
0.0
  9
$PUCSXDIR
 10
1.0
 20
0.0
 30
0.0
  9
$PUCSYDIR
 10
0.0
 20
1.0
 30
0.0
  9
$PUCSORTHOREF
  2

  9
$PUCSORTHOVIEW
 70
     0
  9
$PUCSORGTOP
 10
0.0
 20
0.0
 30
0.0
  9
$PUCSORGBOTTOM
 10
0.0
 20
0.0
 30
0.0
  9
$PUCSORGLEFT
 10
0.0
 20
0.0
 30
0.0
  9
$PUCSORGRIGHT
 10
0.0
 20
0.0
 30
0.0
  9
$PUCSORGFRONT
 10
0.0
 20
0.0
 30
0.0
  9
$PUCSORGBACK
 10
0.0
 20
0.0
 30
0.0
  9
$USERI1
 70
     0
  9
$USERI2
 70
     0
  9
$USERI3
 70
     0
  9
$USERI4
 70
     0
  9
$USERI5
 70
     0
  9
$USERR1
 40
0.0
  9
$USERR2
 40
0.0
  9
$USERR3
 40
0.0
  9
$USERR4
 40
0.0
  9
$USERR5
 40
0.0
  9
$WORLDVIEW
 70
     1
  9
$SHADEDGE
 70
     3
  9
$SHADEDIF
 70
    70
  9
$TILEMODE
 70
     1
  9
$MAXACTVP
 70
    64
  9
$PINSBASE
 10
0.0
 20
0.0
 30
0.0
  9
$PLIMCHECK
 70
     0
  9
$PEXTMIN
 10
1.0000000000E+20
 20
1.0000000000E+20
 30
1.0000000000E+20
  9
$PEXTMAX
 10
-1.0000000000E+20
 20
-1.0000000000E+20
 30
-1.0000000000E+20
  9
$PLIMMIN
 10
0.0
 20
0.0
  9
$PLIMMAX
 10
420.0
 20
297.0
  9
$UNITMODE
 70
     0
  9
$VISRETAIN
 70
     1
  9
$PLINEGEN
 70
     0
  9
$PSLTSCALE
 70
     1
  9
$TREEDEPTH
 70
  3020
  9
$CMLSTYLE
  2
Standard
  9
$CMLJUST
 70
     0
  9
$CMLSCALE
 40
20.0
  9
$PROXYGRAPHICS
 70
     1
  9
$MEASUREMENT
 70
     1
  9
$CELWEIGHT
370
    -1
  9
$ENDCAPS
280
     0
  9
$JOINSTYLE
280
     0
  9
$LWDISPLAY
290
     1
  9
$INSUNITS
 70
     4
  9
$HYPERLINKBASE
  1

  9
$STYLESHEET
  1

  9
$XEDIT
290
     1
  9
$CEPSNTYPE
380
     0
  9
$PSTYLEMODE
290
     1
  9
$FINGERPRINTGUID
  2
{9CD31035-B34B-4B5F-B8D8-58BE9C209228}
  9
$VERSIONGUID
  2
{FAEB1C32-E019-11D5-929B-00C0DF256EC4}
  9
$EXTNAMES
290
     1
  9
$PSVPSCALE
 40
0.0
  9
$OLESTARTUP
290
     0
  0
ENDSEC
  0
SECTION
  2
CLASSES
  0
CLASS
  1
ACDBDICTIONARYWDFLT
  2
AcDbDictionaryWithDefault
  3
ObjectDBX Classes
 90
        0
280
     0
281
     0
  0
CLASS
  1
ACDBPLACEHOLDER
  2
AcDbPlaceHolder
  3
ObjectDBX Classes
 90
        0
280
     0
281
     0
  0
CLASS
  1
LAYOUT
  2
AcDbLayout
  3
ObjectDBX Classes
 90
        0
280
     0
281
     0
  0
ENDSEC
  0
SECTION
  2
TABLES
  0
TABLE
  2
VPORT
  5
8
330
0
100
AcDbSymbolTable
 70
     1
  0
VPORT
  5
29
330
8
100
AcDbSymbolTableRecord
100
AcDbViewportTableRecord
  2
*Active
 70
     0
 10
0.0
 20
0.0
 11
1.0
 21
1.0
 12
105.0
 22
148.5
 13
0.0
 23
0.0
 14
10.0
 24
10.0
 15
10.0
 25
10.0
 16
0.0
 26
0.0
 36
1.0
 17
0.0
 27
0.0
 37
0.0
 40
297.0
 41
1.9729729729
 42
50.0
 43
0.0
 44
0.0
 50
0.0
 51
0.0
 71
     0
 72
  2000
 73
     1
 74
     3
 75
     0
 76
     0
 77
     0
 78
     0
281
     0
 65
     1
110
0.0
120
0.0
130
0.0
111
1.0
121
0.0
131
0.0
112
0.0
122
1.0
132
0.0
 79
     0
146
0.0
  0
ENDTAB
  0
TABLE
  2
LTYPE
  5
5
330
0
100
AcDbSymbolTable
 70
     6
  0
LTYPE
  5
14
330
5
100
AcDbSymbolTableRecord
100
AcDbLinetypeTableRecord
  2
ByBlock
 70
     0
  3

 72
    65
 73
     0
 40
0.0
  0
LTYPE
  5
15
330
5
100
AcDbSymbolTableRecord
100
AcDbLinetypeTableRecord
  2
ByLayer
 70
     0
  3

 72
    65
 73
     0
 40
0.0
  0
LTYPE
  5
16
330
5
100
AcDbSymbolTableRecord
100
AcDbLinetypeTableRecord
  2
Continuous
 70
     0
  3
Solid line
 72
    65
 73
     0
 40
0.0
  0
LTYPE
  5
2A
330
5
100
AcDbSymbolTableRecord
100
AcDbLinetypeTableRecord
  2
HIDDEN
 70
     0
  3
Hidden __ __ __ __ __ __ __ __ __ __ __ __ __ __
 72
    65
 73
     2
 40
1.905
 49
1.27
 74
     0
 49
-0.635
 74
     0
  0
LTYPE
  5
2B
330
5
100
AcDbSymbolTableRecord
100
AcDbLinetypeTableRecord
  2
PHANTOM
 70
     0
  3
Phantom ______  __  __  ______  __  __  ______
 72
    65
 73
     6
 40
12.7
 49
6.35
 74
     0
 49
-1.27
 74
     0
 49
1.27
 74
     0
 49
-1.27
 74
     0
 49
1.27
 74
     0
 49
-1.27
 74
     0
  0
LTYPE
  5
2C
330
5
100
AcDbSymbolTableRecord
100
AcDbLinetypeTableRecord
  2
CENTER
 70
     0
  3
Center ____ _ ____ _ ____ _ ____ _ ____ _ ____
 72
    65
 73
     4
 40
10.16
 49
6.35
 74
     0
 49
-1.27
 74
     0
 49
1.27
 74
     0
 49
-1.27
 74
     0
  0
LTYPE
  5
2D
330
5
100
AcDbSymbolTableRecord
100
AcDbLinetypeTableRecord
  2
CENTERX2
 70
     0
  3
Center (2x) ________  __  ________  __  _____
 72
    65
 73
     4
 40
20.32
 49
12.7
 74
     0
 49
-2.54
 74
     0
 49
2.54
 74
     0
 49
-2.54
 74
     0
  0
LTYPE
  5
2E
330
5
100
AcDbSymbolTableRecord
100
AcDbLinetypeTableRecord
  2
DOT2
 70
     0
  3
Dot (.5x) ........................................
 72
    65
 73
     2
 40
0.635
 49
0.0
 74
     0
 49
-0.635
 74
     0
  0
ENDTAB
  0
TABLE
  2
LAYER
  5
2
330
0
100
AcDbSymbolTable
 70
     4
  0
LAYER
  5
10
330
2
100
AcDbSymbolTableRecord
100
AcDbLayerTableRecord
  2
0
 70
     0
 62
     7
  6
Continuous
370
    -3
390
F
  0
LAYER
  5
2F
330
2
100
AcDbSymbolTableRecord
100
AcDbLayerTableRecord
  2
SLD-0
 70
     0
 62
   179
  6
Continuous
370
     0
390
F
  0
LAYER
  5
30
330
2
100
AcDbSymbolTableRecord
100
AcDbLayerTableRecord
  2
SLD-DEFPOINTS
 70
     0
 62
   179
  6
Continuous
370
     0
390
F
  0
LAYER
  5
88
330
2
100
AcDbSymbolTableRecord
100
AcDbLayerTableRecord
  2
Defpoints
 70
     0
 62
     7
  6
Continuous
290
     0
370
    -3
390
F
  0
ENDTAB
  0
TABLE
  2
STYLE
  5
3
330
0
100
AcDbSymbolTable
 70
     4
  0
STYLE
  5
11
330
3
100
AcDbSymbolTableRecord
100
AcDbTextStyleTableRecord
  2
Standard
 70
     0
 40
0.0
 41
1.0
 50
0.0
 71
     0
 42
2.5
  3
txt
  4
bigfont
  0
STYLE
  5
34
330
3
100
AcDbSymbolTableRecord
100
AcDbTextStyleTableRecord
  2
SLDTEXTSTYLE0
 70
     0
 40
0.0
 41
0.7
 50
0.0
 71
     0
 42
0.2
  3
TXT
  4
bigfont
  0
STYLE
  5
3C
330
3
100
AcDbSymbolTableRecord
100
AcDbTextStyleTableRecord
  2
SLDTEXTSTYLE1
 70
     0
 40
0.0
 41
0.5526315789
 50
0.0
 71
     0
 42
0.2
  3
TXT
  4
bigfont
  0
STYLE
  5
187
330
3
100
AcDbSymbolTableRecord
100
AcDbTextStyleTableRecord
  2
SLDTEXTSTYLE2
 70
     0
 40
0.0
 41
0.4850102564
 50
0.0
 71
     0
 42
0.2
  3
TXT
  4
bigfont
  0
ENDTAB
  0
TABLE
  2
VIEW
  5
6
330
0
100
AcDbSymbolTable
 70
     0
  0
ENDTAB
  0
TABLE
  2
UCS
  5
7
330
0
100
AcDbSymbolTable
 70
     0
  0
ENDTAB
  0
TABLE
  2
APPID
  5
9
330
0
100
AcDbSymbolTable
 70
     1
  0
APPID
  5
12
330
9
100
AcDbSymbolTableRecord
100
AcDbRegAppTableRecord
  2
ACAD
 70
     0
  0
ENDTAB
  0
TABLE
  2
DIMSTYLE
  5
A
330
0
100
AcDbSymbolTable
 70
     5
100
AcDbDimStyleTable
  0
DIMSTYLE
105
27
330
A
100
AcDbSymbolTableRecord
100
AcDbDimStyleTableRecord
  2
ISO-25
 70
     0
 41
2.5
 42
0.625
 43
3.75
 44
1.25
 73
     0
 74
     0
 77
     1
 78
     8
140
2.5
141
2.5
143
0.0393700787
147
0.625
171
     3
172
     1
271
     2
272
     2
274
     3
278
    44
283
     0
284
     8
340
11
  0
DIMSTYLE
105
95
102
{ACAD_REACTORS
330
87
330
B6
330
CE
330
E6
330
139
330
168
102
}
330
A
100
AcDbSymbolTableRecord
100
AcDbDimStyleTableRecord
  2
SLDDIMSTYLE0
 70
     0
 41
3.0
 44
0.0
 73
     0
 74
     0
 77
     3
 78
    12
140
3.5
147
0.875
173
     1
271
     0
272
     3
284
    12
340
3C
341
96
343
96
344
96
  0
DIMSTYLE
105
AD
102
{ACAD_REACTORS
330
A3
102
}
330
A
100
AcDbSymbolTableRecord
100
AcDbDimStyleTableRecord
  2
SLDDIMSTYLE1
 70
     0
 41
3.0
 44
0.0
 78
    12
140
3.5
147
0.875
172
     1
173
     1
271
     1
272
     3
284
    12
340
3C
341
96
343
96
344
96
  0
DIMSTYLE
105
10E
102
{ACAD_REACTORS
330
FF
330
150
102
}
330
A
100
AcDbSymbolTableRecord
100
AcDbDimStyleTableRecord
  2
SLDDIMSTYLE2
 70
     0
 41
3.0
 44
0.0
 73
     0
 74
     0
 77
     3
 78
    12
140
3.5
147
0.875
173
     1
271
     1
272
     3
284
    12
340
3C
341
96
343
96
344
96
  0
DIMSTYLE
105
129
102
{ACAD_REACTORS
330
11B
102
}
330
A
100
AcDbSymbolTableRecord
100
AcDbDimStyleTableRecord
  2
SLDDIMSTYLE3
 70
     0
 41
3.0
 44
0.0
 47
0.1
 71
     1
 73
     0
 74
     0
 77
     3
 78
    12
140
3.5
147
0.875
173
     1
271
     0
272
     1
340
3C
341
96
343
96
344
96
  0
ENDTAB
  0
TABLE
  2
BLOCK_RECORD
  5
1
330
0
100
AcDbSymbolTable
 70
    19
  0
BLOCK_RECORD
  5
1F
330
1
100
AcDbSymbolTableRecord
100
AcDbBlockTableRecord
  2
*Model_Space
340
22
  0
BLOCK_RECORD
  5
1B
330
1
100
AcDbSymbolTableRecord
100
AcDbBlockTableRecord
  2
*Paper_Space
340
1E
  0
BLOCK_RECORD
  5
23
330
1
100
AcDbSymbolTableRecord
100
AcDbBlockTableRecord
  2
*Paper_Space0
340
26
  0
BLOCK_RECORD
  5
31
330
1
100
AcDbSymbolTableRecord
100
AcDbBlockTableRecord
  2
注記
340
0
102
{BLKREFS
331
18B
102
}
  0
BLOCK_RECORD
  5
37
330
1
100
AcDbSymbolTableRecord
100
AcDbBlockTableRecord
  2
SURFACEFINISH40
340
0
102
{BLKREFS
331
189
102
}
  0
BLOCK_RECORD
  5
3E
330
1
100
AcDbSymbolTableRecord
100
AcDbBlockTableRecord
  2
SURFACEFINISH41
340
0
102
{BLKREFS
331
18A
102
}
  0
BLOCK_RECORD
  5
45
330
1
100
AcDbSymbolTableRecord
100
AcDbBlockTableRecord
  2
SW_CENTERMARK0
340
0
102
{BLKREFS
331
18C
102
}
  0
BLOCK_RECORD
  5
50
330
1
100
AcDbSymbolTableRecord
100
AcDbBlockTableRecord
  2
SW_CENTERMARK1
340
0
102
{BLKREFS
331
18D
102
}
  0
BLOCK_RECORD
  5
5B
330
1
100
AcDbSymbolTableRecord
100
AcDbBlockTableRecord
  2
SURFACEFINISH42
340
0
102
{BLKREFS
331
18E
102
}
  0
BLOCK_RECORD
  5
63
330
1
100
AcDbSymbolTableRecord
100
AcDbBlockTableRecord
  2
SURFACEFINISH43
340
0
102
{BLKREFS
331
18F
102
}
  0
BLOCK_RECORD
  5
89
330
1
100
AcDbSymbolTableRecord
100
AcDbBlockTableRecord
  2
*D8
340
0
  0
BLOCK_RECORD
  5
96
330
1
100
AcDbSymbolTableRecord
100
AcDbBlockTableRecord
  2
_None
340
0
102
{BLKREFS
331
8E
331
8D
331
A8
331
BC
331
BB
331
D4
331
D3
331
EC
331
EB
331
106
331
105
331
121
331
120
331
13F
331
13E
331
156
331
155
331
16F
331
16E
102
}
  0
BLOCK_RECORD
  5
A4
330
1
100
AcDbSymbolTableRecord
100
AcDbBlockTableRecord
  2
*D10
340
0
  0
BLOCK_RECORD
  5
B7
330
1
100
AcDbSymbolTableRecord
100
AcDbBlockTableRecord
  2
*D11
340
0
  0
BLOCK_RECORD
  5
CF
330
1
100
AcDbSymbolTableRecord
100
AcDbBlockTableRecord
  2
*D12
340
0
  0
BLOCK_RECORD
  5
E7
330
1
100
AcDbSymbolTableRecord
100
AcDbBlockTableRecord
  2
*D13
340
0
  0
BLOCK_RECORD
  5
100
330
1
100
AcDbSymbolTableRecord
100
AcDbBlockTableRecord
  2
*D14
340
0
  0
BLOCK_RECORD
  5
11C
330
1
100
AcDbSymbolTableRecord
100
AcDbBlockTableRecord
  2
*D15
340
0
  0
BLOCK_RECORD
  5
13A
330
1
100
AcDbSymbolTableRecord
100
AcDbBlockTableRecord
  2
*D16
340
0
  0
BLOCK_RECORD
  5
151
330
1
100
AcDbSymbolTableRecord
100
AcDbBlockTableRecord
  2
*D17
340
0
  0
BLOCK_RECORD
  5
169
330
1
100
AcDbSymbolTableRecord
100
AcDbBlockTableRecord
  2
*D18
340
0
  0
ENDTAB
  0
ENDSEC
  0
SECTION
  2
BLOCKS
  0
BLOCK
  5
20
330
1F
100
AcDbEntity
  8
0
100
AcDbBlockBegin
  2
*Model_Space
 70
     0
 71
     0
 10
0.0
 20
0.0
 30
0.0
  3
*Model_Space
  1

  0
ENDBLK
  5
21
330
1F
100
AcDbEntity
  8
0
100
AcDbBlockEnd
  0
BLOCK
  5
1C
330
1B
100
AcDbEntity
 67
     1
  8
0
100
AcDbBlockBegin
  2
*Paper_Space
 70
     0
 71
     0
 10
0.0
 20
0.0
 30
0.0
  3
*Paper_Space
  1

  0
ENDBLK
  5
1D
330
1B
100
AcDbEntity
 67
     1
  8
0
100
AcDbBlockEnd
  0
BLOCK
  5
24
330
23
100
AcDbEntity
  8
0
100
AcDbBlockBegin
  2
*Paper_Space0
 70
     0
 71
     0
 10
0.0
 20
0.0
 30
0.0
  3
*Paper_Space0
  1

  0
ENDBLK
  5
25
330
23
100
AcDbEntity
  8
0
100
AcDbBlockEnd
  0
BLOCK
  5
32
330
31
100
AcDbEntity
  8
0
100
AcDbBlockBegin
  2
注記
 70
     0
 71
     0
 10
0.0
 20
0.0
 30
0.0
  3
注記
  1

  0
MTEXT
  5
35
330
31
100
AcDbEntity
  8
0
  6
Continuous
 62
     7
370
     0
100
AcDbMText
 10
0.2636785918
 20
9.0739778448
 30
0.0
 40
3.5
 41
0.0
 71
     1
 72
     1
  1
１．特記ナキ角部ハ、バリ　カエリノ無キコト。
  7
SLDTEXTSTYLE0
 73
     1
 44
1.0
  0
MTEXT
  5
36
330
31
100
AcDbEntity
  8
0
  6
Continuous
 62
     7
370
     0
100
AcDbMText
 10
0.2636785918
 20
3.5759549983
 30
0.0
 40
3.5
 41
0.0
 71
     1
 72
     1
  1
２．特記ナキ隅部ハ、Ｒ０．４ＭＡＸトスル。
  7
SLDTEXTSTYLE0
 73
     1
 44
1.0
  0
ENDBLK
  5
33
330
31
100
AcDbEntity
  8
0
100
AcDbBlockEnd
  0
BLOCK
  5
38
330
37
100
AcDbEntity
  8
0
100
AcDbBlockBegin
  2
SURFACEFINISH40
 70
     0
 71
     0
 10
0.0
 20
0.0
 30
0.0
  3
SURFACEFINISH40
  1

  0
LINE
  5
3A
330
37
100
AcDbEntity
  8
SLD-0
  6
Continuous
 62
   179
100
AcDbLine
 10
0.6656399396
 20
-6.0449245738
 30
0.0
 11
-2.9003789868
 21
0.0000001164
 31
0.0
  0
LINE
  5
3B
330
37
100
AcDbEntity
  8
SLD-0
  6
Continuous
 62
   179
100
AcDbLine
 10
0.6656399396
 20
-6.0449245738
 30
0.0
 11
7.7976777926
 21
6.0449248066
 31
0.0
  0
MTEXT
  5
3D
330
37
100
AcDbEntity
  8
SLD-0
100
AcDbMText
 10
0.0
 20
4.9341236929
 30
0.0
 40
3.175
 41
0.0
 71
     1
 72
     1
  1
25
  7
SLDTEXTSTYLE1
 73
     1
 44
1.0
  0
ENDBLK
  5
39
330
37
100
AcDbEntity
  8
0
100
AcDbBlockEnd
  0
BLOCK
  5
3F
330
3E
100
AcDbEntity
  8
0
100
AcDbBlockBegin
  2
SURFACEFINISH41
 70
     0
 71
     0
 10
0.0
 20
0.0
 30
0.0
  3
SURFACEFINISH41
  1

  0
LINE
  5
41
330
3E
100
AcDbEntity
  8
SLD-0
  6
Continuous
 62
   179
100
AcDbLine
 10
2.7814693727
 20
-6.0449245738
 30
0.0
 11
-0.7845495538
 21
0.0000001164
 31
0.0
  0
LINE
  5
42
330
3E
100
AcDbEntity
  8
SLD-0
  6
Continuous
 62
   179
100
AcDbLine
 10
6.3474882992
 20
0.0000001164
 30
0.0
 11
-0.7845495538
 21
0.0000001164
 31
0.0
  0
LINE
  5
43
330
3E
100
AcDbEntity
  8
SLD-0
  6
Continuous
 62
   179
100
AcDbLine
 10
2.7814693727
 20
-6.0449245738
 30
0.0
 11
9.9135072256
 21
6.0449248066
 31
0.0
  0
MTEXT
  5
44
330
3E
100
AcDbEntity
  8
SLD-0
100
AcDbMText
 10
0.0
 20
4.9341236929
 30
0.0
 40
3.175
 41
0.0
 71
     1
 72
     1
  1
6.3
  7
SLDTEXTSTYLE1
 73
     1
 44
1.0
  0
ENDBLK
  5
40
330
3E
100
AcDbEntity
  8
0
100
AcDbBlockEnd
  0
BLOCK
  5
46
330
45
100
AcDbEntity
  8
0
100
AcDbBlockBegin
  2
SW_CENTERMARK0
 70
     0
 71
     0
 10
0.0
 20
0.0
 30
0.0
  3
SW_CENTERMARK0
  1

  0
LINE
  5
48
330
45
100
AcDbEntity
  8
SLD-0
  6
Continuous
 62
   179
100
AcDbLine
 10
76.4170860077
 20
152.7497175866
 30
0.0
 11
76.4170860077
 21
155.2497175866
 31
0.0
  0
LINE
  5
49
330
45
100
AcDbEntity
  8
SLD-0
  6
Continuous
 62
   179
100
AcDbLine
 10
76.4170860077
 20
152.7497175866
 30
0.0
 11
73.9170860077
 21
152.7497175866
 31
0.0
  0
LINE
  5
4A
330
45
100
AcDbEntity
  8
SLD-0
  6
Continuous
 62
   179
100
AcDbLine
 10
76.4170860077
 20
152.7497175866
 30
0.0
 11
76.4170860077
 21
150.2497175866
 31
0.0
  0
LINE
  5
4B
330
45
100
AcDbEntity
  8
SLD-0
  6
Continuous
 62
   179
100
AcDbLine
 10
76.4170860077
 20
152.7497175866
 30
0.0
 11
78.9170860077
 21
152.7497175866
 31
0.0
  0
LINE
  5
4C
330
45
100
AcDbEntity
  8
SLD-0
  6
Continuous
 62
   179
100
AcDbLine
 10
76.4170860077
 20
157.7497175866
 30
0.0
 11
76.4170860077
 21
158.4997175866
 31
0.0
  0
LINE
  5
4D
330
45
100
AcDbEntity
  8
SLD-0
  6
Continuous
 62
   179
100
AcDbLine
 10
71.4170860077
 20
152.7497175866
 30
0.0
 11
70.6670860077
 21
152.7497175866
 31
0.0
  0
LINE
  5
4E
330
45
100
AcDbEntity
  8
SLD-0
  6
Continuous
 62
   179
100
AcDbLine
 10
76.4170860077
 20
147.7497175866
 30
0.0
 11
76.4170860077
 21
146.9997175866
 31
0.0
  0
LINE
  5
4F
330
45
100
AcDbEntity
  8
SLD-0
  6
Continuous
 62
   179
100
AcDbLine
 10
81.4170860077
 20
152.7497175866
 30
0.0
 11
82.1670860077
 21
152.7497175866
 31
0.0
  0
ENDBLK
  5
47
330
45
100
AcDbEntity
  8
0
100
AcDbBlockEnd
  0
BLOCK
  5
51
330
50
100
AcDbEntity
  8
0
100
AcDbBlockBegin
  2
SW_CENTERMARK1
 70
     0
 71
     0
 10
0.0
 20
0.0
 30
0.0
  3
SW_CENTERMARK1
  1

  0
LINE
  5
53
330
50
100
AcDbEntity
  8
SLD-0
  6
Continuous
 62
   179
100
AcDbLine
 10
76.4170860077
 20
182.7497175866
 30
0.0
 11
76.4170860077
 21
185.2497175866
 31
0.0
  0
LINE
  5
54
330
50
100
AcDbEntity
  8
SLD-0
  6
Continuous
 62
   179
100
AcDbLine
 10
76.4170860077
 20
182.7497175866
 30
0.0
 11
73.9170860077
 21
182.7497175866
 31
0.0
  0
LINE
  5
55
330
50
100
AcDbEntity
  8
SLD-0
  6
Continuous
 62
   179
100
AcDbLine
 10
76.4170860077
 20
182.7497175866
 30
0.0
 11
76.4170860077
 21
180.2497175866
 31
0.0
  0
LINE
  5
56
330
50
100
AcDbEntity
  8
SLD-0
  6
Continuous
 62
   179
100
AcDbLine
 10
76.4170860077
 20
182.7497175866
 30
0.0
 11
78.9170860077
 21
182.7497175866
 31
0.0
  0
LINE
  5
57
330
50
100
AcDbEntity
  8
SLD-0
  6
Continuous
 62
   179
100
AcDbLine
 10
76.4170860077
 20
187.7497175866
 30
0.0
 11
76.4170860077
 21
188.4997175866
 31
0.0
  0
LINE
  5
58
330
50
100
AcDbEntity
  8
SLD-0
  6
Continuous
 62
   179
100
AcDbLine
 10
71.4170860077
 20
182.7497175866
 30
0.0
 11
70.6670860077
 21
182.7497175866
 31
0.0
  0
LINE
  5
59
330
50
100
AcDbEntity
  8
SLD-0
  6
Continuous
 62
   179
100
AcDbLine
 10
76.4170860077
 20
177.7497175866
 30
0.0
 11
76.4170860077
 21
176.9997175866
 31
0.0
  0
LINE
  5
5A
330
50
100
AcDbEntity
  8
SLD-0
  6
Continuous
 62
   179
100
AcDbLine
 10
81.4170860077
 20
182.7497175866
 30
0.0
 11
82.1670860077
 21
182.7497175866
 31
0.0
  0
ENDBLK
  5
52
330
50
100
AcDbEntity
  8
0
100
AcDbBlockEnd
  0
BLOCK
  5
5C
330
5B
100
AcDbEntity
  8
0
100
AcDbBlockBegin
  2
SURFACEFINISH42
 70
     0
 71
     0
 10
0.0
 20
0.0
 30
0.0
  3
SURFACEFINISH42
  1

  0
LINE
  5
5E
330
5B
100
AcDbEntity
  8
SLD-0
  6
Continuous
 62
   179
100
AcDbLine
 10
-4.7161261793
 20
-4.0299497062
 30
0.0
 11
2.8543129151
 21
-4.0299497062
 31
0.0
  0
LINE
  5
5F
330
5B
100
AcDbEntity
  8
SLD-0
  6
Continuous
 62
   179
100
AcDbLine
 10
1.8543129151
 20
-4.0299497062
 30
0.0
 11
-0.5230330359
 21
0.0000000873
 31
0.0
  0
LINE
  5
60
330
5B
100
AcDbEntity
  8
SLD-0
  6
Continuous
 62
   179
100
AcDbLine
 10
4.2316588661
 20
0.0000000873
 30
0.0
 11
-0.5230330359
 21
0.0000000873
 31
0.0
  0
LINE
  5
61
330
5B
100
AcDbEntity
  8
SLD-0
  6
Continuous
 62
   179
100
AcDbLine
 10
1.8543129151
 20
-4.0299497062
 30
0.0
 11
6.6090048171
 21
4.0299498808
 31
0.0
  0
MTEXT
  5
62
330
5B
100
AcDbEntity
  8
SLD-0
100
AcDbMText
 10
0.0
 20
2.9130973836
 30
0.0
 40
2.1166666667
 41
0.0
 71
     1
 72
     1
  1
6.3
  7
SLDTEXTSTYLE1
 73
     1
 44
1.0
  0
ENDBLK
  5
5D
330
5B
100
AcDbEntity
  8
0
100
AcDbBlockEnd
  0
BLOCK
  5
64
330
63
100
AcDbEntity
  8
0
100
AcDbBlockBegin
  2
SURFACEFINISH43
 70
     0
 71
     0
 10
0.0
 20
0.0
 30
0.0
  3
SURFACEFINISH43
  1

  0
LINE
  5
66
330
63
100
AcDbEntity
  8
SLD-0
  6
Continuous
 62
   179
100
AcDbLine
 10
-5.5121266917
 20
7.1331663826
 30
0.0
 11
3.8005118376
 21
7.1331663826
 31
0.0
  0
LINE
  5
67
330
63
100
AcDbEntity
  8
SLD-0
  6
Continuous
 62
   179
100
AcDbLine
 10
2.8005118376
 20
7.1331663826
 30
0.0
 11
5.1778577886
 21
3.1032165891
 31
0.0
  0
LINE
  5
68
330
63
100
AcDbEntity
  8
SLD-0
  6
Continuous
 62
   179
100
AcDbLine
 10
0.4231658866
 20
3.1032165891
 30
0.0
 11
5.1778577886
 21
3.1032165891
 31
0.0
  0
LINE
  5
69
330
63
100
AcDbEntity
  8
SLD-0
  6
Continuous
 62
   179
100
AcDbLine
 10
2.8005118376
 20
7.1331663826
 30
0.0
 11
-1.9541800644
 21
-0.9267332044
 31
0.0
  0
MTEXT
  5
6A
330
63
100
AcDbEntity
  8
SLD-0
100
AcDbMText
 10
0.0
 20
2.9130973836
 30
0.0
 40
2.1166666667
 41
0.0
 71
     1
 72
     1
  1
6.3
  7
SLDTEXTSTYLE1
 73
     1
 44
1.0
  0
ENDBLK
  5
65
330
63
100
AcDbEntity
  8
0
100
AcDbBlockEnd
  0
BLOCK
  5
93
330
89
100
AcDbEntity
  8
0
100
AcDbBlockBegin
  2
*D8
 70
     1
 71
     0
 10
0.0
 20
0.0
 30
0.0
  3
*D8
  1

  0
LINE
  5
99
330
89
100
AcDbEntity
  8
SLD-0
 62
     7
100
AcDbLine
 10
66.4170860077
 20
146.2497175866
 30
0.0
 11
66.4170860077
 21
214.0472914182
 31
0.0
  0
LINE
  5
9A
330
89
100
AcDbEntity
  8
SLD-0
 62
     7
100
AcDbLine
 10
86.4170860077
 20
146.2497175866
 30
0.0
 11
86.4170860077
 21
214.0472914182
 31
0.0
  0
LINE
  5
9B
330
89
100
AcDbEntity
  8
SLD-0
 62
     7
100
AcDbLine
 10
66.4170860077
 20
213.0472914182
 30
0.0
 11
86.4170860077
 21
213.0472914182
 31
0.0
  0
LINE
  5
9C
330
89
100
AcDbEntity
  8
SLD-0
 62
     7
100
AcDbLine
 10
69.4170860077
 20
212.2434444182
 30
0.0
 11
66.4170860077
 21
213.0472914182
 31
0.0
  0
LINE
  5
9D
330
89
100
AcDbEntity
  8
SLD-0
 62
     7
100
AcDbLine
 10
66.4170860077
 20
213.0472914182
 30
0.0
 11
69.4170860077
 21
213.8511384182
 31
0.0
  0
LINE
  5
9E
330
89
100
AcDbEntity
  8
SLD-0
 62
     7
100
AcDbLine
 10
66.4170860077
 20
213.0472914182
 30
0.0
 11
69.4170860077
 21
213.0472914182
 31
0.0
  0
LINE
  5
9F
330
89
100
AcDbEntity
  8
SLD-0
 62
     7
100
AcDbLine
 10
83.4170860077
 20
213.8511384182
 30
0.0
 11
86.4170860077
 21
213.0472914182
 31
0.0
  0
LINE
  5
A0
330
89
100
AcDbEntity
  8
SLD-0
 62
     7
100
AcDbLine
 10
86.4170860077
 20
213.0472914182
 30
0.0
 11
83.4170860077
 21
212.2434444182
 31
0.0
  0
LINE
  5
A1
330
89
100
AcDbEntity
  8
SLD-0
 62
     7
100
AcDbLine
 10
86.4170860077
 20
213.0472914182
 30
0.0
 11
83.4170860077
 21
213.0472914182
 31
0.0
  0
MTEXT
  5
A2
330
89
100
AcDbEntity
  8
SLD-0
 62
     7
100
AcDbMText
 10
74.3816507845
 20
217.5739851142
 30
0.1
 40
3.5
 41
0.0
 71
     1
 72
     1
  1
20
  7
SLDTEXTSTYLE0
 73
     1
 44
1.0
  0
ENDBLK
  5
94
330
89
100
AcDbEntity
  8
0
100
AcDbBlockEnd
  0
BLOCK
  5
97
330
96
100
AcDbEntity
  8
0
100
AcDbBlockBegin
  2
_None
 70
     0
 71
     0
 10
0.0
 20
0.0
 30
0.0
  3
_None
  1

  0
ENDBLK
  5
98
330
96
100
AcDbEntity
  8
0
100
AcDbBlockEnd
  0
BLOCK
  5
AB
330
A4
100
AcDbEntity
  8
0
100
AcDbBlockBegin
  2
*D10
 70
     1
 71
     0
 10
0.0
 20
0.0
 30
0.0
  3
*D10
  1

  0
LINE
  5
AE
330
A4
100
AcDbEntity
  8
SLD-0
 62
     7
100
AcDbLine
 10
77.6229532837
 20
149.7317076277
 30
0.0
 11
84.020729109
 21
133.7195381794
 31
0.0
  0
LINE
  5
AF
330
A4
100
AcDbEntity
  8
SLD-0
 62
     7
100
AcDbLine
 10
84.020729109
 20
133.7195381794
 30
0.0
 11
102.8339444286
 21
133.7195381794
 31
0.0
  0
LINE
  5
B0
330
A4
100
AcDbEntity
  8
SLD-0
 62
     7
100
AcDbLine
 10
77.9895943842
 20
146.6475960372
 30
0.0
 11
77.6229532837
 21
149.7317076277
 31
0.0
  0
LINE
  5
B1
330
A4
100
AcDbEntity
  8
SLD-0
 62
     7
100
AcDbLine
 10
77.6229532837
 20
149.7317076277
 30
0.0
 11
79.4825286928
 21
147.2441085247
 31
0.0
  0
LINE
  5
B2
330
A4
100
AcDbEntity
  8
SLD-0
 62
     7
100
AcDbLine
 10
77.6229532837
 20
149.7317076277
 30
0.0
 11
78.7360615385
 21
146.9458522809
 31
0.0
  0
MTEXT
  5
B3
330
A4
100
AcDbEntity
  8
SLD-0
 62
     7
100
AcDbMText
 10
87.195729109
 20
138.2462318753
 30
0.1
 40
3.5
 41
0.0
 71
     1
 72
     1
  1
2-
  7
SLDTEXTSTYLE0
 73
     1
 44
1.0
  0
MTEXT
  5
B4
330
A4
100
AcDbEntity
  8
SLD-0
 62
     7
100
AcDbMText
 10
89.5193401039
 20
138.2462316425
 30
0.1
 40
3.5
 41
0.0
 71
     1
 72
     1
  1
%%c
  7
SLDTEXTSTYLE0
 73
     1
 44
1.0
  0
MTEXT
  5
B5
330
A4
100
AcDbEntity
  8
SLD-0
 62
     7
100
AcDbMText
 10
95.1364844769
 20
138.2462318753
 30
0.1
 40
3.5
 41
0.0
 71
     1
 72
     1
  1
6.5
  7
SLDTEXTSTYLE0
 73
     1
 44
1.0
  0
ENDBLK
  5
AC
330
A4
100
AcDbEntity
  8
0
100
AcDbBlockEnd
  0
BLOCK
  5
C2
330
B7
100
AcDbEntity
  8
0
100
AcDbBlockBegin
  2
*D11
 70
     1
 71
     0
 10
0.0
 20
0.0
 30
0.0
  3
*D11
  1

  0
LINE
  5
C4
330
B7
100
AcDbEntity
  8
SLD-0
 62
     7
100
AcDbLine
 10
75.4170860077
 20
190.2497175866
 30
0.0
 11
44.6223777337
 21
190.2497175866
 31
0.0
  0
LINE
  5
C5
330
B7
100
AcDbEntity
  8
SLD-0
 62
     7
100
AcDbLine
 10
75.4170860077
 20
145.2497175866
 30
0.0
 11
44.6223777337
 21
145.2497175866
 31
0.0
  0
LINE
  5
C6
330
B7
100
AcDbEntity
  8
SLD-0
 62
     7
100
AcDbLine
 10
45.6223777337
 20
190.2497175866
 30
0.0
 11
45.6223777337
 21
145.2497175866
 31
0.0
  0
LINE
  5
C7
330
B7
100
AcDbEntity
  8
SLD-0
 62
     7
100
AcDbLine
 10
44.8185307337
 20
187.2497175866
 30
0.0
 11
45.6223777337
 21
190.2497175866
 31
0.0
  0
LINE
  5
C8
330
B7
100
AcDbEntity
  8
SLD-0
 62
     7
100
AcDbLine
 10
45.6223777337
 20
190.2497175866
 30
0.0
 11
46.4262247337
 21
187.2497175866
 31
0.0
  0
LINE
  5
C9
330
B7
100
AcDbEntity
  8
SLD-0
 62
     7
100
AcDbLine
 10
45.6223777337
 20
190.2497175866
 30
0.0
 11
45.6223777337
 21
187.2497175866
 31
0.0
  0
LINE
  5
CA
330
B7
100
AcDbEntity
  8
SLD-0
 62
     7
100
AcDbLine
 10
46.4262247337
 20
148.2497175866
 30
0.0
 11
45.6223777337
 21
145.2497175866
 31
0.0
  0
LINE
  5
CB
330
B7
100
AcDbEntity
  8
SLD-0
 62
     7
100
AcDbLine
 10
45.6223777337
 20
145.2497175866
 30
0.0
 11
44.8185307337
 21
148.2497175866
 31
0.0
  0
LINE
  5
CC
330
B7
100
AcDbEntity
  8
SLD-0
 62
     7
100
AcDbLine
 10
45.6223777337
 20
145.2497175866
 30
0.0
 11
45.6223777337
 21
148.2497175866
 31
0.0
  0
MTEXT
  5
CD
330
B7
100
AcDbEntity
  8
SLD-0
 62
     7
100
AcDbMText
 10
41.0956840377
 20
165.7142823635
 30
0.1
 40
3.5
 41
0.0
 71
     1
 72
     1
  1
45
  7
SLDTEXTSTYLE0
 11
6.123031769111886E-17
 21
1.0
 31
0.0
 73
     1
 44
1.0
  0
ENDBLK
  5
C3
330
B7
100
AcDbEntity
  8
0
100
AcDbBlockEnd
  0
BLOCK
  5
DA
330
CF
100
AcDbEntity
  8
0
100
AcDbBlockBegin
  2
*D12
 70
     1
 71
     0
 10
0.0
 20
0.0
 30
0.0
  3
*D12
  1

  0
LINE
  5
DC
330
CF
100
AcDbEntity
  8
SLD-0
 62
     7
100
AcDbLine
 10
83.1670860077
 20
152.7497175866
 30
0.0
 11
54.4752347627
 21
152.7497175866
 31
0.0
  0
LINE
  5
DD
330
CF
100
AcDbEntity
  8
SLD-0
 62
     7
100
AcDbLine
 10
83.1670860077
 20
182.7497175866
 30
0.0
 11
54.4752347627
 21
182.7497175866
 31
0.0
  0
LINE
  5
DE
330
CF
100
AcDbEntity
  8
SLD-0
 62
     7
100
AcDbLine
 10
55.4752347627
 20
152.7497175866
 30
0.0
 11
55.4752347627
 21
182.7497175866
 31
0.0
  0
LINE
  5
DF
330
CF
100
AcDbEntity
  8
SLD-0
 62
     7
100
AcDbLine
 10
56.2790817627
 20
155.7497175866
 30
0.0
 11
55.4752347627
 21
152.7497175866
 31
0.0
  0
LINE
  5
E0
330
CF
100
AcDbEntity
  8
SLD-0
 62
     7
100
AcDbLine
 10
55.4752347627
 20
152.7497175866
 30
0.0
 11
54.6713877627
 21
155.7497175866
 31
0.0
  0
LINE
  5
E1
330
CF
100
AcDbEntity
  8
SLD-0
 62
     7
100
AcDbLine
 10
55.4752347627
 20
152.7497175866
 30
0.0
 11
55.4752347627
 21
155.7497175866
 31
0.0
  0
LINE
  5
E2
330
CF
100
AcDbEntity
  8
SLD-0
 62
     7
100
AcDbLine
 10
54.6713877627
 20
179.7497175866
 30
0.0
 11
55.4752347627
 21
182.7497175866
 31
0.0
  0
LINE
  5
E3
330
CF
100
AcDbEntity
  8
SLD-0
 62
     7
100
AcDbLine
 10
55.4752347627
 20
182.7497175866
 30
0.0
 11
56.2790817627
 21
179.7497175866
 31
0.0
  0
LINE
  5
E4
330
CF
100
AcDbEntity
  8
SLD-0
 62
     7
100
AcDbLine
 10
55.4752347627
 20
182.7497175866
 30
0.0
 11
55.4752347627
 21
179.7497175866
 31
0.0
  0
MTEXT
  5
E5
330
CF
100
AcDbEntity
  8
SLD-0
 62
     7
100
AcDbMText
 10
50.9485410667
 20
165.7142823635
 30
0.1
 40
3.5
 41
0.0
 71
     1
 72
     1
  1
30
  7
SLDTEXTSTYLE0
 11
6.123031769111886E-17
 21
1.0
 31
0.0
 73
     1
 44
1.0
  0
ENDBLK
  5
DB
330
CF
100
AcDbEntity
  8
0
100
AcDbBlockEnd
  0
BLOCK
  5
F1
330
E7
100
AcDbEntity
  8
0
100
AcDbBlockBegin
  2
*D13
 70
     1
 71
     0
 10
0.0
 20
0.0
 30
0.0
  3
*D13
  1

  0
LINE
  5
F3
330
E7
100
AcDbEntity
  8
SLD-0
 62
     7
100
AcDbLine
 10
76.4170860077
 20
189.4997175866
 30
0.0
 11
76.4170860077
 21
204.1220136732
 31
0.0
  0
LINE
  5
F4
330
E7
100
AcDbEntity
  8
SLD-0
 62
     7
100
AcDbLine
 10
86.4170860077
 20
191.2497175866
 30
0.0
 11
86.4170860077
 21
204.1220136732
 31
0.0
  0
LINE
  5
F5
330
E7
100
AcDbEntity
  8
SLD-0
 62
     7
100
AcDbLine
 10
76.4170860077
 20
203.1220136732
 30
0.0
 11
71.4170860077
 21
203.1220136732
 31
0.0
  0
LINE
  5
F6
330
E7
100
AcDbEntity
  8
SLD-0
 62
     7
100
AcDbLine
 10
76.4170860077
 20
203.1220136732
 30
0.0
 11
86.4170860077
 21
203.1220136732
 31
0.0
  0
LINE
  5
F7
330
E7
100
AcDbEntity
  8
SLD-0
 62
     7
100
AcDbLine
 10
86.4170860077
 20
203.1220136732
 30
0.0
 11
91.4170860077
 21
203.1220136732
 31
0.0
  0
LINE
  5
F8
330
E7
100
AcDbEntity
  8
SLD-0
 62
     7
100
AcDbLine
 10
73.4170860077
 20
203.9258606732
 30
0.0
 11
76.4170860077
 21
203.1220136732
 31
0.0
  0
LINE
  5
F9
330
E7
100
AcDbEntity
  8
SLD-0
 62
     7
100
AcDbLine
 10
76.4170860077
 20
203.1220136732
 30
0.0
 11
73.4170860077
 21
202.3181666732
 31
0.0
  0
LINE
  5
FA
330
E7
100
AcDbEntity
  8
SLD-0
 62
     7
100
AcDbLine
 10
76.4170860077
 20
203.1220136732
 30
0.0
 11
73.4170860077
 21
203.1220136732
 31
0.0
  0
LINE
  5
FB
330
E7
100
AcDbEntity
  8
SLD-0
 62
     7
100
AcDbLine
 10
89.4170860077
 20
202.3181666732
 30
0.0
 11
86.4170860077
 21
203.1220136732
 31
0.0
  0
LINE
  5
FC
330
E7
100
AcDbEntity
  8
SLD-0
 62
     7
100
AcDbLine
 10
86.4170860077
 20
203.1220136732
 30
0.0
 11
89.4170860077
 21
203.9258606732
 31
0.0
  0
LINE
  5
FD
330
E7
100
AcDbEntity
  8
SLD-0
 62
     7
100
AcDbLine
 10
86.4170860077
 20
203.1220136732
 30
0.0
 11
89.4170860077
 21
203.1220136732
 31
0.0
  0
MTEXT
  5
FE
330
E7
100
AcDbEntity
  8
SLD-0
 62
     7
100
AcDbMText
 10
79.3816507845
 20
207.6487073691
 30
0.1
 40
3.5
 41
0.0
 71
     1
 72
     1
  1
10
  7
SLDTEXTSTYLE0
 73
     1
 44
1.0
  0
ENDBLK
  5
F2
330
E7
100
AcDbEntity
  8
0
100
AcDbBlockEnd
  0
BLOCK
  5
10C
330
100
100
AcDbEntity
  8
0
100
AcDbBlockBegin
  2
*D14
 70
     1
 71
     0
 10
0.0
 20
0.0
 30
0.0
  3
*D14
  1

  0
LINE
  5
10F
330
100
100
AcDbEntity
  8
SLD-0
100
AcDbLine
 10
65.4170860077
 20
190.2497175866
 30
0.0
 11
54.4752347627
 21
190.2497175866
 31
0.0
  0
LINE
  5
110
330
100
100
AcDbEntity
  8
SLD-0
100
AcDbLine
 10
69.6670860077
 20
182.7497175866
 30
0.0
 11
54.4752347627
 21
182.7497175866
 31
0.0
  0
LINE
  5
111
330
100
100
AcDbEntity
  8
SLD-0
100
AcDbLine
 10
55.4752347627
 20
190.2497175866
 30
0.0
 11
55.4752347627
 21
203.562262058
 31
0.0
  0
LINE
  5
112
330
100
100
AcDbEntity
  8
SLD-0
100
AcDbLine
 10
55.4752347627
 20
190.2497175866
 30
0.0
 11
55.4752347627
 21
182.7497175866
 31
0.0
  0
LINE
  5
113
330
100
100
AcDbEntity
  8
SLD-0
100
AcDbLine
 10
55.4752347627
 20
182.7497175866
 30
0.0
 11
55.4752347627
 21
177.7497175866
 31
0.0
  0
LINE
  5
114
330
100
100
AcDbEntity
  8
SLD-0
100
AcDbLine
 10
56.2790817627
 20
193.2497175866
 30
0.0
 11
55.4752347627
 21
190.2497175866
 31
0.0
  0
LINE
  5
115
330
100
100
AcDbEntity
  8
SLD-0
100
AcDbLine
 10
55.4752347627
 20
190.2497175866
 30
0.0
 11
54.6713877627
 21
193.2497175866
 31
0.0
  0
LINE
  5
116
330
100
100
AcDbEntity
  8
SLD-0
100
AcDbLine
 10
55.4752347627
 20
190.2497175866
 30
0.0
 11
55.4752347627
 21
193.2497175866
 31
0.0
  0
LINE
  5
117
330
100
100
AcDbEntity
  8
SLD-0
100
AcDbLine
 10
54.6713877627
 20
179.7497175866
 30
0.0
 11
55.4752347627
 21
182.7497175866
 31
0.0
  0
LINE
  5
118
330
100
100
AcDbEntity
  8
SLD-0
100
AcDbLine
 10
55.4752347627
 20
182.7497175866
 30
0.0
 11
56.2790817627
 21
179.7497175866
 31
0.0
  0
LINE
  5
119
330
100
100
AcDbEntity
  8
SLD-0
100
AcDbLine
 10
55.4752347627
 20
182.7497175866
 30
0.0
 11
55.4752347627
 21
179.7497175866
 31
0.0
  0
MTEXT
  5
11A
330
100
100
AcDbEntity
  8
SLD-0
100
AcDbMText
 10
50.9485410667
 20
195.8648021063
 30
0.1
 40
3.5
 41
0.0
 71
     1
 72
     1
  1
7.5
  7
SLDTEXTSTYLE0
 11
6.123031769111886E-17
 21
1.0
 31
0.0
 73
     1
 44
1.0
  0
ENDBLK
  5
10D
330
100
100
AcDbEntity
  8
0
100
AcDbBlockEnd
  0
BLOCK
  5
127
330
11C
100
AcDbEntity
  8
0
100
AcDbBlockBegin
  2
*D15
 70
     1
 71
     0
 10
0.0
 20
0.0
 30
0.0
  3
*D15
  1

  0
LINE
  5
12A
330
11C
100
AcDbEntity
  8
SLD-0
 62
     7
100
AcDbLine
 10
137.8607830552
 20
177.7497175866
 30
0.0
 11
160.2041418357
 21
177.7497175866
 31
0.0
  0
LINE
  5
12B
330
11C
100
AcDbEntity
  8
SLD-0
 62
     7
100
AcDbLine
 10
137.8607830552
 20
157.7497175866
 30
0.0
 11
160.2041418357
 21
157.7497175866
 31
0.0
  0
LINE
  5
12C
330
11C
100
AcDbEntity
  8
SLD-0
 62
     7
100
AcDbLine
 10
159.2041418357
 20
177.7497175866
 30
0.0
 11
159.2041418357
 21
182.7497175866
 31
0.0
  0
LINE
  5
12D
330
11C
100
AcDbEntity
  8
SLD-0
 62
     7
100
AcDbLine
 10
159.2041418357
 20
177.7497175866
 30
0.0
 11
159.2041418357
 21
157.7497175866
 31
0.0
  0
LINE
  5
12E
330
11C
100
AcDbEntity
  8
SLD-0
 62
     7
100
AcDbLine
 10
159.2041418357
 20
157.7497175866
 30
0.0
 11
159.2041418357
 21
152.7497175866
 31
0.0
  0
LINE
  5
12F
330
11C
100
AcDbEntity
  8
SLD-0
 62
     7
100
AcDbLine
 10
160.0079888357
 20
180.7497175866
 30
0.0
 11
159.2041418357
 21
177.7497175866
 31
0.0
  0
LINE
  5
130
330
11C
100
AcDbEntity
  8
SLD-0
 62
     7
100
AcDbLine
 10
159.2041418357
 20
177.7497175866
 30
0.0
 11
158.4002948357
 21
180.7497175866
 31
0.0
  0
LINE
  5
131
330
11C
100
AcDbEntity
  8
SLD-0
 62
     7
100
AcDbLine
 10
159.2041418357
 20
177.7497175866
 30
0.0
 11
159.2041418357
 21
180.7497175866
 31
0.0
  0
LINE
  5
132
330
11C
100
AcDbEntity
  8
SLD-0
 62
     7
100
AcDbLine
 10
158.4002948357
 20
154.7497175866
 30
0.0
 11
159.2041418357
 21
157.7497175866
 31
0.0
  0
LINE
  5
133
330
11C
100
AcDbEntity
  8
SLD-0
 62
     7
100
AcDbLine
 10
159.2041418357
 20
157.7497175866
 30
0.0
 11
160.0079888357
 21
154.7497175866
 31
0.0
  0
LINE
  5
134
330
11C
100
AcDbEntity
  8
SLD-0
 62
     7
100
AcDbLine
 10
159.2041418357
 20
157.7497175866
 30
0.0
 11
159.2041418357
 21
154.7497175866
 31
0.0
  0
MTEXT
  5
135
330
11C
100
AcDbEntity
  8
SLD-0
 62
     7
100
AcDbMText
 10
154.6774481398
 20
162.6611295287
 30
0.1
 40
3.5
 41
0.0
 71
     1
 72
     1
  1
20
  7
SLDTEXTSTYLE0
 11
6.123031769111886E-17
 21
1.0
 31
0.0
 73
     1
 44
1.0
  0
MTEXT
  5
136
330
11C
100
AcDbEntity
  8
SLD-0
 62
     7
100
AcDbMText
 10
155.8739219655
 20
169.17306053
 30
0.1
 40
2.1
 41
0.0
 71
     1
 72
     1
  1
0
  7
SLDTEXTSTYLE0
 11
6.123031769111886E-17
 21
1.0
 31
0.0
 73
     1
 44
1.0
  0
MTEXT
  5
137
330
11C
100
AcDbEntity
  8
SLD-0
 62
     7
100
AcDbMText
 10
153.4328614106
 20
167.9525302525
 30
0.1
 40
2.1
 41
0.0
 71
     1
 72
     1
  1
+
  7
SLDTEXTSTYLE0
 11
6.123031769111886E-17
 21
1.0
 31
0.0
 73
     1
 44
1.0
  0
MTEXT
  5
138
330
11C
100
AcDbEntity
  8
SLD-0
 62
     7
100
AcDbMText
 10
153.4328614106
 20
169.17306053
 30
0.1
 40
2.1
 41
0.0
 71
     1
 72
     1
  1
0.1
  7
SLDTEXTSTYLE0
 11
6.123031769111886E-17
 21
1.0
 31
0.0
 73
     1
 44
1.0
  0
ENDBLK
  5
128
330
11C
100
AcDbEntity
  8
0
100
AcDbBlockEnd
  0
BLOCK
  5
144
330
13A
100
AcDbEntity
  8
0
100
AcDbBlockBegin
  2
*D16
 70
     1
 71
     0
 10
0.0
 20
0.0
 30
0.0
  3
*D16
  1

  0
LINE
  5
146
330
13A
100
AcDbEntity
  8
SLD-0
 62
     7
100
AcDbLine
 10
136.8607830552
 20
191.2497175866
 30
0.0
 11
136.8607830552
 21
213.8496676183
 31
0.0
  0
LINE
  5
147
330
13A
100
AcDbEntity
  8
SLD-0
 62
     7
100
AcDbLine
 10
124.8607830552
 20
191.2497175866
 30
0.0
 11
124.8607830552
 21
213.8496676183
 31
0.0
  0
LINE
  5
148
330
13A
100
AcDbEntity
  8
SLD-0
 62
     7
100
AcDbLine
 10
136.8607830552
 20
212.8496676183
 30
0.0
 11
124.8607830552
 21
212.8496676183
 31
0.0
  0
LINE
  5
149
330
13A
100
AcDbEntity
  8
SLD-0
 62
     7
100
AcDbLine
 10
133.8607830552
 20
213.6535146183
 30
0.0
 11
136.8607830552
 21
212.8496676183
 31
0.0
  0
LINE
  5
14A
330
13A
100
AcDbEntity
  8
SLD-0
 62
     7
100
AcDbLine
 10
136.8607830552
 20
212.8496676183
 30
0.0
 11
133.8607830552
 21
212.0458206183
 31
0.0
  0
LINE
  5
14B
330
13A
100
AcDbEntity
  8
SLD-0
 62
     7
100
AcDbLine
 10
136.8607830552
 20
212.8496676183
 30
0.0
 11
133.8607830552
 21
212.8496676183
 31
0.0
  0
LINE
  5
14C
330
13A
100
AcDbEntity
  8
SLD-0
 62
     7
100
AcDbLine
 10
127.8607830552
 20
212.0458206183
 30
0.0
 11
124.8607830552
 21
212.8496676183
 31
0.0
  0
LINE
  5
14D
330
13A
100
AcDbEntity
  8
SLD-0
 62
     7
100
AcDbLine
 10
124.8607830552
 20
212.8496676183
 30
0.0
 11
127.8607830552
 21
213.6535146183
 31
0.0
  0
LINE
  5
14E
330
13A
100
AcDbEntity
  8
SLD-0
 62
     7
100
AcDbLine
 10
124.8607830552
 20
212.8496676183
 30
0.0
 11
127.8607830552
 21
212.8496676183
 31
0.0
  0
MTEXT
  5
14F
330
13A
100
AcDbEntity
  8
SLD-0
 62
     7
100
AcDbMText
 10
128.825347832
 20
217.3763613143
 30
0.1
 40
3.5
 41
0.0
 71
     1
 72
     1
  1
12
  7
SLDTEXTSTYLE0
 73
     1
 44
1.0
  0
ENDBLK
  5
145
330
13A
100
AcDbEntity
  8
0
100
AcDbBlockEnd
  0
BLOCK
  5
15C
330
151
100
AcDbEntity
  8
0
100
AcDbBlockBegin
  2
*D17
 70
     1
 71
     0
 10
0.0
 20
0.0
 30
0.0
  3
*D17
  1

  0
LINE
  5
15E
330
151
100
AcDbEntity
  8
SLD-0
 62
     7
100
AcDbLine
 10
137.8607830552
 20
190.2497175866
 30
0.0
 11
160.2041418357
 21
190.2497175866
 31
0.0
  0
LINE
  5
15F
330
151
100
AcDbEntity
  8
SLD-0
 62
     7
100
AcDbLine
 10
137.8607830552
 20
177.7497175866
 30
0.0
 11
160.2041418357
 21
177.7497175866
 31
0.0
  0
LINE
  5
160
330
151
100
AcDbEntity
  8
SLD-0
 62
     7
100
AcDbLine
 10
159.2041418357
 20
190.2497175866
 30
0.0
 11
159.2041418357
 21
177.7497175866
 31
0.0
  0
LINE
  5
161
330
151
100
AcDbEntity
  8
SLD-0
 62
     7
100
AcDbLine
 10
158.4002948357
 20
187.2497175866
 30
0.0
 11
159.2041418357
 21
190.2497175866
 31
0.0
  0
LINE
  5
162
330
151
100
AcDbEntity
  8
SLD-0
 62
     7
100
AcDbLine
 10
159.2041418357
 20
190.2497175866
 30
0.0
 11
160.0079888357
 21
187.2497175866
 31
0.0
  0
LINE
  5
163
330
151
100
AcDbEntity
  8
SLD-0
 62
     7
100
AcDbLine
 10
159.2041418357
 20
190.2497175866
 30
0.0
 11
159.2041418357
 21
187.2497175866
 31
0.0
  0
LINE
  5
164
330
151
100
AcDbEntity
  8
SLD-0
 62
     7
100
AcDbLine
 10
160.0079888357
 20
180.7497175866
 30
0.0
 11
159.2041418357
 21
177.7497175866
 31
0.0
  0
LINE
  5
165
330
151
100
AcDbEntity
  8
SLD-0
 62
     7
100
AcDbLine
 10
159.2041418357
 20
177.7497175866
 30
0.0
 11
158.4002948357
 21
180.7497175866
 31
0.0
  0
LINE
  5
166
330
151
100
AcDbEntity
  8
SLD-0
 62
     7
100
AcDbLine
 10
159.2041418357
 20
177.7497175866
 30
0.0
 11
159.2041418357
 21
180.7497175866
 31
0.0
  0
MTEXT
  5
167
330
151
100
AcDbEntity
  8
SLD-0
 62
     7
100
AcDbMText
 10
154.6774481398
 20
179.9270199992
 30
0.1
 40
3.5
 41
0.0
 71
     1
 72
     1
  1
12.5
  7
SLDTEXTSTYLE0
 11
6.123031769111886E-17
 21
1.0
 31
0.0
 73
     1
 44
1.0
  0
ENDBLK
  5
15D
330
151
100
AcDbEntity
  8
0
100
AcDbBlockEnd
  0
BLOCK
  5
176
330
169
100
AcDbEntity
  8
0
100
AcDbBlockBegin
  2
*D18
 70
     1
 71
     0
 10
0.0
 20
0.0
 30
0.0
  3
*D18
  1

  0
LINE
  5
178
330
169
100
AcDbEntity
  8
SLD-0
 62
     7
100
AcDbLine
 10
126.8607830552
 20
178.7497175866
 30
0.0
 11
126.8607830552
 21
205.1393123528
 31
0.0
  0
LINE
  5
179
330
169
100
AcDbEntity
  8
SLD-0
 62
     7
100
AcDbLine
 10
124.8607830552
 20
191.2497175866
 30
0.0
 11
124.8607830552
 21
205.1393123528
 31
0.0
  0
LINE
  5
17A
330
169
100
AcDbEntity
  8
SLD-0
 62
     7
100
AcDbLine
 10
126.8607830552
 20
204.1393123528
 30
0.0
 11
131.8607830552
 21
204.1393123528
 31
0.0
  0
LINE
  5
17B
330
169
100
AcDbEntity
  8
SLD-0
 62
     7
100
AcDbLine
 10
126.8607830552
 20
204.1393123528
 30
0.0
 11
124.8607830552
 21
204.1393123528
 31
0.0
  0
LINE
  5
17C
330
169
100
AcDbEntity
  8
SLD-0
 62
     7
100
AcDbLine
 10
124.8607830552
 20
204.1393123528
 30
0.0
 11
115.0715746413
 21
204.1393123528
 31
0.0
  0
LINE
  5
17D
330
169
100
AcDbEntity
  8
SLD-0
 62
     7
100
AcDbLine
 10
129.8607830552
 20
203.3354653528
 30
0.0
 11
126.8607830552
 21
204.1393123528
 31
0.0
  0
LINE
  5
17E
330
169
100
AcDbEntity
  8
SLD-0
 62
     7
100
AcDbLine
 10
126.8607830552
 20
204.1393123528
 30
0.0
 11
129.8607830552
 21
204.9431593528
 31
0.0
  0
LINE
  5
17F
330
169
100
AcDbEntity
  8
SLD-0
 62
     7
100
AcDbLine
 10
126.8607830552
 20
204.1393123528
 30
0.0
 11
129.8607830552
 21
204.1393123528
 31
0.0
  0
LINE
  5
180
330
169
100
AcDbEntity
  8
SLD-0
 62
     7
100
AcDbLine
 10
121.8607830552
 20
204.9431593528
 30
0.0
 11
124.8607830552
 21
204.1393123528
 31
0.0
  0
LINE
  5
181
330
169
100
AcDbEntity
  8
SLD-0
 62
     7
100
AcDbLine
 10
124.8607830552
 20
204.1393123528
 30
0.0
 11
121.8607830552
 21
203.3354653528
 31
0.0
  0
LINE
  5
182
330
169
100
AcDbEntity
  8
SLD-0
 62
     7
100
AcDbLine
 10
124.8607830552
 20
204.1393123528
 30
0.0
 11
121.8607830552
 21
204.1393123528
 31
0.0
  0
MTEXT
  5
183
330
169
100
AcDbEntity
  8
SLD-0
 62
     7
100
AcDbMText
 10
116.6590746413
 20
208.6660060488
 30
0.1
 40
3.5
 41
0.0
 71
     1
 72
     1
  1
2
  7
SLDTEXTSTYLE0
 73
     1
 44
1.0
  0
ENDBLK
  5
177
330
169
100
AcDbEntity
  8
0
100
AcDbBlockEnd
  0
ENDSEC
  0
SECTION
  2
ENTITIES
  0
LINE
  5
6B
330
1F
100
AcDbEntity
  8
SLD-0
  6
Continuous
 62
   179
100
AcDbLine
 10
20.2604743903
 20
285.0
 30
0.0
 11
196.7604743903
 21
285.0
 31
0.0
  0
LINE
  5
6C
330
1F
100
AcDbEntity
  8
SLD-0
  6
Continuous
 62
   179
100
AcDbLine
 10
20.2604743903
 20
285.0
 30
0.0
 11
20.2604743903
 21
10.0
 31
0.0
  0
LINE
  5
6D
330
1F
100
AcDbEntity
  8
SLD-0
  6
Continuous
 62
   179
100
AcDbLine
 10
20.2604743903
 20
10.0
 30
0.0
 11
196.7604743903
 21
10.0
 31
0.0
  0
LINE
  5
6E
330
1F
100
AcDbEntity
  8
SLD-0
  6
Continuous
 62
   179
100
AcDbLine
 10
196.7604743903
 20
285.0
 30
0.0
 11
196.7604743903
 21
10.0
 31
0.0
  0
LINE
  5
6F
330
1F
100
AcDbEntity
  8
SLD-0
  6
Continuous
 62
   179
100
AcDbLine
 10
65.7604743903
 20
285.0
 30
0.0
 11
196.7604743903
 21
285.0
 31
0.0
  0
LINE
  5
70
330
1F
100
AcDbEntity
  8
SLD-0
  6
Continuous
 62
   179
100
AcDbLine
 10
196.7604743903
 20
285.0
 30
0.0
 11
196.7604743903
 21
264.25
 31
0.0
  0
LINE
  5
71
330
1F
100
AcDbEntity
  8
SLD-0
  6
Continuous
 62
   179
100
AcDbLine
 10
127.0104743903
 20
50.75
 30
0.0
 11
196.7604743903
 21
50.75
 31
0.0
  0
LINE
  5
72
330
1F
100
AcDbEntity
  8
SLD-0
  6
Continuous
 62
   179
100
AcDbLine
 10
127.0104743903
 20
50.75
 30
0.0
 11
127.0104743903
 21
10.0
 31
0.0
  0
LINE
  5
73
330
1F
100
AcDbEntity
  8
SLD-0
  6
Continuous
 62
   179
100
AcDbLine
 10
127.0104743903
 20
22.75
 30
0.0
 11
196.7604743903
 21
22.75
 31
0.0
  0
LINE
  5
74
330
1F
100
AcDbEntity
  8
SLD-0
  6
Continuous
 62
   179
100
AcDbLine
 10
127.0104743903
 20
36.75
 30
0.0
 11
196.7604743903
 21
36.75
 31
0.0
  0
LINE
  5
75
330
1F
100
AcDbEntity
  8
SLD-0
  6
Continuous
 62
   179
100
AcDbLine
 10
86.4170857842
 20
190.2497184807
 30
0.0
 11
66.4170862312
 21
190.2497184807
 31
0.0
  0
LINE
  5
76
330
1F
100
AcDbEntity
  8
SLD-0
  6
Continuous
 62
   179
100
AcDbLine
 10
86.4170857842
 20
190.2497184807
 30
0.0
 11
86.4170857842
 21
145.2497166926
 31
0.0
  0
LINE
  5
77
330
1F
100
AcDbEntity
  8
SLD-0
  6
Continuous
 62
   179
100
AcDbLine
 10
86.4170857842
 20
145.2497166926
 30
0.0
 11
66.4170862312
 21
145.2497166926
 31
0.0
  0
LINE
  5
78
330
1F
100
AcDbEntity
  8
SLD-0
  6
Continuous
 62
   179
100
AcDbLine
 10
66.4170862312
 20
190.2497184807
 30
0.0
 11
66.4170862312
 21
145.2497166926
 31
0.0
  0
LINE
  5
79
330
1F
100
AcDbEntity
  8
SLD-0
  6
HIDDEN
 62
     8
100
AcDbLine
 10
86.4170857842
 20
177.7497173631
 30
0.0
 11
66.4170862312
 21
177.7497173631
 31
0.0
  0
LINE
  5
7A
330
1F
100
AcDbEntity
  8
SLD-0
  6
HIDDEN
 62
     8
100
AcDbLine
 10
86.4170857842
 20
157.7497178102
 30
0.0
 11
66.4170862312
 21
157.7497178102
 31
0.0
  0
LINE
  5
7B
330
1F
100
AcDbEntity
  8
SLD-0
  6
Continuous
 62
   179
100
AcDbLine
 10
126.8607831502
 20
157.7497178102
 30
0.0
 11
126.8607831502
 21
177.7497173631
 31
0.0
  0
LINE
  5
7C
330
1F
100
AcDbEntity
  8
SLD-0
  6
Continuous
 62
   179
100
AcDbLine
 10
124.8607830552
 20
190.2497184807
 30
0.0
 11
124.8607830552
 21
145.2497166926
 31
0.0
  0
LINE
  5
7D
330
1F
100
AcDbEntity
  8
SLD-0
  6
Continuous
 62
   179
100
AcDbLine
 10
126.8607831502
 20
177.7497173631
 30
0.0
 11
136.8607831595
 21
177.7497173631
 31
0.0
  0
LINE
  5
7E
330
1F
100
AcDbEntity
  8
SLD-0
  6
Continuous
 62
   179
100
AcDbLine
 10
136.8607831595
 20
190.2497184807
 30
0.0
 11
124.8607830552
 21
190.2497184807
 31
0.0
  0
LINE
  5
7F
330
1F
100
AcDbEntity
  8
SLD-0
  6
Continuous
 62
   179
100
AcDbLine
 10
136.8607831595
 20
157.7497178102
 30
0.0
 11
126.8607831502
 21
157.7497178102
 31
0.0
  0
LINE
  5
80
330
1F
100
AcDbEntity
  8
SLD-0
  6
Continuous
 62
   179
100
AcDbLine
 10
136.8607831595
 20
145.2497166926
 30
0.0
 11
136.8607831595
 21
157.7497178102
 31
0.0
  0
LINE
  5
81
330
1F
100
AcDbEntity
  8
SLD-0
  6
Continuous
 62
   179
100
AcDbLine
 10
124.8607830552
 20
145.2497166926
 30
0.0
 11
136.8607831595
 21
145.2497166926
 31
0.0
  0
LINE
  5
82
330
1F
100
AcDbEntity
  8
SLD-0
  6
Continuous
 62
   179
100
AcDbLine
 10
136.8607831595
 20
177.7497173631
 30
0.0
 11
136.8607831595
 21
190.2497184807
 31
0.0
  0
LINE
  5
83
330
1F
100
AcDbEntity
  8
SLD-0
  6
CENTERX2
 62
   179
100
AcDbLine
 10
138.8607830552
 20
152.7497175866
 30
0.0
 11
122.8607830552
 21
152.7497175866
 31
0.0
  0
LINE
  5
84
330
1F
100
AcDbEntity
  8
SLD-0
  6
CENTERX2
 62
   179
100
AcDbLine
 10
138.8607830552
 20
182.7497175866
 30
0.0
 11
122.8607830552
 21
182.7497175866
 31
0.0
  0
CIRCLE
  5
85
330
1F
100
AcDbEntity
  8
SLD-0
  6
Continuous
 62
   179
100
AcDbCircle
 10
76.4170860077
 20
152.7497175866
 30
0.0
 40
3.25
  0
CIRCLE
  5
86
330
1F
100
AcDbEntity
  8
SLD-0
  6
Continuous
 62
   179
100
AcDbCircle
 10
76.4170860077
 20
182.7497175866
 30
0.0
 40
3.25
  0
DIMENSION
  5
87
330
1F
100
AcDbEntity
  8
SLD-0
 62
     7
100
AcDbDimension
  2
*D8
 10
66.4170860077
 20
213.0472914182
 30
0.0
 11
76.4170860077
 21
213.0472914182
 31
0.0
 70
   160
 71
     1
 42
20.0
  3
SLDDIMSTYLE0
100
AcDbAlignedDimension
 13
86.4170860077
 23
145.2497175866
 33
0.0
 14
66.4170860077
 24
145.2497175866
 34
0.0
100
AcDbRotatedDimension
1001
ACAD
1000
DSTYLE
1002
{
1070
    77
1070
     3
1070
   143
1040
0.0393700787
1070
    41
1040
3.0
1070
    44
1040
1.0
1070
    42
1040
1.0
1070
   147
1040
1.524
1070
    73
1070
     0
1070
    74
1070
     0
1070
   140
1040
3.5
1070
   284
1070
    12
1070
    78
1070
    12
1002
}
  0
DIMENSION
  5
A3
330
1F
100
AcDbEntity
  8
SLD-0
 62
     7
100
AcDbDimension
  2
*D10
 10
2.9081734203
 20
5.8131327933
 30
0.0
 11
94.2210867688
 21
-5.3659696521
 31
0.0
 70
   163
  1
2-<>
 71
     1
 42
6.4999988858
  3
SLDDIMSTYLE1
100
AcDbDiametricDimension
 15
0.0
 25
0.0
 35
0.0
 40
0.0
1001
ACAD
1000
DSTYLE
1002
{
1070
    77
1070
     0
1070
   143
1040
0.0393700787
1070
    41
1040
3.0
1070
    44
1040
1.0
1070
    42
1040
1.0
1070
   147
1040
1.524
1070
    73
1070
     1
1070
    74
1070
     1
1070
   140
1040
3.5
1070
   284
1070
    12
1070
    78
1070
    12
1002
}
  0
DIMENSION
  5
B6
330
1F
100
AcDbEntity
  8
SLD-0
 62
     7
100
AcDbDimension
  2
*D11
 10
45.6223777337
 20
190.2497175866
 30
0.0
 11
45.6223777337
 21
167.7497175866
 31
0.0
 70
   160
 71
     1
 42
45.0
  3
SLDDIMSTYLE0
100
AcDbAlignedDimension
 13
76.4170860077
 23
145.2497175866
 33
0.0
 14
76.4170860077
 24
190.2497175866
 34
0.0
 50
90.0
100
AcDbRotatedDimension
1001
ACAD
1000
DSTYLE
1002
{
1070
    77
1070
     3
1070
   143
1040
0.0393700787
1070
    41
1040
3.0
1070
    44
1040
1.0
1070
    42
1040
1.0
1070
   147
1040
1.524
1070
    73
1070
     0
1070
    74
1070
     0
1070
   140
1040
3.5
1070
   284
1070
    12
1070
    78
1070
    12
1002
}
  0
DIMENSION
  5
CE
330
1F
100
AcDbEntity
  8
SLD-0
 62
     7
100
AcDbDimension
  2
*D12
 10
55.4752347627
 20
152.7497175866
 30
0.0
 11
55.4752347627
 21
167.7497175866
 31
0.0
 70
   160
 71
     1
 42
30.0
  3
SLDDIMSTYLE0
100
AcDbAlignedDimension
 13
76.4170860077
 23
182.7497175866
 33
0.0
 14
76.4170860077
 24
152.7497175866
 34
0.0
 50
90.0
100
AcDbRotatedDimension
1001
ACAD
1000
DSTYLE
1002
{
1070
    77
1070
     3
1070
   143
1040
0.0393700787
1070
    41
1040
3.0
1070
    44
1040
1.0
1070
    42
1040
1.0
1070
   147
1040
1.524
1070
    73
1070
     0
1070
    74
1070
     0
1070
   140
1040
3.5
1070
   284
1070
    12
1070
    78
1070
    12
1002
}
  0
DIMENSION
  5
E6
330
1F
100
AcDbEntity
  8
SLD-0
 62
     7
100
AcDbDimension
  2
*D13
 10
76.4170860077
 20
203.1220136732
 30
0.0
 11
81.4170860077
 21
203.1220136732
 31
0.0
 70
   160
 71
     1
 42
10.0
  3
SLDDIMSTYLE0
100
AcDbAlignedDimension
 13
86.4170860077
 23
190.2497175866
 33
0.0
 14
76.4170860077
 24
182.7497175866
 34
0.0
100
AcDbRotatedDimension
1001
ACAD
1000
DSTYLE
1002
{
1070
    77
1070
     3
1070
   143
1040
0.0393700787
1070
    41
1040
3.0
1070
    44
1040
1.0
1070
    42
1040
1.0
1070
   147
1040
1.524
1070
    73
1070
     0
1070
    74
1070
     0
1070
   140
1040
3.5
1070
   284
1070
    12
1070
    78
1070
    12
1002
}
  0
DIMENSION
  5
FF
330
1F
100
AcDbEntity
  8
SLD-0
100
AcDbDimension
  2
*D14
 10
55.4752347627
 20
190.2497175866
 30
0.0
 11
55.4752347627
 21
198.9197820821
 31
0.0
 70
   160
 71
     1
 42
7.5
  3
SLDDIMSTYLE2
100
AcDbAlignedDimension
 13
70.6670860077
 23
182.7497175866
 33
0.0
 14
66.4170860077
 24
190.2497175866
 34
0.0
 50
90.0
100
AcDbRotatedDimension
1001
ACAD
1000
DSTYLE
1002
{
1070
    77
1070
     3
1070
   143
1040
0.0393700787
1070
    41
1040
3.0
1070
    44
1040
1.0
1070
    42
1040
1.0
1070
   147
1040
1.524
1070
    73
1070
     0
1070
    74
1070
     0
1070
   140
1040
3.5
1070
   284
1070
    12
1070
    78
1070
    12
1002
}
  0
DIMENSION
  5
11B
330
1F
100
AcDbEntity
  8
SLD-0
 62
     7
100
AcDbDimension
  2
*D15
 10
159.2041418357
 20
177.7497175866
 30
0.0
 11
159.2041418357
 21
167.7497175866
 31
0.0
 70
   160
 71
     1
 42
20.0
  3
SLDDIMSTYLE3
100
AcDbAlignedDimension
 13
136.8607830552
 23
157.7497175866
 33
0.0
 14
136.8607830552
 24
177.7497175866
 34
0.0
 50
90.0
100
AcDbRotatedDimension
1001
ACAD
1000
DSTYLE
1002
{
1070
    77
1070
     3
1070
   143
1040
0.0393700787
1070
    41
1040
3.0
1070
    44
1040
1.0
1070
    42
1040
1.0
1070
   147
1040
1.524
1070
    73
1070
     0
1070
    74
1070
     0
1070
   140
1040
3.5
1070
   284
1070
     0
1070
    78
1070
    12
1002
}
  0
DIMENSION
  5
139
330
1F
100
AcDbEntity
  8
SLD-0
 62
     7
100
AcDbDimension
  2
*D16
 10
136.8607830552
 20
212.8496676183
 30
0.0
 11
130.8607830552
 21
212.8496676183
 31
0.0
 70
   160
 71
     1
 42
12.0
  3
SLDDIMSTYLE0
100
AcDbAlignedDimension
 13
124.8607830552
 23
190.2497175866
 33
0.0
 14
136.8607830552
 24
190.2497175866
 34
0.0
100
AcDbRotatedDimension
1001
ACAD
1000
DSTYLE
1002
{
1070
    77
1070
     3
1070
   143
1040
0.0393700787
1070
    41
1040
3.0
1070
    44
1040
1.0
1070
    42
1040
1.0
1070
   147
1040
1.524
1070
    73
1070
     0
1070
    74
1070
     0
1070
   140
1040
3.5
1070
   284
1070
    12
1070
    78
1070
    12
1002
}
  0
DIMENSION
  5
150
330
1F
100
AcDbEntity
  8
SLD-0
 62
     7
100
AcDbDimension
  2
*D17
 10
159.2041418357
 20
190.2497175866
 30
0.0
 11
159.2041418357
 21
183.9997175866
 31
0.0
 70
   160
 71
     1
 42
12.5
  3
SLDDIMSTYLE2
100
AcDbAlignedDimension
 13
136.8607830552
 23
177.7497175866
 33
0.0
 14
136.8607830552
 24
190.2497175866
 34
0.0
 50
90.0
100
AcDbRotatedDimension
1001
ACAD
1000
DSTYLE
1002
{
1070
    77
1070
     3
1070
   143
1040
0.0393700787
1070
    41
1040
3.0
1070
    44
1040
1.0
1070
    42
1040
1.0
1070
   147
1040
1.524
1070
    73
1070
     0
1070
    74
1070
     0
1070
   140
1040
3.5
1070
   284
1070
    12
1070
    78
1070
    12
1002
}
  0
DIMENSION
  5
168
330
1F
100
AcDbEntity
  8
SLD-0
 62
     7
100
AcDbDimension
  2
*D18
 10
126.8607830552
 20
204.1393123528
 30
0.0
 11
117.6767922529
 21
204.1393123528
 31
0.0
 70
   160
 71
     1
 42
2.0
  3
SLDDIMSTYLE0
100
AcDbAlignedDimension
 13
124.8607830552
 23
190.2497175866
 33
0.0
 14
126.8607830552
 24
177.7497175866
 34
0.0
100
AcDbRotatedDimension
1001
ACAD
1000
DSTYLE
1002
{
1070
    77
1070
     3
1070
   143
1040
0.0393700787
1070
    41
1040
3.0
1070
    44
1040
1.0
1070
    42
1040
1.0
1070
   147
1040
1.524
1070
    73
1070
     0
1070
    74
1070
     0
1070
   140
1040
3.5
1070
   284
1070
    12
1070
    78
1070
    12
1002
}
  0
MTEXT
  5
184
330
1F
100
AcDbEntity
  8
SLD-0
 62
     7
100
AcDbMText
 10
169.1923262367
 20
249.8878123479
 30
0.0
 40
4.2333333333
 41
0.0
 71
     1
 72
     1
  1
(　　　)
  7
SLDTEXTSTYLE1
 73
     1
 44
1.0
  0
MTEXT
  5
185
330
1F
100
AcDbEntity
  8
SLD-0
 62
     7
100
AcDbMText
 10
161.3494396155
 20
17.3929207017
 30
0.0
 40
3.5
 41
0.0
 71
     1
 72
     1
  1
131031
  7
SLDTEXTSTYLE0
 73
     1
 44
1.0
  0
MTEXT
  5
186
330
1F
100
AcDbEntity
  8
SLD-0
 62
     7
100
AcDbMText
 10
147.4029630888
 20
29.7138882404
 30
0.0
 40
4.2333333333
 41
0.0
 71
     1
 72
     1
  1
N01911-209-1
  7
SLDTEXTSTYLE1
 73
     1
 44
1.0
  0
MTEXT
  5
188
330
1F
100
AcDbEntity
  8
SLD-0
 62
     7
100
AcDbMText
 10
145.5431400448
 20
43.2377018572
 30
0.0
 40
4.2333333333
 41
0.0
 71
     1
 72
     1
  1
20 Connecter F
  7
SLDTEXTSTYLE2
 73
     1
 44
1.0
  0
INSERT
  5
189
330
1F
100
AcDbEntity
  8
0
  6
Continuous
 62
     7
370
     0
100
AcDbBlockReference
  2
SURFACEFINISH40
 10
159.4443600604
 20
250.5749245738
 30
0.0
  0
INSERT
  5
18A
330
1F
100
AcDbEntity
  8
0
  6
Continuous
 62
     7
370
     0
100
AcDbBlockReference
  2
SURFACEFINISH41
 10
175.4785306273
 20
250.9049245738
 30
0.0
  0
INSERT
  5
18B
330
1F
100
AcDbEntity
  8
0
  6
Continuous
 62
     7
370
     0
100
AcDbBlockReference
  2
注記
 10
107.8901853056
 20
64.2315662386
 30
0.0
  0
INSERT
  5
18C
330
1F
100
AcDbEntity
  8
0
  6
Continuous
 62
     7
370
     0
100
AcDbBlockReference
  2
SW_CENTERMARK0
 10
0.0
 20
0.0
 30
0.0
  0
INSERT
  5
18D
330
1F
100
AcDbEntity
  8
0
  6
Continuous
 62
     7
370
     0
100
AcDbBlockReference
  2
SW_CENTERMARK1
 10
0.0
 20
0.0
 30
0.0
  0
INSERT
  5
18E
330
1F
100
AcDbEntity
  8
0
  6
Continuous
 62
     7
370
     0
100
AcDbBlockReference
  2
SURFACEFINISH42
 10
142.5769092345
 20
161.7796672928
 30
0.0
  0
INSERT
  5
18F
330
1F
100
AcDbEntity
  8
0
  6
Continuous
 62
     7
370
     0
100
AcDbBlockReference
  2
SURFACEFINISH43
 10
143.3729097469
 20
170.616551204
 30
0.0
  0
ENDSEC
  0
SECTION
  2
OBJECTS
  0
DICTIONARY
  5
C
330
0
100
AcDbDictionary
281
     1
  3
ACAD_GROUP
350
D
  3
ACAD_LAYOUT
350
1A
  3
ACAD_MLINESTYLE
350
17
  3
ACAD_PLOTSETTINGS
350
19
  3
ACAD_PLOTSTYLENAME
350
E
  0
DICTIONARY
  5
D
102
{ACAD_REACTORS
330
C
102
}
330
C
100
AcDbDictionary
281
     1
  0
DICTIONARY
  5
1A
102
{ACAD_REACTORS
330
C
102
}
330
C
100
AcDbDictionary
281
     1
  3
Layout1
350
1E
  3
Layout2
350
26
  3
Model
350
22
  0
DICTIONARY
  5
17
102
{ACAD_REACTORS
330
C
102
}
330
C
100
AcDbDictionary
281
     1
  3
Standard
350
18
  0
DICTIONARY
  5
19
102
{ACAD_REACTORS
330
C
102
}
330
C
100
AcDbDictionary
281
     1
  0
ACDBDICTIONARYWDFLT
  5
E
102
{ACAD_REACTORS
330
C
102
}
330
C
100
AcDbDictionary
281
     1
  3
Normal
350
F
100
AcDbDictionaryWithDefault
340
F
  0
LAYOUT
  5
1E
102
{ACAD_REACTORS
330
1A
102
}
330
1A
100
AcDbPlotSettings
  1

  2

  4

  6

 40
0.0
 41
0.0
 42
0.0
 43
0.0
 44
0.0
 45
0.0
 46
0.0
 47
0.0
 48
0.0
 49
0.0
140
0.0
141
0.0
142
1.0
143
1.0
 70
   688
 72
     0
 73
     0
 74
     5
  7

 75
    16
147
1.0
148
0.0
149
0.0
100
AcDbLayout
  1
Layout1
 70
     1
 71
     1
 10
0.0
 20
0.0
 11
0.0
 21
0.0
 12
0.0
 22
0.0
 32
0.0
 14
0.0
 24
0.0
 34
0.0
 15
0.0
 25
0.0
 35
0.0
146
0.0
 13
0.0
 23
0.0
 33
0.0
 16
1.0
 26
0.0
 36
0.0
 17
0.0
 27
1.0
 37
0.0
 76
     0
330
1B
  0
LAYOUT
  5
26
102
{ACAD_REACTORS
330
1A
102
}
330
1A
100
AcDbPlotSettings
  1

  2

  4

  6

 40
0.0
 41
0.0
 42
0.0
 43
0.0
 44
0.0
 45
0.0
 46
0.0
 47
0.0
 48
0.0
 49
0.0
140
0.0
141
0.0
142
1.0
143
1.0
 70
   688
 72
     0
 73
     0
 74
     5
  7

 75
    16
147
1.0
148
0.0
149
0.0
100
AcDbLayout
  1
Layout2
 70
     1
 71
     2
 10
0.0
 20
0.0
 11
0.0
 21
0.0
 12
0.0
 22
0.0
 32
0.0
 14
0.0
 24
0.0
 34
0.0
 15
0.0
 25
0.0
 35
0.0
146
0.0
 13
0.0
 23
0.0
 33
0.0
 16
1.0
 26
0.0
 36
0.0
 17
0.0
 27
1.0
 37
0.0
 76
     0
330
23
  0
LAYOUT
  5
22
102
{ACAD_REACTORS
330
1A
102
}
330
1A
100
AcDbPlotSettings
  1

  2

  4

  6

 40
0.0
 41
0.0
 42
0.0
 43
0.0
 44
0.0
 45
0.0
 46
0.0
 47
0.0
 48
0.0
 49
0.0
140
0.0
141
0.0
142
1.0
143
1.0
 70
  1712
 72
     0
 73
     0
 74
     0
  7

 75
     0
147
1.0
148
0.0
149
0.0
100
AcDbLayout
  1
Model
 70
     1
 71
     0
 10
0.0
 20
0.0
 11
0.0
 21
0.0
 12
0.0
 22
0.0
 32
0.0
 14
0.0
 24
0.0
 34
0.0
 15
210.0
 25
297.0
 35
0.0
146
0.0
 13
0.0
 23
0.0
 33
0.0
 16
1.0
 26
0.0
 36
0.0
 17
0.0
 27
1.0
 37
0.0
 76
     0
330
1F
  0
MLINESTYLE
  5
18
102
{ACAD_REACTORS
330
17
102
}
330
17
100
AcDbMlineStyle
  2
Standard
 70
     0
  3

 62
   256
 51
90.0
 52
90.0
 71
     2
 49
0.5
 62
   256
  6
BYLAYER
 49
-0.5
 62
   256
  6
BYLAYER
  0
ACDBPLACEHOLDER
  5
F
102
{ACAD_REACTORS
330
E
102
}
330
E
  0
ENDSEC
  0
EOF
