  0
SECTION
  2
HEADER
  9
$ACADVER
  1
AC1015
  9
$ACADMAINTVER
 70
     6
  9
$DWGCODEPAGE
  3
DOS932
  9
$INSBASE
 10
0.0
 20
0.0
 30
0.0
  9
$EXTMIN
 10
0.0
 20
0.0
 30
0.0
  9
$EXTMAX
 10
210.0
 20
297.0
 30
0.0
  9
$LIMMIN
 10
0.0
 20
0.0
  9
$LIMMAX
 10
0.0
 20
0.0
  9
$ORTHOMODE
 70
     0
  9
$REGENMODE
 70
     1
  9
$FILLMODE
 70
     1
  9
$QTEXTMODE
 70
     0
  9
$MIRRTEXT
 70
     1
  9
$LTSCALE
 40
1.0
  9
$ATTMODE
 70
     1
  9
$TEXTSIZE
 40
3.5
  9
$TRACEWID
 40
1.0
  9
$TEXTSTYLE
  7
Standard
  9
$CLAYER
  8
0
  9
$CELTYPE
  6
ByLayer
  9
$CECOLOR
 62
   256
  9
$CELTSCALE
 40
1.0
  9
$DISPSILH
 70
     0
  9
$DIMSCALE
 40
1.0
  9
$DIMASZ
 40
3.0
  9
$DIMEXO
 40
1.0
  9
$DIMDLI
 40
3.75
  9
$DIMRND
 40
0.0
  9
$DIMDLE
 40
0.0
  9
$DIMEXE
 40
1.0
  9
$DIMTP
 40
0.0
  9
$DIMTM
 40
0.0
  9
$DIMTXT
 40
3.5
  9
$DIMCEN
 40
2.5
  9
$DIMTSZ
 40
0.0
  9
$DIMTOL
 70
     0
  9
$DIMLIM
 70
     0
  9
$DIMTIH
 70
     1
  9
$DIMTOH
 70
     1
  9
$DIMSE1
 70
     0
  9
$DIMSE2
 70
     0
  9
$DIMTAD
 70
     1
  9
$DIMZIN
 70
     1
  9
$DIMBLK
  1

  9
$DIMASO
 70
     1
  9
$DIMSHO
 70
     1
  9
$DIMPOST
  1

  9
$DIMAPOST
  1

  9
$DIMALT
 70
     0
  9
$DIMALTD
 70
     3
  9
$DIMALTF
 40
0.0393700787
  9
$DIMLFAC
 40
1.0
  9
$DIMTOFL
 70
     1
  9
$DIMTVP
 40
0.0
  9
$DIMTIX
 70
     0
  9
$DIMSOXD
 70
     0
  9
$DIMSAH
 70
     0
  9
$DIMBLK1
  1

  9
$DIMBLK2
  1

  9
$DIMSTYLE
  2
ISO-25
  9
$DIMCLRD
 70
     0
  9
$DIMCLRE
 70
     0
  9
$DIMCLRT
 70
     0
  9
$DIMTFAC
 40
1.0
  9
$DIMGAP
 40
1.524
  9
$DIMJUST
 70
     0
  9
$DIMSD1
 70
     0
  9
$DIMSD2
 70
     0
  9
$DIMTOLJ
 70
     0
  9
$DIMTZIN
 70
     1
  9
$DIMALTZ
 70
     0
  9
$DIMALTTZ
 70
     0
  9
$DIMUPT
 70
     0
  9
$DIMDEC
 70
     2
  9
$DIMTDEC
 70
     2
  9
$DIMALTU
 70
     2
  9
$DIMALTTD
 70
     3
  9
$DIMTXSTY
  7
Standard
  9
$DIMAUNIT
 70
     0
  9
$DIMADEC
 70
     0
  9
$DIMALTRND
 40
0.0
  9
$DIMAZIN
 70
     0
  9
$DIMDSEP
 70
    44
  9
$DIMATFIT
 70
     3
  9
$DIMFRAC
 70
     0
  9
$DIMLDRBLK
  1

  9
$DIMLUNIT
 70
     2
  9
$DIMLWD
 70
    -2
  9
$DIMLWE
 70
    -2
  9
$DIMTMOVE
 70
     0
  9
$LUNITS
 70
     2
  9
$LUPREC
 70
     1
  9
$SKETCHINC
 40
1.0
  9
$FILLETRAD
 40
10.0
  9
$AUNITS
 70
     0
  9
$AUPREC
 70
     0
  9
$MENU
  1
.
  9
$ELEVATION
 40
0.0
  9
$PELEVATION
 40
0.0
  9
$THICKNESS
 40
0.0
  9
$LIMCHECK
 70
     0
  9
$CHAMFERA
 40
10.0
  9
$CHAMFERB
 40
10.0
  9
$CHAMFERC
 40
20.0
  9
$CHAMFERD
 40
0.0
  9
$SKPOLY
 70
     0
  9
$TDCREATE
 40
2454309.38739728
  9
$TDUCREATE
 40
2454309.01239728
  9
$TDUPDATE
 40
2454309.387397292
  9
$TDUUPDATE
 40
2454309.012397292
  9
$TDINDWG
 40
0.0000000116
  9
$TDUSRTIMER
 40
0.0000000116
  9
$USRTIMER
 70
     1
  9
$ANGBASE
 50
0.0
  9
$ANGDIR
 70
     0
  9
$PDMODE
 70
     0
  9
$PDSIZE
 40
-1.0
  9
$PLINEWID
 40
0.0
  9
$SPLFRAME
 70
     0
  9
$SPLINETYPE
 70
     6
  9
$SPLINESEGS
 70
     8
  9
$HANDSEED
  5
234
  9
$SURFTAB1
 70
     6
  9
$SURFTAB2
 70
     6
  9
$SURFTYPE
 70
     6
  9
$SURFU
 70
     6
  9
$SURFV
 70
     6
  9
$UCSBASE
  2

  9
$UCSNAME
  2

  9
$UCSORG
 10
0.0
 20
0.0
 30
0.0
  9
$UCSXDIR
 10
1.0
 20
0.0
 30
0.0
  9
$UCSYDIR
 10
0.0
 20
1.0
 30
0.0
  9
$UCSORTHOREF
  2

  9
$UCSORTHOVIEW
 70
     0
  9
$UCSORGTOP
 10
0.0
 20
0.0
 30
0.0
  9
$UCSORGBOTTOM
 10
0.0
 20
0.0
 30
0.0
  9
$UCSORGLEFT
 10
0.0
 20
0.0
 30
0.0
  9
$UCSORGRIGHT
 10
0.0
 20
0.0
 30
0.0
  9
$UCSORGFRONT
 10
0.0
 20
0.0
 30
0.0
  9
$UCSORGBACK
 10
0.0
 20
0.0
 30
0.0
  9
$PUCSBASE
  2

  9
$PUCSNAME
  2

  9
$PUCSORG
 10
0.0
 20
0.0
 30
0.0
  9
$PUCSXDIR
 10
1.0
 20
0.0
 30
0.0
  9
$PUCSYDIR
 10
0.0
 20
1.0
 30
0.0
  9
$PUCSORTHOREF
  2

  9
$PUCSORTHOVIEW
 70
     0
  9
$PUCSORGTOP
 10
0.0
 20
0.0
 30
0.0
  9
$PUCSORGBOTTOM
 10
0.0
 20
0.0
 30
0.0
  9
$PUCSORGLEFT
 10
0.0
 20
0.0
 30
0.0
  9
$PUCSORGRIGHT
 10
0.0
 20
0.0
 30
0.0
  9
$PUCSORGFRONT
 10
0.0
 20
0.0
 30
0.0
  9
$PUCSORGBACK
 10
0.0
 20
0.0
 30
0.0
  9
$USERI1
 70
     0
  9
$USERI2
 70
     0
  9
$USERI3
 70
     0
  9
$USERI4
 70
     0
  9
$USERI5
 70
     0
  9
$USERR1
 40
0.0
  9
$USERR2
 40
0.0
  9
$USERR3
 40
0.0
  9
$USERR4
 40
0.0
  9
$USERR5
 40
0.0
  9
$WORLDVIEW
 70
     1
  9
$SHADEDGE
 70
     3
  9
$SHADEDIF
 70
    70
  9
$TILEMODE
 70
     1
  9
$MAXACTVP
 70
    64
  9
$PINSBASE
 10
0.0
 20
0.0
 30
0.0
  9
$PLIMCHECK
 70
     0
  9
$PEXTMIN
 10
1.0000000000E+20
 20
1.0000000000E+20
 30
1.0000000000E+20
  9
$PEXTMAX
 10
-1.0000000000E+20
 20
-1.0000000000E+20
 30
-1.0000000000E+20
  9
$PLIMMIN
 10
0.0
 20
0.0
  9
$PLIMMAX
 10
420.0
 20
297.0
  9
$UNITMODE
 70
     0
  9
$VISRETAIN
 70
     1
  9
$PLINEGEN
 70
     0
  9
$PSLTSCALE
 70
     1
  9
$TREEDEPTH
 70
  3020
  9
$CMLSTYLE
  2
Standard
  9
$CMLJUST
 70
     0
  9
$CMLSCALE
 40
20.0
  9
$PROXYGRAPHICS
 70
     1
  9
$MEASUREMENT
 70
     1
  9
$CELWEIGHT
370
    -1
  9
$ENDCAPS
280
     0
  9
$JOINSTYLE
280
     0
  9
$LWDISPLAY
290
     1
  9
$INSUNITS
 70
     4
  9
$HYPERLINKBASE
  1

  9
$STYLESHEET
  1

  9
$XEDIT
290
     1
  9
$CEPSNTYPE
380
     0
  9
$PSTYLEMODE
290
     1
  9
$FINGERPRINTGUID
  2
{501BF682-A1DF-47A3-A786-48C70E93D81C}
  9
$VERSIONGUID
  2
{FAEB1C32-E019-11D5-929B-00C0DF256EC4}
  9
$EXTNAMES
290
     1
  9
$PSVPSCALE
 40
0.0
  9
$OLESTARTUP
290
     0
  0
ENDSEC
  0
SECTION
  2
CLASSES
  0
CLASS
  1
ACDBDICTIONARYWDFLT
  2
AcDbDictionaryWithDefault
  3
ObjectDBX Classes
 90
        0
280
     0
281
     0
  0
CLASS
  1
ACDBPLACEHOLDER
  2
AcDbPlaceHolder
  3
ObjectDBX Classes
 90
        0
280
     0
281
     0
  0
CLASS
  1
LAYOUT
  2
AcDbLayout
  3
ObjectDBX Classes
 90
        0
280
     0
281
     0
  0
ENDSEC
  0
SECTION
  2
TABLES
  0
TABLE
  2
VPORT
  5
8
330
0
100
AcDbSymbolTable
 70
     1
  0
VPORT
  5
29
330
8
100
AcDbSymbolTableRecord
100
AcDbViewportTableRecord
  2
*Active
 70
     0
 10
0.0
 20
0.0
 11
1.0
 21
1.0
 12
105.0
 22
148.5
 13
0.0
 23
0.0
 14
10.0
 24
10.0
 15
10.0
 25
10.0
 16
0.0
 26
0.0
 36
1.0
 17
0.0
 27
0.0
 37
0.0
 40
297.0
 41
1.9729729729
 42
50.0
 43
0.0
 44
0.0
 50
0.0
 51
0.0
 71
     0
 72
  2000
 73
     1
 74
     3
 75
     0
 76
     0
 77
     0
 78
     0
281
     0
 65
     1
110
0.0
120
0.0
130
0.0
111
1.0
121
0.0
131
0.0
112
0.0
122
1.0
132
0.0
 79
     0
146
0.0
  0
ENDTAB
  0
TABLE
  2
LTYPE
  5
5
330
0
100
AcDbSymbolTable
 70
     6
  0
LTYPE
  5
14
330
5
100
AcDbSymbolTableRecord
100
AcDbLinetypeTableRecord
  2
ByBlock
 70
     0
  3

 72
    65
 73
     0
 40
0.0
  0
LTYPE
  5
15
330
5
100
AcDbSymbolTableRecord
100
AcDbLinetypeTableRecord
  2
ByLayer
 70
     0
  3

 72
    65
 73
     0
 40
0.0
  0
LTYPE
  5
16
330
5
100
AcDbSymbolTableRecord
100
AcDbLinetypeTableRecord
  2
Continuous
 70
     0
  3
Solid line
 72
    65
 73
     0
 40
0.0
  0
LTYPE
  5
2A
330
5
100
AcDbSymbolTableRecord
100
AcDbLinetypeTableRecord
  2
HIDDEN
 70
     0
  3
Hidden __ __ __ __ __ __ __ __ __ __ __ __ __ __
 72
    65
 73
     2
 40
1.905
 49
1.27
 74
     0
 49
-0.635
 74
     0
  0
LTYPE
  5
2B
330
5
100
AcDbSymbolTableRecord
100
AcDbLinetypeTableRecord
  2
PHANTOM
 70
     0
  3
Phantom ______  __  __  ______  __  __  ______
 72
    65
 73
     6
 40
12.7
 49
6.35
 74
     0
 49
-1.27
 74
     0
 49
1.27
 74
     0
 49
-1.27
 74
     0
 49
1.27
 74
     0
 49
-1.27
 74
     0
  0
LTYPE
  5
2C
330
5
100
AcDbSymbolTableRecord
100
AcDbLinetypeTableRecord
  2
CENTER
 70
     0
  3
Center ____ _ ____ _ ____ _ ____ _ ____ _ ____
 72
    65
 73
     4
 40
10.16
 49
6.35
 74
     0
 49
-1.27
 74
     0
 49
1.27
 74
     0
 49
-1.27
 74
     0
  0
LTYPE
  5
2D
330
5
100
AcDbSymbolTableRecord
100
AcDbLinetypeTableRecord
  2
CENTERX2
 70
     0
  3
Center (2x) ________  __  ________  __  _____
 72
    65
 73
     4
 40
20.32
 49
12.7
 74
     0
 49
-2.54
 74
     0
 49
2.54
 74
     0
 49
-2.54
 74
     0
  0
LTYPE
  5
2E
330
5
100
AcDbSymbolTableRecord
100
AcDbLinetypeTableRecord
  2
DOT2
 70
     0
  3
Dot (.5x) ........................................
 72
    65
 73
     2
 40
0.635
 49
0.0
 74
     0
 49
-0.635
 74
     0
  0
ENDTAB
  0
TABLE
  2
LAYER
  5
2
330
0
100
AcDbSymbolTable
 70
     4
  0
LAYER
  5
10
330
2
100
AcDbSymbolTableRecord
100
AcDbLayerTableRecord
  2
0
 70
     0
 62
     7
  6
Continuous
370
    -3
390
F
  0
LAYER
  5
2F
330
2
100
AcDbSymbolTableRecord
100
AcDbLayerTableRecord
  2
SLD-0
 70
     0
 62
   179
  6
Continuous
370
     0
390
F
  0
LAYER
  5
30
330
2
100
AcDbSymbolTableRecord
100
AcDbLayerTableRecord
  2
SLD-DEFPOINTS
 70
     0
 62
   179
  6
Continuous
370
     0
390
F
  0
LAYER
  5
EC
330
2
100
AcDbSymbolTableRecord
100
AcDbLayerTableRecord
  2
Defpoints
 70
     0
 62
     7
  6
Continuous
290
     0
370
    -3
390
F
  0
ENDTAB
  0
TABLE
  2
STYLE
  5
3
330
0
100
AcDbSymbolTable
 70
     4
  0
STYLE
  5
11
330
3
100
AcDbSymbolTableRecord
100
AcDbTextStyleTableRecord
  2
Standard
 70
     0
 40
0.0
 41
1.0
 50
0.0
 71
     0
 42
2.5
  3
txt
  4
bigfont
  0
STYLE
  5
34
330
3
100
AcDbSymbolTableRecord
100
AcDbTextStyleTableRecord
  2
SLDTEXTSTYLE0
 70
     0
 40
0.0
 41
0.7
 50
0.0
 71
     0
 42
0.2
  3
TXT
  4
bigfont
  0
STYLE
  5
3C
330
3
100
AcDbSymbolTableRecord
100
AcDbTextStyleTableRecord
  2
SLDTEXTSTYLE1
 70
     0
 40
0.0
 41
0.5526315789
 50
0.0
 71
     0
 42
0.2
  3
TXT
  4
bigfont
  0
STYLE
  5
228
330
3
100
AcDbSymbolTableRecord
100
AcDbTextStyleTableRecord
  2
SLDTEXTSTYLE2
 70
     0
 40
0.0
 41
0.4844205882
 50
0.0
 71
     0
 42
0.2
  3
TXT
  4
bigfont
  0
ENDTAB
  0
TABLE
  2
VIEW
  5
6
330
0
100
AcDbSymbolTable
 70
     0
  0
ENDTAB
  0
TABLE
  2
UCS
  5
7
330
0
100
AcDbSymbolTable
 70
     0
  0
ENDTAB
  0
TABLE
  2
APPID
  5
9
330
0
100
AcDbSymbolTable
 70
     1
  0
APPID
  5
12
330
9
100
AcDbSymbolTableRecord
100
AcDbRegAppTableRecord
  2
ACAD
 70
     0
  0
ENDTAB
  0
TABLE
  2
DIMSTYLE
  5
A
330
0
100
AcDbSymbolTable
 70
     6
100
AcDbDimStyleTable
  0
DIMSTYLE
105
27
330
A
100
AcDbSymbolTableRecord
100
AcDbDimStyleTableRecord
  2
ISO-25
 70
     0
 41
2.5
 42
0.625
 43
3.75
 44
1.25
 73
     0
 74
     0
 77
     1
 78
     8
140
2.5
141
2.5
143
0.0393700787
147
0.625
171
     3
172
     1
271
     2
272
     2
274
     3
278
    44
283
     0
284
     8
340
11
  0
DIMSTYLE
105
F9
102
{ACAD_REACTORS
330
EB
102
}
330
A
100
AcDbSymbolTableRecord
100
AcDbDimStyleTableRecord
  2
SLDDIMSTYLE0
 70
     0
 41
3.0
 44
0.0
 47
0.1
 71
     1
 73
     0
 74
     0
 77
     3
 78
    12
140
3.5
147
0.875
173
     1
271
     0
272
     1
340
3C
341
FA
343
FA
344
FA
  0
DIMSTYLE
105
117
102
{ACAD_REACTORS
330
10A
330
124
330
13C
330
156
330
16E
330
185
330
19C
330
1C5
330
1DF
102
}
330
A
100
AcDbSymbolTableRecord
100
AcDbDimStyleTableRecord
  2
SLDDIMSTYLE1
 70
     0
 41
3.0
 44
0.0
 73
     0
 74
     0
 77
     3
 78
    12
140
3.5
147
0.875
173
     1
271
     0
272
     3
284
    12
340
3C
341
FA
343
FA
344
FA
  0
DIMSTYLE
105
1BD
102
{ACAD_REACTORS
330
1B3
102
}
330
A
100
AcDbSymbolTableRecord
100
AcDbDimStyleTableRecord
  2
SLDDIMSTYLE2
 70
     0
 41
3.0
 44
0.0
 78
    12
140
3.5
147
0.875
172
     1
173
     1
271
     0
272
     3
284
    12
340
3C
341
FA
343
FA
344
FA
  0
DIMSTYLE
105
206
102
{ACAD_REACTORS
330
1F8
102
}
330
A
100
AcDbSymbolTableRecord
100
AcDbDimStyleTableRecord
  2
SLDDIMSTYLE3
 70
     0
 41
3.0
 44
0.0
 73
     0
 74
     0
 77
     3
 78
    12
140
3.5
147
0.875
173
     1
271
     1
272
     3
284
    12
340
3C
341
FA
343
FA
344
FA
  0
DIMSTYLE
105
21B
102
{ACAD_REACTORS
330
211
102
}
330
A
100
AcDbSymbolTableRecord
100
AcDbDimStyleTableRecord
  2
SLDDIMSTYLE4
 70
     0
 41
3.0
 44
0.0
 78
    12
140
3.5
147
0.875
172
     1
173
     1
271
     1
272
     3
284
    12
340
3C
341
FA
343
FA
344
FA
  0
ENDTAB
  0
TABLE
  2
BLOCK_RECORD
  5
1
330
0
100
AcDbSymbolTable
 70
    24
  0
BLOCK_RECORD
  5
1F
330
1
100
AcDbSymbolTableRecord
100
AcDbBlockTableRecord
  2
*Model_Space
340
22
  0
BLOCK_RECORD
  5
1B
330
1
100
AcDbSymbolTableRecord
100
AcDbBlockTableRecord
  2
*Paper_Space
340
1E
  0
BLOCK_RECORD
  5
23
330
1
100
AcDbSymbolTableRecord
100
AcDbBlockTableRecord
  2
*Paper_Space0
340
26
  0
BLOCK_RECORD
  5
31
330
1
100
AcDbSymbolTableRecord
100
AcDbBlockTableRecord
  2
注記
340
0
102
{BLKREFS
331
22D
102
}
  0
BLOCK_RECORD
  5
37
330
1
100
AcDbSymbolTableRecord
100
AcDbBlockTableRecord
  2
SURFACEFINISH40
340
0
102
{BLKREFS
331
22B
102
}
  0
BLOCK_RECORD
  5
3E
330
1
100
AcDbSymbolTableRecord
100
AcDbBlockTableRecord
  2
SURFACEFINISH41
340
0
102
{BLKREFS
331
22C
102
}
  0
BLOCK_RECORD
  5
45
330
1
100
AcDbSymbolTableRecord
100
AcDbBlockTableRecord
  2
NOTE42
340
0
102
{BLKREFS
331
22E
102
}
  0
BLOCK_RECORD
  5
4F
330
1
100
AcDbSymbolTableRecord
100
AcDbBlockTableRecord
  2
SURFACEFINISH43
340
0
102
{BLKREFS
331
22F
102
}
  0
BLOCK_RECORD
  5
57
330
1
100
AcDbSymbolTableRecord
100
AcDbBlockTableRecord
  2
SURFACEFINISH44
340
0
102
{BLKREFS
331
230
102
}
  0
BLOCK_RECORD
  5
5F
330
1
100
AcDbSymbolTableRecord
100
AcDbBlockTableRecord
  2
SW_CENTERMARK0
340
0
102
{BLKREFS
331
231
102
}
  0
BLOCK_RECORD
  5
6A
330
1
100
AcDbSymbolTableRecord
100
AcDbBlockTableRecord
  2
SW_CENTERMARK1
340
0
102
{BLKREFS
331
232
102
}
  0
BLOCK_RECORD
  5
75
330
1
100
AcDbSymbolTableRecord
100
AcDbBlockTableRecord
  2
SW_CENTERMARK2
340
0
102
{BLKREFS
331
233
102
}
  0
BLOCK_RECORD
  5
ED
330
1
100
AcDbSymbolTableRecord
100
AcDbBlockTableRecord
  2
*D10
340
0
  0
BLOCK_RECORD
  5
FA
330
1
100
AcDbSymbolTableRecord
100
AcDbBlockTableRecord
  2
_None
340
0
102
{BLKREFS
331
F2
331
F1
331
110
331
10F
331
12A
331
129
331
142
331
141
331
15C
331
15B
331
174
331
173
331
18B
331
18A
331
1A2
331
1A1
331
1B8
331
1CB
331
1CA
331
1E5
331
1E4
331
1FE
331
1FD
331
216
102
}
  0
BLOCK_RECORD
  5
10B
330
1
100
AcDbSymbolTableRecord
100
AcDbBlockTableRecord
  2
*D12
340
0
  0
BLOCK_RECORD
  5
125
330
1
100
AcDbSymbolTableRecord
100
AcDbBlockTableRecord
  2
*D13
340
0
  0
BLOCK_RECORD
  5
13D
330
1
100
AcDbSymbolTableRecord
100
AcDbBlockTableRecord
  2
*D14
340
0
  0
BLOCK_RECORD
  5
157
330
1
100
AcDbSymbolTableRecord
100
AcDbBlockTableRecord
  2
*D15
340
0
  0
BLOCK_RECORD
  5
16F
330
1
100
AcDbSymbolTableRecord
100
AcDbBlockTableRecord
  2
*D16
340
0
  0
BLOCK_RECORD
  5
186
330
1
100
AcDbSymbolTableRecord
100
AcDbBlockTableRecord
  2
*D17
340
0
  0
BLOCK_RECORD
  5
19D
330
1
100
AcDbSymbolTableRecord
100
AcDbBlockTableRecord
  2
*D18
340
0
  0
BLOCK_RECORD
  5
1B4
330
1
100
AcDbSymbolTableRecord
100
AcDbBlockTableRecord
  2
*D19
340
0
  0
BLOCK_RECORD
  5
1C6
330
1
100
AcDbSymbolTableRecord
100
AcDbBlockTableRecord
  2
*D20
340
0
  0
BLOCK_RECORD
  5
1E0
330
1
100
AcDbSymbolTableRecord
100
AcDbBlockTableRecord
  2
*D21
340
0
  0
BLOCK_RECORD
  5
1F9
330
1
100
AcDbSymbolTableRecord
100
AcDbBlockTableRecord
  2
*D22
340
0
  0
BLOCK_RECORD
  5
212
330
1
100
AcDbSymbolTableRecord
100
AcDbBlockTableRecord
  2
*D23
340
0
  0
ENDTAB
  0
ENDSEC
  0
SECTION
  2
BLOCKS
  0
BLOCK
  5
20
330
1F
100
AcDbEntity
  8
0
100
AcDbBlockBegin
  2
*Model_Space
 70
     0
 71
     0
 10
0.0
 20
0.0
 30
0.0
  3
*Model_Space
  1

  0
ENDBLK
  5
21
330
1F
100
AcDbEntity
  8
0
100
AcDbBlockEnd
  0
BLOCK
  5
1C
330
1B
100
AcDbEntity
 67
     1
  8
0
100
AcDbBlockBegin
  2
*Paper_Space
 70
     0
 71
     0
 10
0.0
 20
0.0
 30
0.0
  3
*Paper_Space
  1

  0
ENDBLK
  5
1D
330
1B
100
AcDbEntity
 67
     1
  8
0
100
AcDbBlockEnd
  0
BLOCK
  5
24
330
23
100
AcDbEntity
  8
0
100
AcDbBlockBegin
  2
*Paper_Space0
 70
     0
 71
     0
 10
0.0
 20
0.0
 30
0.0
  3
*Paper_Space0
  1

  0
ENDBLK
  5
25
330
23
100
AcDbEntity
  8
0
100
AcDbBlockEnd
  0
BLOCK
  5
32
330
31
100
AcDbEntity
  8
0
100
AcDbBlockBegin
  2
注記
 70
     0
 71
     0
 10
0.0
 20
0.0
 30
0.0
  3
注記
  1

  0
MTEXT
  5
35
330
31
100
AcDbEntity
  8
0
  6
Continuous
 62
     7
370
     0
100
AcDbMText
 10
0.2636785918
 20
9.0739778448
 30
0.0
 40
3.5
 41
0.0
 71
     1
 72
     1
  1
１．特記ナキ角部ハ、バリ　カエリノ無キコト。
  7
SLDTEXTSTYLE0
 73
     1
 44
1.0
  0
MTEXT
  5
36
330
31
100
AcDbEntity
  8
0
  6
Continuous
 62
     7
370
     0
100
AcDbMText
 10
0.2636785918
 20
3.5759549983
 30
0.0
 40
3.5
 41
0.0
 71
     1
 72
     1
  1
２．特記ナキ隅部ハ、Ｒ０．４ＭＡＸトスル。
  7
SLDTEXTSTYLE0
 73
     1
 44
1.0
  0
ENDBLK
  5
33
330
31
100
AcDbEntity
  8
0
100
AcDbBlockEnd
  0
BLOCK
  5
38
330
37
100
AcDbEntity
  8
0
100
AcDbBlockBegin
  2
SURFACEFINISH40
 70
     0
 71
     0
 10
0.0
 20
0.0
 30
0.0
  3
SURFACEFINISH40
  1

  0
LINE
  5
3A
330
37
100
AcDbEntity
  8
SLD-0
  6
Continuous
 62
   179
100
AcDbLine
 10
0.6656399396
 20
-6.0449245738
 30
0.0
 11
-2.9003789868
 21
0.0000001164
 31
0.0
  0
LINE
  5
3B
330
37
100
AcDbEntity
  8
SLD-0
  6
Continuous
 62
   179
100
AcDbLine
 10
0.6656399396
 20
-6.0449245738
 30
0.0
 11
7.7976777926
 21
6.0449248066
 31
0.0
  0
MTEXT
  5
3D
330
37
100
AcDbEntity
  8
SLD-0
100
AcDbMText
 10
0.0
 20
4.9341236929
 30
0.0
 40
3.175
 41
0.0
 71
     1
 72
     1
  1
25
  7
SLDTEXTSTYLE1
 73
     1
 44
1.0
  0
ENDBLK
  5
39
330
37
100
AcDbEntity
  8
0
100
AcDbBlockEnd
  0
BLOCK
  5
3F
330
3E
100
AcDbEntity
  8
0
100
AcDbBlockBegin
  2
SURFACEFINISH41
 70
     0
 71
     0
 10
0.0
 20
0.0
 30
0.0
  3
SURFACEFINISH41
  1

  0
LINE
  5
41
330
3E
100
AcDbEntity
  8
SLD-0
  6
Continuous
 62
   179
100
AcDbLine
 10
2.7814693727
 20
-6.0449245738
 30
0.0
 11
-0.7845495538
 21
0.0000001164
 31
0.0
  0
LINE
  5
42
330
3E
100
AcDbEntity
  8
SLD-0
  6
Continuous
 62
   179
100
AcDbLine
 10
6.3474882992
 20
0.0000001164
 30
0.0
 11
-0.7845495538
 21
0.0000001164
 31
0.0
  0
LINE
  5
43
330
3E
100
AcDbEntity
  8
SLD-0
  6
Continuous
 62
   179
100
AcDbLine
 10
2.7814693727
 20
-6.0449245738
 30
0.0
 11
9.9135072256
 21
6.0449248066
 31
0.0
  0
MTEXT
  5
44
330
3E
100
AcDbEntity
  8
SLD-0
100
AcDbMText
 10
0.0
 20
4.9341236929
 30
0.0
 40
3.175
 41
0.0
 71
     1
 72
     1
  1
6.3
  7
SLDTEXTSTYLE1
 73
     1
 44
1.0
  0
ENDBLK
  5
40
330
3E
100
AcDbEntity
  8
0
100
AcDbBlockEnd
  0
BLOCK
  5
46
330
45
100
AcDbEntity
  8
0
100
AcDbBlockBegin
  2
NOTE42
 70
     0
 71
     0
 10
0.0
 20
0.0
 30
0.0
  3
NOTE42
  1

  0
LINE
  5
48
330
45
100
AcDbEntity
  8
SLD-0
  6
Continuous
 62
   179
100
AcDbLine
 10
0.0
 20
0.0
 30
0.0
 11
8.1453951749
 21
0.0
 31
0.0
  0
LINE
  5
49
330
45
100
AcDbEntity
  8
SLD-0
  6
Continuous
 62
   179
100
AcDbLine
 10
8.1453951749
 20
0.0
 30
0.0
 11
0.0
 21
0.0
 31
0.0
  0
LINE
  5
4A
330
45
100
AcDbEntity
  8
SLD-0
  6
Continuous
 62
   179
100
AcDbLine
 10
0.0
 20
0.0
 30
0.0
 11
8.1453951749
 21
0.0
 31
0.0
  0
LINE
  5
4B
330
45
100
AcDbEntity
  8
SLD-0
  6
Continuous
 62
   179
100
AcDbLine
 10
8.1453951749
 20
0.0
 30
0.0
 11
0.0
 21
0.0
 31
0.0
  0
LINE
  5
4C
330
45
100
AcDbEntity
  8
SLD-0
  6
Continuous
 62
   179
100
AcDbLine
 10
0.0
 20
0.0
 30
0.0
 11
8.1453951749
 21
0.0
 31
0.0
  0
LINE
  5
4D
330
45
100
AcDbEntity
  8
SLD-0
  6
Continuous
 62
   179
100
AcDbLine
 10
8.1453951749
 20
0.0
 30
0.0
 11
0.0
 21
0.0
 31
0.0
  0
MTEXT
  5
4E
330
45
100
AcDbEntity
  8
SLD-0
100
AcDbMText
 10
0.0001778446
 20
3.931602548
 30
0.0
 40
3.5
 41
0.0
 71
     1
 72
     1
  1
4-C3
  7
SLDTEXTSTYLE1
 73
     1
 44
1.0
  0
ENDBLK
  5
47
330
45
100
AcDbEntity
  8
0
100
AcDbBlockEnd
  0
BLOCK
  5
50
330
4F
100
AcDbEntity
  8
0
100
AcDbBlockBegin
  2
SURFACEFINISH43
 70
     0
 71
     0
 10
0.0
 20
0.0
 30
0.0
  3
SURFACEFINISH43
  1

  0
LINE
  5
52
330
4F
100
AcDbEntity
  8
SLD-0
  6
Continuous
 62
   179
100
AcDbLine
 10
-6.8510557915
 20
6.7860637432
 30
0.0
 11
-6.8510557915
 21
1.377345951
 31
0.0
  0
LINE
  5
53
330
4F
100
AcDbEntity
  8
SLD-0
  6
Continuous
 62
   179
100
AcDbLine
 10
-6.8510557915
 20
2.377345951
 30
0.0
 11
-2.821105998
 21
4.754691902
 31
0.0
  0
LINE
  5
54
330
4F
100
AcDbEntity
  8
SLD-0
  6
Continuous
 62
   179
100
AcDbLine
 10
-2.821105998
 20
0.0
 30
0.0
 11
-2.821105998
 21
4.754691902
 31
0.0
  0
LINE
  5
55
330
4F
100
AcDbEntity
  8
SLD-0
  6
Continuous
 62
   179
100
AcDbLine
 10
-6.8510557915
 20
2.377345951
 30
0.0
 11
1.2088437954
 21
-2.377345951
 31
0.0
  0
MTEXT
  5
56
330
4F
100
AcDbEntity
  8
SLD-0
100
AcDbMText
 10
-2.9130973836
 20
0.0
 30
0.0
 40
2.1166666667
 41
0.0
 71
     1
 72
     1
  1
6.3
  7
SLDTEXTSTYLE1
 11
6.123031769111886E-17
 21
1.0
 31
0.0
 73
     1
 44
1.0
  0
ENDBLK
  5
51
330
4F
100
AcDbEntity
  8
0
100
AcDbBlockEnd
  0
BLOCK
  5
58
330
57
100
AcDbEntity
  8
0
100
AcDbBlockBegin
  2
SURFACEFINISH44
 70
     0
 71
     0
 10
0.0
 20
0.0
 30
0.0
  3
SURFACEFINISH44
  1

  0
LINE
  5
5A
330
57
100
AcDbEntity
  8
SLD-0
  6
Continuous
 62
   179
100
AcDbLine
 10
4.0299497062
 20
7.601993461
 30
0.0
 11
4.0299497062
 21
0.8543129151
 31
0.0
  0
LINE
  5
5B
330
57
100
AcDbEntity
  8
SLD-0
  6
Continuous
 62
   179
100
AcDbLine
 10
4.0299497062
 20
1.8543129151
 30
0.0
 11
-0.0000000873
 21
-0.5230330359
 31
0.0
  0
LINE
  5
5C
330
57
100
AcDbEntity
  8
SLD-0
  6
Continuous
 62
   179
100
AcDbLine
 10
-0.0000000873
 20
4.2316588661
 30
0.0
 11
-0.0000000873
 21
-0.5230330359
 31
0.0
  0
LINE
  5
5D
330
57
100
AcDbEntity
  8
SLD-0
  6
Continuous
 62
   179
100
AcDbLine
 10
4.0299497062
 20
1.8543129151
 30
0.0
 11
-4.0299498808
 21
6.6090048171
 31
0.0
  0
MTEXT
  5
5E
330
57
100
AcDbEntity
  8
SLD-0
100
AcDbMText
 10
-2.9130973836
 20
0.0
 30
0.0
 40
2.1166666667
 41
0.0
 71
     1
 72
     1
  1
6.3
  7
SLDTEXTSTYLE1
 11
6.123031769111886E-17
 21
1.0
 31
0.0
 73
     1
 44
1.0
  0
ENDBLK
  5
59
330
57
100
AcDbEntity
  8
0
100
AcDbBlockEnd
  0
BLOCK
  5
60
330
5F
100
AcDbEntity
  8
0
100
AcDbBlockBegin
  2
SW_CENTERMARK0
 70
     0
 71
     0
 10
0.0
 20
0.0
 30
0.0
  3
SW_CENTERMARK0
  1

  0
LINE
  5
62
330
5F
100
AcDbEntity
  8
SLD-0
  6
Continuous
 62
   179
100
AcDbLine
 10
86.0427191063
 20
201.63
 30
0.0
 11
86.0427191063
 21
204.13
 31
0.0
  0
LINE
  5
63
330
5F
100
AcDbEntity
  8
SLD-0
  6
Continuous
 62
   179
100
AcDbLine
 10
86.0427191063
 20
201.63
 30
0.0
 11
83.5427191063
 21
201.63
 31
0.0
  0
LINE
  5
64
330
5F
100
AcDbEntity
  8
SLD-0
  6
Continuous
 62
   179
100
AcDbLine
 10
86.0427191063
 20
201.63
 30
0.0
 11
86.0427191063
 21
199.13
 31
0.0
  0
LINE
  5
65
330
5F
100
AcDbEntity
  8
SLD-0
  6
Continuous
 62
   179
100
AcDbLine
 10
86.0427191063
 20
201.63
 30
0.0
 11
88.5427191063
 21
201.63
 31
0.0
  0
LINE
  5
66
330
5F
100
AcDbEntity
  8
SLD-0
  6
Continuous
 62
   179
100
AcDbLine
 10
86.0427191063
 20
204.13
 30
0.0
 11
86.0427191063
 21
206.63
 31
0.0
  0
LINE
  5
67
330
5F
100
AcDbEntity
  8
SLD-0
  6
Continuous
 62
   179
100
AcDbLine
 10
83.5427191063
 20
201.63
 30
0.0
 11
81.0427191063
 21
201.63
 31
0.0
  0
LINE
  5
68
330
5F
100
AcDbEntity
  8
SLD-0
  6
Continuous
 62
   179
100
AcDbLine
 10
86.0427191063
 20
199.13
 30
0.0
 11
86.0427191063
 21
196.63
 31
0.0
  0
LINE
  5
69
330
5F
100
AcDbEntity
  8
SLD-0
  6
Continuous
 62
   179
100
AcDbLine
 10
88.5427191063
 20
201.63
 30
0.0
 11
91.0427191063
 21
201.63
 31
0.0
  0
ENDBLK
  5
61
330
5F
100
AcDbEntity
  8
0
100
AcDbBlockEnd
  0
BLOCK
  5
6B
330
6A
100
AcDbEntity
  8
0
100
AcDbBlockBegin
  2
SW_CENTERMARK1
 70
     0
 71
     0
 10
0.0
 20
0.0
 30
0.0
  3
SW_CENTERMARK1
  1

  0
LINE
  5
6D
330
6A
100
AcDbEntity
  8
SLD-0
  6
Continuous
 62
   179
100
AcDbLine
 10
56.0427191063
 20
201.63
 30
0.0
 11
56.0427191063
 21
204.13
 31
0.0
  0
LINE
  5
6E
330
6A
100
AcDbEntity
  8
SLD-0
  6
Continuous
 62
   179
100
AcDbLine
 10
56.0427191063
 20
201.63
 30
0.0
 11
53.5427191063
 21
201.63
 31
0.0
  0
LINE
  5
6F
330
6A
100
AcDbEntity
  8
SLD-0
  6
Continuous
 62
   179
100
AcDbLine
 10
56.0427191063
 20
201.63
 30
0.0
 11
56.0427191063
 21
199.13
 31
0.0
  0
LINE
  5
70
330
6A
100
AcDbEntity
  8
SLD-0
  6
Continuous
 62
   179
100
AcDbLine
 10
56.0427191063
 20
201.63
 30
0.0
 11
58.5427191063
 21
201.63
 31
0.0
  0
LINE
  5
71
330
6A
100
AcDbEntity
  8
SLD-0
  6
Continuous
 62
   179
100
AcDbLine
 10
56.0427191063
 20
204.13
 30
0.0
 11
56.0427191063
 21
206.63
 31
0.0
  0
LINE
  5
72
330
6A
100
AcDbEntity
  8
SLD-0
  6
Continuous
 62
   179
100
AcDbLine
 10
53.5427191063
 20
201.63
 30
0.0
 11
51.0427191063
 21
201.63
 31
0.0
  0
LINE
  5
73
330
6A
100
AcDbEntity
  8
SLD-0
  6
Continuous
 62
   179
100
AcDbLine
 10
56.0427191063
 20
199.13
 30
0.0
 11
56.0427191063
 21
196.63
 31
0.0
  0
LINE
  5
74
330
6A
100
AcDbEntity
  8
SLD-0
  6
Continuous
 62
   179
100
AcDbLine
 10
58.5427191063
 20
201.63
 30
0.0
 11
61.0427191063
 21
201.63
 31
0.0
  0
ENDBLK
  5
6C
330
6A
100
AcDbEntity
  8
0
100
AcDbBlockEnd
  0
BLOCK
  5
76
330
75
100
AcDbEntity
  8
0
100
AcDbBlockBegin
  2
SW_CENTERMARK2
 70
     0
 71
     0
 10
0.0
 20
0.0
 30
0.0
  3
SW_CENTERMARK2
  1

  0
LINE
  5
78
330
75
100
AcDbEntity
  8
SLD-0
  6
Continuous
 62
   179
100
AcDbLine
 10
165.39
 20
132.0230443603
 30
0.0
 11
165.39
 21
134.5230443603
 31
0.0
  0
LINE
  5
79
330
75
100
AcDbEntity
  8
SLD-0
  6
Continuous
 62
   179
100
AcDbLine
 10
165.39
 20
132.0230443603
 30
0.0
 11
162.89
 21
132.0230443603
 31
0.0
  0
LINE
  5
7A
330
75
100
AcDbEntity
  8
SLD-0
  6
Continuous
 62
   179
100
AcDbLine
 10
165.39
 20
132.0230443603
 30
0.0
 11
165.39
 21
129.5230443603
 31
0.0
  0
LINE
  5
7B
330
75
100
AcDbEntity
  8
SLD-0
  6
Continuous
 62
   179
100
AcDbLine
 10
165.39
 20
132.0230443603
 30
0.0
 11
167.89
 21
132.0230443603
 31
0.0
  0
LINE
  5
7C
330
75
100
AcDbEntity
  8
SLD-0
  6
Continuous
 62
   179
100
AcDbLine
 10
165.39
 20
137.0230443603
 30
0.0
 11
165.39
 21
137.7730443603
 31
0.0
  0
LINE
  5
7D
330
75
100
AcDbEntity
  8
SLD-0
  6
Continuous
 62
   179
100
AcDbLine
 10
160.39
 20
132.0230443603
 30
0.0
 11
159.64
 21
132.0230443603
 31
0.0
  0
LINE
  5
7E
330
75
100
AcDbEntity
  8
SLD-0
  6
Continuous
 62
   179
100
AcDbLine
 10
165.39
 20
127.0230443603
 30
0.0
 11
165.39
 21
126.2730443603
 31
0.0
  0
LINE
  5
7F
330
75
100
AcDbEntity
  8
SLD-0
  6
Continuous
 62
   179
100
AcDbLine
 10
170.39
 20
132.0230443603
 30
0.0
 11
171.14
 21
132.0230443603
 31
0.0
  0
ENDBLK
  5
77
330
75
100
AcDbEntity
  8
0
100
AcDbBlockEnd
  0
BLOCK
  5
F7
330
ED
100
AcDbEntity
  8
0
100
AcDbBlockBegin
  2
*D10
 70
     1
 71
     0
 10
0.0
 20
0.0
 30
0.0
  3
*D10
  1

  0
LINE
  5
FD
330
ED
100
AcDbEntity
  8
SLD-0
 62
     7
100
AcDbLine
 10
46.0427191063
 20
118.5230443603
 30
0.0
 11
46.0427191063
 21
101.9963229169
 31
0.0
  0
LINE
  5
FE
330
ED
100
AcDbEntity
  8
SLD-0
 62
     7
100
AcDbLine
 10
96.0427191063
 20
118.5230443603
 30
0.0
 11
96.0427191063
 21
101.9963229169
 31
0.0
  0
LINE
  5
FF
330
ED
100
AcDbEntity
  8
SLD-0
 62
     7
100
AcDbLine
 10
46.0427191063
 20
102.9963229169
 30
0.0
 11
96.0427191063
 21
102.9963229169
 31
0.0
  0
LINE
  5
100
330
ED
100
AcDbEntity
  8
SLD-0
 62
     7
100
AcDbLine
 10
49.0427191063
 20
102.1924759169
 30
0.0
 11
46.0427191063
 21
102.9963229169
 31
0.0
  0
LINE
  5
101
330
ED
100
AcDbEntity
  8
SLD-0
 62
     7
100
AcDbLine
 10
46.0427191063
 20
102.9963229169
 30
0.0
 11
49.0427191063
 21
103.8001699169
 31
0.0
  0
LINE
  5
102
330
ED
100
AcDbEntity
  8
SLD-0
 62
     7
100
AcDbLine
 10
46.0427191063
 20
102.9963229169
 30
0.0
 11
49.0427191063
 21
102.9963229169
 31
0.0
  0
LINE
  5
103
330
ED
100
AcDbEntity
  8
SLD-0
 62
     7
100
AcDbLine
 10
93.0427191063
 20
103.8001699169
 30
0.0
 11
96.0427191063
 21
102.9963229169
 31
0.0
  0
LINE
  5
104
330
ED
100
AcDbEntity
  8
SLD-0
 62
     7
100
AcDbLine
 10
96.0427191063
 20
102.9963229169
 30
0.0
 11
93.0427191063
 21
102.1924759169
 31
0.0
  0
LINE
  5
105
330
ED
100
AcDbEntity
  8
SLD-0
 62
     7
100
AcDbLine
 10
96.0427191063
 20
102.9963229169
 30
0.0
 11
93.0427191063
 21
102.9963229169
 31
0.0
  0
MTEXT
  5
106
330
ED
100
AcDbEntity
  8
SLD-0
 62
     7
100
AcDbMText
 10
65.9541310484
 20
107.5230166128
 30
0.1
 40
3.5
 41
0.0
 71
     1
 72
     1
  1
50
  7
SLDTEXTSTYLE0
 73
     1
 44
1.0
  0
MTEXT
  5
107
330
ED
100
AcDbEntity
  8
SLD-0
 62
     7
100
AcDbMText
 10
72.4660620496
 20
106.3265427871
 30
0.1
 40
2.1
 41
0.0
 71
     1
 72
     1
  1
0
  7
SLDTEXTSTYLE0
 73
     1
 44
1.0
  0
MTEXT
  5
108
330
ED
100
AcDbEntity
  8
SLD-0
 62
     7
100
AcDbMText
 10
71.2455317722
 20
108.767603342
 30
0.1
 40
2.1
 41
0.0
 71
     1
 72
     1
  1
+
  7
SLDTEXTSTYLE0
 73
     1
 44
1.0
  0
MTEXT
  5
109
330
ED
100
AcDbEntity
  8
SLD-0
 62
     7
100
AcDbMText
 10
72.4660620496
 20
108.767603342
 30
0.1
 40
2.1
 41
0.0
 71
     1
 72
     1
  1
0.1
  7
SLDTEXTSTYLE0
 73
     1
 44
1.0
  0
ENDBLK
  5
F8
330
ED
100
AcDbEntity
  8
0
100
AcDbBlockEnd
  0
BLOCK
  5
FB
330
FA
100
AcDbEntity
  8
0
100
AcDbBlockBegin
  2
_None
 70
     0
 71
     0
 10
0.0
 20
0.0
 30
0.0
  3
_None
  1

  0
ENDBLK
  5
FC
330
FA
100
AcDbEntity
  8
0
100
AcDbBlockEnd
  0
BLOCK
  5
115
330
10B
100
AcDbEntity
  8
0
100
AcDbBlockBegin
  2
*D12
 70
     1
 71
     0
 10
0.0
 20
0.0
 30
0.0
  3
*D12
  1

  0
LINE
  5
118
330
10B
100
AcDbEntity
  8
SLD-0
 62
     7
100
AcDbLine
 10
106.0427191063
 20
118.5230443603
 30
0.0
 11
106.0427191063
 21
101.9963229169
 31
0.0
  0
LINE
  5
119
330
10B
100
AcDbEntity
  8
SLD-0
 62
     7
100
AcDbLine
 10
96.0427191063
 20
118.5230443603
 30
0.0
 11
96.0427191063
 21
101.9963229169
 31
0.0
  0
LINE
  5
11A
330
10B
100
AcDbEntity
  8
SLD-0
 62
     7
100
AcDbLine
 10
106.0427191063
 20
102.9963229169
 30
0.0
 11
111.0427191063
 21
102.9963229169
 31
0.0
  0
LINE
  5
11B
330
10B
100
AcDbEntity
  8
SLD-0
 62
     7
100
AcDbLine
 10
106.0427191063
 20
102.9963229169
 30
0.0
 11
96.0427191063
 21
102.9963229169
 31
0.0
  0
LINE
  5
11C
330
10B
100
AcDbEntity
  8
SLD-0
 62
     7
100
AcDbLine
 10
96.0427191063
 20
102.9963229169
 30
0.0
 11
91.0427191063
 21
102.9963229169
 31
0.0
  0
LINE
  5
11D
330
10B
100
AcDbEntity
  8
SLD-0
 62
     7
100
AcDbLine
 10
109.0427191063
 20
102.1924759169
 30
0.0
 11
106.0427191063
 21
102.9963229169
 31
0.0
  0
LINE
  5
11E
330
10B
100
AcDbEntity
  8
SLD-0
 62
     7
100
AcDbLine
 10
106.0427191063
 20
102.9963229169
 30
0.0
 11
109.0427191063
 21
103.8001699169
 31
0.0
  0
LINE
  5
11F
330
10B
100
AcDbEntity
  8
SLD-0
 62
     7
100
AcDbLine
 10
106.0427191063
 20
102.9963229169
 30
0.0
 11
109.0427191063
 21
102.9963229169
 31
0.0
  0
LINE
  5
120
330
10B
100
AcDbEntity
  8
SLD-0
 62
     7
100
AcDbLine
 10
93.0427191063
 20
103.8001699169
 30
0.0
 11
96.0427191063
 21
102.9963229169
 31
0.0
  0
LINE
  5
121
330
10B
100
AcDbEntity
  8
SLD-0
 62
     7
100
AcDbLine
 10
96.0427191063
 20
102.9963229169
 30
0.0
 11
93.0427191063
 21
102.1924759169
 31
0.0
  0
LINE
  5
122
330
10B
100
AcDbEntity
  8
SLD-0
 62
     7
100
AcDbLine
 10
96.0427191063
 20
102.9963229169
 30
0.0
 11
93.0427191063
 21
102.9963229169
 31
0.0
  0
MTEXT
  5
123
330
10B
100
AcDbEntity
  8
SLD-0
 62
     7
100
AcDbMText
 10
99.0072838832
 20
107.5230166128
 30
0.1
 40
3.5
 41
0.0
 71
     1
 72
     1
  1
10
  7
SLDTEXTSTYLE0
 73
     1
 44
1.0
  0
ENDBLK
  5
116
330
10B
100
AcDbEntity
  8
0
100
AcDbBlockEnd
  0
BLOCK
  5
130
330
125
100
AcDbEntity
  8
0
100
AcDbBlockBegin
  2
*D13
 70
     1
 71
     0
 10
0.0
 20
0.0
 30
0.0
  3
*D13
  1

  0
LINE
  5
132
330
125
100
AcDbEntity
  8
SLD-0
 62
     7
100
AcDbLine
 10
107.0427191063
 20
154.5230443603
 30
0.0
 11
130.6498381708
 21
154.5230443603
 31
0.0
  0
LINE
  5
133
330
125
100
AcDbEntity
  8
SLD-0
 62
     7
100
AcDbLine
 10
107.0427191063
 20
119.5230443603
 30
0.0
 11
130.6498381708
 21
119.5230443603
 31
0.0
  0
LINE
  5
134
330
125
100
AcDbEntity
  8
SLD-0
 62
     7
100
AcDbLine
 10
129.6498381708
 20
154.5230443603
 30
0.0
 11
129.6498381708
 21
119.5230443603
 31
0.0
  0
LINE
  5
135
330
125
100
AcDbEntity
  8
SLD-0
 62
     7
100
AcDbLine
 10
128.8459911708
 20
151.5230443603
 30
0.0
 11
129.6498381708
 21
154.5230443603
 31
0.0
  0
LINE
  5
136
330
125
100
AcDbEntity
  8
SLD-0
 62
     7
100
AcDbLine
 10
129.6498381708
 20
154.5230443603
 30
0.0
 11
130.4536851708
 21
151.5230443603
 31
0.0
  0
LINE
  5
137
330
125
100
AcDbEntity
  8
SLD-0
 62
     7
100
AcDbLine
 10
129.6498381708
 20
154.5230443603
 30
0.0
 11
129.6498381708
 21
151.5230443603
 31
0.0
  0
LINE
  5
138
330
125
100
AcDbEntity
  8
SLD-0
 62
     7
100
AcDbLine
 10
130.4536851708
 20
122.5230443603
 30
0.0
 11
129.6498381708
 21
119.5230443603
 31
0.0
  0
LINE
  5
139
330
125
100
AcDbEntity
  8
SLD-0
 62
     7
100
AcDbLine
 10
129.6498381708
 20
119.5230443603
 30
0.0
 11
128.8459911708
 21
122.5230443603
 31
0.0
  0
LINE
  5
13A
330
125
100
AcDbEntity
  8
SLD-0
 62
     7
100
AcDbLine
 10
129.6498381708
 20
119.5230443603
 30
0.0
 11
129.6498381708
 21
122.5230443603
 31
0.0
  0
MTEXT
  5
13B
330
125
100
AcDbEntity
  8
SLD-0
 62
     7
100
AcDbMText
 10
125.1231444749
 20
134.9876091372
 30
0.1
 40
3.5
 41
0.0
 71
     1
 72
     1
  1
35
  7
SLDTEXTSTYLE0
 11
6.123031769111886E-17
 21
1.0
 31
0.0
 73
     1
 44
1.0
  0
ENDBLK
  5
131
330
125
100
AcDbEntity
  8
0
100
AcDbBlockEnd
  0
BLOCK
  5
148
330
13D
100
AcDbEntity
  8
0
100
AcDbBlockBegin
  2
*D14
 70
     1
 71
     0
 10
0.0
 20
0.0
 30
0.0
  3
*D14
  1

  0
LINE
  5
14A
330
13D
100
AcDbEntity
  8
SLD-0
 62
     7
100
AcDbLine
 10
107.0427191063
 20
154.5230443603
 30
0.0
 11
118.7698381708
 21
154.5230443603
 31
0.0
  0
LINE
  5
14B
330
13D
100
AcDbEntity
  8
SLD-0
 62
     7
100
AcDbLine
 10
97.0427191063
 20
144.5230443603
 30
0.0
 11
118.7698381708
 21
144.5230443603
 31
0.0
  0
LINE
  5
14C
330
13D
100
AcDbEntity
  8
SLD-0
 62
     7
100
AcDbLine
 10
117.7698381708
 20
154.5230443603
 30
0.0
 11
117.7698381708
 21
159.5230443603
 31
0.0
  0
LINE
  5
14D
330
13D
100
AcDbEntity
  8
SLD-0
 62
     7
100
AcDbLine
 10
117.7698381708
 20
154.5230443603
 30
0.0
 11
117.7698381708
 21
144.5230443603
 31
0.0
  0
LINE
  5
14E
330
13D
100
AcDbEntity
  8
SLD-0
 62
     7
100
AcDbLine
 10
117.7698381708
 20
144.5230443603
 30
0.0
 11
117.7698381708
 21
139.5230443603
 31
0.0
  0
LINE
  5
14F
330
13D
100
AcDbEntity
  8
SLD-0
 62
     7
100
AcDbLine
 10
118.5736851708
 20
157.5230443603
 30
0.0
 11
117.7698381708
 21
154.5230443603
 31
0.0
  0
LINE
  5
150
330
13D
100
AcDbEntity
  8
SLD-0
 62
     7
100
AcDbLine
 10
117.7698381708
 20
154.5230443603
 30
0.0
 11
116.9659911708
 21
157.5230443603
 31
0.0
  0
LINE
  5
151
330
13D
100
AcDbEntity
  8
SLD-0
 62
     7
100
AcDbLine
 10
117.7698381708
 20
154.5230443603
 30
0.0
 11
117.7698381708
 21
157.5230443603
 31
0.0
  0
LINE
  5
152
330
13D
100
AcDbEntity
  8
SLD-0
 62
     7
100
AcDbLine
 10
116.9659911708
 20
141.5230443603
 30
0.0
 11
117.7698381708
 21
144.5230443603
 31
0.0
  0
LINE
  5
153
330
13D
100
AcDbEntity
  8
SLD-0
 62
     7
100
AcDbLine
 10
117.7698381708
 20
144.5230443603
 30
0.0
 11
118.5736851708
 21
141.5230443603
 31
0.0
  0
LINE
  5
154
330
13D
100
AcDbEntity
  8
SLD-0
 62
     7
100
AcDbLine
 10
117.7698381708
 20
144.5230443603
 30
0.0
 11
117.7698381708
 21
141.5230443603
 31
0.0
  0
MTEXT
  5
155
330
13D
100
AcDbEntity
  8
SLD-0
 62
     7
100
AcDbMText
 10
113.2431444749
 20
147.4876091372
 30
0.1
 40
3.5
 41
0.0
 71
     1
 72
     1
  1
10
  7
SLDTEXTSTYLE0
 11
6.123031769111886E-17
 21
1.0
 31
0.0
 73
     1
 44
1.0
  0
ENDBLK
  5
149
330
13D
100
AcDbEntity
  8
0
100
AcDbBlockEnd
  0
BLOCK
  5
162
330
157
100
AcDbEntity
  8
0
100
AcDbBlockBegin
  2
*D15
 70
     1
 71
     0
 10
0.0
 20
0.0
 30
0.0
  3
*D15
  1

  0
LINE
  5
164
330
157
100
AcDbEntity
  8
SLD-0
 62
     7
100
AcDbLine
 10
107.0427191063
 20
211.63
 30
0.0
 11
130.5714427603
 21
211.63
 31
0.0
  0
LINE
  5
165
330
157
100
AcDbEntity
  8
SLD-0
 62
     7
100
AcDbLine
 10
107.0427191063
 20
191.63
 30
0.0
 11
130.5714427603
 21
191.63
 31
0.0
  0
LINE
  5
166
330
157
100
AcDbEntity
  8
SLD-0
 62
     7
100
AcDbLine
 10
129.5714427603
 20
211.63
 30
0.0
 11
129.5714427603
 21
191.63
 31
0.0
  0
LINE
  5
167
330
157
100
AcDbEntity
  8
SLD-0
 62
     7
100
AcDbLine
 10
128.7675957603
 20
208.63
 30
0.0
 11
129.5714427603
 21
211.63
 31
0.0
  0
LINE
  5
168
330
157
100
AcDbEntity
  8
SLD-0
 62
     7
100
AcDbLine
 10
129.5714427603
 20
211.63
 30
0.0
 11
130.3752897603
 21
208.63
 31
0.0
  0
LINE
  5
169
330
157
100
AcDbEntity
  8
SLD-0
 62
     7
100
AcDbLine
 10
129.5714427603
 20
211.63
 30
0.0
 11
129.5714427603
 21
208.63
 31
0.0
  0
LINE
  5
16A
330
157
100
AcDbEntity
  8
SLD-0
 62
     7
100
AcDbLine
 10
130.3752897603
 20
194.63
 30
0.0
 11
129.5714427603
 21
191.63
 31
0.0
  0
LINE
  5
16B
330
157
100
AcDbEntity
  8
SLD-0
 62
     7
100
AcDbLine
 10
129.5714427603
 20
191.63
 30
0.0
 11
128.7675957603
 21
194.63
 31
0.0
  0
LINE
  5
16C
330
157
100
AcDbEntity
  8
SLD-0
 62
     7
100
AcDbLine
 10
129.5714427603
 20
191.63
 30
0.0
 11
129.5714427603
 21
194.63
 31
0.0
  0
MTEXT
  5
16D
330
157
100
AcDbEntity
  8
SLD-0
 62
     7
100
AcDbMText
 10
125.0447490644
 20
199.5945647768
 30
0.1
 40
3.5
 41
0.0
 71
     1
 72
     1
  1
20
  7
SLDTEXTSTYLE0
 11
6.123031769111886E-17
 21
1.0
 31
0.0
 73
     1
 44
1.0
  0
ENDBLK
  5
163
330
157
100
AcDbEntity
  8
0
100
AcDbBlockEnd
  0
BLOCK
  5
179
330
16F
100
AcDbEntity
  8
0
100
AcDbBlockBegin
  2
*D16
 70
     1
 71
     0
 10
0.0
 20
0.0
 30
0.0
  3
*D16
  1

  0
LINE
  5
17B
330
16F
100
AcDbEntity
  8
SLD-0
 62
     7
100
AcDbLine
 10
56.0427191063
 20
202.63
 30
0.0
 11
56.0427191063
 21
224.9326795897
 31
0.0
  0
LINE
  5
17C
330
16F
100
AcDbEntity
  8
SLD-0
 62
     7
100
AcDbLine
 10
86.0427191063
 20
202.63
 30
0.0
 11
86.0427191063
 21
224.9326795897
 31
0.0
  0
LINE
  5
17D
330
16F
100
AcDbEntity
  8
SLD-0
 62
     7
100
AcDbLine
 10
56.0427191063
 20
223.9326795897
 30
0.0
 11
86.0427191063
 21
223.9326795897
 31
0.0
  0
LINE
  5
17E
330
16F
100
AcDbEntity
  8
SLD-0
 62
     7
100
AcDbLine
 10
59.0427191063
 20
223.1288325897
 30
0.0
 11
56.0427191063
 21
223.9326795897
 31
0.0
  0
LINE
  5
17F
330
16F
100
AcDbEntity
  8
SLD-0
 62
     7
100
AcDbLine
 10
56.0427191063
 20
223.9326795897
 30
0.0
 11
59.0427191063
 21
224.7365265897
 31
0.0
  0
LINE
  5
180
330
16F
100
AcDbEntity
  8
SLD-0
 62
     7
100
AcDbLine
 10
56.0427191063
 20
223.9326795897
 30
0.0
 11
59.0427191063
 21
223.9326795897
 31
0.0
  0
LINE
  5
181
330
16F
100
AcDbEntity
  8
SLD-0
 62
     7
100
AcDbLine
 10
83.0427191063
 20
224.7365265897
 30
0.0
 11
86.0427191063
 21
223.9326795897
 31
0.0
  0
LINE
  5
182
330
16F
100
AcDbEntity
  8
SLD-0
 62
     7
100
AcDbLine
 10
86.0427191063
 20
223.9326795897
 30
0.0
 11
83.0427191063
 21
223.1288325897
 31
0.0
  0
LINE
  5
183
330
16F
100
AcDbEntity
  8
SLD-0
 62
     7
100
AcDbLine
 10
86.0427191063
 20
223.9326795897
 30
0.0
 11
83.0427191063
 21
223.9326795897
 31
0.0
  0
MTEXT
  5
184
330
16F
100
AcDbEntity
  8
SLD-0
 62
     7
100
AcDbMText
 10
69.0072838832
 20
228.4593732857
 30
0.1
 40
3.5
 41
0.0
 71
     1
 72
     1
  1
30
  7
SLDTEXTSTYLE0
 73
     1
 44
1.0
  0
ENDBLK
  5
17A
330
16F
100
AcDbEntity
  8
0
100
AcDbBlockEnd
  0
BLOCK
  5
190
330
186
100
AcDbEntity
  8
0
100
AcDbBlockBegin
  2
*D17
 70
     1
 71
     0
 10
0.0
 20
0.0
 30
0.0
  3
*D17
  1

  0
LINE
  5
192
330
186
100
AcDbEntity
  8
SLD-0
 62
     7
100
AcDbLine
 10
86.0427191063
 20
202.63
 30
0.0
 11
86.0427191063
 21
224.9326795897
 31
0.0
  0
LINE
  5
193
330
186
100
AcDbEntity
  8
SLD-0
 62
     7
100
AcDbLine
 10
106.0427191063
 20
212.63
 30
0.0
 11
106.0427191063
 21
224.9326795897
 31
0.0
  0
LINE
  5
194
330
186
100
AcDbEntity
  8
SLD-0
 62
     7
100
AcDbLine
 10
86.0427191063
 20
223.9326795897
 30
0.0
 11
106.0427191063
 21
223.9326795897
 31
0.0
  0
LINE
  5
195
330
186
100
AcDbEntity
  8
SLD-0
 62
     7
100
AcDbLine
 10
89.0427191063
 20
223.1288325897
 30
0.0
 11
86.0427191063
 21
223.9326795897
 31
0.0
  0
LINE
  5
196
330
186
100
AcDbEntity
  8
SLD-0
 62
     7
100
AcDbLine
 10
86.0427191063
 20
223.9326795897
 30
0.0
 11
89.0427191063
 21
224.7365265897
 31
0.0
  0
LINE
  5
197
330
186
100
AcDbEntity
  8
SLD-0
 62
     7
100
AcDbLine
 10
86.0427191063
 20
223.9326795897
 30
0.0
 11
89.0427191063
 21
223.9326795897
 31
0.0
  0
LINE
  5
198
330
186
100
AcDbEntity
  8
SLD-0
 62
     7
100
AcDbLine
 10
103.0427191063
 20
224.7365265897
 30
0.0
 11
106.0427191063
 21
223.9326795897
 31
0.0
  0
LINE
  5
199
330
186
100
AcDbEntity
  8
SLD-0
 62
     7
100
AcDbLine
 10
106.0427191063
 20
223.9326795897
 30
0.0
 11
103.0427191063
 21
223.1288325897
 31
0.0
  0
LINE
  5
19A
330
186
100
AcDbEntity
  8
SLD-0
 62
     7
100
AcDbLine
 10
106.0427191063
 20
223.9326795897
 30
0.0
 11
103.0427191063
 21
223.9326795897
 31
0.0
  0
MTEXT
  5
19B
330
186
100
AcDbEntity
  8
SLD-0
 62
     7
100
AcDbMText
 10
94.0072838832
 20
228.4593732857
 30
0.1
 40
3.5
 41
0.0
 71
     1
 72
     1
  1
20
  7
SLDTEXTSTYLE0
 73
     1
 44
1.0
  0
ENDBLK
  5
191
330
186
100
AcDbEntity
  8
0
100
AcDbBlockEnd
  0
BLOCK
  5
1A7
330
19D
100
AcDbEntity
  8
0
100
AcDbBlockBegin
  2
*D18
 70
     1
 71
     0
 10
0.0
 20
0.0
 30
0.0
  3
*D18
  1

  0
LINE
  5
1A9
330
19D
100
AcDbEntity
  8
SLD-0
100
AcDbLine
 10
36.0427191063
 20
212.63
 30
0.0
 11
36.0427191063
 21
233.6079411765
 31
0.0
  0
LINE
  5
1AA
330
19D
100
AcDbEntity
  8
SLD-0
100
AcDbLine
 10
106.0427191063
 20
212.63
 30
0.0
 11
106.0427191063
 21
233.6079411765
 31
0.0
  0
LINE
  5
1AB
330
19D
100
AcDbEntity
  8
SLD-0
100
AcDbLine
 10
36.0427191063
 20
232.6079411765
 30
0.0
 11
106.0427191063
 21
232.6079411765
 31
0.0
  0
LINE
  5
1AC
330
19D
100
AcDbEntity
  8
SLD-0
100
AcDbLine
 10
39.0427191063
 20
231.8040941765
 30
0.0
 11
36.0427191063
 21
232.6079411765
 31
0.0
  0
LINE
  5
1AD
330
19D
100
AcDbEntity
  8
SLD-0
100
AcDbLine
 10
36.0427191063
 20
232.6079411765
 30
0.0
 11
39.0427191063
 21
233.4117881765
 31
0.0
  0
LINE
  5
1AE
330
19D
100
AcDbEntity
  8
SLD-0
100
AcDbLine
 10
36.0427191063
 20
232.6079411765
 30
0.0
 11
39.0427191063
 21
232.6079411765
 31
0.0
  0
LINE
  5
1AF
330
19D
100
AcDbEntity
  8
SLD-0
100
AcDbLine
 10
103.0427191063
 20
233.4117881765
 30
0.0
 11
106.0427191063
 21
232.6079411765
 31
0.0
  0
LINE
  5
1B0
330
19D
100
AcDbEntity
  8
SLD-0
100
AcDbLine
 10
106.0427191063
 20
232.6079411765
 30
0.0
 11
103.0427191063
 21
231.8040941765
 31
0.0
  0
LINE
  5
1B1
330
19D
100
AcDbEntity
  8
SLD-0
100
AcDbLine
 10
106.0427191063
 20
232.6079411765
 30
0.0
 11
103.0427191063
 21
232.6079411765
 31
0.0
  0
MTEXT
  5
1B2
330
19D
100
AcDbEntity
  8
SLD-0
100
AcDbMText
 10
69.0072838832
 20
237.1346348724
 30
0.1
 40
3.5
 41
0.0
 71
     1
 72
     1
  1
70
  7
SLDTEXTSTYLE0
 73
     1
 44
1.0
  0
ENDBLK
  5
1A8
330
19D
100
AcDbEntity
  8
0
100
AcDbBlockEnd
  0
BLOCK
  5
1BB
330
1B4
100
AcDbEntity
  8
0
100
AcDbBlockBegin
  2
*D19
 70
     1
 71
     0
 10
0.0
 20
0.0
 30
0.0
  3
*D19
  1

  0
LINE
  5
1BE
330
1B4
100
AcDbEntity
  8
SLD-0
 62
     7
100
AcDbLine
 10
87.4147371846
 20
198.9621232426
 30
0.0
 11
97.0929986186
 21
180.1428313245
 31
0.0
  0
LINE
  5
1BF
330
1B4
100
AcDbEntity
  8
SLD-0
 62
     7
100
AcDbLine
 10
97.0929986186
 20
180.1428313245
 30
0.0
 11
110.0008937935
 21
180.1428313245
 31
0.0
  0
LINE
  5
1C0
330
1B4
100
AcDbEntity
  8
SLD-0
 62
     7
100
AcDbLine
 10
88.0719003536
 20
195.9266156131
 30
0.0
 11
87.4147371846
 21
198.9621232426
 31
0.0
  0
LINE
  5
1C1
330
1B4
100
AcDbEntity
  8
SLD-0
 62
     7
100
AcDbLine
 10
87.4147371846
 20
198.9621232426
 30
0.0
 11
89.5016101722
 21
196.6618773572
 31
0.0
  0
LINE
  5
1C2
330
1B4
100
AcDbEntity
  8
SLD-0
 62
     7
100
AcDbLine
 10
87.4147371846
 20
198.9621232426
 30
0.0
 11
88.7867552629
 21
196.2942464852
 31
0.0
  0
MTEXT
  5
1C3
330
1B4
100
AcDbEntity
  8
SLD-0
 62
     7
100
AcDbMText
 10
100.2679986186
 20
184.6695250204
 30
0.1
 40
3.5
 41
0.0
 71
     1
 72
     1
  1
2-M
  7
SLDTEXTSTYLE0
 73
     1
 44
1.0
  0
MTEXT
  5
1C4
330
1B4
100
AcDbEntity
  8
SLD-0
 62
     7
100
AcDbMText
 10
106.3779585704
 20
184.6695250204
 30
0.1
 40
3.5
 41
0.0
 71
     1
 72
     1
  1
6
  7
SLDTEXTSTYLE0
 73
     1
 44
1.0
  0
ENDBLK
  5
1BC
330
1B4
100
AcDbEntity
  8
0
100
AcDbBlockEnd
  0
BLOCK
  5
1D1
330
1C6
100
AcDbEntity
  8
0
100
AcDbBlockBegin
  2
*D20
 70
     1
 71
     0
 10
0.0
 20
0.0
 30
0.0
  3
*D20
  1

  0
LINE
  5
1D3
330
1C6
100
AcDbEntity
  8
SLD-0
100
AcDbLine
 10
104.0427191063
 20
211.63
 30
0.0
 11
113.2755586946
 21
211.63
 31
0.0
  0
LINE
  5
1D4
330
1C6
100
AcDbEntity
  8
SLD-0
100
AcDbLine
 10
92.0427191063
 20
201.63
 30
0.0
 11
113.2755586946
 21
201.63
 31
0.0
  0
LINE
  5
1D5
330
1C6
100
AcDbEntity
  8
SLD-0
100
AcDbLine
 10
112.2755586946
 20
211.63
 30
0.0
 11
112.2755586946
 21
216.63
 31
0.0
  0
LINE
  5
1D6
330
1C6
100
AcDbEntity
  8
SLD-0
100
AcDbLine
 10
112.2755586946
 20
211.63
 30
0.0
 11
112.2755586946
 21
201.63
 31
0.0
  0
LINE
  5
1D7
330
1C6
100
AcDbEntity
  8
SLD-0
100
AcDbLine
 10
112.2755586946
 20
201.63
 30
0.0
 11
112.2755586946
 21
196.63
 31
0.0
  0
LINE
  5
1D8
330
1C6
100
AcDbEntity
  8
SLD-0
100
AcDbLine
 10
113.0794056946
 20
214.63
 30
0.0
 11
112.2755586946
 21
211.63
 31
0.0
  0
LINE
  5
1D9
330
1C6
100
AcDbEntity
  8
SLD-0
100
AcDbLine
 10
112.2755586946
 20
211.63
 30
0.0
 11
111.4717116946
 21
214.63
 31
0.0
  0
LINE
  5
1DA
330
1C6
100
AcDbEntity
  8
SLD-0
100
AcDbLine
 10
112.2755586946
 20
211.63
 30
0.0
 11
112.2755586946
 21
214.63
 31
0.0
  0
LINE
  5
1DB
330
1C6
100
AcDbEntity
  8
SLD-0
100
AcDbLine
 10
111.4717116946
 20
198.63
 30
0.0
 11
112.2755586946
 21
201.63
 31
0.0
  0
LINE
  5
1DC
330
1C6
100
AcDbEntity
  8
SLD-0
100
AcDbLine
 10
112.2755586946
 20
201.63
 30
0.0
 11
113.0794056946
 21
198.63
 31
0.0
  0
LINE
  5
1DD
330
1C6
100
AcDbEntity
  8
SLD-0
100
AcDbLine
 10
112.2755586946
 20
201.63
 30
0.0
 11
112.2755586946
 21
198.63
 31
0.0
  0
MTEXT
  5
1DE
330
1C6
100
AcDbEntity
  8
SLD-0
100
AcDbMText
 10
107.7488649986
 20
204.5945647768
 30
0.1
 40
3.5
 41
0.0
 71
     1
 72
     1
  1
10
  7
SLDTEXTSTYLE0
 11
6.123031769111886E-17
 21
1.0
 31
0.0
 73
     1
 44
1.0
  0
ENDBLK
  5
1D2
330
1C6
100
AcDbEntity
  8
0
100
AcDbBlockEnd
  0
BLOCK
  5
1EA
330
1E0
100
AcDbEntity
  8
0
100
AcDbBlockBegin
  2
*D21
 70
     1
 71
     0
 10
0.0
 20
0.0
 30
0.0
  3
*D21
  1

  0
LINE
  5
1EC
330
1E0
100
AcDbEntity
  8
SLD-0
 62
     7
100
AcDbLine
 10
165.39
 20
125.2730443603
 30
0.0
 11
165.39
 21
104.4408261068
 31
0.0
  0
LINE
  5
1ED
330
1E0
100
AcDbEntity
  8
SLD-0
 62
     7
100
AcDbLine
 10
175.39
 20
118.5230443603
 30
0.0
 11
175.39
 21
104.4408261068
 31
0.0
  0
LINE
  5
1EE
330
1E0
100
AcDbEntity
  8
SLD-0
 62
     7
100
AcDbLine
 10
165.39
 20
105.4408261068
 30
0.0
 11
160.39
 21
105.4408261068
 31
0.0
  0
LINE
  5
1EF
330
1E0
100
AcDbEntity
  8
SLD-0
 62
     7
100
AcDbLine
 10
165.39
 20
105.4408261068
 30
0.0
 11
175.39
 21
105.4408261068
 31
0.0
  0
LINE
  5
1F0
330
1E0
100
AcDbEntity
  8
SLD-0
 62
     7
100
AcDbLine
 10
175.39
 20
105.4408261068
 30
0.0
 11
180.39
 21
105.4408261068
 31
0.0
  0
LINE
  5
1F1
330
1E0
100
AcDbEntity
  8
SLD-0
 62
     7
100
AcDbLine
 10
162.39
 20
106.2446731068
 30
0.0
 11
165.39
 21
105.4408261068
 31
0.0
  0
LINE
  5
1F2
330
1E0
100
AcDbEntity
  8
SLD-0
 62
     7
100
AcDbLine
 10
165.39
 20
105.4408261068
 30
0.0
 11
162.39
 21
104.6369791068
 31
0.0
  0
LINE
  5
1F3
330
1E0
100
AcDbEntity
  8
SLD-0
 62
     7
100
AcDbLine
 10
165.39
 20
105.4408261068
 30
0.0
 11
162.39
 21
105.4408261068
 31
0.0
  0
LINE
  5
1F4
330
1E0
100
AcDbEntity
  8
SLD-0
 62
     7
100
AcDbLine
 10
178.39
 20
104.6369791068
 30
0.0
 11
175.39
 21
105.4408261068
 31
0.0
  0
LINE
  5
1F5
330
1E0
100
AcDbEntity
  8
SLD-0
 62
     7
100
AcDbLine
 10
175.39
 20
105.4408261068
 30
0.0
 11
178.39
 21
106.2446731068
 31
0.0
  0
LINE
  5
1F6
330
1E0
100
AcDbEntity
  8
SLD-0
 62
     7
100
AcDbLine
 10
175.39
 20
105.4408261068
 30
0.0
 11
178.39
 21
105.4408261068
 31
0.0
  0
MTEXT
  5
1F7
330
1E0
100
AcDbEntity
  8
SLD-0
 62
     7
100
AcDbMText
 10
168.3545647768
 20
109.9675198028
 30
0.1
 40
3.5
 41
0.0
 71
     1
 72
     1
  1
10
  7
SLDTEXTSTYLE0
 73
     1
 44
1.0
  0
ENDBLK
  5
1EB
330
1E0
100
AcDbEntity
  8
0
100
AcDbBlockEnd
  0
BLOCK
  5
204
330
1F9
100
AcDbEntity
  8
0
100
AcDbBlockBegin
  2
*D22
 70
     1
 71
     0
 10
0.0
 20
0.0
 30
0.0
  3
*D22
  1

  0
LINE
  5
207
330
1F9
100
AcDbEntity
  8
SLD-0
100
AcDbLine
 10
176.39
 20
154.5230443603
 30
0.0
 11
186.7942637225
 21
154.5230443603
 31
0.0
  0
LINE
  5
208
330
1F9
100
AcDbEntity
  8
SLD-0
100
AcDbLine
 10
172.14
 20
132.0230443603
 30
0.0
 11
186.7942637225
 21
132.0230443603
 31
0.0
  0
LINE
  5
209
330
1F9
100
AcDbEntity
  8
SLD-0
100
AcDbLine
 10
185.7942637225
 20
154.5230443603
 30
0.0
 11
185.7942637225
 21
132.0230443603
 31
0.0
  0
LINE
  5
20A
330
1F9
100
AcDbEntity
  8
SLD-0
100
AcDbLine
 10
184.9904167225
 20
151.5230443603
 30
0.0
 11
185.7942637225
 21
154.5230443603
 31
0.0
  0
LINE
  5
20B
330
1F9
100
AcDbEntity
  8
SLD-0
100
AcDbLine
 10
185.7942637225
 20
154.5230443603
 30
0.0
 11
186.5981107225
 21
151.5230443603
 31
0.0
  0
LINE
  5
20C
330
1F9
100
AcDbEntity
  8
SLD-0
100
AcDbLine
 10
185.7942637225
 20
154.5230443603
 30
0.0
 11
185.7942637225
 21
151.5230443603
 31
0.0
  0
LINE
  5
20D
330
1F9
100
AcDbEntity
  8
SLD-0
100
AcDbLine
 10
186.5981107225
 20
135.0230443603
 30
0.0
 11
185.7942637225
 21
132.0230443603
 31
0.0
  0
LINE
  5
20E
330
1F9
100
AcDbEntity
  8
SLD-0
100
AcDbLine
 10
185.7942637225
 20
132.0230443603
 30
0.0
 11
184.9904167225
 21
135.0230443603
 31
0.0
  0
LINE
  5
20F
330
1F9
100
AcDbEntity
  8
SLD-0
100
AcDbLine
 10
185.7942637225
 20
132.0230443603
 30
0.0
 11
185.7942637225
 21
135.0230443603
 31
0.0
  0
MTEXT
  5
210
330
1F9
100
AcDbEntity
  8
SLD-0
100
AcDbMText
 10
181.2675700266
 20
139.2003467729
 30
0.1
 40
3.5
 41
0.0
 71
     1
 72
     1
  1
22.5
  7
SLDTEXTSTYLE0
 11
6.123031769111886E-17
 21
1.0
 31
0.0
 73
     1
 44
1.0
  0
ENDBLK
  5
205
330
1F9
100
AcDbEntity
  8
0
100
AcDbBlockEnd
  0
BLOCK
  5
219
330
212
100
AcDbEntity
  8
0
100
AcDbBlockBegin
  2
*D23
 70
     1
 71
     0
 10
0.0
 20
0.0
 30
0.0
  3
*D23
  1

  0
LINE
  5
21C
330
212
100
AcDbEntity
  8
SLD-0
 62
     7
100
AcDbLine
 10
164.5778544629
 20
135.1699348297
 30
0.0
 11
157.503537326
 21
162.5814025504
 31
0.0
  0
LINE
  5
21D
330
212
100
AcDbEntity
  8
SLD-0
 62
     7
100
AcDbLine
 10
157.503537326
 20
162.5814025504
 30
0.0
 11
122.3995316565
 21
162.5814025504
 31
0.0
  0
LINE
  5
21E
330
212
100
AcDbEntity
  8
SLD-0
 62
     7
100
AcDbLine
 10
164.6065258019
 20
138.2756308795
 30
0.0
 11
164.5778544629
 21
135.1699348297
 31
0.0
  0
LINE
  5
21F
330
212
100
AcDbEntity
  8
SLD-0
 62
     7
100
AcDbLine
 10
164.5778544629
 20
135.1699348297
 30
0.0
 11
163.0498375169
 21
137.8738827234
 31
0.0
  0
LINE
  5
220
330
212
100
AcDbEntity
  8
SLD-0
 62
     7
100
AcDbLine
 10
164.5778544629
 20
135.1699348297
 30
0.0
 11
163.8281816594
 21
138.0747568015
 31
0.0
  0
MTEXT
  5
221
330
212
100
AcDbEntity
  8
SLD-0
 62
     7
100
AcDbMText
 10
123.9870316565
 20
167.1080962464
 30
0.1
 40
3.5
 41
0.0
 71
     1
 72
     1
  1
2-
  7
SLDTEXTSTYLE0
 73
     1
 44
1.0
  0
MTEXT
  5
222
330
212
100
AcDbEntity
  8
SLD-0
 62
     7
100
AcDbMText
 10
126.3106426515
 20
167.1080960136
 30
0.1
 40
3.5
 41
0.0
 71
     1
 72
     1
  1
%%c
  7
SLDTEXTSTYLE0
 73
     1
 44
1.0
  0
MTEXT
  5
223
330
212
100
AcDbEntity
  8
SLD-0
 62
     7
100
AcDbMText
 10
131.9277870244
 20
167.1080962464
 30
0.1
 40
3.5
 41
0.0
 71
     1
 72
     1
  1
6.5
  7
SLDTEXTSTYLE0
 73
     1
 44
1.0
  0
MTEXT
  5
224
330
212
100
AcDbEntity
  8
SLD-0
 62
     7
100
AcDbMText
 10
138.0377469762
 20
167.1080962464
 30
0.1
 40
3.5
 41
0.0
 71
     1
 72
     1
  1
(両側ﾖﾘ)
  7
SLDTEXTSTYLE0
 73
     1
 44
1.0
  0
ENDBLK
  5
21A
330
212
100
AcDbEntity
  8
0
100
AcDbBlockEnd
  0
ENDSEC
  0
SECTION
  2
ENTITIES
  0
LINE
  5
80
330
1F
100
AcDbEntity
  8
SLD-0
  6
Continuous
 62
   179
100
AcDbLine
 10
20.2604743903
 20
285.0
 30
0.0
 11
196.7604743903
 21
285.0
 31
0.0
  0
LINE
  5
81
330
1F
100
AcDbEntity
  8
SLD-0
  6
Continuous
 62
   179
100
AcDbLine
 10
20.2604743903
 20
285.0
 30
0.0
 11
20.2604743903
 21
10.0
 31
0.0
  0
LINE
  5
82
330
1F
100
AcDbEntity
  8
SLD-0
  6
Continuous
 62
   179
100
AcDbLine
 10
20.2604743903
 20
10.0
 30
0.0
 11
196.7604743903
 21
10.0
 31
0.0
  0
LINE
  5
83
330
1F
100
AcDbEntity
  8
SLD-0
  6
Continuous
 62
   179
100
AcDbLine
 10
196.7604743903
 20
285.0
 30
0.0
 11
196.7604743903
 21
10.0
 31
0.0
  0
LINE
  5
84
330
1F
100
AcDbEntity
  8
SLD-0
  6
Continuous
 62
   179
100
AcDbLine
 10
65.7604743903
 20
285.0
 30
0.0
 11
196.7604743903
 21
285.0
 31
0.0
  0
LINE
  5
85
330
1F
100
AcDbEntity
  8
SLD-0
  6
Continuous
 62
   179
100
AcDbLine
 10
196.7604743903
 20
285.0
 30
0.0
 11
196.7604743903
 21
264.25
 31
0.0
  0
LINE
  5
86
330
1F
100
AcDbEntity
  8
SLD-0
  6
Continuous
 62
   179
100
AcDbLine
 10
127.0104743903
 20
50.75
 30
0.0
 11
196.7604743903
 21
50.75
 31
0.0
  0
LINE
  5
87
330
1F
100
AcDbEntity
  8
SLD-0
  6
Continuous
 62
   179
100
AcDbLine
 10
127.0104743903
 20
50.75
 30
0.0
 11
127.0104743903
 21
10.0
 31
0.0
  0
LINE
  5
88
330
1F
100
AcDbEntity
  8
SLD-0
  6
Continuous
 62
   179
100
AcDbLine
 10
127.0104743903
 20
22.75
 30
0.0
 11
196.7604743903
 21
22.75
 31
0.0
  0
LINE
  5
89
330
1F
100
AcDbEntity
  8
SLD-0
  6
Continuous
 62
   179
100
AcDbLine
 10
127.0104743903
 20
36.75
 30
0.0
 11
196.7604743903
 21
36.75
 31
0.0
  0
LINE
  5
8A
330
1F
100
AcDbEntity
  8
SLD-0
100
AcDbLine
 10
106.4078451333
 20
155.4577028306
 30
0.0
 11
104.3123892652
 21
153.2533742015
 31
0.0
  0
LINE
  5
8B
330
1F
100
AcDbEntity
  8
SLD-0
100
AcDbLine
 10
104.3123892652
 20
153.2533742015
 30
0.0
 11
105.5796598553
 21
156.0181572403
 31
0.0
  0
LINE
  5
8C
330
1F
100
AcDbEntity
  8
SLD-0
100
AcDbLine
 10
105.5796598553
 20
156.0181572403
 30
0.0
 11
106.4078451333
 21
155.4577028306
 31
0.0
  0
LINE
  5
8D
330
1F
100
AcDbEntity
  8
SLD-0
  6
Continuous
 62
   179
100
AcDbLine
 10
39.0427175864
 20
154.5230441368
 30
0.0
 11
36.0427189573
 21
151.5230445764
 31
0.0
  0
LINE
  5
8E
330
1F
100
AcDbEntity
  8
SLD-0
  6
Continuous
 62
   179
100
AcDbLine
 10
106.0427192553
 20
151.5230445764
 30
0.0
 11
103.0427206262
 21
154.5230441368
 31
0.0
  0
LINE
  5
8F
330
1F
100
AcDbEntity
  8
SLD-0
  6
Continuous
 62
   179
100
AcDbLine
 10
103.0427206262
 20
119.5230439878
 30
0.0
 11
106.0427192553
 21
122.5230444795
 31
0.0
  0
LINE
  5
90
330
1F
100
AcDbEntity
  8
SLD-0
  6
Continuous
 62
   179
100
AcDbLine
 10
36.0427189573
 20
122.5230444795
 30
0.0
 11
39.0427175864
 21
119.5230439878
 31
0.0
  0
LINE
  5
91
330
1F
100
AcDbEntity
  8
SLD-0
  6
Continuous
 62
   179
100
AcDbLine
 10
46.0427187338
 20
144.5230443603
 30
0.0
 11
96.0427194789
 21
144.5230443603
 31
0.0
  0
LINE
  5
92
330
1F
100
AcDbEntity
  8
SLD-0
  6
Continuous
 62
   179
100
AcDbLine
 10
46.0427187338
 20
119.5230439878
 30
0.0
 11
46.0427187338
 21
144.5230443603
 31
0.0
  0
LINE
  5
93
330
1F
100
AcDbEntity
  8
SLD-0
  6
Continuous
 62
   179
100
AcDbLine
 10
39.0427175864
 20
119.5230439878
 30
0.0
 11
46.0427187338
 21
119.5230439878
 31
0.0
  0
LINE
  5
94
330
1F
100
AcDbEntity
  8
SLD-0
  6
Continuous
 62
   179
100
AcDbLine
 10
36.0427189573
 20
151.5230445764
 30
0.0
 11
36.0427189573
 21
122.5230444795
 31
0.0
  0
LINE
  5
95
330
1F
100
AcDbEntity
  8
SLD-0
  6
Continuous
 62
   179
100
AcDbLine
 10
103.0427206262
 20
154.5230441368
 30
0.0
 11
39.0427175864
 21
154.5230441368
 31
0.0
  0
LINE
  5
96
330
1F
100
AcDbEntity
  8
SLD-0
  6
Continuous
 62
   179
100
AcDbLine
 10
106.0427192553
 20
122.5230444795
 30
0.0
 11
106.0427192553
 21
151.5230445764
 31
0.0
  0
LINE
  5
97
330
1F
100
AcDbEntity
  8
SLD-0
  6
Continuous
 62
   179
100
AcDbLine
 10
96.0427194789
 20
119.5230439878
 30
0.0
 11
103.0427206262
 21
119.5230439878
 31
0.0
  0
LINE
  5
98
330
1F
100
AcDbEntity
  8
SLD-0
  6
Continuous
 62
   179
100
AcDbLine
 10
96.0427194789
 20
144.5230443603
 30
0.0
 11
96.0427194789
 21
119.5230439878
 31
0.0
  0
LINE
  5
99
330
1F
100
AcDbEntity
  8
SLD-0
100
AcDbLine
 10
105.9937524943
 20
155.7379300354
 30
0.0
 11
116.9348858866
 21
171.9056779252
 31
0.0
  0
LINE
  5
9A
330
1F
100
AcDbEntity
  8
SLD-0
  6
CENTERX2
 62
   179
100
AcDbLine
 10
34.0427191063
 20
132.0230443603
 30
0.0
 11
48.0427191063
 21
132.0230443603
 31
0.0
  0
LINE
  5
9B
330
1F
100
AcDbEntity
  8
SLD-0
  6
CENTERX2
 62
   179
100
AcDbLine
 10
94.0427191063
 20
132.0230443603
 30
0.0
 11
108.0427191063
 21
132.0230443603
 31
0.0
  0
LINE
  5
9C
330
1F
100
AcDbEntity
  8
SLD-0
  6
CENTERX2
 62
   179
100
AcDbLine
 10
86.0427191063
 20
142.5230443603
 30
0.0
 11
86.0427191063
 21
156.5230443603
 31
0.0
  0
LINE
  5
9D
330
1F
100
AcDbEntity
  8
SLD-0
  6
CENTERX2
 62
   179
100
AcDbLine
 10
56.0427191063
 20
142.5230443603
 30
0.0
 11
56.0427191063
 21
156.5230443603
 31
0.0
  0
LINE
  5
9E
330
1F
100
AcDbEntity
  8
SLD-0
  6
Continuous
 62
   179
100
AcDbLine
 10
103.0427206262
 20
191.6300002235
 30
0.0
 11
103.0427206262
 21
211.6299997765
 31
0.0
  0
LINE
  5
9F
330
1F
100
AcDbEntity
  8
SLD-0
  6
Continuous
 62
   179
100
AcDbLine
 10
103.0427206262
 20
191.6300002235
 30
0.0
 11
39.0427175864
 21
191.6300002235
 31
0.0
  0
LINE
  5
A0
330
1F
100
AcDbEntity
  8
SLD-0
  6
Continuous
 62
   179
100
AcDbLine
 10
39.0427175864
 20
211.6299997765
 30
0.0
 11
39.0427175864
 21
191.6300002235
 31
0.0
  0
LINE
  5
A1
330
1F
100
AcDbEntity
  8
SLD-0
  6
Continuous
 62
   179
100
AcDbLine
 10
103.0427206262
 20
211.6299997765
 30
0.0
 11
39.0427175864
 21
211.6299997765
 31
0.0
  0
LINE
  5
A2
330
1F
100
AcDbEntity
  8
SLD-0
  6
Continuous
 62
   179
100
AcDbLine
 10
106.0427192553
 20
211.6299997765
 30
0.0
 11
106.0427192553
 21
191.6300002235
 31
0.0
  0
LINE
  5
A3
330
1F
100
AcDbEntity
  8
SLD-0
  6
Continuous
 62
   179
100
AcDbLine
 10
106.0427192553
 20
191.6300002235
 30
0.0
 11
103.0427206262
 21
191.6300002235
 31
0.0
  0
LINE
  5
A4
330
1F
100
AcDbEntity
  8
SLD-0
  6
Continuous
 62
   179
100
AcDbLine
 10
103.0427206262
 20
211.6299997765
 30
0.0
 11
106.0427192553
 21
211.6299997765
 31
0.0
  0
LINE
  5
A5
330
1F
100
AcDbEntity
  8
SLD-0
  6
Continuous
 62
   179
100
AcDbLine
 10
36.0427189573
 20
191.6300002235
 30
0.0
 11
36.0427189573
 21
211.6299997765
 31
0.0
  0
LINE
  5
A6
330
1F
100
AcDbEntity
  8
SLD-0
  6
Continuous
 62
   179
100
AcDbLine
 10
39.0427175864
 20
191.6300002235
 30
0.0
 11
36.0427189573
 21
191.6300002235
 31
0.0
  0
LINE
  5
A7
330
1F
100
AcDbEntity
  8
SLD-0
  6
Continuous
 62
   179
100
AcDbLine
 10
36.0427189573
 20
211.6299997765
 30
0.0
 11
39.0427175864
 21
211.6299997765
 31
0.0
  0
LINE
  5
A8
330
1F
100
AcDbEntity
  8
SLD-0
  6
HIDDEN
 62
     8
100
AcDbLine
 10
96.0427194789
 20
191.6300002235
 30
0.0
 11
96.0427194789
 21
211.6299997765
 31
0.0
  0
LINE
  5
A9
330
1F
100
AcDbEntity
  8
SLD-0
  6
HIDDEN
 62
     8
100
AcDbLine
 10
46.0427187338
 20
191.6300002235
 30
0.0
 11
96.0427194789
 21
191.6300002235
 31
0.0
  0
LINE
  5
AA
330
1F
100
AcDbEntity
  8
SLD-0
  6
HIDDEN
 62
     8
100
AcDbLine
 10
46.0427187338
 20
211.6299997765
 30
0.0
 11
96.0427194789
 21
211.6299997765
 31
0.0
  0
LINE
  5
AB
330
1F
100
AcDbEntity
  8
SLD-0
  6
HIDDEN
 62
     8
100
AcDbLine
 10
46.0427187338
 20
191.6300002235
 30
0.0
 11
46.0427187338
 21
211.6299997765
 31
0.0
  0
LINE
  5
AC
330
1F
100
AcDbEntity
  8
SLD-0
  6
HIDDEN
 62
     8
100
AcDbLine
 10
96.0427194789
 20
204.8773641913
 30
0.0
 11
96.0427194789
 21
198.3826358087
 31
0.0
  0
LINE
  5
AD
330
1F
100
AcDbEntity
  8
SLD-0
  6
HIDDEN
 62
     8
100
AcDbLine
 10
106.0427191063
 20
204.88
 30
0.0
 11
106.0427192553
 21
198.3905387792
 31
0.0
  0
LINE
  5
AE
330
1F
100
AcDbEntity
  8
SLD-0
  6
HIDDEN
 62
     8
100
AcDbLine
 10
46.0427187338
 20
204.8773641913
 30
0.0
 11
46.0427187338
 21
198.3826358087
 31
0.0
  0
LINE
  5
AF
330
1F
100
AcDbEntity
  8
SLD-0
  6
HIDDEN
 62
     8
100
AcDbLine
 10
36.0427191063
 20
204.88
 30
0.0
 11
36.0427189573
 21
198.3905387792
 31
0.0
  0
LINE
  5
B0
330
1F
100
AcDbEntity
  8
SLD-0
  6
HIDDEN
 62
     8
100
AcDbLine
 10
106.0427192553
 20
191.6300002235
 30
0.0
 11
106.0427192553
 21
211.6299997765
 31
0.0
  0
LINE
  5
B1
330
1F
100
AcDbEntity
  8
SLD-0
  6
HIDDEN
 62
     8
100
AcDbLine
 10
103.0427206262
 20
191.6300002235
 30
0.0
 11
106.0427192553
 21
191.6300002235
 31
0.0
  0
LINE
  5
B2
330
1F
100
AcDbEntity
  8
SLD-0
  6
HIDDEN
 62
     8
100
AcDbLine
 10
106.0427192553
 20
211.6299997765
 30
0.0
 11
103.0427206262
 21
211.6299997765
 31
0.0
  0
LINE
  5
B3
330
1F
100
AcDbEntity
  8
SLD-0
  6
HIDDEN
 62
     8
100
AcDbLine
 10
36.0427189573
 20
211.6299997765
 30
0.0
 11
36.0427189573
 21
191.6300002235
 31
0.0
  0
LINE
  5
B4
330
1F
100
AcDbEntity
  8
SLD-0
  6
HIDDEN
 62
     8
100
AcDbLine
 10
36.0427189573
 20
191.6300002235
 30
0.0
 11
39.0427175864
 21
191.6300002235
 31
0.0
  0
LINE
  5
B5
330
1F
100
AcDbEntity
  8
SLD-0
  6
HIDDEN
 62
     8
100
AcDbLine
 10
39.0427175864
 20
211.6299997765
 30
0.0
 11
36.0427189573
 21
211.6299997765
 31
0.0
  0
LINE
  5
B6
330
1F
100
AcDbEntity
  8
SLD-0
  6
HIDDEN
 62
     8
100
AcDbLine
 10
103.0427206262
 20
211.6299997765
 30
0.0
 11
103.0427206262
 21
191.6300002235
 31
0.0
  0
LINE
  5
B7
330
1F
100
AcDbEntity
  8
SLD-0
  6
HIDDEN
 62
     8
100
AcDbLine
 10
96.0427194789
 20
191.6300002235
 30
0.0
 11
96.0427194789
 21
211.6299997765
 31
0.0
  0
LINE
  5
B8
330
1F
100
AcDbEntity
  8
SLD-0
  6
HIDDEN
 62
     8
100
AcDbLine
 10
96.0427194789
 20
191.6300002235
 30
0.0
 11
103.0427206262
 21
191.6300002235
 31
0.0
  0
LINE
  5
B9
330
1F
100
AcDbEntity
  8
SLD-0
  6
HIDDEN
 62
     8
100
AcDbLine
 10
96.0427194789
 20
211.6299997765
 30
0.0
 11
103.0427206262
 21
211.6299997765
 31
0.0
  0
LINE
  5
BA
330
1F
100
AcDbEntity
  8
SLD-0
  6
HIDDEN
 62
     8
100
AcDbLine
 10
39.0427175864
 20
191.6300002235
 30
0.0
 11
39.0427175864
 21
211.6299997765
 31
0.0
  0
LINE
  5
BB
330
1F
100
AcDbEntity
  8
SLD-0
  6
HIDDEN
 62
     8
100
AcDbLine
 10
46.0427187338
 20
191.6300002235
 30
0.0
 11
46.0427187338
 21
211.6299997765
 31
0.0
  0
LINE
  5
BC
330
1F
100
AcDbEntity
  8
SLD-0
  6
HIDDEN
 62
     8
100
AcDbLine
 10
39.0427175864
 20
191.6300002235
 30
0.0
 11
46.0427187338
 21
191.6300002235
 31
0.0
  0
LINE
  5
BD
330
1F
100
AcDbEntity
  8
SLD-0
  6
HIDDEN
 62
     8
100
AcDbLine
 10
39.0427175864
 20
211.6299997765
 30
0.0
 11
46.0427187338
 21
211.6299997765
 31
0.0
  0
LINE
  5
BE
330
1F
100
AcDbEntity
  8
SLD-0
  6
CENTERX2
 62
   179
100
AcDbLine
 10
34.0427191063
 20
201.63
 30
0.0
 11
48.0427191063
 21
201.63
 31
0.0
  0
LINE
  5
BF
330
1F
100
AcDbEntity
  8
SLD-0
  6
CENTERX2
 62
   179
100
AcDbLine
 10
94.0427191063
 20
201.63
 30
0.0
 11
108.0427191063
 21
201.63
 31
0.0
  0
LINE
  5
C0
330
1F
100
AcDbEntity
  8
SLD-0
  6
Continuous
 62
   179
100
AcDbLine
 10
175.3899997765
 20
151.5230445764
 30
0.0
 11
155.3900002235
 21
151.5230445764
 31
0.0
  0
LINE
  5
C1
330
1F
100
AcDbEntity
  8
SLD-0
  6
Continuous
 62
   179
100
AcDbLine
 10
155.3900002235
 20
122.5230444795
 30
0.0
 11
175.3899997765
 21
122.5230444795
 31
0.0
  0
LINE
  5
C2
330
1F
100
AcDbEntity
  8
SLD-0
  6
Continuous
 62
   179
100
AcDbLine
 10
155.3900002235
 20
122.5230444795
 30
0.0
 11
155.3900002235
 21
151.5230445764
 31
0.0
  0
LINE
  5
C3
330
1F
100
AcDbEntity
  8
SLD-0
  6
Continuous
 62
   179
100
AcDbLine
 10
175.3899997765
 20
122.5230444795
 30
0.0
 11
175.3899997765
 21
151.5230445764
 31
0.0
  0
LINE
  5
C4
330
1F
100
AcDbEntity
  8
SLD-0
  6
Continuous
 62
   179
100
AcDbLine
 10
155.3900002235
 20
154.5230441368
 30
0.0
 11
175.3899997765
 21
154.5230441368
 31
0.0
  0
LINE
  5
C5
330
1F
100
AcDbEntity
  8
SLD-0
  6
Continuous
 62
   179
100
AcDbLine
 10
155.3900002235
 20
151.5230445764
 30
0.0
 11
155.3900002235
 21
154.5230441368
 31
0.0
  0
LINE
  5
C6
330
1F
100
AcDbEntity
  8
SLD-0
  6
Continuous
 62
   179
100
AcDbLine
 10
175.3899997765
 20
154.5230441368
 30
0.0
 11
175.3899997765
 21
151.5230445764
 31
0.0
  0
LINE
  5
C7
330
1F
100
AcDbEntity
  8
SLD-0
  6
Continuous
 62
   179
100
AcDbLine
 10
175.3899997765
 20
119.5230439878
 30
0.0
 11
155.3900002235
 21
119.5230439878
 31
0.0
  0
LINE
  5
C8
330
1F
100
AcDbEntity
  8
SLD-0
  6
Continuous
 62
   179
100
AcDbLine
 10
155.3900002235
 20
119.5230439878
 30
0.0
 11
155.3900002235
 21
122.5230444795
 31
0.0
  0
LINE
  5
C9
330
1F
100
AcDbEntity
  8
SLD-0
  6
Continuous
 62
   179
100
AcDbLine
 10
175.3899997765
 20
122.5230444795
 30
0.0
 11
175.3899997765
 21
119.5230439878
 31
0.0
  0
LINE
  5
CA
330
1F
100
AcDbEntity
  8
SLD-0
  6
HIDDEN
 62
     8
100
AcDbLine
 10
155.3900002235
 20
119.5230439878
 30
0.0
 11
175.3899997765
 21
119.5230439878
 31
0.0
  0
LINE
  5
CB
330
1F
100
AcDbEntity
  8
SLD-0
  6
HIDDEN
 62
     8
100
AcDbLine
 10
155.3900002235
 20
144.5230443603
 30
0.0
 11
155.3900002235
 21
119.5230439878
 31
0.0
  0
LINE
  5
CC
330
1F
100
AcDbEntity
  8
SLD-0
  6
HIDDEN
 62
     8
100
AcDbLine
 10
175.3899997765
 20
144.5230443603
 30
0.0
 11
175.3899997765
 21
119.5230439878
 31
0.0
  0
LINE
  5
CD
330
1F
100
AcDbEntity
  8
SLD-0
  6
HIDDEN
 62
     8
100
AcDbLine
 10
155.3900002235
 20
144.5230443603
 30
0.0
 11
175.3899997765
 21
144.5230443603
 31
0.0
  0
LINE
  5
CE
330
1F
100
AcDbEntity
  8
SLD-0
  6
HIDDEN
 62
     8
100
AcDbLine
 10
167.8793353693
 20
144.5230443603
 30
0.0
 11
162.9006646307
 21
144.5230443603
 31
0.0
  0
LINE
  5
CF
330
1F
100
AcDbEntity
  8
SLD-0
  6
HIDDEN
 62
     8
100
AcDbLine
 10
162.89
 20
154.5230443603
 30
0.0
 11
167.8899999441
 21
154.5230441368
 31
0.0
  0
LINE
  5
D0
330
1F
100
AcDbEntity
  8
SLD-0
  6
HIDDEN
 62
     8
100
AcDbLine
 10
167.8793353693
 20
144.5230443603
 30
0.0
 11
162.9006646307
 21
144.5230443603
 31
0.0
  0
LINE
  5
D1
330
1F
100
AcDbEntity
  8
SLD-0
  6
HIDDEN
 62
     8
100
AcDbLine
 10
162.89
 20
154.5230443603
 30
0.0
 11
167.8899999441
 21
154.5230441368
 31
0.0
  0
LINE
  5
D2
330
1F
100
AcDbEntity
  8
SLD-0
  6
HIDDEN
 62
     8
100
AcDbLine
 10
155.3900002235
 20
119.5230439878
 30
0.0
 11
175.3899997765
 21
119.5230439878
 31
0.0
  0
LINE
  5
D3
330
1F
100
AcDbEntity
  8
SLD-0
  6
HIDDEN
 62
     8
100
AcDbLine
 10
155.3900002235
 20
144.5230443603
 30
0.0
 11
175.3899997765
 21
144.5230443603
 31
0.0
  0
LINE
  5
D4
330
1F
100
AcDbEntity
  8
SLD-0
  6
HIDDEN
 62
     8
100
AcDbLine
 10
155.3900002235
 20
119.5230439878
 30
0.0
 11
155.3900002235
 21
144.5230443603
 31
0.0
  0
LINE
  5
D5
330
1F
100
AcDbEntity
  8
SLD-0
  6
HIDDEN
 62
     8
100
AcDbLine
 10
175.3899997765
 20
119.5230439878
 30
0.0
 11
175.3899997765
 21
144.5230443603
 31
0.0
  0
LINE
  5
D6
330
1F
100
AcDbEntity
  8
SLD-0
  6
HIDDEN
 62
     8
100
AcDbLine
 10
175.3899997765
 20
154.5230441368
 30
0.0
 11
155.3900002235
 21
154.5230441368
 31
0.0
  0
LINE
  5
D7
330
1F
100
AcDbEntity
  8
SLD-0
  6
HIDDEN
 62
     8
100
AcDbLine
 10
155.3900002235
 20
154.5230441368
 30
0.0
 11
155.3900002235
 21
151.5230445764
 31
0.0
  0
LINE
  5
D8
330
1F
100
AcDbEntity
  8
SLD-0
  6
HIDDEN
 62
     8
100
AcDbLine
 10
175.3899997765
 20
151.5230445764
 30
0.0
 11
175.3899997765
 21
154.5230441368
 31
0.0
  0
LINE
  5
D9
330
1F
100
AcDbEntity
  8
SLD-0
  6
HIDDEN
 62
     8
100
AcDbLine
 10
155.3900002235
 20
119.5230439878
 30
0.0
 11
175.3899997765
 21
119.5230439878
 31
0.0
  0
LINE
  5
DA
330
1F
100
AcDbEntity
  8
SLD-0
  6
HIDDEN
 62
     8
100
AcDbLine
 10
155.3900002235
 20
122.5230444795
 30
0.0
 11
155.3900002235
 21
119.5230439878
 31
0.0
  0
LINE
  5
DB
330
1F
100
AcDbEntity
  8
SLD-0
  6
HIDDEN
 62
     8
100
AcDbLine
 10
175.3899997765
 20
119.5230439878
 30
0.0
 11
175.3899997765
 21
122.5230444795
 31
0.0
  0
LINE
  5
DC
330
1F
100
AcDbEntity
  8
SLD-0
  6
HIDDEN
 62
     8
100
AcDbLine
 10
175.3899997765
 20
122.5230444795
 30
0.0
 11
155.3900002235
 21
122.5230444795
 31
0.0
  0
LINE
  5
DD
330
1F
100
AcDbEntity
  8
SLD-0
  6
HIDDEN
 62
     8
100
AcDbLine
 10
155.3900002235
 20
151.5230445764
 30
0.0
 11
175.3899997765
 21
151.5230445764
 31
0.0
  0
LINE
  5
DE
330
1F
100
AcDbEntity
  8
SLD-0
  6
HIDDEN
 62
     8
100
AcDbLine
 10
155.3900002235
 20
151.5230445764
 30
0.0
 11
155.3900002235
 21
122.5230444795
 31
0.0
  0
LINE
  5
DF
330
1F
100
AcDbEntity
  8
SLD-0
  6
HIDDEN
 62
     8
100
AcDbLine
 10
175.3899997765
 20
151.5230445764
 30
0.0
 11
175.3899997765
 21
122.5230444795
 31
0.0
  0
LINE
  5
E0
330
1F
100
AcDbEntity
  8
SLD-0
  6
CENTERX2
 62
   179
100
AcDbLine
 10
165.39
 20
142.5230443603
 30
0.0
 11
165.39
 21
156.5230443603
 31
0.0
  0
CIRCLE
  5
E1
330
1F
100
AcDbEntity
  8
SLD-0
  6
Continuous
 62
   179
100
AcDbCircle
 10
86.0427191063
 20
201.63
 30
0.0
 40
2.5
  0
CIRCLE
  5
E2
330
1F
100
AcDbEntity
  8
SLD-0
  6
Continuous
 62
   179
100
AcDbCircle
 10
56.0427191063
 20
201.63
 30
0.0
 40
2.500000000000007
  0
CIRCLE
  5
E3
330
1F
100
AcDbEntity
  8
SLD-0
  6
HIDDEN
 62
     8
100
AcDbCircle
 10
56.0427191063
 20
201.63
 30
0.0
 40
2.500000000000007
  0
CIRCLE
  5
E4
330
1F
100
AcDbEntity
  8
SLD-0
  6
HIDDEN
 62
     8
100
AcDbCircle
 10
86.0427191063
 20
201.63
 30
0.0
 40
2.5
  0
CIRCLE
  5
E5
330
1F
100
AcDbEntity
  8
SLD-0
 62
   179
100
AcDbCircle
 10
86.0427191063
 20
201.63
 30
0.0
 40
2.999999225099998
  0
CIRCLE
  5
E6
330
1F
100
AcDbEntity
  8
SLD-0
 62
   179
100
AcDbCircle
 10
56.0427191063
 20
201.63
 30
0.0
 40
2.999999895700007
  0
CIRCLE
  5
E7
330
1F
100
AcDbEntity
  8
SLD-0
  6
Continuous
 62
   179
100
AcDbCircle
 10
165.39
 20
132.0230443603
 30
0.0
 40
3.25
  0
CIRCLE
  5
E8
330
1F
100
AcDbEntity
  8
SLD-0
  6
HIDDEN
 62
     8
100
AcDbCircle
 10
165.39
 20
132.0230443603
 30
0.0
 40
3.25
  0
CIRCLE
  5
E9
330
1F
100
AcDbEntity
  8
SLD-0
  6
HIDDEN
 62
     8
100
AcDbCircle
 10
165.39
 20
132.0230443603
 30
0.0
 40
3.25
  0
CIRCLE
  5
EA
330
1F
100
AcDbEntity
  8
SLD-0
  6
HIDDEN
 62
     8
100
AcDbCircle
 10
165.39
 20
132.0230443603
 30
0.0
 40
3.25
  0
DIMENSION
  5
EB
330
1F
100
AcDbEntity
  8
SLD-0
 62
     7
100
AcDbDimension
  2
*D10
 10
46.0427191063
 20
102.9963229169
 30
0.0
 11
71.0427191063
 21
102.9963229169
 31
0.0
 70
   160
 71
     1
 42
50.0
  3
SLDDIMSTYLE0
100
AcDbAlignedDimension
 13
96.0427191063
 23
119.5230443603
 33
0.0
 14
46.0427191063
 24
119.5230443603
 34
0.0
100
AcDbRotatedDimension
1001
ACAD
1000
DSTYLE
1002
{
1070
    77
1070
     3
1070
   143
1040
0.0393700787
1070
    41
1040
3.0
1070
    44
1040
1.0
1070
    42
1040
1.0
1070
   147
1040
1.524
1070
    73
1070
     0
1070
    74
1070
     0
1070
   140
1040
3.5
1070
   284
1070
     0
1070
    78
1070
    12
1002
}
  0
DIMENSION
  5
10A
330
1F
100
AcDbEntity
  8
SLD-0
 62
     7
100
AcDbDimension
  2
*D12
 10
106.0427191063
 20
102.9963229169
 30
0.0
 11
101.0427191063
 21
102.9963229169
 31
0.0
 70
   160
 71
     1
 42
10.0
  3
SLDDIMSTYLE1
100
AcDbAlignedDimension
 13
96.0427191063
 23
119.5230443603
 33
0.0
 14
106.0427191063
 24
119.5230443603
 34
0.0
100
AcDbRotatedDimension
1001
ACAD
1000
DSTYLE
1002
{
1070
    77
1070
     3
1070
   143
1040
0.0393700787
1070
    41
1040
3.0
1070
    44
1040
1.0
1070
    42
1040
1.0
1070
   147
1040
1.524
1070
    73
1070
     0
1070
    74
1070
     0
1070
   140
1040
3.5
1070
   284
1070
    12
1070
    78
1070
    12
1002
}
  0
DIMENSION
  5
124
330
1F
100
AcDbEntity
  8
SLD-0
 62
     7
100
AcDbDimension
  2
*D13
 10
129.6498381708
 20
154.5230443603
 30
0.0
 11
129.6498381708
 21
137.0230443603
 31
0.0
 70
   160
 71
     1
 42
35.0
  3
SLDDIMSTYLE1
100
AcDbAlignedDimension
 13
106.0427191063
 23
119.5230443603
 33
0.0
 14
106.0427191063
 24
154.5230443603
 34
0.0
 50
90.0
100
AcDbRotatedDimension
1001
ACAD
1000
DSTYLE
1002
{
1070
    77
1070
     3
1070
   143
1040
0.0393700787
1070
    41
1040
3.0
1070
    44
1040
1.0
1070
    42
1040
1.0
1070
   147
1040
1.524
1070
    73
1070
     0
1070
    74
1070
     0
1070
   140
1040
3.5
1070
   284
1070
    12
1070
    78
1070
    12
1002
}
  0
DIMENSION
  5
13C
330
1F
100
AcDbEntity
  8
SLD-0
 62
     7
100
AcDbDimension
  2
*D14
 10
117.7698381708
 20
154.5230443603
 30
0.0
 11
117.7698381708
 21
149.5230443603
 31
0.0
 70
   160
 71
     1
 42
10.0
  3
SLDDIMSTYLE1
100
AcDbAlignedDimension
 13
96.0427191063
 23
144.5230443603
 33
0.0
 14
106.0427191063
 24
154.5230443603
 34
0.0
 50
90.0
100
AcDbRotatedDimension
1001
ACAD
1000
DSTYLE
1002
{
1070
    77
1070
     3
1070
   143
1040
0.0393700787
1070
    41
1040
3.0
1070
    44
1040
1.0
1070
    42
1040
1.0
1070
   147
1040
1.524
1070
    73
1070
     0
1070
    74
1070
     0
1070
   140
1040
3.5
1070
   284
1070
    12
1070
    78
1070
    12
1002
}
  0
DIMENSION
  5
156
330
1F
100
AcDbEntity
  8
SLD-0
 62
     7
100
AcDbDimension
  2
*D15
 10
129.5714427603
 20
211.63
 30
0.0
 11
129.5714427603
 21
201.63
 31
0.0
 70
   160
 71
     1
 42
20.0
  3
SLDDIMSTYLE1
100
AcDbAlignedDimension
 13
106.0427191063
 23
191.63
 33
0.0
 14
106.0427191063
 24
211.63
 34
0.0
 50
90.0
100
AcDbRotatedDimension
1001
ACAD
1000
DSTYLE
1002
{
1070
    77
1070
     3
1070
   143
1040
0.0393700787
1070
    41
1040
3.0
1070
    44
1040
1.0
1070
    42
1040
1.0
1070
   147
1040
1.524
1070
    73
1070
     0
1070
    74
1070
     0
1070
   140
1040
3.5
1070
   284
1070
    12
1070
    78
1070
    12
1002
}
  0
DIMENSION
  5
16E
330
1F
100
AcDbEntity
  8
SLD-0
 62
     7
100
AcDbDimension
  2
*D16
 10
56.0427191063
 20
223.9326795897
 30
0.0
 11
71.0427191063
 21
223.9326795897
 31
0.0
 70
   160
 71
     1
 42
30.0
  3
SLDDIMSTYLE1
100
AcDbAlignedDimension
 13
86.0427191063
 23
201.63
 33
0.0
 14
56.0427191063
 24
201.63
 34
0.0
100
AcDbRotatedDimension
1001
ACAD
1000
DSTYLE
1002
{
1070
    77
1070
     3
1070
   143
1040
0.0393700787
1070
    41
1040
3.0
1070
    44
1040
1.0
1070
    42
1040
1.0
1070
   147
1040
1.524
1070
    73
1070
     0
1070
    74
1070
     0
1070
   140
1040
3.5
1070
   284
1070
    12
1070
    78
1070
    12
1002
}
  0
DIMENSION
  5
185
330
1F
100
AcDbEntity
  8
SLD-0
 62
     7
100
AcDbDimension
  2
*D17
 10
86.0427191063
 20
223.9326795897
 30
0.0
 11
96.0427191063
 21
223.9326795897
 31
0.0
 70
   160
 71
     1
 42
20.0
  3
SLDDIMSTYLE1
100
AcDbAlignedDimension
 13
106.0427191063
 23
211.63
 33
0.0
 14
86.0427191063
 24
201.63
 34
0.0
100
AcDbRotatedDimension
1001
ACAD
1000
DSTYLE
1002
{
1070
    77
1070
     3
1070
   143
1040
0.0393700787
1070
    41
1040
3.0
1070
    44
1040
1.0
1070
    42
1040
1.0
1070
   147
1040
1.524
1070
    73
1070
     0
1070
    74
1070
     0
1070
   140
1040
3.5
1070
   284
1070
    12
1070
    78
1070
    12
1002
}
  0
DIMENSION
  5
19C
330
1F
100
AcDbEntity
  8
SLD-0
100
AcDbDimension
  2
*D18
 10
36.0427191063
 20
232.6079411765
 30
0.0
 11
71.0427191063
 21
232.6079411765
 31
0.0
 70
   160
 71
     1
 42
70.0
  3
SLDDIMSTYLE1
100
AcDbAlignedDimension
 13
106.0427191063
 23
211.63
 33
0.0
 14
36.0427191063
 24
211.63
 34
0.0
100
AcDbRotatedDimension
1001
ACAD
1000
DSTYLE
1002
{
1070
    77
1070
     3
1070
   143
1040
0.0393700787
1070
    41
1040
3.0
1070
    44
1040
1.0
1070
    42
1040
1.0
1070
   147
1040
1.524
1070
    73
1070
     0
1070
    74
1070
     0
1070
   140
1040
3.5
1070
   284
1070
    12
1070
    78
1070
    12
1002
}
  0
DIMENSION
  5
1B3
330
1F
100
AcDbEntity
  8
SLD-0
 62
     7
100
AcDbDimension
  2
*D19
 10
2.3549541506
 20
5.5185309148
 30
0.0
 11
104.3406962061
 21
-5.518531489
 31
0.0
 70
   163
  1
2-M<><>
 71
     1
 42
5.9999993757
  3
SLDDIMSTYLE2
100
AcDbDiametricDimension
 15
0.0
 25
0.0
 35
0.0
 40
0.0
1001
ACAD
1000
DSTYLE
1002
{
1070
    77
1070
     0
1070
   143
1040
0.0393700787
1070
    41
1040
3.0
1070
    44
1040
1.0
1070
    42
1040
1.0
1070
   147
1040
1.524
1070
    73
1070
     1
1070
    74
1070
     1
1070
   140
1040
3.5
1070
   284
1070
    12
1070
    78
1070
    12
1002
}
  0
DIMENSION
  5
1C5
330
1F
100
AcDbEntity
  8
SLD-0
100
AcDbDimension
  2
*D20
 10
112.2755586946
 20
211.63
 30
0.0
 11
112.2755586946
 21
206.63
 31
0.0
 70
   160
 71
     1
 42
10.0
  3
SLDDIMSTYLE1
100
AcDbAlignedDimension
 13
91.0427191063
 23
201.63
 33
0.0
 14
103.0427191063
 24
211.63
 34
0.0
 50
90.0
100
AcDbRotatedDimension
1001
ACAD
1000
DSTYLE
1002
{
1070
    77
1070
     3
1070
   143
1040
0.0393700787
1070
    41
1040
3.0
1070
    44
1040
1.0
1070
    42
1040
1.0
1070
   147
1040
1.524
1070
    73
1070
     0
1070
    74
1070
     0
1070
   140
1040
3.5
1070
   284
1070
    12
1070
    78
1070
    12
1002
}
  0
DIMENSION
  5
1DF
330
1F
100
AcDbEntity
  8
SLD-0
 62
     7
100
AcDbDimension
  2
*D21
 10
165.39
 20
105.4408261068
 30
0.0
 11
170.39
 21
105.4408261068
 31
0.0
 70
   160
 71
     1
 42
10.0
  3
SLDDIMSTYLE1
100
AcDbAlignedDimension
 13
175.39
 23
119.5230443603
 33
0.0
 14
165.39
 24
132.0230443603
 34
0.0
100
AcDbRotatedDimension
1001
ACAD
1000
DSTYLE
1002
{
1070
    77
1070
     3
1070
   143
1040
0.0393700787
1070
    41
1040
3.0
1070
    44
1040
1.0
1070
    42
1040
1.0
1070
   147
1040
1.524
1070
    73
1070
     0
1070
    74
1070
     0
1070
   140
1040
3.5
1070
   284
1070
    12
1070
    78
1070
    12
1002
}
  0
DIMENSION
  5
1F8
330
1F
100
AcDbEntity
  8
SLD-0
100
AcDbDimension
  2
*D22
 10
185.7942637225
 20
154.5230443603
 30
0.0
 11
185.7942637225
 21
143.2730443603
 31
0.0
 70
   160
 71
     1
 42
22.5
  3
SLDDIMSTYLE3
100
AcDbAlignedDimension
 13
171.14
 23
132.0230443603
 33
0.0
 14
175.39
 24
154.5230443603
 34
0.0
 50
90.0
100
AcDbRotatedDimension
1001
ACAD
1000
DSTYLE
1002
{
1070
    77
1070
     3
1070
   143
1040
0.0393700787
1070
    41
1040
3.0
1070
    44
1040
1.0
1070
    42
1040
1.0
1070
   147
1040
1.524
1070
    73
1070
     0
1070
    74
1070
     0
1070
   140
1040
3.5
1070
   284
1070
    12
1070
    78
1070
    12
1002
}
  0
DIMENSION
  5
211
330
1F
100
AcDbEntity
  8
SLD-0
 62
     7
100
AcDbDimension
  2
*D23
 10
5.0799732273
 20
4.0551032755
 30
0.0
 11
139.1577844913
 21
-3.7431726723
 31
0.0
 70
   163
  1
2-<>(両側ﾖﾘ)
 71
     1
 42
6.4999992742
  3
SLDDIMSTYLE4
100
AcDbDiametricDimension
 15
0.0
 25
0.0
 35
0.0
 40
0.0
1001
ACAD
1000
DSTYLE
1002
{
1070
    77
1070
     0
1070
   143
1040
0.0393700787
1070
    41
1040
3.0
1070
    44
1040
1.0
1070
    42
1040
1.0
1070
   147
1040
1.524
1070
    73
1070
     1
1070
    74
1070
     1
1070
   140
1040
3.5
1070
   284
1070
    12
1070
    78
1070
    12
1002
}
  0
MTEXT
  5
225
330
1F
100
AcDbEntity
  8
SLD-0
 62
     7
100
AcDbMText
 10
169.1923262367
 20
249.8878123479
 30
0.0
 40
4.2333333333
 41
0.0
 71
     1
 72
     1
  1
(　　　)
  7
SLDTEXTSTYLE1
 73
     1
 44
1.0
  0
MTEXT
  5
226
330
1F
100
AcDbEntity
  8
SLD-0
 62
     7
100
AcDbMText
 10
159.5514803016
 20
16.8157766757
 30
0.0
 40
3.5
 41
0.0
 71
     1
 72
     1
  1
131034
  7
SLDTEXTSTYLE0
 73
     1
 44
1.0
  0
MTEXT
  5
227
330
1F
100
AcDbEntity
  8
SLD-0
 62
     7
100
AcDbMText
 10
147.3872852046
 20
29.7138882404
 30
0.0
 40
4.2333333333
 41
0.0
 71
     1
 72
     1
  1
N01911-402-1
  7
SLDTEXTSTYLE1
 73
     1
 44
1.0
  0
MTEXT
  5
229
330
1F
100
AcDbEntity
  8
SLD-0
 62
     7
100
AcDbMText
 10
145.3545006573
 20
43.2377018572
 30
0.0
 40
4.2333333333
 41
0.0
 71
     1
 72
     1
  1
25x50 Link BKT
  7
SLDTEXTSTYLE2
 73
     1
 44
1.0
  0
HATCH
  5
22A
330
1F
100
AcDbEntity
  8
0
  6
Continuous
 62
   179
100
AcDbHatch
 10
0.0
 20
0.0
 30
0.0
210
0.0
220
0.0
230
1.0
  2
ANSI31
 70
     0
 71
     0
 91
        1
 92
        0
 93
        3
 72
     1
 10
105.5796598553231
 20
156.0181572402589
 11
106.4078451332923
 21
155.4577028305563
 72
     1
 10
106.4078451332923
 20
155.4577028305563
 11
104.3123892652
 21
153.2533742015
 72
     1
 10
104.3123892652
 20
153.2533742015
 11
105.5796598553231
 21
156.0181572402589
 97
        0
 75
     0
 76
     1
 52
0.0
 41
1.0
 77
     0
 78
     1
 53
45.00000209717174
 43
0.0
 44
0.0
 45
-2.245064112442359
 46
2.245063948092215
 79
     0
 98
        1
 10
0.0
 20
0.0
  0
INSERT
  5
22B
330
1F
100
AcDbEntity
  8
0
  6
Continuous
 62
     7
370
     0
100
AcDbBlockReference
  2
SURFACEFINISH40
 10
159.4443600604
 20
250.5749245738
 30
0.0
  0
INSERT
  5
22C
330
1F
100
AcDbEntity
  8
0
  6
Continuous
 62
     7
370
     0
100
AcDbBlockReference
  2
SURFACEFINISH41
 10
175.4785306273
 20
250.9049245738
 30
0.0
  0
INSERT
  5
22D
330
1F
100
AcDbEntity
  8
0
  6
Continuous
 62
     7
370
     0
100
AcDbBlockReference
  2
注記
 10
107.1777901577
 20
56.2542230466
 30
0.0
  0
INSERT
  5
22E
330
1F
100
AcDbEntity
  8
0
  6
Continuous
 62
     7
370
     0
100
AcDbBlockReference
  2
NOTE42
 10
116.9348858866
 20
171.9056779252
 30
0.0
  0
INSERT
  5
22F
330
1F
100
AcDbEntity
  8
0
  6
Continuous
 62
     7
370
     0
100
AcDbBlockReference
  2
SURFACEFINISH43
 10
52.8937748979
 20
111.7369806172
 30
0.0
  0
INSERT
  5
230
330
1F
100
AcDbEntity
  8
0
  6
Continuous
 62
     7
370
     0
100
AcDbBlockReference
  2
SURFACEFINISH44
 10
92.0127694001
 20
110.9210508993
 30
0.0
  0
INSERT
  5
231
330
1F
100
AcDbEntity
  8
0
  6
Continuous
 62
     7
370
     0
100
AcDbBlockReference
  2
SW_CENTERMARK0
 10
0.0
 20
0.0
 30
0.0
  0
INSERT
  5
232
330
1F
100
AcDbEntity
  8
0
  6
Continuous
 62
     7
370
     0
100
AcDbBlockReference
  2
SW_CENTERMARK1
 10
0.0
 20
0.0
 30
0.0
  0
INSERT
  5
233
330
1F
100
AcDbEntity
  8
0
  6
Continuous
 62
     7
370
     0
100
AcDbBlockReference
  2
SW_CENTERMARK2
 10
0.0
 20
0.0
 30
0.0
  0
ENDSEC
  0
SECTION
  2
OBJECTS
  0
DICTIONARY
  5
C
330
0
100
AcDbDictionary
281
     1
  3
ACAD_GROUP
350
D
  3
ACAD_LAYOUT
350
1A
  3
ACAD_MLINESTYLE
350
17
  3
ACAD_PLOTSETTINGS
350
19
  3
ACAD_PLOTSTYLENAME
350
E
  0
DICTIONARY
  5
D
102
{ACAD_REACTORS
330
C
102
}
330
C
100
AcDbDictionary
281
     1
  0
DICTIONARY
  5
1A
102
{ACAD_REACTORS
330
C
102
}
330
C
100
AcDbDictionary
281
     1
  3
Layout1
350
1E
  3
Layout2
350
26
  3
Model
350
22
  0
DICTIONARY
  5
17
102
{ACAD_REACTORS
330
C
102
}
330
C
100
AcDbDictionary
281
     1
  3
Standard
350
18
  0
DICTIONARY
  5
19
102
{ACAD_REACTORS
330
C
102
}
330
C
100
AcDbDictionary
281
     1
  0
ACDBDICTIONARYWDFLT
  5
E
102
{ACAD_REACTORS
330
C
102
}
330
C
100
AcDbDictionary
281
     1
  3
Normal
350
F
100
AcDbDictionaryWithDefault
340
F
  0
LAYOUT
  5
1E
102
{ACAD_REACTORS
330
1A
102
}
330
1A
100
AcDbPlotSettings
  1

  2

  4

  6

 40
0.0
 41
0.0
 42
0.0
 43
0.0
 44
0.0
 45
0.0
 46
0.0
 47
0.0
 48
0.0
 49
0.0
140
0.0
141
0.0
142
1.0
143
1.0
 70
   688
 72
     0
 73
     0
 74
     5
  7

 75
    16
147
1.0
148
0.0
149
0.0
100
AcDbLayout
  1
Layout1
 70
     1
 71
     1
 10
0.0
 20
0.0
 11
0.0
 21
0.0
 12
0.0
 22
0.0
 32
0.0
 14
0.0
 24
0.0
 34
0.0
 15
0.0
 25
0.0
 35
0.0
146
0.0
 13
0.0
 23
0.0
 33
0.0
 16
1.0
 26
0.0
 36
0.0
 17
0.0
 27
1.0
 37
0.0
 76
     0
330
1B
  0
LAYOUT
  5
26
102
{ACAD_REACTORS
330
1A
102
}
330
1A
100
AcDbPlotSettings
  1

  2

  4

  6

 40
0.0
 41
0.0
 42
0.0
 43
0.0
 44
0.0
 45
0.0
 46
0.0
 47
0.0
 48
0.0
 49
0.0
140
0.0
141
0.0
142
1.0
143
1.0
 70
   688
 72
     0
 73
     0
 74
     5
  7

 75
    16
147
1.0
148
0.0
149
0.0
100
AcDbLayout
  1
Layout2
 70
     1
 71
     2
 10
0.0
 20
0.0
 11
0.0
 21
0.0
 12
0.0
 22
0.0
 32
0.0
 14
0.0
 24
0.0
 34
0.0
 15
0.0
 25
0.0
 35
0.0
146
0.0
 13
0.0
 23
0.0
 33
0.0
 16
1.0
 26
0.0
 36
0.0
 17
0.0
 27
1.0
 37
0.0
 76
     0
330
23
  0
LAYOUT
  5
22
102
{ACAD_REACTORS
330
1A
102
}
330
1A
100
AcDbPlotSettings
  1

  2

  4

  6

 40
0.0
 41
0.0
 42
0.0
 43
0.0
 44
0.0
 45
0.0
 46
0.0
 47
0.0
 48
0.0
 49
0.0
140
0.0
141
0.0
142
1.0
143
1.0
 70
  1712
 72
     0
 73
     0
 74
     0
  7

 75
     0
147
1.0
148
0.0
149
0.0
100
AcDbLayout
  1
Model
 70
     1
 71
     0
 10
0.0
 20
0.0
 11
0.0
 21
0.0
 12
0.0
 22
0.0
 32
0.0
 14
0.0
 24
0.0
 34
0.0
 15
210.0
 25
297.0
 35
0.0
146
0.0
 13
0.0
 23
0.0
 33
0.0
 16
1.0
 26
0.0
 36
0.0
 17
0.0
 27
1.0
 37
0.0
 76
     0
330
1F
  0
MLINESTYLE
  5
18
102
{ACAD_REACTORS
330
17
102
}
330
17
100
AcDbMlineStyle
  2
Standard
 70
     0
  3

 62
   256
 51
90.0
 52
90.0
 71
     2
 49
0.5
 62
   256
  6
BYLAYER
 49
-0.5
 62
   256
  6
BYLAYER
  0
ACDBPLACEHOLDER
  5
F
102
{ACAD_REACTORS
330
E
102
}
330
E
  0
ENDSEC
  0
EOF
