  0
SECTION
  2
HEADER
  9
$ACADVER
  1
AC1015
  9
$ACADMAINTVER
 70
     6
  9
$DWGCODEPAGE
  3
DOS932
  9
$INSBASE
 10
0.0
 20
0.0
 30
0.0
  9
$EXTMIN
 10
0.0
 20
0.0
 30
0.0
  9
$EXTMAX
 10
210.0
 20
297.0
 30
0.0
  9
$LIMMIN
 10
0.0
 20
0.0
  9
$LIMMAX
 10
0.0
 20
0.0
  9
$ORTHOMODE
 70
     0
  9
$REGENMODE
 70
     1
  9
$FILLMODE
 70
     1
  9
$QTEXTMODE
 70
     0
  9
$MIRRTEXT
 70
     1
  9
$LTSCALE
 40
1.0
  9
$ATTMODE
 70
     1
  9
$TEXTSIZE
 40
3.5
  9
$TRACEWID
 40
1.0
  9
$TEXTSTYLE
  7
Standard
  9
$CLAYER
  8
0
  9
$CELTYPE
  6
ByLayer
  9
$CECOLOR
 62
   256
  9
$CELTSCALE
 40
1.0
  9
$DISPSILH
 70
     0
  9
$DIMSCALE
 40
1.0
  9
$DIMASZ
 40
3.0
  9
$DIMEXO
 40
1.0
  9
$DIMDLI
 40
3.75
  9
$DIMRND
 40
0.0
  9
$DIMDLE
 40
0.0
  9
$DIMEXE
 40
1.0
  9
$DIMTP
 40
0.0
  9
$DIMTM
 40
0.0
  9
$DIMTXT
 40
3.5
  9
$DIMCEN
 40
2.5
  9
$DIMTSZ
 40
0.0
  9
$DIMTOL
 70
     0
  9
$DIMLIM
 70
     0
  9
$DIMTIH
 70
     1
  9
$DIMTOH
 70
     1
  9
$DIMSE1
 70
     0
  9
$DIMSE2
 70
     0
  9
$DIMTAD
 70
     1
  9
$DIMZIN
 70
     1
  9
$DIMBLK
  1

  9
$DIMASO
 70
     1
  9
$DIMSHO
 70
     1
  9
$DIMPOST
  1

  9
$DIMAPOST
  1

  9
$DIMALT
 70
     0
  9
$DIMALTD
 70
     3
  9
$DIMALTF
 40
0.0393700787
  9
$DIMLFAC
 40
1.0
  9
$DIMTOFL
 70
     1
  9
$DIMTVP
 40
0.0
  9
$DIMTIX
 70
     0
  9
$DIMSOXD
 70
     0
  9
$DIMSAH
 70
     0
  9
$DIMBLK1
  1

  9
$DIMBLK2
  1

  9
$DIMSTYLE
  2
ISO-25
  9
$DIMCLRD
 70
     0
  9
$DIMCLRE
 70
     0
  9
$DIMCLRT
 70
     0
  9
$DIMTFAC
 40
1.0
  9
$DIMGAP
 40
1.524
  9
$DIMJUST
 70
     0
  9
$DIMSD1
 70
     0
  9
$DIMSD2
 70
     0
  9
$DIMTOLJ
 70
     0
  9
$DIMTZIN
 70
     1
  9
$DIMALTZ
 70
     0
  9
$DIMALTTZ
 70
     0
  9
$DIMUPT
 70
     0
  9
$DIMDEC
 70
     2
  9
$DIMTDEC
 70
     2
  9
$DIMALTU
 70
     2
  9
$DIMALTTD
 70
     3
  9
$DIMTXSTY
  7
Standard
  9
$DIMAUNIT
 70
     0
  9
$DIMADEC
 70
     0
  9
$DIMALTRND
 40
0.0
  9
$DIMAZIN
 70
     0
  9
$DIMDSEP
 70
    44
  9
$DIMATFIT
 70
     3
  9
$DIMFRAC
 70
     0
  9
$DIMLDRBLK
  1

  9
$DIMLUNIT
 70
     2
  9
$DIMLWD
 70
    -2
  9
$DIMLWE
 70
    -2
  9
$DIMTMOVE
 70
     0
  9
$LUNITS
 70
     2
  9
$LUPREC
 70
     1
  9
$SKETCHINC
 40
1.0
  9
$FILLETRAD
 40
10.0
  9
$AUNITS
 70
     0
  9
$AUPREC
 70
     0
  9
$MENU
  1
.
  9
$ELEVATION
 40
0.0
  9
$PELEVATION
 40
0.0
  9
$THICKNESS
 40
0.0
  9
$LIMCHECK
 70
     0
  9
$CHAMFERA
 40
10.0
  9
$CHAMFERB
 40
10.0
  9
$CHAMFERC
 40
20.0
  9
$CHAMFERD
 40
0.0
  9
$SKPOLY
 70
     0
  9
$TDCREATE
 40
2454309.389716435
  9
$TDUCREATE
 40
2454309.014716435
  9
$TDUPDATE
 40
2454309.389716447
  9
$TDUUPDATE
 40
2454309.014716447
  9
$TDINDWG
 40
0.0000000116
  9
$TDUSRTIMER
 40
0.0000000116
  9
$USRTIMER
 70
     1
  9
$ANGBASE
 50
0.0
  9
$ANGDIR
 70
     0
  9
$PDMODE
 70
     0
  9
$PDSIZE
 40
-1.0
  9
$PLINEWID
 40
0.0
  9
$SPLFRAME
 70
     0
  9
$SPLINETYPE
 70
     6
  9
$SPLINESEGS
 70
     8
  9
$HANDSEED
  5
2E6
  9
$SURFTAB1
 70
     6
  9
$SURFTAB2
 70
     6
  9
$SURFTYPE
 70
     6
  9
$SURFU
 70
     6
  9
$SURFV
 70
     6
  9
$UCSBASE
  2

  9
$UCSNAME
  2

  9
$UCSORG
 10
0.0
 20
0.0
 30
0.0
  9
$UCSXDIR
 10
1.0
 20
0.0
 30
0.0
  9
$UCSYDIR
 10
0.0
 20
1.0
 30
0.0
  9
$UCSORTHOREF
  2

  9
$UCSORTHOVIEW
 70
     0
  9
$UCSORGTOP
 10
0.0
 20
0.0
 30
0.0
  9
$UCSORGBOTTOM
 10
0.0
 20
0.0
 30
0.0
  9
$UCSORGLEFT
 10
0.0
 20
0.0
 30
0.0
  9
$UCSORGRIGHT
 10
0.0
 20
0.0
 30
0.0
  9
$UCSORGFRONT
 10
0.0
 20
0.0
 30
0.0
  9
$UCSORGBACK
 10
0.0
 20
0.0
 30
0.0
  9
$PUCSBASE
  2

  9
$PUCSNAME
  2

  9
$PUCSORG
 10
0.0
 20
0.0
 30
0.0
  9
$PUCSXDIR
 10
1.0
 20
0.0
 30
0.0
  9
$PUCSYDIR
 10
0.0
 20
1.0
 30
0.0
  9
$PUCSORTHOREF
  2

  9
$PUCSORTHOVIEW
 70
     0
  9
$PUCSORGTOP
 10
0.0
 20
0.0
 30
0.0
  9
$PUCSORGBOTTOM
 10
0.0
 20
0.0
 30
0.0
  9
$PUCSORGLEFT
 10
0.0
 20
0.0
 30
0.0
  9
$PUCSORGRIGHT
 10
0.0
 20
0.0
 30
0.0
  9
$PUCSORGFRONT
 10
0.0
 20
0.0
 30
0.0
  9
$PUCSORGBACK
 10
0.0
 20
0.0
 30
0.0
  9
$USERI1
 70
     0
  9
$USERI2
 70
     0
  9
$USERI3
 70
     0
  9
$USERI4
 70
     0
  9
$USERI5
 70
     0
  9
$USERR1
 40
0.0
  9
$USERR2
 40
0.0
  9
$USERR3
 40
0.0
  9
$USERR4
 40
0.0
  9
$USERR5
 40
0.0
  9
$WORLDVIEW
 70
     1
  9
$SHADEDGE
 70
     3
  9
$SHADEDIF
 70
    70
  9
$TILEMODE
 70
     1
  9
$MAXACTVP
 70
    64
  9
$PINSBASE
 10
0.0
 20
0.0
 30
0.0
  9
$PLIMCHECK
 70
     0
  9
$PEXTMIN
 10
1.0000000000E+20
 20
1.0000000000E+20
 30
1.0000000000E+20
  9
$PEXTMAX
 10
-1.0000000000E+20
 20
-1.0000000000E+20
 30
-1.0000000000E+20
  9
$PLIMMIN
 10
0.0
 20
0.0
  9
$PLIMMAX
 10
420.0
 20
297.0
  9
$UNITMODE
 70
     0
  9
$VISRETAIN
 70
     1
  9
$PLINEGEN
 70
     0
  9
$PSLTSCALE
 70
     1
  9
$TREEDEPTH
 70
  3020
  9
$CMLSTYLE
  2
Standard
  9
$CMLJUST
 70
     0
  9
$CMLSCALE
 40
20.0
  9
$PROXYGRAPHICS
 70
     1
  9
$MEASUREMENT
 70
     1
  9
$CELWEIGHT
370
    -1
  9
$ENDCAPS
280
     0
  9
$JOINSTYLE
280
     0
  9
$LWDISPLAY
290
     1
  9
$INSUNITS
 70
     4
  9
$HYPERLINKBASE
  1

  9
$STYLESHEET
  1

  9
$XEDIT
290
     1
  9
$CEPSNTYPE
380
     0
  9
$PSTYLEMODE
290
     1
  9
$FINGERPRINTGUID
  2
{527F2752-5CCB-4F1D-BFA6-61A3E27BD652}
  9
$VERSIONGUID
  2
{FAEB1C32-E019-11D5-929B-00C0DF256EC4}
  9
$EXTNAMES
290
     1
  9
$PSVPSCALE
 40
0.0
  9
$OLESTARTUP
290
     0
  0
ENDSEC
  0
SECTION
  2
CLASSES
  0
CLASS
  1
ACDBDICTIONARYWDFLT
  2
AcDbDictionaryWithDefault
  3
ObjectDBX Classes
 90
        0
280
     0
281
     0
  0
CLASS
  1
ACDBPLACEHOLDER
  2
AcDbPlaceHolder
  3
ObjectDBX Classes
 90
        0
280
     0
281
     0
  0
CLASS
  1
LAYOUT
  2
AcDbLayout
  3
ObjectDBX Classes
 90
        0
280
     0
281
     0
  0
ENDSEC
  0
SECTION
  2
TABLES
  0
TABLE
  2
VPORT
  5
8
330
0
100
AcDbSymbolTable
 70
     1
  0
VPORT
  5
29
330
8
100
AcDbSymbolTableRecord
100
AcDbViewportTableRecord
  2
*Active
 70
     0
 10
0.0
 20
0.0
 11
1.0
 21
1.0
 12
105.0
 22
148.5
 13
0.0
 23
0.0
 14
10.0
 24
10.0
 15
10.0
 25
10.0
 16
0.0
 26
0.0
 36
1.0
 17
0.0
 27
0.0
 37
0.0
 40
297.0
 41
1.9729729729
 42
50.0
 43
0.0
 44
0.0
 50
0.0
 51
0.0
 71
     0
 72
  2000
 73
     1
 74
     3
 75
     0
 76
     0
 77
     0
 78
     0
281
     0
 65
     1
110
0.0
120
0.0
130
0.0
111
1.0
121
0.0
131
0.0
112
0.0
122
1.0
132
0.0
 79
     0
146
0.0
  0
ENDTAB
  0
TABLE
  2
LTYPE
  5
5
330
0
100
AcDbSymbolTable
 70
     6
  0
LTYPE
  5
14
330
5
100
AcDbSymbolTableRecord
100
AcDbLinetypeTableRecord
  2
ByBlock
 70
     0
  3

 72
    65
 73
     0
 40
0.0
  0
LTYPE
  5
15
330
5
100
AcDbSymbolTableRecord
100
AcDbLinetypeTableRecord
  2
ByLayer
 70
     0
  3

 72
    65
 73
     0
 40
0.0
  0
LTYPE
  5
16
330
5
100
AcDbSymbolTableRecord
100
AcDbLinetypeTableRecord
  2
Continuous
 70
     0
  3
Solid line
 72
    65
 73
     0
 40
0.0
  0
LTYPE
  5
2A
330
5
100
AcDbSymbolTableRecord
100
AcDbLinetypeTableRecord
  2
HIDDEN
 70
     0
  3
Hidden __ __ __ __ __ __ __ __ __ __ __ __ __ __
 72
    65
 73
     2
 40
1.905
 49
1.27
 74
     0
 49
-0.635
 74
     0
  0
LTYPE
  5
2B
330
5
100
AcDbSymbolTableRecord
100
AcDbLinetypeTableRecord
  2
PHANTOM
 70
     0
  3
Phantom ______  __  __  ______  __  __  ______
 72
    65
 73
     6
 40
12.7
 49
6.35
 74
     0
 49
-1.27
 74
     0
 49
1.27
 74
     0
 49
-1.27
 74
     0
 49
1.27
 74
     0
 49
-1.27
 74
     0
  0
LTYPE
  5
2C
330
5
100
AcDbSymbolTableRecord
100
AcDbLinetypeTableRecord
  2
CENTER
 70
     0
  3
Center ____ _ ____ _ ____ _ ____ _ ____ _ ____
 72
    65
 73
     4
 40
10.16
 49
6.35
 74
     0
 49
-1.27
 74
     0
 49
1.27
 74
     0
 49
-1.27
 74
     0
  0
LTYPE
  5
2D
330
5
100
AcDbSymbolTableRecord
100
AcDbLinetypeTableRecord
  2
CENTERX2
 70
     0
  3
Center (2x) ________  __  ________  __  _____
 72
    65
 73
     4
 40
20.32
 49
12.7
 74
     0
 49
-2.54
 74
     0
 49
2.54
 74
     0
 49
-2.54
 74
     0
  0
LTYPE
  5
2E
330
5
100
AcDbSymbolTableRecord
100
AcDbLinetypeTableRecord
  2
DOT2
 70
     0
  3
Dot (.5x) ........................................
 72
    65
 73
     2
 40
0.635
 49
0.0
 74
     0
 49
-0.635
 74
     0
  0
ENDTAB
  0
TABLE
  2
LAYER
  5
2
330
0
100
AcDbSymbolTable
 70
     4
  0
LAYER
  5
10
330
2
100
AcDbSymbolTableRecord
100
AcDbLayerTableRecord
  2
0
 70
     0
 62
     7
  6
Continuous
370
    -3
390
F
  0
LAYER
  5
2F
330
2
100
AcDbSymbolTableRecord
100
AcDbLayerTableRecord
  2
SLD-0
 70
     0
 62
   179
  6
Continuous
370
     0
390
F
  0
LAYER
  5
30
330
2
100
AcDbSymbolTableRecord
100
AcDbLayerTableRecord
  2
SLD-DEFPOINTS
 70
     0
 62
   179
  6
Continuous
370
     0
390
F
  0
LAYER
  5
CA
330
2
100
AcDbSymbolTableRecord
100
AcDbLayerTableRecord
  2
Defpoints
 70
     0
 62
     7
  6
Continuous
290
     0
370
    -3
390
F
  0
ENDTAB
  0
TABLE
  2
STYLE
  5
3
330
0
100
AcDbSymbolTable
 70
     4
  0
STYLE
  5
11
330
3
100
AcDbSymbolTableRecord
100
AcDbTextStyleTableRecord
  2
Standard
 70
     0
 40
0.0
 41
1.0
 50
0.0
 71
     0
 42
2.5
  3
txt
  4
bigfont
  0
STYLE
  5
34
330
3
100
AcDbSymbolTableRecord
100
AcDbTextStyleTableRecord
  2
SLDTEXTSTYLE0
 70
     0
 40
0.0
 41
0.7
 50
0.0
 71
     0
 42
0.2
  3
TXT
  4
bigfont
  0
STYLE
  5
3C
330
3
100
AcDbSymbolTableRecord
100
AcDbTextStyleTableRecord
  2
SLDTEXTSTYLE1
 70
     0
 40
0.0
 41
0.5526315789
 50
0.0
 71
     0
 42
0.2
  3
TXT
  4
bigfont
  0
STYLE
  5
2DA
330
3
100
AcDbSymbolTableRecord
100
AcDbTextStyleTableRecord
  2
SLDTEXTSTYLE2
 70
     0
 40
0.0
 41
0.4891539735
 50
0.0
 71
     0
 42
0.2
  3
TXT
  4
bigfont
  0
ENDTAB
  0
TABLE
  2
VIEW
  5
6
330
0
100
AcDbSymbolTable
 70
     0
  0
ENDTAB
  0
TABLE
  2
UCS
  5
7
330
0
100
AcDbSymbolTable
 70
     0
  0
ENDTAB
  0
TABLE
  2
APPID
  5
9
330
0
100
AcDbSymbolTable
 70
     1
  0
APPID
  5
12
330
9
100
AcDbSymbolTableRecord
100
AcDbRegAppTableRecord
  2
ACAD
 70
     0
  0
ENDTAB
  0
TABLE
  2
DIMSTYLE
  5
A
330
0
100
AcDbSymbolTable
 70
     5
100
AcDbDimStyleTable
  0
DIMSTYLE
105
27
330
A
100
AcDbSymbolTableRecord
100
AcDbDimStyleTableRecord
  2
ISO-25
 70
     0
 41
2.5
 42
0.625
 43
3.75
 44
1.25
 73
     0
 74
     0
 77
     1
 78
     8
140
2.5
141
2.5
143
0.0393700787
147
0.625
171
     3
172
     1
271
     2
272
     2
274
     3
278
    44
283
     0
284
     8
340
11
  0
DIMSTYLE
105
D8
102
{ACAD_REACTORS
330
C9
330
E6
330
102
330
11A
330
132
330
16D
330
185
330
1AC
330
1C3
330
1DB
330
208
330
21F
330
238
330
251
330
26D
330
284
102
}
330
A
100
AcDbSymbolTableRecord
100
AcDbDimStyleTableRecord
  2
SLDDIMSTYLE0
 70
     0
 41
3.0
 44
0.0
 73
     0
 74
     0
 77
     3
 78
    12
140
3.5
147
0.875
173
     1
271
     0
272
     3
284
    12
340
3C
341
D9
343
D9
344
D9
  0
DIMSTYLE
105
153
102
{ACAD_REACTORS
330
149
330
1F6
330
2B5
102
}
330
A
100
AcDbSymbolTableRecord
100
AcDbDimStyleTableRecord
  2
SLDDIMSTYLE1
 70
     0
 41
3.0
 44
0.0
 78
    12
140
3.5
147
0.875
172
     1
173
     1
271
     1
272
     3
284
    12
340
3C
341
D9
343
D9
344
D9
  0
DIMSTYLE
105
166
102
{ACAD_REACTORS
330
15C
330
19C
330
2C8
102
}
330
A
100
AcDbSymbolTableRecord
100
AcDbDimStyleTableRecord
  2
SLDDIMSTYLE2
 70
     0
 41
3.0
 44
0.0
 78
    12
140
3.5
147
0.875
173
     1
271
     0
272
     3
284
    12
340
3C
341
D9
343
D9
344
D9
  0
DIMSTYLE
105
2AA
102
{ACAD_REACTORS
330
29C
102
}
330
A
100
AcDbSymbolTableRecord
100
AcDbDimStyleTableRecord
  2
SLDDIMSTYLE3
 70
     0
 41
3.0
 44
0.0
 73
     0
 74
     0
 77
     3
 78
    12
140
3.5
147
0.875
173
     1
271
     1
272
     3
284
    12
340
3C
341
D9
343
D9
344
D9
  0
ENDTAB
  0
TABLE
  2
BLOCK_RECORD
  5
1
330
0
100
AcDbSymbolTable
 70
    35
  0
BLOCK_RECORD
  5
1F
330
1
100
AcDbSymbolTableRecord
100
AcDbBlockTableRecord
  2
*Model_Space
340
22
  0
BLOCK_RECORD
  5
1B
330
1
100
AcDbSymbolTableRecord
100
AcDbBlockTableRecord
  2
*Paper_Space
340
1E
  0
BLOCK_RECORD
  5
23
330
1
100
AcDbSymbolTableRecord
100
AcDbBlockTableRecord
  2
*Paper_Space0
340
26
  0
BLOCK_RECORD
  5
31
330
1
100
AcDbSymbolTableRecord
100
AcDbBlockTableRecord
  2
注記
340
0
102
{BLKREFS
331
2DD
102
}
  0
BLOCK_RECORD
  5
37
330
1
100
AcDbSymbolTableRecord
100
AcDbBlockTableRecord
  2
SURFACEFINISH39
340
0
102
{BLKREFS
331
2DC
102
}
  0
BLOCK_RECORD
  5
3E
330
1
100
AcDbSymbolTableRecord
100
AcDbBlockTableRecord
  2
SW_CENTERMARK0
340
0
102
{BLKREFS
331
2DE
102
}
  0
BLOCK_RECORD
  5
49
330
1
100
AcDbSymbolTableRecord
100
AcDbBlockTableRecord
  2
SW_CENTERMARK1
340
0
102
{BLKREFS
331
2DF
102
}
  0
BLOCK_RECORD
  5
54
330
1
100
AcDbSymbolTableRecord
100
AcDbBlockTableRecord
  2
SW_CENTERMARK2
340
0
102
{BLKREFS
331
2E0
102
}
  0
BLOCK_RECORD
  5
5F
330
1
100
AcDbSymbolTableRecord
100
AcDbBlockTableRecord
  2
SW_CENTERMARK3
340
0
102
{BLKREFS
331
2E1
102
}
  0
BLOCK_RECORD
  5
6A
330
1
100
AcDbSymbolTableRecord
100
AcDbBlockTableRecord
  2
SW_CENTERMARK4
340
0
102
{BLKREFS
331
2E2
102
}
  0
BLOCK_RECORD
  5
75
330
1
100
AcDbSymbolTableRecord
100
AcDbBlockTableRecord
  2
SW_CENTERMARK5
340
0
102
{BLKREFS
331
2E3
102
}
  0
BLOCK_RECORD
  5
80
330
1
100
AcDbSymbolTableRecord
100
AcDbBlockTableRecord
  2
SW_CENTERMARK6
340
0
102
{BLKREFS
331
2E4
102
}
  0
BLOCK_RECORD
  5
8B
330
1
100
AcDbSymbolTableRecord
100
AcDbBlockTableRecord
  2
SW_CENTERMARK7
340
0
102
{BLKREFS
331
2E5
102
}
  0
BLOCK_RECORD
  5
CB
330
1
100
AcDbSymbolTableRecord
100
AcDbBlockTableRecord
  2
*D11
340
0
  0
BLOCK_RECORD
  5
D9
330
1
100
AcDbSymbolTableRecord
100
AcDbBlockTableRecord
  2
_None
340
0
102
{BLKREFS
331
D0
331
CF
331
ED
331
EC
331
108
331
107
331
120
331
11F
331
138
331
137
331
14E
331
161
331
173
331
172
331
18B
331
18A
331
1A1
331
1B2
331
1B1
331
1C9
331
1C8
331
1E2
331
1E1
331
1FB
331
20E
331
20D
331
225
331
224
331
23E
331
23D
331
258
331
257
331
273
331
272
331
28A
331
289
331
2A2
331
2A1
331
2BA
331
2CD
102
}
  0
BLOCK_RECORD
  5
E7
330
1
100
AcDbSymbolTableRecord
100
AcDbBlockTableRecord
  2
*D13
340
0
  0
BLOCK_RECORD
  5
103
330
1
100
AcDbSymbolTableRecord
100
AcDbBlockTableRecord
  2
*D14
340
0
  0
BLOCK_RECORD
  5
11B
330
1
100
AcDbSymbolTableRecord
100
AcDbBlockTableRecord
  2
*D15
340
0
  0
BLOCK_RECORD
  5
133
330
1
100
AcDbSymbolTableRecord
100
AcDbBlockTableRecord
  2
*D16
340
0
  0
BLOCK_RECORD
  5
14A
330
1
100
AcDbSymbolTableRecord
100
AcDbBlockTableRecord
  2
*D17
340
0
  0
BLOCK_RECORD
  5
15D
330
1
100
AcDbSymbolTableRecord
100
AcDbBlockTableRecord
  2
*D18
340
0
  0
BLOCK_RECORD
  5
16E
330
1
100
AcDbSymbolTableRecord
100
AcDbBlockTableRecord
  2
*D19
340
0
  0
BLOCK_RECORD
  5
186
330
1
100
AcDbSymbolTableRecord
100
AcDbBlockTableRecord
  2
*D20
340
0
  0
BLOCK_RECORD
  5
19D
330
1
100
AcDbSymbolTableRecord
100
AcDbBlockTableRecord
  2
*D21
340
0
  0
BLOCK_RECORD
  5
1AD
330
1
100
AcDbSymbolTableRecord
100
AcDbBlockTableRecord
  2
*D22
340
0
  0
BLOCK_RECORD
  5
1C4
330
1
100
AcDbSymbolTableRecord
100
AcDbBlockTableRecord
  2
*D23
340
0
  0
BLOCK_RECORD
  5
1DC
330
1
100
AcDbSymbolTableRecord
100
AcDbBlockTableRecord
  2
*D24
340
0
  0
BLOCK_RECORD
  5
1F7
330
1
100
AcDbSymbolTableRecord
100
AcDbBlockTableRecord
  2
*D25
340
0
  0
BLOCK_RECORD
  5
209
330
1
100
AcDbSymbolTableRecord
100
AcDbBlockTableRecord
  2
*D26
340
0
  0
BLOCK_RECORD
  5
220
330
1
100
AcDbSymbolTableRecord
100
AcDbBlockTableRecord
  2
*D27
340
0
  0
BLOCK_RECORD
  5
239
330
1
100
AcDbSymbolTableRecord
100
AcDbBlockTableRecord
  2
*D28
340
0
  0
BLOCK_RECORD
  5
252
330
1
100
AcDbSymbolTableRecord
100
AcDbBlockTableRecord
  2
*D29
340
0
  0
BLOCK_RECORD
  5
26E
330
1
100
AcDbSymbolTableRecord
100
AcDbBlockTableRecord
  2
*D30
340
0
  0
BLOCK_RECORD
  5
285
330
1
100
AcDbSymbolTableRecord
100
AcDbBlockTableRecord
  2
*D31
340
0
  0
BLOCK_RECORD
  5
29D
330
1
100
AcDbSymbolTableRecord
100
AcDbBlockTableRecord
  2
*D32
340
0
  0
BLOCK_RECORD
  5
2B6
330
1
100
AcDbSymbolTableRecord
100
AcDbBlockTableRecord
  2
*D33
340
0
  0
BLOCK_RECORD
  5
2C9
330
1
100
AcDbSymbolTableRecord
100
AcDbBlockTableRecord
  2
*D34
340
0
  0
ENDTAB
  0
ENDSEC
  0
SECTION
  2
BLOCKS
  0
BLOCK
  5
20
330
1F
100
AcDbEntity
  8
0
100
AcDbBlockBegin
  2
*Model_Space
 70
     0
 71
     0
 10
0.0
 20
0.0
 30
0.0
  3
*Model_Space
  1

  0
ENDBLK
  5
21
330
1F
100
AcDbEntity
  8
0
100
AcDbBlockEnd
  0
BLOCK
  5
1C
330
1B
100
AcDbEntity
 67
     1
  8
0
100
AcDbBlockBegin
  2
*Paper_Space
 70
     0
 71
     0
 10
0.0
 20
0.0
 30
0.0
  3
*Paper_Space
  1

  0
ENDBLK
  5
1D
330
1B
100
AcDbEntity
 67
     1
  8
0
100
AcDbBlockEnd
  0
BLOCK
  5
24
330
23
100
AcDbEntity
  8
0
100
AcDbBlockBegin
  2
*Paper_Space0
 70
     0
 71
     0
 10
0.0
 20
0.0
 30
0.0
  3
*Paper_Space0
  1

  0
ENDBLK
  5
25
330
23
100
AcDbEntity
  8
0
100
AcDbBlockEnd
  0
BLOCK
  5
32
330
31
100
AcDbEntity
  8
0
100
AcDbBlockBegin
  2
注記
 70
     0
 71
     0
 10
0.0
 20
0.0
 30
0.0
  3
注記
  1

  0
MTEXT
  5
35
330
31
100
AcDbEntity
  8
0
  6
Continuous
 62
     7
370
     0
100
AcDbMText
 10
0.2636785918
 20
9.0739778448
 30
0.0
 40
3.5
 41
0.0
 71
     1
 72
     1
  1
１．特記ナキ角部ハ、バリ　カエリノ無キコト。
  7
SLDTEXTSTYLE0
 73
     1
 44
1.0
  0
MTEXT
  5
36
330
31
100
AcDbEntity
  8
0
  6
Continuous
 62
     7
370
     0
100
AcDbMText
 10
0.2636785918
 20
3.5759549983
 30
0.0
 40
3.5
 41
0.0
 71
     1
 72
     1
  1
２．特記ナキ隅部ハ、Ｒ０．４ＭＡＸトスル。
  7
SLDTEXTSTYLE0
 73
     1
 44
1.0
  0
ENDBLK
  5
33
330
31
100
AcDbEntity
  8
0
100
AcDbBlockEnd
  0
BLOCK
  5
38
330
37
100
AcDbEntity
  8
0
100
AcDbBlockBegin
  2
SURFACEFINISH39
 70
     0
 71
     0
 10
0.0
 20
0.0
 30
0.0
  3
SURFACEFINISH39
  1

  0
LINE
  5
3A
330
37
100
AcDbEntity
  8
SLD-0
  6
Continuous
 62
   179
100
AcDbLine
 10
0.6656399396
 20
-6.0449245738
 30
0.0
 11
-2.9003789868
 21
0.0000001164
 31
0.0
  0
LINE
  5
3B
330
37
100
AcDbEntity
  8
SLD-0
  6
Continuous
 62
   179
100
AcDbLine
 10
0.6656399396
 20
-6.0449245738
 30
0.0
 11
7.7976777926
 21
6.0449248066
 31
0.0
  0
MTEXT
  5
3D
330
37
100
AcDbEntity
  8
SLD-0
100
AcDbMText
 10
0.0
 20
4.9341236929
 30
0.0
 40
3.175
 41
0.0
 71
     1
 72
     1
  1
25
  7
SLDTEXTSTYLE1
 73
     1
 44
1.0
  0
ENDBLK
  5
39
330
37
100
AcDbEntity
  8
0
100
AcDbBlockEnd
  0
BLOCK
  5
3F
330
3E
100
AcDbEntity
  8
0
100
AcDbBlockBegin
  2
SW_CENTERMARK0
 70
     0
 71
     0
 10
0.0
 20
0.0
 30
0.0
  3
SW_CENTERMARK0
  1

  0
LINE
  5
41
330
3E
100
AcDbEntity
  8
SLD-0
  6
Continuous
 62
   179
100
AcDbLine
 10
146.5250404722
 20
144.1588032452
 30
0.0
 11
146.5250404722
 21
146.6588032452
 31
0.0
  0
LINE
  5
42
330
3E
100
AcDbEntity
  8
SLD-0
  6
Continuous
 62
   179
100
AcDbLine
 10
146.5250404722
 20
144.1588032452
 30
0.0
 11
144.0250404722
 21
144.1588032452
 31
0.0
  0
LINE
  5
43
330
3E
100
AcDbEntity
  8
SLD-0
  6
Continuous
 62
   179
100
AcDbLine
 10
146.5250404722
 20
144.1588032452
 30
0.0
 11
146.5250404722
 21
141.6588032452
 31
0.0
  0
LINE
  5
44
330
3E
100
AcDbEntity
  8
SLD-0
  6
Continuous
 62
   179
100
AcDbLine
 10
146.5250404722
 20
144.1588032452
 30
0.0
 11
149.0250404722
 21
144.1588032452
 31
0.0
  0
LINE
  5
45
330
3E
100
AcDbEntity
  8
SLD-0
  6
Continuous
 62
   179
100
AcDbLine
 10
146.5250404722
 20
149.1588032452
 30
0.0
 11
146.5250404722
 21
149.9088032452
 31
0.0
  0
LINE
  5
46
330
3E
100
AcDbEntity
  8
SLD-0
  6
Continuous
 62
   179
100
AcDbLine
 10
141.5250404722
 20
144.1588032452
 30
0.0
 11
140.7750404722
 21
144.1588032452
 31
0.0
  0
LINE
  5
47
330
3E
100
AcDbEntity
  8
SLD-0
  6
Continuous
 62
   179
100
AcDbLine
 10
146.5250404722
 20
139.1588032452
 30
0.0
 11
146.5250404722
 21
138.4088032452
 31
0.0
  0
LINE
  5
48
330
3E
100
AcDbEntity
  8
SLD-0
  6
Continuous
 62
   179
100
AcDbLine
 10
151.5250404722
 20
144.1588032452
 30
0.0
 11
152.2750404722
 21
144.1588032452
 31
0.0
  0
ENDBLK
  5
40
330
3E
100
AcDbEntity
  8
0
100
AcDbBlockEnd
  0
BLOCK
  5
4A
330
49
100
AcDbEntity
  8
0
100
AcDbBlockBegin
  2
SW_CENTERMARK1
 70
     0
 71
     0
 10
0.0
 20
0.0
 30
0.0
  3
SW_CENTERMARK1
  1

  0
LINE
  5
4C
330
49
100
AcDbEntity
  8
SLD-0
  6
Continuous
 62
   179
100
AcDbLine
 10
146.5250404722
 20
129.1588032452
 30
0.0
 11
146.5250404722
 21
131.6588032452
 31
0.0
  0
LINE
  5
4D
330
49
100
AcDbEntity
  8
SLD-0
  6
Continuous
 62
   179
100
AcDbLine
 10
146.5250404722
 20
129.1588032452
 30
0.0
 11
144.0250404722
 21
129.1588032452
 31
0.0
  0
LINE
  5
4E
330
49
100
AcDbEntity
  8
SLD-0
  6
Continuous
 62
   179
100
AcDbLine
 10
146.5250404722
 20
129.1588032452
 30
0.0
 11
146.5250404722
 21
126.6588032452
 31
0.0
  0
LINE
  5
4F
330
49
100
AcDbEntity
  8
SLD-0
  6
Continuous
 62
   179
100
AcDbLine
 10
146.5250404722
 20
129.1588032452
 30
0.0
 11
149.0250404722
 21
129.1588032452
 31
0.0
  0
LINE
  5
50
330
49
100
AcDbEntity
  8
SLD-0
  6
Continuous
 62
   179
100
AcDbLine
 10
146.5250404722
 20
134.1588032452
 30
0.0
 11
146.5250404722
 21
134.9088032452
 31
0.0
  0
LINE
  5
51
330
49
100
AcDbEntity
  8
SLD-0
  6
Continuous
 62
   179
100
AcDbLine
 10
141.5250404722
 20
129.1588032452
 30
0.0
 11
140.7750404722
 21
129.1588032452
 31
0.0
  0
LINE
  5
52
330
49
100
AcDbEntity
  8
SLD-0
  6
Continuous
 62
   179
100
AcDbLine
 10
146.5250404722
 20
124.1588032452
 30
0.0
 11
146.5250404722
 21
123.4088032452
 31
0.0
  0
LINE
  5
53
330
49
100
AcDbEntity
  8
SLD-0
  6
Continuous
 62
   179
100
AcDbLine
 10
151.5250404722
 20
129.1588032452
 30
0.0
 11
152.2750404722
 21
129.1588032452
 31
0.0
  0
ENDBLK
  5
4B
330
49
100
AcDbEntity
  8
0
100
AcDbBlockEnd
  0
BLOCK
  5
55
330
54
100
AcDbEntity
  8
0
100
AcDbBlockBegin
  2
SW_CENTERMARK2
 70
     0
 71
     0
 10
0.0
 20
0.0
 30
0.0
  3
SW_CENTERMARK2
  1

  0
LINE
  5
57
330
54
100
AcDbEntity
  8
SLD-0
  6
Continuous
 62
   179
100
AcDbLine
 10
72.1082952009
 20
144.1588032452
 30
0.0
 11
72.1082952009
 21
146.6588032452
 31
0.0
  0
LINE
  5
58
330
54
100
AcDbEntity
  8
SLD-0
  6
Continuous
 62
   179
100
AcDbLine
 10
72.1082952009
 20
144.1588032452
 30
0.0
 11
69.6082952009
 21
144.1588032452
 31
0.0
  0
LINE
  5
59
330
54
100
AcDbEntity
  8
SLD-0
  6
Continuous
 62
   179
100
AcDbLine
 10
72.1082952009
 20
144.1588032452
 30
0.0
 11
72.1082952009
 21
141.6588032452
 31
0.0
  0
LINE
  5
5A
330
54
100
AcDbEntity
  8
SLD-0
  6
Continuous
 62
   179
100
AcDbLine
 10
72.1082952009
 20
144.1588032452
 30
0.0
 11
74.6082952009
 21
144.1588032452
 31
0.0
  0
LINE
  5
5B
330
54
100
AcDbEntity
  8
SLD-0
  6
Continuous
 62
   179
100
AcDbLine
 10
72.1082952009
 20
149.1588032452
 30
0.0
 11
72.1082952009
 21
149.9088032452
 31
0.0
  0
LINE
  5
5C
330
54
100
AcDbEntity
  8
SLD-0
  6
Continuous
 62
   179
100
AcDbLine
 10
67.1082952009
 20
144.1588032452
 30
0.0
 11
66.3582952009
 21
144.1588032452
 31
0.0
  0
LINE
  5
5D
330
54
100
AcDbEntity
  8
SLD-0
  6
Continuous
 62
   179
100
AcDbLine
 10
72.1082952009
 20
139.1588032452
 30
0.0
 11
72.1082952009
 21
138.4088032452
 31
0.0
  0
LINE
  5
5E
330
54
100
AcDbEntity
  8
SLD-0
  6
Continuous
 62
   179
100
AcDbLine
 10
77.1082952009
 20
144.1588032452
 30
0.0
 11
77.8582952009
 21
144.1588032452
 31
0.0
  0
ENDBLK
  5
56
330
54
100
AcDbEntity
  8
0
100
AcDbBlockEnd
  0
BLOCK
  5
60
330
5F
100
AcDbEntity
  8
0
100
AcDbBlockBegin
  2
SW_CENTERMARK3
 70
     0
 71
     0
 10
0.0
 20
0.0
 30
0.0
  3
SW_CENTERMARK3
  1

  0
LINE
  5
62
330
5F
100
AcDbEntity
  8
SLD-0
  6
Continuous
 62
   179
100
AcDbLine
 10
87.1082952009
 20
144.1588032452
 30
0.0
 11
87.1082952009
 21
146.6588032452
 31
0.0
  0
LINE
  5
63
330
5F
100
AcDbEntity
  8
SLD-0
  6
Continuous
 62
   179
100
AcDbLine
 10
87.1082952009
 20
144.1588032452
 30
0.0
 11
84.6082952009
 21
144.1588032452
 31
0.0
  0
LINE
  5
64
330
5F
100
AcDbEntity
  8
SLD-0
  6
Continuous
 62
   179
100
AcDbLine
 10
87.1082952009
 20
144.1588032452
 30
0.0
 11
87.1082952009
 21
141.6588032452
 31
0.0
  0
LINE
  5
65
330
5F
100
AcDbEntity
  8
SLD-0
  6
Continuous
 62
   179
100
AcDbLine
 10
87.1082952009
 20
144.1588032452
 30
0.0
 11
89.6082952009
 21
144.1588032452
 31
0.0
  0
LINE
  5
66
330
5F
100
AcDbEntity
  8
SLD-0
  6
Continuous
 62
   179
100
AcDbLine
 10
87.1082952009
 20
149.1588032452
 30
0.0
 11
87.1082952009
 21
149.9088032452
 31
0.0
  0
LINE
  5
67
330
5F
100
AcDbEntity
  8
SLD-0
  6
Continuous
 62
   179
100
AcDbLine
 10
82.1082952009
 20
144.1588032452
 30
0.0
 11
81.3582952009
 21
144.1588032452
 31
0.0
  0
LINE
  5
68
330
5F
100
AcDbEntity
  8
SLD-0
  6
Continuous
 62
   179
100
AcDbLine
 10
87.1082952009
 20
139.1588032452
 30
0.0
 11
87.1082952009
 21
138.4088032452
 31
0.0
  0
LINE
  5
69
330
5F
100
AcDbEntity
  8
SLD-0
  6
Continuous
 62
   179
100
AcDbLine
 10
92.1082952009
 20
144.1588032452
 30
0.0
 11
92.8582952009
 21
144.1588032452
 31
0.0
  0
ENDBLK
  5
61
330
5F
100
AcDbEntity
  8
0
100
AcDbBlockEnd
  0
BLOCK
  5
6B
330
6A
100
AcDbEntity
  8
0
100
AcDbBlockBegin
  2
SW_CENTERMARK4
 70
     0
 71
     0
 10
0.0
 20
0.0
 30
0.0
  3
SW_CENTERMARK4
  1

  0
LINE
  5
6D
330
6A
100
AcDbEntity
  8
SLD-0
  6
Continuous
 62
   179
100
AcDbLine
 10
87.1082952009
 20
129.1588032452
 30
0.0
 11
87.1082952009
 21
131.6588032452
 31
0.0
  0
LINE
  5
6E
330
6A
100
AcDbEntity
  8
SLD-0
  6
Continuous
 62
   179
100
AcDbLine
 10
87.1082952009
 20
129.1588032452
 30
0.0
 11
84.6082952009
 21
129.1588032452
 31
0.0
  0
LINE
  5
6F
330
6A
100
AcDbEntity
  8
SLD-0
  6
Continuous
 62
   179
100
AcDbLine
 10
87.1082952009
 20
129.1588032452
 30
0.0
 11
87.1082952009
 21
126.6588032452
 31
0.0
  0
LINE
  5
70
330
6A
100
AcDbEntity
  8
SLD-0
  6
Continuous
 62
   179
100
AcDbLine
 10
87.1082952009
 20
129.1588032452
 30
0.0
 11
89.6082952009
 21
129.1588032452
 31
0.0
  0
LINE
  5
71
330
6A
100
AcDbEntity
  8
SLD-0
  6
Continuous
 62
   179
100
AcDbLine
 10
87.1082952009
 20
134.1588032452
 30
0.0
 11
87.1082952009
 21
134.9088032452
 31
0.0
  0
LINE
  5
72
330
6A
100
AcDbEntity
  8
SLD-0
  6
Continuous
 62
   179
100
AcDbLine
 10
82.1082952009
 20
129.1588032452
 30
0.0
 11
81.3582952009
 21
129.1588032452
 31
0.0
  0
LINE
  5
73
330
6A
100
AcDbEntity
  8
SLD-0
  6
Continuous
 62
   179
100
AcDbLine
 10
87.1082952009
 20
124.1588032452
 30
0.0
 11
87.1082952009
 21
123.4088032452
 31
0.0
  0
LINE
  5
74
330
6A
100
AcDbEntity
  8
SLD-0
  6
Continuous
 62
   179
100
AcDbLine
 10
92.1082952009
 20
129.1588032452
 30
0.0
 11
92.8582952009
 21
129.1588032452
 31
0.0
  0
ENDBLK
  5
6C
330
6A
100
AcDbEntity
  8
0
100
AcDbBlockEnd
  0
BLOCK
  5
76
330
75
100
AcDbEntity
  8
0
100
AcDbBlockBegin
  2
SW_CENTERMARK5
 70
     0
 71
     0
 10
0.0
 20
0.0
 30
0.0
  3
SW_CENTERMARK5
  1

  0
LINE
  5
78
330
75
100
AcDbEntity
  8
SLD-0
  6
Continuous
 62
   179
100
AcDbLine
 10
72.1082952009
 20
129.1588032452
 30
0.0
 11
72.1082952009
 21
131.6588032452
 31
0.0
  0
LINE
  5
79
330
75
100
AcDbEntity
  8
SLD-0
  6
Continuous
 62
   179
100
AcDbLine
 10
72.1082952009
 20
129.1588032452
 30
0.0
 11
69.6082952009
 21
129.1588032452
 31
0.0
  0
LINE
  5
7A
330
75
100
AcDbEntity
  8
SLD-0
  6
Continuous
 62
   179
100
AcDbLine
 10
72.1082952009
 20
129.1588032452
 30
0.0
 11
72.1082952009
 21
126.6588032452
 31
0.0
  0
LINE
  5
7B
330
75
100
AcDbEntity
  8
SLD-0
  6
Continuous
 62
   179
100
AcDbLine
 10
72.1082952009
 20
129.1588032452
 30
0.0
 11
74.6082952009
 21
129.1588032452
 31
0.0
  0
LINE
  5
7C
330
75
100
AcDbEntity
  8
SLD-0
  6
Continuous
 62
   179
100
AcDbLine
 10
72.1082952009
 20
134.1588032452
 30
0.0
 11
72.1082952009
 21
134.9088032452
 31
0.0
  0
LINE
  5
7D
330
75
100
AcDbEntity
  8
SLD-0
  6
Continuous
 62
   179
100
AcDbLine
 10
67.1082952009
 20
129.1588032452
 30
0.0
 11
66.3582952009
 21
129.1588032452
 31
0.0
  0
LINE
  5
7E
330
75
100
AcDbEntity
  8
SLD-0
  6
Continuous
 62
   179
100
AcDbLine
 10
72.1082952009
 20
124.1588032452
 30
0.0
 11
72.1082952009
 21
123.4088032452
 31
0.0
  0
LINE
  5
7F
330
75
100
AcDbEntity
  8
SLD-0
  6
Continuous
 62
   179
100
AcDbLine
 10
77.1082952009
 20
129.1588032452
 30
0.0
 11
77.8582952009
 21
129.1588032452
 31
0.0
  0
ENDBLK
  5
77
330
75
100
AcDbEntity
  8
0
100
AcDbBlockEnd
  0
BLOCK
  5
81
330
80
100
AcDbEntity
  8
0
100
AcDbBlockBegin
  2
SW_CENTERMARK6
 70
     0
 71
     0
 10
0.0
 20
0.0
 30
0.0
  3
SW_CENTERMARK6
  1

  0
LINE
  5
83
330
80
100
AcDbEntity
  8
SLD-0
  6
Continuous
 62
   179
100
AcDbLine
 10
72.1082952009
 20
204.557513232
 30
0.0
 11
72.1082952009
 21
207.057513232
 31
0.0
  0
LINE
  5
84
330
80
100
AcDbEntity
  8
SLD-0
  6
Continuous
 62
   179
100
AcDbLine
 10
72.1082952009
 20
204.557513232
 30
0.0
 11
69.6082952009
 21
204.557513232
 31
0.0
  0
LINE
  5
85
330
80
100
AcDbEntity
  8
SLD-0
  6
Continuous
 62
   179
100
AcDbLine
 10
72.1082952009
 20
204.557513232
 30
0.0
 11
72.1082952009
 21
202.057513232
 31
0.0
  0
LINE
  5
86
330
80
100
AcDbEntity
  8
SLD-0
  6
Continuous
 62
   179
100
AcDbLine
 10
72.1082952009
 20
204.557513232
 30
0.0
 11
74.6082952009
 21
204.557513232
 31
0.0
  0
LINE
  5
87
330
80
100
AcDbEntity
  8
SLD-0
  6
Continuous
 62
   179
100
AcDbLine
 10
72.1082952009
 20
209.557513232
 30
0.0
 11
72.1082952009
 21
210.307513232
 31
0.0
  0
LINE
  5
88
330
80
100
AcDbEntity
  8
SLD-0
  6
Continuous
 62
   179
100
AcDbLine
 10
67.1082952009
 20
204.557513232
 30
0.0
 11
66.3582952009
 21
204.557513232
 31
0.0
  0
LINE
  5
89
330
80
100
AcDbEntity
  8
SLD-0
  6
Continuous
 62
   179
100
AcDbLine
 10
72.1082952009
 20
199.557513232
 30
0.0
 11
72.1082952009
 21
198.807513232
 31
0.0
  0
LINE
  5
8A
330
80
100
AcDbEntity
  8
SLD-0
  6
Continuous
 62
   179
100
AcDbLine
 10
77.1082952009
 20
204.557513232
 30
0.0
 11
77.8582952009
 21
204.557513232
 31
0.0
  0
ENDBLK
  5
82
330
80
100
AcDbEntity
  8
0
100
AcDbBlockEnd
  0
BLOCK
  5
8C
330
8B
100
AcDbEntity
  8
0
100
AcDbBlockBegin
  2
SW_CENTERMARK7
 70
     0
 71
     0
 10
0.0
 20
0.0
 30
0.0
  3
SW_CENTERMARK7
  1

  0
LINE
  5
8E
330
8B
100
AcDbEntity
  8
SLD-0
  6
Continuous
 62
   179
100
AcDbLine
 10
87.1082952009
 20
204.557513232
 30
0.0
 11
87.1082952009
 21
207.057513232
 31
0.0
  0
LINE
  5
8F
330
8B
100
AcDbEntity
  8
SLD-0
  6
Continuous
 62
   179
100
AcDbLine
 10
87.1082952009
 20
204.557513232
 30
0.0
 11
84.6082952009
 21
204.557513232
 31
0.0
  0
LINE
  5
90
330
8B
100
AcDbEntity
  8
SLD-0
  6
Continuous
 62
   179
100
AcDbLine
 10
87.1082952009
 20
204.557513232
 30
0.0
 11
87.1082952009
 21
202.057513232
 31
0.0
  0
LINE
  5
91
330
8B
100
AcDbEntity
  8
SLD-0
  6
Continuous
 62
   179
100
AcDbLine
 10
87.1082952009
 20
204.557513232
 30
0.0
 11
89.6082952009
 21
204.557513232
 31
0.0
  0
LINE
  5
92
330
8B
100
AcDbEntity
  8
SLD-0
  6
Continuous
 62
   179
100
AcDbLine
 10
87.1082952009
 20
209.557513232
 30
0.0
 11
87.1082952009
 21
210.307513232
 31
0.0
  0
LINE
  5
93
330
8B
100
AcDbEntity
  8
SLD-0
  6
Continuous
 62
   179
100
AcDbLine
 10
82.1082952009
 20
204.557513232
 30
0.0
 11
81.3582952009
 21
204.557513232
 31
0.0
  0
LINE
  5
94
330
8B
100
AcDbEntity
  8
SLD-0
  6
Continuous
 62
   179
100
AcDbLine
 10
87.1082952009
 20
199.557513232
 30
0.0
 11
87.1082952009
 21
198.807513232
 31
0.0
  0
LINE
  5
95
330
8B
100
AcDbEntity
  8
SLD-0
  6
Continuous
 62
   179
100
AcDbLine
 10
92.1082952009
 20
204.557513232
 30
0.0
 11
92.8582952009
 21
204.557513232
 31
0.0
  0
ENDBLK
  5
8D
330
8B
100
AcDbEntity
  8
0
100
AcDbBlockEnd
  0
BLOCK
  5
D6
330
CB
100
AcDbEntity
  8
0
100
AcDbBlockBegin
  2
*D11
 70
     1
 71
     0
 10
0.0
 20
0.0
 30
0.0
  3
*D11
  1

  0
LINE
  5
DC
330
CB
100
AcDbEntity
  8
SLD-0
 62
     7
100
AcDbLine
 10
167.5250404722
 20
149.1588032452
 30
0.0
 11
185.3367458706
 21
149.1588032452
 31
0.0
  0
LINE
  5
DD
330
CB
100
AcDbEntity
  8
SLD-0
 62
     7
100
AcDbLine
 10
167.5250404722
 20
109.1588032452
 30
0.0
 11
185.3367458706
 21
109.1588032452
 31
0.0
  0
LINE
  5
DE
330
CB
100
AcDbEntity
  8
SLD-0
 62
     7
100
AcDbLine
 10
184.3367458706
 20
149.1588032452
 30
0.0
 11
184.3367458706
 21
109.1588032452
 31
0.0
  0
LINE
  5
DF
330
CB
100
AcDbEntity
  8
SLD-0
 62
     7
100
AcDbLine
 10
183.5328988706
 20
146.1588032452
 30
0.0
 11
184.3367458706
 21
149.1588032452
 31
0.0
  0
LINE
  5
E0
330
CB
100
AcDbEntity
  8
SLD-0
 62
     7
100
AcDbLine
 10
184.3367458706
 20
149.1588032452
 30
0.0
 11
185.1405928706
 21
146.1588032452
 31
0.0
  0
LINE
  5
E1
330
CB
100
AcDbEntity
  8
SLD-0
 62
     7
100
AcDbLine
 10
184.3367458706
 20
149.1588032452
 30
0.0
 11
184.3367458706
 21
146.1588032452
 31
0.0
  0
LINE
  5
E2
330
CB
100
AcDbEntity
  8
SLD-0
 62
     7
100
AcDbLine
 10
185.1405928706
 20
112.1588032452
 30
0.0
 11
184.3367458706
 21
109.1588032452
 31
0.0
  0
LINE
  5
E3
330
CB
100
AcDbEntity
  8
SLD-0
 62
     7
100
AcDbLine
 10
184.3367458706
 20
109.1588032452
 30
0.0
 11
183.5328988706
 21
112.1588032452
 31
0.0
  0
LINE
  5
E4
330
CB
100
AcDbEntity
  8
SLD-0
 62
     7
100
AcDbLine
 10
184.3367458706
 20
109.1588032452
 30
0.0
 11
184.3367458706
 21
112.1588032452
 31
0.0
  0
MTEXT
  5
E5
330
CB
100
AcDbEntity
  8
SLD-0
 62
     7
100
AcDbMText
 10
179.8100521747
 20
127.123368022
 30
0.1
 40
3.5
 41
0.0
 71
     1
 72
     1
  1
40
  7
SLDTEXTSTYLE0
 11
6.123031769111886E-17
 21
1.0
 31
0.0
 73
     1
 44
1.0
  0
ENDBLK
  5
D7
330
CB
100
AcDbEntity
  8
0
100
AcDbBlockEnd
  0
BLOCK
  5
DA
330
D9
100
AcDbEntity
  8
0
100
AcDbBlockBegin
  2
_None
 70
     0
 71
     0
 10
0.0
 20
0.0
 30
0.0
  3
_None
  1

  0
ENDBLK
  5
DB
330
D9
100
AcDbEntity
  8
0
100
AcDbBlockEnd
  0
BLOCK
  5
F4
330
E7
100
AcDbEntity
  8
0
100
AcDbBlockBegin
  2
*D13
 70
     1
 71
     0
 10
0.0
 20
0.0
 30
0.0
  3
*D13
  1

  0
LINE
  5
F6
330
E7
100
AcDbEntity
  8
SLD-0
 62
     7
100
AcDbLine
 10
161.5250404722
 20
150.1588032452
 30
0.0
 11
161.5250404722
 21
160.3884918559
 31
0.0
  0
LINE
  5
F7
330
E7
100
AcDbEntity
  8
SLD-0
 62
     7
100
AcDbLine
 10
166.5250404722
 20
150.1588032452
 30
0.0
 11
166.5250404722
 21
160.3884918559
 31
0.0
  0
LINE
  5
F8
330
E7
100
AcDbEntity
  8
SLD-0
 62
     7
100
AcDbLine
 10
161.5250404722
 20
159.3884918559
 30
0.0
 11
156.5250404722
 21
159.3884918559
 31
0.0
  0
LINE
  5
F9
330
E7
100
AcDbEntity
  8
SLD-0
 62
     7
100
AcDbLine
 10
161.5250404722
 20
159.3884918559
 30
0.0
 11
166.5250404722
 21
159.3884918559
 31
0.0
  0
LINE
  5
FA
330
E7
100
AcDbEntity
  8
SLD-0
 62
     7
100
AcDbLine
 10
166.5250404722
 20
159.3884918559
 30
0.0
 11
175.3214044015
 21
159.3884918559
 31
0.0
  0
LINE
  5
FB
330
E7
100
AcDbEntity
  8
SLD-0
 62
     7
100
AcDbLine
 10
158.5250404722
 20
160.1923388559
 30
0.0
 11
161.5250404722
 21
159.3884918559
 31
0.0
  0
LINE
  5
FC
330
E7
100
AcDbEntity
  8
SLD-0
 62
     7
100
AcDbLine
 10
161.5250404722
 20
159.3884918559
 30
0.0
 11
158.5250404722
 21
158.5846448559
 31
0.0
  0
LINE
  5
FD
330
E7
100
AcDbEntity
  8
SLD-0
 62
     7
100
AcDbLine
 10
161.5250404722
 20
159.3884918559
 30
0.0
 11
158.5250404722
 21
159.3884918559
 31
0.0
  0
LINE
  5
FE
330
E7
100
AcDbEntity
  8
SLD-0
 62
     7
100
AcDbLine
 10
169.5250404722
 20
158.5846448559
 30
0.0
 11
166.5250404722
 21
159.3884918559
 31
0.0
  0
LINE
  5
FF
330
E7
100
AcDbEntity
  8
SLD-0
 62
     7
100
AcDbLine
 10
166.5250404722
 20
159.3884918559
 30
0.0
 11
169.5250404722
 21
160.1923388559
 31
0.0
  0
LINE
  5
100
330
E7
100
AcDbEntity
  8
SLD-0
 62
     7
100
AcDbLine
 10
166.5250404722
 20
159.3884918559
 30
0.0
 11
169.5250404722
 21
159.3884918559
 31
0.0
  0
MTEXT
  5
101
330
E7
100
AcDbEntity
  8
SLD-0
 62
     7
100
AcDbMText
 10
171.6984691784
 20
163.9151855519
 30
0.1
 40
3.5
 41
0.0
 71
     1
 72
     1
  1
5
  7
SLDTEXTSTYLE0
 73
     1
 44
1.0
  0
ENDBLK
  5
F5
330
E7
100
AcDbEntity
  8
0
100
AcDbBlockEnd
  0
BLOCK
  5
10E
330
103
100
AcDbEntity
  8
0
100
AcDbBlockBegin
  2
*D14
 70
     1
 71
     0
 10
0.0
 20
0.0
 30
0.0
  3
*D14
  1

  0
LINE
  5
110
330
103
100
AcDbEntity
  8
SLD-0
 62
     7
100
AcDbLine
 10
147.5250404722
 20
129.1588032452
 30
0.0
 11
177.1803555961
 21
129.1588032452
 31
0.0
  0
LINE
  5
111
330
103
100
AcDbEntity
  8
SLD-0
 62
     7
100
AcDbLine
 10
147.5250404722
 20
144.1588032452
 30
0.0
 11
177.1803555961
 21
144.1588032452
 31
0.0
  0
LINE
  5
112
330
103
100
AcDbEntity
  8
SLD-0
 62
     7
100
AcDbLine
 10
176.1803555961
 20
129.1588032452
 30
0.0
 11
176.1803555961
 21
144.1588032452
 31
0.0
  0
LINE
  5
113
330
103
100
AcDbEntity
  8
SLD-0
 62
     7
100
AcDbLine
 10
176.9842025961
 20
132.1588032452
 30
0.0
 11
176.1803555961
 21
129.1588032452
 31
0.0
  0
LINE
  5
114
330
103
100
AcDbEntity
  8
SLD-0
 62
     7
100
AcDbLine
 10
176.1803555961
 20
129.1588032452
 30
0.0
 11
175.3765085961
 21
132.1588032452
 31
0.0
  0
LINE
  5
115
330
103
100
AcDbEntity
  8
SLD-0
 62
     7
100
AcDbLine
 10
176.1803555961
 20
129.1588032452
 30
0.0
 11
176.1803555961
 21
132.1588032452
 31
0.0
  0
LINE
  5
116
330
103
100
AcDbEntity
  8
SLD-0
 62
     7
100
AcDbLine
 10
175.3765085961
 20
141.1588032452
 30
0.0
 11
176.1803555961
 21
144.1588032452
 31
0.0
  0
LINE
  5
117
330
103
100
AcDbEntity
  8
SLD-0
 62
     7
100
AcDbLine
 10
176.1803555961
 20
144.1588032452
 30
0.0
 11
176.9842025961
 21
141.1588032452
 31
0.0
  0
LINE
  5
118
330
103
100
AcDbEntity
  8
SLD-0
 62
     7
100
AcDbLine
 10
176.1803555961
 20
144.1588032452
 30
0.0
 11
176.1803555961
 21
141.1588032452
 31
0.0
  0
MTEXT
  5
119
330
103
100
AcDbEntity
  8
SLD-0
 62
     7
100
AcDbMText
 10
171.6536619002
 20
134.623368022
 30
0.1
 40
3.5
 41
0.0
 71
     1
 72
     1
  1
15
  7
SLDTEXTSTYLE0
 11
6.123031769111886E-17
 21
1.0
 31
0.0
 73
     1
 44
1.0
  0
ENDBLK
  5
10F
330
103
100
AcDbEntity
  8
0
100
AcDbBlockEnd
  0
BLOCK
  5
126
330
11B
100
AcDbEntity
  8
0
100
AcDbBlockBegin
  2
*D15
 70
     1
 71
     0
 10
0.0
 20
0.0
 30
0.0
  3
*D15
  1

  0
LINE
  5
128
330
11B
100
AcDbEntity
  8
SLD-0
 62
     7
100
AcDbLine
 10
167.5250404722
 20
109.1588032452
 30
0.0
 11
177.1803555961
 21
109.1588032452
 31
0.0
  0
LINE
  5
129
330
11B
100
AcDbEntity
  8
SLD-0
 62
     7
100
AcDbLine
 10
147.5250404722
 20
129.1588032452
 30
0.0
 11
177.1803555961
 21
129.1588032452
 31
0.0
  0
LINE
  5
12A
330
11B
100
AcDbEntity
  8
SLD-0
 62
     7
100
AcDbLine
 10
176.1803555961
 20
109.1588032452
 30
0.0
 11
176.1803555961
 21
129.1588032452
 31
0.0
  0
LINE
  5
12B
330
11B
100
AcDbEntity
  8
SLD-0
 62
     7
100
AcDbLine
 10
176.9842025961
 20
112.1588032452
 30
0.0
 11
176.1803555961
 21
109.1588032452
 31
0.0
  0
LINE
  5
12C
330
11B
100
AcDbEntity
  8
SLD-0
 62
     7
100
AcDbLine
 10
176.1803555961
 20
109.1588032452
 30
0.0
 11
175.3765085961
 21
112.1588032452
 31
0.0
  0
LINE
  5
12D
330
11B
100
AcDbEntity
  8
SLD-0
 62
     7
100
AcDbLine
 10
176.1803555961
 20
109.1588032452
 30
0.0
 11
176.1803555961
 21
112.1588032452
 31
0.0
  0
LINE
  5
12E
330
11B
100
AcDbEntity
  8
SLD-0
 62
     7
100
AcDbLine
 10
175.3765085961
 20
126.1588032452
 30
0.0
 11
176.1803555961
 21
129.1588032452
 31
0.0
  0
LINE
  5
12F
330
11B
100
AcDbEntity
  8
SLD-0
 62
     7
100
AcDbLine
 10
176.1803555961
 20
129.1588032452
 30
0.0
 11
176.9842025961
 21
126.1588032452
 31
0.0
  0
LINE
  5
130
330
11B
100
AcDbEntity
  8
SLD-0
 62
     7
100
AcDbLine
 10
176.1803555961
 20
129.1588032452
 30
0.0
 11
176.1803555961
 21
126.1588032452
 31
0.0
  0
MTEXT
  5
131
330
11B
100
AcDbEntity
  8
SLD-0
 62
     7
100
AcDbMText
 10
171.6536619002
 20
117.123368022
 30
0.1
 40
3.5
 41
0.0
 71
     1
 72
     1
  1
20
  7
SLDTEXTSTYLE0
 11
6.123031769111886E-17
 21
1.0
 31
0.0
 73
     1
 44
1.0
  0
ENDBLK
  5
127
330
11B
100
AcDbEntity
  8
0
100
AcDbBlockEnd
  0
BLOCK
  5
13D
330
133
100
AcDbEntity
  8
0
100
AcDbBlockBegin
  2
*D16
 70
     1
 71
     0
 10
0.0
 20
0.0
 30
0.0
  3
*D16
  1

  0
LINE
  5
13F
330
133
100
AcDbEntity
  8
SLD-0
 62
     7
100
AcDbLine
 10
166.5250404722
 20
150.1588032452
 30
0.0
 11
166.5250404722
 21
169.2883853555
 31
0.0
  0
LINE
  5
140
330
133
100
AcDbEntity
  8
SLD-0
 62
     7
100
AcDbLine
 10
146.5250404722
 20
150.9088032452
 30
0.0
 11
146.5250404722
 21
169.2883853555
 31
0.0
  0
LINE
  5
141
330
133
100
AcDbEntity
  8
SLD-0
 62
     7
100
AcDbLine
 10
166.5250404722
 20
168.2883853555
 30
0.0
 11
146.5250404722
 21
168.2883853555
 31
0.0
  0
LINE
  5
142
330
133
100
AcDbEntity
  8
SLD-0
 62
     7
100
AcDbLine
 10
163.5250404722
 20
169.0922323555
 30
0.0
 11
166.5250404722
 21
168.2883853555
 31
0.0
  0
LINE
  5
143
330
133
100
AcDbEntity
  8
SLD-0
 62
     7
100
AcDbLine
 10
166.5250404722
 20
168.2883853555
 30
0.0
 11
163.5250404722
 21
167.4845383555
 31
0.0
  0
LINE
  5
144
330
133
100
AcDbEntity
  8
SLD-0
 62
     7
100
AcDbLine
 10
166.5250404722
 20
168.2883853555
 30
0.0
 11
163.5250404722
 21
168.2883853555
 31
0.0
  0
LINE
  5
145
330
133
100
AcDbEntity
  8
SLD-0
 62
     7
100
AcDbLine
 10
149.5250404722
 20
167.4845383555
 30
0.0
 11
146.5250404722
 21
168.2883853555
 31
0.0
  0
LINE
  5
146
330
133
100
AcDbEntity
  8
SLD-0
 62
     7
100
AcDbLine
 10
146.5250404722
 20
168.2883853555
 30
0.0
 11
149.5250404722
 21
169.0922323555
 31
0.0
  0
LINE
  5
147
330
133
100
AcDbEntity
  8
SLD-0
 62
     7
100
AcDbLine
 10
146.5250404722
 20
168.2883853555
 30
0.0
 11
149.5250404722
 21
168.2883853555
 31
0.0
  0
MTEXT
  5
148
330
133
100
AcDbEntity
  8
SLD-0
 62
     7
100
AcDbMText
 10
154.489605249
 20
172.8150790514
 30
0.1
 40
3.5
 41
0.0
 71
     1
 72
     1
  1
20
  7
SLDTEXTSTYLE0
 73
     1
 44
1.0
  0
ENDBLK
  5
13E
330
133
100
AcDbEntity
  8
0
100
AcDbBlockEnd
  0
BLOCK
  5
151
330
14A
100
AcDbEntity
  8
0
100
AcDbBlockBegin
  2
*D17
 70
     1
 71
     0
 10
0.0
 20
0.0
 30
0.0
  3
*D17
  1

  0
LINE
  5
154
330
14A
100
AcDbEntity
  8
SLD-0
 62
     7
100
AcDbLine
 10
144.8584019043
 20
146.9489315369
 30
0.0
 11
138.643663965
 21
157.3530566328
 31
0.0
  0
LINE
  5
155
330
14A
100
AcDbEntity
  8
SLD-0
 62
     7
100
AcDbLine
 10
138.643663965
 20
157.3530566328
 30
0.0
 11
119.8304486453
 21
157.3530566328
 31
0.0
  0
LINE
  5
156
330
14A
100
AcDbEntity
  8
SLD-0
 62
     7
100
AcDbLine
 10
144.0100697668
 20
149.9366568563
 30
0.0
 11
144.8584019043
 21
146.9489315369
 31
0.0
  0
LINE
  5
157
330
14A
100
AcDbEntity
  8
SLD-0
 62
     7
100
AcDbLine
 10
144.8584019043
 20
146.9489315369
 30
0.0
 11
142.6298628395
 21
149.1122122945
 31
0.0
  0
LINE
  5
158
330
14A
100
AcDbEntity
  8
SLD-0
 62
     7
100
AcDbLine
 10
144.8584019043
 20
146.9489315369
 30
0.0
 11
143.3199663032
 21
149.5244345754
 31
0.0
  0
MTEXT
  5
159
330
14A
100
AcDbEntity
  8
SLD-0
 62
     7
100
AcDbMText
 10
121.4179486453
 20
161.8797503287
 30
0.1
 40
3.5
 41
0.0
 71
     1
 72
     1
  1
2-
  7
SLDTEXTSTYLE0
 73
     1
 44
1.0
  0
MTEXT
  5
15A
330
14A
100
AcDbEntity
  8
SLD-0
 62
     7
100
AcDbMText
 10
123.7415596403
 20
161.8797500959
 30
0.1
 40
3.5
 41
0.0
 71
     1
 72
     1
  1
%%c
  7
SLDTEXTSTYLE0
 73
     1
 44
1.0
  0
MTEXT
  5
15B
330
14A
100
AcDbEntity
  8
SLD-0
 62
     7
100
AcDbMText
 10
129.3587040132
 20
161.8797503287
 30
0.1
 40
3.5
 41
0.0
 71
     1
 72
     1
  1
6.5
  7
SLDTEXTSTYLE0
 73
     1
 44
1.0
  0
ENDBLK
  5
152
330
14A
100
AcDbEntity
  8
0
100
AcDbBlockEnd
  0
BLOCK
  5
164
330
15D
100
AcDbEntity
  8
0
100
AcDbBlockBegin
  2
*D18
 70
     1
 71
     0
 10
0.0
 20
0.0
 30
0.0
  3
*D18
  1

  0
LINE
  5
167
330
15D
100
AcDbEntity
  8
SLD-0
 62
     7
100
AcDbLine
 10
160.601638926
 20
114.9936845737
 30
0.0
 11
150.3369920238
 21
125.6128602322
 31
0.0
  0
LINE
  5
168
330
15D
100
AcDbEntity
  8
SLD-0
 62
     7
100
AcDbLine
 10
159.0946028206
 20
117.7093819384
 30
0.0
 11
160.601638926
 21
114.9936845737
 31
0.0
  0
LINE
  5
169
330
15D
100
AcDbEntity
  8
SLD-0
 62
     7
100
AcDbLine
 10
160.601638926
 20
114.9936845737
 30
0.0
 11
157.9386592659
 21
116.592030384
 31
0.0
  0
LINE
  5
16A
330
15D
100
AcDbEntity
  8
SLD-0
 62
     7
100
AcDbLine
 10
160.601638926
 20
114.9936845737
 30
0.0
 11
158.5166310433
 21
117.1507061612
 31
0.0
  0
MTEXT
  5
16B
330
15D
100
AcDbEntity
  8
SLD-0
 62
     7
100
AcDbMText
 10
154.7028017194
 20
127.6005266451
 30
0.1
 40
3.5
 41
0.0
 71
     1
 72
     1
  1
R
  7
SLDTEXTSTYLE0
 11
0.6921994846165569
 21
-0.7217062238172628
 31
0.0
 73
     1
 44
1.0
  0
MTEXT
  5
16C
330
15D
100
AcDbEntity
  8
SLD-0
 62
     7
100
AcDbMText
 10
156.1117289318
 20
126.1315403764
 30
0.1
 40
3.5
 41
0.0
 71
     1
 72
     1
  1
3
  7
SLDTEXTSTYLE0
 11
0.6921994846165569
 21
-0.7217062238172628
 31
0.0
 73
     1
 44
1.0
  0
ENDBLK
  5
165
330
15D
100
AcDbEntity
  8
0
100
AcDbBlockEnd
  0
BLOCK
  5
179
330
16E
100
AcDbEntity
  8
0
100
AcDbBlockBegin
  2
*D19
 70
     1
 71
     0
 10
0.0
 20
0.0
 30
0.0
  3
*D19
  1

  0
LINE
  5
17B
330
16E
100
AcDbEntity
  8
SLD-0
 62
     7
100
AcDbLine
 10
88.1082952009
 20
144.1588032452
 30
0.0
 11
109.1208922778
 21
144.1588032452
 31
0.0
  0
LINE
  5
17C
330
16E
100
AcDbEntity
  8
SLD-0
 62
     7
100
AcDbLine
 10
88.1082952009
 20
129.1588032452
 30
0.0
 11
109.1208922778
 21
129.1588032452
 31
0.0
  0
LINE
  5
17D
330
16E
100
AcDbEntity
  8
SLD-0
 62
     7
100
AcDbLine
 10
108.1208922778
 20
144.1588032452
 30
0.0
 11
108.1208922778
 21
129.1588032452
 31
0.0
  0
LINE
  5
17E
330
16E
100
AcDbEntity
  8
SLD-0
 62
     7
100
AcDbLine
 10
107.3170452778
 20
141.1588032452
 30
0.0
 11
108.1208922778
 21
144.1588032452
 31
0.0
  0
LINE
  5
17F
330
16E
100
AcDbEntity
  8
SLD-0
 62
     7
100
AcDbLine
 10
108.1208922778
 20
144.1588032452
 30
0.0
 11
108.9247392778
 21
141.1588032452
 31
0.0
  0
LINE
  5
180
330
16E
100
AcDbEntity
  8
SLD-0
 62
     7
100
AcDbLine
 10
108.1208922778
 20
144.1588032452
 30
0.0
 11
108.1208922778
 21
141.1588032452
 31
0.0
  0
LINE
  5
181
330
16E
100
AcDbEntity
  8
SLD-0
 62
     7
100
AcDbLine
 10
108.9247392778
 20
132.1588032452
 30
0.0
 11
108.1208922778
 21
129.1588032452
 31
0.0
  0
LINE
  5
182
330
16E
100
AcDbEntity
  8
SLD-0
 62
     7
100
AcDbLine
 10
108.1208922778
 20
129.1588032452
 30
0.0
 11
107.3170452778
 21
132.1588032452
 31
0.0
  0
LINE
  5
183
330
16E
100
AcDbEntity
  8
SLD-0
 62
     7
100
AcDbLine
 10
108.1208922778
 20
129.1588032452
 30
0.0
 11
108.1208922778
 21
132.1588032452
 31
0.0
  0
MTEXT
  5
184
330
16E
100
AcDbEntity
  8
SLD-0
 62
     7
100
AcDbMText
 10
103.5941985819
 20
134.623368022
 30
0.1
 40
3.5
 41
0.0
 71
     1
 72
     1
  1
15
  7
SLDTEXTSTYLE0
 11
6.123031769111886E-17
 21
1.0
 31
0.0
 73
     1
 44
1.0
  0
ENDBLK
  5
17A
330
16E
100
AcDbEntity
  8
0
100
AcDbBlockEnd
  0
BLOCK
  5
190
330
186
100
AcDbEntity
  8
0
100
AcDbBlockBegin
  2
*D20
 70
     1
 71
     0
 10
0.0
 20
0.0
 30
0.0
  3
*D20
  1

  0
LINE
  5
192
330
186
100
AcDbEntity
  8
SLD-0
 62
     7
100
AcDbLine
 10
72.1082952009
 20
145.1588032452
 30
0.0
 11
72.1082952009
 21
165.138560794
 31
0.0
  0
LINE
  5
193
330
186
100
AcDbEntity
  8
SLD-0
 62
     7
100
AcDbLine
 10
87.1082952009
 20
145.1588032452
 30
0.0
 11
87.1082952009
 21
165.138560794
 31
0.0
  0
LINE
  5
194
330
186
100
AcDbEntity
  8
SLD-0
 62
     7
100
AcDbLine
 10
72.1082952009
 20
164.138560794
 30
0.0
 11
87.1082952009
 21
164.138560794
 31
0.0
  0
LINE
  5
195
330
186
100
AcDbEntity
  8
SLD-0
 62
     7
100
AcDbLine
 10
75.1082952009
 20
163.334713794
 30
0.0
 11
72.1082952009
 21
164.138560794
 31
0.0
  0
LINE
  5
196
330
186
100
AcDbEntity
  8
SLD-0
 62
     7
100
AcDbLine
 10
72.1082952009
 20
164.138560794
 30
0.0
 11
75.1082952009
 21
164.942407794
 31
0.0
  0
LINE
  5
197
330
186
100
AcDbEntity
  8
SLD-0
 62
     7
100
AcDbLine
 10
72.1082952009
 20
164.138560794
 30
0.0
 11
75.1082952009
 21
164.138560794
 31
0.0
  0
LINE
  5
198
330
186
100
AcDbEntity
  8
SLD-0
 62
     7
100
AcDbLine
 10
84.1082952009
 20
164.942407794
 30
0.0
 11
87.1082952009
 21
164.138560794
 31
0.0
  0
LINE
  5
199
330
186
100
AcDbEntity
  8
SLD-0
 62
     7
100
AcDbLine
 10
87.1082952009
 20
164.138560794
 30
0.0
 11
84.1082952009
 21
163.334713794
 31
0.0
  0
LINE
  5
19A
330
186
100
AcDbEntity
  8
SLD-0
 62
     7
100
AcDbLine
 10
87.1082952009
 20
164.138560794
 30
0.0
 11
84.1082952009
 21
164.138560794
 31
0.0
  0
MTEXT
  5
19B
330
186
100
AcDbEntity
  8
SLD-0
 62
     7
100
AcDbMText
 10
77.5728599778
 20
168.66525449
 30
0.1
 40
3.5
 41
0.0
 71
     1
 72
     1
  1
15
  7
SLDTEXTSTYLE0
 73
     1
 44
1.0
  0
ENDBLK
  5
191
330
186
100
AcDbEntity
  8
0
100
AcDbBlockEnd
  0
BLOCK
  5
1A4
330
19D
100
AcDbEntity
  8
0
100
AcDbBlockBegin
  2
*D21
 70
     1
 71
     0
 10
0.0
 20
0.0
 30
0.0
  3
*D21
  1

  0
LINE
  5
1A6
330
19D
100
AcDbEntity
  8
SLD-0
 62
     7
100
AcDbLine
 10
57.7771546035
 20
115.2704750124
 30
0.0
 11
66.4320448006
 21
122.0708117914
 31
0.0
  0
LINE
  5
1A7
330
19D
100
AcDbEntity
  8
SLD-0
 62
     7
100
AcDbLine
 10
60.6327378701
 20
116.491873476
 30
0.0
 11
57.7771546035
 21
115.2704750124
 31
0.0
  0
LINE
  5
1A8
330
19D
100
AcDbEntity
  8
SLD-0
 62
     7
100
AcDbLine
 10
57.7771546035
 20
115.2704750124
 30
0.0
 11
59.6394639157
 21
117.7560280746
 31
0.0
  0
LINE
  5
1A9
330
19D
100
AcDbEntity
  8
SLD-0
 62
     7
100
AcDbLine
 10
57.7771546035
 20
115.2704750124
 30
0.0
 11
60.1361008929
 21
117.1239507753
 31
0.0
  0
MTEXT
  5
1AA
330
19D
100
AcDbEntity
  8
SLD-0
 62
     7
100
AcDbMText
 10
59.1859312772
 20
122.0266447186
 30
0.1
 40
3.5
 41
0.0
 71
     1
 72
     1
  1
R
  7
SLDTEXTSTYLE0
 11
0.7770468657994101
 21
0.6294427442995221
 31
0.0
 73
     1
 44
1.0
  0
MTEXT
  5
1AB
330
19D
100
AcDbEntity
  8
SLD-0
 62
     7
100
AcDbMText
 10
60.767559838
 20
123.3078346512
 30
0.1
 40
3.5
 41
0.0
 71
     1
 72
     1
  1
3
  7
SLDTEXTSTYLE0
 11
0.7770468657994101
 21
0.6294427442995221
 31
0.0
 73
     1
 44
1.0
  0
ENDBLK
  5
1A5
330
19D
100
AcDbEntity
  8
0
100
AcDbBlockEnd
  0
BLOCK
  5
1B7
330
1AD
100
AcDbEntity
  8
0
100
AcDbBlockBegin
  2
*D22
 70
     1
 71
     0
 10
0.0
 20
0.0
 30
0.0
  3
*D22
  1

  0
LINE
  5
1B9
330
1AD
100
AcDbEntity
  8
SLD-0
 62
     7
100
AcDbLine
 10
52.1082952009
 20
150.1588032452
 30
0.0
 11
52.1082952009
 21
165.138560794
 31
0.0
  0
LINE
  5
1BA
330
1AD
100
AcDbEntity
  8
SLD-0
 62
     7
100
AcDbLine
 10
72.1082952009
 20
145.1588032452
 30
0.0
 11
72.1082952009
 21
165.138560794
 31
0.0
  0
LINE
  5
1BB
330
1AD
100
AcDbEntity
  8
SLD-0
 62
     7
100
AcDbLine
 10
52.1082952009
 20
164.138560794
 30
0.0
 11
72.1082952009
 21
164.138560794
 31
0.0
  0
LINE
  5
1BC
330
1AD
100
AcDbEntity
  8
SLD-0
 62
     7
100
AcDbLine
 10
55.1082952009
 20
163.334713794
 30
0.0
 11
52.1082952009
 21
164.138560794
 31
0.0
  0
LINE
  5
1BD
330
1AD
100
AcDbEntity
  8
SLD-0
 62
     7
100
AcDbLine
 10
52.1082952009
 20
164.138560794
 30
0.0
 11
55.1082952009
 21
164.942407794
 31
0.0
  0
LINE
  5
1BE
330
1AD
100
AcDbEntity
  8
SLD-0
 62
     7
100
AcDbLine
 10
52.1082952009
 20
164.138560794
 30
0.0
 11
55.1082952009
 21
164.138560794
 31
0.0
  0
LINE
  5
1BF
330
1AD
100
AcDbEntity
  8
SLD-0
 62
     7
100
AcDbLine
 10
69.1082952009
 20
164.942407794
 30
0.0
 11
72.1082952009
 21
164.138560794
 31
0.0
  0
LINE
  5
1C0
330
1AD
100
AcDbEntity
  8
SLD-0
 62
     7
100
AcDbLine
 10
72.1082952009
 20
164.138560794
 30
0.0
 11
69.1082952009
 21
163.334713794
 31
0.0
  0
LINE
  5
1C1
330
1AD
100
AcDbEntity
  8
SLD-0
 62
     7
100
AcDbLine
 10
72.1082952009
 20
164.138560794
 30
0.0
 11
69.1082952009
 21
164.138560794
 31
0.0
  0
MTEXT
  5
1C2
330
1AD
100
AcDbEntity
  8
SLD-0
 62
     7
100
AcDbMText
 10
60.0728599778
 20
168.66525449
 30
0.1
 40
3.5
 41
0.0
 71
     1
 72
     1
  1
20
  7
SLDTEXTSTYLE0
 73
     1
 44
1.0
  0
ENDBLK
  5
1B8
330
1AD
100
AcDbEntity
  8
0
100
AcDbBlockEnd
  0
BLOCK
  5
1CF
330
1C4
100
AcDbEntity
  8
0
100
AcDbBlockBegin
  2
*D23
 70
     1
 71
     0
 10
0.0
 20
0.0
 30
0.0
  3
*D23
  1

  0
LINE
  5
1D1
330
1C4
100
AcDbEntity
  8
SLD-0
 62
     7
100
AcDbLine
 10
93.1082952009
 20
109.1588032452
 30
0.0
 11
109.1208922778
 21
109.1588032452
 31
0.0
  0
LINE
  5
1D2
330
1C4
100
AcDbEntity
  8
SLD-0
 62
     7
100
AcDbLine
 10
88.1082952009
 20
129.1588032452
 30
0.0
 11
109.1208922778
 21
129.1588032452
 31
0.0
  0
LINE
  5
1D3
330
1C4
100
AcDbEntity
  8
SLD-0
 62
     7
100
AcDbLine
 10
108.1208922778
 20
109.1588032452
 30
0.0
 11
108.1208922778
 21
129.1588032452
 31
0.0
  0
LINE
  5
1D4
330
1C4
100
AcDbEntity
  8
SLD-0
 62
     7
100
AcDbLine
 10
108.9247392778
 20
112.1588032452
 30
0.0
 11
108.1208922778
 21
109.1588032452
 31
0.0
  0
LINE
  5
1D5
330
1C4
100
AcDbEntity
  8
SLD-0
 62
     7
100
AcDbLine
 10
108.1208922778
 20
109.1588032452
 30
0.0
 11
107.3170452778
 21
112.1588032452
 31
0.0
  0
LINE
  5
1D6
330
1C4
100
AcDbEntity
  8
SLD-0
 62
     7
100
AcDbLine
 10
108.1208922778
 20
109.1588032452
 30
0.0
 11
108.1208922778
 21
112.1588032452
 31
0.0
  0
LINE
  5
1D7
330
1C4
100
AcDbEntity
  8
SLD-0
 62
     7
100
AcDbLine
 10
107.3170452778
 20
126.1588032452
 30
0.0
 11
108.1208922778
 21
129.1588032452
 31
0.0
  0
LINE
  5
1D8
330
1C4
100
AcDbEntity
  8
SLD-0
 62
     7
100
AcDbLine
 10
108.1208922778
 20
129.1588032452
 30
0.0
 11
108.9247392778
 21
126.1588032452
 31
0.0
  0
LINE
  5
1D9
330
1C4
100
AcDbEntity
  8
SLD-0
 62
     7
100
AcDbLine
 10
108.1208922778
 20
129.1588032452
 30
0.0
 11
108.1208922778
 21
126.1588032452
 31
0.0
  0
MTEXT
  5
1DA
330
1C4
100
AcDbEntity
  8
SLD-0
 62
     7
100
AcDbMText
 10
103.5941985819
 20
117.123368022
 30
0.1
 40
3.5
 41
0.0
 71
     1
 72
     1
  1
20
  7
SLDTEXTSTYLE0
 11
6.123031769111886E-17
 21
1.0
 31
0.0
 73
     1
 44
1.0
  0
ENDBLK
  5
1D0
330
1C4
100
AcDbEntity
  8
0
100
AcDbBlockEnd
  0
BLOCK
  5
1E8
330
1DC
100
AcDbEntity
  8
0
100
AcDbBlockBegin
  2
*D24
 70
     1
 71
     0
 10
0.0
 20
0.0
 30
0.0
  3
*D24
  1

  0
LINE
  5
1EA
330
1DC
100
AcDbEntity
  8
SLD-0
 62
     7
100
AcDbLine
 10
93.1082952009
 20
109.1588032452
 30
0.0
 11
99.8959214695
 21
109.1588032452
 31
0.0
  0
LINE
  5
1EB
330
1DC
100
AcDbEntity
  8
SLD-0
 62
     7
100
AcDbLine
 10
93.1082952009
 20
114.1588032452
 30
0.0
 11
99.8959214695
 21
114.1588032452
 31
0.0
  0
LINE
  5
1EC
330
1DC
100
AcDbEntity
  8
SLD-0
 62
     7
100
AcDbLine
 10
98.8959214695
 20
109.1588032452
 30
0.0
 11
98.8959214695
 21
98.5143200922
 31
0.0
  0
LINE
  5
1ED
330
1DC
100
AcDbEntity
  8
SLD-0
 62
     7
100
AcDbLine
 10
98.8959214695
 20
109.1588032452
 30
0.0
 11
98.8959214695
 21
114.1588032452
 31
0.0
  0
LINE
  5
1EE
330
1DC
100
AcDbEntity
  8
SLD-0
 62
     7
100
AcDbLine
 10
98.8959214695
 20
114.1588032452
 30
0.0
 11
98.8959214695
 21
119.1588032452
 31
0.0
  0
LINE
  5
1EF
330
1DC
100
AcDbEntity
  8
SLD-0
 62
     7
100
AcDbLine
 10
98.0920744695
 20
106.1588032452
 30
0.0
 11
98.8959214695
 21
109.1588032452
 31
0.0
  0
LINE
  5
1F0
330
1DC
100
AcDbEntity
  8
SLD-0
 62
     7
100
AcDbLine
 10
98.8959214695
 20
109.1588032452
 30
0.0
 11
99.6997684695
 21
106.1588032452
 31
0.0
  0
LINE
  5
1F1
330
1DC
100
AcDbEntity
  8
SLD-0
 62
     7
100
AcDbLine
 10
98.8959214695
 20
109.1588032452
 30
0.0
 11
98.8959214695
 21
106.1588032452
 31
0.0
  0
LINE
  5
1F2
330
1DC
100
AcDbEntity
  8
SLD-0
 62
     7
100
AcDbLine
 10
99.6997684695
 20
117.1588032452
 30
0.0
 11
98.8959214695
 21
114.1588032452
 31
0.0
  0
LINE
  5
1F3
330
1DC
100
AcDbEntity
  8
SLD-0
 62
     7
100
AcDbLine
 10
98.8959214695
 20
114.1588032452
 30
0.0
 11
98.0920744695
 21
117.1588032452
 31
0.0
  0
LINE
  5
1F4
330
1DC
100
AcDbEntity
  8
SLD-0
 62
     7
100
AcDbLine
 10
98.8959214695
 20
114.1588032452
 30
0.0
 11
98.8959214695
 21
117.1588032452
 31
0.0
  0
MTEXT
  5
1F5
330
1DC
100
AcDbEntity
  8
SLD-0
 62
     7
100
AcDbMText
 10
94.3692277736
 20
100.1018200922
 30
0.1
 40
3.5
 41
0.0
 71
     1
 72
     1
  1
5
  7
SLDTEXTSTYLE0
 11
6.123031769111886E-17
 21
1.0
 31
0.0
 73
     1
 44
1.0
  0
ENDBLK
  5
1E9
330
1DC
100
AcDbEntity
  8
0
100
AcDbBlockEnd
  0
BLOCK
  5
1FE
330
1F7
100
AcDbEntity
  8
0
100
AcDbBlockBegin
  2
*D25
 70
     1
 71
     0
 10
0.0
 20
0.0
 30
0.0
  3
*D25
  1

  0
LINE
  5
200
330
1F7
100
AcDbEntity
  8
SLD-0
 62
     7
100
AcDbLine
 10
88.5359351473
 20
147.0784512006
 30
0.0
 11
95.6183113041
 21
161.5625269078
 31
0.0
  0
LINE
  5
201
330
1F7
100
AcDbEntity
  8
SLD-0
 62
     7
100
AcDbLine
 10
95.6183113041
 20
161.5625269078
 30
0.0
 11
114.4315266237
 21
161.5625269078
 31
0.0
  0
LINE
  5
202
330
1F7
100
AcDbEntity
  8
SLD-0
 62
     7
100
AcDbLine
 10
90.5758951747
 20
149.4204019016
 30
0.0
 11
88.5359351473
 21
147.0784512006
 31
0.0
  0
LINE
  5
203
330
1F7
100
AcDbEntity
  8
SLD-0
 62
     7
100
AcDbLine
 10
88.5359351473
 20
147.0784512006
 30
0.0
 11
89.1316180978
 21
150.1266198019
 31
0.0
  0
LINE
  5
204
330
1F7
100
AcDbEntity
  8
SLD-0
 62
     7
100
AcDbLine
 10
88.5359351473
 20
147.0784512006
 30
0.0
 11
89.8537566362
 21
149.7735108518
 31
0.0
  0
MTEXT
  5
205
330
1F7
100
AcDbEntity
  8
SLD-0
 62
     7
100
AcDbMText
 10
98.7933113041
 20
166.0892206037
 30
0.1
 40
3.5
 41
0.0
 71
     1
 72
     1
  1
4-
  7
SLDTEXTSTYLE0
 73
     1
 44
1.0
  0
MTEXT
  5
206
330
1F7
100
AcDbEntity
  8
SLD-0
 62
     7
100
AcDbMText
 10
101.116922299
 20
166.0892203709
 30
0.1
 40
3.5
 41
0.0
 71
     1
 72
     1
  1
%%c
  7
SLDTEXTSTYLE0
 73
     1
 44
1.0
  0
MTEXT
  5
207
330
1F7
100
AcDbEntity
  8
SLD-0
 62
     7
100
AcDbMText
 10
106.734066672
 20
166.0892206037
 30
0.1
 40
3.5
 41
0.0
 71
     1
 72
     1
  1
6.5
  7
SLDTEXTSTYLE0
 73
     1
 44
1.0
  0
ENDBLK
  5
1FF
330
1F7
100
AcDbEntity
  8
0
100
AcDbBlockEnd
  0
BLOCK
  5
213
330
209
100
AcDbEntity
  8
0
100
AcDbBlockBegin
  2
*D26
 70
     1
 71
     0
 10
0.0
 20
0.0
 30
0.0
  3
*D26
  1

  0
LINE
  5
215
330
209
100
AcDbEntity
  8
SLD-0
 62
     7
100
AcDbLine
 10
52.1082952009
 20
225.557513232
 30
0.0
 11
52.1082952009
 21
243.4423393409
 31
0.0
  0
LINE
  5
216
330
209
100
AcDbEntity
  8
SLD-0
 62
     7
100
AcDbLine
 10
92.1082952009
 20
225.557513232
 30
0.0
 11
92.1082952009
 21
243.4423393409
 31
0.0
  0
LINE
  5
217
330
209
100
AcDbEntity
  8
SLD-0
 62
     7
100
AcDbLine
 10
52.1082952009
 20
242.4423393409
 30
0.0
 11
92.1082952009
 21
242.4423393409
 31
0.0
  0
LINE
  5
218
330
209
100
AcDbEntity
  8
SLD-0
 62
     7
100
AcDbLine
 10
55.1082952009
 20
241.6384923409
 30
0.0
 11
52.1082952009
 21
242.4423393409
 31
0.0
  0
LINE
  5
219
330
209
100
AcDbEntity
  8
SLD-0
 62
     7
100
AcDbLine
 10
52.1082952009
 20
242.4423393409
 30
0.0
 11
55.1082952009
 21
243.2461863409
 31
0.0
  0
LINE
  5
21A
330
209
100
AcDbEntity
  8
SLD-0
 62
     7
100
AcDbLine
 10
52.1082952009
 20
242.4423393409
 30
0.0
 11
55.1082952009
 21
242.4423393409
 31
0.0
  0
LINE
  5
21B
330
209
100
AcDbEntity
  8
SLD-0
 62
     7
100
AcDbLine
 10
89.1082952009
 20
243.2461863409
 30
0.0
 11
92.1082952009
 21
242.4423393409
 31
0.0
  0
LINE
  5
21C
330
209
100
AcDbEntity
  8
SLD-0
 62
     7
100
AcDbLine
 10
92.1082952009
 20
242.4423393409
 30
0.0
 11
89.1082952009
 21
241.6384923409
 31
0.0
  0
LINE
  5
21D
330
209
100
AcDbEntity
  8
SLD-0
 62
     7
100
AcDbLine
 10
92.1082952009
 20
242.4423393409
 30
0.0
 11
89.1082952009
 21
242.4423393409
 31
0.0
  0
MTEXT
  5
21E
330
209
100
AcDbEntity
  8
SLD-0
 62
     7
100
AcDbMText
 10
70.0728599778
 20
246.9690330369
 30
0.1
 40
3.5
 41
0.0
 71
     1
 72
     1
  1
40
  7
SLDTEXTSTYLE0
 73
     1
 44
1.0
  0
ENDBLK
  5
214
330
209
100
AcDbEntity
  8
0
100
AcDbBlockEnd
  0
BLOCK
  5
22A
330
220
100
AcDbEntity
  8
0
100
AcDbBlockBegin
  2
*D27
 70
     1
 71
     0
 10
0.0
 20
0.0
 30
0.0
  3
*D27
  1

  0
ARC
  5
22C
330
220
100
AcDbEntity
  8
SLD-0
 62
     7
100
AcDbCircle
 10
75.0562304241
 20
236.0328793782
 30
0.0
 40
4.551371522800003
100
AcDbArc
 50
153.4349488229
 51
206.5650511771
  0
ARC
  5
22D
330
220
100
AcDbEntity
  8
SLD-0
 62
     7
100
AcDbCircle
 10
74.1603599778
 20
236.0328793782
 30
0.0
 40
4.551371522800003
100
AcDbArc
 50
333.4349488229
 51
26.5650511771
  0
LINE
  5
22E
330
220
100
AcDbEntity
  8
SLD-0
 62
     7
100
AcDbLine
 10
92.1082952009
 20
220.557513232
 30
0.0
 11
92.1082952009
 21
234.9974441551
 31
0.0
  0
LINE
  5
22F
330
220
100
AcDbEntity
  8
SLD-0
 62
     7
100
AcDbLine
 10
57.1082952009
 20
220.557513232
 30
0.0
 11
57.1082952009
 21
234.9974441551
 31
0.0
  0
LINE
  5
230
330
220
100
AcDbEntity
  8
SLD-0
 62
     7
100
AcDbLine
 10
92.1082952009
 20
233.9974441551
 30
0.0
 11
57.1082952009
 21
233.9974441551
 31
0.0
  0
LINE
  5
231
330
220
100
AcDbEntity
  8
SLD-0
 62
     7
100
AcDbLine
 10
89.1082952009
 20
234.8012911551
 30
0.0
 11
92.1082952009
 21
233.9974441551
 31
0.0
  0
LINE
  5
232
330
220
100
AcDbEntity
  8
SLD-0
 62
     7
100
AcDbLine
 10
92.1082952009
 20
233.9974441551
 30
0.0
 11
89.1082952009
 21
233.1935971551
 31
0.0
  0
LINE
  5
233
330
220
100
AcDbEntity
  8
SLD-0
 62
     7
100
AcDbLine
 10
92.1082952009
 20
233.9974441551
 30
0.0
 11
89.1082952009
 21
233.9974441551
 31
0.0
  0
LINE
  5
234
330
220
100
AcDbEntity
  8
SLD-0
 62
     7
100
AcDbLine
 10
60.1082952009
 20
233.1935971551
 30
0.0
 11
57.1082952009
 21
233.9974441551
 31
0.0
  0
LINE
  5
235
330
220
100
AcDbEntity
  8
SLD-0
 62
     7
100
AcDbLine
 10
57.1082952009
 20
233.9974441551
 30
0.0
 11
60.1082952009
 21
234.8012911551
 31
0.0
  0
LINE
  5
236
330
220
100
AcDbEntity
  8
SLD-0
 62
     7
100
AcDbLine
 10
57.1082952009
 20
233.9974441551
 30
0.0
 11
60.1082952009
 21
233.9974441551
 31
0.0
  0
MTEXT
  5
237
330
220
100
AcDbEntity
  8
SLD-0
 62
     7
100
AcDbMText
 10
72.5728599778
 20
238.524137851
 30
0.1
 40
3.5
 41
0.0
 71
     1
 72
     1
  1
35
  7
SLDTEXTSTYLE0
 73
     1
 44
1.0
  0
ENDBLK
  5
22B
330
220
100
AcDbEntity
  8
0
100
AcDbBlockEnd
  0
BLOCK
  5
243
330
239
100
AcDbEntity
  8
0
100
AcDbBlockBegin
  2
*D28
 70
     1
 71
     0
 10
0.0
 20
0.0
 30
0.0
  3
*D28
  1

  0
LINE
  5
245
330
239
100
AcDbEntity
  8
SLD-0
 62
     7
100
AcDbLine
 10
72.1082952009
 20
203.557513232
 30
0.0
 11
72.1082952009
 21
182.4408644184
 31
0.0
  0
LINE
  5
246
330
239
100
AcDbEntity
  8
SLD-0
 62
     7
100
AcDbLine
 10
87.1082952009
 20
203.557513232
 30
0.0
 11
87.1082952009
 21
182.4408644184
 31
0.0
  0
LINE
  5
247
330
239
100
AcDbEntity
  8
SLD-0
 62
     7
100
AcDbLine
 10
72.1082952009
 20
183.4408644184
 30
0.0
 11
67.1082952009
 21
183.4408644184
 31
0.0
  0
LINE
  5
248
330
239
100
AcDbEntity
  8
SLD-0
 62
     7
100
AcDbLine
 10
72.1082952009
 20
183.4408644184
 30
0.0
 11
87.1082952009
 21
183.4408644184
 31
0.0
  0
LINE
  5
249
330
239
100
AcDbEntity
  8
SLD-0
 62
     7
100
AcDbLine
 10
87.1082952009
 20
183.4408644184
 30
0.0
 11
92.1082952009
 21
183.4408644184
 31
0.0
  0
LINE
  5
24A
330
239
100
AcDbEntity
  8
SLD-0
 62
     7
100
AcDbLine
 10
69.1082952009
 20
184.2447114184
 30
0.0
 11
72.1082952009
 21
183.4408644184
 31
0.0
  0
LINE
  5
24B
330
239
100
AcDbEntity
  8
SLD-0
 62
     7
100
AcDbLine
 10
72.1082952009
 20
183.4408644184
 30
0.0
 11
69.1082952009
 21
182.6370174184
 31
0.0
  0
LINE
  5
24C
330
239
100
AcDbEntity
  8
SLD-0
 62
     7
100
AcDbLine
 10
72.1082952009
 20
183.4408644184
 30
0.0
 11
69.1082952009
 21
183.4408644184
 31
0.0
  0
LINE
  5
24D
330
239
100
AcDbEntity
  8
SLD-0
 62
     7
100
AcDbLine
 10
90.1082952009
 20
182.6370174184
 30
0.0
 11
87.1082952009
 21
183.4408644184
 31
0.0
  0
LINE
  5
24E
330
239
100
AcDbEntity
  8
SLD-0
 62
     7
100
AcDbLine
 10
87.1082952009
 20
183.4408644184
 30
0.0
 11
90.1082952009
 21
184.2447114184
 31
0.0
  0
LINE
  5
24F
330
239
100
AcDbEntity
  8
SLD-0
 62
     7
100
AcDbLine
 10
87.1082952009
 20
183.4408644184
 30
0.0
 11
90.1082952009
 21
183.4408644184
 31
0.0
  0
MTEXT
  5
250
330
239
100
AcDbEntity
  8
SLD-0
 62
     7
100
AcDbMText
 10
77.5728599778
 20
187.9675581144
 30
0.1
 40
3.5
 41
0.0
 71
     1
 72
     1
  1
15
  7
SLDTEXTSTYLE0
 73
     1
 44
1.0
  0
ENDBLK
  5
244
330
239
100
AcDbEntity
  8
0
100
AcDbBlockEnd
  0
BLOCK
  5
25F
330
252
100
AcDbEntity
  8
0
100
AcDbBlockBegin
  2
*D29
 70
     1
 71
     0
 10
0.0
 20
0.0
 30
0.0
  3
*D29
  1

  0
LINE
  5
261
330
252
100
AcDbEntity
  8
SLD-0
 62
     7
100
AcDbLine
 10
57.1082952009
 20
217.557513232
 30
0.0
 11
57.1082952009
 21
234.9974441551
 31
0.0
  0
LINE
  5
262
330
252
100
AcDbEntity
  8
SLD-0
 62
     7
100
AcDbLine
 10
52.1082952009
 20
225.557513232
 30
0.0
 11
52.1082952009
 21
234.9974441551
 31
0.0
  0
LINE
  5
263
330
252
100
AcDbEntity
  8
SLD-0
 62
     7
100
AcDbLine
 10
57.1082952009
 20
233.9974441551
 30
0.0
 11
62.1082952009
 21
233.9974441551
 31
0.0
  0
LINE
  5
264
330
252
100
AcDbEntity
  8
SLD-0
 62
     7
100
AcDbLine
 10
57.1082952009
 20
233.9974441551
 30
0.0
 11
52.1082952009
 21
233.9974441551
 31
0.0
  0
LINE
  5
265
330
252
100
AcDbEntity
  8
SLD-0
 62
     7
100
AcDbLine
 10
52.1082952009
 20
233.9974441551
 30
0.0
 11
42.15776738
 21
233.9974441551
 31
0.0
  0
LINE
  5
266
330
252
100
AcDbEntity
  8
SLD-0
 62
     7
100
AcDbLine
 10
60.1082952009
 20
233.1935971551
 30
0.0
 11
57.1082952009
 21
233.9974441551
 31
0.0
  0
LINE
  5
267
330
252
100
AcDbEntity
  8
SLD-0
 62
     7
100
AcDbLine
 10
57.1082952009
 20
233.9974441551
 30
0.0
 11
60.1082952009
 21
234.8012911551
 31
0.0
  0
LINE
  5
268
330
252
100
AcDbEntity
  8
SLD-0
 62
     7
100
AcDbLine
 10
57.1082952009
 20
233.9974441551
 30
0.0
 11
60.1082952009
 21
233.9974441551
 31
0.0
  0
LINE
  5
269
330
252
100
AcDbEntity
  8
SLD-0
 62
     7
100
AcDbLine
 10
49.1082952009
 20
234.8012911551
 30
0.0
 11
52.1082952009
 21
233.9974441551
 31
0.0
  0
LINE
  5
26A
330
252
100
AcDbEntity
  8
SLD-0
 62
     7
100
AcDbLine
 10
52.1082952009
 20
233.9974441551
 30
0.0
 11
49.1082952009
 21
233.1935971551
 31
0.0
  0
LINE
  5
26B
330
252
100
AcDbEntity
  8
SLD-0
 62
     7
100
AcDbLine
 10
52.1082952009
 20
233.9974441551
 30
0.0
 11
49.1082952009
 21
233.9974441551
 31
0.0
  0
MTEXT
  5
26C
330
252
100
AcDbEntity
  8
SLD-0
 62
     7
100
AcDbMText
 10
43.74526738
 20
238.524137851
 30
0.1
 40
3.5
 41
0.0
 71
     1
 72
     1
  1
5
  7
SLDTEXTSTYLE0
 73
     1
 44
1.0
  0
ENDBLK
  5
260
330
252
100
AcDbEntity
  8
0
100
AcDbBlockEnd
  0
BLOCK
  5
278
330
26E
100
AcDbEntity
  8
0
100
AcDbBlockBegin
  2
*D30
 70
     1
 71
     0
 10
0.0
 20
0.0
 30
0.0
  3
*D30
  1

  0
LINE
  5
27A
330
26E
100
AcDbEntity
  8
SLD-0
 62
     7
100
AcDbLine
 10
72.1082952009
 20
203.557513232
 30
0.0
 11
72.1082952009
 21
182.4408644184
 31
0.0
  0
LINE
  5
27B
330
26E
100
AcDbEntity
  8
SLD-0
 62
     7
100
AcDbLine
 10
52.1082952009
 20
191.057513232
 30
0.0
 11
52.1082952009
 21
182.4408644184
 31
0.0
  0
LINE
  5
27C
330
26E
100
AcDbEntity
  8
SLD-0
 62
     7
100
AcDbLine
 10
72.1082952009
 20
183.4408644184
 30
0.0
 11
52.1082952009
 21
183.4408644184
 31
0.0
  0
LINE
  5
27D
330
26E
100
AcDbEntity
  8
SLD-0
 62
     7
100
AcDbLine
 10
69.1082952009
 20
184.2447114184
 30
0.0
 11
72.1082952009
 21
183.4408644184
 31
0.0
  0
LINE
  5
27E
330
26E
100
AcDbEntity
  8
SLD-0
 62
     7
100
AcDbLine
 10
72.1082952009
 20
183.4408644184
 30
0.0
 11
69.1082952009
 21
182.6370174184
 31
0.0
  0
LINE
  5
27F
330
26E
100
AcDbEntity
  8
SLD-0
 62
     7
100
AcDbLine
 10
72.1082952009
 20
183.4408644184
 30
0.0
 11
69.1082952009
 21
183.4408644184
 31
0.0
  0
LINE
  5
280
330
26E
100
AcDbEntity
  8
SLD-0
 62
     7
100
AcDbLine
 10
55.1082952009
 20
182.6370174184
 30
0.0
 11
52.1082952009
 21
183.4408644184
 31
0.0
  0
LINE
  5
281
330
26E
100
AcDbEntity
  8
SLD-0
 62
     7
100
AcDbLine
 10
52.1082952009
 20
183.4408644184
 30
0.0
 11
55.1082952009
 21
184.2447114184
 31
0.0
  0
LINE
  5
282
330
26E
100
AcDbEntity
  8
SLD-0
 62
     7
100
AcDbLine
 10
52.1082952009
 20
183.4408644184
 30
0.0
 11
55.1082952009
 21
183.4408644184
 31
0.0
  0
MTEXT
  5
283
330
26E
100
AcDbEntity
  8
SLD-0
 62
     7
100
AcDbMText
 10
60.0728599778
 20
187.9675581144
 30
0.1
 40
3.5
 41
0.0
 71
     1
 72
     1
  1
20
  7
SLDTEXTSTYLE0
 73
     1
 44
1.0
  0
ENDBLK
  5
279
330
26E
100
AcDbEntity
  8
0
100
AcDbBlockEnd
  0
BLOCK
  5
290
330
285
100
AcDbEntity
  8
0
100
AcDbBlockBegin
  2
*D31
 70
     1
 71
     0
 10
0.0
 20
0.0
 30
0.0
  3
*D31
  1

  0
LINE
  5
292
330
285
100
AcDbEntity
  8
SLD-0
 62
     7
100
AcDbLine
 10
93.1082952009
 20
224.557513232
 30
0.0
 11
103.4050129499
 21
224.557513232
 31
0.0
  0
LINE
  5
293
330
285
100
AcDbEntity
  8
SLD-0
 62
     7
100
AcDbLine
 10
88.1082952009
 20
204.557513232
 30
0.0
 11
103.4050129499
 21
204.557513232
 31
0.0
  0
LINE
  5
294
330
285
100
AcDbEntity
  8
SLD-0
 62
     7
100
AcDbLine
 10
102.4050129499
 20
224.557513232
 30
0.0
 11
102.4050129499
 21
204.557513232
 31
0.0
  0
LINE
  5
295
330
285
100
AcDbEntity
  8
SLD-0
 62
     7
100
AcDbLine
 10
101.6011659499
 20
221.557513232
 30
0.0
 11
102.4050129499
 21
224.557513232
 31
0.0
  0
LINE
  5
296
330
285
100
AcDbEntity
  8
SLD-0
 62
     7
100
AcDbLine
 10
102.4050129499
 20
224.557513232
 30
0.0
 11
103.2088599499
 21
221.557513232
 31
0.0
  0
LINE
  5
297
330
285
100
AcDbEntity
  8
SLD-0
 62
     7
100
AcDbLine
 10
102.4050129499
 20
224.557513232
 30
0.0
 11
102.4050129499
 21
221.557513232
 31
0.0
  0
LINE
  5
298
330
285
100
AcDbEntity
  8
SLD-0
 62
     7
100
AcDbLine
 10
103.2088599499
 20
207.557513232
 30
0.0
 11
102.4050129499
 21
204.557513232
 31
0.0
  0
LINE
  5
299
330
285
100
AcDbEntity
  8
SLD-0
 62
     7
100
AcDbLine
 10
102.4050129499
 20
204.557513232
 30
0.0
 11
101.6011659499
 21
207.557513232
 31
0.0
  0
LINE
  5
29A
330
285
100
AcDbEntity
  8
SLD-0
 62
     7
100
AcDbLine
 10
102.4050129499
 20
204.557513232
 30
0.0
 11
102.4050129499
 21
207.557513232
 31
0.0
  0
MTEXT
  5
29B
330
285
100
AcDbEntity
  8
SLD-0
 62
     7
100
AcDbMText
 10
97.878319254
 20
212.5220780088
 30
0.1
 40
3.5
 41
0.0
 71
     1
 72
     1
  1
20
  7
SLDTEXTSTYLE0
 11
6.123031769111886E-17
 21
1.0
 31
0.0
 73
     1
 44
1.0
  0
ENDBLK
  5
291
330
285
100
AcDbEntity
  8
0
100
AcDbBlockEnd
  0
BLOCK
  5
2A8
330
29D
100
AcDbEntity
  8
0
100
AcDbBlockBegin
  2
*D32
 70
     1
 71
     0
 10
0.0
 20
0.0
 30
0.0
  3
*D32
  1

  0
LINE
  5
2AB
330
29D
100
AcDbEntity
  8
SLD-0
 62
     7
100
AcDbLine
 10
53.1082952009
 20
224.557513232
 30
0.0
 11
113.8669816378
 21
224.557513232
 31
0.0
  0
LINE
  5
2AC
330
29D
100
AcDbEntity
  8
SLD-0
 62
     7
100
AcDbLine
 10
53.1082952009
 20
192.057513232
 30
0.0
 11
113.8669816378
 21
192.057513232
 31
0.0
  0
LINE
  5
2AD
330
29D
100
AcDbEntity
  8
SLD-0
 62
     7
100
AcDbLine
 10
112.8669816378
 20
224.557513232
 30
0.0
 11
112.8669816378
 21
192.057513232
 31
0.0
  0
LINE
  5
2AE
330
29D
100
AcDbEntity
  8
SLD-0
 62
     7
100
AcDbLine
 10
112.0631346378
 20
221.557513232
 30
0.0
 11
112.8669816378
 21
224.557513232
 31
0.0
  0
LINE
  5
2AF
330
29D
100
AcDbEntity
  8
SLD-0
 62
     7
100
AcDbLine
 10
112.8669816378
 20
224.557513232
 30
0.0
 11
113.6708286378
 21
221.557513232
 31
0.0
  0
LINE
  5
2B0
330
29D
100
AcDbEntity
  8
SLD-0
 62
     7
100
AcDbLine
 10
112.8669816378
 20
224.557513232
 30
0.0
 11
112.8669816378
 21
221.557513232
 31
0.0
  0
LINE
  5
2B1
330
29D
100
AcDbEntity
  8
SLD-0
 62
     7
100
AcDbLine
 10
113.6708286378
 20
195.057513232
 30
0.0
 11
112.8669816378
 21
192.057513232
 31
0.0
  0
LINE
  5
2B2
330
29D
100
AcDbEntity
  8
SLD-0
 62
     7
100
AcDbLine
 10
112.8669816378
 20
192.057513232
 30
0.0
 11
112.0631346378
 21
195.057513232
 31
0.0
  0
LINE
  5
2B3
330
29D
100
AcDbEntity
  8
SLD-0
 62
     7
100
AcDbLine
 10
112.8669816378
 20
192.057513232
 30
0.0
 11
112.8669816378
 21
195.057513232
 31
0.0
  0
MTEXT
  5
2B4
330
29D
100
AcDbEntity
  8
SLD-0
 62
     7
100
AcDbMText
 10
108.3402879419
 20
204.2348156445
 30
0.1
 40
3.5
 41
0.0
 71
     1
 72
     1
  1
32.5
  7
SLDTEXTSTYLE0
 11
6.123031769111886E-17
 21
1.0
 31
0.0
 73
     1
 44
1.0
  0
ENDBLK
  5
2A9
330
29D
100
AcDbEntity
  8
0
100
AcDbBlockEnd
  0
BLOCK
  5
2BD
330
2B6
100
AcDbEntity
  8
0
100
AcDbBlockBegin
  2
*D33
 70
     1
 71
     0
 10
0.0
 20
0.0
 30
0.0
  3
*D33
  1

  0
LINE
  5
2BF
330
2B6
100
AcDbEntity
  8
SLD-0
 62
     7
100
AcDbLine
 10
88.8120962275
 20
201.7899218492
 30
0.0
 11
94.4041435509
 21
192.7064069654
 31
0.0
  0
LINE
  5
2C0
330
2B6
100
AcDbEntity
  8
SLD-0
 62
     7
100
AcDbLine
 10
95.2030951708
 20
191.4086194985
 30
0.0
 11
100.6459564555
 21
182.5674368992
 31
0.0
  0
LINE
  5
2C1
330
2B6
100
AcDbEntity
  8
SLD-0
 62
     7
100
AcDbLine
 10
100.6459564555
 20
182.5674368992
 30
0.0
 11
119.4591717752
 21
182.5674368992
 31
0.0
  0
LINE
  5
2C2
330
2B6
100
AcDbEntity
  8
SLD-0
 62
     7
100
AcDbLine
 10
89.7003063966
 20
198.8138081593
 30
0.0
 11
88.8120962275
 21
201.7899218492
 31
0.0
  0
LINE
  5
2C3
330
2B6
100
AcDbEntity
  8
SLD-0
 62
     7
100
AcDbLine
 10
88.8120962275
 20
201.7899218492
 30
0.0
 11
91.0693648767
 21
199.6566360632
 31
0.0
  0
LINE
  5
2C4
330
2B6
100
AcDbEntity
  8
SLD-0
 62
     7
100
AcDbLine
 10
88.8120962275
 20
201.7899218492
 30
0.0
 11
90.3848356367
 21
199.2352221113
 31
0.0
  0
MTEXT
  5
2C5
330
2B6
100
AcDbEntity
  8
SLD-0
 62
     7
100
AcDbMText
 10
103.8209564555
 20
187.0941305951
 30
0.1
 40
3.5
 41
0.0
 71
     1
 72
     1
  1
2-
  7
SLDTEXTSTYLE0
 73
     1
 44
1.0
  0
MTEXT
  5
2C6
330
2B6
100
AcDbEntity
  8
SLD-0
 62
     7
100
AcDbMText
 10
106.1445674505
 20
187.0941303623
 30
0.1
 40
3.5
 41
0.0
 71
     1
 72
     1
  1
%%c
  7
SLDTEXTSTYLE0
 73
     1
 44
1.0
  0
MTEXT
  5
2C7
330
2B6
100
AcDbEntity
  8
SLD-0
 62
     7
100
AcDbMText
 10
111.7617118235
 20
187.0941305951
 30
0.1
 40
3.5
 41
0.0
 71
     1
 72
     1
  1
6.5
  7
SLDTEXTSTYLE0
 73
     1
 44
1.0
  0
ENDBLK
  5
2BE
330
2B6
100
AcDbEntity
  8
0
100
AcDbBlockEnd
  0
BLOCK
  5
2D0
330
2C9
100
AcDbEntity
  8
0
100
AcDbBlockBegin
  2
*D34
 70
     1
 71
     0
 10
0.0
 20
0.0
 30
0.0
  3
*D34
  1

  0
LINE
  5
2D2
330
2C9
100
AcDbEntity
  8
SLD-0
 62
     7
100
AcDbLine
 10
57.882682203
 20
218.5691411259
 30
0.0
 11
67.4931058407
 21
209.7642615941
 31
0.0
  0
LINE
  5
2D3
330
2C9
100
AcDbEntity
  8
SLD-0
 62
     7
100
AcDbLine
 10
59.551658076
 20
215.9498493256
 30
0.0
 11
57.882682203
 21
218.5691411259
 31
0.0
  0
LINE
  5
2D4
330
2C9
100
AcDbEntity
  8
SLD-0
 62
     7
100
AcDbLine
 10
57.882682203
 20
218.5691411259
 30
0.0
 11
60.6377030925
 21
217.1352548342
 31
0.0
  0
LINE
  5
2D5
330
2C9
100
AcDbEntity
  8
SLD-0
 62
     7
100
AcDbLine
 10
57.882682203
 20
218.5691411259
 30
0.0
 11
60.0946805843
 21
216.5425520799
 31
0.0
  0
MTEXT
  5
2D6
330
2C9
100
AcDbEntity
  8
SLD-0
 62
     7
100
AcDbMText
 10
66.3306660052
 20
216.9166629778
 30
0.1
 40
3.5
 41
0.0
 71
     1
 72
     1
  1
R
  7
SLDTEXTSTYLE0
 11
0.7418709993025564
 21
-0.6705426313023106
 31
0.0
 73
     1
 44
1.0
  0
MTEXT
  5
2D7
330
2C9
100
AcDbEntity
  8
SLD-0
 62
     7
100
AcDbMText
 10
67.8406963682
 20
215.5518168874
 30
0.1
 40
3.5
 41
0.0
 71
     1
 72
     1
  1
3
  7
SLDTEXTSTYLE0
 11
0.7418709993025564
 21
-0.6705426313023106
 31
0.0
 73
     1
 44
1.0
  0
ENDBLK
  5
2D1
330
2C9
100
AcDbEntity
  8
0
100
AcDbBlockEnd
  0
ENDSEC
  0
SECTION
  2
ENTITIES
  0
LINE
  5
96
330
1F
100
AcDbEntity
  8
SLD-0
  6
Continuous
 62
   179
100
AcDbLine
 10
20.2604743903
 20
285.0
 30
0.0
 11
196.7604743903
 21
285.0
 31
0.0
  0
LINE
  5
97
330
1F
100
AcDbEntity
  8
SLD-0
  6
Continuous
 62
   179
100
AcDbLine
 10
20.2604743903
 20
285.0
 30
0.0
 11
20.2604743903
 21
10.0
 31
0.0
  0
LINE
  5
98
330
1F
100
AcDbEntity
  8
SLD-0
  6
Continuous
 62
   179
100
AcDbLine
 10
20.2604743903
 20
10.0
 30
0.0
 11
196.7604743903
 21
10.0
 31
0.0
  0
LINE
  5
99
330
1F
100
AcDbEntity
  8
SLD-0
  6
Continuous
 62
   179
100
AcDbLine
 10
196.7604743903
 20
285.0
 30
0.0
 11
196.7604743903
 21
10.0
 31
0.0
  0
LINE
  5
9A
330
1F
100
AcDbEntity
  8
SLD-0
  6
Continuous
 62
   179
100
AcDbLine
 10
65.7604743903
 20
285.0
 30
0.0
 11
196.7604743903
 21
285.0
 31
0.0
  0
LINE
  5
9B
330
1F
100
AcDbEntity
  8
SLD-0
  6
Continuous
 62
   179
100
AcDbLine
 10
196.7604743903
 20
285.0
 30
0.0
 11
196.7604743903
 21
264.25
 31
0.0
  0
LINE
  5
9C
330
1F
100
AcDbEntity
  8
SLD-0
  6
Continuous
 62
   179
100
AcDbLine
 10
127.0104743903
 20
50.75
 30
0.0
 11
196.7604743903
 21
50.75
 31
0.0
  0
LINE
  5
9D
330
1F
100
AcDbEntity
  8
SLD-0
  6
Continuous
 62
   179
100
AcDbLine
 10
127.0104743903
 20
50.75
 30
0.0
 11
127.0104743903
 21
10.0
 31
0.0
  0
LINE
  5
9E
330
1F
100
AcDbEntity
  8
SLD-0
  6
Continuous
 62
   179
100
AcDbLine
 10
127.0104743903
 20
22.75
 30
0.0
 11
196.7604743903
 21
22.75
 31
0.0
  0
LINE
  5
9F
330
1F
100
AcDbEntity
  8
SLD-0
  6
Continuous
 62
   179
100
AcDbLine
 10
127.0104743903
 20
36.75
 30
0.0
 11
196.7604743903
 21
36.75
 31
0.0
  0
LINE
  5
A0
330
1F
100
AcDbEntity
  8
SLD-0
  6
Continuous
 62
   179
100
AcDbLine
 10
134.0250404722
 20
114.1588032452
 30
0.0
 11
158.5250404722
 21
114.1588032452
 31
0.0
  0
LINE
  5
A1
330
1F
100
AcDbEntity
  8
SLD-0
  6
Continuous
 62
   179
100
AcDbLine
 10
161.5250404722
 20
117.1588032452
 30
0.0
 11
161.5250404722
 21
149.1588032452
 31
0.0
  0
LINE
  5
A2
330
1F
100
AcDbEntity
  8
SLD-0
  6
Continuous
 62
   179
100
AcDbLine
 10
134.0250416643
 20
109.1588032452
 30
0.0
 11
166.5250404722
 21
109.1588032452
 31
0.0
  0
LINE
  5
A3
330
1F
100
AcDbEntity
  8
SLD-0
  6
Continuous
 62
   179
100
AcDbLine
 10
134.0250404722
 20
114.1588032452
 30
0.0
 11
134.0250416643
 21
109.1588032452
 31
0.0
  0
LINE
  5
A4
330
1F
100
AcDbEntity
  8
SLD-0
  6
Continuous
 62
   179
100
AcDbLine
 10
166.5250404722
 20
149.1588023511
 30
0.0
 11
161.5250404722
 21
149.1588032452
 31
0.0
  0
LINE
  5
A5
330
1F
100
AcDbEntity
  8
SLD-0
  6
Continuous
 62
   179
100
AcDbLine
 10
166.5250404722
 20
109.1588032452
 30
0.0
 11
166.5250404722
 21
149.1588023511
 31
0.0
  0
LINE
  5
A6
330
1F
100
AcDbEntity
  8
SLD-0
  6
Continuous
 62
   179
100
AcDbLine
 10
134.0250404722
 20
114.1588032452
 30
0.0
 11
134.0250404722
 21
117.1588032452
 31
0.0
  0
LINE
  5
A7
330
1F
100
AcDbEntity
  8
SLD-0
  6
Continuous
 62
   179
100
AcDbLine
 10
158.5250404722
 20
149.1588032452
 30
0.0
 11
161.5250404722
 21
149.1588032452
 31
0.0
  0
LINE
  5
A8
330
1F
100
AcDbEntity
  8
SLD-0
  6
Continuous
 62
   179
100
AcDbLine
 10
134.0250416643
 20
149.1588023511
 30
0.0
 11
134.0250404722
 21
117.1588032452
 31
0.0
  0
LINE
  5
A9
330
1F
100
AcDbEntity
  8
SLD-0
  6
Continuous
 62
   179
100
AcDbLine
 10
158.5250404722
 20
149.1588032452
 30
0.0
 11
134.0250416643
 21
149.1588023511
 31
0.0
  0
LINE
  5
AA
330
1F
100
AcDbEntity
  8
SLD-0
  6
Continuous
 62
   179
100
AcDbLine
 10
92.1082943069
 20
109.1588032452
 30
0.0
 11
52.1082952009
 21
109.1588032452
 31
0.0
  0
LINE
  5
AB
330
1F
100
AcDbEntity
  8
SLD-0
  6
Continuous
 62
   179
100
AcDbLine
 10
57.1082952009
 20
149.1588032452
 30
0.0
 11
57.1082952009
 21
117.1588032452
 31
0.0
  0
LINE
  5
AC
330
1F
100
AcDbEntity
  8
SLD-0
  6
Continuous
 62
   179
100
AcDbLine
 10
60.1082952009
 20
114.1588032452
 30
0.0
 11
92.1082952009
 21
114.1588032452
 31
0.0
  0
LINE
  5
AD
330
1F
100
AcDbEntity
  8
SLD-0
  6
Continuous
 62
   179
100
AcDbLine
 10
92.1082952009
 20
114.1588032452
 30
0.0
 11
92.1082943069
 21
109.1588032452
 31
0.0
  0
LINE
  5
AE
330
1F
100
AcDbEntity
  8
SLD-0
  6
Continuous
 62
   179
100
AcDbLine
 10
57.1082952009
 20
149.1588032452
 30
0.0
 11
52.1082952009
 21
149.1588023511
 31
0.0
  0
LINE
  5
AF
330
1F
100
AcDbEntity
  8
SLD-0
  6
Continuous
 62
   179
100
AcDbLine
 10
52.1082952009
 20
149.1588023511
 30
0.0
 11
52.1082952009
 21
109.1588032452
 31
0.0
  0
LINE
  5
B0
330
1F
100
AcDbEntity
  8
SLD-0
  6
Continuous
 62
   179
100
AcDbLine
 10
57.1082952009
 20
149.1588032452
 30
0.0
 11
60.1082952009
 21
149.1588032452
 31
0.0
  0
LINE
  5
B1
330
1F
100
AcDbEntity
  8
SLD-0
  6
Continuous
 62
   179
100
AcDbLine
 10
92.1082952009
 20
117.1588032452
 30
0.0
 11
92.1082952009
 21
114.1588032452
 31
0.0
  0
LINE
  5
B2
330
1F
100
AcDbEntity
  8
SLD-0
  6
Continuous
 62
   179
100
AcDbLine
 10
92.1082952009
 20
117.1588032452
 30
0.0
 11
92.1082943069
 21
149.1588023511
 31
0.0
  0
LINE
  5
B3
330
1F
100
AcDbEntity
  8
SLD-0
  6
Continuous
 62
   179
100
AcDbLine
 10
60.1082952009
 20
149.1588032452
 30
0.0
 11
92.1082943069
 21
149.1588023511
 31
0.0
  0
LINE
  5
B4
330
1F
100
AcDbEntity
  8
SLD-0
  6
Continuous
 62
   179
100
AcDbLine
 10
57.1082952009
 20
192.057513232
 30
0.0
 11
52.1082952009
 21
192.0575144241
 31
0.0
  0
LINE
  5
B5
330
1F
100
AcDbEntity
  8
SLD-0
  6
Continuous
 62
   179
100
AcDbLine
 10
52.1082952009
 20
224.557513232
 30
0.0
 11
52.1082952009
 21
192.0575144241
 31
0.0
  0
LINE
  5
B6
330
1F
100
AcDbEntity
  8
SLD-0
  6
Continuous
 62
   179
100
AcDbLine
 10
92.1082943069
 20
224.557513232
 30
0.0
 11
92.1082952009
 21
219.557513232
 31
0.0
  0
LINE
  5
B7
330
1F
100
AcDbEntity
  8
SLD-0
  6
Continuous
 62
   179
100
AcDbLine
 10
60.1082952009
 20
219.557513232
 30
0.0
 11
92.1082952009
 21
219.557513232
 31
0.0
  0
LINE
  5
B8
330
1F
100
AcDbEntity
  8
SLD-0
  6
Continuous
 62
   179
100
AcDbLine
 10
57.1082952009
 20
216.557513232
 30
0.0
 11
57.1082952009
 21
192.057513232
 31
0.0
  0
LINE
  5
B9
330
1F
100
AcDbEntity
  8
SLD-0
  6
Continuous
 62
   179
100
AcDbLine
 10
92.1082943069
 20
224.557513232
 30
0.0
 11
52.1082952009
 21
224.557513232
 31
0.0
  0
LINE
  5
BA
330
1F
100
AcDbEntity
  8
SLD-0
  6
Continuous
 62
   179
100
AcDbLine
 10
92.1082952009
 20
219.557513232
 30
0.0
 11
92.1082952009
 21
216.557513232
 31
0.0
  0
LINE
  5
BB
330
1F
100
AcDbEntity
  8
SLD-0
  6
Continuous
 62
   179
100
AcDbLine
 10
60.1082952009
 20
192.057513232
 30
0.0
 11
57.1082952009
 21
192.057513232
 31
0.0
  0
LINE
  5
BC
330
1F
100
AcDbEntity
  8
SLD-0
  6
Continuous
 62
   179
100
AcDbLine
 10
60.1082952009
 20
192.057513232
 30
0.0
 11
92.1082943069
 21
192.0575144241
 31
0.0
  0
LINE
  5
BD
330
1F
100
AcDbEntity
  8
SLD-0
  6
Continuous
 62
   179
100
AcDbLine
 10
92.1082943069
 20
192.0575144241
 30
0.0
 11
92.1082952009
 21
216.557513232
 31
0.0
  0
ARC
  5
BE
330
1F
100
AcDbEntity
  8
SLD-0
  6
Continuous
 62
   179
100
AcDbCircle
 10
158.5250404722
 20
117.1588032452
 30
0.0
 40
3.0
100
AcDbArc
 50
270.0
 51
0.0
  0
CIRCLE
  5
BF
330
1F
100
AcDbEntity
  8
SLD-0
  6
Continuous
 62
   179
100
AcDbCircle
 10
146.5250404722
 20
144.1588032452
 30
0.0
 40
3.25
  0
CIRCLE
  5
C0
330
1F
100
AcDbEntity
  8
SLD-0
  6
Continuous
 62
   179
100
AcDbCircle
 10
146.5250404722
 20
129.1588032452
 30
0.0
 40
3.25
  0
ARC
  5
C1
330
1F
100
AcDbEntity
  8
SLD-0
  6
Continuous
 62
   179
100
AcDbCircle
 10
60.1082952009
 20
117.1588032452
 30
0.0
 40
3.0
100
AcDbArc
 50
180.0
 51
270.0
  0
CIRCLE
  5
C2
330
1F
100
AcDbEntity
  8
SLD-0
  6
Continuous
 62
   179
100
AcDbCircle
 10
87.1082952009
 20
144.1588032452
 30
0.0
 40
3.250000000000014
  0
CIRCLE
  5
C3
330
1F
100
AcDbEntity
  8
SLD-0
  6
Continuous
 62
   179
100
AcDbCircle
 10
72.1082952009
 20
144.1588032452
 30
0.0
 40
3.250000000000014
  0
CIRCLE
  5
C4
330
1F
100
AcDbEntity
  8
SLD-0
  6
Continuous
 62
   179
100
AcDbCircle
 10
72.1082952009
 20
129.1588032452
 30
0.0
 40
3.250000000000014
  0
CIRCLE
  5
C5
330
1F
100
AcDbEntity
  8
SLD-0
  6
Continuous
 62
   179
100
AcDbCircle
 10
87.1082952009
 20
129.1588032452
 30
0.0
 40
3.250000000000014
  0
ARC
  5
C6
330
1F
100
AcDbEntity
  8
SLD-0
  6
Continuous
 62
   179
100
AcDbCircle
 10
60.1082952009
 20
216.557513232
 30
0.0
 40
3.0
100
AcDbArc
 50
90.0
 51
180.0
  0
CIRCLE
  5
C7
330
1F
100
AcDbEntity
  8
SLD-0
  6
Continuous
 62
   179
100
AcDbCircle
 10
87.1082952009
 20
204.557513232
 30
0.0
 40
3.250000000000014
  0
CIRCLE
  5
C8
330
1F
100
AcDbEntity
  8
SLD-0
  6
Continuous
 62
   179
100
AcDbCircle
 10
72.1082952009
 20
204.557513232
 30
0.0
 40
3.250000000000014
  0
DIMENSION
  5
C9
330
1F
100
AcDbEntity
  8
SLD-0
 62
     7
100
AcDbDimension
  2
*D11
 10
184.3367458706
 20
149.1588032452
 30
0.0
 11
184.3367458706
 21
129.1588032452
 31
0.0
 70
   160
 71
     1
 42
40.0
  3
SLDDIMSTYLE0
100
AcDbAlignedDimension
 13
166.5250404722
 23
109.1588032452
 33
0.0
 14
166.5250404722
 24
149.1588032452
 34
0.0
 50
90.0
100
AcDbRotatedDimension
1001
ACAD
1000
DSTYLE
1002
{
1070
    77
1070
     3
1070
   143
1040
0.0393700787
1070
    41
1040
3.0
1070
    44
1040
1.0
1070
    42
1040
1.0
1070
   147
1040
1.524
1070
    73
1070
     0
1070
    74
1070
     0
1070
   140
1040
3.5
1070
   284
1070
    12
1070
    78
1070
    12
1002
}
  0
DIMENSION
  5
E6
330
1F
100
AcDbEntity
  8
SLD-0
 62
     7
100
AcDbDimension
  2
*D13
 10
161.5250404722
 20
159.3884918559
 30
0.0
 11
172.71618679
 21
159.3884918559
 31
0.0
 70
   160
 71
     1
 42
5.0
  3
SLDDIMSTYLE0
100
AcDbAlignedDimension
 13
166.5250404722
 23
149.1588032452
 33
0.0
 14
161.5250404722
 24
149.1588032452
 34
0.0
100
AcDbRotatedDimension
1001
ACAD
1000
DSTYLE
1002
{
1070
    77
1070
     3
1070
   143
1040
0.0393700787
1070
    41
1040
3.0
1070
    44
1040
1.0
1070
    42
1040
1.0
1070
   147
1040
1.524
1070
    73
1070
     0
1070
    74
1070
     0
1070
   140
1040
3.5
1070
   284
1070
    12
1070
    78
1070
    12
1002
}
  0
DIMENSION
  5
102
330
1F
100
AcDbEntity
  8
SLD-0
 62
     7
100
AcDbDimension
  2
*D14
 10
176.1803555961
 20
129.1588032452
 30
0.0
 11
176.1803555961
 21
136.6588032452
 31
0.0
 70
   160
 71
     1
 42
15.0
  3
SLDDIMSTYLE0
100
AcDbAlignedDimension
 13
146.5250404722
 23
144.1588032452
 33
0.0
 14
146.5250404722
 24
129.1588032452
 34
0.0
 50
90.0
100
AcDbRotatedDimension
1001
ACAD
1000
DSTYLE
1002
{
1070
    77
1070
     3
1070
   143
1040
0.0393700787
1070
    41
1040
3.0
1070
    44
1040
1.0
1070
    42
1040
1.0
1070
   147
1040
1.524
1070
    73
1070
     0
1070
    74
1070
     0
1070
   140
1040
3.5
1070
   284
1070
    12
1070
    78
1070
    12
1002
}
  0
DIMENSION
  5
11A
330
1F
100
AcDbEntity
  8
SLD-0
 62
     7
100
AcDbDimension
  2
*D15
 10
176.1803555961
 20
109.1588032452
 30
0.0
 11
176.1803555961
 21
119.1588032452
 31
0.0
 70
   160
 71
     1
 42
20.0
  3
SLDDIMSTYLE0
100
AcDbAlignedDimension
 13
146.5250404722
 23
129.1588032452
 33
0.0
 14
166.5250404722
 24
109.1588032452
 34
0.0
 50
90.0
100
AcDbRotatedDimension
1001
ACAD
1000
DSTYLE
1002
{
1070
    77
1070
     3
1070
   143
1040
0.0393700787
1070
    41
1040
3.0
1070
    44
1040
1.0
1070
    42
1040
1.0
1070
   147
1040
1.524
1070
    73
1070
     0
1070
    74
1070
     0
1070
   140
1040
3.5
1070
   284
1070
    12
1070
    78
1070
    12
1002
}
  0
DIMENSION
  5
132
330
1F
100
AcDbEntity
  8
SLD-0
 62
     7
100
AcDbDimension
  2
*D16
 10
166.5250404722
 20
168.2883853555
 30
0.0
 11
156.5250404722
 21
168.2883853555
 31
0.0
 70
   160
 71
     1
 42
20.0
  3
SLDDIMSTYLE0
100
AcDbAlignedDimension
 13
146.5250404722
 23
149.9088032452
 33
0.0
 14
166.5250404722
 24
149.1588032452
 34
0.0
100
AcDbRotatedDimension
1001
ACAD
1000
DSTYLE
1002
{
1070
    77
1070
     3
1070
   143
1040
0.0393700787
1070
    41
1040
3.0
1070
    44
1040
1.0
1070
    42
1040
1.0
1070
   147
1040
1.524
1070
    73
1070
     0
1070
    74
1070
     0
1070
   140
1040
3.5
1070
   284
1070
    12
1070
    78
1070
    12
1002
}
  0
DIMENSION
  5
149
330
1F
100
AcDbEntity
  8
SLD-0
 62
     7
100
AcDbDimension
  2
*D17
 10
4.6334541557
 20
4.558628367
 30
0.0
 11
128.4433063051
 21
-4.2079651444
 31
0.0
 70
   163
  1
2-<>
 71
     1
 42
6.4999992308
  3
SLDDIMSTYLE1
100
AcDbDiametricDimension
 15
0.0
 25
0.0
 35
0.0
 40
0.0
1001
ACAD
1000
DSTYLE
1002
{
1070
    77
1070
     0
1070
   143
1040
0.0393700787
1070
    41
1040
3.0
1070
    44
1040
1.0
1070
    42
1040
1.0
1070
   147
1040
1.524
1070
    73
1070
     1
1070
    74
1070
     1
1070
   140
1040
3.5
1070
   284
1070
    12
1070
    78
1070
    12
1002
}
  0
DIMENSION
  5
15C
330
1F
100
AcDbEntity
  8
SLD-0
 62
     7
100
AcDbDimension
  2
*D18
 10
158.5250404722
 20
117.1588032452
 30
0.0
 11
152.7224234621
 21
123.2087713597
 31
0.0
 70
   164
  1
<>
 71
     1
 42
197.1202009804
  3
SLDDIMSTYLE2
100
AcDbRadialDimension
 15
0.0
 25
0.0
 35
0.0
 40
0.0
1001
ACAD
1000
DSTYLE
1002
{
1070
    77
1070
     0
1070
   143
1040
0.0393700787
1070
    41
1040
3.0
1070
    44
1040
1.0
1070
    42
1040
1.0
1070
   147
1040
1.524
1070
    73
1070
     1
1070
    74
1070
     1
1070
   140
1040
3.5
1070
   284
1070
    12
1070
    78
1070
    12
1002
}
  0
DIMENSION
  5
16D
330
1F
100
AcDbEntity
  8
SLD-0
 62
     7
100
AcDbDimension
  2
*D19
 10
108.1208922778
 20
144.1588032452
 30
0.0
 11
108.1208922778
 21
136.6588032452
 31
0.0
 70
   160
 71
     1
 42
15.0
  3
SLDDIMSTYLE0
100
AcDbAlignedDimension
 13
87.1082952009
 23
129.1588032452
 33
0.0
 14
87.1082952009
 24
144.1588032452
 34
0.0
 50
90.0
100
AcDbRotatedDimension
1001
ACAD
1000
DSTYLE
1002
{
1070
    77
1070
     3
1070
   143
1040
0.0393700787
1070
    41
1040
3.0
1070
    44
1040
1.0
1070
    42
1040
1.0
1070
   147
1040
1.524
1070
    73
1070
     0
1070
    74
1070
     0
1070
   140
1040
3.5
1070
   284
1070
    12
1070
    78
1070
    12
1002
}
  0
DIMENSION
  5
185
330
1F
100
AcDbEntity
  8
SLD-0
 62
     7
100
AcDbDimension
  2
*D20
 10
72.1082952009
 20
164.138560794
 30
0.0
 11
79.6082952009
 21
164.138560794
 31
0.0
 70
   160
 71
     1
 42
15.0
  3
SLDDIMSTYLE0
100
AcDbAlignedDimension
 13
87.1082952009
 23
144.1588032452
 33
0.0
 14
72.1082952009
 24
144.1588032452
 34
0.0
100
AcDbRotatedDimension
1001
ACAD
1000
DSTYLE
1002
{
1070
    77
1070
     3
1070
   143
1040
0.0393700787
1070
    41
1040
3.0
1070
    44
1040
1.0
1070
    42
1040
1.0
1070
   147
1040
1.524
1070
    73
1070
     0
1070
    74
1070
     0
1070
   140
1040
3.5
1070
   284
1070
    12
1070
    78
1070
    12
1002
}
  0
DIMENSION
  5
19C
330
1F
100
AcDbEntity
  8
SLD-0
 62
     7
100
AcDbDimension
  2
*D21
 10
60.1082952009
 20
117.1588032452
 30
0.0
 11
63.8114991448
 21
120.1585642062
 31
0.0
 70
   164
  1
<>
 71
     1
 42
131.6783669773
  3
SLDDIMSTYLE2
100
AcDbRadialDimension
 15
0.0
 25
0.0
 35
0.0
 40
0.0
1001
ACAD
1000
DSTYLE
1002
{
1070
    77
1070
     0
1070
   143
1040
0.0393700787
1070
    41
1040
3.0
1070
    44
1040
1.0
1070
    42
1040
1.0
1070
   147
1040
1.524
1070
    73
1070
     1
1070
    74
1070
     1
1070
   140
1040
3.5
1070
   284
1070
    12
1070
    78
1070
    12
1002
}
  0
DIMENSION
  5
1AC
330
1F
100
AcDbEntity
  8
SLD-0
 62
     7
100
AcDbDimension
  2
*D22
 10
52.1082952009
 20
164.138560794
 30
0.0
 11
62.1082952009
 21
164.138560794
 31
0.0
 70
   160
 71
     1
 42
20.0
  3
SLDDIMSTYLE0
100
AcDbAlignedDimension
 13
72.1082952009
 23
144.1588032452
 33
0.0
 14
52.1082952009
 24
149.1588032452
 34
0.0
100
AcDbRotatedDimension
1001
ACAD
1000
DSTYLE
1002
{
1070
    77
1070
     3
1070
   143
1040
0.0393700787
1070
    41
1040
3.0
1070
    44
1040
1.0
1070
    42
1040
1.0
1070
   147
1040
1.524
1070
    73
1070
     0
1070
    74
1070
     0
1070
   140
1040
3.5
1070
   284
1070
    12
1070
    78
1070
    12
1002
}
  0
DIMENSION
  5
1C3
330
1F
100
AcDbEntity
  8
SLD-0
 62
     7
100
AcDbDimension
  2
*D23
 10
108.1208922778
 20
109.1588032452
 30
0.0
 11
108.1208922778
 21
119.1588032452
 31
0.0
 70
   160
 71
     1
 42
20.0
  3
SLDDIMSTYLE0
100
AcDbAlignedDimension
 13
87.1082952009
 23
129.1588032452
 33
0.0
 14
92.1082952009
 24
109.1588032452
 34
0.0
 50
90.0
100
AcDbRotatedDimension
1001
ACAD
1000
DSTYLE
1002
{
1070
    77
1070
     3
1070
   143
1040
0.0393700787
1070
    41
1040
3.0
1070
    44
1040
1.0
1070
    42
1040
1.0
1070
   147
1040
1.524
1070
    73
1070
     0
1070
    74
1070
     0
1070
   140
1040
3.5
1070
   284
1070
    12
1070
    78
1070
    12
1002
}
  0
DIMENSION
  5
1DB
330
1F
100
AcDbEntity
  8
SLD-0
 62
     7
100
AcDbDimension
  2
*D24
 10
98.8959214695
 20
109.1588032452
 30
0.0
 11
98.8959214695
 21
101.1195377038
 31
0.0
 70
   160
 71
     1
 42
5.0
  3
SLDDIMSTYLE0
100
AcDbAlignedDimension
 13
92.1082952009
 23
114.1588032452
 33
0.0
 14
92.1082952009
 24
109.1588032452
 34
0.0
 50
90.0
100
AcDbRotatedDimension
1001
ACAD
1000
DSTYLE
1002
{
1070
    77
1070
     3
1070
   143
1040
0.0393700787
1070
    41
1040
3.0
1070
    44
1040
1.0
1070
    42
1040
1.0
1070
   147
1040
1.524
1070
    73
1070
     0
1070
    74
1070
     0
1070
   140
1040
3.5
1070
   284
1070
    12
1070
    78
1070
    12
1002
}
  0
DIMENSION
  5
1F6
330
1F
100
AcDbEntity
  8
SLD-0
 62
     7
100
AcDbDimension
  2
*D25
 10
3.3616002576
 20
5.5632390579
 30
0.0
 11
105.8186689639
 21
-5.135298497
 31
0.0
 70
   163
  1
4-<>
 71
     1
 42
6.4999988544
  3
SLDDIMSTYLE1
100
AcDbDiametricDimension
 15
0.0
 25
0.0
 35
0.0
 40
0.0
1001
ACAD
1000
DSTYLE
1002
{
1070
    77
1070
     0
1070
   143
1040
0.0393700787
1070
    41
1040
3.0
1070
    44
1040
1.0
1070
    42
1040
1.0
1070
   147
1040
1.524
1070
    73
1070
     1
1070
    74
1070
     1
1070
   140
1040
3.5
1070
   284
1070
    12
1070
    78
1070
    12
1002
}
  0
DIMENSION
  5
208
330
1F
100
AcDbEntity
  8
SLD-0
 62
     7
100
AcDbDimension
  2
*D26
 10
52.1082952009
 20
242.4423393409
 30
0.0
 11
72.1082952009
 21
242.4423393409
 31
0.0
 70
   160
 71
     1
 42
40.0
  3
SLDDIMSTYLE0
100
AcDbAlignedDimension
 13
92.1082952009
 23
224.557513232
 33
0.0
 14
52.1082952009
 24
224.557513232
 34
0.0
100
AcDbRotatedDimension
1001
ACAD
1000
DSTYLE
1002
{
1070
    77
1070
     3
1070
   143
1040
0.0393700787
1070
    41
1040
3.0
1070
    44
1040
1.0
1070
    42
1040
1.0
1070
   147
1040
1.524
1070
    73
1070
     0
1070
    74
1070
     0
1070
   140
1040
3.5
1070
   284
1070
    12
1070
    78
1070
    12
1002
}
  0
DIMENSION
  5
21F
330
1F
100
AcDbEntity
  8
SLD-0
 62
     7
100
AcDbDimension
  2
*D27
 10
92.1082952009
 20
233.9974441551
 30
0.0
 11
74.6082952009
 21
233.9974441551
 31
0.0
 70
   160
  1
(<>)
 71
     1
 42
35.0
  3
SLDDIMSTYLE0
100
AcDbAlignedDimension
 13
57.1082952009
 23
219.557513232
 33
0.0
 14
92.1082952009
 24
219.557513232
 34
0.0
100
AcDbRotatedDimension
1001
ACAD
1000
DSTYLE
1002
{
1070
    77
1070
     3
1070
   143
1040
0.0393700787
1070
    41
1040
3.0
1070
    44
1040
1.0
1070
    42
1040
1.0
1070
   147
1040
1.524
1070
    73
1070
     0
1070
    74
1070
     0
1070
   140
1040
3.5
1070
   284
1070
    12
1070
    78
1070
    12
1002
}
  0
DIMENSION
  5
238
330
1F
100
AcDbEntity
  8
SLD-0
 62
     7
100
AcDbDimension
  2
*D28
 10
72.1082952009
 20
183.4408644184
 30
0.0
 11
79.6082952009
 21
183.4408644184
 31
0.0
 70
   160
 71
     1
 42
15.0
  3
SLDDIMSTYLE0
100
AcDbAlignedDimension
 13
87.1082952009
 23
204.557513232
 33
0.0
 14
72.1082952009
 24
204.557513232
 34
0.0
100
AcDbRotatedDimension
1001
ACAD
1000
DSTYLE
1002
{
1070
    77
1070
     3
1070
   143
1040
0.0393700787
1070
    41
1040
3.0
1070
    44
1040
1.0
1070
    42
1040
1.0
1070
   147
1040
1.524
1070
    73
1070
     0
1070
    74
1070
     0
1070
   140
1040
3.5
1070
   284
1070
    12
1070
    78
1070
    12
1002
}
  0
DIMENSION
  5
251
330
1F
100
AcDbEntity
  8
SLD-0
 62
     7
100
AcDbDimension
  2
*D29
 10
57.1082952009
 20
233.9974441551
 30
0.0
 11
44.7629849916
 21
233.9974441551
 31
0.0
 70
   160
 71
     1
 42
5.0
  3
SLDDIMSTYLE0
100
AcDbAlignedDimension
 13
52.1082952009
 23
224.557513232
 33
0.0
 14
57.1082952009
 24
216.557513232
 34
0.0
100
AcDbRotatedDimension
1001
ACAD
1000
DSTYLE
1002
{
1070
    77
1070
     3
1070
   143
1040
0.0393700787
1070
    41
1040
3.0
1070
    44
1040
1.0
1070
    42
1040
1.0
1070
   147
1040
1.524
1070
    73
1070
     0
1070
    74
1070
     0
1070
   140
1040
3.5
1070
   284
1070
    12
1070
    78
1070
    12
1002
}
  0
DIMENSION
  5
26D
330
1F
100
AcDbEntity
  8
SLD-0
 62
     7
100
AcDbDimension
  2
*D30
 10
72.1082952009
 20
183.4408644184
 30
0.0
 11
62.1082952009
 21
183.4408644184
 31
0.0
 70
   160
 71
     1
 42
20.0
  3
SLDDIMSTYLE0
100
AcDbAlignedDimension
 13
52.1082952009
 23
192.057513232
 33
0.0
 14
72.1082952009
 24
204.557513232
 34
0.0
100
AcDbRotatedDimension
1001
ACAD
1000
DSTYLE
1002
{
1070
    77
1070
     3
1070
   143
1040
0.0393700787
1070
    41
1040
3.0
1070
    44
1040
1.0
1070
    42
1040
1.0
1070
   147
1040
1.524
1070
    73
1070
     0
1070
    74
1070
     0
1070
   140
1040
3.5
1070
   284
1070
    12
1070
    78
1070
    12
1002
}
  0
DIMENSION
  5
284
330
1F
100
AcDbEntity
  8
SLD-0
 62
     7
100
AcDbDimension
  2
*D31
 10
102.4050129499
 20
224.557513232
 30
0.0
 11
102.4050129499
 21
214.557513232
 31
0.0
 70
   160
 71
     1
 42
20.0
  3
SLDDIMSTYLE0
100
AcDbAlignedDimension
 13
87.1082952009
 23
204.557513232
 33
0.0
 14
92.1082952009
 24
224.557513232
 34
0.0
 50
90.0
100
AcDbRotatedDimension
1001
ACAD
1000
DSTYLE
1002
{
1070
    77
1070
     3
1070
   143
1040
0.0393700787
1070
    41
1040
3.0
1070
    44
1040
1.0
1070
    42
1040
1.0
1070
   147
1040
1.524
1070
    73
1070
     0
1070
    74
1070
     0
1070
   140
1040
3.5
1070
   284
1070
    12
1070
    78
1070
    12
1002
}
  0
DIMENSION
  5
29C
330
1F
100
AcDbEntity
  8
SLD-0
 62
     7
100
AcDbDimension
  2
*D32
 10
112.8669816378
 20
224.557513232
 30
0.0
 11
112.8669816378
 21
208.307513232
 31
0.0
 70
   160
 71
     1
 42
32.5
  3
SLDDIMSTYLE3
100
AcDbAlignedDimension
 13
52.1082952009
 23
192.057513232
 33
0.0
 14
52.1082952009
 24
224.557513232
 34
0.0
 50
90.0
100
AcDbRotatedDimension
1001
ACAD
1000
DSTYLE
1002
{
1070
    77
1070
     3
1070
   143
1040
0.0393700787
1070
    41
1040
3.0
1070
    44
1040
1.0
1070
    42
1040
1.0
1070
   147
1040
1.524
1070
    73
1070
     0
1070
    74
1070
     0
1070
   140
1040
3.5
1070
   284
1070
    12
1070
    78
1070
    12
1002
}
  0
DIMENSION
  5
2B5
330
1F
100
AcDbEntity
  8
SLD-0
 62
     7
100
AcDbDimension
  2
*D33
 10
2.5466564141
 20
5.9803455219
 30
0.0
 11
110.8463141154
 21
-5.5203195017
 31
0.0
 70
   163
  1
2-<>
 71
     1
 42
6.4999993425
  3
SLDDIMSTYLE1
100
AcDbDiametricDimension
 15
0.0
 25
0.0
 35
0.0
 40
0.0
1001
ACAD
1000
DSTYLE
1002
{
1070
    77
1070
     0
1070
   143
1040
0.0393700787
1070
    41
1040
3.0
1070
    44
1040
1.0
1070
    42
1040
1.0
1070
   147
1040
1.524
1070
    73
1070
     1
1070
    74
1070
     1
1070
   140
1040
3.5
1070
   284
1070
    12
1070
    78
1070
    12
1002
}
  0
DIMENSION
  5
2C8
330
1F
100
AcDbEntity
  8
SLD-0
 62
     7
100
AcDbDimension
  2
*D34
 10
60.1082952009
 20
216.557513232
 30
0.0
 11
65.0789077003
 21
212.0648081826
 31
0.0
 70
   164
  1
<>
 71
     1
 42
224.7446633164
  3
SLDDIMSTYLE2
100
AcDbRadialDimension
 15
0.0
 25
0.0
 35
0.0
 40
0.0
1001
ACAD
1000
DSTYLE
1002
{
1070
    77
1070
     0
1070
   143
1040
0.0393700787
1070
    41
1040
3.0
1070
    44
1040
1.0
1070
    42
1040
1.0
1070
   147
1040
1.524
1070
    73
1070
     1
1070
    74
1070
     1
1070
   140
1040
3.5
1070
   284
1070
    12
1070
    78
1070
    12
1002
}
  0
MTEXT
  5
2D8
330
1F
100
AcDbEntity
  8
SLD-0
 62
     7
100
AcDbMText
 10
158.3254160491
 20
17.4142964063
 30
0.0
 40
3.5
 41
0.0
 71
     1
 72
     1
  1
131035
  7
SLDTEXTSTYLE0
 73
     1
 44
1.0
  0
MTEXT
  5
2D9
330
1F
100
AcDbEntity
  8
SLD-0
 62
     7
100
AcDbMText
 10
147.4000238348
 20
29.7138882404
 30
0.0
 40
4.2333333333
 41
0.0
 71
     1
 72
     1
  1
N01912-103-1
  7
SLDTEXTSTYLE1
 73
     1
 44
1.0
  0
MTEXT
  5
2DB
330
1F
100
AcDbEntity
  8
SLD-0
 62
     7
100
AcDbMText
 10
138.0191768169
 20
43.2377018572
 30
0.0
 40
4.2333333333
 41
0.0
 71
     1
 72
     1
  1
25 Connecter Block C
  7
SLDTEXTSTYLE2
 73
     1
 44
1.0
  0
INSERT
  5
2DC
330
1F
100
AcDbEntity
  8
0
  6
Continuous
 62
     7
370
     0
100
AcDbBlockReference
  2
SURFACEFINISH39
 10
176.5552201374
 20
252.1304573081
 30
0.0
  0
INSERT
  5
2DD
330
1F
100
AcDbEntity
  8
0
  6
Continuous
 62
     7
370
     0
100
AcDbBlockReference
  2
注記
 10
107.9758164651
 20
55.4561967392
 30
0.0
  0
INSERT
  5
2DE
330
1F
100
AcDbEntity
  8
0
  6
Continuous
 62
     7
370
     0
100
AcDbBlockReference
  2
SW_CENTERMARK0
 10
0.0
 20
0.0
 30
0.0
  0
INSERT
  5
2DF
330
1F
100
AcDbEntity
  8
0
  6
Continuous
 62
     7
370
     0
100
AcDbBlockReference
  2
SW_CENTERMARK1
 10
0.0
 20
0.0
 30
0.0
  0
INSERT
  5
2E0
330
1F
100
AcDbEntity
  8
0
  6
Continuous
 62
     7
370
     0
100
AcDbBlockReference
  2
SW_CENTERMARK2
 10
0.0
 20
0.0
 30
0.0
  0
INSERT
  5
2E1
330
1F
100
AcDbEntity
  8
0
  6
Continuous
 62
     7
370
     0
100
AcDbBlockReference
  2
SW_CENTERMARK3
 10
0.0
 20
0.0
 30
0.0
  0
INSERT
  5
2E2
330
1F
100
AcDbEntity
  8
0
  6
Continuous
 62
     7
370
     0
100
AcDbBlockReference
  2
SW_CENTERMARK4
 10
0.0
 20
0.0
 30
0.0
  0
INSERT
  5
2E3
330
1F
100
AcDbEntity
  8
0
  6
Continuous
 62
     7
370
     0
100
AcDbBlockReference
  2
SW_CENTERMARK5
 10
0.0
 20
0.0
 30
0.0
  0
INSERT
  5
2E4
330
1F
100
AcDbEntity
  8
0
  6
Continuous
 62
     7
370
     0
100
AcDbBlockReference
  2
SW_CENTERMARK6
 10
0.0
 20
0.0
 30
0.0
  0
INSERT
  5
2E5
330
1F
100
AcDbEntity
  8
0
  6
Continuous
 62
     7
370
     0
100
AcDbBlockReference
  2
SW_CENTERMARK7
 10
0.0
 20
0.0
 30
0.0
  0
ENDSEC
  0
SECTION
  2
OBJECTS
  0
DICTIONARY
  5
C
330
0
100
AcDbDictionary
281
     1
  3
ACAD_GROUP
350
D
  3
ACAD_LAYOUT
350
1A
  3
ACAD_MLINESTYLE
350
17
  3
ACAD_PLOTSETTINGS
350
19
  3
ACAD_PLOTSTYLENAME
350
E
  0
DICTIONARY
  5
D
102
{ACAD_REACTORS
330
C
102
}
330
C
100
AcDbDictionary
281
     1
  0
DICTIONARY
  5
1A
102
{ACAD_REACTORS
330
C
102
}
330
C
100
AcDbDictionary
281
     1
  3
Layout1
350
1E
  3
Layout2
350
26
  3
Model
350
22
  0
DICTIONARY
  5
17
102
{ACAD_REACTORS
330
C
102
}
330
C
100
AcDbDictionary
281
     1
  3
Standard
350
18
  0
DICTIONARY
  5
19
102
{ACAD_REACTORS
330
C
102
}
330
C
100
AcDbDictionary
281
     1
  0
ACDBDICTIONARYWDFLT
  5
E
102
{ACAD_REACTORS
330
C
102
}
330
C
100
AcDbDictionary
281
     1
  3
Normal
350
F
100
AcDbDictionaryWithDefault
340
F
  0
LAYOUT
  5
1E
102
{ACAD_REACTORS
330
1A
102
}
330
1A
100
AcDbPlotSettings
  1

  2

  4

  6

 40
0.0
 41
0.0
 42
0.0
 43
0.0
 44
0.0
 45
0.0
 46
0.0
 47
0.0
 48
0.0
 49
0.0
140
0.0
141
0.0
142
1.0
143
1.0
 70
   688
 72
     0
 73
     0
 74
     5
  7

 75
    16
147
1.0
148
0.0
149
0.0
100
AcDbLayout
  1
Layout1
 70
     1
 71
     1
 10
0.0
 20
0.0
 11
0.0
 21
0.0
 12
0.0
 22
0.0
 32
0.0
 14
0.0
 24
0.0
 34
0.0
 15
0.0
 25
0.0
 35
0.0
146
0.0
 13
0.0
 23
0.0
 33
0.0
 16
1.0
 26
0.0
 36
0.0
 17
0.0
 27
1.0
 37
0.0
 76
     0
330
1B
  0
LAYOUT
  5
26
102
{ACAD_REACTORS
330
1A
102
}
330
1A
100
AcDbPlotSettings
  1

  2

  4

  6

 40
0.0
 41
0.0
 42
0.0
 43
0.0
 44
0.0
 45
0.0
 46
0.0
 47
0.0
 48
0.0
 49
0.0
140
0.0
141
0.0
142
1.0
143
1.0
 70
   688
 72
     0
 73
     0
 74
     5
  7

 75
    16
147
1.0
148
0.0
149
0.0
100
AcDbLayout
  1
Layout2
 70
     1
 71
     2
 10
0.0
 20
0.0
 11
0.0
 21
0.0
 12
0.0
 22
0.0
 32
0.0
 14
0.0
 24
0.0
 34
0.0
 15
0.0
 25
0.0
 35
0.0
146
0.0
 13
0.0
 23
0.0
 33
0.0
 16
1.0
 26
0.0
 36
0.0
 17
0.0
 27
1.0
 37
0.0
 76
     0
330
23
  0
LAYOUT
  5
22
102
{ACAD_REACTORS
330
1A
102
}
330
1A
100
AcDbPlotSettings
  1

  2

  4

  6

 40
0.0
 41
0.0
 42
0.0
 43
0.0
 44
0.0
 45
0.0
 46
0.0
 47
0.0
 48
0.0
 49
0.0
140
0.0
141
0.0
142
1.0
143
1.0
 70
  1712
 72
     0
 73
     0
 74
     0
  7

 75
     0
147
1.0
148
0.0
149
0.0
100
AcDbLayout
  1
Model
 70
     1
 71
     0
 10
0.0
 20
0.0
 11
0.0
 21
0.0
 12
0.0
 22
0.0
 32
0.0
 14
0.0
 24
0.0
 34
0.0
 15
210.0
 25
297.0
 35
0.0
146
0.0
 13
0.0
 23
0.0
 33
0.0
 16
1.0
 26
0.0
 36
0.0
 17
0.0
 27
1.0
 37
0.0
 76
     0
330
1F
  0
MLINESTYLE
  5
18
102
{ACAD_REACTORS
330
17
102
}
330
17
100
AcDbMlineStyle
  2
Standard
 70
     0
  3

 62
   256
 51
90.0
 52
90.0
 71
     2
 49
0.5
 62
   256
  6
BYLAYER
 49
-0.5
 62
   256
  6
BYLAYER
  0
ACDBPLACEHOLDER
  5
F
102
{ACAD_REACTORS
330
E
102
}
330
E
  0
ENDSEC
  0
EOF
