  0
SECTION
  2
HEADER
  9
$ACADVER
  1
AC1015
  9
$ACADMAINTVER
 70
     6
  9
$DWGCODEPAGE
  3
DOS932
  9
$INSBASE
 10
0.0
 20
0.0
 30
0.0
  9
$EXTMIN
 10
0.0
 20
0.0
 30
0.0
  9
$EXTMAX
 10
210.0
 20
297.0
 30
0.0
  9
$LIMMIN
 10
0.0
 20
0.0
  9
$LIMMAX
 10
0.0
 20
0.0
  9
$ORTHOMODE
 70
     0
  9
$REGENMODE
 70
     1
  9
$FILLMODE
 70
     1
  9
$QTEXTMODE
 70
     0
  9
$MIRRTEXT
 70
     1
  9
$LTSCALE
 40
1.0
  9
$ATTMODE
 70
     1
  9
$TEXTSIZE
 40
3.5
  9
$TRACEWID
 40
1.0
  9
$TEXTSTYLE
  7
Standard
  9
$CLAYER
  8
0
  9
$CELTYPE
  6
ByLayer
  9
$CECOLOR
 62
   256
  9
$CELTSCALE
 40
1.0
  9
$DISPSILH
 70
     0
  9
$DIMSCALE
 40
1.0
  9
$DIMASZ
 40
6.0
  9
$DIMEXO
 40
1.0
  9
$DIMDLI
 40
3.75
  9
$DIMRND
 40
0.0
  9
$DIMDLE
 40
0.0
  9
$DIMEXE
 40
1.0
  9
$DIMTP
 40
0.0
  9
$DIMTM
 40
0.0
  9
$DIMTXT
 40
3.5
  9
$DIMCEN
 40
2.5
  9
$DIMTSZ
 40
0.0
  9
$DIMTOL
 70
     0
  9
$DIMLIM
 70
     0
  9
$DIMTIH
 70
     1
  9
$DIMTOH
 70
     1
  9
$DIMSE1
 70
     0
  9
$DIMSE2
 70
     0
  9
$DIMTAD
 70
     1
  9
$DIMZIN
 70
     1
  9
$DIMBLK
  1

  9
$DIMASO
 70
     1
  9
$DIMSHO
 70
     1
  9
$DIMPOST
  1

  9
$DIMAPOST
  1

  9
$DIMALT
 70
     0
  9
$DIMALTD
 70
     3
  9
$DIMALTF
 40
0.0393700787
  9
$DIMLFAC
 40
1.0
  9
$DIMTOFL
 70
     1
  9
$DIMTVP
 40
0.0
  9
$DIMTIX
 70
     0
  9
$DIMSOXD
 70
     0
  9
$DIMSAH
 70
     0
  9
$DIMBLK1
  1

  9
$DIMBLK2
  1

  9
$DIMSTYLE
  2
ISO-25
  9
$DIMCLRD
 70
     0
  9
$DIMCLRE
 70
     0
  9
$DIMCLRT
 70
     0
  9
$DIMTFAC
 40
1.0
  9
$DIMGAP
 40
1.524
  9
$DIMJUST
 70
     0
  9
$DIMSD1
 70
     0
  9
$DIMSD2
 70
     0
  9
$DIMTOLJ
 70
     0
  9
$DIMTZIN
 70
     1
  9
$DIMALTZ
 70
     0
  9
$DIMALTTZ
 70
     0
  9
$DIMUPT
 70
     0
  9
$DIMDEC
 70
     2
  9
$DIMTDEC
 70
     2
  9
$DIMALTU
 70
     2
  9
$DIMALTTD
 70
     3
  9
$DIMTXSTY
  7
Standard
  9
$DIMAUNIT
 70
     0
  9
$DIMADEC
 70
     0
  9
$DIMALTRND
 40
0.0
  9
$DIMAZIN
 70
     0
  9
$DIMDSEP
 70
    44
  9
$DIMATFIT
 70
     3
  9
$DIMFRAC
 70
     0
  9
$DIMLDRBLK
  1

  9
$DIMLUNIT
 70
     2
  9
$DIMLWD
 70
    -2
  9
$DIMLWE
 70
    -2
  9
$DIMTMOVE
 70
     0
  9
$LUNITS
 70
     2
  9
$LUPREC
 70
     1
  9
$SKETCHINC
 40
1.0
  9
$FILLETRAD
 40
10.0
  9
$AUNITS
 70
     0
  9
$AUPREC
 70
     0
  9
$MENU
  1
.
  9
$ELEVATION
 40
0.0
  9
$PELEVATION
 40
0.0
  9
$THICKNESS
 40
0.0
  9
$LIMCHECK
 70
     0
  9
$CHAMFERA
 40
10.0
  9
$CHAMFERB
 40
10.0
  9
$CHAMFERC
 40
20.0
  9
$CHAMFERD
 40
0.0
  9
$SKPOLY
 70
     0
  9
$TDCREATE
 40
2454314.606968854
  9
$TDUCREATE
 40
2454314.231968854
  9
$TDUPDATE
 40
2454314.606968866
  9
$TDUUPDATE
 40
2454314.231968866
  9
$TDINDWG
 40
0.0000000116
  9
$TDUSRTIMER
 40
0.0000000116
  9
$USRTIMER
 70
     1
  9
$ANGBASE
 50
0.0
  9
$ANGDIR
 70
     0
  9
$PDMODE
 70
     0
  9
$PDSIZE
 40
-1.0
  9
$PLINEWID
 40
0.0
  9
$SPLFRAME
 70
     0
  9
$SPLINETYPE
 70
     6
  9
$SPLINESEGS
 70
     8
  9
$HANDSEED
  5
294
  9
$SURFTAB1
 70
     6
  9
$SURFTAB2
 70
     6
  9
$SURFTYPE
 70
     6
  9
$SURFU
 70
     6
  9
$SURFV
 70
     6
  9
$UCSBASE
  2

  9
$UCSNAME
  2

  9
$UCSORG
 10
0.0
 20
0.0
 30
0.0
  9
$UCSXDIR
 10
1.0
 20
0.0
 30
0.0
  9
$UCSYDIR
 10
0.0
 20
1.0
 30
0.0
  9
$UCSORTHOREF
  2

  9
$UCSORTHOVIEW
 70
     0
  9
$UCSORGTOP
 10
0.0
 20
0.0
 30
0.0
  9
$UCSORGBOTTOM
 10
0.0
 20
0.0
 30
0.0
  9
$UCSORGLEFT
 10
0.0
 20
0.0
 30
0.0
  9
$UCSORGRIGHT
 10
0.0
 20
0.0
 30
0.0
  9
$UCSORGFRONT
 10
0.0
 20
0.0
 30
0.0
  9
$UCSORGBACK
 10
0.0
 20
0.0
 30
0.0
  9
$PUCSBASE
  2

  9
$PUCSNAME
  2

  9
$PUCSORG
 10
0.0
 20
0.0
 30
0.0
  9
$PUCSXDIR
 10
1.0
 20
0.0
 30
0.0
  9
$PUCSYDIR
 10
0.0
 20
1.0
 30
0.0
  9
$PUCSORTHOREF
  2

  9
$PUCSORTHOVIEW
 70
     0
  9
$PUCSORGTOP
 10
0.0
 20
0.0
 30
0.0
  9
$PUCSORGBOTTOM
 10
0.0
 20
0.0
 30
0.0
  9
$PUCSORGLEFT
 10
0.0
 20
0.0
 30
0.0
  9
$PUCSORGRIGHT
 10
0.0
 20
0.0
 30
0.0
  9
$PUCSORGFRONT
 10
0.0
 20
0.0
 30
0.0
  9
$PUCSORGBACK
 10
0.0
 20
0.0
 30
0.0
  9
$USERI1
 70
     0
  9
$USERI2
 70
     0
  9
$USERI3
 70
     0
  9
$USERI4
 70
     0
  9
$USERI5
 70
     0
  9
$USERR1
 40
0.0
  9
$USERR2
 40
0.0
  9
$USERR3
 40
0.0
  9
$USERR4
 40
0.0
  9
$USERR5
 40
0.0
  9
$WORLDVIEW
 70
     1
  9
$SHADEDGE
 70
     3
  9
$SHADEDIF
 70
    70
  9
$TILEMODE
 70
     1
  9
$MAXACTVP
 70
    64
  9
$PINSBASE
 10
0.0
 20
0.0
 30
0.0
  9
$PLIMCHECK
 70
     0
  9
$PEXTMIN
 10
1.0000000000E+20
 20
1.0000000000E+20
 30
1.0000000000E+20
  9
$PEXTMAX
 10
-1.0000000000E+20
 20
-1.0000000000E+20
 30
-1.0000000000E+20
  9
$PLIMMIN
 10
0.0
 20
0.0
  9
$PLIMMAX
 10
420.0
 20
297.0
  9
$UNITMODE
 70
     0
  9
$VISRETAIN
 70
     1
  9
$PLINEGEN
 70
     0
  9
$PSLTSCALE
 70
     1
  9
$TREEDEPTH
 70
  3020
  9
$CMLSTYLE
  2
Standard
  9
$CMLJUST
 70
     0
  9
$CMLSCALE
 40
20.0
  9
$PROXYGRAPHICS
 70
     1
  9
$MEASUREMENT
 70
     1
  9
$CELWEIGHT
370
    -1
  9
$ENDCAPS
280
     0
  9
$JOINSTYLE
280
     0
  9
$LWDISPLAY
290
     1
  9
$INSUNITS
 70
     4
  9
$HYPERLINKBASE
  1

  9
$STYLESHEET
  1

  9
$XEDIT
290
     1
  9
$CEPSNTYPE
380
     0
  9
$PSTYLEMODE
290
     1
  9
$FINGERPRINTGUID
  2
{4A7F5D3F-06BA-4C88-AA44-B03D852ACAD3}
  9
$VERSIONGUID
  2
{FAEB1C32-E019-11D5-929B-00C0DF256EC4}
  9
$EXTNAMES
290
     1
  9
$PSVPSCALE
 40
0.0
  9
$OLESTARTUP
290
     0
  0
ENDSEC
  0
SECTION
  2
CLASSES
  0
CLASS
  1
ACDBDICTIONARYWDFLT
  2
AcDbDictionaryWithDefault
  3
ObjectDBX Classes
 90
        0
280
     0
281
     0
  0
CLASS
  1
ACDBPLACEHOLDER
  2
AcDbPlaceHolder
  3
ObjectDBX Classes
 90
        0
280
     0
281
     0
  0
CLASS
  1
LAYOUT
  2
AcDbLayout
  3
ObjectDBX Classes
 90
        0
280
     0
281
     0
  0
ENDSEC
  0
SECTION
  2
TABLES
  0
TABLE
  2
VPORT
  5
8
330
0
100
AcDbSymbolTable
 70
     1
  0
VPORT
  5
29
330
8
100
AcDbSymbolTableRecord
100
AcDbViewportTableRecord
  2
*Active
 70
     0
 10
0.0
 20
0.0
 11
1.0
 21
1.0
 12
105.0
 22
148.5
 13
0.0
 23
0.0
 14
10.0
 24
10.0
 15
10.0
 25
10.0
 16
0.0
 26
0.0
 36
1.0
 17
0.0
 27
0.0
 37
0.0
 40
297.0
 41
1.9729729729
 42
50.0
 43
0.0
 44
0.0
 50
0.0
 51
0.0
 71
     0
 72
  2000
 73
     1
 74
     3
 75
     0
 76
     0
 77
     0
 78
     0
281
     0
 65
     1
110
0.0
120
0.0
130
0.0
111
1.0
121
0.0
131
0.0
112
0.0
122
1.0
132
0.0
 79
     0
146
0.0
  0
ENDTAB
  0
TABLE
  2
LTYPE
  5
5
330
0
100
AcDbSymbolTable
 70
     6
  0
LTYPE
  5
14
330
5
100
AcDbSymbolTableRecord
100
AcDbLinetypeTableRecord
  2
ByBlock
 70
     0
  3

 72
    65
 73
     0
 40
0.0
  0
LTYPE
  5
15
330
5
100
AcDbSymbolTableRecord
100
AcDbLinetypeTableRecord
  2
ByLayer
 70
     0
  3

 72
    65
 73
     0
 40
0.0
  0
LTYPE
  5
16
330
5
100
AcDbSymbolTableRecord
100
AcDbLinetypeTableRecord
  2
Continuous
 70
     0
  3
Solid line
 72
    65
 73
     0
 40
0.0
  0
LTYPE
  5
2A
330
5
100
AcDbSymbolTableRecord
100
AcDbLinetypeTableRecord
  2
HIDDEN
 70
     0
  3
Hidden __ __ __ __ __ __ __ __ __ __ __ __ __ __
 72
    65
 73
     2
 40
1.905
 49
1.27
 74
     0
 49
-0.635
 74
     0
  0
LTYPE
  5
2B
330
5
100
AcDbSymbolTableRecord
100
AcDbLinetypeTableRecord
  2
PHANTOM
 70
     0
  3
Phantom ______  __  __  ______  __  __  ______
 72
    65
 73
     6
 40
12.7
 49
6.35
 74
     0
 49
-1.27
 74
     0
 49
1.27
 74
     0
 49
-1.27
 74
     0
 49
1.27
 74
     0
 49
-1.27
 74
     0
  0
LTYPE
  5
2C
330
5
100
AcDbSymbolTableRecord
100
AcDbLinetypeTableRecord
  2
CENTER
 70
     0
  3
Center ____ _ ____ _ ____ _ ____ _ ____ _ ____
 72
    65
 73
     4
 40
10.16
 49
6.35
 74
     0
 49
-1.27
 74
     0
 49
1.27
 74
     0
 49
-1.27
 74
     0
  0
LTYPE
  5
2D
330
5
100
AcDbSymbolTableRecord
100
AcDbLinetypeTableRecord
  2
CENTERX2
 70
     0
  3
Center (2x) ________  __  ________  __  _____
 72
    65
 73
     4
 40
20.32
 49
12.7
 74
     0
 49
-2.54
 74
     0
 49
2.54
 74
     0
 49
-2.54
 74
     0
  0
LTYPE
  5
2E
330
5
100
AcDbSymbolTableRecord
100
AcDbLinetypeTableRecord
  2
DOT2
 70
     0
  3
Dot (.5x) ........................................
 72
    65
 73
     2
 40
0.635
 49
0.0
 74
     0
 49
-0.635
 74
     0
  0
ENDTAB
  0
TABLE
  2
LAYER
  5
2
330
0
100
AcDbSymbolTable
 70
     6
  0
LAYER
  5
10
330
2
100
AcDbSymbolTableRecord
100
AcDbLayerTableRecord
  2
0
 70
     0
 62
     7
  6
Continuous
370
    -3
390
F
  0
LAYER
  5
2F
330
2
100
AcDbSymbolTableRecord
100
AcDbLayerTableRecord
  2
SLD-0_0
 70
     0
 62
   179
  6
Continuous
370
     0
390
F
  0
LAYER
  5
30
330
2
100
AcDbSymbolTableRecord
100
AcDbLayerTableRecord
  2
SLD-0
 70
     0
 62
   179
  6
Continuous
370
     0
390
F
  0
LAYER
  5
31
330
2
100
AcDbSymbolTableRecord
100
AcDbLayerTableRecord
  2
SLD-DEFPOINTS
 70
     0
 62
   179
  6
Continuous
370
     0
390
F
  0
LAYER
  5
32
330
2
100
AcDbSymbolTableRecord
100
AcDbLayerTableRecord
  2
SLD-DEFPOINTS_0
 70
     0
 62
   179
  6
Continuous
370
     0
390
F
  0
LAYER
  5
DB
330
2
100
AcDbSymbolTableRecord
100
AcDbLayerTableRecord
  2
Defpoints
 70
     0
 62
     7
  6
Continuous
290
     0
370
    -3
390
F
  0
ENDTAB
  0
TABLE
  2
STYLE
  5
3
330
0
100
AcDbSymbolTable
 70
     5
  0
STYLE
  5
11
330
3
100
AcDbSymbolTableRecord
100
AcDbTextStyleTableRecord
  2
Standard
 70
     0
 40
0.0
 41
1.0
 50
0.0
 71
     0
 42
2.5
  3
txt
  4
bigfont
  0
STYLE
  5
38
330
3
100
AcDbSymbolTableRecord
100
AcDbTextStyleTableRecord
  2
SLDTEXTSTYLE0
 70
     0
 40
0.0
 41
0.407202216
 50
0.0
 71
     0
 42
0.2
  3
TXT
  4
bigfont
  0
STYLE
  5
3D
330
3
100
AcDbSymbolTableRecord
100
AcDbTextStyleTableRecord
  2
SLDTEXTSTYLE1
 70
     0
 40
0.0
 41
0.5157894737
 50
0.0
 71
     0
 42
0.2
  3
TXT
  4
bigfont
  0
STYLE
  5
F8
330
3
100
AcDbSymbolTableRecord
100
AcDbTextStyleTableRecord
  2
SLDTEXTSTYLE2
 70
     0
 40
0.0
 41
0.7
 50
0.0
 71
     0
 42
0.2
  3
TXT
  4
bigfont
  0
STYLE
  5
281
330
3
100
AcDbSymbolTableRecord
100
AcDbTextStyleTableRecord
  2
SLDTEXTSTYLE3
 70
     0
 40
0.0
 41
0.3187628033
 50
0.0
 71
     0
 42
0.2
  3
TXT
  4
bigfont
  0
ENDTAB
  0
TABLE
  2
VIEW
  5
6
330
0
100
AcDbSymbolTable
 70
     0
  0
ENDTAB
  0
TABLE
  2
UCS
  5
7
330
0
100
AcDbSymbolTable
 70
     0
  0
ENDTAB
  0
TABLE
  2
APPID
  5
9
330
0
100
AcDbSymbolTable
 70
     1
  0
APPID
  5
12
330
9
100
AcDbSymbolTableRecord
100
AcDbRegAppTableRecord
  2
ACAD
 70
     0
  0
ENDTAB
  0
TABLE
  2
DIMSTYLE
  5
A
330
0
100
AcDbSymbolTable
 70
     4
100
AcDbDimStyleTable
  0
DIMSTYLE
105
27
330
A
100
AcDbSymbolTableRecord
100
AcDbDimStyleTableRecord
  2
ISO-25
 70
     0
 41
2.5
 42
0.625
 43
3.75
 44
1.25
 73
     0
 74
     0
 77
     1
 78
     8
140
2.5
141
2.5
143
0.0393700787
147
0.625
171
     3
172
     1
271
     2
272
     2
274
     3
278
    44
283
     0
284
     8
340
11
  0
DIMSTYLE
105
E9
102
{ACAD_REACTORS
330
DA
330
FA
330
114
330
12B
330
15E
330
175
330
18C
330
1A4
330
1BB
330
1EF
330
21D
330
234
330
24B
330
263
102
}
330
A
100
AcDbSymbolTableRecord
100
AcDbDimStyleTableRecord
  2
SLDDIMSTYLE0
 70
     0
 41
6.0
 44
0.0
 73
     0
 74
     0
 77
     3
 78
    12
140
3.5
147
0.875
173
     1
271
     0
272
     3
284
    12
340
38
341
EA
343
EA
344
EA
  0
DIMSTYLE
105
151
102
{ACAD_REACTORS
330
143
330
1D5
102
}
330
A
100
AcDbSymbolTableRecord
100
AcDbDimStyleTableRecord
  2
SLDDIMSTYLE1
 70
     0
 41
6.0
 44
0.0
 73
     0
 74
     0
 77
     3
 78
    12
140
3.5
147
0.875
173
     1
271
     1
272
     3
284
    12
340
38
341
EA
343
EA
344
EA
  0
DIMSTYLE
105
216
102
{ACAD_REACTORS
330
209
102
}
330
A
100
AcDbSymbolTableRecord
100
AcDbDimStyleTableRecord
  2
SLDDIMSTYLE2
 70
     0
 41
6.0
 44
0.0
 73
     0
 74
     0
 77
     3
 78
    12
140
3.5
147
0.875
172
     1
173
     1
271
     1
272
     3
284
    12
340
38
341
40
343
40
344
40
  0
ENDTAB
  0
TABLE
  2
BLOCK_RECORD
  5
1
330
0
100
AcDbSymbolTable
 70
    28
  0
BLOCK_RECORD
  5
1F
330
1
100
AcDbSymbolTableRecord
100
AcDbBlockTableRecord
  2
*Model_Space
340
22
  0
BLOCK_RECORD
  5
1B
330
1
100
AcDbSymbolTableRecord
100
AcDbBlockTableRecord
  2
*Paper_Space
340
1E
  0
BLOCK_RECORD
  5
23
330
1
100
AcDbSymbolTableRecord
100
AcDbBlockTableRecord
  2
*Paper_Space0
340
26
  0
BLOCK_RECORD
  5
33
330
1
100
AcDbSymbolTableRecord
100
AcDbBlockTableRecord
  2
SURFACEFINISH39
340
0
102
{BLKREFS
331
289
102
}
  0
BLOCK_RECORD
  5
3A
330
1
100
AcDbSymbolTableRecord
100
AcDbBlockTableRecord
  2
注記
340
0
102
{BLKREFS
331
28A
102
}
  0
BLOCK_RECORD
  5
40
330
1
100
AcDbSymbolTableRecord
100
AcDbBlockTableRecord
  2
_OPEN30
340
0
102
{BLKREFS
331
20F
331
20E
331
217
331
28B
331
28F
331
293
102
}
  0
BLOCK_RECORD
  5
46
330
1
100
AcDbSymbolTableRecord
100
AcDbBlockTableRecord
  2
SW_CENTERMARK0
340
0
102
{BLKREFS
331
28C
102
}
  0
BLOCK_RECORD
  5
51
330
1
100
AcDbSymbolTableRecord
100
AcDbBlockTableRecord
  2
SW_CENTERMARK1
340
0
102
{BLKREFS
331
28D
102
}
  0
BLOCK_RECORD
  5
5C
330
1
100
AcDbSymbolTableRecord
100
AcDbBlockTableRecord
  2
SW_CENTERMARK2
340
0
102
{BLKREFS
331
28E
102
}
  0
BLOCK_RECORD
  5
67
330
1
100
AcDbSymbolTableRecord
100
AcDbBlockTableRecord
  2
SW_CENTERMARK3
340
0
102
{BLKREFS
331
290
102
}
  0
BLOCK_RECORD
  5
72
330
1
100
AcDbSymbolTableRecord
100
AcDbBlockTableRecord
  2
SW_CENTERMARK4
340
0
102
{BLKREFS
331
291
102
}
  0
BLOCK_RECORD
  5
7D
330
1
100
AcDbSymbolTableRecord
100
AcDbBlockTableRecord
  2
SW_CENTERMARK5
340
0
102
{BLKREFS
331
292
102
}
  0
BLOCK_RECORD
  5
DC
330
1
100
AcDbSymbolTableRecord
100
AcDbBlockTableRecord
  2
*D10
340
0
  0
BLOCK_RECORD
  5
EA
330
1
100
AcDbSymbolTableRecord
100
AcDbBlockTableRecord
  2
_None
340
0
102
{BLKREFS
331
E1
331
E0
331
100
331
FF
331
11A
331
119
331
131
331
130
331
149
331
148
331
164
331
163
331
17B
331
17A
331
192
331
191
331
1AA
331
1A9
331
1C1
331
1C0
331
1DB
331
1DA
331
1F5
331
1F4
331
223
331
222
331
23A
331
239
331
251
331
250
331
26A
331
269
102
}
  0
BLOCK_RECORD
  5
FB
330
1
100
AcDbSymbolTableRecord
100
AcDbBlockTableRecord
  2
*D12
340
0
  0
BLOCK_RECORD
  5
115
330
1
100
AcDbSymbolTableRecord
100
AcDbBlockTableRecord
  2
*D13
340
0
  0
BLOCK_RECORD
  5
12C
330
1
100
AcDbSymbolTableRecord
100
AcDbBlockTableRecord
  2
*D14
340
0
  0
BLOCK_RECORD
  5
144
330
1
100
AcDbSymbolTableRecord
100
AcDbBlockTableRecord
  2
*D15
340
0
  0
BLOCK_RECORD
  5
15F
330
1
100
AcDbSymbolTableRecord
100
AcDbBlockTableRecord
  2
*D16
340
0
  0
BLOCK_RECORD
  5
176
330
1
100
AcDbSymbolTableRecord
100
AcDbBlockTableRecord
  2
*D17
340
0
  0
BLOCK_RECORD
  5
18D
330
1
100
AcDbSymbolTableRecord
100
AcDbBlockTableRecord
  2
*D18
340
0
  0
BLOCK_RECORD
  5
1A5
330
1
100
AcDbSymbolTableRecord
100
AcDbBlockTableRecord
  2
*D19
340
0
  0
BLOCK_RECORD
  5
1BC
330
1
100
AcDbSymbolTableRecord
100
AcDbBlockTableRecord
  2
*D20
340
0
  0
BLOCK_RECORD
  5
1D6
330
1
100
AcDbSymbolTableRecord
100
AcDbBlockTableRecord
  2
*D21
340
0
  0
BLOCK_RECORD
  5
1F0
330
1
100
AcDbSymbolTableRecord
100
AcDbBlockTableRecord
  2
*D22
340
0
  0
BLOCK_RECORD
  5
20A
330
1
100
AcDbSymbolTableRecord
100
AcDbBlockTableRecord
  2
*D23
340
0
  0
BLOCK_RECORD
  5
21E
330
1
100
AcDbSymbolTableRecord
100
AcDbBlockTableRecord
  2
*D24
340
0
  0
BLOCK_RECORD
  5
235
330
1
100
AcDbSymbolTableRecord
100
AcDbBlockTableRecord
  2
*D25
340
0
  0
BLOCK_RECORD
  5
24C
330
1
100
AcDbSymbolTableRecord
100
AcDbBlockTableRecord
  2
*D26
340
0
  0
BLOCK_RECORD
  5
264
330
1
100
AcDbSymbolTableRecord
100
AcDbBlockTableRecord
  2
*D27
340
0
  0
ENDTAB
  0
ENDSEC
  0
SECTION
  2
BLOCKS
  0
BLOCK
  5
20
330
1F
100
AcDbEntity
  8
0
100
AcDbBlockBegin
  2
*Model_Space
 70
     0
 71
     0
 10
0.0
 20
0.0
 30
0.0
  3
*Model_Space
  1

  0
ENDBLK
  5
21
330
1F
100
AcDbEntity
  8
0
100
AcDbBlockEnd
  0
BLOCK
  5
1C
330
1B
100
AcDbEntity
 67
     1
  8
0
100
AcDbBlockBegin
  2
*Paper_Space
 70
     0
 71
     0
 10
0.0
 20
0.0
 30
0.0
  3
*Paper_Space
  1

  0
ENDBLK
  5
1D
330
1B
100
AcDbEntity
 67
     1
  8
0
100
AcDbBlockEnd
  0
BLOCK
  5
24
330
23
100
AcDbEntity
  8
0
100
AcDbBlockBegin
  2
*Paper_Space0
 70
     0
 71
     0
 10
0.0
 20
0.0
 30
0.0
  3
*Paper_Space0
  1

  0
ENDBLK
  5
25
330
23
100
AcDbEntity
  8
0
100
AcDbBlockEnd
  0
BLOCK
  5
34
330
33
100
AcDbEntity
  8
0
100
AcDbBlockBegin
  2
SURFACEFINISH39
 70
     0
 71
     0
 10
0.0
 20
0.0
 30
0.0
  3
SURFACEFINISH39
  1

  0
LINE
  5
36
330
33
100
AcDbEntity
  8
SLD-0
  6
Continuous
 62
   179
100
AcDbLine
 10
0.6655561177
 20
-6.0441633551
 30
0.0
 11
-2.9000137511
 21
0.0000001164
 31
0.0
  0
LINE
  5
37
330
33
100
AcDbEntity
  8
SLD-0
  6
Continuous
 62
   179
100
AcDbLine
 10
0.6655561177
 20
-6.0441633551
 30
0.0
 11
7.7966958551
 21
6.044163588
 31
0.0
  0
MTEXT
  5
39
330
33
100
AcDbEntity
  8
SLD-0
100
AcDbMText
 10
0.0
 20
4.3931031597
 30
0.0
 40
3.175
 41
0.0
 71
     1
 72
     1
  1
25
  7
SLDTEXTSTYLE0
 73
     1
 44
1.0
  0
ENDBLK
  5
35
330
33
100
AcDbEntity
  8
0
100
AcDbBlockEnd
  0
BLOCK
  5
3B
330
3A
100
AcDbEntity
  8
0
100
AcDbBlockBegin
  2
注記
 70
     0
 71
     0
 10
0.0
 20
0.0
 30
0.0
  3
注記
  1

  0
MTEXT
  5
3E
330
3A
100
AcDbEntity
  8
SLD-0_0
100
AcDbMText
 10
0.2636785918
 20
8.4775770582
 30
0.0
 40
3.5
 41
0.0
 71
     1
 72
     1
  1
１．特記ナキ角部ハ、バリ　カエリノ無キコト。
  7
SLDTEXTSTYLE1
 73
     1
 44
1.0
  0
MTEXT
  5
3F
330
3A
100
AcDbEntity
  8
SLD-0_0
100
AcDbMText
 10
0.2636785918
 20
2.9795542117
 30
0.0
 40
3.5
 41
0.0
 71
     1
 72
     1
  1
２．特記ナキ隅部ハ、Ｒ０．４ＭＡＸトスル。
  7
SLDTEXTSTYLE1
 73
     1
 44
1.0
  0
ENDBLK
  5
3C
330
3A
100
AcDbEntity
  8
0
100
AcDbBlockEnd
  0
BLOCK
  5
41
330
40
100
AcDbEntity
  8
0
100
AcDbBlockBegin
  2
_OPEN30
 70
     0
 71
     0
 10
0.0
 20
0.0
 30
0.0
  3
_OPEN30
  1

  0
LINE
  5
43
330
40
100
AcDbEntity
  8
SLD-0
  6
Continuous
100
AcDbLine
 10
-1.0
 20
0.267949
 30
0.0
 11
0.0
 21
0.0
 31
0.0
  0
LINE
  5
44
330
40
100
AcDbEntity
  8
SLD-0
  6
Continuous
100
AcDbLine
 10
0.0
 20
0.0
 30
0.0
 11
-1.0
 21
-0.267949
 31
0.0
  0
LINE
  5
45
330
40
100
AcDbEntity
  8
SLD-0
  6
Continuous
100
AcDbLine
 10
0.0
 20
0.0
 30
0.0
 11
-1.0
 21
0.0
 31
0.0
  0
ENDBLK
  5
42
330
40
100
AcDbEntity
  8
0
100
AcDbBlockEnd
  0
BLOCK
  5
47
330
46
100
AcDbEntity
  8
0
100
AcDbBlockBegin
  2
SW_CENTERMARK0
 70
     0
 71
     0
 10
0.0
 20
0.0
 30
0.0
  3
SW_CENTERMARK0
  1

  0
LINE
  5
49
330
46
100
AcDbEntity
  8
SLD-0
  6
Continuous
 62
   179
100
AcDbLine
 10
93.5624682521
 20
118.9017066353
 30
0.0
 11
93.5624682521
 21
121.4017066353
 31
0.0
  0
LINE
  5
4A
330
46
100
AcDbEntity
  8
SLD-0
  6
Continuous
 62
   179
100
AcDbLine
 10
93.5624682521
 20
118.9017066353
 30
0.0
 11
91.0624682521
 21
118.9017066353
 31
0.0
  0
LINE
  5
4B
330
46
100
AcDbEntity
  8
SLD-0
  6
Continuous
 62
   179
100
AcDbLine
 10
93.5624682521
 20
118.9017066353
 30
0.0
 11
93.5624682521
 21
116.4017066353
 31
0.0
  0
LINE
  5
4C
330
46
100
AcDbEntity
  8
SLD-0
  6
Continuous
 62
   179
100
AcDbLine
 10
93.5624682521
 20
118.9017066353
 30
0.0
 11
96.0624682521
 21
118.9017066353
 31
0.0
  0
LINE
  5
4D
330
46
100
AcDbEntity
  8
SLD-0
  6
Continuous
 62
   179
100
AcDbLine
 10
93.5624682521
 20
123.9017066353
 30
0.0
 11
93.5624682521
 21
125.6517066353
 31
0.0
  0
LINE
  5
4E
330
46
100
AcDbEntity
  8
SLD-0
  6
Continuous
 62
   179
100
AcDbLine
 10
88.5624682521
 20
118.9017066353
 30
0.0
 11
86.8124682521
 21
118.9017066353
 31
0.0
  0
LINE
  5
4F
330
46
100
AcDbEntity
  8
SLD-0
  6
Continuous
 62
   179
100
AcDbLine
 10
93.5624682521
 20
113.9017066353
 30
0.0
 11
93.5624682521
 21
112.1517066353
 31
0.0
  0
LINE
  5
50
330
46
100
AcDbEntity
  8
SLD-0
  6
Continuous
 62
   179
100
AcDbLine
 10
98.5624682521
 20
118.9017066353
 30
0.0
 11
100.3124682521
 21
118.9017066353
 31
0.0
  0
ENDBLK
  5
48
330
46
100
AcDbEntity
  8
0
100
AcDbBlockEnd
  0
BLOCK
  5
52
330
51
100
AcDbEntity
  8
0
100
AcDbBlockBegin
  2
SW_CENTERMARK1
 70
     0
 71
     0
 10
0.0
 20
0.0
 30
0.0
  3
SW_CENTERMARK1
  1

  0
LINE
  5
54
330
51
100
AcDbEntity
  8
SLD-0
  6
Continuous
 62
   179
100
AcDbLine
 10
78.5624682521
 20
116.4017066353
 30
0.0
 11
78.5624682521
 21
118.9017066353
 31
0.0
  0
LINE
  5
55
330
51
100
AcDbEntity
  8
SLD-0
  6
Continuous
 62
   179
100
AcDbLine
 10
78.5624682521
 20
116.4017066353
 30
0.0
 11
76.0624682521
 21
116.4017066353
 31
0.0
  0
LINE
  5
56
330
51
100
AcDbEntity
  8
SLD-0
  6
Continuous
 62
   179
100
AcDbLine
 10
78.5624682521
 20
116.4017066353
 30
0.0
 11
78.5624682521
 21
113.9017066353
 31
0.0
  0
LINE
  5
57
330
51
100
AcDbEntity
  8
SLD-0
  6
Continuous
 62
   179
100
AcDbLine
 10
78.5624682521
 20
116.4017066353
 30
0.0
 11
81.0624682521
 21
116.4017066353
 31
0.0
  0
LINE
  5
58
330
51
100
AcDbEntity
  8
SLD-0
  6
Continuous
 62
   179
100
AcDbLine
 10
78.5624682521
 20
121.4017066353
 30
0.0
 11
78.5624682521
 21
122.1517066353
 31
0.0
  0
LINE
  5
59
330
51
100
AcDbEntity
  8
SLD-0
  6
Continuous
 62
   179
100
AcDbLine
 10
73.5624682521
 20
116.4017066353
 30
0.0
 11
72.8124682521
 21
116.4017066353
 31
0.0
  0
LINE
  5
5A
330
51
100
AcDbEntity
  8
SLD-0
  6
Continuous
 62
   179
100
AcDbLine
 10
78.5624682521
 20
111.4017066353
 30
0.0
 11
78.5624682521
 21
110.6517066353
 31
0.0
  0
LINE
  5
5B
330
51
100
AcDbEntity
  8
SLD-0
  6
Continuous
 62
   179
100
AcDbLine
 10
83.5624682521
 20
116.4017066353
 30
0.0
 11
84.3124682521
 21
116.4017066353
 31
0.0
  0
ENDBLK
  5
53
330
51
100
AcDbEntity
  8
0
100
AcDbBlockEnd
  0
BLOCK
  5
5D
330
5C
100
AcDbEntity
  8
0
100
AcDbBlockBegin
  2
SW_CENTERMARK2
 70
     0
 71
     0
 10
0.0
 20
0.0
 30
0.0
  3
SW_CENTERMARK2
  1

  0
LINE
  5
5F
330
5C
100
AcDbEntity
  8
SLD-0
  6
Continuous
 62
   179
100
AcDbLine
 10
63.5624682521
 20
116.4017066353
 30
0.0
 11
63.5624682521
 21
118.9017066353
 31
0.0
  0
LINE
  5
60
330
5C
100
AcDbEntity
  8
SLD-0
  6
Continuous
 62
   179
100
AcDbLine
 10
63.5624682521
 20
116.4017066353
 30
0.0
 11
61.0624682521
 21
116.4017066353
 31
0.0
  0
LINE
  5
61
330
5C
100
AcDbEntity
  8
SLD-0
  6
Continuous
 62
   179
100
AcDbLine
 10
63.5624682521
 20
116.4017066353
 30
0.0
 11
63.5624682521
 21
113.9017066353
 31
0.0
  0
LINE
  5
62
330
5C
100
AcDbEntity
  8
SLD-0
  6
Continuous
 62
   179
100
AcDbLine
 10
63.5624682521
 20
116.4017066353
 30
0.0
 11
66.0624682521
 21
116.4017066353
 31
0.0
  0
LINE
  5
63
330
5C
100
AcDbEntity
  8
SLD-0
  6
Continuous
 62
   179
100
AcDbLine
 10
63.5624682521
 20
121.4017066353
 30
0.0
 11
63.5624682521
 21
122.1517066353
 31
0.0
  0
LINE
  5
64
330
5C
100
AcDbEntity
  8
SLD-0
  6
Continuous
 62
   179
100
AcDbLine
 10
58.5624682521
 20
116.4017066353
 30
0.0
 11
57.8124682521
 21
116.4017066353
 31
0.0
  0
LINE
  5
65
330
5C
100
AcDbEntity
  8
SLD-0
  6
Continuous
 62
   179
100
AcDbLine
 10
63.5624682521
 20
111.4017066353
 30
0.0
 11
63.5624682521
 21
110.6517066353
 31
0.0
  0
LINE
  5
66
330
5C
100
AcDbEntity
  8
SLD-0
  6
Continuous
 62
   179
100
AcDbLine
 10
68.5624682521
 20
116.4017066353
 30
0.0
 11
69.3124682521
 21
116.4017066353
 31
0.0
  0
ENDBLK
  5
5E
330
5C
100
AcDbEntity
  8
0
100
AcDbBlockEnd
  0
BLOCK
  5
68
330
67
100
AcDbEntity
  8
0
100
AcDbBlockBegin
  2
SW_CENTERMARK3
 70
     0
 71
     0
 10
0.0
 20
0.0
 30
0.0
  3
SW_CENTERMARK3
  1

  0
LINE
  5
6A
330
67
100
AcDbEntity
  8
SLD-0
  6
Continuous
 62
   179
100
AcDbLine
 10
63.5624682521
 20
201.9982603081
 30
0.0
 11
63.5624682521
 21
204.4982603081
 31
0.0
  0
LINE
  5
6B
330
67
100
AcDbEntity
  8
SLD-0
  6
Continuous
 62
   179
100
AcDbLine
 10
63.5624682521
 20
201.9982603081
 30
0.0
 11
61.0624682521
 21
201.9982603081
 31
0.0
  0
LINE
  5
6C
330
67
100
AcDbEntity
  8
SLD-0
  6
Continuous
 62
   179
100
AcDbLine
 10
63.5624682521
 20
201.9982603081
 30
0.0
 11
63.5624682521
 21
199.4982603081
 31
0.0
  0
LINE
  5
6D
330
67
100
AcDbEntity
  8
SLD-0
  6
Continuous
 62
   179
100
AcDbLine
 10
63.5624682521
 20
201.9982603081
 30
0.0
 11
66.0624682521
 21
201.9982603081
 31
0.0
  0
LINE
  5
6E
330
67
100
AcDbEntity
  8
SLD-0
  6
Continuous
 62
   179
100
AcDbLine
 10
63.5624682521
 20
206.9982603081
 30
0.0
 11
63.5624682521
 21
207.7482603081
 31
0.0
  0
LINE
  5
6F
330
67
100
AcDbEntity
  8
SLD-0
  6
Continuous
 62
   179
100
AcDbLine
 10
58.5624682521
 20
201.9982603081
 30
0.0
 11
57.8124682521
 21
201.9982603081
 31
0.0
  0
LINE
  5
70
330
67
100
AcDbEntity
  8
SLD-0
  6
Continuous
 62
   179
100
AcDbLine
 10
63.5624682521
 20
196.9982603081
 30
0.0
 11
63.5624682521
 21
196.2482603081
 31
0.0
  0
LINE
  5
71
330
67
100
AcDbEntity
  8
SLD-0
  6
Continuous
 62
   179
100
AcDbLine
 10
68.5624682521
 20
201.9982603081
 30
0.0
 11
69.3124682521
 21
201.9982603081
 31
0.0
  0
ENDBLK
  5
69
330
67
100
AcDbEntity
  8
0
100
AcDbBlockEnd
  0
BLOCK
  5
73
330
72
100
AcDbEntity
  8
0
100
AcDbBlockBegin
  2
SW_CENTERMARK4
 70
     0
 71
     0
 10
0.0
 20
0.0
 30
0.0
  3
SW_CENTERMARK4
  1

  0
LINE
  5
75
330
72
100
AcDbEntity
  8
SLD-0
  6
Continuous
 62
   179
100
AcDbLine
 10
78.5624682521
 20
201.9982603081
 30
0.0
 11
78.5624682521
 21
204.4982603081
 31
0.0
  0
LINE
  5
76
330
72
100
AcDbEntity
  8
SLD-0
  6
Continuous
 62
   179
100
AcDbLine
 10
78.5624682521
 20
201.9982603081
 30
0.0
 11
76.0624682521
 21
201.9982603081
 31
0.0
  0
LINE
  5
77
330
72
100
AcDbEntity
  8
SLD-0
  6
Continuous
 62
   179
100
AcDbLine
 10
78.5624682521
 20
201.9982603081
 30
0.0
 11
78.5624682521
 21
199.4982603081
 31
0.0
  0
LINE
  5
78
330
72
100
AcDbEntity
  8
SLD-0
  6
Continuous
 62
   179
100
AcDbLine
 10
78.5624682521
 20
201.9982603081
 30
0.0
 11
81.0624682521
 21
201.9982603081
 31
0.0
  0
LINE
  5
79
330
72
100
AcDbEntity
  8
SLD-0
  6
Continuous
 62
   179
100
AcDbLine
 10
78.5624682521
 20
206.9982603081
 30
0.0
 11
78.5624682521
 21
207.7482603081
 31
0.0
  0
LINE
  5
7A
330
72
100
AcDbEntity
  8
SLD-0
  6
Continuous
 62
   179
100
AcDbLine
 10
73.5624682521
 20
201.9982603081
 30
0.0
 11
72.8124682521
 21
201.9982603081
 31
0.0
  0
LINE
  5
7B
330
72
100
AcDbEntity
  8
SLD-0
  6
Continuous
 62
   179
100
AcDbLine
 10
78.5624682521
 20
196.9982603081
 30
0.0
 11
78.5624682521
 21
196.2482603081
 31
0.0
  0
LINE
  5
7C
330
72
100
AcDbEntity
  8
SLD-0
  6
Continuous
 62
   179
100
AcDbLine
 10
83.5624682521
 20
201.9982603081
 30
0.0
 11
84.3124682521
 21
201.9982603081
 31
0.0
  0
ENDBLK
  5
74
330
72
100
AcDbEntity
  8
0
100
AcDbBlockEnd
  0
BLOCK
  5
7E
330
7D
100
AcDbEntity
  8
0
100
AcDbBlockBegin
  2
SW_CENTERMARK5
 70
     0
 71
     0
 10
0.0
 20
0.0
 30
0.0
  3
SW_CENTERMARK5
  1

  0
LINE
  5
80
330
7D
100
AcDbEntity
  8
SLD-0
  6
Continuous
 62
   179
100
AcDbLine
 10
93.5624682521
 20
199.4982603081
 30
0.0
 11
93.5624682521
 21
201.9982603081
 31
0.0
  0
LINE
  5
81
330
7D
100
AcDbEntity
  8
SLD-0
  6
Continuous
 62
   179
100
AcDbLine
 10
93.5624682521
 20
199.4982603081
 30
0.0
 11
91.0624682521
 21
199.4982603081
 31
0.0
  0
LINE
  5
82
330
7D
100
AcDbEntity
  8
SLD-0
  6
Continuous
 62
   179
100
AcDbLine
 10
93.5624682521
 20
199.4982603081
 30
0.0
 11
93.5624682521
 21
196.9982603081
 31
0.0
  0
LINE
  5
83
330
7D
100
AcDbEntity
  8
SLD-0
  6
Continuous
 62
   179
100
AcDbLine
 10
93.5624682521
 20
199.4982603081
 30
0.0
 11
96.0624682521
 21
199.4982603081
 31
0.0
  0
LINE
  5
84
330
7D
100
AcDbEntity
  8
SLD-0
  6
Continuous
 62
   179
100
AcDbLine
 10
93.5624682521
 20
204.4982603081
 30
0.0
 11
93.5624682521
 21
206.2482603081
 31
0.0
  0
LINE
  5
85
330
7D
100
AcDbEntity
  8
SLD-0
  6
Continuous
 62
   179
100
AcDbLine
 10
88.5624682521
 20
199.4982603081
 30
0.0
 11
86.8124682521
 21
199.4982603081
 31
0.0
  0
LINE
  5
86
330
7D
100
AcDbEntity
  8
SLD-0
  6
Continuous
 62
   179
100
AcDbLine
 10
93.5624682521
 20
194.4982603081
 30
0.0
 11
93.5624682521
 21
192.7482603081
 31
0.0
  0
LINE
  5
87
330
7D
100
AcDbEntity
  8
SLD-0
  6
Continuous
 62
   179
100
AcDbLine
 10
98.5624682521
 20
199.4982603081
 30
0.0
 11
100.3124682521
 21
199.4982603081
 31
0.0
  0
ENDBLK
  5
7F
330
7D
100
AcDbEntity
  8
0
100
AcDbBlockEnd
  0
BLOCK
  5
E7
330
DC
100
AcDbEntity
  8
0
100
AcDbBlockBegin
  2
*D10
 70
     1
 71
     0
 10
0.0
 20
0.0
 30
0.0
  3
*D10
  1

  0
LINE
  5
ED
330
DC
100
AcDbEntity
  8
SLD-0
 62
     7
100
AcDbLine
 10
93.5624682521
 20
126.6517066353
 30
0.0
 11
93.5624682521
 21
145.1601309907
 31
0.0
  0
LINE
  5
EE
330
DC
100
AcDbEntity
  8
SLD-0
 62
     7
100
AcDbLine
 10
103.5624682521
 20
129.9017066353
 30
0.0
 11
103.5624682521
 21
145.1601309907
 31
0.0
  0
LINE
  5
EF
330
DC
100
AcDbEntity
  8
SLD-0
 62
     7
100
AcDbLine
 10
93.5624682521
 20
144.1601309907
 30
0.0
 11
88.5624682521
 21
144.1601309907
 31
0.0
  0
LINE
  5
F0
330
DC
100
AcDbEntity
  8
SLD-0
 62
     7
100
AcDbLine
 10
93.5624682521
 20
144.1601309907
 30
0.0
 11
103.5624682521
 21
144.1601309907
 31
0.0
  0
LINE
  5
F1
330
DC
100
AcDbEntity
  8
SLD-0
 62
     7
100
AcDbLine
 10
103.5624682521
 20
144.1601309907
 30
0.0
 11
108.5624682521
 21
144.1601309907
 31
0.0
  0
LINE
  5
F2
330
DC
100
AcDbEntity
  8
SLD-0
 62
     7
100
AcDbLine
 10
90.5624682521
 20
144.9639779907
 30
0.0
 11
93.5624682521
 21
144.1601309907
 31
0.0
  0
LINE
  5
F3
330
DC
100
AcDbEntity
  8
SLD-0
 62
     7
100
AcDbLine
 10
93.5624682521
 20
144.1601309907
 30
0.0
 11
90.5624682521
 21
143.3562839907
 31
0.0
  0
LINE
  5
F4
330
DC
100
AcDbEntity
  8
SLD-0
 62
     7
100
AcDbLine
 10
93.5624682521
 20
144.1601309907
 30
0.0
 11
90.5624682521
 21
144.1601309907
 31
0.0
  0
LINE
  5
F5
330
DC
100
AcDbEntity
  8
SLD-0
 62
     7
100
AcDbLine
 10
106.5624682521
 20
143.3562839907
 30
0.0
 11
103.5624682521
 21
144.1601309907
 31
0.0
  0
LINE
  5
F6
330
DC
100
AcDbEntity
  8
SLD-0
 62
     7
100
AcDbLine
 10
103.5624682521
 20
144.1601309907
 30
0.0
 11
106.5624682521
 21
144.9639779907
 31
0.0
  0
LINE
  5
F7
330
DC
100
AcDbEntity
  8
SLD-0
 62
     7
100
AcDbLine
 10
103.5624682521
 20
144.1601309907
 30
0.0
 11
106.5624682521
 21
144.1601309907
 31
0.0
  0
MTEXT
  5
F9
330
DC
100
AcDbEntity
  8
SLD-0
 62
     7
100
AcDbMText
 10
96.5263182842
 20
148.6868245703
 30
0.2
 40
3.5
 41
0.0
 71
     1
 72
     1
  1
10
  7
SLDTEXTSTYLE2
 73
     1
 44
1.0
  0
ENDBLK
  5
E8
330
DC
100
AcDbEntity
  8
0
100
AcDbBlockEnd
  0
BLOCK
  5
EB
330
EA
100
AcDbEntity
  8
0
100
AcDbBlockBegin
  2
_None
 70
     0
 71
     0
 10
0.0
 20
0.0
 30
0.0
  3
_None
  1

  0
ENDBLK
  5
EC
330
EA
100
AcDbEntity
  8
0
100
AcDbBlockEnd
  0
BLOCK
  5
106
330
FB
100
AcDbEntity
  8
0
100
AcDbBlockBegin
  2
*D12
 70
     1
 71
     0
 10
0.0
 20
0.0
 30
0.0
  3
*D12
  1

  0
LINE
  5
108
330
FB
100
AcDbEntity
  8
SLD-0
 62
     7
100
AcDbLine
 10
99.5624682521
 20
128.9017066353
 30
0.0
 11
117.8869054595
 21
128.9017066353
 31
0.0
  0
LINE
  5
109
330
FB
100
AcDbEntity
  8
SLD-0
 62
     7
100
AcDbLine
 10
101.3124682521
 20
118.9017066353
 30
0.0
 11
117.8869054595
 21
118.9017066353
 31
0.0
  0
LINE
  5
10A
330
FB
100
AcDbEntity
  8
SLD-0
 62
     7
100
AcDbLine
 10
116.8869054595
 20
128.9017066353
 30
0.0
 11
116.8869054595
 21
133.9017066353
 31
0.0
  0
LINE
  5
10B
330
FB
100
AcDbEntity
  8
SLD-0
 62
     7
100
AcDbLine
 10
116.8869054595
 20
128.9017066353
 30
0.0
 11
116.8869054595
 21
118.9017066353
 31
0.0
  0
LINE
  5
10C
330
FB
100
AcDbEntity
  8
SLD-0
 62
     7
100
AcDbLine
 10
116.8869054595
 20
118.9017066353
 30
0.0
 11
116.8869054595
 21
113.9017066353
 31
0.0
  0
LINE
  5
10D
330
FB
100
AcDbEntity
  8
SLD-0
 62
     7
100
AcDbLine
 10
117.6907524595
 20
131.9017066353
 30
0.0
 11
116.8869054595
 21
128.9017066353
 31
0.0
  0
LINE
  5
10E
330
FB
100
AcDbEntity
  8
SLD-0
 62
     7
100
AcDbLine
 10
116.8869054595
 20
128.9017066353
 30
0.0
 11
116.0830584595
 21
131.9017066353
 31
0.0
  0
LINE
  5
10F
330
FB
100
AcDbEntity
  8
SLD-0
 62
     7
100
AcDbLine
 10
116.8869054595
 20
128.9017066353
 30
0.0
 11
116.8869054595
 21
131.9017066353
 31
0.0
  0
LINE
  5
110
330
FB
100
AcDbEntity
  8
SLD-0
 62
     7
100
AcDbLine
 10
116.0830584595
 20
115.9017066353
 30
0.0
 11
116.8869054595
 21
118.9017066353
 31
0.0
  0
LINE
  5
111
330
FB
100
AcDbEntity
  8
SLD-0
 62
     7
100
AcDbLine
 10
116.8869054595
 20
118.9017066353
 30
0.0
 11
117.6907524595
 21
115.9017066353
 31
0.0
  0
LINE
  5
112
330
FB
100
AcDbEntity
  8
SLD-0
 62
     7
100
AcDbLine
 10
116.8869054595
 20
118.9017066353
 30
0.0
 11
116.8869054595
 21
115.9017066353
 31
0.0
  0
MTEXT
  5
113
330
FB
100
AcDbEntity
  8
SLD-0
 62
     7
100
AcDbMText
 10
112.36021188
 20
121.8655566674
 30
0.2
 40
3.5
 41
0.0
 71
     1
 72
     1
  1
10
  7
SLDTEXTSTYLE2
 11
6.123031769111886E-17
 21
1.0
 31
0.0
 73
     1
 44
1.0
  0
ENDBLK
  5
107
330
FB
100
AcDbEntity
  8
0
100
AcDbBlockEnd
  0
BLOCK
  5
11F
330
115
100
AcDbEntity
  8
0
100
AcDbBlockBegin
  2
*D13
 70
     1
 71
     0
 10
0.0
 20
0.0
 30
0.0
  3
*D13
  1

  0
LINE
  5
121
330
115
100
AcDbEntity
  8
SLD-0
 62
     7
100
AcDbLine
 10
103.5624682521
 20
124.9017066353
 30
0.0
 11
103.5624682521
 21
153.8704305154
 31
0.0
  0
LINE
  5
122
330
115
100
AcDbEntity
  8
SLD-0
 62
     7
100
AcDbLine
 10
78.5624682521
 20
123.1517066353
 30
0.0
 11
78.5624682521
 21
153.8704305154
 31
0.0
  0
LINE
  5
123
330
115
100
AcDbEntity
  8
SLD-0
 62
     7
100
AcDbLine
 10
103.5624682521
 20
152.8704305154
 30
0.0
 11
78.5624682521
 21
152.8704305154
 31
0.0
  0
LINE
  5
124
330
115
100
AcDbEntity
  8
SLD-0
 62
     7
100
AcDbLine
 10
100.5624682521
 20
153.6742775154
 30
0.0
 11
103.5624682521
 21
152.8704305154
 31
0.0
  0
LINE
  5
125
330
115
100
AcDbEntity
  8
SLD-0
 62
     7
100
AcDbLine
 10
103.5624682521
 20
152.8704305154
 30
0.0
 11
100.5624682521
 21
152.0665835154
 31
0.0
  0
LINE
  5
126
330
115
100
AcDbEntity
  8
SLD-0
 62
     7
100
AcDbLine
 10
103.5624682521
 20
152.8704305154
 30
0.0
 11
100.5624682521
 21
152.8704305154
 31
0.0
  0
LINE
  5
127
330
115
100
AcDbEntity
  8
SLD-0
 62
     7
100
AcDbLine
 10
81.5624682521
 20
152.0665835154
 30
0.0
 11
78.5624682521
 21
152.8704305154
 31
0.0
  0
LINE
  5
128
330
115
100
AcDbEntity
  8
SLD-0
 62
     7
100
AcDbLine
 10
78.5624682521
 20
152.8704305154
 30
0.0
 11
81.5624682521
 21
153.6742775154
 31
0.0
  0
LINE
  5
129
330
115
100
AcDbEntity
  8
SLD-0
 62
     7
100
AcDbLine
 10
78.5624682521
 20
152.8704305154
 30
0.0
 11
81.5624682521
 21
152.8704305154
 31
0.0
  0
MTEXT
  5
12A
330
115
100
AcDbEntity
  8
SLD-0
 62
     7
100
AcDbMText
 10
89.0263182842
 20
157.397124095
 30
0.2
 40
3.5
 41
0.0
 71
     1
 72
     1
  1
25
  7
SLDTEXTSTYLE2
 73
     1
 44
1.0
  0
ENDBLK
  5
120
330
115
100
AcDbEntity
  8
0
100
AcDbBlockEnd
  0
BLOCK
  5
137
330
12C
100
AcDbEntity
  8
0
100
AcDbBlockBegin
  2
*D14
 70
     1
 71
     0
 10
0.0
 20
0.0
 30
0.0
  3
*D14
  1

  0
LINE
  5
139
330
12C
100
AcDbEntity
  8
SLD-0
 62
     7
100
AcDbLine
 10
78.5624682521
 20
123.1517066353
 30
0.0
 11
78.5624682521
 21
153.8704305154
 31
0.0
  0
LINE
  5
13A
330
12C
100
AcDbEntity
  8
SLD-0
 62
     7
100
AcDbLine
 10
63.5624682521
 20
123.1517066353
 30
0.0
 11
63.5624682521
 21
153.8704305154
 31
0.0
  0
LINE
  5
13B
330
12C
100
AcDbEntity
  8
SLD-0
 62
     7
100
AcDbLine
 10
78.5624682521
 20
152.8704305154
 30
0.0
 11
63.5624682521
 21
152.8704305154
 31
0.0
  0
LINE
  5
13C
330
12C
100
AcDbEntity
  8
SLD-0
 62
     7
100
AcDbLine
 10
75.5624682521
 20
153.6742775154
 30
0.0
 11
78.5624682521
 21
152.8704305154
 31
0.0
  0
LINE
  5
13D
330
12C
100
AcDbEntity
  8
SLD-0
 62
     7
100
AcDbLine
 10
78.5624682521
 20
152.8704305154
 30
0.0
 11
75.5624682521
 21
152.0665835154
 31
0.0
  0
LINE
  5
13E
330
12C
100
AcDbEntity
  8
SLD-0
 62
     7
100
AcDbLine
 10
78.5624682521
 20
152.8704305154
 30
0.0
 11
75.5624682521
 21
152.8704305154
 31
0.0
  0
LINE
  5
13F
330
12C
100
AcDbEntity
  8
SLD-0
 62
     7
100
AcDbLine
 10
66.5624682521
 20
152.0665835154
 30
0.0
 11
63.5624682521
 21
152.8704305154
 31
0.0
  0
LINE
  5
140
330
12C
100
AcDbEntity
  8
SLD-0
 62
     7
100
AcDbLine
 10
63.5624682521
 20
152.8704305154
 30
0.0
 11
66.5624682521
 21
153.6742775154
 31
0.0
  0
LINE
  5
141
330
12C
100
AcDbEntity
  8
SLD-0
 62
     7
100
AcDbLine
 10
63.5624682521
 20
152.8704305154
 30
0.0
 11
66.5624682521
 21
152.8704305154
 31
0.0
  0
MTEXT
  5
142
330
12C
100
AcDbEntity
  8
SLD-0
 62
     7
100
AcDbMText
 10
69.0263182842
 20
157.397124095
 30
0.2
 40
3.5
 41
0.0
 71
     1
 72
     1
  1
15
  7
SLDTEXTSTYLE2
 73
     1
 44
1.0
  0
ENDBLK
  5
138
330
12C
100
AcDbEntity
  8
0
100
AcDbBlockEnd
  0
BLOCK
  5
14F
330
144
100
AcDbEntity
  8
0
100
AcDbBlockBegin
  2
*D15
 70
     1
 71
     0
 10
0.0
 20
0.0
 30
0.0
  3
*D15
  1

  0
LINE
  5
152
330
144
100
AcDbEntity
  8
SLD-0
 62
     7
100
AcDbLine
 10
71.8124682521
 20
116.4017066353
 30
0.0
 11
35.8918916977
 21
116.4017066353
 31
0.0
  0
LINE
  5
153
330
144
100
AcDbEntity
  8
SLD-0
 62
     7
100
AcDbLine
 10
47.5624682521
 20
128.9017066353
 30
0.0
 11
35.8918916977
 21
128.9017066353
 31
0.0
  0
LINE
  5
154
330
144
100
AcDbEntity
  8
SLD-0
 62
     7
100
AcDbLine
 10
36.8918916977
 20
116.4017066353
 30
0.0
 11
36.8918916977
 21
111.4017066353
 31
0.0
  0
LINE
  5
155
330
144
100
AcDbEntity
  8
SLD-0
 62
     7
100
AcDbLine
 10
36.8918916977
 20
116.4017066353
 30
0.0
 11
36.8918916977
 21
128.9017066353
 31
0.0
  0
LINE
  5
156
330
144
100
AcDbEntity
  8
SLD-0
 62
     7
100
AcDbLine
 10
36.8918916977
 20
128.9017066353
 30
0.0
 11
36.8918916977
 21
133.9017066353
 31
0.0
  0
LINE
  5
157
330
144
100
AcDbEntity
  8
SLD-0
 62
     7
100
AcDbLine
 10
36.0880446977
 20
113.4017066353
 30
0.0
 11
36.8918916977
 21
116.4017066353
 31
0.0
  0
LINE
  5
158
330
144
100
AcDbEntity
  8
SLD-0
 62
     7
100
AcDbLine
 10
36.8918916977
 20
116.4017066353
 30
0.0
 11
37.6957386977
 21
113.4017066353
 31
0.0
  0
LINE
  5
159
330
144
100
AcDbEntity
  8
SLD-0
 62
     7
100
AcDbLine
 10
36.8918916977
 20
116.4017066353
 30
0.0
 11
36.8918916977
 21
113.4017066353
 31
0.0
  0
LINE
  5
15A
330
144
100
AcDbEntity
  8
SLD-0
 62
     7
100
AcDbLine
 10
37.6957386977
 20
131.9017066353
 30
0.0
 11
36.8918916977
 21
128.9017066353
 31
0.0
  0
LINE
  5
15B
330
144
100
AcDbEntity
  8
SLD-0
 62
     7
100
AcDbLine
 10
36.8918916977
 20
128.9017066353
 30
0.0
 11
36.0880446977
 21
131.9017066353
 31
0.0
  0
LINE
  5
15C
330
144
100
AcDbEntity
  8
SLD-0
 62
     7
100
AcDbLine
 10
36.8918916977
 20
128.9017066353
 30
0.0
 11
36.8918916977
 21
131.9017066353
 31
0.0
  0
MTEXT
  5
15D
330
144
100
AcDbEntity
  8
SLD-0
 62
     7
100
AcDbMText
 10
32.3651981182
 20
118.5794066995
 30
0.2
 40
3.5
 41
0.0
 71
     1
 72
     1
  1
12.5
  7
SLDTEXTSTYLE2
 11
6.123031769111886E-17
 21
1.0
 31
0.0
 73
     1
 44
1.0
  0
ENDBLK
  5
150
330
144
100
AcDbEntity
  8
0
100
AcDbBlockEnd
  0
BLOCK
  5
169
330
15F
100
AcDbEntity
  8
0
100
AcDbBlockBegin
  2
*D16
 70
     1
 71
     0
 10
0.0
 20
0.0
 30
0.0
  3
*D16
  1

  0
LINE
  5
16B
330
15F
100
AcDbEntity
  8
SLD-0
 62
     7
100
AcDbLine
 10
48.5624682521
 20
215.4982603081
 30
0.0
 11
48.5624682521
 21
236.6827619715
 31
0.0
  0
LINE
  5
16C
330
15F
100
AcDbEntity
  8
SLD-0
 62
     7
100
AcDbLine
 10
103.5624682521
 20
215.4982603081
 30
0.0
 11
103.5624682521
 21
236.6827619715
 31
0.0
  0
LINE
  5
16D
330
15F
100
AcDbEntity
  8
SLD-0
 62
     7
100
AcDbLine
 10
48.5624682521
 20
235.6827619715
 30
0.0
 11
103.5624682521
 21
235.6827619715
 31
0.0
  0
LINE
  5
16E
330
15F
100
AcDbEntity
  8
SLD-0
 62
     7
100
AcDbLine
 10
51.5624682521
 20
234.8789149715
 30
0.0
 11
48.5624682521
 21
235.6827619715
 31
0.0
  0
LINE
  5
16F
330
15F
100
AcDbEntity
  8
SLD-0
 62
     7
100
AcDbLine
 10
48.5624682521
 20
235.6827619715
 30
0.0
 11
51.5624682521
 21
236.4866089715
 31
0.0
  0
LINE
  5
170
330
15F
100
AcDbEntity
  8
SLD-0
 62
     7
100
AcDbLine
 10
48.5624682521
 20
235.6827619715
 30
0.0
 11
51.5624682521
 21
235.6827619715
 31
0.0
  0
LINE
  5
171
330
15F
100
AcDbEntity
  8
SLD-0
 62
     7
100
AcDbLine
 10
100.5624682521
 20
236.4866089715
 30
0.0
 11
103.5624682521
 21
235.6827619715
 31
0.0
  0
LINE
  5
172
330
15F
100
AcDbEntity
  8
SLD-0
 62
     7
100
AcDbLine
 10
103.5624682521
 20
235.6827619715
 30
0.0
 11
100.5624682521
 21
234.8789149715
 31
0.0
  0
LINE
  5
173
330
15F
100
AcDbEntity
  8
SLD-0
 62
     7
100
AcDbLine
 10
103.5624682521
 20
235.6827619715
 30
0.0
 11
100.5624682521
 21
235.6827619715
 31
0.0
  0
MTEXT
  5
174
330
15F
100
AcDbEntity
  8
SLD-0
 62
     7
100
AcDbMText
 10
74.0263182842
 20
240.2094555511
 30
0.2
 40
3.5
 41
0.0
 71
     1
 72
     1
  1
55
  7
SLDTEXTSTYLE2
 73
     1
 44
1.0
  0
ENDBLK
  5
16A
330
15F
100
AcDbEntity
  8
0
100
AcDbBlockEnd
  0
BLOCK
  5
180
330
176
100
AcDbEntity
  8
0
100
AcDbBlockBegin
  2
*D17
 70
     1
 71
     0
 10
0.0
 20
0.0
 30
0.0
  3
*D17
  1

  0
LINE
  5
182
330
176
100
AcDbEntity
  8
SLD-0
 62
     7
100
AcDbLine
 10
103.5624682521
 20
210.4982603081
 30
0.0
 11
103.5624682521
 21
227.554820449
 31
0.0
  0
LINE
  5
183
330
176
100
AcDbEntity
  8
SLD-0
 62
     7
100
AcDbLine
 10
53.5624682521
 20
210.4982603081
 30
0.0
 11
53.5624682521
 21
227.554820449
 31
0.0
  0
LINE
  5
184
330
176
100
AcDbEntity
  8
SLD-0
 62
     7
100
AcDbLine
 10
103.5624682521
 20
226.554820449
 30
0.0
 11
53.5624682521
 21
226.554820449
 31
0.0
  0
LINE
  5
185
330
176
100
AcDbEntity
  8
SLD-0
 62
     7
100
AcDbLine
 10
100.5624682521
 20
227.358667449
 30
0.0
 11
103.5624682521
 21
226.554820449
 31
0.0
  0
LINE
  5
186
330
176
100
AcDbEntity
  8
SLD-0
 62
     7
100
AcDbLine
 10
103.5624682521
 20
226.554820449
 30
0.0
 11
100.5624682521
 21
225.750973449
 31
0.0
  0
LINE
  5
187
330
176
100
AcDbEntity
  8
SLD-0
 62
     7
100
AcDbLine
 10
103.5624682521
 20
226.554820449
 30
0.0
 11
100.5624682521
 21
226.554820449
 31
0.0
  0
LINE
  5
188
330
176
100
AcDbEntity
  8
SLD-0
 62
     7
100
AcDbLine
 10
56.5624682521
 20
225.750973449
 30
0.0
 11
53.5624682521
 21
226.554820449
 31
0.0
  0
LINE
  5
189
330
176
100
AcDbEntity
  8
SLD-0
 62
     7
100
AcDbLine
 10
53.5624682521
 20
226.554820449
 30
0.0
 11
56.5624682521
 21
227.358667449
 31
0.0
  0
LINE
  5
18A
330
176
100
AcDbEntity
  8
SLD-0
 62
     7
100
AcDbLine
 10
53.5624682521
 20
226.554820449
 30
0.0
 11
56.5624682521
 21
226.554820449
 31
0.0
  0
MTEXT
  5
18B
330
176
100
AcDbEntity
  8
SLD-0
 62
     7
100
AcDbMText
 10
76.5263182842
 20
231.0815140285
 30
0.2
 40
3.5
 41
0.0
 71
     1
 72
     1
  1
50
  7
SLDTEXTSTYLE2
 73
     1
 44
1.0
  0
ENDBLK
  5
181
330
176
100
AcDbEntity
  8
0
100
AcDbBlockEnd
  0
BLOCK
  5
198
330
18D
100
AcDbEntity
  8
0
100
AcDbBlockBegin
  2
*D18
 70
     1
 71
     0
 10
0.0
 20
0.0
 30
0.0
  3
*D18
  1

  0
LINE
  5
19A
330
18D
100
AcDbEntity
  8
SLD-0
 62
     7
100
AcDbLine
 10
78.5624682521
 20
195.2482603081
 30
0.0
 11
78.5624682521
 21
169.7991866219
 31
0.0
  0
LINE
  5
19B
330
18D
100
AcDbEntity
  8
SLD-0
 62
     7
100
AcDbLine
 10
63.5624682521
 20
195.2482603081
 30
0.0
 11
63.5624682521
 21
169.7991866219
 31
0.0
  0
LINE
  5
19C
330
18D
100
AcDbEntity
  8
SLD-0
 62
     7
100
AcDbLine
 10
78.5624682521
 20
170.7991866219
 30
0.0
 11
63.5624682521
 21
170.7991866219
 31
0.0
  0
LINE
  5
19D
330
18D
100
AcDbEntity
  8
SLD-0
 62
     7
100
AcDbLine
 10
75.5624682521
 20
171.6030336219
 30
0.0
 11
78.5624682521
 21
170.7991866219
 31
0.0
  0
LINE
  5
19E
330
18D
100
AcDbEntity
  8
SLD-0
 62
     7
100
AcDbLine
 10
78.5624682521
 20
170.7991866219
 30
0.0
 11
75.5624682521
 21
169.9953396219
 31
0.0
  0
LINE
  5
19F
330
18D
100
AcDbEntity
  8
SLD-0
 62
     7
100
AcDbLine
 10
78.5624682521
 20
170.7991866219
 30
0.0
 11
75.5624682521
 21
170.7991866219
 31
0.0
  0
LINE
  5
1A0
330
18D
100
AcDbEntity
  8
SLD-0
 62
     7
100
AcDbLine
 10
66.5624682521
 20
169.9953396219
 30
0.0
 11
63.5624682521
 21
170.7991866219
 31
0.0
  0
LINE
  5
1A1
330
18D
100
AcDbEntity
  8
SLD-0
 62
     7
100
AcDbLine
 10
63.5624682521
 20
170.7991866219
 30
0.0
 11
66.5624682521
 21
171.6030336219
 31
0.0
  0
LINE
  5
1A2
330
18D
100
AcDbEntity
  8
SLD-0
 62
     7
100
AcDbLine
 10
63.5624682521
 20
170.7991866219
 30
0.0
 11
66.5624682521
 21
170.7991866219
 31
0.0
  0
MTEXT
  5
1A3
330
18D
100
AcDbEntity
  8
SLD-0
 62
     7
100
AcDbMText
 10
69.0263182842
 20
175.3258802014
 30
0.2
 40
3.5
 41
0.0
 71
     1
 72
     1
  1
15
  7
SLDTEXTSTYLE2
 73
     1
 44
1.0
  0
ENDBLK
  5
199
330
18D
100
AcDbEntity
  8
0
100
AcDbBlockEnd
  0
BLOCK
  5
1AF
330
1A5
100
AcDbEntity
  8
0
100
AcDbBlockBegin
  2
*D19
 70
     1
 71
     0
 10
0.0
 20
0.0
 30
0.0
  3
*D19
  1

  0
LINE
  5
1B1
330
1A5
100
AcDbEntity
  8
SLD-0
 62
     7
100
AcDbLine
 10
103.5624682521
 20
193.4982603081
 30
0.0
 11
103.5624682521
 21
169.7991866219
 31
0.0
  0
LINE
  5
1B2
330
1A5
100
AcDbEntity
  8
SLD-0
 62
     7
100
AcDbLine
 10
78.5624682521
 20
195.2482603081
 30
0.0
 11
78.5624682521
 21
169.7991866219
 31
0.0
  0
LINE
  5
1B3
330
1A5
100
AcDbEntity
  8
SLD-0
 62
     7
100
AcDbLine
 10
103.5624682521
 20
170.7991866219
 30
0.0
 11
78.5624682521
 21
170.7991866219
 31
0.0
  0
LINE
  5
1B4
330
1A5
100
AcDbEntity
  8
SLD-0
 62
     7
100
AcDbLine
 10
100.5624682521
 20
171.6030336219
 30
0.0
 11
103.5624682521
 21
170.7991866219
 31
0.0
  0
LINE
  5
1B5
330
1A5
100
AcDbEntity
  8
SLD-0
 62
     7
100
AcDbLine
 10
103.5624682521
 20
170.7991866219
 30
0.0
 11
100.5624682521
 21
169.9953396219
 31
0.0
  0
LINE
  5
1B6
330
1A5
100
AcDbEntity
  8
SLD-0
 62
     7
100
AcDbLine
 10
103.5624682521
 20
170.7991866219
 30
0.0
 11
100.5624682521
 21
170.7991866219
 31
0.0
  0
LINE
  5
1B7
330
1A5
100
AcDbEntity
  8
SLD-0
 62
     7
100
AcDbLine
 10
81.5624682521
 20
169.9953396219
 30
0.0
 11
78.5624682521
 21
170.7991866219
 31
0.0
  0
LINE
  5
1B8
330
1A5
100
AcDbEntity
  8
SLD-0
 62
     7
100
AcDbLine
 10
78.5624682521
 20
170.7991866219
 30
0.0
 11
81.5624682521
 21
171.6030336219
 31
0.0
  0
LINE
  5
1B9
330
1A5
100
AcDbEntity
  8
SLD-0
 62
     7
100
AcDbLine
 10
78.5624682521
 20
170.7991866219
 30
0.0
 11
81.5624682521
 21
170.7991866219
 31
0.0
  0
MTEXT
  5
1BA
330
1A5
100
AcDbEntity
  8
SLD-0
 62
     7
100
AcDbMText
 10
89.0263182842
 20
175.3258802014
 30
0.2
 40
3.5
 41
0.0
 71
     1
 72
     1
  1
25
  7
SLDTEXTSTYLE2
 73
     1
 44
1.0
  0
ENDBLK
  5
1B0
330
1A5
100
AcDbEntity
  8
0
100
AcDbBlockEnd
  0
BLOCK
  5
1C7
330
1BC
100
AcDbEntity
  8
0
100
AcDbBlockBegin
  2
*D20
 70
     1
 71
     0
 10
0.0
 20
0.0
 30
0.0
  3
*D20
  1

  0
LINE
  5
1C9
330
1BC
100
AcDbEntity
  8
SLD-0
 62
     7
100
AcDbLine
 10
99.5624682521
 20
189.4982603081
 30
0.0
 11
118.8067021849
 21
189.4982603081
 31
0.0
  0
LINE
  5
1CA
330
1BC
100
AcDbEntity
  8
SLD-0
 62
     7
100
AcDbLine
 10
101.3124682521
 20
199.4982603081
 30
0.0
 11
118.8067021849
 21
199.4982603081
 31
0.0
  0
LINE
  5
1CB
330
1BC
100
AcDbEntity
  8
SLD-0
 62
     7
100
AcDbLine
 10
117.8067021849
 20
189.4982603081
 30
0.0
 11
117.8067021849
 21
184.4982603081
 31
0.0
  0
LINE
  5
1CC
330
1BC
100
AcDbEntity
  8
SLD-0
 62
     7
100
AcDbLine
 10
117.8067021849
 20
189.4982603081
 30
0.0
 11
117.8067021849
 21
199.4982603081
 31
0.0
  0
LINE
  5
1CD
330
1BC
100
AcDbEntity
  8
SLD-0
 62
     7
100
AcDbLine
 10
117.8067021849
 20
199.4982603081
 30
0.0
 11
117.8067021849
 21
204.4982603081
 31
0.0
  0
LINE
  5
1CE
330
1BC
100
AcDbEntity
  8
SLD-0
 62
     7
100
AcDbLine
 10
117.0028551849
 20
186.4982603081
 30
0.0
 11
117.8067021849
 21
189.4982603081
 31
0.0
  0
LINE
  5
1CF
330
1BC
100
AcDbEntity
  8
SLD-0
 62
     7
100
AcDbLine
 10
117.8067021849
 20
189.4982603081
 30
0.0
 11
118.6105491849
 21
186.4982603081
 31
0.0
  0
LINE
  5
1D0
330
1BC
100
AcDbEntity
  8
SLD-0
 62
     7
100
AcDbLine
 10
117.8067021849
 20
189.4982603081
 30
0.0
 11
117.8067021849
 21
186.4982603081
 31
0.0
  0
LINE
  5
1D1
330
1BC
100
AcDbEntity
  8
SLD-0
 62
     7
100
AcDbLine
 10
118.6105491849
 20
202.4982603081
 30
0.0
 11
117.8067021849
 21
199.4982603081
 31
0.0
  0
LINE
  5
1D2
330
1BC
100
AcDbEntity
  8
SLD-0
 62
     7
100
AcDbLine
 10
117.8067021849
 20
199.4982603081
 30
0.0
 11
117.0028551849
 21
202.4982603081
 31
0.0
  0
LINE
  5
1D3
330
1BC
100
AcDbEntity
  8
SLD-0
 62
     7
100
AcDbLine
 10
117.8067021849
 20
199.4982603081
 30
0.0
 11
117.8067021849
 21
202.4982603081
 31
0.0
  0
MTEXT
  5
1D4
330
1BC
100
AcDbEntity
  8
SLD-0
 62
     7
100
AcDbMText
 10
113.2800086053
 20
192.4621103402
 30
0.2
 40
3.5
 41
0.0
 71
     1
 72
     1
  1
10
  7
SLDTEXTSTYLE2
 11
6.123031769111886E-17
 21
1.0
 31
0.0
 73
     1
 44
1.0
  0
ENDBLK
  5
1C8
330
1BC
100
AcDbEntity
  8
0
100
AcDbBlockEnd
  0
BLOCK
  5
1E1
330
1D6
100
AcDbEntity
  8
0
100
AcDbBlockBegin
  2
*D21
 70
     1
 71
     0
 10
0.0
 20
0.0
 30
0.0
  3
*D21
  1

  0
LINE
  5
1E3
330
1D6
100
AcDbEntity
  8
SLD-0
 62
     7
100
AcDbLine
 10
47.5624682521
 20
189.4982603081
 30
0.0
 11
36.9562493654
 21
189.4982603081
 31
0.0
  0
LINE
  5
1E4
330
1D6
100
AcDbEntity
  8
SLD-0
 62
     7
100
AcDbLine
 10
56.8124682521
 20
201.9982603081
 30
0.0
 11
36.9562493654
 21
201.9982603081
 31
0.0
  0
LINE
  5
1E5
330
1D6
100
AcDbEntity
  8
SLD-0
 62
     7
100
AcDbLine
 10
37.9562493654
 20
189.4982603081
 30
0.0
 11
37.9562493654
 21
184.4982603081
 31
0.0
  0
LINE
  5
1E6
330
1D6
100
AcDbEntity
  8
SLD-0
 62
     7
100
AcDbLine
 10
37.9562493654
 20
189.4982603081
 30
0.0
 11
37.9562493654
 21
201.9982603081
 31
0.0
  0
LINE
  5
1E7
330
1D6
100
AcDbEntity
  8
SLD-0
 62
     7
100
AcDbLine
 10
37.9562493654
 20
201.9982603081
 30
0.0
 11
37.9562493654
 21
206.9982603081
 31
0.0
  0
LINE
  5
1E8
330
1D6
100
AcDbEntity
  8
SLD-0
 62
     7
100
AcDbLine
 10
37.1524023654
 20
186.4982603081
 30
0.0
 11
37.9562493654
 21
189.4982603081
 31
0.0
  0
LINE
  5
1E9
330
1D6
100
AcDbEntity
  8
SLD-0
 62
     7
100
AcDbLine
 10
37.9562493654
 20
189.4982603081
 30
0.0
 11
38.7600963654
 21
186.4982603081
 31
0.0
  0
LINE
  5
1EA
330
1D6
100
AcDbEntity
  8
SLD-0
 62
     7
100
AcDbLine
 10
37.9562493654
 20
189.4982603081
 30
0.0
 11
37.9562493654
 21
186.4982603081
 31
0.0
  0
LINE
  5
1EB
330
1D6
100
AcDbEntity
  8
SLD-0
 62
     7
100
AcDbLine
 10
38.7600963654
 20
204.9982603081
 30
0.0
 11
37.9562493654
 21
201.9982603081
 31
0.0
  0
LINE
  5
1EC
330
1D6
100
AcDbEntity
  8
SLD-0
 62
     7
100
AcDbLine
 10
37.9562493654
 20
201.9982603081
 30
0.0
 11
37.1524023654
 21
204.9982603081
 31
0.0
  0
LINE
  5
1ED
330
1D6
100
AcDbEntity
  8
SLD-0
 62
     7
100
AcDbLine
 10
37.9562493654
 20
201.9982603081
 30
0.0
 11
37.9562493654
 21
204.9982603081
 31
0.0
  0
MTEXT
  5
1EE
330
1D6
100
AcDbEntity
  8
SLD-0
 62
     7
100
AcDbMText
 10
33.4295557858
 20
191.6759603722
 30
0.2
 40
3.5
 41
0.0
 71
     1
 72
     1
  1
12.5
  7
SLDTEXTSTYLE2
 11
6.123031769111886E-17
 21
1.0
 31
0.0
 73
     1
 44
1.0
  0
ENDBLK
  5
1E2
330
1D6
100
AcDbEntity
  8
0
100
AcDbBlockEnd
  0
BLOCK
  5
1FB
330
1F0
100
AcDbEntity
  8
0
100
AcDbBlockBegin
  2
*D22
 70
     1
 71
     0
 10
0.0
 20
0.0
 30
0.0
  3
*D22
  1

  0
LINE
  5
1FD
330
1F0
100
AcDbEntity
  8
SLD-0
 62
     7
100
AcDbLine
 10
93.5624682521
 20
191.7482603081
 30
0.0
 11
93.5624682521
 21
179.0679954496
 31
0.0
  0
LINE
  5
1FE
330
1F0
100
AcDbEntity
  8
SLD-0
 62
     7
100
AcDbLine
 10
103.5624682521
 20
193.4982603081
 30
0.0
 11
103.5624682521
 21
179.0679954496
 31
0.0
  0
LINE
  5
1FF
330
1F0
100
AcDbEntity
  8
SLD-0
 62
     7
100
AcDbLine
 10
93.5624682521
 20
180.0679954496
 30
0.0
 11
88.5624682521
 21
180.0679954496
 31
0.0
  0
LINE
  5
200
330
1F0
100
AcDbEntity
  8
SLD-0
 62
     7
100
AcDbLine
 10
93.5624682521
 20
180.0679954496
 30
0.0
 11
103.5624682521
 21
180.0679954496
 31
0.0
  0
LINE
  5
201
330
1F0
100
AcDbEntity
  8
SLD-0
 62
     7
100
AcDbLine
 10
103.5624682521
 20
180.0679954496
 30
0.0
 11
108.5624682521
 21
180.0679954496
 31
0.0
  0
LINE
  5
202
330
1F0
100
AcDbEntity
  8
SLD-0
 62
     7
100
AcDbLine
 10
90.5624682521
 20
180.8718424496
 30
0.0
 11
93.5624682521
 21
180.0679954496
 31
0.0
  0
LINE
  5
203
330
1F0
100
AcDbEntity
  8
SLD-0
 62
     7
100
AcDbLine
 10
93.5624682521
 20
180.0679954496
 30
0.0
 11
90.5624682521
 21
179.2641484496
 31
0.0
  0
LINE
  5
204
330
1F0
100
AcDbEntity
  8
SLD-0
 62
     7
100
AcDbLine
 10
93.5624682521
 20
180.0679954496
 30
0.0
 11
90.5624682521
 21
180.0679954496
 31
0.0
  0
LINE
  5
205
330
1F0
100
AcDbEntity
  8
SLD-0
 62
     7
100
AcDbLine
 10
106.5624682521
 20
179.2641484496
 30
0.0
 11
103.5624682521
 21
180.0679954496
 31
0.0
  0
LINE
  5
206
330
1F0
100
AcDbEntity
  8
SLD-0
 62
     7
100
AcDbLine
 10
103.5624682521
 20
180.0679954496
 30
0.0
 11
106.5624682521
 21
180.8718424496
 31
0.0
  0
LINE
  5
207
330
1F0
100
AcDbEntity
  8
SLD-0
 62
     7
100
AcDbLine
 10
103.5624682521
 20
180.0679954496
 30
0.0
 11
106.5624682521
 21
180.0679954496
 31
0.0
  0
MTEXT
  5
208
330
1F0
100
AcDbEntity
  8
SLD-0
 62
     7
100
AcDbMText
 10
96.5263182842
 20
184.5946890292
 30
0.2
 40
3.5
 41
0.0
 71
     1
 72
     1
  1
10
  7
SLDTEXTSTYLE2
 73
     1
 44
1.0
  0
ENDBLK
  5
1FC
330
1F0
100
AcDbEntity
  8
0
100
AcDbBlockEnd
  0
BLOCK
  5
214
330
20A
100
AcDbEntity
  8
0
100
AcDbBlockBegin
  2
*D23
 70
     1
 71
     0
 10
0.0
 20
0.0
 30
0.0
  3
*D23
  1

  0
INSERT
  5
217
330
20A
100
AcDbEntity
  8
SLD-0
 62
     7
100
AcDbBlockReference
  2
_OPEN30
 10
4.1398915859
 20
2.3590427524
 30
0.1
 41
6.0
 42
6.0
 50
166.8188910564
  0
LINE
  5
218
330
20A
100
AcDbEntity
  8
SLD-0
 62
     7
100
AcDbLine
 10
4.1398915859
 20
2.3590427524
 30
0.0
 11
48.4319556101
 21
-8.0141612971
 31
0.0
  0
LINE
  5
219
330
20A
100
AcDbEntity
  8
SLD-0
 62
     7
100
AcDbLine
 10
4.1398915859
 20
2.3590427524
 30
0.0
 11
-2.188859617
 21
3.8412366635
 31
0.0
  0
MTEXT
  5
21A
330
20A
100
AcDbEntity
  8
SLD-0
 62
     7
100
AcDbMText
 10
34.0817554455
 20
0.7717503777
 30
0.0
 40
3.5
 41
0.0
 71
     1
 72
     1
  1
2-
  7
SLDTEXTSTYLE2
 11
0.9736541397775032
 21
-0.2280298579005178
 31
0.0
 73
     1
 44
1.0
  0
MTEXT
  5
21B
330
20A
100
AcDbEntity
  8
SLD-0
 62
     7
100
AcDbMText
 10
37.8643706242
 20
-0.7282339785
 30
0.0
 40
3.5
 41
0.0
 71
     1
 72
     1
  1
%%c
  7
SLDTEXTSTYLE2
 11
0.9736541397775032
 21
-0.2280298579005178
 31
0.0
 73
     1
 44
1.0
  0
MTEXT
  5
21C
330
20A
100
AcDbEntity
  8
SLD-0
 62
     7
100
AcDbMText
 10
43.3834830637
 20
-2.0208102035
 30
0.0
 40
3.5
 41
0.0
 71
     1
 72
     1
  1
6.5
  7
SLDTEXTSTYLE2
 11
0.9736541397775032
 21
-0.2280298579005178
 31
0.0
 73
     1
 44
1.0
  0
ENDBLK
  5
215
330
20A
100
AcDbEntity
  8
0
100
AcDbBlockEnd
  0
BLOCK
  5
228
330
21E
100
AcDbEntity
  8
0
100
AcDbBlockBegin
  2
*D24
 70
     1
 71
     0
 10
0.0
 20
0.0
 30
0.0
  3
*D24
  1

  0
LINE
  5
22A
330
21E
100
AcDbEntity
  8
SLD-0
 62
     7
100
AcDbLine
 10
171.8254912792
 20
129.9017066353
 30
0.0
 11
171.8254912792
 21
147.5760089505
 31
0.0
  0
LINE
  5
22B
330
21E
100
AcDbEntity
  8
SLD-0
 62
     7
100
AcDbLine
 10
146.8254912792
 20
129.9017066353
 30
0.0
 11
146.8254912792
 21
147.5760089505
 31
0.0
  0
LINE
  5
22C
330
21E
100
AcDbEntity
  8
SLD-0
 62
     7
100
AcDbLine
 10
171.8254912792
 20
146.5760089505
 30
0.0
 11
146.8254912792
 21
146.5760089505
 31
0.0
  0
LINE
  5
22D
330
21E
100
AcDbEntity
  8
SLD-0
 62
     7
100
AcDbLine
 10
168.8254912792
 20
147.3798559505
 30
0.0
 11
171.8254912792
 21
146.5760089505
 31
0.0
  0
LINE
  5
22E
330
21E
100
AcDbEntity
  8
SLD-0
 62
     7
100
AcDbLine
 10
171.8254912792
 20
146.5760089505
 30
0.0
 11
168.8254912792
 21
145.7721619505
 31
0.0
  0
LINE
  5
22F
330
21E
100
AcDbEntity
  8
SLD-0
 62
     7
100
AcDbLine
 10
171.8254912792
 20
146.5760089505
 30
0.0
 11
168.8254912792
 21
146.5760089505
 31
0.0
  0
LINE
  5
230
330
21E
100
AcDbEntity
  8
SLD-0
 62
     7
100
AcDbLine
 10
149.8254912792
 20
145.7721619505
 30
0.0
 11
146.8254912792
 21
146.5760089505
 31
0.0
  0
LINE
  5
231
330
21E
100
AcDbEntity
  8
SLD-0
 62
     7
100
AcDbLine
 10
146.8254912792
 20
146.5760089505
 30
0.0
 11
149.8254912792
 21
147.3798559505
 31
0.0
  0
LINE
  5
232
330
21E
100
AcDbEntity
  8
SLD-0
 62
     7
100
AcDbLine
 10
146.8254912792
 20
146.5760089505
 30
0.0
 11
149.8254912792
 21
146.5760089505
 31
0.0
  0
MTEXT
  5
233
330
21E
100
AcDbEntity
  8
SLD-0
 62
     7
100
AcDbMText
 10
157.2893413113
 20
151.10270253
 30
0.2
 40
3.5
 41
0.0
 71
     1
 72
     1
  1
25
  7
SLDTEXTSTYLE2
 73
     1
 44
1.0
  0
ENDBLK
  5
229
330
21E
100
AcDbEntity
  8
0
100
AcDbBlockEnd
  0
BLOCK
  5
23F
330
235
100
AcDbEntity
  8
0
100
AcDbBlockBegin
  2
*D25
 70
     1
 71
     0
 10
0.0
 20
0.0
 30
0.0
  3
*D25
  1

  0
LINE
  5
241
330
235
100
AcDbEntity
  8
SLD-0
 62
     7
100
AcDbLine
 10
166.8254912792
 20
124.9017066353
 30
0.0
 11
166.8254912792
 21
139.4163316027
 31
0.0
  0
LINE
  5
242
330
235
100
AcDbEntity
  8
SLD-0
 62
     7
100
AcDbLine
 10
146.8254912792
 20
124.9017066353
 30
0.0
 11
146.8254912792
 21
139.4163316027
 31
0.0
  0
LINE
  5
243
330
235
100
AcDbEntity
  8
SLD-0
 62
     7
100
AcDbLine
 10
166.8254912792
 20
138.4163316027
 30
0.0
 11
146.8254912792
 21
138.4163316027
 31
0.0
  0
LINE
  5
244
330
235
100
AcDbEntity
  8
SLD-0
 62
     7
100
AcDbLine
 10
163.8254912792
 20
139.2201786027
 30
0.0
 11
166.8254912792
 21
138.4163316027
 31
0.0
  0
LINE
  5
245
330
235
100
AcDbEntity
  8
SLD-0
 62
     7
100
AcDbLine
 10
166.8254912792
 20
138.4163316027
 30
0.0
 11
163.8254912792
 21
137.6124846027
 31
0.0
  0
LINE
  5
246
330
235
100
AcDbEntity
  8
SLD-0
 62
     7
100
AcDbLine
 10
166.8254912792
 20
138.4163316027
 30
0.0
 11
163.8254912792
 21
138.4163316027
 31
0.0
  0
LINE
  5
247
330
235
100
AcDbEntity
  8
SLD-0
 62
     7
100
AcDbLine
 10
149.8254912792
 20
137.6124846027
 30
0.0
 11
146.8254912792
 21
138.4163316027
 31
0.0
  0
LINE
  5
248
330
235
100
AcDbEntity
  8
SLD-0
 62
     7
100
AcDbLine
 10
146.8254912792
 20
138.4163316027
 30
0.0
 11
149.8254912792
 21
139.2201786027
 31
0.0
  0
LINE
  5
249
330
235
100
AcDbEntity
  8
SLD-0
 62
     7
100
AcDbLine
 10
146.8254912792
 20
138.4163316027
 30
0.0
 11
149.8254912792
 21
138.4163316027
 31
0.0
  0
MTEXT
  5
24A
330
235
100
AcDbEntity
  8
SLD-0
 62
     7
100
AcDbMText
 10
154.7893413113
 20
142.9430251823
 30
0.2
 40
3.5
 41
0.0
 71
     1
 72
     1
  1
20
  7
SLDTEXTSTYLE2
 73
     1
 44
1.0
  0
ENDBLK
  5
240
330
235
100
AcDbEntity
  8
0
100
AcDbBlockEnd
  0
BLOCK
  5
257
330
24C
100
AcDbEntity
  8
0
100
AcDbBlockBegin
  2
*D26
 70
     1
 71
     0
 10
0.0
 20
0.0
 30
0.0
  3
*D26
  1

  0
LINE
  5
259
330
24C
100
AcDbEntity
  8
SLD-0
 62
     7
100
AcDbLine
 10
172.8254912792
 20
128.9017066353
 30
0.0
 11
187.097970413
 21
128.9017066353
 31
0.0
  0
LINE
  5
25A
330
24C
100
AcDbEntity
  8
SLD-0
 62
     7
100
AcDbLine
 10
172.8254912792
 20
103.9017066353
 30
0.0
 11
187.097970413
 21
103.9017066353
 31
0.0
  0
LINE
  5
25B
330
24C
100
AcDbEntity
  8
SLD-0
 62
     7
100
AcDbLine
 10
186.097970413
 20
128.9017066353
 30
0.0
 11
186.097970413
 21
103.9017066353
 31
0.0
  0
LINE
  5
25C
330
24C
100
AcDbEntity
  8
SLD-0
 62
     7
100
AcDbLine
 10
185.294123413
 20
125.9017066353
 30
0.0
 11
186.097970413
 21
128.9017066353
 31
0.0
  0
LINE
  5
25D
330
24C
100
AcDbEntity
  8
SLD-0
 62
     7
100
AcDbLine
 10
186.097970413
 20
128.9017066353
 30
0.0
 11
186.901817413
 21
125.9017066353
 31
0.0
  0
LINE
  5
25E
330
24C
100
AcDbEntity
  8
SLD-0
 62
     7
100
AcDbLine
 10
186.097970413
 20
128.9017066353
 30
0.0
 11
186.097970413
 21
125.9017066353
 31
0.0
  0
LINE
  5
25F
330
24C
100
AcDbEntity
  8
SLD-0
 62
     7
100
AcDbLine
 10
186.901817413
 20
106.9017066353
 30
0.0
 11
186.097970413
 21
103.9017066353
 31
0.0
  0
LINE
  5
260
330
24C
100
AcDbEntity
  8
SLD-0
 62
     7
100
AcDbLine
 10
186.097970413
 20
103.9017066353
 30
0.0
 11
185.294123413
 21
106.9017066353
 31
0.0
  0
LINE
  5
261
330
24C
100
AcDbEntity
  8
SLD-0
 62
     7
100
AcDbLine
 10
186.097970413
 20
103.9017066353
 30
0.0
 11
186.097970413
 21
106.9017066353
 31
0.0
  0
MTEXT
  5
262
330
24C
100
AcDbEntity
  8
SLD-0
 62
     7
100
AcDbMText
 10
181.5712768334
 20
114.3655566674
 30
0.2
 40
3.5
 41
0.0
 71
     1
 72
     1
  1
25
  7
SLDTEXTSTYLE2
 11
6.123031769111886E-17
 21
1.0
 31
0.0
 73
     1
 44
1.0
  0
ENDBLK
  5
258
330
24C
100
AcDbEntity
  8
0
100
AcDbBlockEnd
  0
BLOCK
  5
271
330
264
100
AcDbEntity
  8
0
100
AcDbBlockBegin
  2
*D27
 70
     1
 71
     0
 10
0.0
 20
0.0
 30
0.0
  3
*D27
  1

  0
LINE
  5
273
330
264
100
AcDbEntity
  8
SLD-0
 62
     7
100
AcDbLine
 10
170.8254912792
 20
103.9017066353
 30
0.0
 11
137.5678498621
 21
103.9017066353
 31
0.0
  0
LINE
  5
274
330
264
100
AcDbEntity
  8
SLD-0
 62
     7
100
AcDbLine
 10
150.8254912792
 20
108.9017066353
 30
0.0
 11
137.5678498621
 21
108.9017066353
 31
0.0
  0
LINE
  5
275
330
264
100
AcDbEntity
  8
SLD-0
 62
     7
100
AcDbLine
 10
138.5678498621
 20
103.9017066353
 30
0.0
 11
138.5678498621
 21
98.9017066353
 31
0.0
  0
LINE
  5
276
330
264
100
AcDbEntity
  8
SLD-0
 62
     7
100
AcDbLine
 10
138.5678498621
 20
103.9017066353
 30
0.0
 11
138.5678498621
 21
108.9017066353
 31
0.0
  0
LINE
  5
277
330
264
100
AcDbEntity
  8
SLD-0
 62
     7
100
AcDbLine
 10
138.5678498621
 20
108.9017066353
 30
0.0
 11
138.5678498621
 21
119.1881021781
 31
0.0
  0
LINE
  5
278
330
264
100
AcDbEntity
  8
SLD-0
 62
     7
100
AcDbLine
 10
137.7640028621
 20
100.9017066353
 30
0.0
 11
138.5678498621
 21
103.9017066353
 31
0.0
  0
LINE
  5
279
330
264
100
AcDbEntity
  8
SLD-0
 62
     7
100
AcDbLine
 10
138.5678498621
 20
103.9017066353
 30
0.0
 11
139.3716968621
 21
100.9017066353
 31
0.0
  0
LINE
  5
27A
330
264
100
AcDbEntity
  8
SLD-0
 62
     7
100
AcDbLine
 10
138.5678498621
 20
103.9017066353
 30
0.0
 11
138.5678498621
 21
100.9017066353
 31
0.0
  0
LINE
  5
27B
330
264
100
AcDbEntity
  8
SLD-0
 62
     7
100
AcDbLine
 10
139.3716968621
 20
111.9017066353
 30
0.0
 11
138.5678498621
 21
108.9017066353
 31
0.0
  0
LINE
  5
27C
330
264
100
AcDbEntity
  8
SLD-0
 62
     7
100
AcDbLine
 10
138.5678498621
 20
108.9017066353
 30
0.0
 11
137.7640028621
 21
111.9017066353
 31
0.0
  0
LINE
  5
27D
330
264
100
AcDbEntity
  8
SLD-0
 62
     7
100
AcDbLine
 10
138.5678498621
 20
108.9017066353
 30
0.0
 11
138.5678498621
 21
111.9017066353
 31
0.0
  0
MTEXT
  5
27E
330
264
100
AcDbEntity
  8
SLD-0
 62
     7
100
AcDbMText
 10
134.0411562826
 20
115.5644522102
 30
0.2
 40
3.5
 41
0.0
 71
     1
 72
     1
  1
5
  7
SLDTEXTSTYLE2
 11
6.123031769111886E-17
 21
1.0
 31
0.0
 73
     1
 44
1.0
  0
ENDBLK
  5
272
330
264
100
AcDbEntity
  8
0
100
AcDbBlockEnd
  0
ENDSEC
  0
SECTION
  2
ENTITIES
  0
LINE
  5
88
330
1F
100
AcDbEntity
  8
SLD-0
  6
Continuous
 62
   179
100
AcDbLine
 10
20.2604743903
 20
285.0
 30
0.0
 11
196.7604743903
 21
285.0
 31
0.0
  0
LINE
  5
89
330
1F
100
AcDbEntity
  8
SLD-0
  6
Continuous
 62
   179
100
AcDbLine
 10
20.2604743903
 20
285.0
 30
0.0
 11
20.2604743903
 21
10.0
 31
0.0
  0
LINE
  5
8A
330
1F
100
AcDbEntity
  8
SLD-0
  6
Continuous
 62
   179
100
AcDbLine
 10
20.2604743903
 20
10.0
 30
0.0
 11
196.7604743903
 21
10.0
 31
0.0
  0
LINE
  5
8B
330
1F
100
AcDbEntity
  8
SLD-0
  6
Continuous
 62
   179
100
AcDbLine
 10
196.7604743903
 20
285.0
 30
0.0
 11
196.7604743903
 21
10.0
 31
0.0
  0
LINE
  5
8C
330
1F
100
AcDbEntity
  8
SLD-0
  6
Continuous
 62
   179
100
AcDbLine
 10
65.7604743903
 20
285.0
 30
0.0
 11
196.7604743903
 21
285.0
 31
0.0
  0
LINE
  5
8D
330
1F
100
AcDbEntity
  8
SLD-0
  6
Continuous
 62
   179
100
AcDbLine
 10
196.7604743903
 20
285.0
 30
0.0
 11
196.7604743903
 21
264.25
 31
0.0
  0
LINE
  5
8E
330
1F
100
AcDbEntity
  8
SLD-0
  6
Continuous
 62
   179
100
AcDbLine
 10
127.0104743903
 20
50.75
 30
0.0
 11
196.7604743903
 21
50.75
 31
0.0
  0
LINE
  5
8F
330
1F
100
AcDbEntity
  8
SLD-0
  6
Continuous
 62
   179
100
AcDbLine
 10
127.0104743903
 20
50.75
 30
0.0
 11
127.0104743903
 21
10.0
 31
0.0
  0
LINE
  5
90
330
1F
100
AcDbEntity
  8
SLD-0
  6
Continuous
 62
   179
100
AcDbLine
 10
127.0104743903
 20
22.75
 30
0.0
 11
196.7604743903
 21
22.75
 31
0.0
  0
LINE
  5
91
330
1F
100
AcDbEntity
  8
SLD-0
  6
Continuous
 62
   179
100
AcDbLine
 10
127.0104743903
 20
36.75
 30
0.0
 11
196.7604743903
 21
36.75
 31
0.0
  0
LINE
  5
92
330
1F
100
AcDbEntity
  8
SLD-0
  6
Continuous
 62
   179
100
AcDbLine
 10
53.5624682521
 20
108.9017066353
 30
0.0
 11
98.5624682521
 21
108.9017066353
 31
0.0
  0
LINE
  5
93
330
1F
100
AcDbEntity
  8
SLD-0
  6
Continuous
 62
   179
100
AcDbLine
 10
98.5624682521
 20
103.9017066353
 30
0.0
 11
98.5624682521
 21
108.9017066353
 31
0.0
  0
LINE
  5
94
330
1F
100
AcDbEntity
  8
SLD-0
  6
Continuous
 62
   179
100
AcDbLine
 10
98.5624682521
 20
103.9017066353
 30
0.0
 11
48.5624682521
 21
103.9017066353
 31
0.0
  0
LINE
  5
95
330
1F
100
AcDbEntity
  8
SLD-0
  6
Continuous
 62
   179
100
AcDbLine
 10
48.5624682521
 20
123.9017066353
 30
0.0
 11
48.5624682521
 21
103.9017066353
 31
0.0
  0
LINE
  5
96
330
1F
100
AcDbEntity
  8
SLD-0
  6
Continuous
 62
   179
100
AcDbLine
 10
53.5624682521
 20
123.9017066353
 30
0.0
 11
48.5624682521
 21
123.9017066353
 31
0.0
  0
LINE
  5
97
330
1F
100
AcDbEntity
  8
SLD-0
  6
Continuous
 62
   179
100
AcDbLine
 10
53.5624682521
 20
123.9017066353
 30
0.0
 11
53.5624682521
 21
108.9017066353
 31
0.0
  0
LINE
  5
98
330
1F
100
AcDbEntity
  8
SLD-0
  6
Continuous
 62
   179
100
AcDbLine
 10
48.5624682521
 20
128.9017066353
 30
0.0
 11
53.5624682521
 21
128.9017066353
 31
0.0
  0
LINE
  5
99
330
1F
100
AcDbEntity
  8
SLD-0
  6
Continuous
 62
   179
100
AcDbLine
 10
53.5624682521
 20
128.9017066353
 30
0.0
 11
53.5624682521
 21
123.9017066353
 31
0.0
  0
LINE
  5
9A
330
1F
100
AcDbEntity
  8
SLD-0
  6
Continuous
 62
   179
100
AcDbLine
 10
48.5624682521
 20
123.9017066353
 30
0.0
 11
48.5624682521
 21
128.9017066353
 31
0.0
  0
LINE
  5
9B
330
1F
100
AcDbEntity
  8
SLD-0
  6
Continuous
 62
   179
100
AcDbLine
 10
103.5624682521
 20
108.9017066353
 30
0.0
 11
103.5624682521
 21
103.9017066353
 31
0.0
  0
LINE
  5
9C
330
1F
100
AcDbEntity
  8
SLD-0
  6
Continuous
 62
   179
100
AcDbLine
 10
98.5624682521
 20
108.9017066353
 30
0.0
 11
103.5624682521
 21
108.9017066353
 31
0.0
  0
LINE
  5
9D
330
1F
100
AcDbEntity
  8
SLD-0
  6
Continuous
 62
   179
100
AcDbLine
 10
103.5624682521
 20
103.9017066353
 30
0.0
 11
98.5624682521
 21
103.9017066353
 31
0.0
  0
LINE
  5
9E
330
1F
100
AcDbEntity
  8
SLD-0
  6
Continuous
 62
   179
100
AcDbLine
 10
53.5624682521
 20
128.9017066353
 30
0.0
 11
56.5624682521
 21
128.9017066353
 31
0.0
  0
LINE
  5
9F
330
1F
100
AcDbEntity
  8
SLD-0
  6
Continuous
 62
   179
100
AcDbLine
 10
103.5624682521
 20
123.9017066353
 30
0.0
 11
98.5624682521
 21
128.9017066353
 31
0.0
  0
LINE
  5
A0
330
1F
100
AcDbEntity
  8
SLD-0
  6
Continuous
 62
   179
100
AcDbLine
 10
103.5624682521
 20
108.9017066353
 30
0.0
 11
103.5624682521
 21
123.9017066353
 31
0.0
  0
LINE
  5
A1
330
1F
100
AcDbEntity
  8
SLD-0
  6
Continuous
 62
   179
100
AcDbLine
 10
56.5624682521
 20
128.9017066353
 30
0.0
 11
98.5624682521
 21
128.9017066353
 31
0.0
  0
LINE
  5
A2
330
1F
100
AcDbEntity
  8
SLD-0
 62
   179
100
AcDbLine
 10
101.0624682521
 20
126.4017066353
 30
0.0
 11
107.0290885543
 21
131.0420025857
 31
0.0
  0
LINE
  5
A3
330
1F
100
AcDbEntity
  8
SLD-0
 62
   179
100
AcDbLine
 10
107.0290885543
 20
131.0420025857
 30
0.0
 11
112.7311006692
 21
135.5153027323
 31
0.0
  0
LINE
  5
A4
330
1F
100
AcDbEntity
  8
SLD-0
  6
CENTERX2
 62
   179
100
AcDbLine
 10
78.5624682521
 20
101.9017066353
 30
0.0
 11
78.5624682521
 21
110.9017066353
 31
0.0
  0
LINE
  5
A5
330
1F
100
AcDbEntity
  8
SLD-0
  6
CENTERX2
 62
   179
100
AcDbLine
 10
63.5624682521
 20
101.9017066353
 30
0.0
 11
63.5624682521
 21
110.9017066353
 31
0.0
  0
LINE
  5
A6
330
1F
100
AcDbEntity
  8
SLD-0
  6
CENTERX2
 62
   179
100
AcDbLine
 10
93.5624682521
 20
101.9017066353
 30
0.0
 11
93.5624682521
 21
110.9017066353
 31
0.0
  0
LINE
  5
A7
330
1F
100
AcDbEntity
  8
SLD-0
  6
Continuous
 62
   179
100
AcDbLine
 10
98.5624682521
 20
209.4982603081
 30
0.0
 11
98.5624682521
 21
214.4982603081
 31
0.0
  0
LINE
  5
A8
330
1F
100
AcDbEntity
  8
SLD-0
  6
Continuous
 62
   179
100
AcDbLine
 10
56.5624682521
 20
209.4982603081
 30
0.0
 11
98.5624682521
 21
209.4982603081
 31
0.0
  0
LINE
  5
A9
330
1F
100
AcDbEntity
  8
SLD-0
  6
Continuous
 62
   179
100
AcDbLine
 10
53.5624682521
 20
206.4982603081
 30
0.0
 11
53.5624682521
 21
194.4982603081
 31
0.0
  0
LINE
  5
AA
330
1F
100
AcDbEntity
  8
SLD-0
  6
Continuous
 62
   179
100
AcDbLine
 10
48.5624682521
 20
194.4982603081
 30
0.0
 11
53.5624682521
 21
194.4982603081
 31
0.0
  0
LINE
  5
AB
330
1F
100
AcDbEntity
  8
SLD-0
  6
Continuous
 62
   179
100
AcDbLine
 10
48.5624682521
 20
214.4982603081
 30
0.0
 11
48.5624682521
 21
194.4982603081
 31
0.0
  0
LINE
  5
AC
330
1F
100
AcDbEntity
  8
SLD-0
  6
Continuous
 62
   179
100
AcDbLine
 10
98.5624682521
 20
214.4982603081
 30
0.0
 11
48.5624682521
 21
214.4982603081
 31
0.0
  0
LINE
  5
AD
330
1F
100
AcDbEntity
  8
SLD-0
  6
Continuous
 62
   179
100
AcDbLine
 10
103.5624682521
 20
214.4982603081
 30
0.0
 11
103.5624682521
 21
209.4982603081
 31
0.0
  0
LINE
  5
AE
330
1F
100
AcDbEntity
  8
SLD-0
  6
Continuous
 62
   179
100
AcDbLine
 10
103.5624682521
 20
209.4982603081
 30
0.0
 11
98.5624682521
 21
209.4982603081
 31
0.0
  0
LINE
  5
AF
330
1F
100
AcDbEntity
  8
SLD-0
  6
Continuous
 62
   179
100
AcDbLine
 10
98.5624682521
 20
214.4982603081
 30
0.0
 11
103.5624682521
 21
214.4982603081
 31
0.0
  0
LINE
  5
B0
330
1F
100
AcDbEntity
  8
SLD-0
  6
Continuous
 62
   179
100
AcDbLine
 10
53.5624682521
 20
189.4982603081
 30
0.0
 11
48.5624682521
 21
189.4982603081
 31
0.0
  0
LINE
  5
B1
330
1F
100
AcDbEntity
  8
SLD-0
  6
Continuous
 62
   179
100
AcDbLine
 10
53.5624682521
 20
194.4982603081
 30
0.0
 11
53.5624682521
 21
189.4982603081
 31
0.0
  0
LINE
  5
B2
330
1F
100
AcDbEntity
  8
SLD-0
  6
Continuous
 62
   179
100
AcDbLine
 10
48.5624682521
 20
189.4982603081
 30
0.0
 11
48.5624682521
 21
194.4982603081
 31
0.0
  0
LINE
  5
B3
330
1F
100
AcDbEntity
  8
SLD-0
  6
Continuous
 62
   179
100
AcDbLine
 10
98.5624682521
 20
189.4982603081
 30
0.0
 11
103.5624682521
 21
194.4982603081
 31
0.0
  0
LINE
  5
B4
330
1F
100
AcDbEntity
  8
SLD-0
  6
Continuous
 62
   179
100
AcDbLine
 10
53.5624682521
 20
189.4982603081
 30
0.0
 11
98.5624682521
 21
189.4982603081
 31
0.0
  0
LINE
  5
B5
330
1F
100
AcDbEntity
  8
SLD-0
  6
Continuous
 62
   179
100
AcDbLine
 10
103.5624682521
 20
194.4982603081
 30
0.0
 11
103.5624682521
 21
209.4982603081
 31
0.0
  0
LINE
  5
B6
330
1F
100
AcDbEntity
  8
SLD-0
  6
HIDDEN
 62
     8
100
AcDbLine
 10
97.8124682521
 20
209.4982603081
 30
0.0
 11
97.8124682521
 21
214.4982603081
 31
0.0
  0
LINE
  5
B7
330
1F
100
AcDbEntity
  8
SLD-0
  6
HIDDEN
 62
     8
100
AcDbLine
 10
89.3124682521
 20
214.4982603081
 30
0.0
 11
89.3124682521
 21
209.4982603081
 31
0.0
  0
LINE
  5
B8
330
1F
100
AcDbEntity
  8
SLD-0
  6
HIDDEN
 62
     8
100
AcDbLine
 10
66.8124682521
 20
209.4982603081
 30
0.0
 11
66.8124682521
 21
214.4982603081
 31
0.0
  0
LINE
  5
B9
330
1F
100
AcDbEntity
  8
SLD-0
  6
HIDDEN
 62
     8
100
AcDbLine
 10
60.3124682521
 20
214.4982603081
 30
0.0
 11
60.3124682521
 21
209.4982603081
 31
0.0
  0
LINE
  5
BA
330
1F
100
AcDbEntity
  8
SLD-0
  6
HIDDEN
 62
     8
100
AcDbLine
 10
81.8124682521
 20
209.4982603081
 30
0.0
 11
81.8124682521
 21
214.4982603081
 31
0.0
  0
LINE
  5
BB
330
1F
100
AcDbEntity
  8
SLD-0
  6
HIDDEN
 62
     8
100
AcDbLine
 10
75.3124682521
 20
214.4982603081
 30
0.0
 11
75.3124682521
 21
209.4982603081
 31
0.0
  0
LINE
  5
BC
330
1F
100
AcDbEntity
  8
SLD-0
 62
   179
100
AcDbLine
 10
101.0624682521
 20
191.9982603081
 30
0.0
 11
107.6487615587
 21
185.454616734
 31
0.0
  0
LINE
  5
BD
330
1F
100
AcDbEntity
  8
SLD-0
 62
   179
100
AcDbLine
 10
107.6487615587
 20
185.454616734
 30
0.0
 11
112.8033418116
 21
180.3601433778
 31
0.0
  0
LINE
  5
BE
330
1F
100
AcDbEntity
  8
SLD-0
  6
CENTERX2
 62
   179
100
AcDbLine
 10
93.5624682521
 20
216.4982603081
 30
0.0
 11
93.5624682521
 21
207.4982603081
 31
0.0
  0
LINE
  5
BF
330
1F
100
AcDbEntity
  8
SLD-0
  6
CENTERX2
 62
   179
100
AcDbLine
 10
63.5624682521
 20
216.4982603081
 30
0.0
 11
63.5624682521
 21
207.4982603081
 31
0.0
  0
LINE
  5
C0
330
1F
100
AcDbEntity
  8
SLD-0
  6
CENTERX2
 62
   179
100
AcDbLine
 10
78.5624682521
 20
216.4982603081
 30
0.0
 11
78.5624682521
 21
207.4982603081
 31
0.0
  0
LINE
  5
C1
330
1F
100
AcDbEntity
  8
SLD-0
  6
Continuous
 62
   179
100
AcDbLine
 10
151.8254912792
 20
108.9017066353
 30
0.0
 11
151.8254912792
 21
103.9017066353
 31
0.0
  0
LINE
  5
C2
330
1F
100
AcDbEntity
  8
SLD-0
  6
Continuous
 62
   179
100
AcDbLine
 10
151.8254912792
 20
103.9017066353
 30
0.0
 11
146.8254912792
 21
103.9017066353
 31
0.0
  0
LINE
  5
C3
330
1F
100
AcDbEntity
  8
SLD-0
  6
Continuous
 62
   179
100
AcDbLine
 10
146.8254912792
 20
103.9017066353
 30
0.0
 11
146.8254912792
 21
108.9017066353
 31
0.0
  0
LINE
  5
C4
330
1F
100
AcDbEntity
  8
SLD-0
  6
Continuous
 62
   179
100
AcDbLine
 10
146.8254912792
 20
108.9017066353
 30
0.0
 11
151.8254912792
 21
108.9017066353
 31
0.0
  0
LINE
  5
C5
330
1F
100
AcDbEntity
  8
SLD-0
  6
Continuous
 62
   179
100
AcDbLine
 10
151.8254912792
 20
103.9017066353
 30
0.0
 11
171.8254912792
 21
103.9017066353
 31
0.0
  0
LINE
  5
C6
330
1F
100
AcDbEntity
  8
SLD-0
  6
Continuous
 62
   179
100
AcDbLine
 10
151.8254912792
 20
108.9017066353
 30
0.0
 11
166.8254912792
 21
108.9017066353
 31
0.0
  0
LINE
  5
C7
330
1F
100
AcDbEntity
  8
SLD-0
  6
Continuous
 62
   179
100
AcDbLine
 10
166.8254912792
 20
108.9017066353
 30
0.0
 11
166.8254912792
 21
123.9017066353
 31
0.0
  0
LINE
  5
C8
330
1F
100
AcDbEntity
  8
SLD-0
  6
Continuous
 62
   179
100
AcDbLine
 10
171.8254912792
 20
123.9017066353
 30
0.0
 11
166.8254912792
 21
123.9017066353
 31
0.0
  0
LINE
  5
C9
330
1F
100
AcDbEntity
  8
SLD-0
  6
Continuous
 62
   179
100
AcDbLine
 10
171.8254912792
 20
103.9017066353
 30
0.0
 11
171.8254912792
 21
123.9017066353
 31
0.0
  0
LINE
  5
CA
330
1F
100
AcDbEntity
  8
SLD-0
  6
Continuous
 62
   179
100
AcDbLine
 10
166.8254912792
 20
123.9017066353
 30
0.0
 11
166.8254912792
 21
128.9017066353
 31
0.0
  0
LINE
  5
CB
330
1F
100
AcDbEntity
  8
SLD-0
  6
Continuous
 62
   179
100
AcDbLine
 10
166.8254912792
 20
128.9017066353
 30
0.0
 11
171.8254912792
 21
128.9017066353
 31
0.0
  0
LINE
  5
CC
330
1F
100
AcDbEntity
  8
SLD-0
  6
Continuous
 62
   179
100
AcDbLine
 10
171.8254912792
 20
128.9017066353
 30
0.0
 11
171.8254912792
 21
123.9017066353
 31
0.0
  0
LINE
  5
CD
330
1F
100
AcDbEntity
  8
SLD-0
  6
Continuous
 62
   179
100
AcDbLine
 10
163.8254912792
 20
128.9017066353
 30
0.0
 11
166.8254912792
 21
128.9017066353
 31
0.0
  0
LINE
  5
CE
330
1F
100
AcDbEntity
  8
SLD-0
  6
Continuous
 62
   179
100
AcDbLine
 10
151.8254912792
 20
128.9017066353
 30
0.0
 11
146.8254912792
 21
123.9017066353
 31
0.0
  0
LINE
  5
CF
330
1F
100
AcDbEntity
  8
SLD-0
  6
Continuous
 62
   179
100
AcDbLine
 10
146.8254912792
 20
123.9017066353
 30
0.0
 11
146.8254912792
 21
108.9017066353
 31
0.0
  0
LINE
  5
D0
330
1F
100
AcDbEntity
  8
SLD-0
  6
Continuous
 62
   179
100
AcDbLine
 10
163.8254912792
 20
128.9017066353
 30
0.0
 11
151.8254912792
 21
128.9017066353
 31
0.0
  0
LINE
  5
D1
330
1F
100
AcDbEntity
  8
SLD-0
 62
   179
100
AcDbLine
 10
149.3254912792
 20
126.4017066353
 30
0.0
 11
137.7108634703
 21
134.271729903
 31
0.0
  0
LINE
  5
D2
330
1F
100
AcDbEntity
  8
SLD-0
 62
   179
100
AcDbLine
 10
137.7108634703
 20
134.271729903
 30
0.0
 11
143.6999268709
 21
130.190740324
 31
0.0
  0
CIRCLE
  5
D3
330
1F
100
AcDbEntity
  8
SLD-0
  6
Continuous
 62
   179
100
AcDbCircle
 10
93.5624682521
 20
118.9017066353
 30
0.0
 40
4.25
  0
CIRCLE
  5
D4
330
1F
100
AcDbEntity
  8
SLD-0
  6
Continuous
 62
   179
100
AcDbCircle
 10
63.5624682521
 20
116.4017066353
 30
0.0
 40
3.25
  0
CIRCLE
  5
D5
330
1F
100
AcDbEntity
  8
SLD-0
  6
Continuous
 62
   179
100
AcDbCircle
 10
78.5624682521
 20
116.4017066353
 30
0.0
 40
3.25
  0
ARC
  5
D6
330
1F
100
AcDbEntity
  8
SLD-0
  6
Continuous
 62
   179
100
AcDbCircle
 10
56.5624682521
 20
206.4982603081
 30
0.0
 40
3.0
100
AcDbArc
 50
90.0
 51
180.0
  0
CIRCLE
  5
D7
330
1F
100
AcDbEntity
  8
SLD-0
  6
Continuous
 62
   179
100
AcDbCircle
 10
78.5624682521
 20
201.9982603081
 30
0.0
 40
3.25
  0
CIRCLE
  5
D8
330
1F
100
AcDbEntity
  8
SLD-0
  6
Continuous
 62
   179
100
AcDbCircle
 10
63.5624682521
 20
201.9982603081
 30
0.0
 40
3.25
  0
CIRCLE
  5
D9
330
1F
100
AcDbEntity
  8
SLD-0
  6
Continuous
 62
   179
100
AcDbCircle
 10
93.5624682521
 20
199.4982603081
 30
0.0
 40
4.25
  0
DIMENSION
  5
DA
330
1F
100
AcDbEntity
  8
SLD-0
 62
     7
100
AcDbDimension
  2
*D10
 10
103.5624682521
 20
144.1601309907
 30
0.0
 11
98.5624682521
 21
144.1601309907
 31
0.0
 70
   160
 71
     1
 42
10.0
  3
SLDDIMSTYLE0
100
AcDbAlignedDimension
 13
93.5624682521
 23
118.9017066353
 33
0.0
 14
103.5624682521
 24
128.9017066353
 34
0.0
100
AcDbRotatedDimension
1001
ACAD
1000
DSTYLE
1002
{
1070
    77
1070
     3
1070
   143
1040
0.0393700787
1070
    41
1040
6.0
1070
    44
1040
1.0
1070
    42
1040
1.0
1070
   147
1040
1.524
1070
    73
1070
     0
1070
    74
1070
     0
1070
   140
1040
3.5
1070
   284
1070
    12
1070
    78
1070
    12
1002
}
  0
DIMENSION
  5
FA
330
1F
100
AcDbEntity
  8
SLD-0
 62
     7
100
AcDbDimension
  2
*D12
 10
116.8869054595
 20
118.9017066353
 30
0.0
 11
116.8869054595
 21
123.9017066353
 31
0.0
 70
   160
 71
     1
 42
10.0
  3
SLDDIMSTYLE0
100
AcDbAlignedDimension
 13
98.5624682521
 23
128.9017066353
 33
0.0
 14
100.3124682521
 24
118.9017066353
 34
0.0
 50
90.0
100
AcDbRotatedDimension
1001
ACAD
1000
DSTYLE
1002
{
1070
    77
1070
     3
1070
   143
1040
0.0393700787
1070
    41
1040
6.0
1070
    44
1040
1.0
1070
    42
1040
1.0
1070
   147
1040
1.524
1070
    73
1070
     0
1070
    74
1070
     0
1070
   140
1040
3.5
1070
   284
1070
    12
1070
    78
1070
    12
1002
}
  0
DIMENSION
  5
114
330
1F
100
AcDbEntity
  8
SLD-0
 62
     7
100
AcDbDimension
  2
*D13
 10
78.5624682521
 20
152.8704305154
 30
0.0
 11
91.0624682521
 21
152.8704305154
 31
0.0
 70
   160
 71
     1
 42
25.0
  3
SLDDIMSTYLE0
100
AcDbAlignedDimension
 13
103.5624682521
 23
123.9017066353
 33
0.0
 14
78.5624682521
 24
122.1517066353
 34
0.0
100
AcDbRotatedDimension
1001
ACAD
1000
DSTYLE
1002
{
1070
    77
1070
     3
1070
   143
1040
0.0393700787
1070
    41
1040
6.0
1070
    44
1040
1.0
1070
    42
1040
1.0
1070
   147
1040
1.524
1070
    73
1070
     0
1070
    74
1070
     0
1070
   140
1040
3.5
1070
   284
1070
    12
1070
    78
1070
    12
1002
}
  0
DIMENSION
  5
12B
330
1F
100
AcDbEntity
  8
SLD-0
 62
     7
100
AcDbDimension
  2
*D14
 10
63.5624682521
 20
152.8704305154
 30
0.0
 11
71.0624682521
 21
152.8704305154
 31
0.0
 70
   160
 71
     1
 42
15.0
  3
SLDDIMSTYLE0
100
AcDbAlignedDimension
 13
78.5624682521
 23
122.1517066353
 33
0.0
 14
63.5624682521
 24
122.1517066353
 34
0.0
100
AcDbRotatedDimension
1001
ACAD
1000
DSTYLE
1002
{
1070
    77
1070
     3
1070
   143
1040
0.0393700787
1070
    41
1040
6.0
1070
    44
1040
1.0
1070
    42
1040
1.0
1070
   147
1040
1.524
1070
    73
1070
     0
1070
    74
1070
     0
1070
   140
1040
3.5
1070
   284
1070
    12
1070
    78
1070
    12
1002
}
  0
DIMENSION
  5
143
330
1F
100
AcDbEntity
  8
SLD-0
 62
     7
100
AcDbDimension
  2
*D15
 10
36.8918916977
 20
128.9017066353
 30
0.0
 11
36.8918916977
 21
122.6517066353
 31
0.0
 70
   160
 71
     1
 42
12.5
  3
SLDDIMSTYLE1
100
AcDbAlignedDimension
 13
72.8124682521
 23
116.4017066353
 33
0.0
 14
48.5624682521
 24
128.9017066353
 34
0.0
 50
90.0
100
AcDbRotatedDimension
1001
ACAD
1000
DSTYLE
1002
{
1070
    77
1070
     3
1070
   143
1040
0.0393700787
1070
    41
1040
6.0
1070
    44
1040
1.0
1070
    42
1040
1.0
1070
   147
1040
1.524
1070
    73
1070
     0
1070
    74
1070
     0
1070
   140
1040
3.5
1070
   284
1070
    12
1070
    78
1070
    12
1002
}
  0
DIMENSION
  5
15E
330
1F
100
AcDbEntity
  8
SLD-0
 62
     7
100
AcDbDimension
  2
*D16
 10
103.5624682521
 20
235.6827619715
 30
0.0
 11
76.0624682521
 21
235.6827619715
 31
0.0
 70
   160
 71
     1
 42
55.0
  3
SLDDIMSTYLE0
100
AcDbAlignedDimension
 13
48.5624682521
 23
214.4982603081
 33
0.0
 14
103.5624682521
 24
214.4982603081
 34
0.0
100
AcDbRotatedDimension
1001
ACAD
1000
DSTYLE
1002
{
1070
    77
1070
     3
1070
   143
1040
0.0393700787
1070
    41
1040
6.0
1070
    44
1040
1.0
1070
    42
1040
1.0
1070
   147
1040
1.524
1070
    73
1070
     0
1070
    74
1070
     0
1070
   140
1040
3.5
1070
   284
1070
    12
1070
    78
1070
    12
1002
}
  0
DIMENSION
  5
175
330
1F
100
AcDbEntity
  8
SLD-0
 62
     7
100
AcDbDimension
  2
*D17
 10
53.5624682521
 20
226.554820449
 30
0.0
 11
78.5624682521
 21
226.554820449
 31
0.0
 70
   160
 71
     1
 42
50.0
  3
SLDDIMSTYLE0
100
AcDbAlignedDimension
 13
103.5624682521
 23
209.4982603081
 33
0.0
 14
53.5624682521
 24
209.4982603081
 34
0.0
100
AcDbRotatedDimension
1001
ACAD
1000
DSTYLE
1002
{
1070
    77
1070
     3
1070
   143
1040
0.0393700787
1070
    41
1040
6.0
1070
    44
1040
1.0
1070
    42
1040
1.0
1070
   147
1040
1.524
1070
    73
1070
     0
1070
    74
1070
     0
1070
   140
1040
3.5
1070
   284
1070
    12
1070
    78
1070
    12
1002
}
  0
DIMENSION
  5
18C
330
1F
100
AcDbEntity
  8
SLD-0
 62
     7
100
AcDbDimension
  2
*D18
 10
63.5624682521
 20
170.7991866219
 30
0.0
 11
71.0624682521
 21
170.7991866219
 31
0.0
 70
   160
 71
     1
 42
15.0
  3
SLDDIMSTYLE0
100
AcDbAlignedDimension
 13
78.5624682521
 23
201.9982603081
 33
0.0
 14
63.5624682521
 24
201.9982603081
 34
0.0
100
AcDbRotatedDimension
1001
ACAD
1000
DSTYLE
1002
{
1070
    77
1070
     3
1070
   143
1040
0.0393700787
1070
    41
1040
6.0
1070
    44
1040
1.0
1070
    42
1040
1.0
1070
   147
1040
1.524
1070
    73
1070
     0
1070
    74
1070
     0
1070
   140
1040
3.5
1070
   284
1070
    12
1070
    78
1070
    12
1002
}
  0
DIMENSION
  5
1A4
330
1F
100
AcDbEntity
  8
SLD-0
 62
     7
100
AcDbDimension
  2
*D19
 10
78.5624682521
 20
170.7991866219
 30
0.0
 11
91.0624682521
 21
170.7991866219
 31
0.0
 70
   160
 71
     1
 42
25.0
  3
SLDDIMSTYLE0
100
AcDbAlignedDimension
 13
103.5624682521
 23
194.4982603081
 33
0.0
 14
78.5624682521
 24
196.2482603081
 34
0.0
100
AcDbRotatedDimension
1001
ACAD
1000
DSTYLE
1002
{
1070
    77
1070
     3
1070
   143
1040
0.0393700787
1070
    41
1040
6.0
1070
    44
1040
1.0
1070
    42
1040
1.0
1070
   147
1040
1.524
1070
    73
1070
     0
1070
    74
1070
     0
1070
   140
1040
3.5
1070
   284
1070
    12
1070
    78
1070
    12
1002
}
  0
DIMENSION
  5
1BB
330
1F
100
AcDbEntity
  8
SLD-0
 62
     7
100
AcDbDimension
  2
*D20
 10
117.8067021849
 20
199.4982603081
 30
0.0
 11
117.8067021849
 21
194.4982603081
 31
0.0
 70
   160
 71
     1
 42
10.0
  3
SLDDIMSTYLE0
100
AcDbAlignedDimension
 13
98.5624682521
 23
189.4982603081
 33
0.0
 14
100.3124682521
 24
199.4982603081
 34
0.0
 50
90.0
100
AcDbRotatedDimension
1001
ACAD
1000
DSTYLE
1002
{
1070
    77
1070
     3
1070
   143
1040
0.0393700787
1070
    41
1040
6.0
1070
    44
1040
1.0
1070
    42
1040
1.0
1070
   147
1040
1.524
1070
    73
1070
     0
1070
    74
1070
     0
1070
   140
1040
3.5
1070
   284
1070
    12
1070
    78
1070
    12
1002
}
  0
DIMENSION
  5
1D5
330
1F
100
AcDbEntity
  8
SLD-0
 62
     7
100
AcDbDimension
  2
*D21
 10
37.9562493654
 20
201.9982603081
 30
0.0
 11
37.9562493654
 21
195.7482603081
 31
0.0
 70
   160
 71
     1
 42
12.5
  3
SLDDIMSTYLE1
100
AcDbAlignedDimension
 13
48.5624682521
 23
189.4982603081
 33
0.0
 14
57.8124682521
 24
201.9982603081
 34
0.0
 50
90.0
100
AcDbRotatedDimension
1001
ACAD
1000
DSTYLE
1002
{
1070
    77
1070
     3
1070
   143
1040
0.0393700787
1070
    41
1040
6.0
1070
    44
1040
1.0
1070
    42
1040
1.0
1070
   147
1040
1.524
1070
    73
1070
     0
1070
    74
1070
     0
1070
   140
1040
3.5
1070
   284
1070
    12
1070
    78
1070
    12
1002
}
  0
DIMENSION
  5
1EF
330
1F
100
AcDbEntity
  8
SLD-0
 62
     7
100
AcDbDimension
  2
*D22
 10
103.5624682521
 20
180.0679954496
 30
0.0
 11
98.5624682521
 21
180.0679954496
 31
0.0
 70
   160
 71
     1
 42
10.0
  3
SLDDIMSTYLE0
100
AcDbAlignedDimension
 13
93.5624682521
 23
192.7482603081
 33
0.0
 14
103.5624682521
 24
194.4982603081
 34
0.0
100
AcDbRotatedDimension
1001
ACAD
1000
DSTYLE
1002
{
1070
    77
1070
     3
1070
   143
1040
0.0393700787
1070
    41
1040
6.0
1070
    44
1040
1.0
1070
    42
1040
1.0
1070
   147
1040
1.524
1070
    73
1070
     0
1070
    74
1070
     0
1070
   140
1040
3.5
1070
   284
1070
    12
1070
    78
1070
    12
1002
}
  0
DIMENSION
  5
209
330
1F
100
AcDbEntity
  8
SLD-0
 62
     7
100
AcDbDimension
  2
*D23
 10
-2.188859617
 20
3.8412366635
 30
0.0
 11
39.9895084589
 21
-6.0369396682
 31
0.0
 70
   163
  1
2-<>
 71
     1
 42
6.4999992753
  3
SLDDIMSTYLE2
100
AcDbDiametricDimension
 15
4.1398915859
 25
2.3590427524
 35
0.0
 40
0.0
1001
ACAD
1000
DSTYLE
1002
{
1070
    77
1070
     3
1070
   143
1040
0.0393700787
1070
    41
1040
6.0
1070
    44
1040
1.0
1070
    42
1040
1.0
1070
   147
1040
1.524
1070
    73
1070
     0
1070
    74
1070
     0
1070
   140
1040
3.5
1070
   284
1070
    12
1070
    78
1070
    12
1002
}
  0
DIMENSION
  5
21D
330
1F
100
AcDbEntity
  8
SLD-0
 62
     7
100
AcDbDimension
  2
*D24
 10
146.8254912792
 20
146.5760089505
 30
0.0
 11
159.3254912792
 21
146.5760089505
 31
0.0
 70
   160
 71
     1
 42
25.0
  3
SLDDIMSTYLE0
100
AcDbAlignedDimension
 13
171.8254912792
 23
128.9017066353
 33
0.0
 14
146.8254912792
 24
128.9017066353
 34
0.0
100
AcDbRotatedDimension
1001
ACAD
1000
DSTYLE
1002
{
1070
    77
1070
     3
1070
   143
1040
0.0393700787
1070
    41
1040
6.0
1070
    44
1040
1.0
1070
    42
1040
1.0
1070
   147
1040
1.524
1070
    73
1070
     0
1070
    74
1070
     0
1070
   140
1040
3.5
1070
   284
1070
    12
1070
    78
1070
    12
1002
}
  0
DIMENSION
  5
234
330
1F
100
AcDbEntity
  8
SLD-0
 62
     7
100
AcDbDimension
  2
*D25
 10
146.8254912792
 20
138.4163316027
 30
0.0
 11
156.8254912792
 21
138.4163316027
 31
0.0
 70
   160
 71
     1
 42
20.0
  3
SLDDIMSTYLE0
100
AcDbAlignedDimension
 13
166.8254912792
 23
123.9017066353
 33
0.0
 14
146.8254912792
 24
123.9017066353
 34
0.0
100
AcDbRotatedDimension
1001
ACAD
1000
DSTYLE
1002
{
1070
    77
1070
     3
1070
   143
1040
0.0393700787
1070
    41
1040
6.0
1070
    44
1040
1.0
1070
    42
1040
1.0
1070
   147
1040
1.524
1070
    73
1070
     0
1070
    74
1070
     0
1070
   140
1040
3.5
1070
   284
1070
    12
1070
    78
1070
    12
1002
}
  0
DIMENSION
  5
24B
330
1F
100
AcDbEntity
  8
SLD-0
 62
     7
100
AcDbDimension
  2
*D26
 10
186.097970413
 20
103.9017066353
 30
0.0
 11
186.097970413
 21
116.4017066353
 31
0.0
 70
   160
 71
     1
 42
25.0
  3
SLDDIMSTYLE0
100
AcDbAlignedDimension
 13
171.8254912792
 23
128.9017066353
 33
0.0
 14
171.8254912792
 24
103.9017066353
 34
0.0
 50
90.0
100
AcDbRotatedDimension
1001
ACAD
1000
DSTYLE
1002
{
1070
    77
1070
     3
1070
   143
1040
0.0393700787
1070
    41
1040
6.0
1070
    44
1040
1.0
1070
    42
1040
1.0
1070
   147
1040
1.524
1070
    73
1070
     0
1070
    74
1070
     0
1070
   140
1040
3.5
1070
   284
1070
    12
1070
    78
1070
    12
1002
}
  0
DIMENSION
  5
263
330
1F
100
AcDbEntity
  8
SLD-0
 62
     7
100
AcDbDimension
  2
*D27
 10
138.5678498621
 20
108.9017066353
 30
0.0
 11
138.5678498621
 21
116.5825271942
 31
0.0
 70
   160
 71
     1
 42
5.0
  3
SLDDIMSTYLE0
100
AcDbAlignedDimension
 13
171.8254912792
 23
103.9017066353
 33
0.0
 14
151.8254912792
 24
108.9017066353
 34
0.0
 50
90.0
100
AcDbRotatedDimension
1001
ACAD
1000
DSTYLE
1002
{
1070
    77
1070
     3
1070
   143
1040
0.0393700787
1070
    41
1040
6.0
1070
    44
1040
1.0
1070
    42
1040
1.0
1070
   147
1040
1.524
1070
    73
1070
     0
1070
    74
1070
     0
1070
   140
1040
3.5
1070
   284
1070
    12
1070
    78
1070
    12
1002
}
  0
MTEXT
  5
27F
330
1F
100
AcDbEntity
  8
SLD-0
 62
     7
100
AcDbMText
 10
155.4491203353
 20
17.7446358477
 30
0.0
 40
3.5
 41
0.0
 71
     1
 72
     1
  1
131036
  7
SLDTEXTSTYLE1
 73
     1
 44
1.0
  0
MTEXT
  5
280
330
1F
100
AcDbEntity
  8
SLD-0
 62
     7
100
AcDbMText
 10
147.3083984572
 20
28.9925274519
 30
0.0
 40
4.2333333333
 41
0.0
 71
     1
 72
     1
  1
N01912-104-0
  7
SLDTEXTSTYLE0
 73
     1
 44
1.0
  0
MTEXT
  5
282
330
1F
100
AcDbEntity
  8
SLD-0
 62
     7
100
AcDbMText
 10
130.179628242
 20
42.3314182374
 30
0.0
 40
4.2333333333
 41
0.0
 71
     1
 72
     1
  1
25 Connecter Block D
  7
SLDTEXTSTYLE3
 73
     1
 44
1.0
  0
MTEXT
  5
283
330
1F
100
AcDbEntity
  8
SLD-0
 62
     7
100
AcDbMText
 10
106.2202968026
 20
134.6448972016
 30
0.0
 40
3.5
 41
0.0
 71
     1
 72
     1
  1
C
  7
SLDTEXTSTYLE0
 11
0.7867774433991337
 21
0.6172367896993203
 31
0.0
 73
     1
 44
1.0
  0
MTEXT
  5
284
330
1F
100
AcDbEntity
  8
SLD-0
 62
     7
100
AcDbMText
 10
107.8222936687
 20
135.9016838712
 30
0.0
 40
3.5
 41
0.0
 71
     1
 72
     1
  1
5
  7
SLDTEXTSTYLE0
 11
0.7867774433991337
 21
0.6172367896993203
 31
0.0
 73
     1
 44
1.0
  0
MTEXT
  5
285
330
1F
100
AcDbEntity
  8
SLD-0
 62
     7
100
AcDbMText
 10
111.1214095184
 20
186.7098895568
 30
0.0
 40
3.5
 41
0.0
 71
     1
 72
     1
  1
C
  7
SLDTEXTSTYLE0
 11
0.7112414690300148
 21
-0.7029477738296256
 31
0.0
 73
     1
 44
1.0
  0
MTEXT
  5
286
330
1F
100
AcDbEntity
  8
SLD-0
 62
     7
100
AcDbMText
 10
112.5696038127
 20
185.2785824697
 30
0.0
 40
3.5
 41
0.0
 71
     1
 72
     1
  1
5
  7
SLDTEXTSTYLE0
 11
0.7112414690300148
 21
-0.7029477738296256
 31
0.0
 73
     1
 44
1.0
  0
MTEXT
  5
287
330
1F
100
AcDbEntity
  8
SLD-0
 62
     7
100
AcDbMText
 10
140.9000812256
 20
136.1328811115
 30
0.0
 40
3.5
 41
0.0
 71
     1
 72
     1
  1
C
  7
SLDTEXTSTYLE0
 11
0.8263854751062901
 21
-0.5631048273042517
 31
0.0
 73
     1
 44
1.0
  0
MTEXT
  5
288
330
1F
100
AcDbEntity
  8
SLD-0
 62
     7
100
AcDbMText
 10
142.5827259842
 20
134.9863152354
 30
0.0
 40
3.5
 41
0.0
 71
     1
 72
     1
  1
5
  7
SLDTEXTSTYLE0
 11
0.8263854751062901
 21
-0.5631048273042517
 31
0.0
 73
     1
 44
1.0
  0
INSERT
  5
289
330
1F
100
AcDbEntity
  8
0
  6
Continuous
 62
     7
370
     0
100
AcDbBlockReference
  2
SURFACEFINISH39
 10
176.1664207758
 20
250.1852801716
 30
0.0
  0
INSERT
  5
28A
330
1F
100
AcDbEntity
  8
0
  6
Continuous
 62
     7
370
     0
100
AcDbBlockReference
  2
注記
 10
109.8743467933
 20
55.4883752193
 30
0.0
  0
INSERT
  5
28B
330
1F
100
AcDbEntity
  8
0
  6
Continuous
 62
     7
370
     0
100
AcDbBlockReference
  2
_OPEN30
 10
101.0624682521
 20
126.4017066353
 30
0.0
 41
3.0
 42
3.0
 43
3.0
 50
-142.1274619514
  0
INSERT
  5
28C
330
1F
100
AcDbEntity
  8
0
  6
Continuous
 62
     7
370
     0
100
AcDbBlockReference
  2
SW_CENTERMARK0
 10
0.0
 20
0.0
 30
0.0
  0
INSERT
  5
28D
330
1F
100
AcDbEntity
  8
0
  6
Continuous
 62
     7
370
     0
100
AcDbBlockReference
  2
SW_CENTERMARK1
 10
0.0
 20
0.0
 30
0.0
  0
INSERT
  5
28E
330
1F
100
AcDbEntity
  8
0
  6
Continuous
 62
     7
370
     0
100
AcDbBlockReference
  2
SW_CENTERMARK2
 10
0.0
 20
0.0
 30
0.0
  0
INSERT
  5
28F
330
1F
100
AcDbEntity
  8
0
  6
Continuous
 62
     7
370
     0
100
AcDbBlockReference
  2
_OPEN30
 10
101.0624682521
 20
191.9982603081
 30
0.0
 41
3.0
 42
3.0
 43
3.0
 50
135.1861121723
  0
INSERT
  5
290
330
1F
100
AcDbEntity
  8
0
  6
Continuous
 62
     7
370
     0
100
AcDbBlockReference
  2
SW_CENTERMARK3
 10
0.0
 20
0.0
 30
0.0
  0
INSERT
  5
291
330
1F
100
AcDbEntity
  8
0
  6
Continuous
 62
     7
370
     0
100
AcDbBlockReference
  2
SW_CENTERMARK4
 10
0.0
 20
0.0
 30
0.0
  0
INSERT
  5
292
330
1F
100
AcDbEntity
  8
0
  6
Continuous
 62
     7
370
     0
100
AcDbBlockReference
  2
SW_CENTERMARK5
 10
0.0
 20
0.0
 30
0.0
  0
INSERT
  5
293
330
1F
100
AcDbEntity
  8
0
  6
Continuous
 62
     7
370
     0
100
AcDbBlockReference
  2
_OPEN30
 10
149.3254912792
 20
126.4017066353
 30
0.0
 41
3.0
 42
3.0
 43
3.0
 50
-34.121402802
  0
ENDSEC
  0
SECTION
  2
OBJECTS
  0
DICTIONARY
  5
C
330
0
100
AcDbDictionary
281
     1
  3
ACAD_GROUP
350
D
  3
ACAD_LAYOUT
350
1A
  3
ACAD_MLINESTYLE
350
17
  3
ACAD_PLOTSETTINGS
350
19
  3
ACAD_PLOTSTYLENAME
350
E
  0
DICTIONARY
  5
D
102
{ACAD_REACTORS
330
C
102
}
330
C
100
AcDbDictionary
281
     1
  0
DICTIONARY
  5
1A
102
{ACAD_REACTORS
330
C
102
}
330
C
100
AcDbDictionary
281
     1
  3
Layout1
350
1E
  3
Layout2
350
26
  3
Model
350
22
  0
DICTIONARY
  5
17
102
{ACAD_REACTORS
330
C
102
}
330
C
100
AcDbDictionary
281
     1
  3
Standard
350
18
  0
DICTIONARY
  5
19
102
{ACAD_REACTORS
330
C
102
}
330
C
100
AcDbDictionary
281
     1
  0
ACDBDICTIONARYWDFLT
  5
E
102
{ACAD_REACTORS
330
C
102
}
330
C
100
AcDbDictionary
281
     1
  3
Normal
350
F
100
AcDbDictionaryWithDefault
340
F
  0
LAYOUT
  5
1E
102
{ACAD_REACTORS
330
1A
102
}
330
1A
100
AcDbPlotSettings
  1

  2

  4

  6

 40
0.0
 41
0.0
 42
0.0
 43
0.0
 44
0.0
 45
0.0
 46
0.0
 47
0.0
 48
0.0
 49
0.0
140
0.0
141
0.0
142
1.0
143
1.0
 70
   688
 72
     0
 73
     0
 74
     5
  7

 75
    16
147
1.0
148
0.0
149
0.0
100
AcDbLayout
  1
Layout1
 70
     1
 71
     1
 10
0.0
 20
0.0
 11
0.0
 21
0.0
 12
0.0
 22
0.0
 32
0.0
 14
0.0
 24
0.0
 34
0.0
 15
0.0
 25
0.0
 35
0.0
146
0.0
 13
0.0
 23
0.0
 33
0.0
 16
1.0
 26
0.0
 36
0.0
 17
0.0
 27
1.0
 37
0.0
 76
     0
330
1B
  0
LAYOUT
  5
26
102
{ACAD_REACTORS
330
1A
102
}
330
1A
100
AcDbPlotSettings
  1

  2

  4

  6

 40
0.0
 41
0.0
 42
0.0
 43
0.0
 44
0.0
 45
0.0
 46
0.0
 47
0.0
 48
0.0
 49
0.0
140
0.0
141
0.0
142
1.0
143
1.0
 70
   688
 72
     0
 73
     0
 74
     5
  7

 75
    16
147
1.0
148
0.0
149
0.0
100
AcDbLayout
  1
Layout2
 70
     1
 71
     2
 10
0.0
 20
0.0
 11
0.0
 21
0.0
 12
0.0
 22
0.0
 32
0.0
 14
0.0
 24
0.0
 34
0.0
 15
0.0
 25
0.0
 35
0.0
146
0.0
 13
0.0
 23
0.0
 33
0.0
 16
1.0
 26
0.0
 36
0.0
 17
0.0
 27
1.0
 37
0.0
 76
     0
330
23
  0
LAYOUT
  5
22
102
{ACAD_REACTORS
330
1A
102
}
330
1A
100
AcDbPlotSettings
  1

  2

  4

  6

 40
0.0
 41
0.0
 42
0.0
 43
0.0
 44
0.0
 45
0.0
 46
0.0
 47
0.0
 48
0.0
 49
0.0
140
0.0
141
0.0
142
1.0
143
1.0
 70
  1712
 72
     0
 73
     0
 74
     0
  7

 75
     0
147
1.0
148
0.0
149
0.0
100
AcDbLayout
  1
Model
 70
     1
 71
     0
 10
0.0
 20
0.0
 11
0.0
 21
0.0
 12
0.0
 22
0.0
 32
0.0
 14
0.0
 24
0.0
 34
0.0
 15
210.0
 25
297.0
 35
0.0
146
0.0
 13
0.0
 23
0.0
 33
0.0
 16
1.0
 26
0.0
 36
0.0
 17
0.0
 27
1.0
 37
0.0
 76
     0
330
1F
  0
MLINESTYLE
  5
18
102
{ACAD_REACTORS
330
17
102
}
330
17
100
AcDbMlineStyle
  2
Standard
 70
     0
  3

 62
   256
 51
90.0
 52
90.0
 71
     2
 49
0.5
 62
   256
  6
BYLAYER
 49
-0.5
 62
   256
  6
BYLAYER
  0
ACDBPLACEHOLDER
  5
F
102
{ACAD_REACTORS
330
E
102
}
330
E
  0
ENDSEC
  0
EOF
