  0
SECTION
  2
HEADER
  9
$ACADVER
  1
AC1015
  9
$ACADMAINTVER
 70
     6
  9
$DWGCODEPAGE
  3
DOS932
  9
$INSBASE
 10
0.0
 20
0.0
 30
0.0
  9
$EXTMIN
 10
0.0
 20
0.0
 30
0.0
  9
$EXTMAX
 10
210.0
 20
297.0
 30
0.0
  9
$LIMMIN
 10
0.0
 20
0.0
  9
$LIMMAX
 10
0.0
 20
0.0
  9
$ORTHOMODE
 70
     0
  9
$REGENMODE
 70
     1
  9
$FILLMODE
 70
     1
  9
$QTEXTMODE
 70
     0
  9
$MIRRTEXT
 70
     1
  9
$LTSCALE
 40
1.0
  9
$ATTMODE
 70
     1
  9
$TEXTSIZE
 40
3.5
  9
$TRACEWID
 40
1.0
  9
$TEXTSTYLE
  7
Standard
  9
$CLAYER
  8
0
  9
$CELTYPE
  6
ByLayer
  9
$CECOLOR
 62
   256
  9
$CELTSCALE
 40
1.0
  9
$DISPSILH
 70
     0
  9
$DIMSCALE
 40
1.0
  9
$DIMASZ
 40
3.0
  9
$DIMEXO
 40
1.0
  9
$DIMDLI
 40
3.75
  9
$DIMRND
 40
0.0
  9
$DIMDLE
 40
0.0
  9
$DIMEXE
 40
1.0
  9
$DIMTP
 40
0.0
  9
$DIMTM
 40
0.0
  9
$DIMTXT
 40
3.5
  9
$DIMCEN
 40
2.5
  9
$DIMTSZ
 40
0.0
  9
$DIMTOL
 70
     0
  9
$DIMLIM
 70
     0
  9
$DIMTIH
 70
     1
  9
$DIMTOH
 70
     1
  9
$DIMSE1
 70
     0
  9
$DIMSE2
 70
     0
  9
$DIMTAD
 70
     1
  9
$DIMZIN
 70
     1
  9
$DIMBLK
  1

  9
$DIMASO
 70
     1
  9
$DIMSHO
 70
     1
  9
$DIMPOST
  1

  9
$DIMAPOST
  1

  9
$DIMALT
 70
     0
  9
$DIMALTD
 70
     3
  9
$DIMALTF
 40
0.0393700787
  9
$DIMLFAC
 40
1.0
  9
$DIMTOFL
 70
     1
  9
$DIMTVP
 40
0.0
  9
$DIMTIX
 70
     0
  9
$DIMSOXD
 70
     0
  9
$DIMSAH
 70
     0
  9
$DIMBLK1
  1

  9
$DIMBLK2
  1

  9
$DIMSTYLE
  2
ISO-25
  9
$DIMCLRD
 70
     0
  9
$DIMCLRE
 70
     0
  9
$DIMCLRT
 70
     0
  9
$DIMTFAC
 40
1.0
  9
$DIMGAP
 40
1.524
  9
$DIMJUST
 70
     0
  9
$DIMSD1
 70
     0
  9
$DIMSD2
 70
     0
  9
$DIMTOLJ
 70
     0
  9
$DIMTZIN
 70
     1
  9
$DIMALTZ
 70
     0
  9
$DIMALTTZ
 70
     0
  9
$DIMUPT
 70
     0
  9
$DIMDEC
 70
     2
  9
$DIMTDEC
 70
     2
  9
$DIMALTU
 70
     2
  9
$DIMALTTD
 70
     3
  9
$DIMTXSTY
  7
Standard
  9
$DIMAUNIT
 70
     0
  9
$DIMADEC
 70
     0
  9
$DIMALTRND
 40
0.0
  9
$DIMAZIN
 70
     0
  9
$DIMDSEP
 70
    44
  9
$DIMATFIT
 70
     3
  9
$DIMFRAC
 70
     0
  9
$DIMLDRBLK
  1

  9
$DIMLUNIT
 70
     2
  9
$DIMLWD
 70
    -2
  9
$DIMLWE
 70
    -2
  9
$DIMTMOVE
 70
     0
  9
$LUNITS
 70
     2
  9
$LUPREC
 70
     1
  9
$SKETCHINC
 40
1.0
  9
$FILLETRAD
 40
10.0
  9
$AUNITS
 70
     0
  9
$AUPREC
 70
     0
  9
$MENU
  1
.
  9
$ELEVATION
 40
0.0
  9
$PELEVATION
 40
0.0
  9
$THICKNESS
 40
0.0
  9
$LIMCHECK
 70
     0
  9
$CHAMFERA
 40
10.0
  9
$CHAMFERB
 40
10.0
  9
$CHAMFERC
 40
20.0
  9
$CHAMFERD
 40
0.0
  9
$SKPOLY
 70
     0
  9
$TDCREATE
 40
2454309.450304722
  9
$TDUCREATE
 40
2454309.075304722
  9
$TDUPDATE
 40
2454309.450304734
  9
$TDUUPDATE
 40
2454309.075304734
  9
$TDINDWG
 40
0.0000000116
  9
$TDUSRTIMER
 40
0.0000000116
  9
$USRTIMER
 70
     1
  9
$ANGBASE
 50
0.0
  9
$ANGDIR
 70
     0
  9
$PDMODE
 70
     0
  9
$PDSIZE
 40
-1.0
  9
$PLINEWID
 40
0.0
  9
$SPLFRAME
 70
     0
  9
$SPLINETYPE
 70
     6
  9
$SPLINESEGS
 70
     8
  9
$HANDSEED
  5
1CD
  9
$SURFTAB1
 70
     6
  9
$SURFTAB2
 70
     6
  9
$SURFTYPE
 70
     6
  9
$SURFU
 70
     6
  9
$SURFV
 70
     6
  9
$UCSBASE
  2

  9
$UCSNAME
  2

  9
$UCSORG
 10
0.0
 20
0.0
 30
0.0
  9
$UCSXDIR
 10
1.0
 20
0.0
 30
0.0
  9
$UCSYDIR
 10
0.0
 20
1.0
 30
0.0
  9
$UCSORTHOREF
  2

  9
$UCSORTHOVIEW
 70
     0
  9
$UCSORGTOP
 10
0.0
 20
0.0
 30
0.0
  9
$UCSORGBOTTOM
 10
0.0
 20
0.0
 30
0.0
  9
$UCSORGLEFT
 10
0.0
 20
0.0
 30
0.0
  9
$UCSORGRIGHT
 10
0.0
 20
0.0
 30
0.0
  9
$UCSORGFRONT
 10
0.0
 20
0.0
 30
0.0
  9
$UCSORGBACK
 10
0.0
 20
0.0
 30
0.0
  9
$PUCSBASE
  2

  9
$PUCSNAME
  2

  9
$PUCSORG
 10
0.0
 20
0.0
 30
0.0
  9
$PUCSXDIR
 10
1.0
 20
0.0
 30
0.0
  9
$PUCSYDIR
 10
0.0
 20
1.0
 30
0.0
  9
$PUCSORTHOREF
  2

  9
$PUCSORTHOVIEW
 70
     0
  9
$PUCSORGTOP
 10
0.0
 20
0.0
 30
0.0
  9
$PUCSORGBOTTOM
 10
0.0
 20
0.0
 30
0.0
  9
$PUCSORGLEFT
 10
0.0
 20
0.0
 30
0.0
  9
$PUCSORGRIGHT
 10
0.0
 20
0.0
 30
0.0
  9
$PUCSORGFRONT
 10
0.0
 20
0.0
 30
0.0
  9
$PUCSORGBACK
 10
0.0
 20
0.0
 30
0.0
  9
$USERI1
 70
     0
  9
$USERI2
 70
     0
  9
$USERI3
 70
     0
  9
$USERI4
 70
     0
  9
$USERI5
 70
     0
  9
$USERR1
 40
0.0
  9
$USERR2
 40
0.0
  9
$USERR3
 40
0.0
  9
$USERR4
 40
0.0
  9
$USERR5
 40
0.0
  9
$WORLDVIEW
 70
     1
  9
$SHADEDGE
 70
     3
  9
$SHADEDIF
 70
    70
  9
$TILEMODE
 70
     1
  9
$MAXACTVP
 70
    64
  9
$PINSBASE
 10
0.0
 20
0.0
 30
0.0
  9
$PLIMCHECK
 70
     0
  9
$PEXTMIN
 10
1.0000000000E+20
 20
1.0000000000E+20
 30
1.0000000000E+20
  9
$PEXTMAX
 10
-1.0000000000E+20
 20
-1.0000000000E+20
 30
-1.0000000000E+20
  9
$PLIMMIN
 10
0.0
 20
0.0
  9
$PLIMMAX
 10
420.0
 20
297.0
  9
$UNITMODE
 70
     0
  9
$VISRETAIN
 70
     1
  9
$PLINEGEN
 70
     0
  9
$PSLTSCALE
 70
     1
  9
$TREEDEPTH
 70
  3020
  9
$CMLSTYLE
  2
Standard
  9
$CMLJUST
 70
     0
  9
$CMLSCALE
 40
20.0
  9
$PROXYGRAPHICS
 70
     1
  9
$MEASUREMENT
 70
     1
  9
$CELWEIGHT
370
    -1
  9
$ENDCAPS
280
     0
  9
$JOINSTYLE
280
     0
  9
$LWDISPLAY
290
     1
  9
$INSUNITS
 70
     4
  9
$HYPERLINKBASE
  1

  9
$STYLESHEET
  1

  9
$XEDIT
290
     1
  9
$CEPSNTYPE
380
     0
  9
$PSTYLEMODE
290
     1
  9
$FINGERPRINTGUID
  2
{19E4D074-530C-4D95-A114-A91F32AA1198}
  9
$VERSIONGUID
  2
{FAEB1C32-E019-11D5-929B-00C0DF256EC4}
  9
$EXTNAMES
290
     1
  9
$PSVPSCALE
 40
0.0
  9
$OLESTARTUP
290
     0
  0
ENDSEC
  0
SECTION
  2
CLASSES
  0
CLASS
  1
ACDBDICTIONARYWDFLT
  2
AcDbDictionaryWithDefault
  3
ObjectDBX Classes
 90
        0
280
     0
281
     0
  0
CLASS
  1
ACDBPLACEHOLDER
  2
AcDbPlaceHolder
  3
ObjectDBX Classes
 90
        0
280
     0
281
     0
  0
CLASS
  1
LAYOUT
  2
AcDbLayout
  3
ObjectDBX Classes
 90
        0
280
     0
281
     0
  0
ENDSEC
  0
SECTION
  2
TABLES
  0
TABLE
  2
VPORT
  5
8
330
0
100
AcDbSymbolTable
 70
     1
  0
VPORT
  5
29
330
8
100
AcDbSymbolTableRecord
100
AcDbViewportTableRecord
  2
*Active
 70
     0
 10
0.0
 20
0.0
 11
1.0
 21
1.0
 12
105.0
 22
148.5
 13
0.0
 23
0.0
 14
10.0
 24
10.0
 15
10.0
 25
10.0
 16
0.0
 26
0.0
 36
1.0
 17
0.0
 27
0.0
 37
0.0
 40
297.0
 41
1.9729729729
 42
50.0
 43
0.0
 44
0.0
 50
0.0
 51
0.0
 71
     0
 72
  2000
 73
     1
 74
     3
 75
     0
 76
     0
 77
     0
 78
     0
281
     0
 65
     1
110
0.0
120
0.0
130
0.0
111
1.0
121
0.0
131
0.0
112
0.0
122
1.0
132
0.0
 79
     0
146
0.0
  0
ENDTAB
  0
TABLE
  2
LTYPE
  5
5
330
0
100
AcDbSymbolTable
 70
     6
  0
LTYPE
  5
14
330
5
100
AcDbSymbolTableRecord
100
AcDbLinetypeTableRecord
  2
ByBlock
 70
     0
  3

 72
    65
 73
     0
 40
0.0
  0
LTYPE
  5
15
330
5
100
AcDbSymbolTableRecord
100
AcDbLinetypeTableRecord
  2
ByLayer
 70
     0
  3

 72
    65
 73
     0
 40
0.0
  0
LTYPE
  5
16
330
5
100
AcDbSymbolTableRecord
100
AcDbLinetypeTableRecord
  2
Continuous
 70
     0
  3
Solid line
 72
    65
 73
     0
 40
0.0
  0
LTYPE
  5
2A
330
5
100
AcDbSymbolTableRecord
100
AcDbLinetypeTableRecord
  2
HIDDEN
 70
     0
  3
Hidden __ __ __ __ __ __ __ __ __ __ __ __ __ __
 72
    65
 73
     2
 40
1.905
 49
1.27
 74
     0
 49
-0.635
 74
     0
  0
LTYPE
  5
2B
330
5
100
AcDbSymbolTableRecord
100
AcDbLinetypeTableRecord
  2
PHANTOM
 70
     0
  3
Phantom ______  __  __  ______  __  __  ______
 72
    65
 73
     6
 40
12.7
 49
6.35
 74
     0
 49
-1.27
 74
     0
 49
1.27
 74
     0
 49
-1.27
 74
     0
 49
1.27
 74
     0
 49
-1.27
 74
     0
  0
LTYPE
  5
2C
330
5
100
AcDbSymbolTableRecord
100
AcDbLinetypeTableRecord
  2
CENTER
 70
     0
  3
Center ____ _ ____ _ ____ _ ____ _ ____ _ ____
 72
    65
 73
     4
 40
10.16
 49
6.35
 74
     0
 49
-1.27
 74
     0
 49
1.27
 74
     0
 49
-1.27
 74
     0
  0
LTYPE
  5
2D
330
5
100
AcDbSymbolTableRecord
100
AcDbLinetypeTableRecord
  2
CENTERX2
 70
     0
  3
Center (2x) ________  __  ________  __  _____
 72
    65
 73
     4
 40
20.32
 49
12.7
 74
     0
 49
-2.54
 74
     0
 49
2.54
 74
     0
 49
-2.54
 74
     0
  0
LTYPE
  5
2E
330
5
100
AcDbSymbolTableRecord
100
AcDbLinetypeTableRecord
  2
DOT2
 70
     0
  3
Dot (.5x) ........................................
 72
    65
 73
     2
 40
0.635
 49
0.0
 74
     0
 49
-0.635
 74
     0
  0
ENDTAB
  0
TABLE
  2
LAYER
  5
2
330
0
100
AcDbSymbolTable
 70
     6
  0
LAYER
  5
10
330
2
100
AcDbSymbolTableRecord
100
AcDbLayerTableRecord
  2
0
 70
     0
 62
     7
  6
Continuous
370
    -3
390
F
  0
LAYER
  5
2F
330
2
100
AcDbSymbolTableRecord
100
AcDbLayerTableRecord
  2
SLD-0_0
 70
     0
 62
   179
  6
Continuous
370
     0
390
F
  0
LAYER
  5
30
330
2
100
AcDbSymbolTableRecord
100
AcDbLayerTableRecord
  2
SLD-0
 70
     0
 62
   179
  6
Continuous
370
     0
390
F
  0
LAYER
  5
31
330
2
100
AcDbSymbolTableRecord
100
AcDbLayerTableRecord
  2
SLD-DEFPOINTS
 70
     0
 62
   179
  6
Continuous
370
     0
390
F
  0
LAYER
  5
32
330
2
100
AcDbSymbolTableRecord
100
AcDbLayerTableRecord
  2
SLD-DEFPOINTS_0
 70
     0
 62
   179
  6
Continuous
370
     0
390
F
  0
LAYER
  5
9B
330
2
100
AcDbSymbolTableRecord
100
AcDbLayerTableRecord
  2
Defpoints
 70
     0
 62
     7
  6
Continuous
290
     0
370
    -3
390
F
  0
ENDTAB
  0
TABLE
  2
STYLE
  5
3
330
0
100
AcDbSymbolTable
 70
     5
  0
STYLE
  5
11
330
3
100
AcDbSymbolTableRecord
100
AcDbTextStyleTableRecord
  2
Standard
 70
     0
 40
0.0
 41
1.0
 50
0.0
 71
     0
 42
2.5
  3
txt
  4
bigfont
  0
STYLE
  5
36
330
3
100
AcDbSymbolTableRecord
100
AcDbTextStyleTableRecord
  2
SLDTEXTSTYLE0
 70
     0
 40
0.0
 41
0.7
 50
0.0
 71
     0
 42
0.2
  3
TXT
  4
bigfont
  0
STYLE
  5
3E
330
3
100
AcDbSymbolTableRecord
100
AcDbTextStyleTableRecord
  2
SLDTEXTSTYLE1
 70
     0
 40
0.0
 41
0.407202216
 50
0.0
 71
     0
 42
0.2
  3
TXT
  4
bigfont
  0
STYLE
  5
1C1
330
3
100
AcDbSymbolTableRecord
100
AcDbTextStyleTableRecord
  2
SLDTEXTSTYLE2
 70
     0
 40
0.0
 41
0.5157894737
 50
0.0
 71
     0
 42
0.2
  3
TXT
  4
bigfont
  0
STYLE
  5
1C4
330
3
100
AcDbSymbolTableRecord
100
AcDbTextStyleTableRecord
  2
SLDTEXTSTYLE3
 70
     0
 40
0.0
 41
0.3187628033
 50
0.0
 71
     0
 42
0.2
  3
TXT
  4
bigfont
  0
ENDTAB
  0
TABLE
  2
VIEW
  5
6
330
0
100
AcDbSymbolTable
 70
     0
  0
ENDTAB
  0
TABLE
  2
UCS
  5
7
330
0
100
AcDbSymbolTable
 70
     0
  0
ENDTAB
  0
TABLE
  2
APPID
  5
9
330
0
100
AcDbSymbolTable
 70
     1
  0
APPID
  5
12
330
9
100
AcDbSymbolTableRecord
100
AcDbRegAppTableRecord
  2
ACAD
 70
     0
  0
ENDTAB
  0
TABLE
  2
DIMSTYLE
  5
A
330
0
100
AcDbSymbolTable
 70
     3
100
AcDbDimStyleTable
  0
DIMSTYLE
105
27
330
A
100
AcDbSymbolTableRecord
100
AcDbDimStyleTableRecord
  2
ISO-25
 70
     0
 41
2.5
 42
0.625
 43
3.75
 44
1.25
 73
     0
 74
     0
 77
     1
 78
     8
140
2.5
141
2.5
143
0.0393700787
147
0.625
171
     3
172
     1
271
     2
272
     2
274
     3
278
    44
283
     0
284
     8
340
11
  0
DIMSTYLE
105
A8
102
{ACAD_REACTORS
330
9A
330
B6
330
CE
330
E5
330
116
330
12D
330
15C
330
174
330
1A7
102
}
330
A
100
AcDbSymbolTableRecord
100
AcDbDimStyleTableRecord
  2
SLDDIMSTYLE0
 70
     0
 41
3.0
 44
0.0
 73
     0
 74
     0
 77
     3
 78
    12
140
3.5
147
0.875
173
     1
271
     0
272
     3
284
    12
340
3E
341
A9
343
A9
344
A9
  0
DIMSTYLE
105
10B
102
{ACAD_REACTORS
330
FD
330
144
330
18E
102
}
330
A
100
AcDbSymbolTableRecord
100
AcDbDimStyleTableRecord
  2
SLDDIMSTYLE1
 70
     0
 41
3.0
 44
0.0
 73
     0
 74
     0
 77
     3
 78
    12
140
3.5
147
0.875
173
     1
271
     1
272
     3
284
    12
340
3E
341
A9
343
A9
344
A9
  0
ENDTAB
  0
TABLE
  2
BLOCK_RECORD
  5
1
330
0
100
AcDbSymbolTable
 70
    21
  0
BLOCK_RECORD
  5
1F
330
1
100
AcDbSymbolTableRecord
100
AcDbBlockTableRecord
  2
*Model_Space
340
22
  0
BLOCK_RECORD
  5
1B
330
1
100
AcDbSymbolTableRecord
100
AcDbBlockTableRecord
  2
*Paper_Space
340
1E
  0
BLOCK_RECORD
  5
23
330
1
100
AcDbSymbolTableRecord
100
AcDbBlockTableRecord
  2
*Paper_Space0
340
26
  0
BLOCK_RECORD
  5
33
330
1
100
AcDbSymbolTableRecord
100
AcDbBlockTableRecord
  2
注記
340
0
102
{BLKREFS
331
1C7
102
}
  0
BLOCK_RECORD
  5
39
330
1
100
AcDbSymbolTableRecord
100
AcDbBlockTableRecord
  2
SURFACEFINISH40
340
0
102
{BLKREFS
331
1C6
102
}
  0
BLOCK_RECORD
  5
40
330
1
100
AcDbSymbolTableRecord
100
AcDbBlockTableRecord
  2
SW_CENTERMARK0
340
0
102
{BLKREFS
331
1C8
102
}
  0
BLOCK_RECORD
  5
4B
330
1
100
AcDbSymbolTableRecord
100
AcDbBlockTableRecord
  2
SW_CENTERMARK1
340
0
102
{BLKREFS
331
1C9
102
}
  0
BLOCK_RECORD
  5
56
330
1
100
AcDbSymbolTableRecord
100
AcDbBlockTableRecord
  2
SW_CENTERMARK2
340
0
102
{BLKREFS
331
1CA
102
}
  0
BLOCK_RECORD
  5
61
330
1
100
AcDbSymbolTableRecord
100
AcDbBlockTableRecord
  2
SW_CENTERMARK3
340
0
102
{BLKREFS
331
1CB
102
}
  0
BLOCK_RECORD
  5
6C
330
1
100
AcDbSymbolTableRecord
100
AcDbBlockTableRecord
  2
SW_CENTERMARK4
340
0
102
{BLKREFS
331
1CC
102
}
  0
BLOCK_RECORD
  5
9C
330
1
100
AcDbSymbolTableRecord
100
AcDbBlockTableRecord
  2
*D8
340
0
  0
BLOCK_RECORD
  5
A9
330
1
100
AcDbSymbolTableRecord
100
AcDbBlockTableRecord
  2
_None
340
0
102
{BLKREFS
331
A1
331
A0
331
BC
331
BB
331
D4
331
D3
331
EB
331
EA
331
103
331
102
331
11C
331
11B
331
133
331
132
331
14A
331
149
331
162
331
161
331
17A
331
179
331
194
331
193
331
1AD
331
1AC
102
}
  0
BLOCK_RECORD
  5
B7
330
1
100
AcDbSymbolTableRecord
100
AcDbBlockTableRecord
  2
*D10
340
0
  0
BLOCK_RECORD
  5
CF
330
1
100
AcDbSymbolTableRecord
100
AcDbBlockTableRecord
  2
*D11
340
0
  0
BLOCK_RECORD
  5
E6
330
1
100
AcDbSymbolTableRecord
100
AcDbBlockTableRecord
  2
*D12
340
0
  0
BLOCK_RECORD
  5
FE
330
1
100
AcDbSymbolTableRecord
100
AcDbBlockTableRecord
  2
*D13
340
0
  0
BLOCK_RECORD
  5
117
330
1
100
AcDbSymbolTableRecord
100
AcDbBlockTableRecord
  2
*D14
340
0
  0
BLOCK_RECORD
  5
12E
330
1
100
AcDbSymbolTableRecord
100
AcDbBlockTableRecord
  2
*D15
340
0
  0
BLOCK_RECORD
  5
145
330
1
100
AcDbSymbolTableRecord
100
AcDbBlockTableRecord
  2
*D16
340
0
  0
BLOCK_RECORD
  5
15D
330
1
100
AcDbSymbolTableRecord
100
AcDbBlockTableRecord
  2
*D17
340
0
  0
BLOCK_RECORD
  5
175
330
1
100
AcDbSymbolTableRecord
100
AcDbBlockTableRecord
  2
*D18
340
0
  0
BLOCK_RECORD
  5
18F
330
1
100
AcDbSymbolTableRecord
100
AcDbBlockTableRecord
  2
*D19
340
0
  0
BLOCK_RECORD
  5
1A8
330
1
100
AcDbSymbolTableRecord
100
AcDbBlockTableRecord
  2
*D20
340
0
  0
ENDTAB
  0
ENDSEC
  0
SECTION
  2
BLOCKS
  0
BLOCK
  5
20
330
1F
100
AcDbEntity
  8
0
100
AcDbBlockBegin
  2
*Model_Space
 70
     0
 71
     0
 10
0.0
 20
0.0
 30
0.0
  3
*Model_Space
  1

  0
ENDBLK
  5
21
330
1F
100
AcDbEntity
  8
0
100
AcDbBlockEnd
  0
BLOCK
  5
1C
330
1B
100
AcDbEntity
 67
     1
  8
0
100
AcDbBlockBegin
  2
*Paper_Space
 70
     0
 71
     0
 10
0.0
 20
0.0
 30
0.0
  3
*Paper_Space
  1

  0
ENDBLK
  5
1D
330
1B
100
AcDbEntity
 67
     1
  8
0
100
AcDbBlockEnd
  0
BLOCK
  5
24
330
23
100
AcDbEntity
  8
0
100
AcDbBlockBegin
  2
*Paper_Space0
 70
     0
 71
     0
 10
0.0
 20
0.0
 30
0.0
  3
*Paper_Space0
  1

  0
ENDBLK
  5
25
330
23
100
AcDbEntity
  8
0
100
AcDbBlockEnd
  0
BLOCK
  5
34
330
33
100
AcDbEntity
  8
0
100
AcDbBlockBegin
  2
注記
 70
     0
 71
     0
 10
0.0
 20
0.0
 30
0.0
  3
注記
  1

  0
MTEXT
  5
37
330
33
100
AcDbEntity
  8
0
  6
Continuous
 62
     7
370
     0
100
AcDbMText
 10
0.2636785918
 20
9.0739778448
 30
0.0
 40
3.5
 41
0.0
 71
     1
 72
     1
  1
１．特記ナキ角部ハ、バリ　カエリノ無キコト。
  7
SLDTEXTSTYLE0
 73
     1
 44
1.0
  0
MTEXT
  5
38
330
33
100
AcDbEntity
  8
0
  6
Continuous
 62
     7
370
     0
100
AcDbMText
 10
0.2636785918
 20
3.5759549983
 30
0.0
 40
3.5
 41
0.0
 71
     1
 72
     1
  1
２．特記ナキ隅部ハ、Ｒ０．４ＭＡＸトスル。
  7
SLDTEXTSTYLE0
 73
     1
 44
1.0
  0
ENDBLK
  5
35
330
33
100
AcDbEntity
  8
0
100
AcDbBlockEnd
  0
BLOCK
  5
3A
330
39
100
AcDbEntity
  8
0
100
AcDbBlockBegin
  2
SURFACEFINISH40
 70
     0
 71
     0
 10
0.0
 20
0.0
 30
0.0
  3
SURFACEFINISH40
  1

  0
LINE
  5
3C
330
39
100
AcDbEntity
  8
SLD-0
  6
Continuous
 62
   179
100
AcDbLine
 10
0.6656399396
 20
-6.0449245738
 30
0.0
 11
-2.9003789868
 21
0.0000001164
 31
0.0
  0
LINE
  5
3D
330
39
100
AcDbEntity
  8
SLD-0
  6
Continuous
 62
   179
100
AcDbLine
 10
0.6656399396
 20
-6.0449245738
 30
0.0
 11
7.7976777926
 21
6.0449248066
 31
0.0
  0
MTEXT
  5
3F
330
39
100
AcDbEntity
  8
SLD-0
100
AcDbMText
 10
0.0
 20
4.3931031597
 30
0.0
 40
3.175
 41
0.0
 71
     1
 72
     1
  1
25
  7
SLDTEXTSTYLE1
 73
     1
 44
1.0
  0
ENDBLK
  5
3B
330
39
100
AcDbEntity
  8
0
100
AcDbBlockEnd
  0
BLOCK
  5
41
330
40
100
AcDbEntity
  8
0
100
AcDbBlockBegin
  2
SW_CENTERMARK0
 70
     0
 71
     0
 10
0.0
 20
0.0
 30
0.0
  3
SW_CENTERMARK0
  1

  0
LINE
  5
43
330
40
100
AcDbEntity
  8
SLD-0
  6
Continuous
 62
   179
100
AcDbLine
 10
100.8191598373
 20
188.6442483535
 30
0.0
 11
100.8191598373
 21
191.1442483535
 31
0.0
  0
LINE
  5
44
330
40
100
AcDbEntity
  8
SLD-0
  6
Continuous
 62
   179
100
AcDbLine
 10
100.8191598373
 20
188.6442483535
 30
0.0
 11
98.3191598373
 21
188.6442483535
 31
0.0
  0
LINE
  5
45
330
40
100
AcDbEntity
  8
SLD-0
  6
Continuous
 62
   179
100
AcDbLine
 10
100.8191598373
 20
188.6442483535
 30
0.0
 11
100.8191598373
 21
186.1442483535
 31
0.0
  0
LINE
  5
46
330
40
100
AcDbEntity
  8
SLD-0
  6
Continuous
 62
   179
100
AcDbLine
 10
100.8191598373
 20
188.6442483535
 30
0.0
 11
103.3191598373
 21
188.6442483535
 31
0.0
  0
LINE
  5
47
330
40
100
AcDbEntity
  8
SLD-0
  6
Continuous
 62
   179
100
AcDbLine
 10
100.8191598373
 20
193.6442483535
 30
0.0
 11
100.8191598373
 21
194.2442483535
 31
0.0
  0
LINE
  5
48
330
40
100
AcDbEntity
  8
SLD-0
  6
Continuous
 62
   179
100
AcDbLine
 10
95.8191598373
 20
188.6442483535
 30
0.0
 11
95.2191598373
 21
188.6442483535
 31
0.0
  0
LINE
  5
49
330
40
100
AcDbEntity
  8
SLD-0
  6
Continuous
 62
   179
100
AcDbLine
 10
100.8191598373
 20
183.6442483535
 30
0.0
 11
100.8191598373
 21
183.0442483535
 31
0.0
  0
LINE
  5
4A
330
40
100
AcDbEntity
  8
SLD-0
  6
Continuous
 62
   179
100
AcDbLine
 10
105.8191598373
 20
188.6442483535
 30
0.0
 11
106.4191598373
 21
188.6442483535
 31
0.0
  0
ENDBLK
  5
42
330
40
100
AcDbEntity
  8
0
100
AcDbBlockEnd
  0
BLOCK
  5
4C
330
4B
100
AcDbEntity
  8
0
100
AcDbBlockBegin
  2
SW_CENTERMARK1
 70
     0
 71
     0
 10
0.0
 20
0.0
 30
0.0
  3
SW_CENTERMARK1
  1

  0
LINE
  5
4E
330
4B
100
AcDbEntity
  8
SLD-0
  6
Continuous
 62
   179
100
AcDbLine
 10
100.8191598373
 20
166.1442483535
 30
0.0
 11
100.8191598373
 21
168.6442483535
 31
0.0
  0
LINE
  5
4F
330
4B
100
AcDbEntity
  8
SLD-0
  6
Continuous
 62
   179
100
AcDbLine
 10
100.8191598373
 20
166.1442483535
 30
0.0
 11
98.3191598373
 21
166.1442483535
 31
0.0
  0
LINE
  5
50
330
4B
100
AcDbEntity
  8
SLD-0
  6
Continuous
 62
   179
100
AcDbLine
 10
100.8191598373
 20
166.1442483535
 30
0.0
 11
100.8191598373
 21
163.6442483535
 31
0.0
  0
LINE
  5
51
330
4B
100
AcDbEntity
  8
SLD-0
  6
Continuous
 62
   179
100
AcDbLine
 10
100.8191598373
 20
166.1442483535
 30
0.0
 11
103.3191598373
 21
166.1442483535
 31
0.0
  0
LINE
  5
52
330
4B
100
AcDbEntity
  8
SLD-0
  6
Continuous
 62
   179
100
AcDbLine
 10
100.8191598373
 20
171.1442483535
 30
0.0
 11
100.8191598373
 21
171.7442483535
 31
0.0
  0
LINE
  5
53
330
4B
100
AcDbEntity
  8
SLD-0
  6
Continuous
 62
   179
100
AcDbLine
 10
95.8191598373
 20
166.1442483535
 30
0.0
 11
95.2191598373
 21
166.1442483535
 31
0.0
  0
LINE
  5
54
330
4B
100
AcDbEntity
  8
SLD-0
  6
Continuous
 62
   179
100
AcDbLine
 10
100.8191598373
 20
161.1442483535
 30
0.0
 11
100.8191598373
 21
160.5442483535
 31
0.0
  0
LINE
  5
55
330
4B
100
AcDbEntity
  8
SLD-0
  6
Continuous
 62
   179
100
AcDbLine
 10
105.8191598373
 20
166.1442483535
 30
0.0
 11
106.4191598373
 21
166.1442483535
 31
0.0
  0
ENDBLK
  5
4D
330
4B
100
AcDbEntity
  8
0
100
AcDbBlockEnd
  0
BLOCK
  5
57
330
56
100
AcDbEntity
  8
0
100
AcDbBlockBegin
  2
SW_CENTERMARK2
 70
     0
 71
     0
 10
0.0
 20
0.0
 30
0.0
  3
SW_CENTERMARK2
  1

  0
LINE
  5
59
330
56
100
AcDbEntity
  8
SLD-0
  6
Continuous
 62
   179
100
AcDbLine
 10
85.8191598373
 20
166.1442483535
 30
0.0
 11
85.8191598373
 21
168.6442483535
 31
0.0
  0
LINE
  5
5A
330
56
100
AcDbEntity
  8
SLD-0
  6
Continuous
 62
   179
100
AcDbLine
 10
85.8191598373
 20
166.1442483535
 30
0.0
 11
83.3191598373
 21
166.1442483535
 31
0.0
  0
LINE
  5
5B
330
56
100
AcDbEntity
  8
SLD-0
  6
Continuous
 62
   179
100
AcDbLine
 10
85.8191598373
 20
166.1442483535
 30
0.0
 11
85.8191598373
 21
163.6442483535
 31
0.0
  0
LINE
  5
5C
330
56
100
AcDbEntity
  8
SLD-0
  6
Continuous
 62
   179
100
AcDbLine
 10
85.8191598373
 20
166.1442483535
 30
0.0
 11
88.3191598373
 21
166.1442483535
 31
0.0
  0
LINE
  5
5D
330
56
100
AcDbEntity
  8
SLD-0
  6
Continuous
 62
   179
100
AcDbLine
 10
85.8191598373
 20
171.1442483535
 30
0.0
 11
85.8191598373
 21
171.7442483535
 31
0.0
  0
LINE
  5
5E
330
56
100
AcDbEntity
  8
SLD-0
  6
Continuous
 62
   179
100
AcDbLine
 10
80.8191598373
 20
166.1442483535
 30
0.0
 11
80.2191598373
 21
166.1442483535
 31
0.0
  0
LINE
  5
5F
330
56
100
AcDbEntity
  8
SLD-0
  6
Continuous
 62
   179
100
AcDbLine
 10
85.8191598373
 20
161.1442483535
 30
0.0
 11
85.8191598373
 21
160.5442483535
 31
0.0
  0
LINE
  5
60
330
56
100
AcDbEntity
  8
SLD-0
  6
Continuous
 62
   179
100
AcDbLine
 10
90.8191598373
 20
166.1442483535
 30
0.0
 11
91.4191598373
 21
166.1442483535
 31
0.0
  0
ENDBLK
  5
58
330
56
100
AcDbEntity
  8
0
100
AcDbBlockEnd
  0
BLOCK
  5
62
330
61
100
AcDbEntity
  8
0
100
AcDbBlockBegin
  2
SW_CENTERMARK3
 70
     0
 71
     0
 10
0.0
 20
0.0
 30
0.0
  3
SW_CENTERMARK3
  1

  0
LINE
  5
64
330
61
100
AcDbEntity
  8
SLD-0
  6
Continuous
 62
   179
100
AcDbLine
 10
100.8191598373
 20
143.6442483535
 30
0.0
 11
100.8191598373
 21
146.1442483535
 31
0.0
  0
LINE
  5
65
330
61
100
AcDbEntity
  8
SLD-0
  6
Continuous
 62
   179
100
AcDbLine
 10
100.8191598373
 20
143.6442483535
 30
0.0
 11
98.3191598373
 21
143.6442483535
 31
0.0
  0
LINE
  5
66
330
61
100
AcDbEntity
  8
SLD-0
  6
Continuous
 62
   179
100
AcDbLine
 10
100.8191598373
 20
143.6442483535
 30
0.0
 11
100.8191598373
 21
141.1442483535
 31
0.0
  0
LINE
  5
67
330
61
100
AcDbEntity
  8
SLD-0
  6
Continuous
 62
   179
100
AcDbLine
 10
100.8191598373
 20
143.6442483535
 30
0.0
 11
103.3191598373
 21
143.6442483535
 31
0.0
  0
LINE
  5
68
330
61
100
AcDbEntity
  8
SLD-0
  6
Continuous
 62
   179
100
AcDbLine
 10
100.8191598373
 20
148.6442483535
 30
0.0
 11
100.8191598373
 21
149.2442483535
 31
0.0
  0
LINE
  5
69
330
61
100
AcDbEntity
  8
SLD-0
  6
Continuous
 62
   179
100
AcDbLine
 10
95.8191598373
 20
143.6442483535
 30
0.0
 11
95.2191598373
 21
143.6442483535
 31
0.0
  0
LINE
  5
6A
330
61
100
AcDbEntity
  8
SLD-0
  6
Continuous
 62
   179
100
AcDbLine
 10
100.8191598373
 20
138.6442483535
 30
0.0
 11
100.8191598373
 21
138.0442483535
 31
0.0
  0
LINE
  5
6B
330
61
100
AcDbEntity
  8
SLD-0
  6
Continuous
 62
   179
100
AcDbLine
 10
105.8191598373
 20
143.6442483535
 30
0.0
 11
106.4191598373
 21
143.6442483535
 31
0.0
  0
ENDBLK
  5
63
330
61
100
AcDbEntity
  8
0
100
AcDbBlockEnd
  0
BLOCK
  5
6D
330
6C
100
AcDbEntity
  8
0
100
AcDbBlockBegin
  2
SW_CENTERMARK4
 70
     0
 71
     0
 10
0.0
 20
0.0
 30
0.0
  3
SW_CENTERMARK4
  1

  0
LINE
  5
6F
330
6C
100
AcDbEntity
  8
SLD-0
  6
Continuous
 62
   179
100
AcDbLine
 10
115.8191598373
 20
166.1442483535
 30
0.0
 11
115.8191598373
 21
168.6442483535
 31
0.0
  0
LINE
  5
70
330
6C
100
AcDbEntity
  8
SLD-0
  6
Continuous
 62
   179
100
AcDbLine
 10
115.8191598373
 20
166.1442483535
 30
0.0
 11
113.3191598373
 21
166.1442483535
 31
0.0
  0
LINE
  5
71
330
6C
100
AcDbEntity
  8
SLD-0
  6
Continuous
 62
   179
100
AcDbLine
 10
115.8191598373
 20
166.1442483535
 30
0.0
 11
115.8191598373
 21
163.6442483535
 31
0.0
  0
LINE
  5
72
330
6C
100
AcDbEntity
  8
SLD-0
  6
Continuous
 62
   179
100
AcDbLine
 10
115.8191598373
 20
166.1442483535
 30
0.0
 11
118.3191598373
 21
166.1442483535
 31
0.0
  0
LINE
  5
73
330
6C
100
AcDbEntity
  8
SLD-0
  6
Continuous
 62
   179
100
AcDbLine
 10
115.8191598373
 20
171.1442483535
 30
0.0
 11
115.8191598373
 21
171.7442483535
 31
0.0
  0
LINE
  5
74
330
6C
100
AcDbEntity
  8
SLD-0
  6
Continuous
 62
   179
100
AcDbLine
 10
110.8191598373
 20
166.1442483535
 30
0.0
 11
110.2191598373
 21
166.1442483535
 31
0.0
  0
LINE
  5
75
330
6C
100
AcDbEntity
  8
SLD-0
  6
Continuous
 62
   179
100
AcDbLine
 10
115.8191598373
 20
161.1442483535
 30
0.0
 11
115.8191598373
 21
160.5442483535
 31
0.0
  0
LINE
  5
76
330
6C
100
AcDbEntity
  8
SLD-0
  6
Continuous
 62
   179
100
AcDbLine
 10
120.8191598373
 20
166.1442483535
 30
0.0
 11
121.4191598373
 21
166.1442483535
 31
0.0
  0
ENDBLK
  5
6E
330
6C
100
AcDbEntity
  8
0
100
AcDbBlockEnd
  0
BLOCK
  5
A6
330
9C
100
AcDbEntity
  8
0
100
AcDbBlockBegin
  2
*D8
 70
     1
 71
     0
 10
0.0
 20
0.0
 30
0.0
  3
*D8
  1

  0
LINE
  5
AC
330
9C
100
AcDbEntity
  8
SLD-0
 62
     7
100
AcDbLine
 10
88.3191598373
 20
194.1442483535
 30
0.0
 11
88.3191598373
 21
211.5681309536
 31
0.0
  0
LINE
  5
AD
330
9C
100
AcDbEntity
  8
SLD-0
 62
     7
100
AcDbLine
 10
113.3191598373
 20
194.1442483535
 30
0.0
 11
113.3191598373
 21
211.5681309536
 31
0.0
  0
LINE
  5
AE
330
9C
100
AcDbEntity
  8
SLD-0
 62
     7
100
AcDbLine
 10
88.3191598373
 20
210.5681309536
 30
0.0
 11
113.3191598373
 21
210.5681309536
 31
0.0
  0
LINE
  5
AF
330
9C
100
AcDbEntity
  8
SLD-0
 62
     7
100
AcDbLine
 10
91.3191598373
 20
209.7642839536
 30
0.0
 11
88.3191598373
 21
210.5681309536
 31
0.0
  0
LINE
  5
B0
330
9C
100
AcDbEntity
  8
SLD-0
 62
     7
100
AcDbLine
 10
88.3191598373
 20
210.5681309536
 30
0.0
 11
91.3191598373
 21
211.3719779536
 31
0.0
  0
LINE
  5
B1
330
9C
100
AcDbEntity
  8
SLD-0
 62
     7
100
AcDbLine
 10
88.3191598373
 20
210.5681309536
 30
0.0
 11
91.3191598373
 21
210.5681309536
 31
0.0
  0
LINE
  5
B2
330
9C
100
AcDbEntity
  8
SLD-0
 62
     7
100
AcDbLine
 10
110.3191598373
 20
211.3719779536
 30
0.0
 11
113.3191598373
 21
210.5681309536
 31
0.0
  0
LINE
  5
B3
330
9C
100
AcDbEntity
  8
SLD-0
 62
     7
100
AcDbLine
 10
113.3191598373
 20
210.5681309536
 30
0.0
 11
110.3191598373
 21
209.7642839536
 31
0.0
  0
LINE
  5
B4
330
9C
100
AcDbEntity
  8
SLD-0
 62
     7
100
AcDbLine
 10
113.3191598373
 20
210.5681309536
 30
0.0
 11
110.3191598373
 21
210.5681309536
 31
0.0
  0
MTEXT
  5
B5
330
9C
100
AcDbEntity
  8
SLD-0
 62
     7
100
AcDbMText
 10
98.7837246141
 20
215.0948245331
 30
0.2
 40
3.5
 41
0.0
 71
     1
 72
     1
  1
25
  7
SLDTEXTSTYLE0
 73
     1
 44
1.0
  0
ENDBLK
  5
A7
330
9C
100
AcDbEntity
  8
0
100
AcDbBlockEnd
  0
BLOCK
  5
AA
330
A9
100
AcDbEntity
  8
0
100
AcDbBlockBegin
  2
_None
 70
     0
 71
     0
 10
0.0
 20
0.0
 30
0.0
  3
_None
  1

  0
ENDBLK
  5
AB
330
A9
100
AcDbEntity
  8
0
100
AcDbBlockEnd
  0
BLOCK
  5
C2
330
B7
100
AcDbEntity
  8
0
100
AcDbBlockBegin
  2
*D10
 70
     1
 71
     0
 10
0.0
 20
0.0
 30
0.0
  3
*D10
  1

  0
LINE
  5
C4
330
B7
100
AcDbEntity
  8
SLD-0
 62
     7
100
AcDbLine
 10
80.3191598373
 20
178.6442483535
 30
0.0
 11
65.492075373
 21
178.6442483535
 31
0.0
  0
LINE
  5
C5
330
B7
100
AcDbEntity
  8
SLD-0
 62
     7
100
AcDbLine
 10
80.3191598373
 20
153.6442483535
 30
0.0
 11
65.492075373
 21
153.6442483535
 31
0.0
  0
LINE
  5
C6
330
B7
100
AcDbEntity
  8
SLD-0
 62
     7
100
AcDbLine
 10
66.492075373
 20
178.6442483535
 30
0.0
 11
66.492075373
 21
153.6442483535
 31
0.0
  0
LINE
  5
C7
330
B7
100
AcDbEntity
  8
SLD-0
 62
     7
100
AcDbLine
 10
65.688228373
 20
175.6442483535
 30
0.0
 11
66.492075373
 21
178.6442483535
 31
0.0
  0
LINE
  5
C8
330
B7
100
AcDbEntity
  8
SLD-0
 62
     7
100
AcDbLine
 10
66.492075373
 20
178.6442483535
 30
0.0
 11
67.295922373
 21
175.6442483535
 31
0.0
  0
LINE
  5
C9
330
B7
100
AcDbEntity
  8
SLD-0
 62
     7
100
AcDbLine
 10
66.492075373
 20
178.6442483535
 30
0.0
 11
66.492075373
 21
175.6442483535
 31
0.0
  0
LINE
  5
CA
330
B7
100
AcDbEntity
  8
SLD-0
 62
     7
100
AcDbLine
 10
67.295922373
 20
156.6442483535
 30
0.0
 11
66.492075373
 21
153.6442483535
 31
0.0
  0
LINE
  5
CB
330
B7
100
AcDbEntity
  8
SLD-0
 62
     7
100
AcDbLine
 10
66.492075373
 20
153.6442483535
 30
0.0
 11
65.688228373
 21
156.6442483535
 31
0.0
  0
LINE
  5
CC
330
B7
100
AcDbEntity
  8
SLD-0
 62
     7
100
AcDbLine
 10
66.492075373
 20
153.6442483535
 30
0.0
 11
66.492075373
 21
156.6442483535
 31
0.0
  0
MTEXT
  5
CD
330
B7
100
AcDbEntity
  8
SLD-0
 62
     7
100
AcDbMText
 10
61.9653817935
 20
164.1088131303
 30
0.2
 40
3.5
 41
0.0
 71
     1
 72
     1
  1
25
  7
SLDTEXTSTYLE0
 11
6.123031769111886E-17
 21
1.0
 31
0.0
 73
     1
 44
1.0
  0
ENDBLK
  5
C3
330
B7
100
AcDbEntity
  8
0
100
AcDbBlockEnd
  0
BLOCK
  5
D9
330
CF
100
AcDbEntity
  8
0
100
AcDbBlockBegin
  2
*D11
 70
     1
 71
     0
 10
0.0
 20
0.0
 30
0.0
  3
*D11
  1

  0
LINE
  5
DB
330
CF
100
AcDbEntity
  8
SLD-0
 62
     7
100
AcDbLine
 10
75.8191598373
 20
174.1442483535
 30
0.0
 11
75.8191598373
 21
223.8449415499
 31
0.0
  0
LINE
  5
DC
330
CF
100
AcDbEntity
  8
SLD-0
 62
     7
100
AcDbLine
 10
125.8191598373
 20
174.1442483535
 30
0.0
 11
125.8191598373
 21
223.8449415499
 31
0.0
  0
LINE
  5
DD
330
CF
100
AcDbEntity
  8
SLD-0
 62
     7
100
AcDbLine
 10
75.8191598373
 20
222.8449415499
 30
0.0
 11
125.8191598373
 21
222.8449415499
 31
0.0
  0
LINE
  5
DE
330
CF
100
AcDbEntity
  8
SLD-0
 62
     7
100
AcDbLine
 10
78.8191598373
 20
222.0410945499
 30
0.0
 11
75.8191598373
 21
222.8449415499
 31
0.0
  0
LINE
  5
DF
330
CF
100
AcDbEntity
  8
SLD-0
 62
     7
100
AcDbLine
 10
75.8191598373
 20
222.8449415499
 30
0.0
 11
78.8191598373
 21
223.6487885499
 31
0.0
  0
LINE
  5
E0
330
CF
100
AcDbEntity
  8
SLD-0
 62
     7
100
AcDbLine
 10
75.8191598373
 20
222.8449415499
 30
0.0
 11
78.8191598373
 21
222.8449415499
 31
0.0
  0
LINE
  5
E1
330
CF
100
AcDbEntity
  8
SLD-0
 62
     7
100
AcDbLine
 10
122.8191598373
 20
223.6487885499
 30
0.0
 11
125.8191598373
 21
222.8449415499
 31
0.0
  0
LINE
  5
E2
330
CF
100
AcDbEntity
  8
SLD-0
 62
     7
100
AcDbLine
 10
125.8191598373
 20
222.8449415499
 30
0.0
 11
122.8191598373
 21
222.0410945499
 31
0.0
  0
LINE
  5
E3
330
CF
100
AcDbEntity
  8
SLD-0
 62
     7
100
AcDbLine
 10
125.8191598373
 20
222.8449415499
 30
0.0
 11
122.8191598373
 21
222.8449415499
 31
0.0
  0
MTEXT
  5
E4
330
CF
100
AcDbEntity
  8
SLD-0
 62
     7
100
AcDbMText
 10
98.7837246141
 20
227.3716351294
 30
0.2
 40
3.5
 41
0.0
 71
     1
 72
     1
  1
50
  7
SLDTEXTSTYLE0
 73
     1
 44
1.0
  0
ENDBLK
  5
DA
330
CF
100
AcDbEntity
  8
0
100
AcDbBlockEnd
  0
BLOCK
  5
F1
330
E6
100
AcDbEntity
  8
0
100
AcDbBlockBegin
  2
*D12
 70
     1
 71
     0
 10
0.0
 20
0.0
 30
0.0
  3
*D12
  1

  0
LINE
  5
F3
330
E6
100
AcDbEntity
  8
SLD-0
 62
     7
100
AcDbLine
 10
108.8191598373
 20
198.6442483535
 30
0.0
 11
148.3323078657
 21
198.6442483535
 31
0.0
  0
LINE
  5
F4
330
E6
100
AcDbEntity
  8
SLD-0
 62
     7
100
AcDbLine
 10
108.8191598373
 20
133.6442483535
 30
0.0
 11
148.3323078657
 21
133.6442483535
 31
0.0
  0
LINE
  5
F5
330
E6
100
AcDbEntity
  8
SLD-0
 62
     7
100
AcDbLine
 10
147.3323078657
 20
198.6442483535
 30
0.0
 11
147.3323078657
 21
133.6442483535
 31
0.0
  0
LINE
  5
F6
330
E6
100
AcDbEntity
  8
SLD-0
 62
     7
100
AcDbLine
 10
146.5284608657
 20
195.6442483535
 30
0.0
 11
147.3323078657
 21
198.6442483535
 31
0.0
  0
LINE
  5
F7
330
E6
100
AcDbEntity
  8
SLD-0
 62
     7
100
AcDbLine
 10
147.3323078657
 20
198.6442483535
 30
0.0
 11
148.1361548657
 21
195.6442483535
 31
0.0
  0
LINE
  5
F8
330
E6
100
AcDbEntity
  8
SLD-0
 62
     7
100
AcDbLine
 10
147.3323078657
 20
198.6442483535
 30
0.0
 11
147.3323078657
 21
195.6442483535
 31
0.0
  0
LINE
  5
F9
330
E6
100
AcDbEntity
  8
SLD-0
 62
     7
100
AcDbLine
 10
148.1361548657
 20
136.6442483535
 30
0.0
 11
147.3323078657
 21
133.6442483535
 31
0.0
  0
LINE
  5
FA
330
E6
100
AcDbEntity
  8
SLD-0
 62
     7
100
AcDbLine
 10
147.3323078657
 20
133.6442483535
 30
0.0
 11
146.5284608657
 21
136.6442483535
 31
0.0
  0
LINE
  5
FB
330
E6
100
AcDbEntity
  8
SLD-0
 62
     7
100
AcDbLine
 10
147.3323078657
 20
133.6442483535
 30
0.0
 11
147.3323078657
 21
136.6442483535
 31
0.0
  0
MTEXT
  5
FC
330
E6
100
AcDbEntity
  8
SLD-0
 62
     7
100
AcDbMText
 10
142.8056142861
 20
164.1088131303
 30
0.2
 40
3.5
 41
0.0
 71
     1
 72
     1
  1
65
  7
SLDTEXTSTYLE0
 11
6.123031769111886E-17
 21
1.0
 31
0.0
 73
     1
 44
1.0
  0
ENDBLK
  5
F2
330
E6
100
AcDbEntity
  8
0
100
AcDbBlockEnd
  0
BLOCK
  5
109
330
FE
100
AcDbEntity
  8
0
100
AcDbBlockBegin
  2
*D13
 70
     1
 71
     0
 10
0.0
 20
0.0
 30
0.0
  3
*D13
  1

  0
LINE
  5
10C
330
FE
100
AcDbEntity
  8
SLD-0
 62
     7
100
AcDbLine
 10
101.8191598373
 20
166.1442483535
 30
0.0
 11
138.4251612903
 21
166.1442483535
 31
0.0
  0
LINE
  5
10D
330
FE
100
AcDbEntity
  8
SLD-0
 62
     7
100
AcDbLine
 10
101.8191598373
 20
188.6442483535
 30
0.0
 11
138.4251612903
 21
188.6442483535
 31
0.0
  0
LINE
  5
10E
330
FE
100
AcDbEntity
  8
SLD-0
 62
     7
100
AcDbLine
 10
137.4251612903
 20
166.1442483535
 30
0.0
 11
137.4251612903
 21
188.6442483535
 31
0.0
  0
LINE
  5
10F
330
FE
100
AcDbEntity
  8
SLD-0
 62
     7
100
AcDbLine
 10
138.2290082903
 20
169.1442483535
 30
0.0
 11
137.4251612903
 21
166.1442483535
 31
0.0
  0
LINE
  5
110
330
FE
100
AcDbEntity
  8
SLD-0
 62
     7
100
AcDbLine
 10
137.4251612903
 20
166.1442483535
 30
0.0
 11
136.6213142903
 21
169.1442483535
 31
0.0
  0
LINE
  5
111
330
FE
100
AcDbEntity
  8
SLD-0
 62
     7
100
AcDbLine
 10
137.4251612903
 20
166.1442483535
 30
0.0
 11
137.4251612903
 21
169.1442483535
 31
0.0
  0
LINE
  5
112
330
FE
100
AcDbEntity
  8
SLD-0
 62
     7
100
AcDbLine
 10
136.6213142903
 20
185.6442483535
 30
0.0
 11
137.4251612903
 21
188.6442483535
 31
0.0
  0
LINE
  5
113
330
FE
100
AcDbEntity
  8
SLD-0
 62
     7
100
AcDbLine
 10
137.4251612903
 20
188.6442483535
 30
0.0
 11
138.2290082903
 21
185.6442483535
 31
0.0
  0
LINE
  5
114
330
FE
100
AcDbEntity
  8
SLD-0
 62
     7
100
AcDbLine
 10
137.4251612903
 20
188.6442483535
 30
0.0
 11
137.4251612903
 21
185.6442483535
 31
0.0
  0
MTEXT
  5
115
330
FE
100
AcDbEntity
  8
SLD-0
 62
     7
100
AcDbMText
 10
132.8984677108
 20
173.321550766
 30
0.2
 40
3.5
 41
0.0
 71
     1
 72
     1
  1
22.5
  7
SLDTEXTSTYLE0
 11
6.123031769111886E-17
 21
1.0
 31
0.0
 73
     1
 44
1.0
  0
ENDBLK
  5
10A
330
FE
100
AcDbEntity
  8
0
100
AcDbBlockEnd
  0
BLOCK
  5
121
330
117
100
AcDbEntity
  8
0
100
AcDbBlockBegin
  2
*D14
 70
     1
 71
     0
 10
0.0
 20
0.0
 30
0.0
  3
*D14
  1

  0
LINE
  5
123
330
117
100
AcDbEntity
  8
SLD-0
 62
     7
100
AcDbLine
 10
115.8191598373
 20
165.1442483535
 30
0.0
 11
115.8191598373
 21
118.9743977072
 31
0.0
  0
LINE
  5
124
330
117
100
AcDbEntity
  8
SLD-0
 62
     7
100
AcDbLine
 10
100.8191598373
 20
165.1442483535
 30
0.0
 11
100.8191598373
 21
118.9743977072
 31
0.0
  0
LINE
  5
125
330
117
100
AcDbEntity
  8
SLD-0
 62
     7
100
AcDbLine
 10
115.8191598373
 20
119.9743977072
 30
0.0
 11
100.8191598373
 21
119.9743977072
 31
0.0
  0
LINE
  5
126
330
117
100
AcDbEntity
  8
SLD-0
 62
     7
100
AcDbLine
 10
112.8191598373
 20
120.7782447072
 30
0.0
 11
115.8191598373
 21
119.9743977072
 31
0.0
  0
LINE
  5
127
330
117
100
AcDbEntity
  8
SLD-0
 62
     7
100
AcDbLine
 10
115.8191598373
 20
119.9743977072
 30
0.0
 11
112.8191598373
 21
119.1705507072
 31
0.0
  0
LINE
  5
128
330
117
100
AcDbEntity
  8
SLD-0
 62
     7
100
AcDbLine
 10
115.8191598373
 20
119.9743977072
 30
0.0
 11
112.8191598373
 21
119.9743977072
 31
0.0
  0
LINE
  5
129
330
117
100
AcDbEntity
  8
SLD-0
 62
     7
100
AcDbLine
 10
103.8191598373
 20
119.1705507072
 30
0.0
 11
100.8191598373
 21
119.9743977072
 31
0.0
  0
LINE
  5
12A
330
117
100
AcDbEntity
  8
SLD-0
 62
     7
100
AcDbLine
 10
100.8191598373
 20
119.9743977072
 30
0.0
 11
103.8191598373
 21
120.7782447072
 31
0.0
  0
LINE
  5
12B
330
117
100
AcDbEntity
  8
SLD-0
 62
     7
100
AcDbLine
 10
100.8191598373
 20
119.9743977072
 30
0.0
 11
103.8191598373
 21
119.9743977072
 31
0.0
  0
MTEXT
  5
12C
330
117
100
AcDbEntity
  8
SLD-0
 62
     7
100
AcDbMText
 10
106.2837246141
 20
124.5010912868
 30
0.2
 40
3.5
 41
0.0
 71
     1
 72
     1
  1
15
  7
SLDTEXTSTYLE0
 73
     1
 44
1.0
  0
ENDBLK
  5
122
330
117
100
AcDbEntity
  8
0
100
AcDbBlockEnd
  0
BLOCK
  5
138
330
12E
100
AcDbEntity
  8
0
100
AcDbBlockBegin
  2
*D15
 70
     1
 71
     0
 10
0.0
 20
0.0
 30
0.0
  3
*D15
  1

  0
LINE
  5
13A
330
12E
100
AcDbEntity
  8
SLD-0
 62
     7
100
AcDbLine
 10
100.8191598373
 20
165.1442483535
 30
0.0
 11
100.8191598373
 21
118.9743977072
 31
0.0
  0
LINE
  5
13B
330
12E
100
AcDbEntity
  8
SLD-0
 62
     7
100
AcDbLine
 10
85.8191598373
 20
165.1442483535
 30
0.0
 11
85.8191598373
 21
118.9743977072
 31
0.0
  0
LINE
  5
13C
330
12E
100
AcDbEntity
  8
SLD-0
 62
     7
100
AcDbLine
 10
100.8191598373
 20
119.9743977072
 30
0.0
 11
85.8191598373
 21
119.9743977072
 31
0.0
  0
LINE
  5
13D
330
12E
100
AcDbEntity
  8
SLD-0
 62
     7
100
AcDbLine
 10
97.8191598373
 20
120.7782447072
 30
0.0
 11
100.8191598373
 21
119.9743977072
 31
0.0
  0
LINE
  5
13E
330
12E
100
AcDbEntity
  8
SLD-0
 62
     7
100
AcDbLine
 10
100.8191598373
 20
119.9743977072
 30
0.0
 11
97.8191598373
 21
119.1705507072
 31
0.0
  0
LINE
  5
13F
330
12E
100
AcDbEntity
  8
SLD-0
 62
     7
100
AcDbLine
 10
100.8191598373
 20
119.9743977072
 30
0.0
 11
97.8191598373
 21
119.9743977072
 31
0.0
  0
LINE
  5
140
330
12E
100
AcDbEntity
  8
SLD-0
 62
     7
100
AcDbLine
 10
88.8191598373
 20
119.1705507072
 30
0.0
 11
85.8191598373
 21
119.9743977072
 31
0.0
  0
LINE
  5
141
330
12E
100
AcDbEntity
  8
SLD-0
 62
     7
100
AcDbLine
 10
85.8191598373
 20
119.9743977072
 30
0.0
 11
88.8191598373
 21
120.7782447072
 31
0.0
  0
LINE
  5
142
330
12E
100
AcDbEntity
  8
SLD-0
 62
     7
100
AcDbLine
 10
85.8191598373
 20
119.9743977072
 30
0.0
 11
88.8191598373
 21
119.9743977072
 31
0.0
  0
MTEXT
  5
143
330
12E
100
AcDbEntity
  8
SLD-0
 62
     7
100
AcDbMText
 10
91.2837246141
 20
124.5010912868
 30
0.2
 40
3.5
 41
0.0
 71
     1
 72
     1
  1
15
  7
SLDTEXTSTYLE0
 73
     1
 44
1.0
  0
ENDBLK
  5
139
330
12E
100
AcDbEntity
  8
0
100
AcDbBlockEnd
  0
BLOCK
  5
150
330
145
100
AcDbEntity
  8
0
100
AcDbBlockBegin
  2
*D16
 70
     1
 71
     0
 10
0.0
 20
0.0
 30
0.0
  3
*D16
  1

  0
LINE
  5
152
330
145
100
AcDbEntity
  8
SLD-0
 62
     7
100
AcDbLine
 10
101.8191598373
 20
166.1442483535
 30
0.0
 11
138.4251612903
 21
166.1442483535
 31
0.0
  0
LINE
  5
153
330
145
100
AcDbEntity
  8
SLD-0
 62
     7
100
AcDbLine
 10
101.8191598373
 20
143.6442483535
 30
0.0
 11
138.4251612903
 21
143.6442483535
 31
0.0
  0
LINE
  5
154
330
145
100
AcDbEntity
  8
SLD-0
 62
     7
100
AcDbLine
 10
137.4251612903
 20
166.1442483535
 30
0.0
 11
137.4251612903
 21
143.6442483535
 31
0.0
  0
LINE
  5
155
330
145
100
AcDbEntity
  8
SLD-0
 62
     7
100
AcDbLine
 10
136.6213142903
 20
163.1442483535
 30
0.0
 11
137.4251612903
 21
166.1442483535
 31
0.0
  0
LINE
  5
156
330
145
100
AcDbEntity
  8
SLD-0
 62
     7
100
AcDbLine
 10
137.4251612903
 20
166.1442483535
 30
0.0
 11
138.2290082903
 21
163.1442483535
 31
0.0
  0
LINE
  5
157
330
145
100
AcDbEntity
  8
SLD-0
 62
     7
100
AcDbLine
 10
137.4251612903
 20
166.1442483535
 30
0.0
 11
137.4251612903
 21
163.1442483535
 31
0.0
  0
LINE
  5
158
330
145
100
AcDbEntity
  8
SLD-0
 62
     7
100
AcDbLine
 10
138.2290082903
 20
146.6442483535
 30
0.0
 11
137.4251612903
 21
143.6442483535
 31
0.0
  0
LINE
  5
159
330
145
100
AcDbEntity
  8
SLD-0
 62
     7
100
AcDbLine
 10
137.4251612903
 20
143.6442483535
 30
0.0
 11
136.6213142903
 21
146.6442483535
 31
0.0
  0
LINE
  5
15A
330
145
100
AcDbEntity
  8
SLD-0
 62
     7
100
AcDbLine
 10
137.4251612903
 20
143.6442483535
 30
0.0
 11
137.4251612903
 21
146.6442483535
 31
0.0
  0
MTEXT
  5
15B
330
145
100
AcDbEntity
  8
SLD-0
 62
     7
100
AcDbMText
 10
132.8984677108
 20
150.821550766
 30
0.2
 40
3.5
 41
0.0
 71
     1
 72
     1
  1
22.5
  7
SLDTEXTSTYLE0
 11
6.123031769111886E-17
 21
1.0
 31
0.0
 73
     1
 44
1.0
  0
ENDBLK
  5
151
330
145
100
AcDbEntity
  8
0
100
AcDbBlockEnd
  0
BLOCK
  5
168
330
15D
100
AcDbEntity
  8
0
100
AcDbBlockBegin
  2
*D17
 70
     1
 71
     0
 10
0.0
 20
0.0
 30
0.0
  3
*D17
  1

  0
LINE
  5
16A
330
15D
100
AcDbEntity
  8
SLD-0
 62
     7
100
AcDbLine
 10
92.8191598373
 20
198.6442483535
 30
0.0
 11
65.492075373
 21
198.6442483535
 31
0.0
  0
LINE
  5
16B
330
15D
100
AcDbEntity
  8
SLD-0
 62
     7
100
AcDbLine
 10
80.3191598373
 20
178.6442483535
 30
0.0
 11
65.492075373
 21
178.6442483535
 31
0.0
  0
LINE
  5
16C
330
15D
100
AcDbEntity
  8
SLD-0
 62
     7
100
AcDbLine
 10
66.492075373
 20
198.6442483535
 30
0.0
 11
66.492075373
 21
178.6442483535
 31
0.0
  0
LINE
  5
16D
330
15D
100
AcDbEntity
  8
SLD-0
 62
     7
100
AcDbLine
 10
65.688228373
 20
195.6442483535
 30
0.0
 11
66.492075373
 21
198.6442483535
 31
0.0
  0
LINE
  5
16E
330
15D
100
AcDbEntity
  8
SLD-0
 62
     7
100
AcDbLine
 10
66.492075373
 20
198.6442483535
 30
0.0
 11
67.295922373
 21
195.6442483535
 31
0.0
  0
LINE
  5
16F
330
15D
100
AcDbEntity
  8
SLD-0
 62
     7
100
AcDbLine
 10
66.492075373
 20
198.6442483535
 30
0.0
 11
66.492075373
 21
195.6442483535
 31
0.0
  0
LINE
  5
170
330
15D
100
AcDbEntity
  8
SLD-0
 62
     7
100
AcDbLine
 10
67.295922373
 20
181.6442483535
 30
0.0
 11
66.492075373
 21
178.6442483535
 31
0.0
  0
LINE
  5
171
330
15D
100
AcDbEntity
  8
SLD-0
 62
     7
100
AcDbLine
 10
66.492075373
 20
178.6442483535
 30
0.0
 11
65.688228373
 21
181.6442483535
 31
0.0
  0
LINE
  5
172
330
15D
100
AcDbEntity
  8
SLD-0
 62
     7
100
AcDbLine
 10
66.492075373
 20
178.6442483535
 30
0.0
 11
66.492075373
 21
181.6442483535
 31
0.0
  0
MTEXT
  5
173
330
15D
100
AcDbEntity
  8
SLD-0
 62
     7
100
AcDbMText
 10
61.9653817935
 20
186.6088131303
 30
0.2
 40
3.5
 41
0.0
 71
     1
 72
     1
  1
20
  7
SLDTEXTSTYLE0
 11
6.123031769111886E-17
 21
1.0
 31
0.0
 73
     1
 44
1.0
  0
ENDBLK
  5
169
330
15D
100
AcDbEntity
  8
0
100
AcDbBlockEnd
  0
BLOCK
  5
180
330
175
100
AcDbEntity
  8
0
100
AcDbBlockBegin
  2
*D18
 70
     1
 71
     0
 10
0.0
 20
0.0
 30
0.0
  3
*D18
  1

  0
LINE
  5
182
330
175
100
AcDbEntity
  8
SLD-0
 62
     7
100
AcDbLine
 10
108.8191598373
 20
198.6442483535
 30
0.0
 11
138.4251612903
 21
198.6442483535
 31
0.0
  0
LINE
  5
183
330
175
100
AcDbEntity
  8
SLD-0
 62
     7
100
AcDbLine
 10
101.8191598373
 20
188.6442483535
 30
0.0
 11
138.4251612903
 21
188.6442483535
 31
0.0
  0
LINE
  5
184
330
175
100
AcDbEntity
  8
SLD-0
 62
     7
100
AcDbLine
 10
137.4251612903
 20
198.6442483535
 30
0.0
 11
137.4251612903
 21
203.6442483535
 31
0.0
  0
LINE
  5
185
330
175
100
AcDbEntity
  8
SLD-0
 62
     7
100
AcDbLine
 10
137.4251612903
 20
198.6442483535
 30
0.0
 11
137.4251612903
 21
188.6442483535
 31
0.0
  0
LINE
  5
186
330
175
100
AcDbEntity
  8
SLD-0
 62
     7
100
AcDbLine
 10
137.4251612903
 20
188.6442483535
 30
0.0
 11
137.4251612903
 21
183.6442483535
 31
0.0
  0
LINE
  5
187
330
175
100
AcDbEntity
  8
SLD-0
 62
     7
100
AcDbLine
 10
138.2290082903
 20
201.6442483535
 30
0.0
 11
137.4251612903
 21
198.6442483535
 31
0.0
  0
LINE
  5
188
330
175
100
AcDbEntity
  8
SLD-0
 62
     7
100
AcDbLine
 10
137.4251612903
 20
198.6442483535
 30
0.0
 11
136.6213142903
 21
201.6442483535
 31
0.0
  0
LINE
  5
189
330
175
100
AcDbEntity
  8
SLD-0
 62
     7
100
AcDbLine
 10
137.4251612903
 20
198.6442483535
 30
0.0
 11
137.4251612903
 21
201.6442483535
 31
0.0
  0
LINE
  5
18A
330
175
100
AcDbEntity
  8
SLD-0
 62
     7
100
AcDbLine
 10
136.6213142903
 20
185.6442483535
 30
0.0
 11
137.4251612903
 21
188.6442483535
 31
0.0
  0
LINE
  5
18B
330
175
100
AcDbEntity
  8
SLD-0
 62
     7
100
AcDbLine
 10
137.4251612903
 20
188.6442483535
 30
0.0
 11
138.2290082903
 21
185.6442483535
 31
0.0
  0
LINE
  5
18C
330
175
100
AcDbEntity
  8
SLD-0
 62
     7
100
AcDbLine
 10
137.4251612903
 20
188.6442483535
 30
0.0
 11
137.4251612903
 21
185.6442483535
 31
0.0
  0
MTEXT
  5
18D
330
175
100
AcDbEntity
  8
SLD-0
 62
     7
100
AcDbMText
 10
132.8984677108
 20
191.6088131303
 30
0.2
 40
3.5
 41
0.0
 71
     1
 72
     1
  1
10
  7
SLDTEXTSTYLE0
 11
6.123031769111886E-17
 21
1.0
 31
0.0
 73
     1
 44
1.0
  0
ENDBLK
  5
181
330
175
100
AcDbEntity
  8
0
100
AcDbBlockEnd
  0
BLOCK
  5
199
330
18F
100
AcDbEntity
  8
0
100
AcDbBlockBegin
  2
*D19
 70
     1
 71
     0
 10
0.0
 20
0.0
 30
0.0
  3
*D19
  1

  0
LINE
  5
19B
330
18F
100
AcDbEntity
  8
SLD-0
 62
     7
100
AcDbLine
 10
125.8191598373
 20
174.1442483535
 30
0.0
 11
125.8191598373
 21
211.5681309536
 31
0.0
  0
LINE
  5
19C
330
18F
100
AcDbEntity
  8
SLD-0
 62
     7
100
AcDbLine
 10
113.3191598373
 20
194.1442483535
 30
0.0
 11
113.3191598373
 21
211.5681309536
 31
0.0
  0
LINE
  5
19D
330
18F
100
AcDbEntity
  8
SLD-0
 62
     7
100
AcDbLine
 10
125.8191598373
 20
210.5681309536
 30
0.0
 11
130.8191598373
 21
210.5681309536
 31
0.0
  0
LINE
  5
19E
330
18F
100
AcDbEntity
  8
SLD-0
 62
     7
100
AcDbLine
 10
125.8191598373
 20
210.5681309536
 30
0.0
 11
113.3191598373
 21
210.5681309536
 31
0.0
  0
LINE
  5
19F
330
18F
100
AcDbEntity
  8
SLD-0
 62
     7
100
AcDbLine
 10
113.3191598373
 20
210.5681309536
 30
0.0
 11
108.3191598373
 21
210.5681309536
 31
0.0
  0
LINE
  5
1A0
330
18F
100
AcDbEntity
  8
SLD-0
 62
     7
100
AcDbLine
 10
128.8191598373
 20
209.7642839536
 30
0.0
 11
125.8191598373
 21
210.5681309536
 31
0.0
  0
LINE
  5
1A1
330
18F
100
AcDbEntity
  8
SLD-0
 62
     7
100
AcDbLine
 10
125.8191598373
 20
210.5681309536
 30
0.0
 11
128.8191598373
 21
211.3719779536
 31
0.0
  0
LINE
  5
1A2
330
18F
100
AcDbEntity
  8
SLD-0
 62
     7
100
AcDbLine
 10
125.8191598373
 20
210.5681309536
 30
0.0
 11
128.8191598373
 21
210.5681309536
 31
0.0
  0
LINE
  5
1A3
330
18F
100
AcDbEntity
  8
SLD-0
 62
     7
100
AcDbLine
 10
110.3191598373
 20
211.3719779536
 30
0.0
 11
113.3191598373
 21
210.5681309536
 31
0.0
  0
LINE
  5
1A4
330
18F
100
AcDbEntity
  8
SLD-0
 62
     7
100
AcDbLine
 10
113.3191598373
 20
210.5681309536
 30
0.0
 11
110.3191598373
 21
209.7642839536
 31
0.0
  0
LINE
  5
1A5
330
18F
100
AcDbEntity
  8
SLD-0
 62
     7
100
AcDbLine
 10
113.3191598373
 20
210.5681309536
 30
0.0
 11
110.3191598373
 21
210.5681309536
 31
0.0
  0
MTEXT
  5
1A6
330
18F
100
AcDbEntity
  8
SLD-0
 62
     7
100
AcDbMText
 10
115.4964622498
 20
215.0948245331
 30
0.2
 40
3.5
 41
0.0
 71
     1
 72
     1
  1
12.5
  7
SLDTEXTSTYLE0
 73
     1
 44
1.0
  0
ENDBLK
  5
19A
330
18F
100
AcDbEntity
  8
0
100
AcDbBlockEnd
  0
BLOCK
  5
1B2
330
1A8
100
AcDbEntity
  8
0
100
AcDbBlockBegin
  2
*D20
 70
     1
 71
     0
 10
0.0
 20
0.0
 30
0.0
  3
*D20
  1

  0
LINE
  5
1B4
330
1A8
100
AcDbEntity
  8
SLD-0
 62
     7
100
AcDbLine
 10
115.8191598373
 20
165.1442483535
 30
0.0
 11
115.8191598373
 21
118.9743977072
 31
0.0
  0
LINE
  5
1B5
330
1A8
100
AcDbEntity
  8
SLD-0
 62
     7
100
AcDbLine
 10
125.8191598373
 20
158.1442483535
 30
0.0
 11
125.8191598373
 21
118.9743977072
 31
0.0
  0
LINE
  5
1B6
330
1A8
100
AcDbEntity
  8
SLD-0
 62
     7
100
AcDbLine
 10
115.8191598373
 20
119.9743977072
 30
0.0
 11
110.8191598373
 21
119.9743977072
 31
0.0
  0
LINE
  5
1B7
330
1A8
100
AcDbEntity
  8
SLD-0
 62
     7
100
AcDbLine
 10
115.8191598373
 20
119.9743977072
 30
0.0
 11
125.8191598373
 21
119.9743977072
 31
0.0
  0
LINE
  5
1B8
330
1A8
100
AcDbEntity
  8
SLD-0
 62
     7
100
AcDbLine
 10
125.8191598373
 20
119.9743977072
 30
0.0
 11
130.8191598373
 21
119.9743977072
 31
0.0
  0
LINE
  5
1B9
330
1A8
100
AcDbEntity
  8
SLD-0
 62
     7
100
AcDbLine
 10
112.8191598373
 20
120.7782447072
 30
0.0
 11
115.8191598373
 21
119.9743977072
 31
0.0
  0
LINE
  5
1BA
330
1A8
100
AcDbEntity
  8
SLD-0
 62
     7
100
AcDbLine
 10
115.8191598373
 20
119.9743977072
 30
0.0
 11
112.8191598373
 21
119.1705507072
 31
0.0
  0
LINE
  5
1BB
330
1A8
100
AcDbEntity
  8
SLD-0
 62
     7
100
AcDbLine
 10
115.8191598373
 20
119.9743977072
 30
0.0
 11
112.8191598373
 21
119.9743977072
 31
0.0
  0
LINE
  5
1BC
330
1A8
100
AcDbEntity
  8
SLD-0
 62
     7
100
AcDbLine
 10
128.8191598373
 20
119.1705507072
 30
0.0
 11
125.8191598373
 21
119.9743977072
 31
0.0
  0
LINE
  5
1BD
330
1A8
100
AcDbEntity
  8
SLD-0
 62
     7
100
AcDbLine
 10
125.8191598373
 20
119.9743977072
 30
0.0
 11
128.8191598373
 21
120.7782447072
 31
0.0
  0
LINE
  5
1BE
330
1A8
100
AcDbEntity
  8
SLD-0
 62
     7
100
AcDbLine
 10
125.8191598373
 20
119.9743977072
 30
0.0
 11
128.8191598373
 21
119.9743977072
 31
0.0
  0
MTEXT
  5
1BF
330
1A8
100
AcDbEntity
  8
SLD-0
 62
     7
100
AcDbMText
 10
118.7837246141
 20
124.5010912868
 30
0.2
 40
3.5
 41
0.0
 71
     1
 72
     1
  1
10
  7
SLDTEXTSTYLE0
 73
     1
 44
1.0
  0
ENDBLK
  5
1B3
330
1A8
100
AcDbEntity
  8
0
100
AcDbBlockEnd
  0
ENDSEC
  0
SECTION
  2
ENTITIES
  0
LINE
  5
77
330
1F
100
AcDbEntity
  8
SLD-0
  6
Continuous
 62
   179
100
AcDbLine
 10
20.2604743903
 20
285.0
 30
0.0
 11
196.7604743903
 21
285.0
 31
0.0
  0
LINE
  5
78
330
1F
100
AcDbEntity
  8
SLD-0
  6
Continuous
 62
   179
100
AcDbLine
 10
20.2604743903
 20
285.0
 30
0.0
 11
20.2604743903
 21
10.0
 31
0.0
  0
LINE
  5
79
330
1F
100
AcDbEntity
  8
SLD-0
  6
Continuous
 62
   179
100
AcDbLine
 10
20.2604743903
 20
10.0
 30
0.0
 11
196.7604743903
 21
10.0
 31
0.0
  0
LINE
  5
7A
330
1F
100
AcDbEntity
  8
SLD-0
  6
Continuous
 62
   179
100
AcDbLine
 10
196.7604743903
 20
285.0
 30
0.0
 11
196.7604743903
 21
10.0
 31
0.0
  0
LINE
  5
7B
330
1F
100
AcDbEntity
  8
SLD-0
  6
Continuous
 62
   179
100
AcDbLine
 10
65.7604743903
 20
285.0
 30
0.0
 11
196.7604743903
 21
285.0
 31
0.0
  0
LINE
  5
7C
330
1F
100
AcDbEntity
  8
SLD-0
  6
Continuous
 62
   179
100
AcDbLine
 10
196.7604743903
 20
285.0
 30
0.0
 11
196.7604743903
 21
264.25
 31
0.0
  0
LINE
  5
7D
330
1F
100
AcDbEntity
  8
SLD-0
  6
Continuous
 62
   179
100
AcDbLine
 10
127.0104743903
 20
50.75
 30
0.0
 11
196.7604743903
 21
50.75
 31
0.0
  0
LINE
  5
7E
330
1F
100
AcDbEntity
  8
SLD-0
  6
Continuous
 62
   179
100
AcDbLine
 10
127.0104743903
 20
50.75
 30
0.0
 11
127.0104743903
 21
10.0
 31
0.0
  0
LINE
  5
7F
330
1F
100
AcDbEntity
  8
SLD-0
  6
Continuous
 62
   179
100
AcDbLine
 10
127.0104743903
 20
22.75
 30
0.0
 11
196.7604743903
 21
22.75
 31
0.0
  0
LINE
  5
80
330
1F
100
AcDbEntity
  8
SLD-0
  6
Continuous
 62
   179
100
AcDbLine
 10
127.0104743903
 20
36.75
 30
0.0
 11
196.7604743903
 21
36.75
 31
0.0
  0
LINE
  5
81
330
1F
100
AcDbEntity
  8
SLD-0
  6
Continuous
 62
   179
100
AcDbLine
 10
125.8191598373
 20
159.1442483535
 30
0.0
 11
125.8191598373
 21
173.1442483535
 31
0.0
  0
LINE
  5
82
330
1F
100
AcDbEntity
  8
SLD-0
  6
Continuous
 62
   179
100
AcDbLine
 10
113.3191600235
 20
153.6442481672
 30
0.0
 11
120.3191598373
 21
153.6442483535
 31
0.0
  0
LINE
  5
83
330
1F
100
AcDbEntity
  8
SLD-0
  6
Continuous
 62
   179
100
AcDbLine
 10
113.3191598373
 20
139.1442483535
 30
0.0
 11
113.3191600235
 21
153.6442481672
 31
0.0
  0
LINE
  5
84
330
1F
100
AcDbEntity
  8
SLD-0
  6
Continuous
 62
   179
100
AcDbLine
 10
88.3191598373
 20
193.1442483535
 30
0.0
 11
88.319159651
 21
178.6442485398
 31
0.0
  0
LINE
  5
85
330
1F
100
AcDbEntity
  8
SLD-0
  6
Continuous
 62
   179
100
AcDbLine
 10
107.8191598373
 20
198.6442483535
 30
0.0
 11
93.8191598373
 21
198.6442483535
 31
0.0
  0
LINE
  5
86
330
1F
100
AcDbEntity
  8
SLD-0
  6
Continuous
 62
   179
100
AcDbLine
 10
113.3191600235
 20
178.6442485398
 30
0.0
 11
113.3191598373
 21
193.1442483535
 31
0.0
  0
LINE
  5
87
330
1F
100
AcDbEntity
  8
SLD-0
  6
Continuous
 62
   179
100
AcDbLine
 10
120.3191598373
 20
178.6442483535
 30
0.0
 11
113.3191600235
 21
178.6442485398
 31
0.0
  0
LINE
  5
88
330
1F
100
AcDbEntity
  8
SLD-0
  6
Continuous
 62
   179
100
AcDbLine
 10
88.319159651
 20
178.6442485398
 30
0.0
 11
81.3191598373
 21
178.6442483535
 31
0.0
  0
LINE
  5
89
330
1F
100
AcDbEntity
  8
SLD-0
  6
Continuous
 62
   179
100
AcDbLine
 10
88.319159651
 20
153.6442481672
 30
0.0
 11
88.3191598373
 21
139.1442483535
 31
0.0
  0
LINE
  5
8A
330
1F
100
AcDbEntity
  8
SLD-0
  6
Continuous
 62
   179
100
AcDbLine
 10
81.3191598373
 20
153.6442483535
 30
0.0
 11
88.319159651
 21
153.6442481672
 31
0.0
  0
LINE
  5
8B
330
1F
100
AcDbEntity
  8
SLD-0
  6
Continuous
 62
   179
100
AcDbLine
 10
93.8191598373
 20
133.6442483535
 30
0.0
 11
107.8191598373
 21
133.6442483535
 31
0.0
  0
LINE
  5
8C
330
1F
100
AcDbEntity
  8
SLD-0
  6
Continuous
 62
   179
100
AcDbLine
 10
75.8191598373
 20
173.1442483535
 30
0.0
 11
75.8191598373
 21
159.1442483535
 31
0.0
  0
ARC
  5
8D
330
1F
100
AcDbEntity
  8
SLD-0
  6
Continuous
 62
   179
100
AcDbCircle
 10
120.3191598373
 20
173.1442483535
 30
0.0
 40
5.500000000000014
100
AcDbArc
 50
0.0
 51
90.0
  0
ARC
  5
8E
330
1F
100
AcDbEntity
  8
SLD-0
  6
Continuous
 62
   179
100
AcDbCircle
 10
120.3191598373
 20
159.1442483535
 30
0.0
 40
5.500000000000014
100
AcDbArc
 50
270.0
 51
0.0
  0
ARC
  5
8F
330
1F
100
AcDbEntity
  8
SLD-0
  6
Continuous
 62
   179
100
AcDbCircle
 10
93.8191598373
 20
193.1442483535
 30
0.0
 40
5.5
100
AcDbArc
 50
90.0
 51
180.0
  0
ARC
  5
90
330
1F
100
AcDbEntity
  8
SLD-0
  6
Continuous
 62
   179
100
AcDbCircle
 10
107.8191598373
 20
193.1442483535
 30
0.0
 40
5.5
100
AcDbArc
 50
0.0
 51
90.0
  0
ARC
  5
91
330
1F
100
AcDbEntity
  8
SLD-0
  6
Continuous
 62
   179
100
AcDbCircle
 10
93.8191598373
 20
139.1442483535
 30
0.0
 40
5.500000000000028
100
AcDbArc
 50
180.0
 51
270.0
  0
ARC
  5
92
330
1F
100
AcDbEntity
  8
SLD-0
  6
Continuous
 62
   179
100
AcDbCircle
 10
81.3191598373
 20
159.1442483535
 30
0.0
 40
5.5
100
AcDbArc
 50
180.0
 51
270.0
  0
ARC
  5
93
330
1F
100
AcDbEntity
  8
SLD-0
  6
Continuous
 62
   179
100
AcDbCircle
 10
107.8191598373
 20
139.1442483535
 30
0.0
 40
5.500000000000028
100
AcDbArc
 50
270.0
 51
0.0
  0
ARC
  5
94
330
1F
100
AcDbEntity
  8
SLD-0
  6
Continuous
 62
   179
100
AcDbCircle
 10
81.3191598373
 20
173.1442483535
 30
0.0
 40
5.5
100
AcDbArc
 50
90.0
 51
180.0
  0
CIRCLE
  5
95
330
1F
100
AcDbEntity
  8
SLD-0
  6
Continuous
 62
   179
100
AcDbCircle
 10
100.8191598373
 20
166.1442483535
 30
0.0
 40
3.100000000000009
  0
CIRCLE
  5
96
330
1F
100
AcDbEntity
  8
SLD-0
  6
Continuous
 62
   179
100
AcDbCircle
 10
115.8191598373
 20
166.1442483535
 30
0.0
 40
3.100000000000009
  0
CIRCLE
  5
97
330
1F
100
AcDbEntity
  8
SLD-0
  6
Continuous
 62
   179
100
AcDbCircle
 10
100.8191598373
 20
143.6442483535
 30
0.0
 40
3.100000000000009
  0
CIRCLE
  5
98
330
1F
100
AcDbEntity
  8
SLD-0
  6
Continuous
 62
   179
100
AcDbCircle
 10
85.8191598373
 20
166.1442483535
 30
0.0
 40
3.100000000000009
  0
CIRCLE
  5
99
330
1F
100
AcDbEntity
  8
SLD-0
  6
Continuous
 62
   179
100
AcDbCircle
 10
100.8191598373
 20
188.6442483535
 30
0.0
 40
3.100000000000009
  0
DIMENSION
  5
9A
330
1F
100
AcDbEntity
  8
SLD-0
 62
     7
100
AcDbDimension
  2
*D8
 10
113.3191598373
 20
210.5681309536
 30
0.0
 11
100.8191598373
 21
210.5681309536
 31
0.0
 70
   160
 71
     1
 42
25.0
  3
SLDDIMSTYLE0
100
AcDbAlignedDimension
 13
88.3191598373
 23
193.1442483535
 33
0.0
 14
113.3191598373
 24
193.1442483535
 34
0.0
100
AcDbRotatedDimension
1001
ACAD
1000
DSTYLE
1002
{
1070
    77
1070
     3
1070
   143
1040
0.0393700787
1070
    41
1040
3.0
1070
    44
1040
1.0
1070
    42
1040
1.0
1070
   147
1040
1.524
1070
    73
1070
     0
1070
    74
1070
     0
1070
   140
1040
3.5
1070
   284
1070
    12
1070
    78
1070
    12
1002
}
  0
DIMENSION
  5
B6
330
1F
100
AcDbEntity
  8
SLD-0
 62
     7
100
AcDbDimension
  2
*D10
 10
66.492075373
 20
153.6442483535
 30
0.0
 11
66.492075373
 21
166.1442483535
 31
0.0
 70
   160
 71
     1
 42
25.0
  3
SLDDIMSTYLE0
100
AcDbAlignedDimension
 13
81.3191598373
 23
178.6442483535
 33
0.0
 14
81.3191598373
 24
153.6442483535
 34
0.0
 50
90.0
100
AcDbRotatedDimension
1001
ACAD
1000
DSTYLE
1002
{
1070
    77
1070
     3
1070
   143
1040
0.0393700787
1070
    41
1040
3.0
1070
    44
1040
1.0
1070
    42
1040
1.0
1070
   147
1040
1.524
1070
    73
1070
     0
1070
    74
1070
     0
1070
   140
1040
3.5
1070
   284
1070
    12
1070
    78
1070
    12
1002
}
  0
DIMENSION
  5
CE
330
1F
100
AcDbEntity
  8
SLD-0
 62
     7
100
AcDbDimension
  2
*D11
 10
125.8191598373
 20
222.8449415499
 30
0.0
 11
100.8191598373
 21
222.8449415499
 31
0.0
 70
   160
 71
     1
 42
50.0
  3
SLDDIMSTYLE0
100
AcDbAlignedDimension
 13
75.8191598373
 23
173.1442483535
 33
0.0
 14
125.8191598373
 24
173.1442483535
 34
0.0
100
AcDbRotatedDimension
1001
ACAD
1000
DSTYLE
1002
{
1070
    77
1070
     3
1070
   143
1040
0.0393700787
1070
    41
1040
3.0
1070
    44
1040
1.0
1070
    42
1040
1.0
1070
   147
1040
1.524
1070
    73
1070
     0
1070
    74
1070
     0
1070
   140
1040
3.5
1070
   284
1070
    12
1070
    78
1070
    12
1002
}
  0
DIMENSION
  5
E5
330
1F
100
AcDbEntity
  8
SLD-0
 62
     7
100
AcDbDimension
  2
*D12
 10
147.3323078657
 20
133.6442483535
 30
0.0
 11
147.3323078657
 21
166.1442483535
 31
0.0
 70
   160
 71
     1
 42
65.0
  3
SLDDIMSTYLE0
100
AcDbAlignedDimension
 13
107.8191598373
 23
198.6442483535
 33
0.0
 14
107.8191598373
 24
133.6442483535
 34
0.0
 50
90.0
100
AcDbRotatedDimension
1001
ACAD
1000
DSTYLE
1002
{
1070
    77
1070
     3
1070
   143
1040
0.0393700787
1070
    41
1040
3.0
1070
    44
1040
1.0
1070
    42
1040
1.0
1070
   147
1040
1.524
1070
    73
1070
     0
1070
    74
1070
     0
1070
   140
1040
3.5
1070
   284
1070
    12
1070
    78
1070
    12
1002
}
  0
DIMENSION
  5
FD
330
1F
100
AcDbEntity
  8
SLD-0
 62
     7
100
AcDbDimension
  2
*D13
 10
137.4251612903
 20
188.6442483535
 30
0.0
 11
137.4251612903
 21
177.3942483535
 31
0.0
 70
   160
 71
     1
 42
22.5
  3
SLDDIMSTYLE1
100
AcDbAlignedDimension
 13
100.8191598373
 23
166.1442483535
 33
0.0
 14
100.8191598373
 24
188.6442483535
 34
0.0
 50
90.0
100
AcDbRotatedDimension
1001
ACAD
1000
DSTYLE
1002
{
1070
    77
1070
     3
1070
   143
1040
0.0393700787
1070
    41
1040
3.0
1070
    44
1040
1.0
1070
    42
1040
1.0
1070
   147
1040
1.524
1070
    73
1070
     0
1070
    74
1070
     0
1070
   140
1040
3.5
1070
   284
1070
    12
1070
    78
1070
    12
1002
}
  0
DIMENSION
  5
116
330
1F
100
AcDbEntity
  8
SLD-0
 62
     7
100
AcDbDimension
  2
*D14
 10
100.8191598373
 20
119.9743977072
 30
0.0
 11
108.3191598373
 21
119.9743977072
 31
0.0
 70
   160
 71
     1
 42
15.0
  3
SLDDIMSTYLE0
100
AcDbAlignedDimension
 13
115.8191598373
 23
166.1442483535
 33
0.0
 14
100.8191598373
 24
166.1442483535
 34
0.0
100
AcDbRotatedDimension
1001
ACAD
1000
DSTYLE
1002
{
1070
    77
1070
     3
1070
   143
1040
0.0393700787
1070
    41
1040
3.0
1070
    44
1040
1.0
1070
    42
1040
1.0
1070
   147
1040
1.524
1070
    73
1070
     0
1070
    74
1070
     0
1070
   140
1040
3.5
1070
   284
1070
    12
1070
    78
1070
    12
1002
}
  0
DIMENSION
  5
12D
330
1F
100
AcDbEntity
  8
SLD-0
 62
     7
100
AcDbDimension
  2
*D15
 10
85.8191598373
 20
119.9743977072
 30
0.0
 11
93.3191598373
 21
119.9743977072
 31
0.0
 70
   160
 71
     1
 42
15.0
  3
SLDDIMSTYLE0
100
AcDbAlignedDimension
 13
100.8191598373
 23
166.1442483535
 33
0.0
 14
85.8191598373
 24
166.1442483535
 34
0.0
100
AcDbRotatedDimension
1001
ACAD
1000
DSTYLE
1002
{
1070
    77
1070
     3
1070
   143
1040
0.0393700787
1070
    41
1040
3.0
1070
    44
1040
1.0
1070
    42
1040
1.0
1070
   147
1040
1.524
1070
    73
1070
     0
1070
    74
1070
     0
1070
   140
1040
3.5
1070
   284
1070
    12
1070
    78
1070
    12
1002
}
  0
DIMENSION
  5
144
330
1F
100
AcDbEntity
  8
SLD-0
 62
     7
100
AcDbDimension
  2
*D16
 10
137.4251612903
 20
143.6442483535
 30
0.0
 11
137.4251612903
 21
154.8942483535
 31
0.0
 70
   160
 71
     1
 42
22.5
  3
SLDDIMSTYLE1
100
AcDbAlignedDimension
 13
100.8191598373
 23
166.1442483535
 33
0.0
 14
100.8191598373
 24
143.6442483535
 34
0.0
 50
90.0
100
AcDbRotatedDimension
1001
ACAD
1000
DSTYLE
1002
{
1070
    77
1070
     3
1070
   143
1040
0.0393700787
1070
    41
1040
3.0
1070
    44
1040
1.0
1070
    42
1040
1.0
1070
   147
1040
1.524
1070
    73
1070
     0
1070
    74
1070
     0
1070
   140
1040
3.5
1070
   284
1070
    12
1070
    78
1070
    12
1002
}
  0
DIMENSION
  5
15C
330
1F
100
AcDbEntity
  8
SLD-0
 62
     7
100
AcDbDimension
  2
*D17
 10
66.492075373
 20
178.6442483535
 30
0.0
 11
66.492075373
 21
188.6442483535
 31
0.0
 70
   160
 71
     1
 42
20.0
  3
SLDDIMSTYLE0
100
AcDbAlignedDimension
 13
93.8191598373
 23
198.6442483535
 33
0.0
 14
81.3191598373
 24
178.6442483535
 34
0.0
 50
90.0
100
AcDbRotatedDimension
1001
ACAD
1000
DSTYLE
1002
{
1070
    77
1070
     3
1070
   143
1040
0.0393700787
1070
    41
1040
3.0
1070
    44
1040
1.0
1070
    42
1040
1.0
1070
   147
1040
1.524
1070
    73
1070
     0
1070
    74
1070
     0
1070
   140
1040
3.5
1070
   284
1070
    12
1070
    78
1070
    12
1002
}
  0
DIMENSION
  5
174
330
1F
100
AcDbEntity
  8
SLD-0
 62
     7
100
AcDbDimension
  2
*D18
 10
137.4251612903
 20
188.6442483535
 30
0.0
 11
137.4251612903
 21
193.6442483535
 31
0.0
 70
   160
 71
     1
 42
10.0
  3
SLDDIMSTYLE0
100
AcDbAlignedDimension
 13
107.8191598373
 23
198.6442483535
 33
0.0
 14
100.8191598373
 24
188.6442483535
 34
0.0
 50
90.0
100
AcDbRotatedDimension
1001
ACAD
1000
DSTYLE
1002
{
1070
    77
1070
     3
1070
   143
1040
0.0393700787
1070
    41
1040
3.0
1070
    44
1040
1.0
1070
    42
1040
1.0
1070
   147
1040
1.524
1070
    73
1070
     0
1070
    74
1070
     0
1070
   140
1040
3.5
1070
   284
1070
    12
1070
    78
1070
    12
1002
}
  0
DIMENSION
  5
18E
330
1F
100
AcDbEntity
  8
SLD-0
 62
     7
100
AcDbDimension
  2
*D19
 10
113.3191598373
 20
210.5681309536
 30
0.0
 11
119.5691598373
 21
210.5681309536
 31
0.0
 70
   160
 71
     1
 42
12.5
  3
SLDDIMSTYLE1
100
AcDbAlignedDimension
 13
125.8191598373
 23
173.1442483535
 33
0.0
 14
113.3191598373
 24
193.1442483535
 34
0.0
100
AcDbRotatedDimension
1001
ACAD
1000
DSTYLE
1002
{
1070
    77
1070
     3
1070
   143
1040
0.0393700787
1070
    41
1040
3.0
1070
    44
1040
1.0
1070
    42
1040
1.0
1070
   147
1040
1.524
1070
    73
1070
     0
1070
    74
1070
     0
1070
   140
1040
3.5
1070
   284
1070
    12
1070
    78
1070
    12
1002
}
  0
DIMENSION
  5
1A7
330
1F
100
AcDbEntity
  8
SLD-0
 62
     7
100
AcDbDimension
  2
*D20
 10
125.8191598373
 20
119.9743977072
 30
0.0
 11
120.8191598373
 21
119.9743977072
 31
0.0
 70
   160
 71
     1
 42
10.0
  3
SLDDIMSTYLE0
100
AcDbAlignedDimension
 13
115.8191598373
 23
166.1442483535
 33
0.0
 14
125.8191598373
 24
159.1442483535
 34
0.0
100
AcDbRotatedDimension
1001
ACAD
1000
DSTYLE
1002
{
1070
    77
1070
     3
1070
   143
1040
0.0393700787
1070
    41
1040
3.0
1070
    44
1040
1.0
1070
    42
1040
1.0
1070
   147
1040
1.524
1070
    73
1070
     0
1070
    74
1070
     0
1070
   140
1040
3.5
1070
   284
1070
    12
1070
    78
1070
    12
1002
}
  0
MTEXT
  5
1C0
330
1F
100
AcDbEntity
  8
SLD-0
 62
     7
100
AcDbMText
 10
142.1383440308
 20
98.4720217439
 30
0.0
 40
4.2333333333
 41
0.0
 71
     1
 72
     1
  1
t= 3.2
  7
SLDTEXTSTYLE1
 73
     1
 44
1.0
  0
MTEXT
  5
1C2
330
1F
100
AcDbEntity
  8
SLD-0
 62
     7
100
AcDbMText
 10
154.6594701237
 20
16.9746507873
 30
0.0
 40
3.5
 41
0.0
 71
     1
 72
     1
  1
131046
  7
SLDTEXTSTYLE2
 73
     1
 44
1.0
  0
MTEXT
  5
1C3
330
1F
100
AcDbEntity
  8
SLD-0
 62
     7
100
AcDbMText
 10
147.4000238348
 20
28.9925274519
 30
0.0
 40
4.2333333333
 41
0.0
 71
     1
 72
     1
  1
N01913-105-1
  7
SLDTEXTSTYLE1
 73
     1
 44
1.0
  0
MTEXT
  5
1C5
330
1F
100
AcDbEntity
  8
SLD-0
 62
     7
100
AcDbMText
 10
131.2948107604
 20
43.0507336853
 30
0.0
 40
4.2333333333
 41
0.0
 71
     1
 72
     1
  1
25 Connecter Plate E
  7
SLDTEXTSTYLE3
 73
     1
 44
1.0
  0
INSERT
  5
1C6
330
1F
100
AcDbEntity
  8
0
  6
Continuous
 62
     7
370
     0
100
AcDbBlockReference
  2
SURFACEFINISH40
 10
182.4557737851
 20
252.8436555044
 30
0.0
  0
INSERT
  5
1C7
330
1F
100
AcDbEntity
  8
0
  6
Continuous
 62
     7
370
     0
100
AcDbBlockReference
  2
注記
 10
107.5126761974
 20
55.0286826459
 30
0.0
  0
INSERT
  5
1C8
330
1F
100
AcDbEntity
  8
0
  6
Continuous
 62
     7
370
     0
100
AcDbBlockReference
  2
SW_CENTERMARK0
 10
0.0
 20
0.0
 30
0.0
  0
INSERT
  5
1C9
330
1F
100
AcDbEntity
  8
0
  6
Continuous
 62
     7
370
     0
100
AcDbBlockReference
  2
SW_CENTERMARK1
 10
0.0
 20
0.0
 30
0.0
  0
INSERT
  5
1CA
330
1F
100
AcDbEntity
  8
0
  6
Continuous
 62
     7
370
     0
100
AcDbBlockReference
  2
SW_CENTERMARK2
 10
0.0
 20
0.0
 30
0.0
  0
INSERT
  5
1CB
330
1F
100
AcDbEntity
  8
0
  6
Continuous
 62
     7
370
     0
100
AcDbBlockReference
  2
SW_CENTERMARK3
 10
0.0
 20
0.0
 30
0.0
  0
INSERT
  5
1CC
330
1F
100
AcDbEntity
  8
0
  6
Continuous
 62
     7
370
     0
100
AcDbBlockReference
  2
SW_CENTERMARK4
 10
0.0
 20
0.0
 30
0.0
  0
ENDSEC
  0
SECTION
  2
OBJECTS
  0
DICTIONARY
  5
C
330
0
100
AcDbDictionary
281
     1
  3
ACAD_GROUP
350
D
  3
ACAD_LAYOUT
350
1A
  3
ACAD_MLINESTYLE
350
17
  3
ACAD_PLOTSETTINGS
350
19
  3
ACAD_PLOTSTYLENAME
350
E
  0
DICTIONARY
  5
D
102
{ACAD_REACTORS
330
C
102
}
330
C
100
AcDbDictionary
281
     1
  0
DICTIONARY
  5
1A
102
{ACAD_REACTORS
330
C
102
}
330
C
100
AcDbDictionary
281
     1
  3
Layout1
350
1E
  3
Layout2
350
26
  3
Model
350
22
  0
DICTIONARY
  5
17
102
{ACAD_REACTORS
330
C
102
}
330
C
100
AcDbDictionary
281
     1
  3
Standard
350
18
  0
DICTIONARY
  5
19
102
{ACAD_REACTORS
330
C
102
}
330
C
100
AcDbDictionary
281
     1
  0
ACDBDICTIONARYWDFLT
  5
E
102
{ACAD_REACTORS
330
C
102
}
330
C
100
AcDbDictionary
281
     1
  3
Normal
350
F
100
AcDbDictionaryWithDefault
340
F
  0
LAYOUT
  5
1E
102
{ACAD_REACTORS
330
1A
102
}
330
1A
100
AcDbPlotSettings
  1

  2

  4

  6

 40
0.0
 41
0.0
 42
0.0
 43
0.0
 44
0.0
 45
0.0
 46
0.0
 47
0.0
 48
0.0
 49
0.0
140
0.0
141
0.0
142
1.0
143
1.0
 70
   688
 72
     0
 73
     0
 74
     5
  7

 75
    16
147
1.0
148
0.0
149
0.0
100
AcDbLayout
  1
Layout1
 70
     1
 71
     1
 10
0.0
 20
0.0
 11
0.0
 21
0.0
 12
0.0
 22
0.0
 32
0.0
 14
0.0
 24
0.0
 34
0.0
 15
0.0
 25
0.0
 35
0.0
146
0.0
 13
0.0
 23
0.0
 33
0.0
 16
1.0
 26
0.0
 36
0.0
 17
0.0
 27
1.0
 37
0.0
 76
     0
330
1B
  0
LAYOUT
  5
26
102
{ACAD_REACTORS
330
1A
102
}
330
1A
100
AcDbPlotSettings
  1

  2

  4

  6

 40
0.0
 41
0.0
 42
0.0
 43
0.0
 44
0.0
 45
0.0
 46
0.0
 47
0.0
 48
0.0
 49
0.0
140
0.0
141
0.0
142
1.0
143
1.0
 70
   688
 72
     0
 73
     0
 74
     5
  7

 75
    16
147
1.0
148
0.0
149
0.0
100
AcDbLayout
  1
Layout2
 70
     1
 71
     2
 10
0.0
 20
0.0
 11
0.0
 21
0.0
 12
0.0
 22
0.0
 32
0.0
 14
0.0
 24
0.0
 34
0.0
 15
0.0
 25
0.0
 35
0.0
146
0.0
 13
0.0
 23
0.0
 33
0.0
 16
1.0
 26
0.0
 36
0.0
 17
0.0
 27
1.0
 37
0.0
 76
     0
330
23
  0
LAYOUT
  5
22
102
{ACAD_REACTORS
330
1A
102
}
330
1A
100
AcDbPlotSettings
  1

  2

  4

  6

 40
0.0
 41
0.0
 42
0.0
 43
0.0
 44
0.0
 45
0.0
 46
0.0
 47
0.0
 48
0.0
 49
0.0
140
0.0
141
0.0
142
1.0
143
1.0
 70
  1712
 72
     0
 73
     0
 74
     0
  7

 75
     0
147
1.0
148
0.0
149
0.0
100
AcDbLayout
  1
Model
 70
     1
 71
     0
 10
0.0
 20
0.0
 11
0.0
 21
0.0
 12
0.0
 22
0.0
 32
0.0
 14
0.0
 24
0.0
 34
0.0
 15
210.0
 25
297.0
 35
0.0
146
0.0
 13
0.0
 23
0.0
 33
0.0
 16
1.0
 26
0.0
 36
0.0
 17
0.0
 27
1.0
 37
0.0
 76
     0
330
1F
  0
MLINESTYLE
  5
18
102
{ACAD_REACTORS
330
17
102
}
330
17
100
AcDbMlineStyle
  2
Standard
 70
     0
  3

 62
   256
 51
90.0
 52
90.0
 71
     2
 49
0.5
 62
   256
  6
BYLAYER
 49
-0.5
 62
   256
  6
BYLAYER
  0
ACDBPLACEHOLDER
  5
F
102
{ACAD_REACTORS
330
E
102
}
330
E
  0
ENDSEC
  0
EOF
