  0
SECTION
  2
HEADER
  9
$ACADVER
  1
AC1015
  9
$ACADMAINTVER
 70
     6
  9
$DWGCODEPAGE
  3
DOS932
  9
$INSBASE
 10
0.0
 20
0.0
 30
0.0
  9
$EXTMIN
 10
0.0
 20
0.0
 30
0.0
  9
$EXTMAX
 10
210.0
 20
297.0
 30
0.0
  9
$LIMMIN
 10
0.0
 20
0.0
  9
$LIMMAX
 10
0.0
 20
0.0
  9
$ORTHOMODE
 70
     0
  9
$REGENMODE
 70
     1
  9
$FILLMODE
 70
     1
  9
$QTEXTMODE
 70
     0
  9
$MIRRTEXT
 70
     1
  9
$LTSCALE
 40
1.0
  9
$ATTMODE
 70
     1
  9
$TEXTSIZE
 40
3.5
  9
$TRACEWID
 40
1.0
  9
$TEXTSTYLE
  7
Standard
  9
$CLAYER
  8
0
  9
$CELTYPE
  6
ByLayer
  9
$CECOLOR
 62
   256
  9
$CELTSCALE
 40
1.0
  9
$DISPSILH
 70
     0
  9
$DIMSCALE
 40
1.0
  9
$DIMASZ
 40
3.0
  9
$DIMEXO
 40
1.0
  9
$DIMDLI
 40
3.75
  9
$DIMRND
 40
0.0
  9
$DIMDLE
 40
0.0
  9
$DIMEXE
 40
1.0
  9
$DIMTP
 40
0.0
  9
$DIMTM
 40
0.0
  9
$DIMTXT
 40
3.5
  9
$DIMCEN
 40
2.5
  9
$DIMTSZ
 40
0.0
  9
$DIMTOL
 70
     0
  9
$DIMLIM
 70
     0
  9
$DIMTIH
 70
     1
  9
$DIMTOH
 70
     1
  9
$DIMSE1
 70
     0
  9
$DIMSE2
 70
     0
  9
$DIMTAD
 70
     1
  9
$DIMZIN
 70
     1
  9
$DIMBLK
  1

  9
$DIMASO
 70
     1
  9
$DIMSHO
 70
     1
  9
$DIMPOST
  1

  9
$DIMAPOST
  1

  9
$DIMALT
 70
     0
  9
$DIMALTD
 70
     3
  9
$DIMALTF
 40
0.0393700787
  9
$DIMLFAC
 40
1.0
  9
$DIMTOFL
 70
     1
  9
$DIMTVP
 40
0.0
  9
$DIMTIX
 70
     0
  9
$DIMSOXD
 70
     0
  9
$DIMSAH
 70
     0
  9
$DIMBLK1
  1

  9
$DIMBLK2
  1

  9
$DIMSTYLE
  2
ISO-25
  9
$DIMCLRD
 70
     0
  9
$DIMCLRE
 70
     0
  9
$DIMCLRT
 70
     0
  9
$DIMTFAC
 40
1.0
  9
$DIMGAP
 40
1.524
  9
$DIMJUST
 70
     0
  9
$DIMSD1
 70
     0
  9
$DIMSD2
 70
     0
  9
$DIMTOLJ
 70
     0
  9
$DIMTZIN
 70
     1
  9
$DIMALTZ
 70
     0
  9
$DIMALTTZ
 70
     0
  9
$DIMUPT
 70
     0
  9
$DIMDEC
 70
     2
  9
$DIMTDEC
 70
     2
  9
$DIMALTU
 70
     2
  9
$DIMALTTD
 70
     3
  9
$DIMTXSTY
  7
Standard
  9
$DIMAUNIT
 70
     0
  9
$DIMADEC
 70
     0
  9
$DIMALTRND
 40
0.0
  9
$DIMAZIN
 70
     0
  9
$DIMDSEP
 70
    44
  9
$DIMATFIT
 70
     3
  9
$DIMFRAC
 70
     0
  9
$DIMLDRBLK
  1

  9
$DIMLUNIT
 70
     2
  9
$DIMLWD
 70
    -2
  9
$DIMLWE
 70
    -2
  9
$DIMTMOVE
 70
     0
  9
$LUNITS
 70
     2
  9
$LUPREC
 70
     1
  9
$SKETCHINC
 40
1.0
  9
$FILLETRAD
 40
10.0
  9
$AUNITS
 70
     0
  9
$AUPREC
 70
     0
  9
$MENU
  1
.
  9
$ELEVATION
 40
0.0
  9
$PELEVATION
 40
0.0
  9
$THICKNESS
 40
0.0
  9
$LIMCHECK
 70
     0
  9
$CHAMFERA
 40
10.0
  9
$CHAMFERB
 40
10.0
  9
$CHAMFERC
 40
20.0
  9
$CHAMFERD
 40
0.0
  9
$SKPOLY
 70
     0
  9
$TDCREATE
 40
2454309.44566044
  9
$TDUCREATE
 40
2454309.07066044
  9
$TDUPDATE
 40
2454309.445660451
  9
$TDUUPDATE
 40
2454309.070660451
  9
$TDINDWG
 40
0.0000000116
  9
$TDUSRTIMER
 40
0.0000000116
  9
$USRTIMER
 70
     1
  9
$ANGBASE
 50
0.0
  9
$ANGDIR
 70
     0
  9
$PDMODE
 70
     0
  9
$PDSIZE
 40
-1.0
  9
$PLINEWID
 40
0.0
  9
$SPLFRAME
 70
     0
  9
$SPLINETYPE
 70
     6
  9
$SPLINESEGS
 70
     8
  9
$HANDSEED
  5
27F
  9
$SURFTAB1
 70
     6
  9
$SURFTAB2
 70
     6
  9
$SURFTYPE
 70
     6
  9
$SURFU
 70
     6
  9
$SURFV
 70
     6
  9
$UCSBASE
  2

  9
$UCSNAME
  2

  9
$UCSORG
 10
0.0
 20
0.0
 30
0.0
  9
$UCSXDIR
 10
1.0
 20
0.0
 30
0.0
  9
$UCSYDIR
 10
0.0
 20
1.0
 30
0.0
  9
$UCSORTHOREF
  2

  9
$UCSORTHOVIEW
 70
     0
  9
$UCSORGTOP
 10
0.0
 20
0.0
 30
0.0
  9
$UCSORGBOTTOM
 10
0.0
 20
0.0
 30
0.0
  9
$UCSORGLEFT
 10
0.0
 20
0.0
 30
0.0
  9
$UCSORGRIGHT
 10
0.0
 20
0.0
 30
0.0
  9
$UCSORGFRONT
 10
0.0
 20
0.0
 30
0.0
  9
$UCSORGBACK
 10
0.0
 20
0.0
 30
0.0
  9
$PUCSBASE
  2

  9
$PUCSNAME
  2

  9
$PUCSORG
 10
0.0
 20
0.0
 30
0.0
  9
$PUCSXDIR
 10
1.0
 20
0.0
 30
0.0
  9
$PUCSYDIR
 10
0.0
 20
1.0
 30
0.0
  9
$PUCSORTHOREF
  2

  9
$PUCSORTHOVIEW
 70
     0
  9
$PUCSORGTOP
 10
0.0
 20
0.0
 30
0.0
  9
$PUCSORGBOTTOM
 10
0.0
 20
0.0
 30
0.0
  9
$PUCSORGLEFT
 10
0.0
 20
0.0
 30
0.0
  9
$PUCSORGRIGHT
 10
0.0
 20
0.0
 30
0.0
  9
$PUCSORGFRONT
 10
0.0
 20
0.0
 30
0.0
  9
$PUCSORGBACK
 10
0.0
 20
0.0
 30
0.0
  9
$USERI1
 70
     0
  9
$USERI2
 70
     0
  9
$USERI3
 70
     0
  9
$USERI4
 70
     0
  9
$USERI5
 70
     0
  9
$USERR1
 40
0.0
  9
$USERR2
 40
0.0
  9
$USERR3
 40
0.0
  9
$USERR4
 40
0.0
  9
$USERR5
 40
0.0
  9
$WORLDVIEW
 70
     1
  9
$SHADEDGE
 70
     3
  9
$SHADEDIF
 70
    70
  9
$TILEMODE
 70
     1
  9
$MAXACTVP
 70
    64
  9
$PINSBASE
 10
0.0
 20
0.0
 30
0.0
  9
$PLIMCHECK
 70
     0
  9
$PEXTMIN
 10
1.0000000000E+20
 20
1.0000000000E+20
 30
1.0000000000E+20
  9
$PEXTMAX
 10
-1.0000000000E+20
 20
-1.0000000000E+20
 30
-1.0000000000E+20
  9
$PLIMMIN
 10
0.0
 20
0.0
  9
$PLIMMAX
 10
420.0
 20
297.0
  9
$UNITMODE
 70
     0
  9
$VISRETAIN
 70
     1
  9
$PLINEGEN
 70
     0
  9
$PSLTSCALE
 70
     1
  9
$TREEDEPTH
 70
  3020
  9
$CMLSTYLE
  2
Standard
  9
$CMLJUST
 70
     0
  9
$CMLSCALE
 40
20.0
  9
$PROXYGRAPHICS
 70
     1
  9
$MEASUREMENT
 70
     1
  9
$CELWEIGHT
370
    -1
  9
$ENDCAPS
280
     0
  9
$JOINSTYLE
280
     0
  9
$LWDISPLAY
290
     1
  9
$INSUNITS
 70
     4
  9
$HYPERLINKBASE
  1

  9
$STYLESHEET
  1

  9
$XEDIT
290
     1
  9
$CEPSNTYPE
380
     0
  9
$PSTYLEMODE
290
     1
  9
$FINGERPRINTGUID
  2
{0EE45EEF-E9FB-48A5-A73E-524F78904121}
  9
$VERSIONGUID
  2
{FAEB1C32-E019-11D5-929B-00C0DF256EC4}
  9
$EXTNAMES
290
     1
  9
$PSVPSCALE
 40
0.0
  9
$OLESTARTUP
290
     0
  0
ENDSEC
  0
SECTION
  2
CLASSES
  0
CLASS
  1
ACDBDICTIONARYWDFLT
  2
AcDbDictionaryWithDefault
  3
ObjectDBX Classes
 90
        0
280
     0
281
     0
  0
CLASS
  1
ACDBPLACEHOLDER
  2
AcDbPlaceHolder
  3
ObjectDBX Classes
 90
        0
280
     0
281
     0
  0
CLASS
  1
LAYOUT
  2
AcDbLayout
  3
ObjectDBX Classes
 90
        0
280
     0
281
     0
  0
ENDSEC
  0
SECTION
  2
TABLES
  0
TABLE
  2
VPORT
  5
8
330
0
100
AcDbSymbolTable
 70
     1
  0
VPORT
  5
29
330
8
100
AcDbSymbolTableRecord
100
AcDbViewportTableRecord
  2
*Active
 70
     0
 10
0.0
 20
0.0
 11
1.0
 21
1.0
 12
105.0
 22
148.5
 13
0.0
 23
0.0
 14
10.0
 24
10.0
 15
10.0
 25
10.0
 16
0.0
 26
0.0
 36
1.0
 17
0.0
 27
0.0
 37
0.0
 40
297.0
 41
1.9729729729
 42
50.0
 43
0.0
 44
0.0
 50
0.0
 51
0.0
 71
     0
 72
  2000
 73
     1
 74
     3
 75
     0
 76
     0
 77
     0
 78
     0
281
     0
 65
     1
110
0.0
120
0.0
130
0.0
111
1.0
121
0.0
131
0.0
112
0.0
122
1.0
132
0.0
 79
     0
146
0.0
  0
ENDTAB
  0
TABLE
  2
LTYPE
  5
5
330
0
100
AcDbSymbolTable
 70
     6
  0
LTYPE
  5
14
330
5
100
AcDbSymbolTableRecord
100
AcDbLinetypeTableRecord
  2
ByBlock
 70
     0
  3

 72
    65
 73
     0
 40
0.0
  0
LTYPE
  5
15
330
5
100
AcDbSymbolTableRecord
100
AcDbLinetypeTableRecord
  2
ByLayer
 70
     0
  3

 72
    65
 73
     0
 40
0.0
  0
LTYPE
  5
16
330
5
100
AcDbSymbolTableRecord
100
AcDbLinetypeTableRecord
  2
Continuous
 70
     0
  3
Solid line
 72
    65
 73
     0
 40
0.0
  0
LTYPE
  5
2A
330
5
100
AcDbSymbolTableRecord
100
AcDbLinetypeTableRecord
  2
HIDDEN
 70
     0
  3
Hidden __ __ __ __ __ __ __ __ __ __ __ __ __ __
 72
    65
 73
     2
 40
1.905
 49
1.27
 74
     0
 49
-0.635
 74
     0
  0
LTYPE
  5
2B
330
5
100
AcDbSymbolTableRecord
100
AcDbLinetypeTableRecord
  2
PHANTOM
 70
     0
  3
Phantom ______  __  __  ______  __  __  ______
 72
    65
 73
     6
 40
12.7
 49
6.35
 74
     0
 49
-1.27
 74
     0
 49
1.27
 74
     0
 49
-1.27
 74
     0
 49
1.27
 74
     0
 49
-1.27
 74
     0
  0
LTYPE
  5
2C
330
5
100
AcDbSymbolTableRecord
100
AcDbLinetypeTableRecord
  2
CENTER
 70
     0
  3
Center ____ _ ____ _ ____ _ ____ _ ____ _ ____
 72
    65
 73
     4
 40
10.16
 49
6.35
 74
     0
 49
-1.27
 74
     0
 49
1.27
 74
     0
 49
-1.27
 74
     0
  0
LTYPE
  5
2D
330
5
100
AcDbSymbolTableRecord
100
AcDbLinetypeTableRecord
  2
CENTERX2
 70
     0
  3
Center (2x) ________  __  ________  __  _____
 72
    65
 73
     4
 40
20.32
 49
12.7
 74
     0
 49
-2.54
 74
     0
 49
2.54
 74
     0
 49
-2.54
 74
     0
  0
LTYPE
  5
2E
330
5
100
AcDbSymbolTableRecord
100
AcDbLinetypeTableRecord
  2
DOT2
 70
     0
  3
Dot (.5x) ........................................
 72
    65
 73
     2
 40
0.635
 49
0.0
 74
     0
 49
-0.635
 74
     0
  0
ENDTAB
  0
TABLE
  2
LAYER
  5
2
330
0
100
AcDbSymbolTable
 70
     6
  0
LAYER
  5
10
330
2
100
AcDbSymbolTableRecord
100
AcDbLayerTableRecord
  2
0
 70
     0
 62
     7
  6
Continuous
370
    -3
390
F
  0
LAYER
  5
2F
330
2
100
AcDbSymbolTableRecord
100
AcDbLayerTableRecord
  2
SLD-0_0
 70
     0
 62
   179
  6
Continuous
370
     0
390
F
  0
LAYER
  5
30
330
2
100
AcDbSymbolTableRecord
100
AcDbLayerTableRecord
  2
SLD-0
 70
     0
 62
   179
  6
Continuous
370
     0
390
F
  0
LAYER
  5
31
330
2
100
AcDbSymbolTableRecord
100
AcDbLayerTableRecord
  2
SLD-DEFPOINTS
 70
     0
 62
   179
  6
Continuous
370
     0
390
F
  0
LAYER
  5
32
330
2
100
AcDbSymbolTableRecord
100
AcDbLayerTableRecord
  2
SLD-DEFPOINTS_0
 70
     0
 62
   179
  6
Continuous
370
     0
390
F
  0
LAYER
  5
BF
330
2
100
AcDbSymbolTableRecord
100
AcDbLayerTableRecord
  2
Defpoints
 70
     0
 62
     7
  6
Continuous
290
     0
370
    -3
390
F
  0
ENDTAB
  0
TABLE
  2
STYLE
  5
3
330
0
100
AcDbSymbolTable
 70
     5
  0
STYLE
  5
11
330
3
100
AcDbSymbolTableRecord
100
AcDbTextStyleTableRecord
  2
Standard
 70
     0
 40
0.0
 41
1.0
 50
0.0
 71
     0
 42
2.5
  3
txt
  4
bigfont
  0
STYLE
  5
36
330
3
100
AcDbSymbolTableRecord
100
AcDbTextStyleTableRecord
  2
SLDTEXTSTYLE0
 70
     0
 40
0.0
 41
0.7
 50
0.0
 71
     0
 42
0.2
  3
TXT
  4
bigfont
  0
STYLE
  5
3E
330
3
100
AcDbSymbolTableRecord
100
AcDbTextStyleTableRecord
  2
SLDTEXTSTYLE1
 70
     0
 40
0.0
 41
0.407202216
 50
0.0
 71
     0
 42
0.2
  3
TXT
  4
bigfont
  0
STYLE
  5
270
330
3
100
AcDbSymbolTableRecord
100
AcDbTextStyleTableRecord
  2
SLDTEXTSTYLE2
 70
     0
 40
0.0
 41
0.5157894737
 50
0.0
 71
     0
 42
0.2
  3
TXT
  4
bigfont
  0
STYLE
  5
273
330
3
100
AcDbSymbolTableRecord
100
AcDbTextStyleTableRecord
  2
SLDTEXTSTYLE3
 70
     0
 40
0.0
 41
0.3187628033
 50
0.0
 71
     0
 42
0.2
  3
TXT
  4
bigfont
  0
ENDTAB
  0
TABLE
  2
VIEW
  5
6
330
0
100
AcDbSymbolTable
 70
     0
  0
ENDTAB
  0
TABLE
  2
UCS
  5
7
330
0
100
AcDbSymbolTable
 70
     0
  0
ENDTAB
  0
TABLE
  2
APPID
  5
9
330
0
100
AcDbSymbolTable
 70
     1
  0
APPID
  5
12
330
9
100
AcDbSymbolTableRecord
100
AcDbRegAppTableRecord
  2
ACAD
 70
     0
  0
ENDTAB
  0
TABLE
  2
DIMSTYLE
  5
A
330
0
100
AcDbSymbolTable
 70
     5
100
AcDbDimStyleTable
  0
DIMSTYLE
105
27
330
A
100
AcDbSymbolTableRecord
100
AcDbDimStyleTableRecord
  2
ISO-25
 70
     0
 41
2.5
 42
0.625
 43
3.75
 44
1.25
 73
     0
 74
     0
 77
     1
 78
     8
140
2.5
141
2.5
143
0.0393700787
147
0.625
171
     3
172
     1
271
     2
272
     2
274
     3
278
    44
283
     0
284
     8
340
11
  0
DIMSTYLE
105
CC
102
{ACAD_REACTORS
330
BE
330
DA
330
F2
330
109
330
121
330
15F
330
177
330
191
330
1DC
330
1F6
330
20D
330
258
102
}
330
A
100
AcDbSymbolTableRecord
100
AcDbDimStyleTableRecord
  2
SLDDIMSTYLE0
 70
     0
 41
3.0
 44
0.0
 73
     0
 74
     0
 77
     3
 78
    12
140
3.5
147
0.875
173
     1
271
     0
272
     3
284
    12
340
3E
341
CD
343
CD
344
CD
  0
DIMSTYLE
105
143
102
{ACAD_REACTORS
330
138
102
}
330
A
100
AcDbSymbolTableRecord
100
AcDbDimStyleTableRecord
  2
SLDDIMSTYLE1
 70
     0
 41
3.0
 44
0.0
 78
    12
140
3.5
147
0.875
173
     1
271
     1
272
     3
284
    12
340
3E
341
CD
343
CD
344
CD
  0
DIMSTYLE
105
155
102
{ACAD_REACTORS
330
14B
102
}
330
A
100
AcDbSymbolTableRecord
100
AcDbDimStyleTableRecord
  2
SLDDIMSTYLE2
 70
     0
 41
3.0
 44
0.0
 78
    12
140
3.5
147
0.875
172
     1
173
     1
271
     1
272
     3
284
    12
340
3E
341
CD
343
CD
344
CD
  0
DIMSTYLE
105
1B9
102
{ACAD_REACTORS
330
1AB
330
1C4
330
224
330
23E
102
}
330
A
100
AcDbSymbolTableRecord
100
AcDbDimStyleTableRecord
  2
SLDDIMSTYLE3
 70
     0
 41
3.0
 44
0.0
 73
     0
 74
     0
 77
     3
 78
    12
140
3.5
147
0.875
173
     1
271
     1
272
     3
284
    12
340
3E
341
CD
343
CD
344
CD
  0
ENDTAB
  0
TABLE
  2
BLOCK_RECORD
  5
1
330
0
100
AcDbSymbolTable
 70
    30
  0
BLOCK_RECORD
  5
1F
330
1
100
AcDbSymbolTableRecord
100
AcDbBlockTableRecord
  2
*Model_Space
340
22
  0
BLOCK_RECORD
  5
1B
330
1
100
AcDbSymbolTableRecord
100
AcDbBlockTableRecord
  2
*Paper_Space
340
1E
  0
BLOCK_RECORD
  5
23
330
1
100
AcDbSymbolTableRecord
100
AcDbBlockTableRecord
  2
*Paper_Space0
340
26
  0
BLOCK_RECORD
  5
33
330
1
100
AcDbSymbolTableRecord
100
AcDbBlockTableRecord
  2
注記
340
0
102
{BLKREFS
331
276
102
}
  0
BLOCK_RECORD
  5
39
330
1
100
AcDbSymbolTableRecord
100
AcDbBlockTableRecord
  2
SURFACEFINISH40
340
0
102
{BLKREFS
331
275
102
}
  0
BLOCK_RECORD
  5
40
330
1
100
AcDbSymbolTableRecord
100
AcDbBlockTableRecord
  2
SW_CENTERMARK0
340
0
102
{BLKREFS
331
277
102
}
  0
BLOCK_RECORD
  5
4B
330
1
100
AcDbSymbolTableRecord
100
AcDbBlockTableRecord
  2
SW_CENTERMARK1
340
0
102
{BLKREFS
331
278
102
}
  0
BLOCK_RECORD
  5
56
330
1
100
AcDbSymbolTableRecord
100
AcDbBlockTableRecord
  2
SW_CENTERMARK2
340
0
102
{BLKREFS
331
279
102
}
  0
BLOCK_RECORD
  5
61
330
1
100
AcDbSymbolTableRecord
100
AcDbBlockTableRecord
  2
SW_CENTERMARK3
340
0
102
{BLKREFS
331
27A
102
}
  0
BLOCK_RECORD
  5
6C
330
1
100
AcDbSymbolTableRecord
100
AcDbBlockTableRecord
  2
SW_CENTERMARK4
340
0
102
{BLKREFS
331
27B
102
}
  0
BLOCK_RECORD
  5
77
330
1
100
AcDbSymbolTableRecord
100
AcDbBlockTableRecord
  2
SW_CENTERMARK5
340
0
102
{BLKREFS
331
27C
102
}
  0
BLOCK_RECORD
  5
82
330
1
100
AcDbSymbolTableRecord
100
AcDbBlockTableRecord
  2
SW_CENTERMARK6
340
0
102
{BLKREFS
331
27D
102
}
  0
BLOCK_RECORD
  5
8D
330
1
100
AcDbSymbolTableRecord
100
AcDbBlockTableRecord
  2
SW_CENTERMARK7
340
0
102
{BLKREFS
331
27E
102
}
  0
BLOCK_RECORD
  5
C0
330
1
100
AcDbSymbolTableRecord
100
AcDbBlockTableRecord
  2
*D11
340
0
  0
BLOCK_RECORD
  5
CD
330
1
100
AcDbSymbolTableRecord
100
AcDbBlockTableRecord
  2
_None
340
0
102
{BLKREFS
331
C5
331
C4
331
E0
331
DF
331
F8
331
F7
331
10F
331
10E
331
127
331
126
331
13D
331
150
331
165
331
164
331
17D
331
17C
331
197
331
196
331
1B1
331
1B0
331
1CA
331
1C9
331
1E2
331
1E1
331
1FC
331
1FB
331
213
331
212
331
22A
331
229
331
244
331
243
331
25E
331
25D
102
}
  0
BLOCK_RECORD
  5
DB
330
1
100
AcDbSymbolTableRecord
100
AcDbBlockTableRecord
  2
*D13
340
0
  0
BLOCK_RECORD
  5
F3
330
1
100
AcDbSymbolTableRecord
100
AcDbBlockTableRecord
  2
*D14
340
0
  0
BLOCK_RECORD
  5
10A
330
1
100
AcDbSymbolTableRecord
100
AcDbBlockTableRecord
  2
*D15
340
0
  0
BLOCK_RECORD
  5
122
330
1
100
AcDbSymbolTableRecord
100
AcDbBlockTableRecord
  2
*D16
340
0
  0
BLOCK_RECORD
  5
139
330
1
100
AcDbSymbolTableRecord
100
AcDbBlockTableRecord
  2
*D17
340
0
  0
BLOCK_RECORD
  5
14C
330
1
100
AcDbSymbolTableRecord
100
AcDbBlockTableRecord
  2
*D18
340
0
  0
BLOCK_RECORD
  5
160
330
1
100
AcDbSymbolTableRecord
100
AcDbBlockTableRecord
  2
*D19
340
0
  0
BLOCK_RECORD
  5
178
330
1
100
AcDbSymbolTableRecord
100
AcDbBlockTableRecord
  2
*D20
340
0
  0
BLOCK_RECORD
  5
192
330
1
100
AcDbSymbolTableRecord
100
AcDbBlockTableRecord
  2
*D21
340
0
  0
BLOCK_RECORD
  5
1AC
330
1
100
AcDbSymbolTableRecord
100
AcDbBlockTableRecord
  2
*D22
340
0
  0
BLOCK_RECORD
  5
1C5
330
1
100
AcDbSymbolTableRecord
100
AcDbBlockTableRecord
  2
*D23
340
0
  0
BLOCK_RECORD
  5
1DD
330
1
100
AcDbSymbolTableRecord
100
AcDbBlockTableRecord
  2
*D24
340
0
  0
BLOCK_RECORD
  5
1F7
330
1
100
AcDbSymbolTableRecord
100
AcDbBlockTableRecord
  2
*D25
340
0
  0
BLOCK_RECORD
  5
20E
330
1
100
AcDbSymbolTableRecord
100
AcDbBlockTableRecord
  2
*D26
340
0
  0
BLOCK_RECORD
  5
225
330
1
100
AcDbSymbolTableRecord
100
AcDbBlockTableRecord
  2
*D27
340
0
  0
BLOCK_RECORD
  5
23F
330
1
100
AcDbSymbolTableRecord
100
AcDbBlockTableRecord
  2
*D28
340
0
  0
BLOCK_RECORD
  5
259
330
1
100
AcDbSymbolTableRecord
100
AcDbBlockTableRecord
  2
*D29
340
0
  0
ENDTAB
  0
ENDSEC
  0
SECTION
  2
BLOCKS
  0
BLOCK
  5
20
330
1F
100
AcDbEntity
  8
0
100
AcDbBlockBegin
  2
*Model_Space
 70
     0
 71
     0
 10
0.0
 20
0.0
 30
0.0
  3
*Model_Space
  1

  0
ENDBLK
  5
21
330
1F
100
AcDbEntity
  8
0
100
AcDbBlockEnd
  0
BLOCK
  5
1C
330
1B
100
AcDbEntity
 67
     1
  8
0
100
AcDbBlockBegin
  2
*Paper_Space
 70
     0
 71
     0
 10
0.0
 20
0.0
 30
0.0
  3
*Paper_Space
  1

  0
ENDBLK
  5
1D
330
1B
100
AcDbEntity
 67
     1
  8
0
100
AcDbBlockEnd
  0
BLOCK
  5
24
330
23
100
AcDbEntity
  8
0
100
AcDbBlockBegin
  2
*Paper_Space0
 70
     0
 71
     0
 10
0.0
 20
0.0
 30
0.0
  3
*Paper_Space0
  1

  0
ENDBLK
  5
25
330
23
100
AcDbEntity
  8
0
100
AcDbBlockEnd
  0
BLOCK
  5
34
330
33
100
AcDbEntity
  8
0
100
AcDbBlockBegin
  2
注記
 70
     0
 71
     0
 10
0.0
 20
0.0
 30
0.0
  3
注記
  1

  0
MTEXT
  5
37
330
33
100
AcDbEntity
  8
0
  6
Continuous
 62
     7
370
     0
100
AcDbMText
 10
0.2636785918
 20
9.0739778448
 30
0.0
 40
3.5
 41
0.0
 71
     1
 72
     1
  1
１．特記ナキ角部ハ、バリ　カエリノ無キコト。
  7
SLDTEXTSTYLE0
 73
     1
 44
1.0
  0
MTEXT
  5
38
330
33
100
AcDbEntity
  8
0
  6
Continuous
 62
     7
370
     0
100
AcDbMText
 10
0.2636785918
 20
3.5759549983
 30
0.0
 40
3.5
 41
0.0
 71
     1
 72
     1
  1
２．特記ナキ隅部ハ、Ｒ０．４ＭＡＸトスル。
  7
SLDTEXTSTYLE0
 73
     1
 44
1.0
  0
ENDBLK
  5
35
330
33
100
AcDbEntity
  8
0
100
AcDbBlockEnd
  0
BLOCK
  5
3A
330
39
100
AcDbEntity
  8
0
100
AcDbBlockBegin
  2
SURFACEFINISH40
 70
     0
 71
     0
 10
0.0
 20
0.0
 30
0.0
  3
SURFACEFINISH40
  1

  0
LINE
  5
3C
330
39
100
AcDbEntity
  8
SLD-0
  6
Continuous
 62
   179
100
AcDbLine
 10
0.6656399396
 20
-6.0449245738
 30
0.0
 11
-2.9003789868
 21
0.0000001164
 31
0.0
  0
LINE
  5
3D
330
39
100
AcDbEntity
  8
SLD-0
  6
Continuous
 62
   179
100
AcDbLine
 10
0.6656399396
 20
-6.0449245738
 30
0.0
 11
7.7976777926
 21
6.0449248066
 31
0.0
  0
MTEXT
  5
3F
330
39
100
AcDbEntity
  8
SLD-0
100
AcDbMText
 10
0.0
 20
4.3931031597
 30
0.0
 40
3.175
 41
0.0
 71
     1
 72
     1
  1
25
  7
SLDTEXTSTYLE1
 73
     1
 44
1.0
  0
ENDBLK
  5
3B
330
39
100
AcDbEntity
  8
0
100
AcDbBlockEnd
  0
BLOCK
  5
41
330
40
100
AcDbEntity
  8
0
100
AcDbBlockBegin
  2
SW_CENTERMARK0
 70
     0
 71
     0
 10
0.0
 20
0.0
 30
0.0
  3
SW_CENTERMARK0
  1

  0
LINE
  5
43
330
40
100
AcDbEntity
  8
SLD-0
  6
Continuous
 62
   179
100
AcDbLine
 10
101.1594902794
 20
189.3249092379
 30
0.0
 11
101.1594902794
 21
191.8249092379
 31
0.0
  0
LINE
  5
44
330
40
100
AcDbEntity
  8
SLD-0
  6
Continuous
 62
   179
100
AcDbLine
 10
101.1594902794
 20
189.3249092379
 30
0.0
 11
98.6594902794
 21
189.3249092379
 31
0.0
  0
LINE
  5
45
330
40
100
AcDbEntity
  8
SLD-0
  6
Continuous
 62
   179
100
AcDbLine
 10
101.1594902794
 20
189.3249092379
 30
0.0
 11
101.1594902794
 21
186.8249092379
 31
0.0
  0
LINE
  5
46
330
40
100
AcDbEntity
  8
SLD-0
  6
Continuous
 62
   179
100
AcDbLine
 10
101.1594902794
 20
189.3249092379
 30
0.0
 11
103.6594902794
 21
189.3249092379
 31
0.0
  0
LINE
  5
47
330
40
100
AcDbEntity
  8
SLD-0
  6
Continuous
 62
   179
100
AcDbLine
 10
101.1594902794
 20
194.3249092379
 30
0.0
 11
101.1594902794
 21
194.9249092379
 31
0.0
  0
LINE
  5
48
330
40
100
AcDbEntity
  8
SLD-0
  6
Continuous
 62
   179
100
AcDbLine
 10
96.1594902794
 20
189.3249092379
 30
0.0
 11
95.5594902794
 21
189.3249092379
 31
0.0
  0
LINE
  5
49
330
40
100
AcDbEntity
  8
SLD-0
  6
Continuous
 62
   179
100
AcDbLine
 10
101.1594902794
 20
184.3249092379
 30
0.0
 11
101.1594902794
 21
183.7249092379
 31
0.0
  0
LINE
  5
4A
330
40
100
AcDbEntity
  8
SLD-0
  6
Continuous
 62
   179
100
AcDbLine
 10
106.1594902794
 20
189.3249092379
 30
0.0
 11
106.7594902794
 21
189.3249092379
 31
0.0
  0
ENDBLK
  5
42
330
40
100
AcDbEntity
  8
0
100
AcDbBlockEnd
  0
BLOCK
  5
4C
330
4B
100
AcDbEntity
  8
0
100
AcDbBlockBegin
  2
SW_CENTERMARK1
 70
     0
 71
     0
 10
0.0
 20
0.0
 30
0.0
  3
SW_CENTERMARK1
  1

  0
LINE
  5
4E
330
4B
100
AcDbEntity
  8
SLD-0
  6
Continuous
 62
   179
100
AcDbLine
 10
78.6594902794
 20
166.8249092379
 30
0.0
 11
78.6594902794
 21
169.3249092379
 31
0.0
  0
LINE
  5
4F
330
4B
100
AcDbEntity
  8
SLD-0
  6
Continuous
 62
   179
100
AcDbLine
 10
78.6594902794
 20
166.8249092379
 30
0.0
 11
76.1594902794
 21
166.8249092379
 31
0.0
  0
LINE
  5
50
330
4B
100
AcDbEntity
  8
SLD-0
  6
Continuous
 62
   179
100
AcDbLine
 10
78.6594902794
 20
166.8249092379
 30
0.0
 11
78.6594902794
 21
164.3249092379
 31
0.0
  0
LINE
  5
51
330
4B
100
AcDbEntity
  8
SLD-0
  6
Continuous
 62
   179
100
AcDbLine
 10
78.6594902794
 20
166.8249092379
 30
0.0
 11
81.1594902794
 21
166.8249092379
 31
0.0
  0
LINE
  5
52
330
4B
100
AcDbEntity
  8
SLD-0
  6
Continuous
 62
   179
100
AcDbLine
 10
78.6594902794
 20
171.8249092379
 30
0.0
 11
78.6594902794
 21
172.4249092379
 31
0.0
  0
LINE
  5
53
330
4B
100
AcDbEntity
  8
SLD-0
  6
Continuous
 62
   179
100
AcDbLine
 10
73.6594902794
 20
166.8249092379
 30
0.0
 11
73.0594902794
 21
166.8249092379
 31
0.0
  0
LINE
  5
54
330
4B
100
AcDbEntity
  8
SLD-0
  6
Continuous
 62
   179
100
AcDbLine
 10
78.6594902794
 20
161.8249092379
 30
0.0
 11
78.6594902794
 21
161.2249092379
 31
0.0
  0
LINE
  5
55
330
4B
100
AcDbEntity
  8
SLD-0
  6
Continuous
 62
   179
100
AcDbLine
 10
83.6594902794
 20
166.8249092379
 30
0.0
 11
84.2594902794
 21
166.8249092379
 31
0.0
  0
ENDBLK
  5
4D
330
4B
100
AcDbEntity
  8
0
100
AcDbBlockEnd
  0
BLOCK
  5
57
330
56
100
AcDbEntity
  8
0
100
AcDbBlockBegin
  2
SW_CENTERMARK2
 70
     0
 71
     0
 10
0.0
 20
0.0
 30
0.0
  3
SW_CENTERMARK2
  1

  0
LINE
  5
59
330
56
100
AcDbEntity
  8
SLD-0
  6
Continuous
 62
   179
100
AcDbLine
 10
101.1594902794
 20
144.3249092379
 30
0.0
 11
101.1594902794
 21
146.8249092379
 31
0.0
  0
LINE
  5
5A
330
56
100
AcDbEntity
  8
SLD-0
  6
Continuous
 62
   179
100
AcDbLine
 10
101.1594902794
 20
144.3249092379
 30
0.0
 11
98.6594902794
 21
144.3249092379
 31
0.0
  0
LINE
  5
5B
330
56
100
AcDbEntity
  8
SLD-0
  6
Continuous
 62
   179
100
AcDbLine
 10
101.1594902794
 20
144.3249092379
 30
0.0
 11
101.1594902794
 21
141.8249092379
 31
0.0
  0
LINE
  5
5C
330
56
100
AcDbEntity
  8
SLD-0
  6
Continuous
 62
   179
100
AcDbLine
 10
101.1594902794
 20
144.3249092379
 30
0.0
 11
103.6594902794
 21
144.3249092379
 31
0.0
  0
LINE
  5
5D
330
56
100
AcDbEntity
  8
SLD-0
  6
Continuous
 62
   179
100
AcDbLine
 10
101.1594902794
 20
149.3249092379
 30
0.0
 11
101.1594902794
 21
149.9249092379
 31
0.0
  0
LINE
  5
5E
330
56
100
AcDbEntity
  8
SLD-0
  6
Continuous
 62
   179
100
AcDbLine
 10
96.1594902794
 20
144.3249092379
 30
0.0
 11
95.5594902794
 21
144.3249092379
 31
0.0
  0
LINE
  5
5F
330
56
100
AcDbEntity
  8
SLD-0
  6
Continuous
 62
   179
100
AcDbLine
 10
101.1594902794
 20
139.3249092379
 30
0.0
 11
101.1594902794
 21
138.7249092379
 31
0.0
  0
LINE
  5
60
330
56
100
AcDbEntity
  8
SLD-0
  6
Continuous
 62
   179
100
AcDbLine
 10
106.1594902794
 20
144.3249092379
 30
0.0
 11
106.7594902794
 21
144.3249092379
 31
0.0
  0
ENDBLK
  5
58
330
56
100
AcDbEntity
  8
0
100
AcDbBlockEnd
  0
BLOCK
  5
62
330
61
100
AcDbEntity
  8
0
100
AcDbBlockBegin
  2
SW_CENTERMARK3
 70
     0
 71
     0
 10
0.0
 20
0.0
 30
0.0
  3
SW_CENTERMARK3
  1

  0
LINE
  5
64
330
61
100
AcDbEntity
  8
SLD-0
  6
Continuous
 62
   179
100
AcDbLine
 10
123.6594902794
 20
166.8249092379
 30
0.0
 11
123.6594902794
 21
169.3249092379
 31
0.0
  0
LINE
  5
65
330
61
100
AcDbEntity
  8
SLD-0
  6
Continuous
 62
   179
100
AcDbLine
 10
123.6594902794
 20
166.8249092379
 30
0.0
 11
121.1594902794
 21
166.8249092379
 31
0.0
  0
LINE
  5
66
330
61
100
AcDbEntity
  8
SLD-0
  6
Continuous
 62
   179
100
AcDbLine
 10
123.6594902794
 20
166.8249092379
 30
0.0
 11
123.6594902794
 21
164.3249092379
 31
0.0
  0
LINE
  5
67
330
61
100
AcDbEntity
  8
SLD-0
  6
Continuous
 62
   179
100
AcDbLine
 10
123.6594902794
 20
166.8249092379
 30
0.0
 11
126.1594902794
 21
166.8249092379
 31
0.0
  0
LINE
  5
68
330
61
100
AcDbEntity
  8
SLD-0
  6
Continuous
 62
   179
100
AcDbLine
 10
123.6594902794
 20
171.8249092379
 30
0.0
 11
123.6594902794
 21
172.4249092379
 31
0.0
  0
LINE
  5
69
330
61
100
AcDbEntity
  8
SLD-0
  6
Continuous
 62
   179
100
AcDbLine
 10
118.6594902794
 20
166.8249092379
 30
0.0
 11
118.0594902794
 21
166.8249092379
 31
0.0
  0
LINE
  5
6A
330
61
100
AcDbEntity
  8
SLD-0
  6
Continuous
 62
   179
100
AcDbLine
 10
123.6594902794
 20
161.8249092379
 30
0.0
 11
123.6594902794
 21
161.2249092379
 31
0.0
  0
LINE
  5
6B
330
61
100
AcDbEntity
  8
SLD-0
  6
Continuous
 62
   179
100
AcDbLine
 10
128.6594902794
 20
166.8249092379
 30
0.0
 11
129.2594902794
 21
166.8249092379
 31
0.0
  0
ENDBLK
  5
63
330
61
100
AcDbEntity
  8
0
100
AcDbBlockEnd
  0
BLOCK
  5
6D
330
6C
100
AcDbEntity
  8
0
100
AcDbBlockBegin
  2
SW_CENTERMARK4
 70
     0
 71
     0
 10
0.0
 20
0.0
 30
0.0
  3
SW_CENTERMARK4
  1

  0
LINE
  5
6F
330
6C
100
AcDbEntity
  8
SLD-0
  6
Continuous
 62
   179
100
AcDbLine
 10
101.1594902794
 20
204.3249092379
 30
0.0
 11
101.1594902794
 21
206.8249092379
 31
0.0
  0
LINE
  5
70
330
6C
100
AcDbEntity
  8
SLD-0
  6
Continuous
 62
   179
100
AcDbLine
 10
101.1594902794
 20
204.3249092379
 30
0.0
 11
98.6594902794
 21
204.3249092379
 31
0.0
  0
LINE
  5
71
330
6C
100
AcDbEntity
  8
SLD-0
  6
Continuous
 62
   179
100
AcDbLine
 10
101.1594902794
 20
204.3249092379
 30
0.0
 11
101.1594902794
 21
201.8249092379
 31
0.0
  0
LINE
  5
72
330
6C
100
AcDbEntity
  8
SLD-0
  6
Continuous
 62
   179
100
AcDbLine
 10
101.1594902794
 20
204.3249092379
 30
0.0
 11
103.6594902794
 21
204.3249092379
 31
0.0
  0
LINE
  5
73
330
6C
100
AcDbEntity
  8
SLD-0
  6
Continuous
 62
   179
100
AcDbLine
 10
101.1594902794
 20
209.3249092379
 30
0.0
 11
101.1594902794
 21
209.9249092379
 31
0.0
  0
LINE
  5
74
330
6C
100
AcDbEntity
  8
SLD-0
  6
Continuous
 62
   179
100
AcDbLine
 10
96.1594902794
 20
204.3249092379
 30
0.0
 11
95.5594902794
 21
204.3249092379
 31
0.0
  0
LINE
  5
75
330
6C
100
AcDbEntity
  8
SLD-0
  6
Continuous
 62
   179
100
AcDbLine
 10
101.1594902794
 20
199.3249092379
 30
0.0
 11
101.1594902794
 21
198.7249092379
 31
0.0
  0
LINE
  5
76
330
6C
100
AcDbEntity
  8
SLD-0
  6
Continuous
 62
   179
100
AcDbLine
 10
106.1594902794
 20
204.3249092379
 30
0.0
 11
106.7594902794
 21
204.3249092379
 31
0.0
  0
ENDBLK
  5
6E
330
6C
100
AcDbEntity
  8
0
100
AcDbBlockEnd
  0
BLOCK
  5
78
330
77
100
AcDbEntity
  8
0
100
AcDbBlockBegin
  2
SW_CENTERMARK5
 70
     0
 71
     0
 10
0.0
 20
0.0
 30
0.0
  3
SW_CENTERMARK5
  1

  0
LINE
  5
7A
330
77
100
AcDbEntity
  8
SLD-0
  6
Continuous
 62
   179
100
AcDbLine
 10
101.1594902794
 20
129.3249092379
 30
0.0
 11
101.1594902794
 21
131.8249092379
 31
0.0
  0
LINE
  5
7B
330
77
100
AcDbEntity
  8
SLD-0
  6
Continuous
 62
   179
100
AcDbLine
 10
101.1594902794
 20
129.3249092379
 30
0.0
 11
98.6594902794
 21
129.3249092379
 31
0.0
  0
LINE
  5
7C
330
77
100
AcDbEntity
  8
SLD-0
  6
Continuous
 62
   179
100
AcDbLine
 10
101.1594902794
 20
129.3249092379
 30
0.0
 11
101.1594902794
 21
126.8249092379
 31
0.0
  0
LINE
  5
7D
330
77
100
AcDbEntity
  8
SLD-0
  6
Continuous
 62
   179
100
AcDbLine
 10
101.1594902794
 20
129.3249092379
 30
0.0
 11
103.6594902794
 21
129.3249092379
 31
0.0
  0
LINE
  5
7E
330
77
100
AcDbEntity
  8
SLD-0
  6
Continuous
 62
   179
100
AcDbLine
 10
101.1594902794
 20
134.3249092379
 30
0.0
 11
101.1594902794
 21
134.9249092379
 31
0.0
  0
LINE
  5
7F
330
77
100
AcDbEntity
  8
SLD-0
  6
Continuous
 62
   179
100
AcDbLine
 10
96.1594902794
 20
129.3249092379
 30
0.0
 11
95.5594902794
 21
129.3249092379
 31
0.0
  0
LINE
  5
80
330
77
100
AcDbEntity
  8
SLD-0
  6
Continuous
 62
   179
100
AcDbLine
 10
101.1594902794
 20
124.3249092379
 30
0.0
 11
101.1594902794
 21
123.7249092379
 31
0.0
  0
LINE
  5
81
330
77
100
AcDbEntity
  8
SLD-0
  6
Continuous
 62
   179
100
AcDbLine
 10
106.1594902794
 20
129.3249092379
 30
0.0
 11
106.7594902794
 21
129.3249092379
 31
0.0
  0
ENDBLK
  5
79
330
77
100
AcDbEntity
  8
0
100
AcDbBlockEnd
  0
BLOCK
  5
83
330
82
100
AcDbEntity
  8
0
100
AcDbBlockBegin
  2
SW_CENTERMARK6
 70
     0
 71
     0
 10
0.0
 20
0.0
 30
0.0
  3
SW_CENTERMARK6
  1

  0
LINE
  5
85
330
82
100
AcDbEntity
  8
SLD-0
  6
Continuous
 62
   179
100
AcDbLine
 10
93.6594902794
 20
166.8249092379
 30
0.0
 11
93.6594902794
 21
169.3249092379
 31
0.0
  0
LINE
  5
86
330
82
100
AcDbEntity
  8
SLD-0
  6
Continuous
 62
   179
100
AcDbLine
 10
93.6594902794
 20
166.8249092379
 30
0.0
 11
91.1594902794
 21
166.8249092379
 31
0.0
  0
LINE
  5
87
330
82
100
AcDbEntity
  8
SLD-0
  6
Continuous
 62
   179
100
AcDbLine
 10
93.6594902794
 20
166.8249092379
 30
0.0
 11
93.6594902794
 21
164.3249092379
 31
0.0
  0
LINE
  5
88
330
82
100
AcDbEntity
  8
SLD-0
  6
Continuous
 62
   179
100
AcDbLine
 10
93.6594902794
 20
166.8249092379
 30
0.0
 11
96.1594902794
 21
166.8249092379
 31
0.0
  0
LINE
  5
89
330
82
100
AcDbEntity
  8
SLD-0
  6
Continuous
 62
   179
100
AcDbLine
 10
93.6594902794
 20
171.8249092379
 30
0.0
 11
93.6594902794
 21
172.4249092379
 31
0.0
  0
LINE
  5
8A
330
82
100
AcDbEntity
  8
SLD-0
  6
Continuous
 62
   179
100
AcDbLine
 10
88.6594902794
 20
166.8249092379
 30
0.0
 11
88.0594902794
 21
166.8249092379
 31
0.0
  0
LINE
  5
8B
330
82
100
AcDbEntity
  8
SLD-0
  6
Continuous
 62
   179
100
AcDbLine
 10
93.6594902794
 20
161.8249092379
 30
0.0
 11
93.6594902794
 21
161.2249092379
 31
0.0
  0
LINE
  5
8C
330
82
100
AcDbEntity
  8
SLD-0
  6
Continuous
 62
   179
100
AcDbLine
 10
98.6594902794
 20
166.8249092379
 30
0.0
 11
99.2594902794
 21
166.8249092379
 31
0.0
  0
ENDBLK
  5
84
330
82
100
AcDbEntity
  8
0
100
AcDbBlockEnd
  0
BLOCK
  5
8E
330
8D
100
AcDbEntity
  8
0
100
AcDbBlockBegin
  2
SW_CENTERMARK7
 70
     0
 71
     0
 10
0.0
 20
0.0
 30
0.0
  3
SW_CENTERMARK7
  1

  0
LINE
  5
90
330
8D
100
AcDbEntity
  8
SLD-0
  6
Continuous
 62
   179
100
AcDbLine
 10
108.6594902794
 20
166.8249092379
 30
0.0
 11
108.6594902794
 21
169.3249092379
 31
0.0
  0
LINE
  5
91
330
8D
100
AcDbEntity
  8
SLD-0
  6
Continuous
 62
   179
100
AcDbLine
 10
108.6594902794
 20
166.8249092379
 30
0.0
 11
106.1594902794
 21
166.8249092379
 31
0.0
  0
LINE
  5
92
330
8D
100
AcDbEntity
  8
SLD-0
  6
Continuous
 62
   179
100
AcDbLine
 10
108.6594902794
 20
166.8249092379
 30
0.0
 11
108.6594902794
 21
164.3249092379
 31
0.0
  0
LINE
  5
93
330
8D
100
AcDbEntity
  8
SLD-0
  6
Continuous
 62
   179
100
AcDbLine
 10
108.6594902794
 20
166.8249092379
 30
0.0
 11
111.1594902794
 21
166.8249092379
 31
0.0
  0
LINE
  5
94
330
8D
100
AcDbEntity
  8
SLD-0
  6
Continuous
 62
   179
100
AcDbLine
 10
108.6594902794
 20
171.8249092379
 30
0.0
 11
108.6594902794
 21
172.4249092379
 31
0.0
  0
LINE
  5
95
330
8D
100
AcDbEntity
  8
SLD-0
  6
Continuous
 62
   179
100
AcDbLine
 10
103.6594902794
 20
166.8249092379
 30
0.0
 11
103.0594902794
 21
166.8249092379
 31
0.0
  0
LINE
  5
96
330
8D
100
AcDbEntity
  8
SLD-0
  6
Continuous
 62
   179
100
AcDbLine
 10
108.6594902794
 20
161.8249092379
 30
0.0
 11
108.6594902794
 21
161.2249092379
 31
0.0
  0
LINE
  5
97
330
8D
100
AcDbEntity
  8
SLD-0
  6
Continuous
 62
   179
100
AcDbLine
 10
113.6594902794
 20
166.8249092379
 30
0.0
 11
114.2594902794
 21
166.8249092379
 31
0.0
  0
ENDBLK
  5
8F
330
8D
100
AcDbEntity
  8
0
100
AcDbBlockEnd
  0
BLOCK
  5
CA
330
C0
100
AcDbEntity
  8
0
100
AcDbBlockBegin
  2
*D11
 70
     1
 71
     0
 10
0.0
 20
0.0
 30
0.0
  3
*D11
  1

  0
LINE
  5
D0
330
C0
100
AcDbEntity
  8
SLD-0
 62
     7
100
AcDbLine
 10
88.6594902794
 20
209.8249092379
 30
0.0
 11
88.6594902794
 21
229.119804222
 31
0.0
  0
LINE
  5
D1
330
C0
100
AcDbEntity
  8
SLD-0
 62
     7
100
AcDbLine
 10
113.6594902794
 20
209.8249092379
 30
0.0
 11
113.6594902794
 21
229.119804222
 31
0.0
  0
LINE
  5
D2
330
C0
100
AcDbEntity
  8
SLD-0
 62
     7
100
AcDbLine
 10
88.6594902794
 20
228.119804222
 30
0.0
 11
113.6594902794
 21
228.119804222
 31
0.0
  0
LINE
  5
D3
330
C0
100
AcDbEntity
  8
SLD-0
 62
     7
100
AcDbLine
 10
91.6594902794
 20
227.315957222
 30
0.0
 11
88.6594902794
 21
228.119804222
 31
0.0
  0
LINE
  5
D4
330
C0
100
AcDbEntity
  8
SLD-0
 62
     7
100
AcDbLine
 10
88.6594902794
 20
228.119804222
 30
0.0
 11
91.6594902794
 21
228.923651222
 31
0.0
  0
LINE
  5
D5
330
C0
100
AcDbEntity
  8
SLD-0
 62
     7
100
AcDbLine
 10
88.6594902794
 20
228.119804222
 30
0.0
 11
91.6594902794
 21
228.119804222
 31
0.0
  0
LINE
  5
D6
330
C0
100
AcDbEntity
  8
SLD-0
 62
     7
100
AcDbLine
 10
110.6594902794
 20
228.923651222
 30
0.0
 11
113.6594902794
 21
228.119804222
 31
0.0
  0
LINE
  5
D7
330
C0
100
AcDbEntity
  8
SLD-0
 62
     7
100
AcDbLine
 10
113.6594902794
 20
228.119804222
 30
0.0
 11
110.6594902794
 21
227.315957222
 31
0.0
  0
LINE
  5
D8
330
C0
100
AcDbEntity
  8
SLD-0
 62
     7
100
AcDbLine
 10
113.6594902794
 20
228.119804222
 30
0.0
 11
110.6594902794
 21
228.119804222
 31
0.0
  0
MTEXT
  5
D9
330
C0
100
AcDbEntity
  8
SLD-0
 62
     7
100
AcDbMText
 10
99.1240550563
 20
232.6464978016
 30
0.2
 40
3.5
 41
0.0
 71
     1
 72
     1
  1
25
  7
SLDTEXTSTYLE0
 73
     1
 44
1.0
  0
ENDBLK
  5
CB
330
C0
100
AcDbEntity
  8
0
100
AcDbBlockEnd
  0
BLOCK
  5
CE
330
CD
100
AcDbEntity
  8
0
100
AcDbBlockBegin
  2
_None
 70
     0
 71
     0
 10
0.0
 20
0.0
 30
0.0
  3
_None
  1

  0
ENDBLK
  5
CF
330
CD
100
AcDbEntity
  8
0
100
AcDbBlockEnd
  0
BLOCK
  5
E6
330
DB
100
AcDbEntity
  8
0
100
AcDbBlockBegin
  2
*D13
 70
     1
 71
     0
 10
0.0
 20
0.0
 30
0.0
  3
*D13
  1

  0
LINE
  5
E8
330
DB
100
AcDbEntity
  8
SLD-0
 62
     7
100
AcDbLine
 10
73.1594902794
 20
179.3249092379
 30
0.0
 11
58.3304926925
 21
179.3249092379
 31
0.0
  0
LINE
  5
E9
330
DB
100
AcDbEntity
  8
SLD-0
 62
     7
100
AcDbLine
 10
73.1594902794
 20
154.3249092379
 30
0.0
 11
58.3304926925
 21
154.3249092379
 31
0.0
  0
LINE
  5
EA
330
DB
100
AcDbEntity
  8
SLD-0
 62
     7
100
AcDbLine
 10
59.3304926925
 20
179.3249092379
 30
0.0
 11
59.3304926925
 21
154.3249092379
 31
0.0
  0
LINE
  5
EB
330
DB
100
AcDbEntity
  8
SLD-0
 62
     7
100
AcDbLine
 10
58.5266456925
 20
176.3249092379
 30
0.0
 11
59.3304926925
 21
179.3249092379
 31
0.0
  0
LINE
  5
EC
330
DB
100
AcDbEntity
  8
SLD-0
 62
     7
100
AcDbLine
 10
59.3304926925
 20
179.3249092379
 30
0.0
 11
60.1343396925
 21
176.3249092379
 31
0.0
  0
LINE
  5
ED
330
DB
100
AcDbEntity
  8
SLD-0
 62
     7
100
AcDbLine
 10
59.3304926925
 20
179.3249092379
 30
0.0
 11
59.3304926925
 21
176.3249092379
 31
0.0
  0
LINE
  5
EE
330
DB
100
AcDbEntity
  8
SLD-0
 62
     7
100
AcDbLine
 10
60.1343396925
 20
157.3249092379
 30
0.0
 11
59.3304926925
 21
154.3249092379
 31
0.0
  0
LINE
  5
EF
330
DB
100
AcDbEntity
  8
SLD-0
 62
     7
100
AcDbLine
 10
59.3304926925
 20
154.3249092379
 30
0.0
 11
58.5266456925
 21
157.3249092379
 31
0.0
  0
LINE
  5
F0
330
DB
100
AcDbEntity
  8
SLD-0
 62
     7
100
AcDbLine
 10
59.3304926925
 20
154.3249092379
 30
0.0
 11
59.3304926925
 21
157.3249092379
 31
0.0
  0
MTEXT
  5
F1
330
DB
100
AcDbEntity
  8
SLD-0
 62
     7
100
AcDbMText
 10
54.803799113
 20
164.7894740147
 30
0.2
 40
3.5
 41
0.0
 71
     1
 72
     1
  1
25
  7
SLDTEXTSTYLE0
 11
6.123031769111886E-17
 21
1.0
 31
0.0
 73
     1
 44
1.0
  0
ENDBLK
  5
E7
330
DB
100
AcDbEntity
  8
0
100
AcDbBlockEnd
  0
BLOCK
  5
FD
330
F3
100
AcDbEntity
  8
0
100
AcDbBlockBegin
  2
*D14
 70
     1
 71
     0
 10
0.0
 20
0.0
 30
0.0
  3
*D14
  1

  0
LINE
  5
FF
330
F3
100
AcDbEntity
  8
SLD-0
 62
     7
100
AcDbLine
 10
68.6594902794
 20
174.8249092379
 30
0.0
 11
68.6594902794
 21
237.8946726573
 31
0.0
  0
LINE
  5
100
330
F3
100
AcDbEntity
  8
SLD-0
 62
     7
100
AcDbLine
 10
133.6594902794
 20
174.8249092379
 30
0.0
 11
133.6594902794
 21
237.8946726573
 31
0.0
  0
LINE
  5
101
330
F3
100
AcDbEntity
  8
SLD-0
 62
     7
100
AcDbLine
 10
68.6594902794
 20
236.8946726573
 30
0.0
 11
133.6594902794
 21
236.8946726573
 31
0.0
  0
LINE
  5
102
330
F3
100
AcDbEntity
  8
SLD-0
 62
     7
100
AcDbLine
 10
71.6594902794
 20
236.0908256573
 30
0.0
 11
68.6594902794
 21
236.8946726573
 31
0.0
  0
LINE
  5
103
330
F3
100
AcDbEntity
  8
SLD-0
 62
     7
100
AcDbLine
 10
68.6594902794
 20
236.8946726573
 30
0.0
 11
71.6594902794
 21
237.6985196573
 31
0.0
  0
LINE
  5
104
330
F3
100
AcDbEntity
  8
SLD-0
 62
     7
100
AcDbLine
 10
68.6594902794
 20
236.8946726573
 30
0.0
 11
71.6594902794
 21
236.8946726573
 31
0.0
  0
LINE
  5
105
330
F3
100
AcDbEntity
  8
SLD-0
 62
     7
100
AcDbLine
 10
130.6594902794
 20
237.6985196573
 30
0.0
 11
133.6594902794
 21
236.8946726573
 31
0.0
  0
LINE
  5
106
330
F3
100
AcDbEntity
  8
SLD-0
 62
     7
100
AcDbLine
 10
133.6594902794
 20
236.8946726573
 30
0.0
 11
130.6594902794
 21
236.0908256573
 31
0.0
  0
LINE
  5
107
330
F3
100
AcDbEntity
  8
SLD-0
 62
     7
100
AcDbLine
 10
133.6594902794
 20
236.8946726573
 30
0.0
 11
130.6594902794
 21
236.8946726573
 31
0.0
  0
MTEXT
  5
108
330
F3
100
AcDbEntity
  8
SLD-0
 62
     7
100
AcDbMText
 10
99.1240550563
 20
241.4213662368
 30
0.2
 40
3.5
 41
0.0
 71
     1
 72
     1
  1
65
  7
SLDTEXTSTYLE0
 73
     1
 44
1.0
  0
ENDBLK
  5
FE
330
F3
100
AcDbEntity
  8
0
100
AcDbBlockEnd
  0
BLOCK
  5
115
330
10A
100
AcDbEntity
  8
0
100
AcDbBlockBegin
  2
*D15
 70
     1
 71
     0
 10
0.0
 20
0.0
 30
0.0
  3
*D15
  1

  0
LINE
  5
117
330
10A
100
AcDbEntity
  8
SLD-0
 62
     7
100
AcDbLine
 10
93.1594902794
 20
214.3249092379
 30
0.0
 11
58.3304926925
 21
214.3249092379
 31
0.0
  0
LINE
  5
118
330
10A
100
AcDbEntity
  8
SLD-0
 62
     7
100
AcDbLine
 10
73.1594902794
 20
179.3249092379
 30
0.0
 11
58.3304926925
 21
179.3249092379
 31
0.0
  0
LINE
  5
119
330
10A
100
AcDbEntity
  8
SLD-0
 62
     7
100
AcDbLine
 10
59.3304926925
 20
214.3249092379
 30
0.0
 11
59.3304926925
 21
179.3249092379
 31
0.0
  0
LINE
  5
11A
330
10A
100
AcDbEntity
  8
SLD-0
 62
     7
100
AcDbLine
 10
58.5266456925
 20
211.3249092379
 30
0.0
 11
59.3304926925
 21
214.3249092379
 31
0.0
  0
LINE
  5
11B
330
10A
100
AcDbEntity
  8
SLD-0
 62
     7
100
AcDbLine
 10
59.3304926925
 20
214.3249092379
 30
0.0
 11
60.1343396925
 21
211.3249092379
 31
0.0
  0
LINE
  5
11C
330
10A
100
AcDbEntity
  8
SLD-0
 62
     7
100
AcDbLine
 10
59.3304926925
 20
214.3249092379
 30
0.0
 11
59.3304926925
 21
211.3249092379
 31
0.0
  0
LINE
  5
11D
330
10A
100
AcDbEntity
  8
SLD-0
 62
     7
100
AcDbLine
 10
60.1343396925
 20
182.3249092379
 30
0.0
 11
59.3304926925
 21
179.3249092379
 31
0.0
  0
LINE
  5
11E
330
10A
100
AcDbEntity
  8
SLD-0
 62
     7
100
AcDbLine
 10
59.3304926925
 20
179.3249092379
 30
0.0
 11
58.5266456925
 21
182.3249092379
 31
0.0
  0
LINE
  5
11F
330
10A
100
AcDbEntity
  8
SLD-0
 62
     7
100
AcDbLine
 10
59.3304926925
 20
179.3249092379
 30
0.0
 11
59.3304926925
 21
182.3249092379
 31
0.0
  0
MTEXT
  5
120
330
10A
100
AcDbEntity
  8
SLD-0
 62
     7
100
AcDbMText
 10
54.803799113
 20
194.7894740147
 30
0.2
 40
3.5
 41
0.0
 71
     1
 72
     1
  1
35
  7
SLDTEXTSTYLE0
 11
6.123031769111886E-17
 21
1.0
 31
0.0
 73
     1
 44
1.0
  0
ENDBLK
  5
116
330
10A
100
AcDbEntity
  8
0
100
AcDbBlockEnd
  0
BLOCK
  5
12C
330
122
100
AcDbEntity
  8
0
100
AcDbBlockBegin
  2
*D16
 70
     1
 71
     0
 10
0.0
 20
0.0
 30
0.0
  3
*D16
  1

  0
LINE
  5
12E
330
122
100
AcDbEntity
  8
SLD-0
 62
     7
100
AcDbLine
 10
133.6594902794
 20
174.8249092379
 30
0.0
 11
133.6594902794
 21
229.119804222
 31
0.0
  0
LINE
  5
12F
330
122
100
AcDbEntity
  8
SLD-0
 62
     7
100
AcDbLine
 10
113.6594902794
 20
209.8249092379
 30
0.0
 11
113.6594902794
 21
229.119804222
 31
0.0
  0
LINE
  5
130
330
122
100
AcDbEntity
  8
SLD-0
 62
     7
100
AcDbLine
 10
133.6594902794
 20
228.119804222
 30
0.0
 11
113.6594902794
 21
228.119804222
 31
0.0
  0
LINE
  5
131
330
122
100
AcDbEntity
  8
SLD-0
 62
     7
100
AcDbLine
 10
130.6594902794
 20
228.923651222
 30
0.0
 11
133.6594902794
 21
228.119804222
 31
0.0
  0
LINE
  5
132
330
122
100
AcDbEntity
  8
SLD-0
 62
     7
100
AcDbLine
 10
133.6594902794
 20
228.119804222
 30
0.0
 11
130.6594902794
 21
227.315957222
 31
0.0
  0
LINE
  5
133
330
122
100
AcDbEntity
  8
SLD-0
 62
     7
100
AcDbLine
 10
133.6594902794
 20
228.119804222
 30
0.0
 11
130.6594902794
 21
228.119804222
 31
0.0
  0
LINE
  5
134
330
122
100
AcDbEntity
  8
SLD-0
 62
     7
100
AcDbLine
 10
116.6594902794
 20
227.315957222
 30
0.0
 11
113.6594902794
 21
228.119804222
 31
0.0
  0
LINE
  5
135
330
122
100
AcDbEntity
  8
SLD-0
 62
     7
100
AcDbLine
 10
113.6594902794
 20
228.119804222
 30
0.0
 11
116.6594902794
 21
228.923651222
 31
0.0
  0
LINE
  5
136
330
122
100
AcDbEntity
  8
SLD-0
 62
     7
100
AcDbLine
 10
113.6594902794
 20
228.119804222
 30
0.0
 11
116.6594902794
 21
228.119804222
 31
0.0
  0
MTEXT
  5
137
330
122
100
AcDbEntity
  8
SLD-0
 62
     7
100
AcDbMText
 10
121.6240550563
 20
232.6464978016
 30
0.2
 40
3.5
 41
0.0
 71
     1
 72
     1
  1
20
  7
SLDTEXTSTYLE0
 73
     1
 44
1.0
  0
ENDBLK
  5
12D
330
122
100
AcDbEntity
  8
0
100
AcDbBlockEnd
  0
BLOCK
  5
141
330
139
100
AcDbEntity
  8
0
100
AcDbBlockBegin
  2
*D17
 70
     1
 71
     0
 10
0.0
 20
0.0
 30
0.0
  3
*D17
  1

  0
LINE
  5
145
330
139
100
AcDbEntity
  8
SLD-0
 62
     7
100
AcDbLine
 10
90.0665487326
 20
212.4988484717
 30
0.0
 11
73.748547351
 21
227.1463446078
 31
0.0
  0
LINE
  5
146
330
139
100
AcDbEntity
  8
SLD-0
 62
     7
100
AcDbLine
 10
88.3709960764
 20
215.1010151054
 30
0.0
 11
90.0665487326
 21
212.4988484717
 31
0.0
  0
LINE
  5
147
330
139
100
AcDbEntity
  8
SLD-0
 62
     7
100
AcDbLine
 10
90.0665487326
 20
212.4988484717
 30
0.0
 11
87.2970742468
 21
213.9046155477
 31
0.0
  0
LINE
  5
148
330
139
100
AcDbEntity
  8
SLD-0
 62
     7
100
AcDbLine
 10
90.0665487326
 20
212.4988484717
 30
0.0
 11
87.8340351616
 21
214.5028153265
 31
0.0
  0
MTEXT
  5
149
330
139
100
AcDbEntity
  8
SLD-0
 62
     7
100
AcDbMText
 10
77.9465967856
 20
229.4466333195
 30
0.2
 40
3.5
 41
0.0
 71
     1
 72
     1
  1
8-R
  7
SLDTEXTSTYLE0
 11
0.7441711903252326
 21
-0.6679889516226495
 31
0.0
 73
     1
 44
1.0
  0
MTEXT
  5
14A
330
139
100
AcDbEntity
  8
SLD-0
 62
     7
100
AcDbMText
 10
82.4934529558
 20
225.365247577
 30
0.2
 40
3.5
 41
0.0
 71
     1
 72
     1
  1
5.5
  7
SLDTEXTSTYLE0
 11
0.7441711903252326
 21
-0.6679889516226495
 31
0.0
 73
     1
 44
1.0
  0
ENDBLK
  5
142
330
139
100
AcDbEntity
  8
0
100
AcDbBlockEnd
  0
BLOCK
  5
153
330
14C
100
AcDbEntity
  8
0
100
AcDbBlockBegin
  2
*D18
 70
     1
 71
     0
 10
0.0
 20
0.0
 30
0.0
  3
*D18
  1

  0
LINE
  5
156
330
14C
100
AcDbEntity
  8
SLD-0
 62
     7
100
AcDbLine
 10
77.0120042007
 20
164.1989256849
 30
0.0
 11
71.2222195649
 21
154.970392937
 31
0.0
  0
LINE
  5
157
330
14C
100
AcDbEntity
  8
SLD-0
 62
     7
100
AcDbLine
 10
70.4122941507
 20
153.6794255387
 30
0.0
 11
64.6776598384
 21
144.538798749
 31
0.0
  0
LINE
  5
158
330
14C
100
AcDbEntity
  8
SLD-0
 62
     7
100
AcDbLine
 10
64.6776598384
 20
144.538798749
 30
0.0
 11
45.8644445187
 21
144.538798749
 31
0.0
  0
LINE
  5
159
330
14C
100
AcDbEntity
  8
SLD-0
 62
     7
100
AcDbLine
 10
74.7367308984
 20
162.0848534536
 30
0.0
 11
77.0120042007
 21
164.1989256849
 31
0.0
  0
LINE
  5
15A
330
14C
100
AcDbEntity
  8
SLD-0
 62
     7
100
AcDbLine
 10
77.0120042007
 20
164.1989256849
 30
0.0
 11
76.0985947701
 21
161.230449104
 31
0.0
  0
LINE
  5
15B
330
14C
100
AcDbEntity
  8
SLD-0
 62
     7
100
AcDbLine
 10
77.0120042007
 20
164.1989256849
 30
0.0
 11
75.4176628342
 21
161.6576512788
 31
0.0
  0
MTEXT
  5
15C
330
14C
100
AcDbEntity
  8
SLD-0
 62
     7
100
AcDbMText
 10
47.4519445187
 20
149.0654923286
 30
0.2
 40
3.5
 41
0.0
 71
     1
 72
     1
  1
8-
  7
SLDTEXTSTYLE0
 73
     1
 44
1.0
  0
MTEXT
  5
15D
330
14C
100
AcDbEntity
  8
SLD-0
 62
     7
100
AcDbMText
 10
48.0255555137
 20
149.065491863
 30
0.2
 40
3.5
 41
0.0
 71
     1
 72
     1
  1
%%c
  7
SLDTEXTSTYLE0
 73
     1
 44
1.0
  0
MTEXT
  5
15E
330
14C
100
AcDbEntity
  8
SLD-0
 62
     7
100
AcDbMText
 10
55.3926998866
 20
149.0654923286
 30
0.2
 40
3.5
 41
0.0
 71
     1
 72
     1
  1
6.2
  7
SLDTEXTSTYLE0
 73
     1
 44
1.0
  0
ENDBLK
  5
154
330
14C
100
AcDbEntity
  8
0
100
AcDbBlockEnd
  0
BLOCK
  5
16B
330
160
100
AcDbEntity
  8
0
100
AcDbBlockBegin
  2
*D19
 70
     1
 71
     0
 10
0.0
 20
0.0
 30
0.0
  3
*D19
  1

  0
LINE
  5
16D
330
160
100
AcDbEntity
  8
SLD-0
 62
     7
100
AcDbLine
 10
109.1594902794
 20
214.3249092379
 30
0.0
 11
154.5075599912
 21
214.3249092379
 31
0.0
  0
LINE
  5
16E
330
160
100
AcDbEntity
  8
SLD-0
 62
     7
100
AcDbLine
 10
109.1594902794
 20
119.3249092379
 30
0.0
 11
154.5075599912
 21
119.3249092379
 31
0.0
  0
LINE
  5
16F
330
160
100
AcDbEntity
  8
SLD-0
 62
     7
100
AcDbLine
 10
153.5075599912
 20
214.3249092379
 30
0.0
 11
153.5075599912
 21
119.3249092379
 31
0.0
  0
LINE
  5
170
330
160
100
AcDbEntity
  8
SLD-0
 62
     7
100
AcDbLine
 10
152.7037129912
 20
211.3249092379
 30
0.0
 11
153.5075599912
 21
214.3249092379
 31
0.0
  0
LINE
  5
171
330
160
100
AcDbEntity
  8
SLD-0
 62
     7
100
AcDbLine
 10
153.5075599912
 20
214.3249092379
 30
0.0
 11
154.3114069912
 21
211.3249092379
 31
0.0
  0
LINE
  5
172
330
160
100
AcDbEntity
  8
SLD-0
 62
     7
100
AcDbLine
 10
153.5075599912
 20
214.3249092379
 30
0.0
 11
153.5075599912
 21
211.3249092379
 31
0.0
  0
LINE
  5
173
330
160
100
AcDbEntity
  8
SLD-0
 62
     7
100
AcDbLine
 10
154.3114069912
 20
122.3249092379
 30
0.0
 11
153.5075599912
 21
119.3249092379
 31
0.0
  0
LINE
  5
174
330
160
100
AcDbEntity
  8
SLD-0
 62
     7
100
AcDbLine
 10
153.5075599912
 20
119.3249092379
 30
0.0
 11
152.7037129912
 21
122.3249092379
 31
0.0
  0
LINE
  5
175
330
160
100
AcDbEntity
  8
SLD-0
 62
     7
100
AcDbLine
 10
153.5075599912
 20
119.3249092379
 30
0.0
 11
153.5075599912
 21
122.3249092379
 31
0.0
  0
MTEXT
  5
176
330
160
100
AcDbEntity
  8
SLD-0
 62
     7
100
AcDbMText
 10
148.9808664116
 20
164.7894740147
 30
0.2
 40
3.5
 41
0.0
 71
     1
 72
     1
  1
95
  7
SLDTEXTSTYLE0
 11
6.123031769111886E-17
 21
1.0
 31
0.0
 73
     1
 44
1.0
  0
ENDBLK
  5
16C
330
160
100
AcDbEntity
  8
0
100
AcDbBlockEnd
  0
BLOCK
  5
183
330
178
100
AcDbEntity
  8
0
100
AcDbBlockBegin
  2
*D20
 70
     1
 71
     0
 10
0.0
 20
0.0
 30
0.0
  3
*D20
  1

  0
LINE
  5
185
330
178
100
AcDbEntity
  8
SLD-0
 62
     7
100
AcDbLine
 10
107.7594902794
 20
204.3249092379
 30
0.0
 11
148.8352656729
 21
204.3249092379
 31
0.0
  0
LINE
  5
186
330
178
100
AcDbEntity
  8
SLD-0
 62
     7
100
AcDbLine
 10
109.1594902794
 20
214.3249092379
 30
0.0
 11
148.8352656729
 21
214.3249092379
 31
0.0
  0
LINE
  5
187
330
178
100
AcDbEntity
  8
SLD-0
 62
     7
100
AcDbLine
 10
147.8352656729
 20
204.3249092379
 30
0.0
 11
147.8352656729
 21
199.3249092379
 31
0.0
  0
LINE
  5
188
330
178
100
AcDbEntity
  8
SLD-0
 62
     7
100
AcDbLine
 10
147.8352656729
 20
204.3249092379
 30
0.0
 11
147.8352656729
 21
214.3249092379
 31
0.0
  0
LINE
  5
189
330
178
100
AcDbEntity
  8
SLD-0
 62
     7
100
AcDbLine
 10
147.8352656729
 20
214.3249092379
 30
0.0
 11
147.8352656729
 21
219.3249092379
 31
0.0
  0
LINE
  5
18A
330
178
100
AcDbEntity
  8
SLD-0
 62
     7
100
AcDbLine
 10
147.0314186729
 20
201.3249092379
 30
0.0
 11
147.8352656729
 21
204.3249092379
 31
0.0
  0
LINE
  5
18B
330
178
100
AcDbEntity
  8
SLD-0
 62
     7
100
AcDbLine
 10
147.8352656729
 20
204.3249092379
 30
0.0
 11
148.6391126729
 21
201.3249092379
 31
0.0
  0
LINE
  5
18C
330
178
100
AcDbEntity
  8
SLD-0
 62
     7
100
AcDbLine
 10
147.8352656729
 20
204.3249092379
 30
0.0
 11
147.8352656729
 21
201.3249092379
 31
0.0
  0
LINE
  5
18D
330
178
100
AcDbEntity
  8
SLD-0
 62
     7
100
AcDbLine
 10
148.6391126729
 20
217.3249092379
 30
0.0
 11
147.8352656729
 21
214.3249092379
 31
0.0
  0
LINE
  5
18E
330
178
100
AcDbEntity
  8
SLD-0
 62
     7
100
AcDbLine
 10
147.8352656729
 20
214.3249092379
 30
0.0
 11
147.0314186729
 21
217.3249092379
 31
0.0
  0
LINE
  5
18F
330
178
100
AcDbEntity
  8
SLD-0
 62
     7
100
AcDbLine
 10
147.8352656729
 20
214.3249092379
 30
0.0
 11
147.8352656729
 21
217.3249092379
 31
0.0
  0
MTEXT
  5
190
330
178
100
AcDbEntity
  8
SLD-0
 62
     7
100
AcDbMText
 10
143.3085720934
 20
207.2894740147
 30
0.2
 40
3.5
 41
0.0
 71
     1
 72
     1
  1
10
  7
SLDTEXTSTYLE0
 11
6.123031769111886E-17
 21
1.0
 31
0.0
 73
     1
 44
1.0
  0
ENDBLK
  5
184
330
178
100
AcDbEntity
  8
0
100
AcDbBlockEnd
  0
BLOCK
  5
19D
330
192
100
AcDbEntity
  8
0
100
AcDbBlockBegin
  2
*D21
 70
     1
 71
     0
 10
0.0
 20
0.0
 30
0.0
  3
*D21
  1

  0
LINE
  5
19F
330
192
100
AcDbEntity
  8
SLD-0
 62
     7
100
AcDbLine
 10
107.7594902794
 20
204.3249092379
 30
0.0
 11
148.8352656729
 21
204.3249092379
 31
0.0
  0
LINE
  5
1A0
330
192
100
AcDbEntity
  8
SLD-0
 62
     7
100
AcDbLine
 10
107.7594902794
 20
189.3249092379
 30
0.0
 11
148.8352656729
 21
189.3249092379
 31
0.0
  0
LINE
  5
1A1
330
192
100
AcDbEntity
  8
SLD-0
 62
     7
100
AcDbLine
 10
147.8352656729
 20
204.3249092379
 30
0.0
 11
147.8352656729
 21
209.3249092379
 31
0.0
  0
LINE
  5
1A2
330
192
100
AcDbEntity
  8
SLD-0
 62
     7
100
AcDbLine
 10
147.8352656729
 20
204.3249092379
 30
0.0
 11
147.8352656729
 21
189.3249092379
 31
0.0
  0
LINE
  5
1A3
330
192
100
AcDbEntity
  8
SLD-0
 62
     7
100
AcDbLine
 10
147.8352656729
 20
189.3249092379
 30
0.0
 11
147.8352656729
 21
184.3249092379
 31
0.0
  0
LINE
  5
1A4
330
192
100
AcDbEntity
  8
SLD-0
 62
     7
100
AcDbLine
 10
148.6391126729
 20
207.3249092379
 30
0.0
 11
147.8352656729
 21
204.3249092379
 31
0.0
  0
LINE
  5
1A5
330
192
100
AcDbEntity
  8
SLD-0
 62
     7
100
AcDbLine
 10
147.8352656729
 20
204.3249092379
 30
0.0
 11
147.0314186729
 21
207.3249092379
 31
0.0
  0
LINE
  5
1A6
330
192
100
AcDbEntity
  8
SLD-0
 62
     7
100
AcDbLine
 10
147.8352656729
 20
204.3249092379
 30
0.0
 11
147.8352656729
 21
207.3249092379
 31
0.0
  0
LINE
  5
1A7
330
192
100
AcDbEntity
  8
SLD-0
 62
     7
100
AcDbLine
 10
147.0314186729
 20
186.3249092379
 30
0.0
 11
147.8352656729
 21
189.3249092379
 31
0.0
  0
LINE
  5
1A8
330
192
100
AcDbEntity
  8
SLD-0
 62
     7
100
AcDbLine
 10
147.8352656729
 20
189.3249092379
 30
0.0
 11
148.6391126729
 21
186.3249092379
 31
0.0
  0
LINE
  5
1A9
330
192
100
AcDbEntity
  8
SLD-0
 62
     7
100
AcDbLine
 10
147.8352656729
 20
189.3249092379
 30
0.0
 11
147.8352656729
 21
186.3249092379
 31
0.0
  0
MTEXT
  5
1AA
330
192
100
AcDbEntity
  8
SLD-0
 62
     7
100
AcDbMText
 10
143.3085720934
 20
194.7894740147
 30
0.2
 40
3.5
 41
0.0
 71
     1
 72
     1
  1
15
  7
SLDTEXTSTYLE0
 11
6.123031769111886E-17
 21
1.0
 31
0.0
 73
     1
 44
1.0
  0
ENDBLK
  5
19E
330
192
100
AcDbEntity
  8
0
100
AcDbBlockEnd
  0
BLOCK
  5
1B7
330
1AC
100
AcDbEntity
  8
0
100
AcDbBlockBegin
  2
*D22
 70
     1
 71
     0
 10
0.0
 20
0.0
 30
0.0
  3
*D22
  1

  0
LINE
  5
1BA
330
1AC
100
AcDbEntity
  8
SLD-0
 62
     7
100
AcDbLine
 10
107.7594902794
 20
189.3249092379
 30
0.0
 11
148.8352656729
 21
189.3249092379
 31
0.0
  0
LINE
  5
1BB
330
1AC
100
AcDbEntity
  8
SLD-0
 62
     7
100
AcDbLine
 10
130.2594902794
 20
166.8249092379
 30
0.0
 11
148.8352656729
 21
166.8249092379
 31
0.0
  0
LINE
  5
1BC
330
1AC
100
AcDbEntity
  8
SLD-0
 62
     7
100
AcDbLine
 10
147.8352656729
 20
189.3249092379
 30
0.0
 11
147.8352656729
 21
166.8249092379
 31
0.0
  0
LINE
  5
1BD
330
1AC
100
AcDbEntity
  8
SLD-0
 62
     7
100
AcDbLine
 10
147.0314186729
 20
186.3249092379
 30
0.0
 11
147.8352656729
 21
189.3249092379
 31
0.0
  0
LINE
  5
1BE
330
1AC
100
AcDbEntity
  8
SLD-0
 62
     7
100
AcDbLine
 10
147.8352656729
 20
189.3249092379
 30
0.0
 11
148.6391126729
 21
186.3249092379
 31
0.0
  0
LINE
  5
1BF
330
1AC
100
AcDbEntity
  8
SLD-0
 62
     7
100
AcDbLine
 10
147.8352656729
 20
189.3249092379
 30
0.0
 11
147.8352656729
 21
186.3249092379
 31
0.0
  0
LINE
  5
1C0
330
1AC
100
AcDbEntity
  8
SLD-0
 62
     7
100
AcDbLine
 10
148.6391126729
 20
169.8249092379
 30
0.0
 11
147.8352656729
 21
166.8249092379
 31
0.0
  0
LINE
  5
1C1
330
1AC
100
AcDbEntity
  8
SLD-0
 62
     7
100
AcDbLine
 10
147.8352656729
 20
166.8249092379
 30
0.0
 11
147.0314186729
 21
169.8249092379
 31
0.0
  0
LINE
  5
1C2
330
1AC
100
AcDbEntity
  8
SLD-0
 62
     7
100
AcDbLine
 10
147.8352656729
 20
166.8249092379
 30
0.0
 11
147.8352656729
 21
169.8249092379
 31
0.0
  0
MTEXT
  5
1C3
330
1AC
100
AcDbEntity
  8
SLD-0
 62
     7
100
AcDbMText
 10
143.3085720934
 20
174.0022116504
 30
0.2
 40
3.5
 41
0.0
 71
     1
 72
     1
  1
22.5
  7
SLDTEXTSTYLE0
 11
6.123031769111886E-17
 21
1.0
 31
0.0
 73
     1
 44
1.0
  0
ENDBLK
  5
1B8
330
1AC
100
AcDbEntity
  8
0
100
AcDbBlockEnd
  0
BLOCK
  5
1D0
330
1C5
100
AcDbEntity
  8
0
100
AcDbBlockBegin
  2
*D23
 70
     1
 71
     0
 10
0.0
 20
0.0
 30
0.0
  3
*D23
  1

  0
LINE
  5
1D2
330
1C5
100
AcDbEntity
  8
SLD-0
 62
     7
100
AcDbLine
 10
107.7594902794
 20
144.3249092379
 30
0.0
 11
148.8352656729
 21
144.3249092379
 31
0.0
  0
LINE
  5
1D3
330
1C5
100
AcDbEntity
  8
SLD-0
 62
     7
100
AcDbLine
 10
130.2594902794
 20
166.8249092379
 30
0.0
 11
148.8352656729
 21
166.8249092379
 31
0.0
  0
LINE
  5
1D4
330
1C5
100
AcDbEntity
  8
SLD-0
 62
     7
100
AcDbLine
 10
147.8352656729
 20
144.3249092379
 30
0.0
 11
147.8352656729
 21
166.8249092379
 31
0.0
  0
LINE
  5
1D5
330
1C5
100
AcDbEntity
  8
SLD-0
 62
     7
100
AcDbLine
 10
148.6391126729
 20
147.3249092379
 30
0.0
 11
147.8352656729
 21
144.3249092379
 31
0.0
  0
LINE
  5
1D6
330
1C5
100
AcDbEntity
  8
SLD-0
 62
     7
100
AcDbLine
 10
147.8352656729
 20
144.3249092379
 30
0.0
 11
147.0314186729
 21
147.3249092379
 31
0.0
  0
LINE
  5
1D7
330
1C5
100
AcDbEntity
  8
SLD-0
 62
     7
100
AcDbLine
 10
147.8352656729
 20
144.3249092379
 30
0.0
 11
147.8352656729
 21
147.3249092379
 31
0.0
  0
LINE
  5
1D8
330
1C5
100
AcDbEntity
  8
SLD-0
 62
     7
100
AcDbLine
 10
147.0314186729
 20
163.8249092379
 30
0.0
 11
147.8352656729
 21
166.8249092379
 31
0.0
  0
LINE
  5
1D9
330
1C5
100
AcDbEntity
  8
SLD-0
 62
     7
100
AcDbLine
 10
147.8352656729
 20
166.8249092379
 30
0.0
 11
148.6391126729
 21
163.8249092379
 31
0.0
  0
LINE
  5
1DA
330
1C5
100
AcDbEntity
  8
SLD-0
 62
     7
100
AcDbLine
 10
147.8352656729
 20
166.8249092379
 30
0.0
 11
147.8352656729
 21
163.8249092379
 31
0.0
  0
MTEXT
  5
1DB
330
1C5
100
AcDbEntity
  8
SLD-0
 62
     7
100
AcDbMText
 10
143.3085720934
 20
151.5022116504
 30
0.2
 40
3.5
 41
0.0
 71
     1
 72
     1
  1
22.5
  7
SLDTEXTSTYLE0
 11
6.123031769111886E-17
 21
1.0
 31
0.0
 73
     1
 44
1.0
  0
ENDBLK
  5
1D1
330
1C5
100
AcDbEntity
  8
0
100
AcDbBlockEnd
  0
BLOCK
  5
1E8
330
1DD
100
AcDbEntity
  8
0
100
AcDbBlockBegin
  2
*D24
 70
     1
 71
     0
 10
0.0
 20
0.0
 30
0.0
  3
*D24
  1

  0
LINE
  5
1EA
330
1DD
100
AcDbEntity
  8
SLD-0
 62
     7
100
AcDbLine
 10
107.7594902794
 20
129.3249092379
 30
0.0
 11
148.8352656729
 21
129.3249092379
 31
0.0
  0
LINE
  5
1EB
330
1DD
100
AcDbEntity
  8
SLD-0
 62
     7
100
AcDbLine
 10
107.7594902794
 20
144.3249092379
 30
0.0
 11
148.8352656729
 21
144.3249092379
 31
0.0
  0
LINE
  5
1EC
330
1DD
100
AcDbEntity
  8
SLD-0
 62
     7
100
AcDbLine
 10
147.8352656729
 20
129.3249092379
 30
0.0
 11
147.8352656729
 21
124.3249092379
 31
0.0
  0
LINE
  5
1ED
330
1DD
100
AcDbEntity
  8
SLD-0
 62
     7
100
AcDbLine
 10
147.8352656729
 20
129.3249092379
 30
0.0
 11
147.8352656729
 21
144.3249092379
 31
0.0
  0
LINE
  5
1EE
330
1DD
100
AcDbEntity
  8
SLD-0
 62
     7
100
AcDbLine
 10
147.8352656729
 20
144.3249092379
 30
0.0
 11
147.8352656729
 21
149.3249092379
 31
0.0
  0
LINE
  5
1EF
330
1DD
100
AcDbEntity
  8
SLD-0
 62
     7
100
AcDbLine
 10
147.0314186729
 20
126.3249092379
 30
0.0
 11
147.8352656729
 21
129.3249092379
 31
0.0
  0
LINE
  5
1F0
330
1DD
100
AcDbEntity
  8
SLD-0
 62
     7
100
AcDbLine
 10
147.8352656729
 20
129.3249092379
 30
0.0
 11
148.6391126729
 21
126.3249092379
 31
0.0
  0
LINE
  5
1F1
330
1DD
100
AcDbEntity
  8
SLD-0
 62
     7
100
AcDbLine
 10
147.8352656729
 20
129.3249092379
 30
0.0
 11
147.8352656729
 21
126.3249092379
 31
0.0
  0
LINE
  5
1F2
330
1DD
100
AcDbEntity
  8
SLD-0
 62
     7
100
AcDbLine
 10
148.6391126729
 20
147.3249092379
 30
0.0
 11
147.8352656729
 21
144.3249092379
 31
0.0
  0
LINE
  5
1F3
330
1DD
100
AcDbEntity
  8
SLD-0
 62
     7
100
AcDbLine
 10
147.8352656729
 20
144.3249092379
 30
0.0
 11
147.0314186729
 21
147.3249092379
 31
0.0
  0
LINE
  5
1F4
330
1DD
100
AcDbEntity
  8
SLD-0
 62
     7
100
AcDbLine
 10
147.8352656729
 20
144.3249092379
 30
0.0
 11
147.8352656729
 21
147.3249092379
 31
0.0
  0
MTEXT
  5
1F5
330
1DD
100
AcDbEntity
  8
SLD-0
 62
     7
100
AcDbMText
 10
143.3085720934
 20
134.7894740147
 30
0.2
 40
3.5
 41
0.0
 71
     1
 72
     1
  1
15
  7
SLDTEXTSTYLE0
 11
6.123031769111886E-17
 21
1.0
 31
0.0
 73
     1
 44
1.0
  0
ENDBLK
  5
1E9
330
1DD
100
AcDbEntity
  8
0
100
AcDbBlockEnd
  0
BLOCK
  5
201
330
1F7
100
AcDbEntity
  8
0
100
AcDbBlockBegin
  2
*D25
 70
     1
 71
     0
 10
0.0
 20
0.0
 30
0.0
  3
*D25
  1

  0
LINE
  5
203
330
1F7
100
AcDbEntity
  8
SLD-0
 62
     7
100
AcDbLine
 10
123.6594902794
 20
173.4249092379
 30
0.0
 11
123.6594902794
 21
101.7681857874
 31
0.0
  0
LINE
  5
204
330
1F7
100
AcDbEntity
  8
SLD-0
 62
     7
100
AcDbLine
 10
133.6594902794
 20
158.8249092379
 30
0.0
 11
133.6594902794
 21
101.7681857874
 31
0.0
  0
LINE
  5
205
330
1F7
100
AcDbEntity
  8
SLD-0
 62
     7
100
AcDbLine
 10
123.6594902794
 20
102.7681857874
 30
0.0
 11
133.6594902794
 21
102.7681857874
 31
0.0
  0
LINE
  5
206
330
1F7
100
AcDbEntity
  8
SLD-0
 62
     7
100
AcDbLine
 10
126.6594902794
 20
101.9643387874
 30
0.0
 11
123.6594902794
 21
102.7681857874
 31
0.0
  0
LINE
  5
207
330
1F7
100
AcDbEntity
  8
SLD-0
 62
     7
100
AcDbLine
 10
123.6594902794
 20
102.7681857874
 30
0.0
 11
126.6594902794
 21
103.5720327874
 31
0.0
  0
LINE
  5
208
330
1F7
100
AcDbEntity
  8
SLD-0
 62
     7
100
AcDbLine
 10
123.6594902794
 20
102.7681857874
 30
0.0
 11
126.6594902794
 21
102.7681857874
 31
0.0
  0
LINE
  5
209
330
1F7
100
AcDbEntity
  8
SLD-0
 62
     7
100
AcDbLine
 10
130.6594902794
 20
103.5720327874
 30
0.0
 11
133.6594902794
 21
102.7681857874
 31
0.0
  0
LINE
  5
20A
330
1F7
100
AcDbEntity
  8
SLD-0
 62
     7
100
AcDbLine
 10
133.6594902794
 20
102.7681857874
 30
0.0
 11
130.6594902794
 21
101.9643387874
 31
0.0
  0
LINE
  5
20B
330
1F7
100
AcDbEntity
  8
SLD-0
 62
     7
100
AcDbLine
 10
133.6594902794
 20
102.7681857874
 30
0.0
 11
130.6594902794
 21
102.7681857874
 31
0.0
  0
MTEXT
  5
20C
330
1F7
100
AcDbEntity
  8
SLD-0
 62
     7
100
AcDbMText
 10
126.6240550563
 20
107.294879367
 30
0.2
 40
3.5
 41
0.0
 71
     1
 72
     1
  1
10
  7
SLDTEXTSTYLE0
 73
     1
 44
1.0
  0
ENDBLK
  5
202
330
1F7
100
AcDbEntity
  8
0
100
AcDbBlockEnd
  0
BLOCK
  5
218
330
20E
100
AcDbEntity
  8
0
100
AcDbBlockBegin
  2
*D26
 70
     1
 71
     0
 10
0.0
 20
0.0
 30
0.0
  3
*D26
  1

  0
LINE
  5
21A
330
20E
100
AcDbEntity
  8
SLD-0
 62
     7
100
AcDbLine
 10
123.6594902794
 20
160.2249092379
 30
0.0
 11
123.6594902794
 21
101.7681857874
 31
0.0
  0
LINE
  5
21B
330
20E
100
AcDbEntity
  8
SLD-0
 62
     7
100
AcDbLine
 10
108.6594902794
 20
160.2249092379
 30
0.0
 11
108.6594902794
 21
101.7681857874
 31
0.0
  0
LINE
  5
21C
330
20E
100
AcDbEntity
  8
SLD-0
 62
     7
100
AcDbLine
 10
123.6594902794
 20
102.7681857874
 30
0.0
 11
108.6594902794
 21
102.7681857874
 31
0.0
  0
LINE
  5
21D
330
20E
100
AcDbEntity
  8
SLD-0
 62
     7
100
AcDbLine
 10
120.6594902794
 20
103.5720327874
 30
0.0
 11
123.6594902794
 21
102.7681857874
 31
0.0
  0
LINE
  5
21E
330
20E
100
AcDbEntity
  8
SLD-0
 62
     7
100
AcDbLine
 10
123.6594902794
 20
102.7681857874
 30
0.0
 11
120.6594902794
 21
101.9643387874
 31
0.0
  0
LINE
  5
21F
330
20E
100
AcDbEntity
  8
SLD-0
 62
     7
100
AcDbLine
 10
123.6594902794
 20
102.7681857874
 30
0.0
 11
120.6594902794
 21
102.7681857874
 31
0.0
  0
LINE
  5
220
330
20E
100
AcDbEntity
  8
SLD-0
 62
     7
100
AcDbLine
 10
111.6594902794
 20
101.9643387874
 30
0.0
 11
108.6594902794
 21
102.7681857874
 31
0.0
  0
LINE
  5
221
330
20E
100
AcDbEntity
  8
SLD-0
 62
     7
100
AcDbLine
 10
108.6594902794
 20
102.7681857874
 30
0.0
 11
111.6594902794
 21
103.5720327874
 31
0.0
  0
LINE
  5
222
330
20E
100
AcDbEntity
  8
SLD-0
 62
     7
100
AcDbLine
 10
108.6594902794
 20
102.7681857874
 30
0.0
 11
111.6594902794
 21
102.7681857874
 31
0.0
  0
MTEXT
  5
223
330
20E
100
AcDbEntity
  8
SLD-0
 62
     7
100
AcDbMText
 10
114.1240550563
 20
107.294879367
 30
0.2
 40
3.5
 41
0.0
 71
     1
 72
     1
  1
15
  7
SLDTEXTSTYLE0
 73
     1
 44
1.0
  0
ENDBLK
  5
219
330
20E
100
AcDbEntity
  8
0
100
AcDbBlockEnd
  0
BLOCK
  5
230
330
225
100
AcDbEntity
  8
0
100
AcDbBlockBegin
  2
*D27
 70
     1
 71
     0
 10
0.0
 20
0.0
 30
0.0
  3
*D27
  1

  0
ARC
  5
232
330
225
100
AcDbEntity
  8
SLD-0
 62
     7
100
AcDbCircle
 10
101.1594902794
 20
102.7681857874
 30
0.0
 40
0.75
100
AcDbArc
 50
180.0
 51
0.0
  0
ARC
  5
233
330
225
100
AcDbEntity
  8
SLD-0
 62
     7
100
AcDbCircle
 10
101.1594902794
 20
102.7681857874
 30
0.0
 40
0.75
100
AcDbArc
 50
0.0
 51
180.0
  0
LINE
  5
234
330
225
100
AcDbEntity
  8
SLD-0
 62
     7
100
AcDbLine
 10
101.1594902794
 20
197.7249092379
 30
0.0
 11
101.1594902794
 21
101.7681857874
 31
0.0
  0
LINE
  5
235
330
225
100
AcDbEntity
  8
SLD-0
 62
     7
100
AcDbLine
 10
108.6594902794
 20
160.2249092379
 30
0.0
 11
108.6594902794
 21
101.7681857874
 31
0.0
  0
LINE
  5
236
330
225
100
AcDbEntity
  8
SLD-0
 62
     7
100
AcDbLine
 10
101.1594902794
 20
102.7681857874
 30
0.0
 11
96.1594902794
 21
102.7681857874
 31
0.0
  0
LINE
  5
237
330
225
100
AcDbEntity
  8
SLD-0
 62
     7
100
AcDbLine
 10
101.1594902794
 20
102.7681857874
 30
0.0
 11
108.6594902794
 21
102.7681857874
 31
0.0
  0
LINE
  5
238
330
225
100
AcDbEntity
  8
SLD-0
 62
     7
100
AcDbLine
 10
108.6594902794
 20
102.7681857874
 30
0.0
 11
113.6594902794
 21
102.7681857874
 31
0.0
  0
LINE
  5
239
330
225
100
AcDbEntity
  8
SLD-0
 62
     7
100
AcDbLine
 10
99.6594902794
 20
102.7681857874
 30
0.0
 11
98.1594902794
 21
102.7681857874
 31
0.0
  0
LINE
  5
23A
330
225
100
AcDbEntity
  8
SLD-0
 62
     7
100
AcDbLine
 10
111.6594902794
 20
101.9643387874
 30
0.0
 11
108.6594902794
 21
102.7681857874
 31
0.0
  0
LINE
  5
23B
330
225
100
AcDbEntity
  8
SLD-0
 62
     7
100
AcDbLine
 10
108.6594902794
 20
102.7681857874
 30
0.0
 11
111.6594902794
 21
103.5720327874
 31
0.0
  0
LINE
  5
23C
330
225
100
AcDbEntity
  8
SLD-0
 62
     7
100
AcDbLine
 10
108.6594902794
 20
102.7681857874
 30
0.0
 11
111.6594902794
 21
102.7681857874
 31
0.0
  0
MTEXT
  5
23D
330
225
100
AcDbEntity
  8
SLD-0
 62
     7
100
AcDbMText
 10
101.8545103036
 20
107.294879367
 30
0.2
 40
3.5
 41
0.0
 71
     1
 72
     1
  1
7.5
  7
SLDTEXTSTYLE0
 73
     1
 44
1.0
  0
ENDBLK
  5
231
330
225
100
AcDbEntity
  8
0
100
AcDbBlockEnd
  0
BLOCK
  5
24A
330
23F
100
AcDbEntity
  8
0
100
AcDbBlockBegin
  2
*D28
 70
     1
 71
     0
 10
0.0
 20
0.0
 30
0.0
  3
*D28
  1

  0
ARC
  5
24C
330
23F
100
AcDbEntity
  8
SLD-0
 62
     7
100
AcDbCircle
 10
101.1594902794
 20
102.7681857874
 30
0.0
 40
0.75
100
AcDbArc
 50
0.0
 51
180.0
  0
ARC
  5
24D
330
23F
100
AcDbEntity
  8
SLD-0
 62
     7
100
AcDbCircle
 10
101.1594902794
 20
102.7681857874
 30
0.0
 40
0.75
100
AcDbArc
 50
180.0
 51
0.0
  0
LINE
  5
24E
330
23F
100
AcDbEntity
  8
SLD-0
 62
     7
100
AcDbLine
 10
93.6594902794
 20
160.2249092379
 30
0.0
 11
93.6594902794
 21
101.7681857874
 31
0.0
  0
LINE
  5
24F
330
23F
100
AcDbEntity
  8
SLD-0
 62
     7
100
AcDbLine
 10
101.1594902794
 20
165.8249092379
 30
0.0
 11
101.1594902794
 21
101.7681857874
 31
0.0
  0
LINE
  5
250
330
23F
100
AcDbEntity
  8
SLD-0
 62
     7
100
AcDbLine
 10
93.6594902794
 20
102.7681857874
 30
0.0
 11
88.6594902794
 21
102.7681857874
 31
0.0
  0
LINE
  5
251
330
23F
100
AcDbEntity
  8
SLD-0
 62
     7
100
AcDbLine
 10
93.6594902794
 20
102.7681857874
 30
0.0
 11
101.1594902794
 21
102.7681857874
 31
0.0
  0
LINE
  5
252
330
23F
100
AcDbEntity
  8
SLD-0
 62
     7
100
AcDbLine
 10
101.1594902794
 20
102.7681857874
 30
0.0
 11
106.1594902794
 21
102.7681857874
 31
0.0
  0
LINE
  5
253
330
23F
100
AcDbEntity
  8
SLD-0
 62
     7
100
AcDbLine
 10
90.6594902794
 20
103.5720327874
 30
0.0
 11
93.6594902794
 21
102.7681857874
 31
0.0
  0
LINE
  5
254
330
23F
100
AcDbEntity
  8
SLD-0
 62
     7
100
AcDbLine
 10
93.6594902794
 20
102.7681857874
 30
0.0
 11
90.6594902794
 21
101.9643387874
 31
0.0
  0
LINE
  5
255
330
23F
100
AcDbEntity
  8
SLD-0
 62
     7
100
AcDbLine
 10
93.6594902794
 20
102.7681857874
 30
0.0
 11
90.6594902794
 21
102.7681857874
 31
0.0
  0
LINE
  5
256
330
23F
100
AcDbEntity
  8
SLD-0
 62
     7
100
AcDbLine
 10
102.6594902794
 20
102.7681857874
 30
0.0
 11
104.1594902794
 21
102.7681857874
 31
0.0
  0
MTEXT
  5
257
330
23F
100
AcDbEntity
  8
SLD-0
 62
     7
100
AcDbMText
 10
94.3545103036
 20
107.294879367
 30
0.2
 40
3.5
 41
0.0
 71
     1
 72
     1
  1
7.5
  7
SLDTEXTSTYLE0
 73
     1
 44
1.0
  0
ENDBLK
  5
24B
330
23F
100
AcDbEntity
  8
0
100
AcDbBlockEnd
  0
BLOCK
  5
263
330
259
100
AcDbEntity
  8
0
100
AcDbBlockBegin
  2
*D29
 70
     1
 71
     0
 10
0.0
 20
0.0
 30
0.0
  3
*D29
  1

  0
LINE
  5
265
330
259
100
AcDbEntity
  8
SLD-0
 62
     7
100
AcDbLine
 10
78.6594902794
 20
160.2249092379
 30
0.0
 11
78.6594902794
 21
101.7681857874
 31
0.0
  0
LINE
  5
266
330
259
100
AcDbEntity
  8
SLD-0
 62
     7
100
AcDbLine
 10
93.6594902794
 20
160.2249092379
 30
0.0
 11
93.6594902794
 21
101.7681857874
 31
0.0
  0
LINE
  5
267
330
259
100
AcDbEntity
  8
SLD-0
 62
     7
100
AcDbLine
 10
78.6594902794
 20
102.7681857874
 30
0.0
 11
93.6594902794
 21
102.7681857874
 31
0.0
  0
LINE
  5
268
330
259
100
AcDbEntity
  8
SLD-0
 62
     7
100
AcDbLine
 10
81.6594902794
 20
101.9643387874
 30
0.0
 11
78.6594902794
 21
102.7681857874
 31
0.0
  0
LINE
  5
269
330
259
100
AcDbEntity
  8
SLD-0
 62
     7
100
AcDbLine
 10
78.6594902794
 20
102.7681857874
 30
0.0
 11
81.6594902794
 21
103.5720327874
 31
0.0
  0
LINE
  5
26A
330
259
100
AcDbEntity
  8
SLD-0
 62
     7
100
AcDbLine
 10
78.6594902794
 20
102.7681857874
 30
0.0
 11
81.6594902794
 21
102.7681857874
 31
0.0
  0
LINE
  5
26B
330
259
100
AcDbEntity
  8
SLD-0
 62
     7
100
AcDbLine
 10
90.6594902794
 20
103.5720327874
 30
0.0
 11
93.6594902794
 21
102.7681857874
 31
0.0
  0
LINE
  5
26C
330
259
100
AcDbEntity
  8
SLD-0
 62
     7
100
AcDbLine
 10
93.6594902794
 20
102.7681857874
 30
0.0
 11
90.6594902794
 21
101.9643387874
 31
0.0
  0
LINE
  5
26D
330
259
100
AcDbEntity
  8
SLD-0
 62
     7
100
AcDbLine
 10
93.6594902794
 20
102.7681857874
 30
0.0
 11
90.6594902794
 21
102.7681857874
 31
0.0
  0
MTEXT
  5
26E
330
259
100
AcDbEntity
  8
SLD-0
 62
     7
100
AcDbMText
 10
84.1240550563
 20
107.294879367
 30
0.2
 40
3.5
 41
0.0
 71
     1
 72
     1
  1
15
  7
SLDTEXTSTYLE0
 73
     1
 44
1.0
  0
ENDBLK
  5
264
330
259
100
AcDbEntity
  8
0
100
AcDbBlockEnd
  0
ENDSEC
  0
SECTION
  2
ENTITIES
  0
LINE
  5
98
330
1F
100
AcDbEntity
  8
SLD-0
  6
Continuous
 62
   179
100
AcDbLine
 10
20.2604743903
 20
285.0
 30
0.0
 11
196.7604743903
 21
285.0
 31
0.0
  0
LINE
  5
99
330
1F
100
AcDbEntity
  8
SLD-0
  6
Continuous
 62
   179
100
AcDbLine
 10
20.2604743903
 20
285.0
 30
0.0
 11
20.2604743903
 21
10.0
 31
0.0
  0
LINE
  5
9A
330
1F
100
AcDbEntity
  8
SLD-0
  6
Continuous
 62
   179
100
AcDbLine
 10
20.2604743903
 20
10.0
 30
0.0
 11
196.7604743903
 21
10.0
 31
0.0
  0
LINE
  5
9B
330
1F
100
AcDbEntity
  8
SLD-0
  6
Continuous
 62
   179
100
AcDbLine
 10
196.7604743903
 20
285.0
 30
0.0
 11
196.7604743903
 21
10.0
 31
0.0
  0
LINE
  5
9C
330
1F
100
AcDbEntity
  8
SLD-0
  6
Continuous
 62
   179
100
AcDbLine
 10
65.7604743903
 20
285.0
 30
0.0
 11
196.7604743903
 21
285.0
 31
0.0
  0
LINE
  5
9D
330
1F
100
AcDbEntity
  8
SLD-0
  6
Continuous
 62
   179
100
AcDbLine
 10
196.7604743903
 20
285.0
 30
0.0
 11
196.7604743903
 21
264.25
 31
0.0
  0
LINE
  5
9E
330
1F
100
AcDbEntity
  8
SLD-0
  6
Continuous
 62
   179
100
AcDbLine
 10
127.0104743903
 20
50.75
 30
0.0
 11
196.7604743903
 21
50.75
 31
0.0
  0
LINE
  5
9F
330
1F
100
AcDbEntity
  8
SLD-0
  6
Continuous
 62
   179
100
AcDbLine
 10
127.0104743903
 20
50.75
 30
0.0
 11
127.0104743903
 21
10.0
 31
0.0
  0
LINE
  5
A0
330
1F
100
AcDbEntity
  8
SLD-0
  6
Continuous
 62
   179
100
AcDbLine
 10
127.0104743903
 20
22.75
 30
0.0
 11
196.7604743903
 21
22.75
 31
0.0
  0
LINE
  5
A1
330
1F
100
AcDbEntity
  8
SLD-0
  6
Continuous
 62
   179
100
AcDbLine
 10
127.0104743903
 20
36.75
 30
0.0
 11
196.7604743903
 21
36.75
 31
0.0
  0
LINE
  5
A2
330
1F
100
AcDbEntity
  8
SLD-0
  6
Continuous
 62
   179
100
AcDbLine
 10
88.6594900932
 20
208.8249092379
 30
0.0
 11
88.6594900932
 21
179.3249094241
 31
0.0
  0
LINE
  5
A3
330
1F
100
AcDbEntity
  8
SLD-0
  6
Continuous
 62
   179
100
AcDbLine
 10
108.1594900932
 20
214.3249092379
 30
0.0
 11
94.1594900932
 21
214.3249092379
 31
0.0
  0
LINE
  5
A4
330
1F
100
AcDbEntity
  8
SLD-0
  6
Continuous
 62
   179
100
AcDbLine
 10
113.6594900932
 20
179.3249094241
 30
0.0
 11
113.6594900932
 21
208.8249092379
 31
0.0
  0
LINE
  5
A5
330
1F
100
AcDbEntity
  8
SLD-0
  6
Continuous
 62
   179
100
AcDbLine
 10
128.1594899069
 20
179.3249092379
 30
0.0
 11
113.6594900932
 21
179.3249094241
 31
0.0
  0
LINE
  5
A6
330
1F
100
AcDbEntity
  8
SLD-0
  6
Continuous
 62
   179
100
AcDbLine
 10
133.6594899069
 20
159.8249092379
 30
0.0
 11
133.6594899069
 21
173.8249092379
 31
0.0
  0
LINE
  5
A7
330
1F
100
AcDbEntity
  8
SLD-0
  6
Continuous
 62
   179
100
AcDbLine
 10
113.6594900932
 20
154.3249090516
 30
0.0
 11
128.1594899069
 21
154.3249092379
 31
0.0
  0
LINE
  5
A8
330
1F
100
AcDbEntity
  8
SLD-0
  6
Continuous
 62
   179
100
AcDbLine
 10
113.6594900932
 20
124.8249092379
 30
0.0
 11
113.6594900932
 21
154.3249090516
 31
0.0
  0
LINE
  5
A9
330
1F
100
AcDbEntity
  8
SLD-0
  6
Continuous
 62
   179
100
AcDbLine
 10
94.1594900932
 20
119.3249092379
 30
0.0
 11
108.1594900932
 21
119.3249092379
 31
0.0
  0
LINE
  5
AA
330
1F
100
AcDbEntity
  8
SLD-0
  6
Continuous
 62
   179
100
AcDbLine
 10
88.6594900932
 20
154.3249090516
 30
0.0
 11
88.6594900932
 21
124.8249092379
 31
0.0
  0
LINE
  5
AB
330
1F
100
AcDbEntity
  8
SLD-0
  6
Continuous
 62
   179
100
AcDbLine
 10
74.1594902794
 20
154.3249092379
 30
0.0
 11
88.6594900932
 21
154.3249090516
 31
0.0
  0
LINE
  5
AC
330
1F
100
AcDbEntity
  8
SLD-0
  6
Continuous
 62
   179
100
AcDbLine
 10
68.6594902794
 20
173.8249092379
 30
0.0
 11
68.6594902794
 21
159.8249092379
 31
0.0
  0
LINE
  5
AD
330
1F
100
AcDbEntity
  8
SLD-0
  6
Continuous
 62
   179
100
AcDbLine
 10
88.6594900932
 20
179.3249094241
 30
0.0
 11
74.1594902794
 21
179.3249092379
 31
0.0
  0
ARC
  5
AE
330
1F
100
AcDbEntity
  8
SLD-0
  6
Continuous
 62
   179
100
AcDbCircle
 10
94.1594900932
 20
208.8249092379
 30
0.0
 40
5.500000000000014
100
AcDbArc
 50
90.0
 51
180.0
  0
ARC
  5
AF
330
1F
100
AcDbEntity
  8
SLD-0
  6
Continuous
 62
   179
100
AcDbCircle
 10
108.1594900932
 20
208.8249092379
 30
0.0
 40
5.5
100
AcDbArc
 50
0.0
 51
90.0
  0
ARC
  5
B0
330
1F
100
AcDbEntity
  8
SLD-0
  6
Continuous
 62
   179
100
AcDbCircle
 10
128.1594899069
 20
173.8249092379
 30
0.0
 40
5.5
100
AcDbArc
 50
0.0
 51
90.0
  0
ARC
  5
B1
330
1F
100
AcDbEntity
  8
SLD-0
  6
Continuous
 62
   179
100
AcDbCircle
 10
128.1594899069
 20
159.8249092379
 30
0.0
 40
5.5
100
AcDbArc
 50
270.0
 51
0.0
  0
ARC
  5
B2
330
1F
100
AcDbEntity
  8
SLD-0
  6
Continuous
 62
   179
100
AcDbCircle
 10
108.1594900932
 20
124.8249092379
 30
0.0
 40
5.5
100
AcDbArc
 50
270.0
 51
0.0
  0
ARC
  5
B3
330
1F
100
AcDbEntity
  8
SLD-0
  6
Continuous
 62
   179
100
AcDbCircle
 10
94.1594900932
 20
124.8249092379
 30
0.0
 40
5.500000000000014
100
AcDbArc
 50
180.0
 51
270.0
  0
ARC
  5
B4
330
1F
100
AcDbEntity
  8
SLD-0
  6
Continuous
 62
   179
100
AcDbCircle
 10
74.1594902794
 20
159.8249092379
 30
0.0
 40
5.500000000000014
100
AcDbArc
 50
180.0
 51
270.0
  0
ARC
  5
B5
330
1F
100
AcDbEntity
  8
SLD-0
  6
Continuous
 62
   179
100
AcDbCircle
 10
74.1594902794
 20
173.8249092379
 30
0.0
 40
5.500000000000014
100
AcDbArc
 50
90.0
 51
180.0
  0
CIRCLE
  5
B6
330
1F
100
AcDbEntity
  8
SLD-0
  6
Continuous
 62
   179
100
AcDbCircle
 10
78.6594902794
 20
166.8249092379
 30
0.0
 40
3.100000000000009
  0
CIRCLE
  5
B7
330
1F
100
AcDbEntity
  8
SLD-0
  6
Continuous
 62
   179
100
AcDbCircle
 10
101.1594902794
 20
144.3249092379
 30
0.0
 40
3.100000000000009
  0
CIRCLE
  5
B8
330
1F
100
AcDbEntity
  8
SLD-0
  6
Continuous
 62
   179
100
AcDbCircle
 10
101.1594902794
 20
189.3249092379
 30
0.0
 40
3.100000000000009
  0
CIRCLE
  5
B9
330
1F
100
AcDbEntity
  8
SLD-0
  6
Continuous
 62
   179
100
AcDbCircle
 10
123.6594902794
 20
166.8249092379
 30
0.0
 40
3.100000000000009
  0
CIRCLE
  5
BA
330
1F
100
AcDbEntity
  8
SLD-0
  6
Continuous
 62
   179
100
AcDbCircle
 10
101.1594902794
 20
204.3249092379
 30
0.0
 40
3.100000000000009
  0
CIRCLE
  5
BB
330
1F
100
AcDbEntity
  8
SLD-0
  6
Continuous
 62
   179
100
AcDbCircle
 10
101.1594902794
 20
129.3249092379
 30
0.0
 40
3.100000000000009
  0
CIRCLE
  5
BC
330
1F
100
AcDbEntity
  8
SLD-0
  6
Continuous
 62
   179
100
AcDbCircle
 10
108.6594902794
 20
166.8249092379
 30
0.0
 40
3.100000000000009
  0
CIRCLE
  5
BD
330
1F
100
AcDbEntity
  8
SLD-0
  6
Continuous
 62
   179
100
AcDbCircle
 10
93.6594902794
 20
166.8249092379
 30
0.0
 40
3.100000000000009
  0
DIMENSION
  5
BE
330
1F
100
AcDbEntity
  8
SLD-0
 62
     7
100
AcDbDimension
  2
*D11
 10
113.6594902794
 20
228.119804222
 30
0.0
 11
101.1594902794
 21
228.119804222
 31
0.0
 70
   160
 71
     1
 42
25.0
  3
SLDDIMSTYLE0
100
AcDbAlignedDimension
 13
88.6594902794
 23
208.8249092379
 33
0.0
 14
113.6594902794
 24
208.8249092379
 34
0.0
100
AcDbRotatedDimension
1001
ACAD
1000
DSTYLE
1002
{
1070
    77
1070
     3
1070
   143
1040
0.0393700787
1070
    41
1040
3.0
1070
    44
1040
1.0
1070
    42
1040
1.0
1070
   147
1040
1.524
1070
    73
1070
     0
1070
    74
1070
     0
1070
   140
1040
3.5
1070
   284
1070
    12
1070
    78
1070
    12
1002
}
  0
DIMENSION
  5
DA
330
1F
100
AcDbEntity
  8
SLD-0
 62
     7
100
AcDbDimension
  2
*D13
 10
59.3304926925
 20
154.3249092379
 30
0.0
 11
59.3304926925
 21
166.8249092379
 31
0.0
 70
   160
 71
     1
 42
25.0
  3
SLDDIMSTYLE0
100
AcDbAlignedDimension
 13
74.1594902794
 23
179.3249092379
 33
0.0
 14
74.1594902794
 24
154.3249092379
 34
0.0
 50
90.0
100
AcDbRotatedDimension
1001
ACAD
1000
DSTYLE
1002
{
1070
    77
1070
     3
1070
   143
1040
0.0393700787
1070
    41
1040
3.0
1070
    44
1040
1.0
1070
    42
1040
1.0
1070
   147
1040
1.524
1070
    73
1070
     0
1070
    74
1070
     0
1070
   140
1040
3.5
1070
   284
1070
    12
1070
    78
1070
    12
1002
}
  0
DIMENSION
  5
F2
330
1F
100
AcDbEntity
  8
SLD-0
 62
     7
100
AcDbDimension
  2
*D14
 10
133.6594902794
 20
236.8946726573
 30
0.0
 11
101.1594902794
 21
236.8946726573
 31
0.0
 70
   160
 71
     1
 42
65.0
  3
SLDDIMSTYLE0
100
AcDbAlignedDimension
 13
68.6594902794
 23
173.8249092379
 33
0.0
 14
133.6594902794
 24
173.8249092379
 34
0.0
100
AcDbRotatedDimension
1001
ACAD
1000
DSTYLE
1002
{
1070
    77
1070
     3
1070
   143
1040
0.0393700787
1070
    41
1040
3.0
1070
    44
1040
1.0
1070
    42
1040
1.0
1070
   147
1040
1.524
1070
    73
1070
     0
1070
    74
1070
     0
1070
   140
1040
3.5
1070
   284
1070
    12
1070
    78
1070
    12
1002
}
  0
DIMENSION
  5
109
330
1F
100
AcDbEntity
  8
SLD-0
 62
     7
100
AcDbDimension
  2
*D15
 10
59.3304926925
 20
179.3249092379
 30
0.0
 11
59.3304926925
 21
196.8249092379
 31
0.0
 70
   160
 71
     1
 42
35.0
  3
SLDDIMSTYLE0
100
AcDbAlignedDimension
 13
94.1594902794
 23
214.3249092379
 33
0.0
 14
74.1594902794
 24
179.3249092379
 34
0.0
 50
90.0
100
AcDbRotatedDimension
1001
ACAD
1000
DSTYLE
1002
{
1070
    77
1070
     3
1070
   143
1040
0.0393700787
1070
    41
1040
3.0
1070
    44
1040
1.0
1070
    42
1040
1.0
1070
   147
1040
1.524
1070
    73
1070
     0
1070
    74
1070
     0
1070
   140
1040
3.5
1070
   284
1070
    12
1070
    78
1070
    12
1002
}
  0
DIMENSION
  5
121
330
1F
100
AcDbEntity
  8
SLD-0
 62
     7
100
AcDbDimension
  2
*D16
 10
113.6594902794
 20
228.119804222
 30
0.0
 11
123.6594902794
 21
228.119804222
 31
0.0
 70
   160
 71
     1
 42
20.0
  3
SLDDIMSTYLE0
100
AcDbAlignedDimension
 13
133.6594902794
 23
173.8249092379
 33
0.0
 14
113.6594902794
 24
208.8249092379
 34
0.0
100
AcDbRotatedDimension
1001
ACAD
1000
DSTYLE
1002
{
1070
    77
1070
     3
1070
   143
1040
0.0393700787
1070
    41
1040
3.0
1070
    44
1040
1.0
1070
    42
1040
1.0
1070
   147
1040
1.524
1070
    73
1070
     0
1070
    74
1070
     0
1070
   140
1040
3.5
1070
   284
1070
    12
1070
    78
1070
    12
1002
}
  0
DIMENSION
  5
138
330
1F
100
AcDbEntity
  8
SLD-0
 62
     7
100
AcDbDimension
  2
*D17
 10
94.1594902794
 20
208.8249092379
 30
0.0
 11
-79.3996609705
 21
-222.0737463789
 31
0.0
 70
   164
  1
8-<>
 71
     1
 42
229.071718743
  3
SLDDIMSTYLE1
100
AcDbRadialDimension
 15
0.0
 25
0.0
 35
0.0
 40
0.0
1001
ACAD
1000
DSTYLE
1002
{
1070
    77
1070
     0
1070
   143
1040
0.0393700787
1070
    41
1040
3.0
1070
    44
1040
1.0
1070
    42
1040
1.0
1070
   147
1040
1.524
1070
    73
1070
     1
1070
    74
1070
     1
1070
   140
1040
3.5
1070
   284
1070
    12
1070
    78
1070
    12
1002
}
  0
DIMENSION
  5
14B
330
1F
100
AcDbEntity
  8
SLD-0
 62
     7
100
AcDbDimension
  2
*D18
 10
2.6427944114
 20
5.6049681515
 30
0.0
 11
54.4773021786
 21
-5.426984937
 31
0.0
 70
   163
  1
8-<>
 71
     1
 42
6.1967757971
  3
SLDDIMSTYLE2
100
AcDbDiametricDimension
 15
0.0
 25
0.0
 35
0.0
 40
0.0
1001
ACAD
1000
DSTYLE
1002
{
1070
    77
1070
     0
1070
   143
1040
0.0393700787
1070
    41
1040
3.0
1070
    44
1040
1.0
1070
    42
1040
1.0
1070
   147
1040
1.524
1070
    73
1070
     1
1070
    74
1070
     1
1070
   140
1040
3.5
1070
   284
1070
    12
1070
    78
1070
    12
1002
}
  0
DIMENSION
  5
15F
330
1F
100
AcDbEntity
  8
SLD-0
 62
     7
100
AcDbDimension
  2
*D19
 10
153.5075599912
 20
119.3249092379
 30
0.0
 11
153.5075599912
 21
166.8249092379
 31
0.0
 70
   160
 71
     1
 42
95.0
  3
SLDDIMSTYLE0
100
AcDbAlignedDimension
 13
108.1594902794
 23
214.3249092379
 33
0.0
 14
108.1594902794
 24
119.3249092379
 34
0.0
 50
90.0
100
AcDbRotatedDimension
1001
ACAD
1000
DSTYLE
1002
{
1070
    77
1070
     3
1070
   143
1040
0.0393700787
1070
    41
1040
3.0
1070
    44
1040
1.0
1070
    42
1040
1.0
1070
   147
1040
1.524
1070
    73
1070
     0
1070
    74
1070
     0
1070
   140
1040
3.5
1070
   284
1070
    12
1070
    78
1070
    12
1002
}
  0
DIMENSION
  5
177
330
1F
100
AcDbEntity
  8
SLD-0
 62
     7
100
AcDbDimension
  2
*D20
 10
147.8352656729
 20
214.3249092379
 30
0.0
 11
147.8352656729
 21
209.3249092379
 31
0.0
 70
   160
 71
     1
 42
10.0
  3
SLDDIMSTYLE0
100
AcDbAlignedDimension
 13
101.1594902794
 23
204.3249092379
 33
0.0
 14
108.1594902794
 24
214.3249092379
 34
0.0
 50
90.0
100
AcDbRotatedDimension
1001
ACAD
1000
DSTYLE
1002
{
1070
    77
1070
     3
1070
   143
1040
0.0393700787
1070
    41
1040
3.0
1070
    44
1040
1.0
1070
    42
1040
1.0
1070
   147
1040
1.524
1070
    73
1070
     0
1070
    74
1070
     0
1070
   140
1040
3.5
1070
   284
1070
    12
1070
    78
1070
    12
1002
}
  0
DIMENSION
  5
191
330
1F
100
AcDbEntity
  8
SLD-0
 62
     7
100
AcDbDimension
  2
*D21
 10
147.8352656729
 20
189.3249092379
 30
0.0
 11
147.8352656729
 21
196.8249092379
 31
0.0
 70
   160
 71
     1
 42
15.0
  3
SLDDIMSTYLE0
100
AcDbAlignedDimension
 13
101.1594902794
 23
204.3249092379
 33
0.0
 14
101.1594902794
 24
189.3249092379
 34
0.0
 50
90.0
100
AcDbRotatedDimension
1001
ACAD
1000
DSTYLE
1002
{
1070
    77
1070
     3
1070
   143
1040
0.0393700787
1070
    41
1040
3.0
1070
    44
1040
1.0
1070
    42
1040
1.0
1070
   147
1040
1.524
1070
    73
1070
     0
1070
    74
1070
     0
1070
   140
1040
3.5
1070
   284
1070
    12
1070
    78
1070
    12
1002
}
  0
DIMENSION
  5
1AB
330
1F
100
AcDbEntity
  8
SLD-0
 62
     7
100
AcDbDimension
  2
*D22
 10
147.8352656729
 20
166.8249092379
 30
0.0
 11
147.8352656729
 21
178.0749092379
 31
0.0
 70
   160
 71
     1
 42
22.5
  3
SLDDIMSTYLE3
100
AcDbAlignedDimension
 13
101.1594902794
 23
189.3249092379
 33
0.0
 14
123.6594902794
 24
166.8249092379
 34
0.0
 50
90.0
100
AcDbRotatedDimension
1001
ACAD
1000
DSTYLE
1002
{
1070
    77
1070
     3
1070
   143
1040
0.0393700787
1070
    41
1040
3.0
1070
    44
1040
1.0
1070
    42
1040
1.0
1070
   147
1040
1.524
1070
    73
1070
     0
1070
    74
1070
     0
1070
   140
1040
3.5
1070
   284
1070
    12
1070
    78
1070
    12
1002
}
  0
DIMENSION
  5
1C4
330
1F
100
AcDbEntity
  8
SLD-0
 62
     7
100
AcDbDimension
  2
*D23
 10
147.8352656729
 20
166.8249092379
 30
0.0
 11
147.8352656729
 21
155.5749092379
 31
0.0
 70
   160
 71
     1
 42
22.5
  3
SLDDIMSTYLE3
100
AcDbAlignedDimension
 13
101.1594902794
 23
144.3249092379
 33
0.0
 14
123.6594902794
 24
166.8249092379
 34
0.0
 50
90.0
100
AcDbRotatedDimension
1001
ACAD
1000
DSTYLE
1002
{
1070
    77
1070
     3
1070
   143
1040
0.0393700787
1070
    41
1040
3.0
1070
    44
1040
1.0
1070
    42
1040
1.0
1070
   147
1040
1.524
1070
    73
1070
     0
1070
    74
1070
     0
1070
   140
1040
3.5
1070
   284
1070
    12
1070
    78
1070
    12
1002
}
  0
DIMENSION
  5
1DC
330
1F
100
AcDbEntity
  8
SLD-0
 62
     7
100
AcDbDimension
  2
*D24
 10
147.8352656729
 20
144.3249092379
 30
0.0
 11
147.8352656729
 21
136.8249092379
 31
0.0
 70
   160
 71
     1
 42
15.0
  3
SLDDIMSTYLE0
100
AcDbAlignedDimension
 13
101.1594902794
 23
129.3249092379
 33
0.0
 14
101.1594902794
 24
144.3249092379
 34
0.0
 50
90.0
100
AcDbRotatedDimension
1001
ACAD
1000
DSTYLE
1002
{
1070
    77
1070
     3
1070
   143
1040
0.0393700787
1070
    41
1040
3.0
1070
    44
1040
1.0
1070
    42
1040
1.0
1070
   147
1040
1.524
1070
    73
1070
     0
1070
    74
1070
     0
1070
   140
1040
3.5
1070
   284
1070
    12
1070
    78
1070
    12
1002
}
  0
DIMENSION
  5
1F6
330
1F
100
AcDbEntity
  8
SLD-0
 62
     7
100
AcDbDimension
  2
*D25
 10
133.6594902794
 20
102.7681857874
 30
0.0
 11
128.6594902794
 21
102.7681857874
 31
0.0
 70
   160
 71
     1
 42
10.0
  3
SLDDIMSTYLE0
100
AcDbAlignedDimension
 13
123.6594902794
 23
166.8249092379
 33
0.0
 14
133.6594902794
 24
159.8249092379
 34
0.0
100
AcDbRotatedDimension
1001
ACAD
1000
DSTYLE
1002
{
1070
    77
1070
     3
1070
   143
1040
0.0393700787
1070
    41
1040
3.0
1070
    44
1040
1.0
1070
    42
1040
1.0
1070
   147
1040
1.524
1070
    73
1070
     0
1070
    74
1070
     0
1070
   140
1040
3.5
1070
   284
1070
    12
1070
    78
1070
    12
1002
}
  0
DIMENSION
  5
20D
330
1F
100
AcDbEntity
  8
SLD-0
 62
     7
100
AcDbDimension
  2
*D26
 10
108.6594902794
 20
102.7681857874
 30
0.0
 11
116.1594902794
 21
102.7681857874
 31
0.0
 70
   160
 71
     1
 42
15.0
  3
SLDDIMSTYLE0
100
AcDbAlignedDimension
 13
123.6594902794
 23
166.8249092379
 33
0.0
 14
108.6594902794
 24
166.8249092379
 34
0.0
100
AcDbRotatedDimension
1001
ACAD
1000
DSTYLE
1002
{
1070
    77
1070
     3
1070
   143
1040
0.0393700787
1070
    41
1040
3.0
1070
    44
1040
1.0
1070
    42
1040
1.0
1070
   147
1040
1.524
1070
    73
1070
     0
1070
    74
1070
     0
1070
   140
1040
3.5
1070
   284
1070
    12
1070
    78
1070
    12
1002
}
  0
DIMENSION
  5
224
330
1F
100
AcDbEntity
  8
SLD-0
 62
     7
100
AcDbDimension
  2
*D27
 10
108.6594902794
 20
102.7681857874
 30
0.0
 11
104.9094902794
 21
102.7681857874
 31
0.0
 70
   160
 71
     1
 42
7.5
  3
SLDDIMSTYLE3
100
AcDbAlignedDimension
 13
101.1594902794
 23
204.3249092379
 33
0.0
 14
108.6594902794
 24
166.8249092379
 34
0.0
100
AcDbRotatedDimension
1001
ACAD
1000
DSTYLE
1002
{
1070
    77
1070
     3
1070
   143
1040
0.0393700787
1070
    41
1040
3.0
1070
    44
1040
1.0
1070
    42
1040
1.0
1070
   147
1040
1.524
1070
    73
1070
     0
1070
    74
1070
     0
1070
   140
1040
3.5
1070
   284
1070
    12
1070
    78
1070
    12
1002
}
  0
DIMENSION
  5
23E
330
1F
100
AcDbEntity
  8
SLD-0
 62
     7
100
AcDbDimension
  2
*D28
 10
101.1594902794
 20
102.7681857874
 30
0.0
 11
97.4094902794
 21
102.7681857874
 31
0.0
 70
   160
 71
     1
 42
7.5
  3
SLDDIMSTYLE3
100
AcDbAlignedDimension
 13
93.6594902794
 23
166.8249092379
 33
0.0
 14
101.1594902794
 24
166.8249092379
 34
0.0
100
AcDbRotatedDimension
1001
ACAD
1000
DSTYLE
1002
{
1070
    77
1070
     3
1070
   143
1040
0.0393700787
1070
    41
1040
3.0
1070
    44
1040
1.0
1070
    42
1040
1.0
1070
   147
1040
1.524
1070
    73
1070
     0
1070
    74
1070
     0
1070
   140
1040
3.5
1070
   284
1070
    12
1070
    78
1070
    12
1002
}
  0
DIMENSION
  5
258
330
1F
100
AcDbEntity
  8
SLD-0
 62
     7
100
AcDbDimension
  2
*D29
 10
93.6594902794
 20
102.7681857874
 30
0.0
 11
86.1594902794
 21
102.7681857874
 31
0.0
 70
   160
 71
     1
 42
15.0
  3
SLDDIMSTYLE0
100
AcDbAlignedDimension
 13
78.6594902794
 23
166.8249092379
 33
0.0
 14
93.6594902794
 24
166.8249092379
 34
0.0
100
AcDbRotatedDimension
1001
ACAD
1000
DSTYLE
1002
{
1070
    77
1070
     3
1070
   143
1040
0.0393700787
1070
    41
1040
3.0
1070
    44
1040
1.0
1070
    42
1040
1.0
1070
   147
1040
1.524
1070
    73
1070
     0
1070
    74
1070
     0
1070
   140
1040
3.5
1070
   284
1070
    12
1070
    78
1070
    12
1002
}
  0
MTEXT
  5
26F
330
1F
100
AcDbEntity
  8
SLD-0
 62
     7
100
AcDbMText
 10
142.1383440308
 20
98.4720217439
 30
0.0
 40
4.2333333333
 41
0.0
 71
     1
 72
     1
  1
t= 3.2
  7
SLDTEXTSTYLE1
 73
     1
 44
1.0
  0
MTEXT
  5
271
330
1F
100
AcDbEntity
  8
SLD-0
 62
     7
100
AcDbMText
 10
150.708553749
 20
18.2427208219
 30
0.0
 40
3.5
 41
0.0
 71
     1
 72
     1
  1
131047
  7
SLDTEXTSTYLE2
 73
     1
 44
1.0
  0
MTEXT
  5
272
330
1F
100
AcDbEntity
  8
SLD-0
 62
     7
100
AcDbMText
 10
147.3235883284
 20
28.9925274519
 30
0.0
 40
4.2333333333
 41
0.0
 71
     1
 72
     1
  1
N01913-106-0
  7
SLDTEXTSTYLE1
 73
     1
 44
1.0
  0
MTEXT
  5
274
330
1F
100
AcDbEntity
  8
SLD-0
 62
     7
100
AcDbMText
 10
138.7600103974
 20
42.5163410687
 30
0.0
 40
4.2333333333
 41
0.0
 71
     1
 72
     1
  1
25 Connecter Plate F
  7
SLDTEXTSTYLE3
 73
     1
 44
1.0
  0
INSERT
  5
275
330
1F
100
AcDbEntity
  8
0
  6
Continuous
 62
     7
370
     0
100
AcDbBlockReference
  2
SURFACEFINISH40
 10
181.2945556594
 20
250.9452668721
 30
0.0
  0
INSERT
  5
276
330
1F
100
AcDbEntity
  8
0
  6
Continuous
 62
     7
370
     0
100
AcDbBlockReference
  2
注記
 10
111.4871322179
 20
55.4162954238
 30
0.0
  0
INSERT
  5
277
330
1F
100
AcDbEntity
  8
0
  6
Continuous
 62
     7
370
     0
100
AcDbBlockReference
  2
SW_CENTERMARK0
 10
0.0
 20
0.0
 30
0.0
  0
INSERT
  5
278
330
1F
100
AcDbEntity
  8
0
  6
Continuous
 62
     7
370
     0
100
AcDbBlockReference
  2
SW_CENTERMARK1
 10
0.0
 20
0.0
 30
0.0
  0
INSERT
  5
279
330
1F
100
AcDbEntity
  8
0
  6
Continuous
 62
     7
370
     0
100
AcDbBlockReference
  2
SW_CENTERMARK2
 10
0.0
 20
0.0
 30
0.0
  0
INSERT
  5
27A
330
1F
100
AcDbEntity
  8
0
  6
Continuous
 62
     7
370
     0
100
AcDbBlockReference
  2
SW_CENTERMARK3
 10
0.0
 20
0.0
 30
0.0
  0
INSERT
  5
27B
330
1F
100
AcDbEntity
  8
0
  6
Continuous
 62
     7
370
     0
100
AcDbBlockReference
  2
SW_CENTERMARK4
 10
0.0
 20
0.0
 30
0.0
  0
INSERT
  5
27C
330
1F
100
AcDbEntity
  8
0
  6
Continuous
 62
     7
370
     0
100
AcDbBlockReference
  2
SW_CENTERMARK5
 10
0.0
 20
0.0
 30
0.0
  0
INSERT
  5
27D
330
1F
100
AcDbEntity
  8
0
  6
Continuous
 62
     7
370
     0
100
AcDbBlockReference
  2
SW_CENTERMARK6
 10
0.0
 20
0.0
 30
0.0
  0
INSERT
  5
27E
330
1F
100
AcDbEntity
  8
0
  6
Continuous
 62
     7
370
     0
100
AcDbBlockReference
  2
SW_CENTERMARK7
 10
0.0
 20
0.0
 30
0.0
  0
ENDSEC
  0
SECTION
  2
OBJECTS
  0
DICTIONARY
  5
C
330
0
100
AcDbDictionary
281
     1
  3
ACAD_GROUP
350
D
  3
ACAD_LAYOUT
350
1A
  3
ACAD_MLINESTYLE
350
17
  3
ACAD_PLOTSETTINGS
350
19
  3
ACAD_PLOTSTYLENAME
350
E
  0
DICTIONARY
  5
D
102
{ACAD_REACTORS
330
C
102
}
330
C
100
AcDbDictionary
281
     1
  0
DICTIONARY
  5
1A
102
{ACAD_REACTORS
330
C
102
}
330
C
100
AcDbDictionary
281
     1
  3
Layout1
350
1E
  3
Layout2
350
26
  3
Model
350
22
  0
DICTIONARY
  5
17
102
{ACAD_REACTORS
330
C
102
}
330
C
100
AcDbDictionary
281
     1
  3
Standard
350
18
  0
DICTIONARY
  5
19
102
{ACAD_REACTORS
330
C
102
}
330
C
100
AcDbDictionary
281
     1
  0
ACDBDICTIONARYWDFLT
  5
E
102
{ACAD_REACTORS
330
C
102
}
330
C
100
AcDbDictionary
281
     1
  3
Normal
350
F
100
AcDbDictionaryWithDefault
340
F
  0
LAYOUT
  5
1E
102
{ACAD_REACTORS
330
1A
102
}
330
1A
100
AcDbPlotSettings
  1

  2

  4

  6

 40
0.0
 41
0.0
 42
0.0
 43
0.0
 44
0.0
 45
0.0
 46
0.0
 47
0.0
 48
0.0
 49
0.0
140
0.0
141
0.0
142
1.0
143
1.0
 70
   688
 72
     0
 73
     0
 74
     5
  7

 75
    16
147
1.0
148
0.0
149
0.0
100
AcDbLayout
  1
Layout1
 70
     1
 71
     1
 10
0.0
 20
0.0
 11
0.0
 21
0.0
 12
0.0
 22
0.0
 32
0.0
 14
0.0
 24
0.0
 34
0.0
 15
0.0
 25
0.0
 35
0.0
146
0.0
 13
0.0
 23
0.0
 33
0.0
 16
1.0
 26
0.0
 36
0.0
 17
0.0
 27
1.0
 37
0.0
 76
     0
330
1B
  0
LAYOUT
  5
26
102
{ACAD_REACTORS
330
1A
102
}
330
1A
100
AcDbPlotSettings
  1

  2

  4

  6

 40
0.0
 41
0.0
 42
0.0
 43
0.0
 44
0.0
 45
0.0
 46
0.0
 47
0.0
 48
0.0
 49
0.0
140
0.0
141
0.0
142
1.0
143
1.0
 70
   688
 72
     0
 73
     0
 74
     5
  7

 75
    16
147
1.0
148
0.0
149
0.0
100
AcDbLayout
  1
Layout2
 70
     1
 71
     2
 10
0.0
 20
0.0
 11
0.0
 21
0.0
 12
0.0
 22
0.0
 32
0.0
 14
0.0
 24
0.0
 34
0.0
 15
0.0
 25
0.0
 35
0.0
146
0.0
 13
0.0
 23
0.0
 33
0.0
 16
1.0
 26
0.0
 36
0.0
 17
0.0
 27
1.0
 37
0.0
 76
     0
330
23
  0
LAYOUT
  5
22
102
{ACAD_REACTORS
330
1A
102
}
330
1A
100
AcDbPlotSettings
  1

  2

  4

  6

 40
0.0
 41
0.0
 42
0.0
 43
0.0
 44
0.0
 45
0.0
 46
0.0
 47
0.0
 48
0.0
 49
0.0
140
0.0
141
0.0
142
1.0
143
1.0
 70
  1712
 72
     0
 73
     0
 74
     0
  7

 75
     0
147
1.0
148
0.0
149
0.0
100
AcDbLayout
  1
Model
 70
     1
 71
     0
 10
0.0
 20
0.0
 11
0.0
 21
0.0
 12
0.0
 22
0.0
 32
0.0
 14
0.0
 24
0.0
 34
0.0
 15
210.0
 25
297.0
 35
0.0
146
0.0
 13
0.0
 23
0.0
 33
0.0
 16
1.0
 26
0.0
 36
0.0
 17
0.0
 27
1.0
 37
0.0
 76
     0
330
1F
  0
MLINESTYLE
  5
18
102
{ACAD_REACTORS
330
17
102
}
330
17
100
AcDbMlineStyle
  2
Standard
 70
     0
  3

 62
   256
 51
90.0
 52
90.0
 71
     2
 49
0.5
 62
   256
  6
BYLAYER
 49
-0.5
 62
   256
  6
BYLAYER
  0
ACDBPLACEHOLDER
  5
F
102
{ACAD_REACTORS
330
E
102
}
330
E
  0
ENDSEC
  0
EOF
