  0
SECTION
  2
HEADER
  9
$ACADVER
  1
AC1015
  9
$ACADMAINTVER
 70
     6
  9
$DWGCODEPAGE
  3
DOS932
  9
$INSBASE
 10
0.0
 20
0.0
 30
0.0
  9
$EXTMIN
 10
0.0
 20
0.0
 30
0.0
  9
$EXTMAX
 10
210.0
 20
297.0
 30
0.0
  9
$LIMMIN
 10
0.0
 20
0.0
  9
$LIMMAX
 10
0.0
 20
0.0
  9
$ORTHOMODE
 70
     0
  9
$REGENMODE
 70
     1
  9
$FILLMODE
 70
     1
  9
$QTEXTMODE
 70
     0
  9
$MIRRTEXT
 70
     1
  9
$LTSCALE
 40
1.0
  9
$ATTMODE
 70
     1
  9
$TEXTSIZE
 40
3.5
  9
$TRACEWID
 40
1.0
  9
$TEXTSTYLE
  7
Standard
  9
$CLAYER
  8
0
  9
$CELTYPE
  6
ByLayer
  9
$CECOLOR
 62
   256
  9
$CELTSCALE
 40
1.0
  9
$DISPSILH
 70
     0
  9
$DIMSCALE
 40
1.0
  9
$DIMASZ
 40
3.0
  9
$DIMEXO
 40
1.0
  9
$DIMDLI
 40
3.75
  9
$DIMRND
 40
0.0
  9
$DIMDLE
 40
0.0
  9
$DIMEXE
 40
1.0
  9
$DIMTP
 40
0.0
  9
$DIMTM
 40
0.0
  9
$DIMTXT
 40
3.5
  9
$DIMCEN
 40
2.5
  9
$DIMTSZ
 40
0.0
  9
$DIMTOL
 70
     0
  9
$DIMLIM
 70
     0
  9
$DIMTIH
 70
     1
  9
$DIMTOH
 70
     1
  9
$DIMSE1
 70
     0
  9
$DIMSE2
 70
     0
  9
$DIMTAD
 70
     1
  9
$DIMZIN
 70
     1
  9
$DIMBLK
  1

  9
$DIMASO
 70
     1
  9
$DIMSHO
 70
     1
  9
$DIMPOST
  1

  9
$DIMAPOST
  1

  9
$DIMALT
 70
     0
  9
$DIMALTD
 70
     3
  9
$DIMALTF
 40
0.0393700787
  9
$DIMLFAC
 40
1.0
  9
$DIMTOFL
 70
     1
  9
$DIMTVP
 40
0.0
  9
$DIMTIX
 70
     0
  9
$DIMSOXD
 70
     0
  9
$DIMSAH
 70
     0
  9
$DIMBLK1
  1

  9
$DIMBLK2
  1

  9
$DIMSTYLE
  2
ISO-25
  9
$DIMCLRD
 70
     0
  9
$DIMCLRE
 70
     0
  9
$DIMCLRT
 70
     0
  9
$DIMTFAC
 40
1.0
  9
$DIMGAP
 40
1.524
  9
$DIMJUST
 70
     0
  9
$DIMSD1
 70
     0
  9
$DIMSD2
 70
     0
  9
$DIMTOLJ
 70
     0
  9
$DIMTZIN
 70
     1
  9
$DIMALTZ
 70
     0
  9
$DIMALTTZ
 70
     0
  9
$DIMUPT
 70
     0
  9
$DIMDEC
 70
     2
  9
$DIMTDEC
 70
     2
  9
$DIMALTU
 70
     2
  9
$DIMALTTD
 70
     3
  9
$DIMTXSTY
  7
Standard
  9
$DIMAUNIT
 70
     0
  9
$DIMADEC
 70
     0
  9
$DIMALTRND
 40
0.0
  9
$DIMAZIN
 70
     0
  9
$DIMDSEP
 70
    44
  9
$DIMATFIT
 70
     3
  9
$DIMFRAC
 70
     0
  9
$DIMLDRBLK
  1

  9
$DIMLUNIT
 70
     2
  9
$DIMLWD
 70
    -2
  9
$DIMLWE
 70
    -2
  9
$DIMTMOVE
 70
     0
  9
$LUNITS
 70
     2
  9
$LUPREC
 70
     1
  9
$SKETCHINC
 40
1.0
  9
$FILLETRAD
 40
10.0
  9
$AUNITS
 70
     0
  9
$AUPREC
 70
     0
  9
$MENU
  1
.
  9
$ELEVATION
 40
0.0
  9
$PELEVATION
 40
0.0
  9
$THICKNESS
 40
0.0
  9
$LIMCHECK
 70
     0
  9
$CHAMFERA
 40
10.0
  9
$CHAMFERB
 40
10.0
  9
$CHAMFERC
 40
20.0
  9
$CHAMFERD
 40
0.0
  9
$SKPOLY
 70
     0
  9
$TDCREATE
 40
2454309.431632662
  9
$TDUCREATE
 40
2454309.056632662
  9
$TDUPDATE
 40
2454309.431632674
  9
$TDUUPDATE
 40
2454309.056632674
  9
$TDINDWG
 40
0.0000000116
  9
$TDUSRTIMER
 40
0.0000000116
  9
$USRTIMER
 70
     1
  9
$ANGBASE
 50
0.0
  9
$ANGDIR
 70
     0
  9
$PDMODE
 70
     0
  9
$PDSIZE
 40
-1.0
  9
$PLINEWID
 40
0.0
  9
$SPLFRAME
 70
     0
  9
$SPLINETYPE
 70
     6
  9
$SPLINESEGS
 70
     8
  9
$HANDSEED
  5
2CF
  9
$SURFTAB1
 70
     6
  9
$SURFTAB2
 70
     6
  9
$SURFTYPE
 70
     6
  9
$SURFU
 70
     6
  9
$SURFV
 70
     6
  9
$UCSBASE
  2

  9
$UCSNAME
  2

  9
$UCSORG
 10
0.0
 20
0.0
 30
0.0
  9
$UCSXDIR
 10
1.0
 20
0.0
 30
0.0
  9
$UCSYDIR
 10
0.0
 20
1.0
 30
0.0
  9
$UCSORTHOREF
  2

  9
$UCSORTHOVIEW
 70
     0
  9
$UCSORGTOP
 10
0.0
 20
0.0
 30
0.0
  9
$UCSORGBOTTOM
 10
0.0
 20
0.0
 30
0.0
  9
$UCSORGLEFT
 10
0.0
 20
0.0
 30
0.0
  9
$UCSORGRIGHT
 10
0.0
 20
0.0
 30
0.0
  9
$UCSORGFRONT
 10
0.0
 20
0.0
 30
0.0
  9
$UCSORGBACK
 10
0.0
 20
0.0
 30
0.0
  9
$PUCSBASE
  2

  9
$PUCSNAME
  2

  9
$PUCSORG
 10
0.0
 20
0.0
 30
0.0
  9
$PUCSXDIR
 10
1.0
 20
0.0
 30
0.0
  9
$PUCSYDIR
 10
0.0
 20
1.0
 30
0.0
  9
$PUCSORTHOREF
  2

  9
$PUCSORTHOVIEW
 70
     0
  9
$PUCSORGTOP
 10
0.0
 20
0.0
 30
0.0
  9
$PUCSORGBOTTOM
 10
0.0
 20
0.0
 30
0.0
  9
$PUCSORGLEFT
 10
0.0
 20
0.0
 30
0.0
  9
$PUCSORGRIGHT
 10
0.0
 20
0.0
 30
0.0
  9
$PUCSORGFRONT
 10
0.0
 20
0.0
 30
0.0
  9
$PUCSORGBACK
 10
0.0
 20
0.0
 30
0.0
  9
$USERI1
 70
     0
  9
$USERI2
 70
     0
  9
$USERI3
 70
     0
  9
$USERI4
 70
     0
  9
$USERI5
 70
     0
  9
$USERR1
 40
0.0
  9
$USERR2
 40
0.0
  9
$USERR3
 40
0.0
  9
$USERR4
 40
0.0
  9
$USERR5
 40
0.0
  9
$WORLDVIEW
 70
     1
  9
$SHADEDGE
 70
     3
  9
$SHADEDIF
 70
    70
  9
$TILEMODE
 70
     1
  9
$MAXACTVP
 70
    64
  9
$PINSBASE
 10
0.0
 20
0.0
 30
0.0
  9
$PLIMCHECK
 70
     0
  9
$PEXTMIN
 10
1.0000000000E+20
 20
1.0000000000E+20
 30
1.0000000000E+20
  9
$PEXTMAX
 10
-1.0000000000E+20
 20
-1.0000000000E+20
 30
-1.0000000000E+20
  9
$PLIMMIN
 10
0.0
 20
0.0
  9
$PLIMMAX
 10
420.0
 20
297.0
  9
$UNITMODE
 70
     0
  9
$VISRETAIN
 70
     1
  9
$PLINEGEN
 70
     0
  9
$PSLTSCALE
 70
     1
  9
$TREEDEPTH
 70
  3020
  9
$CMLSTYLE
  2
Standard
  9
$CMLJUST
 70
     0
  9
$CMLSCALE
 40
20.0
  9
$PROXYGRAPHICS
 70
     1
  9
$MEASUREMENT
 70
     1
  9
$CELWEIGHT
370
    -1
  9
$ENDCAPS
280
     0
  9
$JOINSTYLE
280
     0
  9
$LWDISPLAY
290
     1
  9
$INSUNITS
 70
     4
  9
$HYPERLINKBASE
  1

  9
$STYLESHEET
  1

  9
$XEDIT
290
     1
  9
$CEPSNTYPE
380
     0
  9
$PSTYLEMODE
290
     1
  9
$FINGERPRINTGUID
  2
{96A60979-6EBB-4F91-BE3F-DEF659C14A14}
  9
$VERSIONGUID
  2
{FAEB1C32-E019-11D5-929B-00C0DF256EC4}
  9
$EXTNAMES
290
     1
  9
$PSVPSCALE
 40
0.0
  9
$OLESTARTUP
290
     0
  0
ENDSEC
  0
SECTION
  2
CLASSES
  0
CLASS
  1
ACDBDICTIONARYWDFLT
  2
AcDbDictionaryWithDefault
  3
ObjectDBX Classes
 90
        0
280
     0
281
     0
  0
CLASS
  1
ACDBPLACEHOLDER
  2
AcDbPlaceHolder
  3
ObjectDBX Classes
 90
        0
280
     0
281
     0
  0
CLASS
  1
LAYOUT
  2
AcDbLayout
  3
ObjectDBX Classes
 90
        0
280
     0
281
     0
  0
ENDSEC
  0
SECTION
  2
TABLES
  0
TABLE
  2
VPORT
  5
8
330
0
100
AcDbSymbolTable
 70
     1
  0
VPORT
  5
29
330
8
100
AcDbSymbolTableRecord
100
AcDbViewportTableRecord
  2
*Active
 70
     0
 10
0.0
 20
0.0
 11
1.0
 21
1.0
 12
105.0
 22
148.5
 13
0.0
 23
0.0
 14
10.0
 24
10.0
 15
10.0
 25
10.0
 16
0.0
 26
0.0
 36
1.0
 17
0.0
 27
0.0
 37
0.0
 40
297.0
 41
1.9729729729
 42
50.0
 43
0.0
 44
0.0
 50
0.0
 51
0.0
 71
     0
 72
  2000
 73
     1
 74
     3
 75
     0
 76
     0
 77
     0
 78
     0
281
     0
 65
     1
110
0.0
120
0.0
130
0.0
111
1.0
121
0.0
131
0.0
112
0.0
122
1.0
132
0.0
 79
     0
146
0.0
  0
ENDTAB
  0
TABLE
  2
LTYPE
  5
5
330
0
100
AcDbSymbolTable
 70
     6
  0
LTYPE
  5
14
330
5
100
AcDbSymbolTableRecord
100
AcDbLinetypeTableRecord
  2
ByBlock
 70
     0
  3

 72
    65
 73
     0
 40
0.0
  0
LTYPE
  5
15
330
5
100
AcDbSymbolTableRecord
100
AcDbLinetypeTableRecord
  2
ByLayer
 70
     0
  3

 72
    65
 73
     0
 40
0.0
  0
LTYPE
  5
16
330
5
100
AcDbSymbolTableRecord
100
AcDbLinetypeTableRecord
  2
Continuous
 70
     0
  3
Solid line
 72
    65
 73
     0
 40
0.0
  0
LTYPE
  5
2A
330
5
100
AcDbSymbolTableRecord
100
AcDbLinetypeTableRecord
  2
HIDDEN
 70
     0
  3
Hidden __ __ __ __ __ __ __ __ __ __ __ __ __ __
 72
    65
 73
     2
 40
1.905
 49
1.27
 74
     0
 49
-0.635
 74
     0
  0
LTYPE
  5
2B
330
5
100
AcDbSymbolTableRecord
100
AcDbLinetypeTableRecord
  2
PHANTOM
 70
     0
  3
Phantom ______  __  __  ______  __  __  ______
 72
    65
 73
     6
 40
12.7
 49
6.35
 74
     0
 49
-1.27
 74
     0
 49
1.27
 74
     0
 49
-1.27
 74
     0
 49
1.27
 74
     0
 49
-1.27
 74
     0
  0
LTYPE
  5
2C
330
5
100
AcDbSymbolTableRecord
100
AcDbLinetypeTableRecord
  2
CENTER
 70
     0
  3
Center ____ _ ____ _ ____ _ ____ _ ____ _ ____
 72
    65
 73
     4
 40
10.16
 49
6.35
 74
     0
 49
-1.27
 74
     0
 49
1.27
 74
     0
 49
-1.27
 74
     0
  0
LTYPE
  5
2D
330
5
100
AcDbSymbolTableRecord
100
AcDbLinetypeTableRecord
  2
CENTERX2
 70
     0
  3
Center (2x) ________  __  ________  __  _____
 72
    65
 73
     4
 40
20.32
 49
12.7
 74
     0
 49
-2.54
 74
     0
 49
2.54
 74
     0
 49
-2.54
 74
     0
  0
LTYPE
  5
2E
330
5
100
AcDbSymbolTableRecord
100
AcDbLinetypeTableRecord
  2
DOT2
 70
     0
  3
Dot (.5x) ........................................
 72
    65
 73
     2
 40
0.635
 49
0.0
 74
     0
 49
-0.635
 74
     0
  0
ENDTAB
  0
TABLE
  2
LAYER
  5
2
330
0
100
AcDbSymbolTable
 70
     4
  0
LAYER
  5
10
330
2
100
AcDbSymbolTableRecord
100
AcDbLayerTableRecord
  2
0
 70
     0
 62
     7
  6
Continuous
370
    -3
390
F
  0
LAYER
  5
2F
330
2
100
AcDbSymbolTableRecord
100
AcDbLayerTableRecord
  2
SLD-0
 70
     0
 62
   179
  6
Continuous
370
     0
390
F
  0
LAYER
  5
30
330
2
100
AcDbSymbolTableRecord
100
AcDbLayerTableRecord
  2
SLD-DEFPOINTS
 70
     0
 62
   179
  6
Continuous
370
     0
390
F
  0
LAYER
  5
21B
330
2
100
AcDbSymbolTableRecord
100
AcDbLayerTableRecord
  2
Defpoints
 70
     0
 62
     7
  6
Continuous
290
     0
370
    -3
390
F
  0
ENDTAB
  0
TABLE
  2
STYLE
  5
3
330
0
100
AcDbSymbolTable
 70
     3
  0
STYLE
  5
11
330
3
100
AcDbSymbolTableRecord
100
AcDbTextStyleTableRecord
  2
Standard
 70
     0
 40
0.0
 41
1.0
 50
0.0
 71
     0
 42
2.5
  3
txt
  4
bigfont
  0
STYLE
  5
34
330
3
100
AcDbSymbolTableRecord
100
AcDbTextStyleTableRecord
  2
SLDTEXTSTYLE0
 70
     0
 40
0.0
 41
0.7
 50
0.0
 71
     0
 42
0.2
  3
TXT
  4
bigfont
  0
STYLE
  5
3C
330
3
100
AcDbSymbolTableRecord
100
AcDbTextStyleTableRecord
  2
SLDTEXTSTYLE1
 70
     0
 40
0.0
 41
0.5526315789
 50
0.0
 71
     0
 42
0.2
  3
TXT
  4
bigfont
  0
ENDTAB
  0
TABLE
  2
VIEW
  5
6
330
0
100
AcDbSymbolTable
 70
     0
  0
ENDTAB
  0
TABLE
  2
UCS
  5
7
330
0
100
AcDbSymbolTable
 70
     0
  0
ENDTAB
  0
TABLE
  2
APPID
  5
9
330
0
100
AcDbSymbolTable
 70
     1
  0
APPID
  5
12
330
9
100
AcDbSymbolTableRecord
100
AcDbRegAppTableRecord
  2
ACAD
 70
     0
  0
ENDTAB
  0
TABLE
  2
DIMSTYLE
  5
A
330
0
100
AcDbSymbolTable
 70
     4
100
AcDbDimStyleTable
  0
DIMSTYLE
105
27
330
A
100
AcDbSymbolTableRecord
100
AcDbDimStyleTableRecord
  2
ISO-25
 70
     0
 41
2.5
 42
0.625
 43
3.75
 44
1.25
 73
     0
 74
     0
 77
     1
 78
     8
140
2.5
141
2.5
143
0.0393700787
147
0.625
171
     3
172
     1
271
     2
272
     2
274
     3
278
    44
283
     0
284
     8
340
11
  0
DIMSTYLE
105
228
102
{ACAD_REACTORS
330
21A
330
236
330
2B0
102
}
330
A
100
AcDbSymbolTableRecord
100
AcDbDimStyleTableRecord
  2
SLDDIMSTYLE0
 70
     0
 41
3.0
 44
0.0
 73
     0
 74
     0
 77
     3
 78
    12
140
3.5
147
0.875
173
     1
271
     0
272
     3
284
    12
340
3C
341
229
343
229
344
229
  0
DIMSTYLE
105
257
102
{ACAD_REACTORS
330
24D
102
}
330
A
100
AcDbSymbolTableRecord
100
AcDbDimStyleTableRecord
  2
SLDDIMSTYLE1
 70
     0
 41
3.0
 44
0.0
 78
    12
140
3.5
147
0.875
172
     1
173
     1
271
     0
272
     3
284
    12
340
3C
341
229
343
229
344
229
  0
DIMSTYLE
105
26C
102
{ACAD_REACTORS
330
25E
330
279
330
294
102
}
330
A
100
AcDbSymbolTableRecord
100
AcDbDimStyleTableRecord
  2
SLDDIMSTYLE2
 70
     0
 41
3.0
 44
0.0
 73
     0
 74
     0
 77
     3
 78
    12
140
3.5
147
0.875
173
     1
271
     1
272
     3
284
    12
340
3C
341
229
343
229
344
229
  0
ENDTAB
  0
TABLE
  2
BLOCK_RECORD
  5
1
330
0
100
AcDbSymbolTable
 70
    14
  0
BLOCK_RECORD
  5
1F
330
1
100
AcDbSymbolTableRecord
100
AcDbBlockTableRecord
  2
*Model_Space
340
22
  0
BLOCK_RECORD
  5
1B
330
1
100
AcDbSymbolTableRecord
100
AcDbBlockTableRecord
  2
*Paper_Space
340
1E
  0
BLOCK_RECORD
  5
23
330
1
100
AcDbSymbolTableRecord
100
AcDbBlockTableRecord
  2
*Paper_Space0
340
26
  0
BLOCK_RECORD
  5
31
330
1
100
AcDbSymbolTableRecord
100
AcDbBlockTableRecord
  2
注記
340
0
102
{BLKREFS
331
2CB
102
}
  0
BLOCK_RECORD
  5
37
330
1
100
AcDbSymbolTableRecord
100
AcDbBlockTableRecord
  2
SURFACEFINISH39
340
0
102
{BLKREFS
331
2CA
102
}
  0
BLOCK_RECORD
  5
3E
330
1
100
AcDbSymbolTableRecord
100
AcDbBlockTableRecord
  2
SW_CENTERMARK0
340
0
102
{BLKREFS
331
2CC
102
}
  0
BLOCK_RECORD
  5
49
330
1
100
AcDbSymbolTableRecord
100
AcDbBlockTableRecord
  2
SW_CENTERMARK1
340
0
102
{BLKREFS
331
2CD
102
}
  0
BLOCK_RECORD
  5
54
330
1
100
AcDbSymbolTableRecord
100
AcDbBlockTableRecord
  2
SW_CENTERMARK2
340
0
102
{BLKREFS
331
2CE
102
}
  0
BLOCK_RECORD
  5
21C
330
1
100
AcDbSymbolTableRecord
100
AcDbBlockTableRecord
  2
*D6
340
0
  0
BLOCK_RECORD
  5
229
330
1
100
AcDbSymbolTableRecord
100
AcDbBlockTableRecord
  2
_None
340
0
102
{BLKREFS
331
221
331
220
331
23C
331
23B
331
252
331
264
331
263
331
280
331
27F
331
29B
331
29A
331
2B6
331
2B5
102
}
  0
BLOCK_RECORD
  5
237
330
1
100
AcDbSymbolTableRecord
100
AcDbBlockTableRecord
  2
*D8
340
0
  0
BLOCK_RECORD
  5
24E
330
1
100
AcDbSymbolTableRecord
100
AcDbBlockTableRecord
  2
*D9
340
0
  0
BLOCK_RECORD
  5
25F
330
1
100
AcDbSymbolTableRecord
100
AcDbBlockTableRecord
  2
*D10
340
0
  0
BLOCK_RECORD
  5
27A
330
1
100
AcDbSymbolTableRecord
100
AcDbBlockTableRecord
  2
*D11
340
0
  0
BLOCK_RECORD
  5
295
330
1
100
AcDbSymbolTableRecord
100
AcDbBlockTableRecord
  2
*D12
340
0
  0
BLOCK_RECORD
  5
2B1
330
1
100
AcDbSymbolTableRecord
100
AcDbBlockTableRecord
  2
*D13
340
0
  0
ENDTAB
  0
ENDSEC
  0
SECTION
  2
BLOCKS
  0
BLOCK
  5
20
330
1F
100
AcDbEntity
  8
0
100
AcDbBlockBegin
  2
*Model_Space
 70
     0
 71
     0
 10
0.0
 20
0.0
 30
0.0
  3
*Model_Space
  1

  0
ENDBLK
  5
21
330
1F
100
AcDbEntity
  8
0
100
AcDbBlockEnd
  0
BLOCK
  5
1C
330
1B
100
AcDbEntity
 67
     1
  8
0
100
AcDbBlockBegin
  2
*Paper_Space
 70
     0
 71
     0
 10
0.0
 20
0.0
 30
0.0
  3
*Paper_Space
  1

  0
ENDBLK
  5
1D
330
1B
100
AcDbEntity
 67
     1
  8
0
100
AcDbBlockEnd
  0
BLOCK
  5
24
330
23
100
AcDbEntity
  8
0
100
AcDbBlockBegin
  2
*Paper_Space0
 70
     0
 71
     0
 10
0.0
 20
0.0
 30
0.0
  3
*Paper_Space0
  1

  0
ENDBLK
  5
25
330
23
100
AcDbEntity
  8
0
100
AcDbBlockEnd
  0
BLOCK
  5
32
330
31
100
AcDbEntity
  8
0
100
AcDbBlockBegin
  2
注記
 70
     0
 71
     0
 10
0.0
 20
0.0
 30
0.0
  3
注記
  1

  0
MTEXT
  5
35
330
31
100
AcDbEntity
  8
0
  6
Continuous
 62
     7
370
     0
100
AcDbMText
 10
0.2636785918
 20
9.0739778448
 30
0.0
 40
3.5
 41
0.0
 71
     1
 72
     1
  1
１．特記ナキ角部ハ、バリ　カエリノ無キコト。
  7
SLDTEXTSTYLE0
 73
     1
 44
1.0
  0
MTEXT
  5
36
330
31
100
AcDbEntity
  8
0
  6
Continuous
 62
     7
370
     0
100
AcDbMText
 10
0.2636785918
 20
3.5759549983
 30
0.0
 40
3.5
 41
0.0
 71
     1
 72
     1
  1
２．特記ナキ隅部ハ、Ｒ０．４ＭＡＸトスル。
  7
SLDTEXTSTYLE0
 73
     1
 44
1.0
  0
ENDBLK
  5
33
330
31
100
AcDbEntity
  8
0
100
AcDbBlockEnd
  0
BLOCK
  5
38
330
37
100
AcDbEntity
  8
0
100
AcDbBlockBegin
  2
SURFACEFINISH39
 70
     0
 71
     0
 10
0.0
 20
0.0
 30
0.0
  3
SURFACEFINISH39
  1

  0
LINE
  5
3A
330
37
100
AcDbEntity
  8
SLD-0
  6
Continuous
 62
   179
100
AcDbLine
 10
0.6656399396
 20
-6.0449245738
 30
0.0
 11
-2.9003789868
 21
0.0000001164
 31
0.0
  0
LINE
  5
3B
330
37
100
AcDbEntity
  8
SLD-0
  6
Continuous
 62
   179
100
AcDbLine
 10
0.6656399396
 20
-6.0449245738
 30
0.0
 11
7.7976777926
 21
6.0449248066
 31
0.0
  0
MTEXT
  5
3D
330
37
100
AcDbEntity
  8
SLD-0
100
AcDbMText
 10
0.0
 20
4.9341236929
 30
0.0
 40
3.175
 41
0.0
 71
     1
 72
     1
  1
25
  7
SLDTEXTSTYLE1
 73
     1
 44
1.0
  0
ENDBLK
  5
39
330
37
100
AcDbEntity
  8
0
100
AcDbBlockEnd
  0
BLOCK
  5
3F
330
3E
100
AcDbEntity
  8
0
100
AcDbBlockBegin
  2
SW_CENTERMARK0
 70
     0
 71
     0
 10
0.0
 20
0.0
 30
0.0
  3
SW_CENTERMARK0
  1

  0
LINE
  5
41
330
3E
100
AcDbEntity
  8
SLD-0
  6
Continuous
 62
   179
100
AcDbLine
 10
102.6382279283
 20
166.9362939899
 30
0.0
 11
102.6382280587
 21
169.4362956709
 31
0.0
  0
LINE
  5
42
330
3E
100
AcDbEntity
  8
SLD-0
  6
Continuous
 62
   179
100
AcDbLine
 10
102.6382279283
 20
166.9362939899
 30
0.0
 11
100.1382280587
 21
166.9362956709
 31
0.0
  0
LINE
  5
43
330
3E
100
AcDbEntity
  8
SLD-0
  6
Continuous
 62
   179
100
AcDbLine
 10
102.6382279283
 20
166.9362939899
 30
0.0
 11
102.6382280587
 21
164.4362956709
 31
0.0
  0
LINE
  5
44
330
3E
100
AcDbEntity
  8
SLD-0
  6
Continuous
 62
   179
100
AcDbLine
 10
102.6382279283
 20
166.9362939899
 30
0.0
 11
105.1382280587
 21
166.9362956709
 31
0.0
  0
LINE
  5
45
330
3E
100
AcDbEntity
  8
SLD-0
  6
Continuous
 62
   179
100
AcDbLine
 10
102.6382280587
 20
169.4362956709
 30
0.0
 11
102.6382280587
 21
171.9362956709
 31
0.0
  0
LINE
  5
46
330
3E
100
AcDbEntity
  8
SLD-0
  6
Continuous
 62
   179
100
AcDbLine
 10
100.1382280587
 20
166.9362956709
 30
0.0
 11
97.6382280587
 21
166.9362956709
 31
0.0
  0
LINE
  5
47
330
3E
100
AcDbEntity
  8
SLD-0
  6
Continuous
 62
   179
100
AcDbLine
 10
102.6382280587
 20
164.4362956709
 30
0.0
 11
102.6382280587
 21
161.9362956709
 31
0.0
  0
LINE
  5
48
330
3E
100
AcDbEntity
  8
SLD-0
  6
Continuous
 62
   179
100
AcDbLine
 10
105.1382280587
 20
166.9362956709
 30
0.0
 11
107.6382280587
 21
166.9362956709
 31
0.0
  0
ENDBLK
  5
40
330
3E
100
AcDbEntity
  8
0
100
AcDbBlockEnd
  0
BLOCK
  5
4A
330
49
100
AcDbEntity
  8
0
100
AcDbBlockBegin
  2
SW_CENTERMARK1
 70
     0
 71
     0
 10
0.0
 20
0.0
 30
0.0
  3
SW_CENTERMARK1
  1

  0
LINE
  5
4C
330
49
100
AcDbEntity
  8
SLD-0
  6
Continuous
 62
   179
100
AcDbLine
 10
117.6382280587
 20
166.9362947668
 30
0.0
 11
117.6382280587
 21
169.4362956709
 31
0.0
  0
LINE
  5
4D
330
49
100
AcDbEntity
  8
SLD-0
  6
Continuous
 62
   179
100
AcDbLine
 10
117.6382280587
 20
166.9362947668
 30
0.0
 11
115.1382280587
 21
166.9362956709
 31
0.0
  0
LINE
  5
4E
330
49
100
AcDbEntity
  8
SLD-0
  6
Continuous
 62
   179
100
AcDbLine
 10
117.6382280587
 20
166.9362947668
 30
0.0
 11
117.6382280587
 21
164.4362956709
 31
0.0
  0
LINE
  5
4F
330
49
100
AcDbEntity
  8
SLD-0
  6
Continuous
 62
   179
100
AcDbLine
 10
117.6382280587
 20
166.9362947668
 30
0.0
 11
120.1382280587
 21
166.9362956709
 31
0.0
  0
LINE
  5
50
330
49
100
AcDbEntity
  8
SLD-0
  6
Continuous
 62
   179
100
AcDbLine
 10
117.6382280587
 20
169.4362956709
 30
0.0
 11
117.6382280587
 21
171.9362956709
 31
0.0
  0
LINE
  5
51
330
49
100
AcDbEntity
  8
SLD-0
  6
Continuous
 62
   179
100
AcDbLine
 10
115.1382280587
 20
166.9362956709
 30
0.0
 11
112.6382280587
 21
166.9362956709
 31
0.0
  0
LINE
  5
52
330
49
100
AcDbEntity
  8
SLD-0
  6
Continuous
 62
   179
100
AcDbLine
 10
117.6382280587
 20
164.4362956709
 30
0.0
 11
117.6382280587
 21
161.9362956709
 31
0.0
  0
LINE
  5
53
330
49
100
AcDbEntity
  8
SLD-0
  6
Continuous
 62
   179
100
AcDbLine
 10
120.1382280587
 20
166.9362956709
 30
0.0
 11
122.6382280587
 21
166.9362956709
 31
0.0
  0
ENDBLK
  5
4B
330
49
100
AcDbEntity
  8
0
100
AcDbBlockEnd
  0
BLOCK
  5
55
330
54
100
AcDbEntity
  8
0
100
AcDbBlockBegin
  2
SW_CENTERMARK2
 70
     0
 71
     0
 10
0.0
 20
0.0
 30
0.0
  3
SW_CENTERMARK2
  1

  0
LINE
  5
57
330
54
100
AcDbEntity
  8
SLD-0
  6
Continuous
 62
   179
100
AcDbLine
 10
132.6382281891
 20
166.9362939899
 30
0.0
 11
132.6382280587
 21
169.4362956709
 31
0.0
  0
LINE
  5
58
330
54
100
AcDbEntity
  8
SLD-0
  6
Continuous
 62
   179
100
AcDbLine
 10
132.6382281891
 20
166.9362939899
 30
0.0
 11
130.1382280587
 21
166.9362956709
 31
0.0
  0
LINE
  5
59
330
54
100
AcDbEntity
  8
SLD-0
  6
Continuous
 62
   179
100
AcDbLine
 10
132.6382281891
 20
166.9362939899
 30
0.0
 11
132.6382280587
 21
164.4362956709
 31
0.0
  0
LINE
  5
5A
330
54
100
AcDbEntity
  8
SLD-0
  6
Continuous
 62
   179
100
AcDbLine
 10
132.6382281891
 20
166.9362939899
 30
0.0
 11
135.1382280587
 21
166.9362956709
 31
0.0
  0
LINE
  5
5B
330
54
100
AcDbEntity
  8
SLD-0
  6
Continuous
 62
   179
100
AcDbLine
 10
132.6382280587
 20
169.4362956709
 30
0.0
 11
132.6382280587
 21
171.9362956709
 31
0.0
  0
LINE
  5
5C
330
54
100
AcDbEntity
  8
SLD-0
  6
Continuous
 62
   179
100
AcDbLine
 10
130.1382280587
 20
166.9362956709
 30
0.0
 11
127.6382280587
 21
166.9362956709
 31
0.0
  0
LINE
  5
5D
330
54
100
AcDbEntity
  8
SLD-0
  6
Continuous
 62
   179
100
AcDbLine
 10
132.6382280587
 20
164.4362956709
 30
0.0
 11
132.6382280587
 21
161.9362956709
 31
0.0
  0
LINE
  5
5E
330
54
100
AcDbEntity
  8
SLD-0
  6
Continuous
 62
   179
100
AcDbLine
 10
135.1382280587
 20
166.9362956709
 30
0.0
 11
137.6382280587
 21
166.9362956709
 31
0.0
  0
ENDBLK
  5
56
330
54
100
AcDbEntity
  8
0
100
AcDbBlockEnd
  0
BLOCK
  5
226
330
21C
100
AcDbEntity
  8
0
100
AcDbBlockBegin
  2
*D6
 70
     1
 71
     0
 10
0.0
 20
0.0
 30
0.0
  3
*D6
  1

  0
LINE
  5
22C
330
21C
100
AcDbEntity
  8
SLD-0
 62
     7
100
AcDbLine
 10
117.6382280587
 20
172.9362956709
 30
0.0
 11
117.6382280587
 21
181.9714042029
 31
0.0
  0
LINE
  5
22D
330
21C
100
AcDbEntity
  8
SLD-0
 62
     7
100
AcDbLine
 10
102.6382280587
 20
172.9362956709
 30
0.0
 11
102.6382280587
 21
181.9714042029
 31
0.0
  0
LINE
  5
22E
330
21C
100
AcDbEntity
  8
SLD-0
 62
     7
100
AcDbLine
 10
117.6382280587
 20
180.9714042029
 30
0.0
 11
102.6382280587
 21
180.9714042029
 31
0.0
  0
LINE
  5
22F
330
21C
100
AcDbEntity
  8
SLD-0
 62
     7
100
AcDbLine
 10
114.6382280587
 20
181.7752512029
 30
0.0
 11
117.6382280587
 21
180.9714042029
 31
0.0
  0
LINE
  5
230
330
21C
100
AcDbEntity
  8
SLD-0
 62
     7
100
AcDbLine
 10
117.6382280587
 20
180.9714042029
 30
0.0
 11
114.6382280587
 21
180.1675572029
 31
0.0
  0
LINE
  5
231
330
21C
100
AcDbEntity
  8
SLD-0
 62
     7
100
AcDbLine
 10
117.6382280587
 20
180.9714042029
 30
0.0
 11
114.6382280587
 21
180.9714042029
 31
0.0
  0
LINE
  5
232
330
21C
100
AcDbEntity
  8
SLD-0
 62
     7
100
AcDbLine
 10
105.6382280587
 20
180.1675572029
 30
0.0
 11
102.6382280587
 21
180.9714042029
 31
0.0
  0
LINE
  5
233
330
21C
100
AcDbEntity
  8
SLD-0
 62
     7
100
AcDbLine
 10
102.6382280587
 20
180.9714042029
 30
0.0
 11
105.6382280587
 21
181.7752512029
 31
0.0
  0
LINE
  5
234
330
21C
100
AcDbEntity
  8
SLD-0
 62
     7
100
AcDbLine
 10
102.6382280587
 20
180.9714042029
 30
0.0
 11
105.6382280587
 21
180.9714042029
 31
0.0
  0
MTEXT
  5
235
330
21C
100
AcDbEntity
  8
SLD-0
 62
     7
100
AcDbMText
 10
108.1027928355
 20
185.4980978989
 30
0.1
 40
3.5
 41
0.0
 71
     1
 72
     1
  1
15
  7
SLDTEXTSTYLE0
 73
     1
 44
1.0
  0
ENDBLK
  5
227
330
21C
100
AcDbEntity
  8
0
100
AcDbBlockEnd
  0
BLOCK
  5
22A
330
229
100
AcDbEntity
  8
0
100
AcDbBlockBegin
  2
_None
 70
     0
 71
     0
 10
0.0
 20
0.0
 30
0.0
  3
_None
  1

  0
ENDBLK
  5
22B
330
229
100
AcDbEntity
  8
0
100
AcDbBlockEnd
  0
BLOCK
  5
241
330
237
100
AcDbEntity
  8
0
100
AcDbBlockBegin
  2
*D8
 70
     1
 71
     0
 10
0.0
 20
0.0
 30
0.0
  3
*D8
  1

  0
LINE
  5
243
330
237
100
AcDbEntity
  8
SLD-0
 62
     7
100
AcDbLine
 10
97.1382280587
 20
173.2362956709
 30
0.0
 11
97.1382280587
 21
191.9817906467
 31
0.0
  0
LINE
  5
244
330
237
100
AcDbEntity
  8
SLD-0
 62
     7
100
AcDbLine
 10
138.1382280587
 20
173.2362956709
 30
0.0
 11
138.1382280587
 21
191.9817906467
 31
0.0
  0
LINE
  5
245
330
237
100
AcDbEntity
  8
SLD-0
 62
     7
100
AcDbLine
 10
97.1382280587
 20
190.9817906467
 30
0.0
 11
138.1382280587
 21
190.9817906467
 31
0.0
  0
LINE
  5
246
330
237
100
AcDbEntity
  8
SLD-0
 62
     7
100
AcDbLine
 10
100.1382280587
 20
190.1779436467
 30
0.0
 11
97.1382280587
 21
190.9817906467
 31
0.0
  0
LINE
  5
247
330
237
100
AcDbEntity
  8
SLD-0
 62
     7
100
AcDbLine
 10
97.1382280587
 20
190.9817906467
 30
0.0
 11
100.1382280587
 21
191.7856376467
 31
0.0
  0
LINE
  5
248
330
237
100
AcDbEntity
  8
SLD-0
 62
     7
100
AcDbLine
 10
97.1382280587
 20
190.9817906467
 30
0.0
 11
100.1382280587
 21
190.9817906467
 31
0.0
  0
LINE
  5
249
330
237
100
AcDbEntity
  8
SLD-0
 62
     7
100
AcDbLine
 10
135.1382280587
 20
191.7856376467
 30
0.0
 11
138.1382280587
 21
190.9817906467
 31
0.0
  0
LINE
  5
24A
330
237
100
AcDbEntity
  8
SLD-0
 62
     7
100
AcDbLine
 10
138.1382280587
 20
190.9817906467
 30
0.0
 11
135.1382280587
 21
190.1779436467
 31
0.0
  0
LINE
  5
24B
330
237
100
AcDbEntity
  8
SLD-0
 62
     7
100
AcDbLine
 10
138.1382280587
 20
190.9817906467
 30
0.0
 11
135.1382280587
 21
190.9817906467
 31
0.0
  0
MTEXT
  5
24C
330
237
100
AcDbEntity
  8
SLD-0
 62
     7
100
AcDbMText
 10
115.6027928355
 20
195.5084843427
 30
0.1
 40
3.5
 41
0.0
 71
     1
 72
     1
  1
41
  7
SLDTEXTSTYLE0
 73
     1
 44
1.0
  0
ENDBLK
  5
242
330
237
100
AcDbEntity
  8
0
100
AcDbBlockEnd
  0
BLOCK
  5
255
330
24E
100
AcDbEntity
  8
0
100
AcDbBlockBegin
  2
*D9
 70
     1
 71
     0
 10
0.0
 20
0.0
 30
0.0
  3
*D9
  1

  0
LINE
  5
258
330
24E
100
AcDbEntity
  8
SLD-0
 62
     7
100
AcDbLine
 10
116.5439406136
 20
164.1429938634
 30
0.0
 11
110.7712568866
 21
149.4075164881
 31
0.0
  0
LINE
  5
259
330
24E
100
AcDbEntity
  8
SLD-0
 62
     7
100
AcDbLine
 10
110.7712568866
 20
149.4075164881
 30
0.0
 11
97.8633617117
 21
149.4075164881
 31
0.0
  0
LINE
  5
25A
330
24E
100
AcDbEntity
  8
SLD-0
 62
     7
100
AcDbLine
 10
114.7011907425
 20
161.6429052825
 30
0.0
 11
116.5439406136
 21
164.1429938634
 31
0.0
  0
LINE
  5
25B
330
24E
100
AcDbEntity
  8
SLD-0
 62
     7
100
AcDbLine
 10
116.5439406136
 20
164.1429938634
 30
0.0
 11
116.1981155946
 21
161.0564788293
 31
0.0
  0
LINE
  5
25C
330
24E
100
AcDbEntity
  8
SLD-0
 62
     7
100
AcDbLine
 10
116.5439406136
 20
164.1429938634
 30
0.0
 11
115.4496531685
 21
161.3496920559
 31
0.0
  0
MTEXT
  5
25D
330
24E
100
AcDbEntity
  8
SLD-0
 62
     7
100
AcDbMText
 10
99.4508617117
 20
153.934210184
 30
0.1
 40
3.5
 41
0.0
 71
     1
 72
     1
  1
3-M6
  7
SLDTEXTSTYLE0
 73
     1
 44
1.0
  0
ENDBLK
  5
256
330
24E
100
AcDbEntity
  8
0
100
AcDbBlockEnd
  0
BLOCK
  5
26A
330
25F
100
AcDbEntity
  8
0
100
AcDbBlockBegin
  2
*D10
 70
     1
 71
     0
 10
0.0
 20
0.0
 30
0.0
  3
*D10
  1

  0
LINE
  5
26D
330
25F
100
AcDbEntity
  8
SLD-0
 62
     7
100
AcDbLine
 10
139.1382280587
 20
172.2362956709
 30
0.0
 11
161.4732582353
 21
172.2362956709
 31
0.0
  0
LINE
  5
26E
330
25F
100
AcDbEntity
  8
SLD-0
 62
     7
100
AcDbLine
 10
139.1382280587
 20
161.6362956709
 30
0.0
 11
161.4732582353
 21
161.6362956709
 31
0.0
  0
LINE
  5
26F
330
25F
100
AcDbEntity
  8
SLD-0
 62
     7
100
AcDbLine
 10
160.4732582353
 20
172.2362956709
 30
0.0
 11
160.4732582353
 21
177.2362956709
 31
0.0
  0
LINE
  5
270
330
25F
100
AcDbEntity
  8
SLD-0
 62
     7
100
AcDbLine
 10
160.4732582353
 20
172.2362956709
 30
0.0
 11
160.4732582353
 21
161.6362956709
 31
0.0
  0
LINE
  5
271
330
25F
100
AcDbEntity
  8
SLD-0
 62
     7
100
AcDbLine
 10
160.4732582353
 20
161.6362956709
 30
0.0
 11
160.4732582353
 21
156.6362956709
 31
0.0
  0
LINE
  5
272
330
25F
100
AcDbEntity
  8
SLD-0
 62
     7
100
AcDbLine
 10
161.2771052353
 20
175.2362956709
 30
0.0
 11
160.4732582353
 21
172.2362956709
 31
0.0
  0
LINE
  5
273
330
25F
100
AcDbEntity
  8
SLD-0
 62
     7
100
AcDbLine
 10
160.4732582353
 20
172.2362956709
 30
0.0
 11
159.6694112353
 21
175.2362956709
 31
0.0
  0
LINE
  5
274
330
25F
100
AcDbEntity
  8
SLD-0
 62
     7
100
AcDbLine
 10
160.4732582353
 20
172.2362956709
 30
0.0
 11
160.4732582353
 21
175.2362956709
 31
0.0
  0
LINE
  5
275
330
25F
100
AcDbEntity
  8
SLD-0
 62
     7
100
AcDbLine
 10
159.6694112353
 20
158.6362956709
 30
0.0
 11
160.4732582353
 21
161.6362956709
 31
0.0
  0
LINE
  5
276
330
25F
100
AcDbEntity
  8
SLD-0
 62
     7
100
AcDbLine
 10
160.4732582353
 20
161.6362956709
 30
0.0
 11
161.2771052353
 21
158.6362956709
 31
0.0
  0
LINE
  5
277
330
25F
100
AcDbEntity
  8
SLD-0
 62
     7
100
AcDbLine
 10
160.4732582353
 20
161.6362956709
 30
0.0
 11
160.4732582353
 21
158.6362956709
 31
0.0
  0
MTEXT
  5
278
330
25F
100
AcDbEntity
  8
SLD-0
 62
     7
100
AcDbMText
 10
155.9465645393
 20
162.8635980834
 30
0.1
 40
3.5
 41
0.0
 71
     1
 72
     1
  1
10.6
  7
SLDTEXTSTYLE0
 11
6.123031769111886E-17
 21
1.0
 31
0.0
 73
     1
 44
1.0
  0
ENDBLK
  5
26B
330
25F
100
AcDbEntity
  8
0
100
AcDbBlockEnd
  0
BLOCK
  5
286
330
27A
100
AcDbEntity
  8
0
100
AcDbBlockBegin
  2
*D11
 70
     1
 71
     0
 10
0.0
 20
0.0
 30
0.0
  3
*D11
  1

  0
LINE
  5
288
330
27A
100
AcDbEntity
  8
SLD-0
 62
     7
100
AcDbLine
 10
139.1382280587
 20
161.6362956709
 30
0.0
 11
150.2024064353
 21
161.6362956709
 31
0.0
  0
LINE
  5
289
330
27A
100
AcDbEntity
  8
SLD-0
 62
     7
100
AcDbLine
 10
123.6382280587
 20
166.9362956709
 30
0.0
 11
150.2024064353
 21
166.9362956709
 31
0.0
  0
LINE
  5
28A
330
27A
100
AcDbEntity
  8
SLD-0
 62
     7
100
AcDbLine
 10
149.2024064353
 20
161.6362956709
 30
0.0
 11
149.2024064353
 21
150.0073171908
 31
0.0
  0
LINE
  5
28B
330
27A
100
AcDbEntity
  8
SLD-0
 62
     7
100
AcDbLine
 10
149.2024064353
 20
161.6362956709
 30
0.0
 11
149.2024064353
 21
166.9362956709
 31
0.0
  0
LINE
  5
28C
330
27A
100
AcDbEntity
  8
SLD-0
 62
     7
100
AcDbLine
 10
149.2024064353
 20
166.9362956709
 30
0.0
 11
149.2024064353
 21
171.9362956709
 31
0.0
  0
LINE
  5
28D
330
27A
100
AcDbEntity
  8
SLD-0
 62
     7
100
AcDbLine
 10
148.3985594353
 20
158.6362956709
 30
0.0
 11
149.2024064353
 21
161.6362956709
 31
0.0
  0
LINE
  5
28E
330
27A
100
AcDbEntity
  8
SLD-0
 62
     7
100
AcDbLine
 10
149.2024064353
 20
161.6362956709
 30
0.0
 11
150.0062534353
 21
158.6362956709
 31
0.0
  0
LINE
  5
28F
330
27A
100
AcDbEntity
  8
SLD-0
 62
     7
100
AcDbLine
 10
149.2024064353
 20
161.6362956709
 30
0.0
 11
149.2024064353
 21
158.6362956709
 31
0.0
  0
LINE
  5
290
330
27A
100
AcDbEntity
  8
SLD-0
 62
     7
100
AcDbLine
 10
150.0062534353
 20
169.9362956709
 30
0.0
 11
149.2024064353
 21
166.9362956709
 31
0.0
  0
LINE
  5
291
330
27A
100
AcDbEntity
  8
SLD-0
 62
     7
100
AcDbLine
 10
149.2024064353
 20
166.9362956709
 30
0.0
 11
148.3985594353
 21
169.9362956709
 31
0.0
  0
LINE
  5
292
330
27A
100
AcDbEntity
  8
SLD-0
 62
     7
100
AcDbLine
 10
149.2024064353
 20
166.9362956709
 30
0.0
 11
149.2024064353
 21
169.9362956709
 31
0.0
  0
MTEXT
  5
293
330
27A
100
AcDbEntity
  8
SLD-0
 62
     7
100
AcDbMText
 10
144.6757127393
 20
151.5948171908
 30
0.1
 40
3.5
 41
0.0
 71
     1
 72
     1
  1
5.3
  7
SLDTEXTSTYLE0
 11
6.123031769111886E-17
 21
1.0
 31
0.0
 73
     1
 44
1.0
  0
ENDBLK
  5
287
330
27A
100
AcDbEntity
  8
0
100
AcDbBlockEnd
  0
BLOCK
  5
2A2
330
295
100
AcDbEntity
  8
0
100
AcDbBlockBegin
  2
*D12
 70
     1
 71
     0
 10
0.0
 20
0.0
 30
0.0
  3
*D12
  1

  0
LINE
  5
2A4
330
295
100
AcDbEntity
  8
SLD-0
 62
     7
100
AcDbLine
 10
138.1382280587
 20
173.2362956709
 30
0.0
 11
138.1382280587
 21
181.9714042029
 31
0.0
  0
LINE
  5
2A5
330
295
100
AcDbEntity
  8
SLD-0
 62
     7
100
AcDbLine
 10
132.6382280587
 20
172.9362956709
 30
0.0
 11
132.6382280587
 21
181.9714042029
 31
0.0
  0
LINE
  5
2A6
330
295
100
AcDbEntity
  8
SLD-0
 62
     7
100
AcDbLine
 10
138.1382280587
 20
180.9714042029
 30
0.0
 11
153.8448864111
 21
180.9714042029
 31
0.0
  0
LINE
  5
2A7
330
295
100
AcDbEntity
  8
SLD-0
 62
     7
100
AcDbLine
 10
138.1382280587
 20
180.9714042029
 30
0.0
 11
132.6382280587
 21
180.9714042029
 31
0.0
  0
LINE
  5
2A8
330
295
100
AcDbEntity
  8
SLD-0
 62
     7
100
AcDbLine
 10
132.6382280587
 20
180.9714042029
 30
0.0
 11
127.6382280587
 21
180.9714042029
 31
0.0
  0
LINE
  5
2A9
330
295
100
AcDbEntity
  8
SLD-0
 62
     7
100
AcDbLine
 10
141.1382280587
 20
180.1675572029
 30
0.0
 11
138.1382280587
 21
180.9714042029
 31
0.0
  0
LINE
  5
2AA
330
295
100
AcDbEntity
  8
SLD-0
 62
     7
100
AcDbLine
 10
138.1382280587
 20
180.9714042029
 30
0.0
 11
141.1382280587
 21
181.7752512029
 31
0.0
  0
LINE
  5
2AB
330
295
100
AcDbEntity
  8
SLD-0
 62
     7
100
AcDbLine
 10
138.1382280587
 20
180.9714042029
 30
0.0
 11
141.1382280587
 21
180.9714042029
 31
0.0
  0
LINE
  5
2AC
330
295
100
AcDbEntity
  8
SLD-0
 62
     7
100
AcDbLine
 10
129.6382280587
 20
181.7752512029
 30
0.0
 11
132.6382280587
 21
180.9714042029
 31
0.0
  0
LINE
  5
2AD
330
295
100
AcDbEntity
  8
SLD-0
 62
     7
100
AcDbLine
 10
132.6382280587
 20
180.9714042029
 30
0.0
 11
129.6382280587
 21
180.1675572029
 31
0.0
  0
LINE
  5
2AE
330
295
100
AcDbEntity
  8
SLD-0
 62
     7
100
AcDbLine
 10
132.6382280587
 20
180.9714042029
 30
0.0
 11
129.6382280587
 21
180.9714042029
 31
0.0
  0
MTEXT
  5
2AF
330
295
100
AcDbEntity
  8
SLD-0
 62
     7
100
AcDbMText
 10
146.1474264594
 20
185.4980978989
 30
0.1
 40
3.5
 41
0.0
 71
     1
 72
     1
  1
5.5
  7
SLDTEXTSTYLE0
 73
     1
 44
1.0
  0
ENDBLK
  5
2A3
330
295
100
AcDbEntity
  8
0
100
AcDbBlockEnd
  0
BLOCK
  5
2BB
330
2B1
100
AcDbEntity
  8
0
100
AcDbBlockBegin
  2
*D13
 70
     1
 71
     0
 10
0.0
 20
0.0
 30
0.0
  3
*D13
  1

  0
LINE
  5
2BD
330
2B1
100
AcDbEntity
  8
SLD-0
 62
     7
100
AcDbLine
 10
132.6382280587
 20
172.9362956709
 30
0.0
 11
132.6382280587
 21
181.9714042029
 31
0.0
  0
LINE
  5
2BE
330
2B1
100
AcDbEntity
  8
SLD-0
 62
     7
100
AcDbLine
 10
117.6382280587
 20
172.9362956709
 30
0.0
 11
117.6382280587
 21
181.9714042029
 31
0.0
  0
LINE
  5
2BF
330
2B1
100
AcDbEntity
  8
SLD-0
 62
     7
100
AcDbLine
 10
132.6382280587
 20
180.9714042029
 30
0.0
 11
117.6382280587
 21
180.9714042029
 31
0.0
  0
LINE
  5
2C0
330
2B1
100
AcDbEntity
  8
SLD-0
 62
     7
100
AcDbLine
 10
129.6382280587
 20
181.7752512029
 30
0.0
 11
132.6382280587
 21
180.9714042029
 31
0.0
  0
LINE
  5
2C1
330
2B1
100
AcDbEntity
  8
SLD-0
 62
     7
100
AcDbLine
 10
132.6382280587
 20
180.9714042029
 30
0.0
 11
129.6382280587
 21
180.1675572029
 31
0.0
  0
LINE
  5
2C2
330
2B1
100
AcDbEntity
  8
SLD-0
 62
     7
100
AcDbLine
 10
132.6382280587
 20
180.9714042029
 30
0.0
 11
129.6382280587
 21
180.9714042029
 31
0.0
  0
LINE
  5
2C3
330
2B1
100
AcDbEntity
  8
SLD-0
 62
     7
100
AcDbLine
 10
120.6382280587
 20
180.1675572029
 30
0.0
 11
117.6382280587
 21
180.9714042029
 31
0.0
  0
LINE
  5
2C4
330
2B1
100
AcDbEntity
  8
SLD-0
 62
     7
100
AcDbLine
 10
117.6382280587
 20
180.9714042029
 30
0.0
 11
120.6382280587
 21
181.7752512029
 31
0.0
  0
LINE
  5
2C5
330
2B1
100
AcDbEntity
  8
SLD-0
 62
     7
100
AcDbLine
 10
117.6382280587
 20
180.9714042029
 30
0.0
 11
120.6382280587
 21
180.9714042029
 31
0.0
  0
MTEXT
  5
2C6
330
2B1
100
AcDbEntity
  8
SLD-0
 62
     7
100
AcDbMText
 10
123.1027928355
 20
185.4980978989
 30
0.1
 40
3.5
 41
0.0
 71
     1
 72
     1
  1
15
  7
SLDTEXTSTYLE0
 73
     1
 44
1.0
  0
ENDBLK
  5
2BC
330
2B1
100
AcDbEntity
  8
0
100
AcDbBlockEnd
  0
ENDSEC
  0
SECTION
  2
ENTITIES
  0
LINE
  5
5F
330
1F
100
AcDbEntity
  8
SLD-0
  6
Continuous
 62
   179
100
AcDbLine
 10
20.2604743903
 20
285.0
 30
0.0
 11
196.7604743903
 21
285.0
 31
0.0
  0
LINE
  5
60
330
1F
100
AcDbEntity
  8
SLD-0
  6
Continuous
 62
   179
100
AcDbLine
 10
20.2604743903
 20
285.0
 30
0.0
 11
20.2604743903
 21
10.0
 31
0.0
  0
LINE
  5
61
330
1F
100
AcDbEntity
  8
SLD-0
  6
Continuous
 62
   179
100
AcDbLine
 10
20.2604743903
 20
10.0
 30
0.0
 11
196.7604743903
 21
10.0
 31
0.0
  0
LINE
  5
62
330
1F
100
AcDbEntity
  8
SLD-0
  6
Continuous
 62
   179
100
AcDbLine
 10
196.7604743903
 20
285.0
 30
0.0
 11
196.7604743903
 21
10.0
 31
0.0
  0
LINE
  5
63
330
1F
100
AcDbEntity
  8
SLD-0
  6
Continuous
 62
   179
100
AcDbLine
 10
127.0104743903
 20
50.75
 30
0.0
 11
196.7604743903
 21
50.75
 31
0.0
  0
LINE
  5
64
330
1F
100
AcDbEntity
  8
SLD-0
  6
Continuous
 62
   179
100
AcDbLine
 10
127.0104743903
 20
50.75
 30
0.0
 11
127.0104743903
 21
10.0
 31
0.0
  0
LINE
  5
65
330
1F
100
AcDbEntity
  8
SLD-0
  6
Continuous
 62
   179
100
AcDbLine
 10
127.0104743903
 20
22.75
 30
0.0
 11
196.7604743903
 21
22.75
 31
0.0
  0
LINE
  5
66
330
1F
100
AcDbEntity
  8
SLD-0
  6
Continuous
 62
   179
100
AcDbLine
 10
127.0104743903
 20
36.75
 30
0.0
 11
196.7604743903
 21
36.75
 31
0.0
  0
LINE
  5
67
330
1F
100
AcDbEntity
  8
SLD-0
  6
Continuous
 62
   179
100
AcDbLine
 10
138.1382280587
 20
172.2362956709
 30
0.0
 11
97.1382280587
 21
172.2362956709
 31
0.0
  0
LINE
  5
68
330
1F
100
AcDbEntity
  8
SLD-0
  6
Continuous
 62
   179
100
AcDbLine
 10
97.1382280587
 20
161.6362956709
 30
0.0
 11
138.1382280587
 21
161.6362956709
 31
0.0
  0
LINE
  5
69
330
1F
100
AcDbEntity
  8
SLD-0
  6
Continuous
 62
   179
100
AcDbLine
 10
138.1382280587
 20
171.7362956709
 30
0.0
 11
138.1382280587
 21
169.7605597396
 31
0.0
  0
LINE
  5
6A
330
1F
100
AcDbEntity
  8
SLD-0
  6
Continuous
 62
   179
100
AcDbLine
 10
97.1382280587
 20
171.7362956709
 30
0.0
 11
97.1382280587
 21
169.7605597396
 31
0.0
  0
LINE
  5
6B
330
1F
100
AcDbEntity
  8
SLD-0
  6
Continuous
 62
   179
100
AcDbLine
 10
97.1382280587
 20
172.2362956709
 30
0.0
 11
97.1382280587
 21
171.7362956709
 31
0.0
  0
LINE
  5
6C
330
1F
100
AcDbEntity
  8
SLD-0
  6
Continuous
 62
   179
100
AcDbLine
 10
138.1382280587
 20
172.2362956709
 30
0.0
 11
138.1382280587
 21
171.7362956709
 31
0.0
  0
LINE
  5
6D
330
1F
100
AcDbEntity
  8
SLD-0
  6
Continuous
 62
   179
100
AcDbLine
 10
97.1382280587
 20
162.1362956709
 30
0.0
 11
97.1382280587
 21
161.6362956709
 31
0.0
  0
LINE
  5
6E
330
1F
100
AcDbEntity
  8
SLD-0
  6
Continuous
 62
   179
100
AcDbLine
 10
138.1382280587
 20
162.1362956709
 30
0.0
 11
138.1382280587
 21
161.6362956709
 31
0.0
  0
LINE
  5
6F
330
1F
100
AcDbEntity
  8
SLD-0
  6
Continuous
 62
   179
100
AcDbLine
 10
97.1382280587
 20
169.7605597396
 30
0.0
 11
97.1382280587
 21
169.5484277053
 31
0.0
  0
LINE
  5
70
330
1F
100
AcDbEntity
  8
SLD-0
  6
Continuous
 62
   179
100
AcDbLine
 10
138.1382280587
 20
169.7605597396
 30
0.0
 11
138.1382280587
 21
169.5484277053
 31
0.0
  0
LINE
  5
71
330
1F
100
AcDbEntity
  8
SLD-0
  6
Continuous
 62
   179
100
AcDbLine
 10
97.1382280587
 20
164.3241636365
 30
0.0
 11
97.1382280587
 21
164.1120316022
 31
0.0
  0
LINE
  5
72
330
1F
100
AcDbEntity
  8
SLD-0
  6
Continuous
 62
   179
100
AcDbLine
 10
138.1382280587
 20
164.3241636365
 30
0.0
 11
138.1382280587
 21
164.1120316022
 31
0.0
  0
LINE
  5
73
330
1F
100
AcDbEntity
  8
SLD-0
  6
Continuous
 62
   179
100
AcDbLine
 10
97.1382280587
 20
164.1120316022
 30
0.0
 11
97.1382280587
 21
162.1362956709
 31
0.0
  0
LINE
  5
74
330
1F
100
AcDbEntity
  8
SLD-0
  6
Continuous
 62
   179
100
AcDbLine
 10
138.1382280587
 20
164.1120316022
 30
0.0
 11
138.1382280587
 21
162.1362956709
 31
0.0
  0
LINE
  5
75
330
1F
100
AcDbEntity
  8
SLD-0
  6
Continuous
 62
   179
100
AcDbLine
 10
97.1382280587
 20
169.5484277053
 30
0.0
 11
97.1382280587
 21
169.0241636365
 31
0.0
  0
LINE
  5
76
330
1F
100
AcDbEntity
  8
SLD-0
  6
Continuous
 62
   179
100
AcDbLine
 10
138.1382280587
 20
169.5484277053
 30
0.0
 11
138.1382280587
 21
169.0241636365
 31
0.0
  0
LINE
  5
77
330
1F
100
AcDbEntity
  8
SLD-0
  6
Continuous
 62
   179
100
AcDbLine
 10
97.1382280587
 20
164.8484277053
 30
0.0
 11
97.1382280587
 21
164.3241636365
 31
0.0
  0
LINE
  5
78
330
1F
100
AcDbEntity
  8
SLD-0
  6
Continuous
 62
   179
100
AcDbLine
 10
138.1382280587
 20
164.8484277053
 30
0.0
 11
138.1382280587
 21
164.3241636365
 31
0.0
  0
LINE
  5
79
330
1F
100
AcDbEntity
  8
SLD-0
  6
Continuous
 62
   179
100
AcDbLine
 10
119.013294408
 20
169.0241637225
 30
0.0
 11
119.1862383325
 21
168.8993709213
 31
0.0
  0
LINE
  5
7A
330
1F
100
AcDbEntity
  8
SLD-0
  6
Continuous
 62
   179
100
AcDbLine
 10
119.1862383325
 20
168.8993709213
 30
0.0
 11
119.2909877913
 21
168.8120316067
 31
0.0
  0
LINE
  5
7B
330
1F
100
AcDbEntity
  8
SLD-0
  6
Continuous
 62
   179
100
AcDbLine
 10
130.9854682235
 20
168.8120316067
 30
0.0
 11
131.1691771893
 21
168.9591373834
 31
0.0
  0
LINE
  5
7C
330
1F
100
AcDbEntity
  8
SLD-0
  6
Continuous
 62
   179
100
AcDbLine
 10
131.1691771893
 20
168.9591373834
 30
0.0
 11
131.263161607
 21
169.0241637225
 31
0.0
  0
LINE
  5
7D
330
1F
100
AcDbEntity
  8
SLD-0
  6
Continuous
 62
   179
100
AcDbLine
 10
115.9854691439
 20
168.8120315547
 30
0.0
 11
116.1691775276
 21
168.9591373314
 31
0.0
  0
LINE
  5
7E
330
1F
100
AcDbEntity
  8
SLD-0
  6
Continuous
 62
   179
100
AcDbLine
 10
116.1691775276
 20
168.9591373314
 30
0.0
 11
116.2631625274
 21
169.0241636705
 31
0.0
  0
LINE
  5
7F
330
1F
100
AcDbEntity
  8
SLD-0
  6
Continuous
 62
   179
100
AcDbLine
 10
104.0132945104
 20
169.0241637225
 30
0.0
 11
104.1862383185
 21
168.8993709213
 31
0.0
  0
LINE
  5
80
330
1F
100
AcDbEntity
  8
SLD-0
  6
Continuous
 62
   179
100
AcDbLine
 10
104.1862383185
 20
168.8993709213
 30
0.0
 11
104.2909878938
 21
168.8120316067
 31
0.0
  0
LINE
  5
81
330
1F
100
AcDbEntity
  8
SLD-0
  6
Continuous
 62
   179
100
AcDbLine
 10
134.0132932505
 20
169.0241636257
 30
0.0
 11
134.1862361272
 21
168.8993708246
 31
0.0
  0
LINE
  5
82
330
1F
100
AcDbEntity
  8
SLD-0
  6
Continuous
 62
   179
100
AcDbLine
 10
134.1862361272
 20
168.8993708246
 30
0.0
 11
134.2909857024
 21
168.81203151
 31
0.0
  0
LINE
  5
83
330
1F
100
AcDbEntity
  8
SLD-0
  6
Continuous
 62
   179
100
AcDbLine
 10
138.1382280587
 20
169.0241636365
 30
0.0
 11
138.1382280587
 21
168.8120316022
 31
0.0
  0
LINE
  5
84
330
1F
100
AcDbEntity
  8
SLD-0
  6
Continuous
 62
   179
100
AcDbLine
 10
100.9854704149
 20
168.81203151
 30
0.0
 11
101.169177518
 21
168.9591372867
 31
0.0
  0
LINE
  5
85
330
1F
100
AcDbEntity
  8
SLD-0
  6
Continuous
 62
   179
100
AcDbLine
 10
101.169177518
 20
168.9591372867
 30
0.0
 11
101.2631628669
 21
169.0241636258
 31
0.0
  0
LINE
  5
86
330
1F
100
AcDbEntity
  8
SLD-0
  6
Continuous
 62
   179
100
AcDbLine
 10
97.1382280587
 20
169.0241636365
 30
0.0
 11
97.1382280587
 21
168.8120316022
 31
0.0
  0
LINE
  5
87
330
1F
100
AcDbEntity
  8
SLD-0
  6
Continuous
 62
   179
100
AcDbLine
 10
119.2909886882
 20
165.0605597351
 30
0.0
 11
119.1072802327
 21
164.9134538955
 31
0.0
  0
LINE
  5
88
330
1F
100
AcDbEntity
  8
SLD-0
  6
Continuous
 62
   179
100
AcDbLine
 10
119.1072802327
 20
164.9134538955
 30
0.0
 11
119.0132952331
 21
164.8484275564
 31
0.0
  0
LINE
  5
89
330
1F
100
AcDbEntity
  8
SLD-0
  6
Continuous
 62
   179
100
AcDbLine
 10
131.2631599393
 20
164.8484276193
 30
0.0
 11
131.0902161312
 21
164.9732204205
 31
0.0
  0
LINE
  5
8A
330
1F
100
AcDbEntity
  8
SLD-0
  6
Continuous
 62
   179
100
AcDbLine
 10
131.0902161312
 20
164.9732204205
 30
0.0
 11
130.9854665559
 21
165.0605597351
 31
0.0
  0
LINE
  5
8B
330
1F
100
AcDbEntity
  8
SLD-0
  6
Continuous
 62
   179
100
AcDbLine
 10
116.2631617007
 20
164.8484276094
 30
0.0
 11
116.0902177761
 21
164.9732204106
 31
0.0
  0
LINE
  5
8C
330
1F
100
AcDbEntity
  8
SLD-0
  6
Continuous
 62
   179
100
AcDbLine
 10
116.0902177761
 20
164.9732204106
 30
0.0
 11
115.9854683173
 21
165.0605597252
 31
0.0
  0
LINE
  5
8D
330
1F
100
AcDbEntity
  8
SLD-0
  6
Continuous
 62
   179
100
AcDbLine
 10
104.2909895614
 20
165.0605597351
 30
0.0
 11
104.1072804621
 21
164.9134538414
 31
0.0
  0
LINE
  5
8E
330
1F
100
AcDbEntity
  8
SLD-0
  6
Continuous
 62
   179
100
AcDbLine
 10
104.1072804621
 20
164.9134538414
 30
0.0
 11
104.0132960445
 21
164.8484275022
 31
0.0
  0
LINE
  5
8F
330
1F
100
AcDbEntity
  8
SLD-0
  6
Continuous
 62
   179
100
AcDbLine
 10
101.26316133
 20
164.8484276008
 30
0.0
 11
101.0902184532
 21
164.9732204021
 31
0.0
  0
LINE
  5
90
330
1F
100
AcDbEntity
  8
SLD-0
  6
Continuous
 62
   179
100
AcDbLine
 10
101.0902184532
 20
164.9732204021
 30
0.0
 11
100.9854688779
 21
165.0605597167
 31
0.0
  0
LINE
  5
91
330
1F
100
AcDbEntity
  8
SLD-0
  6
Continuous
 62
   179
100
AcDbLine
 10
97.1382280587
 20
165.0605597396
 30
0.0
 11
97.1382280587
 21
164.8484277053
 31
0.0
  0
LINE
  5
92
330
1F
100
AcDbEntity
  8
SLD-0
  6
Continuous
 62
   179
100
AcDbLine
 10
134.2909872394
 20
165.0605597167
 30
0.0
 11
134.1072799732
 21
164.9134538617
 31
0.0
  0
LINE
  5
93
330
1F
100
AcDbEntity
  8
SLD-0
  6
Continuous
 62
   179
100
AcDbLine
 10
134.1072799732
 20
164.9134538617
 30
0.0
 11
134.0132946244
 21
164.8484275226
 31
0.0
  0
LINE
  5
94
330
1F
100
AcDbEntity
  8
SLD-0
  6
Continuous
 62
   179
100
AcDbLine
 10
138.1382280587
 20
165.0605597396
 30
0.0
 11
138.1382280587
 21
164.8484277053
 31
0.0
  0
LINE
  5
95
330
1F
100
AcDbEntity
  8
SLD-0
  6
Continuous
 62
   179
100
AcDbLine
 10
138.1382280587
 20
168.8120316022
 30
0.0
 11
138.1382280587
 21
165.0605597396
 31
0.0
  0
LINE
  5
96
330
1F
100
AcDbEntity
  8
SLD-0
  6
Continuous
 62
   179
100
AcDbLine
 10
97.1382280587
 20
168.8120316022
 30
0.0
 11
97.1382280587
 21
165.0605597396
 31
0.0
  0
LINE
  5
97
330
1F
100
AcDbEntity
  8
SLD-0
 62
   179
100
AcDbLine
 10
134.97951214
 20
168.8120316067
 30
0.0
 11
134.7924820779
 21
169.0241637225
 31
0.0
  0
LINE
  5
98
330
1F
100
AcDbEntity
  8
SLD-0
 62
   179
100
AcDbLine
 10
134.7924820779
 20
169.0241637225
 30
0.0
 11
134.6371803133
 21
169.1733003645
 31
0.0
  0
LINE
  5
99
330
1F
100
AcDbEntity
  8
SLD-0
 62
   179
100
AcDbLine
 10
134.6371803133
 20
169.1733003645
 30
0.0
 11
134.4715818463
 21
169.3109139851
 31
0.0
  0
LINE
  5
9A
330
1F
100
AcDbEntity
  8
SLD-0
 62
   179
100
AcDbLine
 10
134.4715818463
 20
169.3109139851
 30
0.0
 11
134.2965397684
 21
169.436295615
 31
0.0
  0
LINE
  5
9B
330
1F
100
AcDbEntity
  8
SLD-0
 62
   179
100
AcDbLine
 10
134.97951214
 20
165.0605597351
 30
0.0
 11
135.1916562466
 21
165.3614939241
 31
0.0
  0
LINE
  5
9C
330
1F
100
AcDbEntity
  8
SLD-0
 62
   179
100
AcDbLine
 10
135.1916562466
 20
165.3614939241
 30
0.0
 11
135.3653385936
 21
165.6861491319
 31
0.0
  0
LINE
  5
9D
330
1F
100
AcDbEntity
  8
SLD-0
 62
   179
100
AcDbLine
 10
135.3653385936
 20
165.6861491319
 30
0.0
 11
135.4979421644
 21
166.029635333
 31
0.0
  0
LINE
  5
9E
330
1F
100
AcDbEntity
  8
SLD-0
 62
   179
100
AcDbLine
 10
135.4979421644
 20
166.029635333
 30
0.0
 11
135.5874702035
 21
166.3867784482
 31
0.0
  0
LINE
  5
9F
330
1F
100
AcDbEntity
  8
SLD-0
 62
   179
100
AcDbLine
 10
135.5874702035
 20
166.3867784482
 30
0.0
 11
135.6325741558
 21
166.7521989111
 31
0.0
  0
LINE
  5
A0
330
1F
100
AcDbEntity
  8
SLD-0
 62
   179
100
AcDbLine
 10
135.6325741558
 20
166.7521989111
 30
0.0
 11
135.6325741558
 21
167.1203924307
 31
0.0
  0
LINE
  5
A1
330
1F
100
AcDbEntity
  8
SLD-0
 62
   179
100
AcDbLine
 10
135.6325741558
 20
167.1203924307
 30
0.0
 11
135.5874702035
 21
167.4858128936
 31
0.0
  0
LINE
  5
A2
330
1F
100
AcDbEntity
  8
SLD-0
 62
   179
100
AcDbLine
 10
135.5874702035
 20
167.4858128936
 30
0.0
 11
135.4979421644
 21
167.8429560088
 31
0.0
  0
LINE
  5
A3
330
1F
100
AcDbEntity
  8
SLD-0
 62
   179
100
AcDbLine
 10
135.4979421644
 20
167.8429560088
 30
0.0
 11
135.3653385936
 21
168.1864422098
 31
0.0
  0
LINE
  5
A4
330
1F
100
AcDbEntity
  8
SLD-0
 62
   179
100
AcDbLine
 10
135.3653385936
 20
168.1864422098
 30
0.0
 11
135.1916562466
 21
168.5110974177
 31
0.0
  0
LINE
  5
A5
330
1F
100
AcDbEntity
  8
SLD-0
 62
   179
100
AcDbLine
 10
135.1916562466
 20
168.5110974177
 30
0.0
 11
134.97951214
 21
168.8120316067
 31
0.0
  0
LINE
  5
A6
330
1F
100
AcDbEntity
  8
SLD-0
 62
   179
100
AcDbLine
 10
134.7924820779
 20
164.8484276193
 30
0.0
 11
134.97951214
 21
165.0605597351
 31
0.0
  0
LINE
  5
A7
330
1F
100
AcDbEntity
  8
SLD-0
 62
   179
100
AcDbLine
 10
134.2965397684
 20
164.4362957268
 30
0.0
 11
134.4715818463
 21
164.5616773567
 31
0.0
  0
LINE
  5
A8
330
1F
100
AcDbEntity
  8
SLD-0
 62
   179
100
AcDbLine
 10
134.4715818463
 20
164.5616773567
 30
0.0
 11
134.6371803133
 21
164.6992909773
 31
0.0
  0
LINE
  5
A9
330
1F
100
AcDbEntity
  8
SLD-0
 62
   179
100
AcDbLine
 10
134.6371803133
 20
164.6992909773
 30
0.0
 11
134.7924820779
 21
164.8484276193
 31
0.0
  0
LINE
  5
AA
330
1F
100
AcDbEntity
  8
SLD-0
 62
   179
100
AcDbLine
 10
130.9799156784
 20
169.436295615
 30
0.0
 11
130.8048736005
 21
169.3109139851
 31
0.0
  0
LINE
  5
AB
330
1F
100
AcDbEntity
  8
SLD-0
 62
   179
100
AcDbLine
 10
130.8048736005
 20
169.3109139851
 30
0.0
 11
130.6392760648
 21
169.1733003645
 31
0.0
  0
LINE
  5
AC
330
1F
100
AcDbEntity
  8
SLD-0
 62
   179
100
AcDbLine
 10
130.6392760648
 20
169.1733003645
 30
0.0
 11
130.4839743002
 21
169.0241637225
 31
0.0
  0
LINE
  5
AD
330
1F
100
AcDbEntity
  8
SLD-0
 62
   179
100
AcDbLine
 10
130.4839743002
 20
169.0241637225
 30
0.0
 11
130.2969433068
 21
168.8120316067
 31
0.0
  0
LINE
  5
AE
330
1F
100
AcDbEntity
  8
SLD-0
 62
   179
100
AcDbLine
 10
130.2969433068
 20
168.8120316067
 30
0.0
 11
130.0847992001
 21
168.5110974177
 31
0.0
  0
LINE
  5
AF
330
1F
100
AcDbEntity
  8
SLD-0
 62
   179
100
AcDbLine
 10
130.0847992001
 20
168.5110974177
 30
0.0
 11
129.9111168532
 21
168.1864422098
 31
0.0
  0
LINE
  5
B0
330
1F
100
AcDbEntity
  8
SLD-0
 62
   179
100
AcDbLine
 10
129.9111168532
 20
168.1864422098
 30
0.0
 11
129.7785132824
 21
167.8429560088
 31
0.0
  0
LINE
  5
B1
330
1F
100
AcDbEntity
  8
SLD-0
 62
   179
100
AcDbLine
 10
129.7785132824
 20
167.8429560088
 30
0.0
 11
129.6889852433
 21
167.4858128936
 31
0.0
  0
LINE
  5
B2
330
1F
100
AcDbEntity
  8
SLD-0
 62
   179
100
AcDbLine
 10
129.6889852433
 20
167.4858128936
 30
0.0
 11
129.6438822223
 21
167.1203924307
 31
0.0
  0
LINE
  5
B3
330
1F
100
AcDbEntity
  8
SLD-0
 62
   179
100
AcDbLine
 10
129.6438822223
 20
167.1203924307
 30
0.0
 11
129.6438822223
 21
166.7521989111
 31
0.0
  0
LINE
  5
B4
330
1F
100
AcDbEntity
  8
SLD-0
 62
   179
100
AcDbLine
 10
129.6438822223
 20
166.7521989111
 30
0.0
 11
129.6889852433
 21
166.3867784482
 31
0.0
  0
LINE
  5
B5
330
1F
100
AcDbEntity
  8
SLD-0
 62
   179
100
AcDbLine
 10
129.6889852433
 20
166.3867784482
 30
0.0
 11
129.7785132824
 21
166.029635333
 31
0.0
  0
LINE
  5
B6
330
1F
100
AcDbEntity
  8
SLD-0
 62
   179
100
AcDbLine
 10
129.7785132824
 20
166.029635333
 30
0.0
 11
129.9111168532
 21
165.6861491319
 31
0.0
  0
LINE
  5
B7
330
1F
100
AcDbEntity
  8
SLD-0
 62
   179
100
AcDbLine
 10
129.9111168532
 20
165.6861491319
 30
0.0
 11
130.0847992001
 21
165.3614939241
 31
0.0
  0
LINE
  5
B8
330
1F
100
AcDbEntity
  8
SLD-0
 62
   179
100
AcDbLine
 10
130.0847992001
 20
165.3614939241
 30
0.0
 11
130.2969433068
 21
165.0605597351
 31
0.0
  0
LINE
  5
B9
330
1F
100
AcDbEntity
  8
SLD-0
 62
   179
100
AcDbLine
 10
130.2969433068
 20
165.0605597351
 30
0.0
 11
130.4839743002
 21
164.8484276193
 31
0.0
  0
LINE
  5
BA
330
1F
100
AcDbEntity
  8
SLD-0
 62
   179
100
AcDbLine
 10
130.4839743002
 20
164.8484276193
 30
0.0
 11
130.6392760648
 21
164.6992909773
 31
0.0
  0
LINE
  5
BB
330
1F
100
AcDbEntity
  8
SLD-0
 62
   179
100
AcDbLine
 10
130.6392760648
 20
164.6992909773
 30
0.0
 11
130.8048736005
 21
164.5616773567
 31
0.0
  0
LINE
  5
BC
330
1F
100
AcDbEntity
  8
SLD-0
 62
   179
100
AcDbLine
 10
130.8048736005
 20
164.5616773567
 30
0.0
 11
130.9799156784
 21
164.4362957268
 31
0.0
  0
LINE
  5
BD
330
1F
100
AcDbEntity
  8
SLD-0
  6
HIDDEN
 62
   179
100
AcDbLine
 10
130.9799156784
 20
169.436295615
 30
0.0
 11
131.3184048681
 21
169.6303753233
 31
0.0
  0
LINE
  5
BE
330
1F
100
AcDbEntity
  8
SLD-0
  6
HIDDEN
 62
   179
100
AcDbLine
 10
131.3184048681
 20
169.6303753233
 30
0.0
 11
131.6792187913
 21
169.7788828569
 31
0.0
  0
LINE
  5
BF
330
1F
100
AcDbEntity
  8
SLD-0
  6
HIDDEN
 62
   179
100
AcDbLine
 10
131.6792187913
 20
169.7788828569
 30
0.0
 11
132.0562563537
 21
169.8793057403
 31
0.0
  0
LINE
  5
C0
330
1F
100
AcDbEntity
  8
SLD-0
  6
HIDDEN
 62
   179
100
AcDbLine
 10
132.0562563537
 20
169.8793057403
 30
0.0
 11
132.4431370644
 21
169.929945474
 31
0.0
  0
LINE
  5
C1
330
1F
100
AcDbEntity
  8
SLD-0
  6
HIDDEN
 62
   179
100
AcDbLine
 10
132.4431370644
 20
169.929945474
 30
0.0
 11
132.8333183824
 21
169.929945474
 31
0.0
  0
LINE
  5
C2
330
1F
100
AcDbEntity
  8
SLD-0
  6
HIDDEN
 62
   179
100
AcDbLine
 10
132.8333183824
 20
169.929945474
 30
0.0
 11
133.2202000244
 21
169.8793057403
 31
0.0
  0
LINE
  5
C3
330
1F
100
AcDbEntity
  8
SLD-0
  6
HIDDEN
 62
   179
100
AcDbLine
 10
133.2202000244
 20
169.8793057403
 30
0.0
 11
133.5972375868
 21
169.7788828569
 31
0.0
  0
LINE
  5
C4
330
1F
100
AcDbEntity
  8
SLD-0
  6
HIDDEN
 62
   179
100
AcDbLine
 10
133.5972375868
 20
169.7788828569
 30
0.0
 11
133.9580524413
 21
169.6303753233
 31
0.0
  0
LINE
  5
C5
330
1F
100
AcDbEntity
  8
SLD-0
  6
HIDDEN
 62
   179
100
AcDbLine
 10
133.9580524413
 20
169.6303753233
 30
0.0
 11
134.2965397684
 21
169.436295615
 31
0.0
  0
LINE
  5
C6
330
1F
100
AcDbEntity
  8
SLD-0
  6
HIDDEN
 62
   179
100
AcDbLine
 10
134.2965397684
 20
164.4362957268
 30
0.0
 11
133.9580524413
 21
164.2422160185
 31
0.0
  0
LINE
  5
C7
330
1F
100
AcDbEntity
  8
SLD-0
  6
HIDDEN
 62
   179
100
AcDbLine
 10
133.9580524413
 20
164.2422160185
 30
0.0
 11
133.5972375868
 21
164.0937084849
 31
0.0
  0
LINE
  5
C8
330
1F
100
AcDbEntity
  8
SLD-0
  6
HIDDEN
 62
   179
100
AcDbLine
 10
133.5972375868
 20
164.0937084849
 30
0.0
 11
133.2202000244
 21
163.9932856015
 31
0.0
  0
LINE
  5
C9
330
1F
100
AcDbEntity
  8
SLD-0
  6
HIDDEN
 62
   179
100
AcDbLine
 10
133.2202000244
 20
163.9932856015
 30
0.0
 11
132.8333183824
 21
163.9426458678
 31
0.0
  0
LINE
  5
CA
330
1F
100
AcDbEntity
  8
SLD-0
  6
HIDDEN
 62
   179
100
AcDbLine
 10
132.8333183824
 20
163.9426458678
 30
0.0
 11
132.4431370644
 21
163.9426458678
 31
0.0
  0
LINE
  5
CB
330
1F
100
AcDbEntity
  8
SLD-0
  6
HIDDEN
 62
   179
100
AcDbLine
 10
132.4431370644
 20
163.9426458678
 30
0.0
 11
132.0562563537
 21
163.9932856015
 31
0.0
  0
LINE
  5
CC
330
1F
100
AcDbEntity
  8
SLD-0
  6
HIDDEN
 62
   179
100
AcDbLine
 10
132.0562563537
 20
163.9932856015
 30
0.0
 11
131.6792187913
 21
164.0937084849
 31
0.0
  0
LINE
  5
CD
330
1F
100
AcDbEntity
  8
SLD-0
  6
HIDDEN
 62
   179
100
AcDbLine
 10
131.6792187913
 20
164.0937084849
 30
0.0
 11
131.3184048681
 21
164.2422160185
 31
0.0
  0
LINE
  5
CE
330
1F
100
AcDbEntity
  8
SLD-0
  6
HIDDEN
 62
   179
100
AcDbLine
 10
131.3184048681
 20
164.2422160185
 30
0.0
 11
130.9799156784
 21
164.4362957268
 31
0.0
  0
LINE
  5
CF
330
1F
100
AcDbEntity
  8
SLD-0
  6
HIDDEN
 62
   179
100
AcDbLine
 10
129.941405326
 20
168.2505052122
 30
0.0
 11
130.2588112353
 21
168.7634927039
 31
0.0
  0
LINE
  5
D0
330
1F
100
AcDbEntity
  8
SLD-0
  6
HIDDEN
 62
   179
100
AcDbLine
 10
130.2588112353
 20
168.7634927039
 30
0.0
 11
130.6063519491
 21
169.1303582447
 31
0.0
  0
LINE
  5
D1
330
1F
100
AcDbEntity
  8
SLD-0
  6
HIDDEN
 62
   179
100
AcDbLine
 10
130.9238556473
 20
169.3903842061
 30
0.0
 11
130.9981761201
 21
169.4454828794
 31
0.0
  0
LINE
  5
D2
330
1F
100
AcDbEntity
  8
SLD-0
  6
HIDDEN
 62
   179
100
AcDbLine
 10
134.2870421408
 20
169.4412190518
 30
0.0
 11
134.4702575056
 21
169.2958612512
 31
0.0
  0
LINE
  5
D3
330
1F
100
AcDbEntity
  8
SLD-0
  6
HIDDEN
 62
   179
100
AcDbLine
 10
134.7526512741
 20
169.0577481459
 30
0.0
 11
135.0224889515
 21
168.7489126161
 31
0.0
  0
LINE
  5
D4
330
1F
100
AcDbEntity
  8
SLD-0
  6
HIDDEN
 62
   179
100
AcDbLine
 10
135.2717946915
 20
168.3557384931
 30
0.0
 11
135.3350501208
 21
168.2505052122
 31
0.0
  0
LINE
  5
D5
330
1F
100
AcDbEntity
  8
SLD-0
  6
HIDDEN
 62
   179
100
AcDbLine
 10
135.3350501208
 20
165.6220861296
 30
0.0
 11
135.0176460741
 21
165.1090986379
 31
0.0
  0
LINE
  5
D6
330
1F
100
AcDbEntity
  8
SLD-0
  6
HIDDEN
 62
   179
100
AcDbLine
 10
135.0176460741
 20
165.1090986379
 30
0.0
 11
134.670104429
 21
164.7422330971
 31
0.0
  0
LINE
  5
D7
330
1F
100
AcDbEntity
  8
SLD-0
  6
HIDDEN
 62
   179
100
AcDbLine
 10
134.3525997995
 20
164.4822071357
 30
0.0
 11
134.278280258
 21
164.4271084624
 31
0.0
  0
LINE
  5
D8
330
1F
100
AcDbEntity
  8
SLD-0
  6
HIDDEN
 62
   179
100
AcDbLine
 10
130.9894142373
 20
164.43137229
 30
0.0
 11
130.8061988725
 21
164.5767300906
 31
0.0
  0
LINE
  5
D9
330
1F
100
AcDbEntity
  8
SLD-0
  6
HIDDEN
 62
   179
100
AcDbLine
 10
130.523805104
 20
164.8148431959
 30
0.0
 11
130.2539674266
 21
165.1236787257
 31
0.0
  0
LINE
  5
DA
330
1F
100
AcDbEntity
  8
SLD-0
  6
HIDDEN
 62
   179
100
AcDbLine
 10
130.0046626179
 20
165.5168528487
 30
0.0
 11
129.941405326
 21
165.6220861296
 31
0.0
  0
LINE
  5
DB
330
1F
100
AcDbEntity
  8
SLD-0
 62
   179
100
AcDbLine
 10
115.9799156644
 20
169.436295615
 30
0.0
 11
115.8048738193
 21
169.3109139851
 31
0.0
  0
LINE
  5
DC
330
1F
100
AcDbEntity
  8
SLD-0
 62
   179
100
AcDbLine
 10
115.8048738193
 20
169.3109139851
 30
0.0
 11
115.6392759344
 21
169.1733003645
 31
0.0
  0
LINE
  5
DD
330
1F
100
AcDbEntity
  8
SLD-0
 62
   179
100
AcDbLine
 10
115.6392759344
 20
169.1733003645
 30
0.0
 11
115.4839746355
 21
169.0241637225
 31
0.0
  0
LINE
  5
DE
330
1F
100
AcDbEntity
  8
SLD-0
 62
   179
100
AcDbLine
 10
115.4839746355
 20
169.0241637225
 30
0.0
 11
115.2969431764
 21
168.8120316067
 31
0.0
  0
LINE
  5
DF
330
1F
100
AcDbEntity
  8
SLD-0
 62
   179
100
AcDbLine
 10
115.2969431764
 20
168.8120316067
 30
0.0
 11
115.0847990698
 21
168.5110974177
 31
0.0
  0
LINE
  5
E0
330
1F
100
AcDbEntity
  8
SLD-0
 62
   179
100
AcDbLine
 10
115.0847990698
 20
168.5110974177
 30
0.0
 11
114.9111171885
 21
168.1864422098
 31
0.0
  0
LINE
  5
E1
330
1F
100
AcDbEntity
  8
SLD-0
 62
   179
100
AcDbLine
 10
114.9111171885
 20
168.1864422098
 30
0.0
 11
114.7785136177
 21
167.8429560088
 31
0.0
  0
LINE
  5
E2
330
1F
100
AcDbEntity
  8
SLD-0
 62
   179
100
AcDbLine
 10
114.7785136177
 20
167.8429560088
 30
0.0
 11
114.6889855786
 21
167.4858128936
 31
0.0
  0
LINE
  5
E3
330
1F
100
AcDbEntity
  8
SLD-0
 62
   179
100
AcDbLine
 10
114.6889855786
 20
167.4858128936
 30
0.0
 11
114.6438820919
 21
167.1203924307
 31
0.0
  0
LINE
  5
E4
330
1F
100
AcDbEntity
  8
SLD-0
 62
   179
100
AcDbLine
 10
114.6438820919
 20
167.1203924307
 30
0.0
 11
114.6438820919
 21
166.7521989111
 31
0.0
  0
LINE
  5
E5
330
1F
100
AcDbEntity
  8
SLD-0
 62
   179
100
AcDbLine
 10
114.6438820919
 20
166.7521989111
 30
0.0
 11
114.6889855786
 21
166.3867784482
 31
0.0
  0
LINE
  5
E6
330
1F
100
AcDbEntity
  8
SLD-0
 62
   179
100
AcDbLine
 10
114.6889855786
 20
166.3867784482
 30
0.0
 11
114.7785136177
 21
166.029635333
 31
0.0
  0
LINE
  5
E7
330
1F
100
AcDbEntity
  8
SLD-0
 62
   179
100
AcDbLine
 10
114.7785136177
 20
166.029635333
 30
0.0
 11
114.9111171885
 21
165.6861491319
 31
0.0
  0
LINE
  5
E8
330
1F
100
AcDbEntity
  8
SLD-0
 62
   179
100
AcDbLine
 10
114.9111171885
 20
165.6861491319
 30
0.0
 11
115.0847990698
 21
165.3614939241
 31
0.0
  0
LINE
  5
E9
330
1F
100
AcDbEntity
  8
SLD-0
 62
   179
100
AcDbLine
 10
115.0847990698
 20
165.3614939241
 30
0.0
 11
115.2969431764
 21
165.0605597351
 31
0.0
  0
LINE
  5
EA
330
1F
100
AcDbEntity
  8
SLD-0
 62
   179
100
AcDbLine
 10
115.2969431764
 20
165.0605597351
 30
0.0
 11
115.4839746355
 21
164.8484276193
 31
0.0
  0
LINE
  5
EB
330
1F
100
AcDbEntity
  8
SLD-0
 62
   179
100
AcDbLine
 10
115.4839746355
 20
164.8484276193
 30
0.0
 11
115.6392759344
 21
164.6992909773
 31
0.0
  0
LINE
  5
EC
330
1F
100
AcDbEntity
  8
SLD-0
 62
   179
100
AcDbLine
 10
115.6392759344
 20
164.6992909773
 30
0.0
 11
115.8048738193
 21
164.5616773567
 31
0.0
  0
LINE
  5
ED
330
1F
100
AcDbEntity
  8
SLD-0
 62
   179
100
AcDbLine
 10
115.8048738193
 20
164.5616773567
 30
0.0
 11
115.9799156644
 21
164.4362957268
 31
0.0
  0
LINE
  5
EE
330
1F
100
AcDbEntity
  8
SLD-0
 62
   179
100
AcDbLine
 10
119.7924814819
 20
169.0241637225
 30
0.0
 11
119.6371801829
 21
169.1733003645
 31
0.0
  0
LINE
  5
EF
330
1F
100
AcDbEntity
  8
SLD-0
 62
   179
100
AcDbLine
 10
119.6371801829
 20
169.1733003645
 30
0.0
 11
119.471582298
 21
169.3109139851
 31
0.0
  0
LINE
  5
F0
330
1F
100
AcDbEntity
  8
SLD-0
 62
   179
100
AcDbLine
 10
119.471582298
 20
169.3109139851
 30
0.0
 11
119.296540453
 21
169.436295615
 31
0.0
  0
LINE
  5
F1
330
1F
100
AcDbEntity
  8
SLD-0
 62
   179
100
AcDbLine
 10
119.9795129409
 20
168.8120316067
 30
0.0
 11
119.7924814819
 21
169.0241637225
 31
0.0
  0
LINE
  5
F2
330
1F
100
AcDbEntity
  8
SLD-0
 62
   179
100
AcDbLine
 10
119.9795129409
 20
165.0605597351
 30
0.0
 11
120.1916570476
 21
165.3614939241
 31
0.0
  0
LINE
  5
F3
330
1F
100
AcDbEntity
  8
SLD-0
 62
   179
100
AcDbLine
 10
120.1916570476
 20
165.3614939241
 30
0.0
 11
120.3653389288
 21
165.6861491319
 31
0.0
  0
LINE
  5
F4
330
1F
100
AcDbEntity
  8
SLD-0
 62
   179
100
AcDbLine
 10
120.3653389288
 20
165.6861491319
 30
0.0
 11
120.4979424997
 21
166.029635333
 31
0.0
  0
LINE
  5
F5
330
1F
100
AcDbEntity
  8
SLD-0
 62
   179
100
AcDbLine
 10
120.4979424997
 20
166.029635333
 30
0.0
 11
120.5874705388
 21
166.3867784482
 31
0.0
  0
LINE
  5
F6
330
1F
100
AcDbEntity
  8
SLD-0
 62
   179
100
AcDbLine
 10
120.5874705388
 20
166.3867784482
 30
0.0
 11
120.6325740254
 21
166.7521989111
 31
0.0
  0
LINE
  5
F7
330
1F
100
AcDbEntity
  8
SLD-0
 62
   179
100
AcDbLine
 10
120.6325740254
 20
166.7521989111
 30
0.0
 11
120.6325740254
 21
167.1203924307
 31
0.0
  0
LINE
  5
F8
330
1F
100
AcDbEntity
  8
SLD-0
 62
   179
100
AcDbLine
 10
120.6325740254
 20
167.1203924307
 30
0.0
 11
120.5874705388
 21
167.4858128936
 31
0.0
  0
LINE
  5
F9
330
1F
100
AcDbEntity
  8
SLD-0
 62
   179
100
AcDbLine
 10
120.5874705388
 20
167.4858128936
 30
0.0
 11
120.4979424997
 21
167.8429560088
 31
0.0
  0
LINE
  5
FA
330
1F
100
AcDbEntity
  8
SLD-0
 62
   179
100
AcDbLine
 10
120.4979424997
 20
167.8429560088
 30
0.0
 11
120.3653389288
 21
168.1864422098
 31
0.0
  0
LINE
  5
FB
330
1F
100
AcDbEntity
  8
SLD-0
 62
   179
100
AcDbLine
 10
120.3653389288
 20
168.1864422098
 30
0.0
 11
120.1916570476
 21
168.5110974177
 31
0.0
  0
LINE
  5
FC
330
1F
100
AcDbEntity
  8
SLD-0
 62
   179
100
AcDbLine
 10
120.1916570476
 20
168.5110974177
 30
0.0
 11
119.9795129409
 21
168.8120316067
 31
0.0
  0
LINE
  5
FD
330
1F
100
AcDbEntity
  8
SLD-0
 62
   179
100
AcDbLine
 10
119.7924814819
 20
164.8484276193
 30
0.0
 11
119.9795129409
 21
165.0605597351
 31
0.0
  0
LINE
  5
FE
330
1F
100
AcDbEntity
  8
SLD-0
 62
   179
100
AcDbLine
 10
119.296540453
 20
164.4362957268
 30
0.0
 11
119.471582298
 21
164.5616773567
 31
0.0
  0
LINE
  5
FF
330
1F
100
AcDbEntity
  8
SLD-0
 62
   179
100
AcDbLine
 10
119.471582298
 20
164.5616773567
 30
0.0
 11
119.6371801829
 21
164.6992909773
 31
0.0
  0
LINE
  5
100
330
1F
100
AcDbEntity
  8
SLD-0
 62
   179
100
AcDbLine
 10
119.6371801829
 20
164.6992909773
 30
0.0
 11
119.7924814819
 21
164.8484276193
 31
0.0
  0
LINE
  5
101
330
1F
100
AcDbEntity
  8
SLD-0
  6
HIDDEN
 62
   179
100
AcDbLine
 10
115.9799156644
 20
169.436295615
 30
0.0
 11
116.3184043885
 21
169.6303753233
 31
0.0
  0
LINE
  5
102
330
1F
100
AcDbEntity
  8
SLD-0
  6
HIDDEN
 62
   179
100
AcDbLine
 10
116.3184043885
 20
169.6303753233
 30
0.0
 11
116.6792190101
 21
169.7788828569
 31
0.0
  0
LINE
  5
103
330
1F
100
AcDbEntity
  8
SLD-0
  6
HIDDEN
 62
   179
100
AcDbLine
 10
116.6792190101
 20
169.7788828569
 30
0.0
 11
117.0562559323
 21
169.8793057403
 31
0.0
  0
LINE
  5
104
330
1F
100
AcDbEntity
  8
SLD-0
  6
HIDDEN
 62
   179
100
AcDbLine
 10
117.0562559323
 20
169.8793057403
 30
0.0
 11
117.4431373124
 21
169.929945474
 31
0.0
  0
LINE
  5
105
330
1F
100
AcDbEntity
  8
SLD-0
  6
HIDDEN
 62
   179
100
AcDbLine
 10
117.4431373124
 20
169.929945474
 30
0.0
 11
117.8333188049
 21
169.929945474
 31
0.0
  0
LINE
  5
106
330
1F
100
AcDbEntity
  8
SLD-0
  6
HIDDEN
 62
   179
100
AcDbLine
 10
117.8333188049
 20
169.929945474
 30
0.0
 11
118.2202001851
 21
169.8793057403
 31
0.0
  0
LINE
  5
107
330
1F
100
AcDbEntity
  8
SLD-0
  6
HIDDEN
 62
   179
100
AcDbLine
 10
118.2202001851
 20
169.8793057403
 30
0.0
 11
118.5972371072
 21
169.7788828569
 31
0.0
  0
LINE
  5
108
330
1F
100
AcDbEntity
  8
SLD-0
  6
HIDDEN
 62
   179
100
AcDbLine
 10
118.5972371072
 20
169.7788828569
 30
0.0
 11
118.9580517289
 21
169.6303753233
 31
0.0
  0
LINE
  5
109
330
1F
100
AcDbEntity
  8
SLD-0
  6
HIDDEN
 62
   179
100
AcDbLine
 10
118.9580517289
 20
169.6303753233
 30
0.0
 11
119.296540453
 21
169.436295615
 31
0.0
  0
LINE
  5
10A
330
1F
100
AcDbEntity
  8
SLD-0
  6
HIDDEN
 62
   179
100
AcDbLine
 10
119.296540453
 20
164.4362957268
 30
0.0
 11
118.9580517289
 21
164.2422160185
 31
0.0
  0
LINE
  5
10B
330
1F
100
AcDbEntity
  8
SLD-0
  6
HIDDEN
 62
   179
100
AcDbLine
 10
118.9580517289
 20
164.2422160185
 30
0.0
 11
118.5972371072
 21
164.0937084849
 31
0.0
  0
LINE
  5
10C
330
1F
100
AcDbEntity
  8
SLD-0
  6
HIDDEN
 62
   179
100
AcDbLine
 10
118.5972371072
 20
164.0937084849
 30
0.0
 11
118.2202001851
 21
163.9932856015
 31
0.0
  0
LINE
  5
10D
330
1F
100
AcDbEntity
  8
SLD-0
  6
HIDDEN
 62
   179
100
AcDbLine
 10
118.2202001851
 20
163.9932856015
 30
0.0
 11
117.8333188049
 21
163.9426458678
 31
0.0
  0
LINE
  5
10E
330
1F
100
AcDbEntity
  8
SLD-0
  6
HIDDEN
 62
   179
100
AcDbLine
 10
117.8333188049
 20
163.9426458678
 30
0.0
 11
117.4431373124
 21
163.9426458678
 31
0.0
  0
LINE
  5
10F
330
1F
100
AcDbEntity
  8
SLD-0
  6
HIDDEN
 62
   179
100
AcDbLine
 10
117.4431373124
 20
163.9426458678
 30
0.0
 11
117.0562559323
 21
163.9932856015
 31
0.0
  0
LINE
  5
110
330
1F
100
AcDbEntity
  8
SLD-0
  6
HIDDEN
 62
   179
100
AcDbLine
 10
117.0562559323
 20
163.9932856015
 30
0.0
 11
116.6792190101
 21
164.0937084849
 31
0.0
  0
LINE
  5
111
330
1F
100
AcDbEntity
  8
SLD-0
  6
HIDDEN
 62
   179
100
AcDbLine
 10
116.6792190101
 20
164.0937084849
 30
0.0
 11
116.3184043885
 21
164.2422160185
 31
0.0
  0
LINE
  5
112
330
1F
100
AcDbEntity
  8
SLD-0
  6
HIDDEN
 62
   179
100
AcDbLine
 10
116.3184043885
 20
164.2422160185
 30
0.0
 11
115.9799156644
 21
164.4362957268
 31
0.0
  0
LINE
  5
113
330
1F
100
AcDbEntity
  8
SLD-0
  6
HIDDEN
 62
   179
100
AcDbLine
 10
114.9414051956
 20
168.2505052122
 30
0.0
 11
115.2588108721
 21
168.7634927039
 31
0.0
  0
LINE
  5
114
330
1F
100
AcDbEntity
  8
SLD-0
  6
HIDDEN
 62
   179
100
AcDbLine
 10
115.2588108721
 20
168.7634927039
 30
0.0
 11
115.6063515859
 21
169.1303582447
 31
0.0
  0
LINE
  5
115
330
1F
100
AcDbEntity
  8
SLD-0
  6
HIDDEN
 62
   179
100
AcDbLine
 10
115.9238556333
 20
169.3903842061
 30
0.0
 11
115.9981765718
 21
169.4454828794
 31
0.0
  0
LINE
  5
116
330
1F
100
AcDbEntity
  8
SLD-0
  6
HIDDEN
 62
   179
100
AcDbLine
 10
119.2870421268
 20
169.4412190518
 30
0.0
 11
119.4702576081
 21
169.2958612512
 31
0.0
  0
LINE
  5
117
330
1F
100
AcDbEntity
  8
SLD-0
  6
HIDDEN
 62
   179
100
AcDbLine
 10
119.7526513765
 20
169.0577481459
 30
0.0
 11
120.0224888212
 21
168.7489126161
 31
0.0
  0
LINE
  5
118
330
1F
100
AcDbEntity
  8
SLD-0
  6
HIDDEN
 62
   179
100
AcDbLine
 10
120.2717938627
 20
168.3557384931
 30
0.0
 11
120.3350509217
 21
168.2505052122
 31
0.0
  0
LINE
  5
119
330
1F
100
AcDbEntity
  8
SLD-0
  6
HIDDEN
 62
   179
100
AcDbLine
 10
120.3350509217
 20
165.6220861296
 30
0.0
 11
120.0176452453
 21
165.1090986379
 31
0.0
  0
LINE
  5
11A
330
1F
100
AcDbEntity
  8
SLD-0
  6
HIDDEN
 62
   179
100
AcDbLine
 10
120.0176452453
 20
165.1090986379
 30
0.0
 11
119.6701045314
 21
164.7422330971
 31
0.0
  0
LINE
  5
11B
330
1F
100
AcDbEntity
  8
SLD-0
  6
HIDDEN
 62
   179
100
AcDbLine
 10
119.352600484
 20
164.4822071357
 30
0.0
 11
119.2782795456
 21
164.4271084624
 31
0.0
  0
LINE
  5
11C
330
1F
100
AcDbEntity
  8
SLD-0
  6
HIDDEN
 62
   179
100
AcDbLine
 10
115.9894139905
 20
164.43137229
 30
0.0
 11
115.8061985093
 21
164.5767300906
 31
0.0
  0
LINE
  5
11D
330
1F
100
AcDbEntity
  8
SLD-0
  6
HIDDEN
 62
   179
100
AcDbLine
 10
115.5238047408
 20
164.8148431959
 30
0.0
 11
115.2539672962
 21
165.1236787257
 31
0.0
  0
LINE
  5
11E
330
1F
100
AcDbEntity
  8
SLD-0
  6
HIDDEN
 62
   179
100
AcDbLine
 10
115.0046622547
 20
165.5168528487
 30
0.0
 11
114.9414051956
 21
165.6220861296
 31
0.0
  0
LINE
  5
11F
330
1F
100
AcDbEntity
  8
SLD-0
 62
   179
100
AcDbLine
 10
100.2969439773
 20
168.8120316067
 30
0.0
 11
100.0847998707
 21
168.5110974177
 31
0.0
  0
LINE
  5
120
330
1F
100
AcDbEntity
  8
SLD-0
 62
   179
100
AcDbLine
 10
100.0847998707
 20
168.5110974177
 30
0.0
 11
99.9111175238
 21
168.1864422098
 31
0.0
  0
LINE
  5
121
330
1F
100
AcDbEntity
  8
SLD-0
 62
   179
100
AcDbLine
 10
99.9111175238
 20
168.1864422098
 30
0.0
 11
99.7785139529
 21
167.8429560088
 31
0.0
  0
LINE
  5
122
330
1F
100
AcDbEntity
  8
SLD-0
 62
   179
100
AcDbLine
 10
99.7785139529
 20
167.8429560088
 30
0.0
 11
99.6889859138
 21
167.4858128936
 31
0.0
  0
LINE
  5
123
330
1F
100
AcDbEntity
  8
SLD-0
 62
   179
100
AcDbLine
 10
99.6889859138
 20
167.4858128936
 30
0.0
 11
99.6438819616
 21
167.1203924307
 31
0.0
  0
LINE
  5
124
330
1F
100
AcDbEntity
  8
SLD-0
 62
   179
100
AcDbLine
 10
99.6438819616
 20
167.1203924307
 30
0.0
 11
99.6438819616
 21
166.7521989111
 31
0.0
  0
LINE
  5
125
330
1F
100
AcDbEntity
  8
SLD-0
 62
   179
100
AcDbLine
 10
99.6438819616
 20
166.7521989111
 30
0.0
 11
99.6889859138
 21
166.3867784482
 31
0.0
  0
LINE
  5
126
330
1F
100
AcDbEntity
  8
SLD-0
 62
   179
100
AcDbLine
 10
99.6889859138
 20
166.3867784482
 30
0.0
 11
99.7785139529
 21
166.029635333
 31
0.0
  0
LINE
  5
127
330
1F
100
AcDbEntity
  8
SLD-0
 62
   179
100
AcDbLine
 10
99.7785139529
 20
166.029635333
 30
0.0
 11
99.9111175238
 21
165.6861491319
 31
0.0
  0
LINE
  5
128
330
1F
100
AcDbEntity
  8
SLD-0
 62
   179
100
AcDbLine
 10
99.9111175238
 20
165.6861491319
 30
0.0
 11
100.0847998707
 21
165.3614939241
 31
0.0
  0
LINE
  5
129
330
1F
100
AcDbEntity
  8
SLD-0
 62
   179
100
AcDbLine
 10
100.0847998707
 20
165.3614939241
 30
0.0
 11
100.2969439773
 21
165.0605597351
 31
0.0
  0
LINE
  5
12A
330
1F
100
AcDbEntity
  8
SLD-0
 62
   179
100
AcDbLine
 10
100.4839740394
 20
169.0241637225
 30
0.0
 11
100.2969439773
 21
168.8120316067
 31
0.0
  0
LINE
  5
12B
330
1F
100
AcDbEntity
  8
SLD-0
 62
   179
100
AcDbLine
 10
100.2969439773
 20
165.0605597351
 30
0.0
 11
100.4839740394
 21
164.8484276193
 31
0.0
  0
LINE
  5
12C
330
1F
100
AcDbEntity
  8
SLD-0
 62
   179
100
AcDbLine
 10
100.9799163489
 20
169.436295615
 30
0.0
 11
100.804874271
 21
169.3109139851
 31
0.0
  0
LINE
  5
12D
330
1F
100
AcDbEntity
  8
SLD-0
 62
   179
100
AcDbLine
 10
100.804874271
 20
169.3109139851
 30
0.0
 11
100.639275804
 21
169.1733003645
 31
0.0
  0
LINE
  5
12E
330
1F
100
AcDbEntity
  8
SLD-0
 62
   179
100
AcDbLine
 10
100.639275804
 20
169.1733003645
 30
0.0
 11
100.4839740394
 21
169.0241637225
 31
0.0
  0
LINE
  5
12F
330
1F
100
AcDbEntity
  8
SLD-0
 62
   179
100
AcDbLine
 10
100.4839740394
 20
164.8484276193
 30
0.0
 11
100.639275804
 21
164.6992909773
 31
0.0
  0
LINE
  5
130
330
1F
100
AcDbEntity
  8
SLD-0
 62
   179
100
AcDbLine
 10
100.639275804
 20
164.6992909773
 30
0.0
 11
100.804874271
 21
164.5616773567
 31
0.0
  0
LINE
  5
131
330
1F
100
AcDbEntity
  8
SLD-0
 62
   179
100
AcDbLine
 10
100.804874271
 20
164.5616773567
 30
0.0
 11
100.9799163489
 21
164.4362957268
 31
0.0
  0
LINE
  5
132
330
1F
100
AcDbEntity
  8
SLD-0
 62
   179
100
AcDbLine
 10
104.7924818172
 20
169.0241637225
 30
0.0
 11
104.6371800525
 21
169.1733003645
 31
0.0
  0
LINE
  5
133
330
1F
100
AcDbEntity
  8
SLD-0
 62
   179
100
AcDbLine
 10
104.6371800525
 20
169.1733003645
 30
0.0
 11
104.4715825169
 21
169.3109139851
 31
0.0
  0
LINE
  5
134
330
1F
100
AcDbEntity
  8
SLD-0
 62
   179
100
AcDbLine
 10
104.4715825169
 20
169.3109139851
 30
0.0
 11
104.296540439
 21
169.436295615
 31
0.0
  0
LINE
  5
135
330
1F
100
AcDbEntity
  8
SLD-0
 62
   179
100
AcDbLine
 10
104.9795128106
 20
168.8120316067
 30
0.0
 11
104.7924818172
 21
169.0241637225
 31
0.0
  0
LINE
  5
136
330
1F
100
AcDbEntity
  8
SLD-0
 62
   179
100
AcDbLine
 10
104.9795128106
 20
165.0605597351
 30
0.0
 11
105.1916569172
 21
165.3614939241
 31
0.0
  0
LINE
  5
137
330
1F
100
AcDbEntity
  8
SLD-0
 62
   179
100
AcDbLine
 10
105.1916569172
 20
165.3614939241
 30
0.0
 11
105.3653392641
 21
165.6861491319
 31
0.0
  0
LINE
  5
138
330
1F
100
AcDbEntity
  8
SLD-0
 62
   179
100
AcDbLine
 10
105.3653392641
 20
165.6861491319
 30
0.0
 11
105.4979428349
 21
166.029635333
 31
0.0
  0
LINE
  5
139
330
1F
100
AcDbEntity
  8
SLD-0
 62
   179
100
AcDbLine
 10
105.4979428349
 20
166.029635333
 30
0.0
 11
105.587470874
 21
166.3867784482
 31
0.0
  0
LINE
  5
13A
330
1F
100
AcDbEntity
  8
SLD-0
 62
   179
100
AcDbLine
 10
105.587470874
 20
166.3867784482
 30
0.0
 11
105.632573895
 21
166.7521989111
 31
0.0
  0
LINE
  5
13B
330
1F
100
AcDbEntity
  8
SLD-0
 62
   179
100
AcDbLine
 10
105.632573895
 20
166.7521989111
 30
0.0
 11
105.632573895
 21
167.1203924307
 31
0.0
  0
LINE
  5
13C
330
1F
100
AcDbEntity
  8
SLD-0
 62
   179
100
AcDbLine
 10
105.632573895
 20
167.1203924307
 30
0.0
 11
105.587470874
 21
167.4858128936
 31
0.0
  0
LINE
  5
13D
330
1F
100
AcDbEntity
  8
SLD-0
 62
   179
100
AcDbLine
 10
105.587470874
 20
167.4858128936
 30
0.0
 11
105.4979428349
 21
167.8429560088
 31
0.0
  0
LINE
  5
13E
330
1F
100
AcDbEntity
  8
SLD-0
 62
   179
100
AcDbLine
 10
105.4979428349
 20
167.8429560088
 30
0.0
 11
105.3653392641
 21
168.1864422098
 31
0.0
  0
LINE
  5
13F
330
1F
100
AcDbEntity
  8
SLD-0
 62
   179
100
AcDbLine
 10
105.3653392641
 20
168.1864422098
 30
0.0
 11
105.1916569172
 21
168.5110974177
 31
0.0
  0
LINE
  5
140
330
1F
100
AcDbEntity
  8
SLD-0
 62
   179
100
AcDbLine
 10
105.1916569172
 20
168.5110974177
 30
0.0
 11
104.9795128106
 21
168.8120316067
 31
0.0
  0
LINE
  5
141
330
1F
100
AcDbEntity
  8
SLD-0
 62
   179
100
AcDbLine
 10
104.7924818172
 20
164.8484276193
 30
0.0
 11
104.9795128106
 21
165.0605597351
 31
0.0
  0
LINE
  5
142
330
1F
100
AcDbEntity
  8
SLD-0
 62
   179
100
AcDbLine
 10
104.296540439
 20
164.4362957268
 30
0.0
 11
104.4715825169
 21
164.5616773567
 31
0.0
  0
LINE
  5
143
330
1F
100
AcDbEntity
  8
SLD-0
 62
   179
100
AcDbLine
 10
104.4715825169
 20
164.5616773567
 30
0.0
 11
104.6371800525
 21
164.6992909773
 31
0.0
  0
LINE
  5
144
330
1F
100
AcDbEntity
  8
SLD-0
 62
   179
100
AcDbLine
 10
104.6371800525
 20
164.6992909773
 30
0.0
 11
104.7924818172
 21
164.8484276193
 31
0.0
  0
LINE
  5
145
330
1F
100
AcDbEntity
  8
SLD-0
  6
HIDDEN
 62
   179
100
AcDbLine
 10
100.9799163489
 20
169.436295615
 30
0.0
 11
101.318403676
 21
169.6303753233
 31
0.0
  0
LINE
  5
146
330
1F
100
AcDbEntity
  8
SLD-0
  6
HIDDEN
 62
   179
100
AcDbLine
 10
101.318403676
 20
169.6303753233
 30
0.0
 11
101.6792185305
 21
169.7788828569
 31
0.0
  0
LINE
  5
147
330
1F
100
AcDbEntity
  8
SLD-0
  6
HIDDEN
 62
   179
100
AcDbLine
 10
101.6792185305
 20
169.7788828569
 30
0.0
 11
102.0562560929
 21
169.8793057403
 31
0.0
  0
LINE
  5
148
330
1F
100
AcDbEntity
  8
SLD-0
  6
HIDDEN
 62
   179
100
AcDbLine
 10
102.0562560929
 20
169.8793057403
 30
0.0
 11
102.443137735
 21
169.929945474
 31
0.0
  0
LINE
  5
149
330
1F
100
AcDbEntity
  8
SLD-0
  6
HIDDEN
 62
   179
100
AcDbLine
 10
102.443137735
 20
169.929945474
 30
0.0
 11
102.8333190529
 21
169.929945474
 31
0.0
  0
LINE
  5
14A
330
1F
100
AcDbEntity
  8
SLD-0
  6
HIDDEN
 62
   179
100
AcDbLine
 10
102.8333190529
 20
169.929945474
 30
0.0
 11
103.2201997636
 21
169.8793057403
 31
0.0
  0
LINE
  5
14B
330
1F
100
AcDbEntity
  8
SLD-0
  6
HIDDEN
 62
   179
100
AcDbLine
 10
103.2201997636
 20
169.8793057403
 30
0.0
 11
103.5972373261
 21
169.7788828569
 31
0.0
  0
LINE
  5
14C
330
1F
100
AcDbEntity
  8
SLD-0
  6
HIDDEN
 62
   179
100
AcDbLine
 10
103.5972373261
 20
169.7788828569
 30
0.0
 11
103.9580512492
 21
169.6303753233
 31
0.0
  0
LINE
  5
14D
330
1F
100
AcDbEntity
  8
SLD-0
  6
HIDDEN
 62
   179
100
AcDbLine
 10
103.9580512492
 20
169.6303753233
 30
0.0
 11
104.296540439
 21
169.436295615
 31
0.0
  0
LINE
  5
14E
330
1F
100
AcDbEntity
  8
SLD-0
  6
HIDDEN
 62
   179
100
AcDbLine
 10
104.296540439
 20
164.4362957268
 30
0.0
 11
103.9580512492
 21
164.2422160185
 31
0.0
  0
LINE
  5
14F
330
1F
100
AcDbEntity
  8
SLD-0
  6
HIDDEN
 62
   179
100
AcDbLine
 10
103.9580512492
 20
164.2422160185
 30
0.0
 11
103.5972373261
 21
164.0937084849
 31
0.0
  0
LINE
  5
150
330
1F
100
AcDbEntity
  8
SLD-0
  6
HIDDEN
 62
   179
100
AcDbLine
 10
103.5972373261
 20
164.0937084849
 30
0.0
 11
103.2201997636
 21
163.9932856015
 31
0.0
  0
LINE
  5
151
330
1F
100
AcDbEntity
  8
SLD-0
  6
HIDDEN
 62
   179
100
AcDbLine
 10
103.2201997636
 20
163.9932856015
 30
0.0
 11
102.8333190529
 21
163.9426458678
 31
0.0
  0
LINE
  5
152
330
1F
100
AcDbEntity
  8
SLD-0
  6
HIDDEN
 62
   179
100
AcDbLine
 10
102.8333190529
 20
163.9426458678
 30
0.0
 11
102.443137735
 21
163.9426458678
 31
0.0
  0
LINE
  5
153
330
1F
100
AcDbEntity
  8
SLD-0
  6
HIDDEN
 62
   179
100
AcDbLine
 10
102.443137735
 20
163.9426458678
 30
0.0
 11
102.0562560929
 21
163.9932856015
 31
0.0
  0
LINE
  5
154
330
1F
100
AcDbEntity
  8
SLD-0
  6
HIDDEN
 62
   179
100
AcDbLine
 10
102.0562560929
 20
163.9932856015
 30
0.0
 11
101.6792185305
 21
164.0937084849
 31
0.0
  0
LINE
  5
155
330
1F
100
AcDbEntity
  8
SLD-0
  6
HIDDEN
 62
   179
100
AcDbLine
 10
101.6792185305
 20
164.0937084849
 30
0.0
 11
101.318403676
 21
164.2422160185
 31
0.0
  0
LINE
  5
156
330
1F
100
AcDbEntity
  8
SLD-0
  6
HIDDEN
 62
   179
100
AcDbLine
 10
101.318403676
 20
164.2422160185
 30
0.0
 11
100.9799163489
 21
164.4362957268
 31
0.0
  0
LINE
  5
157
330
1F
100
AcDbEntity
  8
SLD-0
  6
HIDDEN
 62
   179
100
AcDbLine
 10
99.9414059965
 20
168.2505052122
 30
0.0
 11
100.2588100432
 21
168.7634927039
 31
0.0
  0
LINE
  5
158
330
1F
100
AcDbEntity
  8
SLD-0
  6
HIDDEN
 62
   179
100
AcDbLine
 10
100.2588100432
 20
168.7634927039
 30
0.0
 11
100.6063516884
 21
169.1303582447
 31
0.0
  0
LINE
  5
159
330
1F
100
AcDbEntity
  8
SLD-0
  6
HIDDEN
 62
   179
100
AcDbLine
 10
100.9238563178
 20
169.3903842061
 30
0.0
 11
100.9981758593
 21
169.4454828794
 31
0.0
  0
LINE
  5
15A
330
1F
100
AcDbEntity
  8
SLD-0
  6
HIDDEN
 62
   179
100
AcDbLine
 10
104.28704188
 20
169.4412190518
 30
0.0
 11
104.4702572449
 21
169.2958612512
 31
0.0
  0
LINE
  5
15B
330
1F
100
AcDbEntity
  8
SLD-0
  6
HIDDEN
 62
   179
100
AcDbLine
 10
104.7526510133
 20
169.0577481459
 30
0.0
 11
105.0224886908
 21
168.7489126161
 31
0.0
  0
LINE
  5
15C
330
1F
100
AcDbEntity
  8
SLD-0
  6
HIDDEN
 62
   179
100
AcDbLine
 10
105.2717934994
 20
168.3557384931
 30
0.0
 11
105.3350507914
 21
168.2505052122
 31
0.0
  0
LINE
  5
15D
330
1F
100
AcDbEntity
  8
SLD-0
  6
HIDDEN
 62
   179
100
AcDbLine
 10
105.3350507914
 20
165.6220861296
 30
0.0
 11
105.0176448821
 21
165.1090986379
 31
0.0
  0
LINE
  5
15E
330
1F
100
AcDbEntity
  8
SLD-0
  6
HIDDEN
 62
   179
100
AcDbLine
 10
105.0176448821
 20
165.1090986379
 30
0.0
 11
104.6701041682
 21
164.7422330971
 31
0.0
  0
LINE
  5
15F
330
1F
100
AcDbEntity
  8
SLD-0
  6
HIDDEN
 62
   179
100
AcDbLine
 10
104.35260047
 20
164.4822071357
 30
0.0
 11
104.2782799973
 21
164.4271084624
 31
0.0
  0
LINE
  5
160
330
1F
100
AcDbEntity
  8
SLD-0
  6
HIDDEN
 62
   179
100
AcDbLine
 10
100.9894139765
 20
164.43137229
 30
0.0
 11
100.8061986117
 21
164.5767300906
 31
0.0
  0
LINE
  5
161
330
1F
100
AcDbEntity
  8
SLD-0
  6
HIDDEN
 62
   179
100
AcDbLine
 10
100.5238048433
 20
164.8148431959
 30
0.0
 11
100.2539671658
 21
165.1236787257
 31
0.0
  0
LINE
  5
162
330
1F
100
AcDbEntity
  8
SLD-0
  6
HIDDEN
 62
   179
100
AcDbLine
 10
100.0046614258
 20
165.5168528487
 30
0.0
 11
99.9414059965
 21
165.6220861296
 31
0.0
  0
LINE
  5
163
330
1F
100
AcDbEntity
  8
SLD-0
  6
Continuous
 62
   179
100
AcDbLine
 10
105.1382278724
 20
127.4774550765
 30
0.0
 11
115.1382281145
 21
127.4774550765
 31
0.0
  0
LINE
  5
164
330
1F
100
AcDbEntity
  8
SLD-0
  6
Continuous
 62
   179
100
AcDbLine
 10
97.1382280587
 20
127.4774551726
 30
0.0
 11
100.1382279842
 21
127.4774550765
 31
0.0
  0
LINE
  5
165
330
1F
100
AcDbEntity
  8
SLD-0
  6
Continuous
 62
   179
100
AcDbLine
 10
120.1382280028
 20
127.4774550765
 30
0.0
 11
130.1382282449
 21
127.4774550765
 31
0.0
  0
LINE
  5
166
330
1F
100
AcDbEntity
  8
SLD-0
  6
Continuous
 62
   179
100
AcDbLine
 10
135.1382281332
 20
127.4774550765
 30
0.0
 11
138.1382280587
 21
127.4774551726
 31
0.0
  0
LINE
  5
167
330
1F
100
AcDbEntity
  8
SLD-0
  6
Continuous
 62
   179
100
AcDbLine
 10
138.1382280587
 20
133.8774551726
 30
0.0
 11
97.1382280587
 21
133.8774551726
 31
0.0
  0
LINE
  5
168
330
1F
100
AcDbEntity
  8
SLD-0
  6
Continuous
 62
   179
100
AcDbLine
 10
138.1382280587
 20
133.8774551726
 30
0.0
 11
138.1382280587
 21
133.1628361493
 31
0.0
  0
LINE
  5
169
330
1F
100
AcDbEntity
  8
SLD-0
  6
Continuous
 62
   179
100
AcDbLine
 10
97.1382280587
 20
133.8774551726
 30
0.0
 11
97.1382280587
 21
133.1628361493
 31
0.0
  0
LINE
  5
16A
330
1F
100
AcDbEntity
  8
SLD-0
  6
Continuous
 62
   179
100
AcDbLine
 10
138.1382280587
 20
133.1628361493
 30
0.0
 11
138.1382280587
 21
127.9698566406
 31
0.0
  0
LINE
  5
16B
330
1F
100
AcDbEntity
  8
SLD-0
  6
Continuous
 62
   179
100
AcDbLine
 10
97.1382280587
 20
133.1628361493
 30
0.0
 11
97.1382280587
 21
127.9698566406
 31
0.0
  0
LINE
  5
16C
330
1F
100
AcDbEntity
  8
SLD-0
  6
Continuous
 62
   179
100
AcDbLine
 10
97.1382280587
 20
127.9698566406
 30
0.0
 11
97.1382280587
 21
127.4774551726
 31
0.0
  0
LINE
  5
16D
330
1F
100
AcDbEntity
  8
SLD-0
  6
Continuous
 62
   179
100
AcDbLine
 10
138.1382280587
 20
127.9698566406
 30
0.0
 11
138.1382280587
 21
127.4774551726
 31
0.0
  0
LINE
  5
16E
330
1F
100
AcDbEntity
  8
SLD-0
  6
HIDDEN
 62
     8
100
AcDbLine
 10
138.1382280587
 20
133.8774551726
 30
0.0
 11
97.1382280587
 21
133.8774551726
 31
0.0
  0
LINE
  5
16F
330
1F
100
AcDbEntity
  8
SLD-0
  6
HIDDEN
 62
     8
100
AcDbLine
 10
138.1382280587
 20
133.789587207
 30
0.0
 11
138.1382280587
 21
133.8774551726
 31
0.0
  0
LINE
  5
170
330
1F
100
AcDbEntity
  8
SLD-0
  6
HIDDEN
 62
     8
100
AcDbLine
 10
97.1382280587
 20
133.789587207
 30
0.0
 11
97.1382280587
 21
133.8774551726
 31
0.0
  0
LINE
  5
171
330
1F
100
AcDbEntity
  8
SLD-0
  6
HIDDEN
 62
     8
100
AcDbLine
 10
138.1382280587
 20
133.2653231383
 30
0.0
 11
138.1382280587
 21
133.789587207
 31
0.0
  0
LINE
  5
172
330
1F
100
AcDbEntity
  8
SLD-0
  6
HIDDEN
 62
     8
100
AcDbLine
 10
97.1382280587
 20
133.2653231383
 30
0.0
 11
97.1382280587
 21
133.789587207
 31
0.0
  0
LINE
  5
173
330
1F
100
AcDbEntity
  8
SLD-0
  6
HIDDEN
 62
     8
100
AcDbLine
 10
119.2909877859
 20
133.1774551726
 30
0.0
 11
120.1382280028
 21
133.1774551726
 31
0.0
  0
LINE
  5
174
330
1F
100
AcDbEntity
  8
SLD-0
  6
HIDDEN
 62
     8
100
AcDbLine
 10
119.2909877859
 20
133.1774551726
 30
0.0
 11
119.1072794076
 21
133.2159978737
 31
0.0
  0
LINE
  5
175
330
1F
100
AcDbEntity
  8
SLD-0
  6
HIDDEN
 62
     8
100
AcDbLine
 10
119.1072794076
 20
133.2159978737
 30
0.0
 11
119.013294408
 21
133.2653231365
 31
0.0
  0
LINE
  5
176
330
1F
100
AcDbEntity
  8
SLD-0
  6
HIDDEN
 62
     8
100
AcDbLine
 10
116.2631617094
 20
133.2653231365
 30
0.0
 11
116.0902177848
 21
133.1904502021
 31
0.0
  0
LINE
  5
177
330
1F
100
AcDbEntity
  8
SLD-0
  6
HIDDEN
 62
     8
100
AcDbLine
 10
116.0902177848
 20
133.1904502021
 30
0.0
 11
115.985468326
 21
133.1774551726
 31
0.0
  0
LINE
  5
178
330
1F
100
AcDbEntity
  8
SLD-0
  6
HIDDEN
 62
     8
100
AcDbLine
 10
115.985468326
 20
133.1774551726
 30
0.0
 11
115.1382281145
 21
133.1774551726
 31
0.0
  0
LINE
  5
179
330
1F
100
AcDbEntity
  8
SLD-0
  6
HIDDEN
 62
     8
100
AcDbLine
 10
115.985468326
 20
133.1774551726
 30
0.0
 11
116.1691767097
 21
133.2159978737
 31
0.0
  0
LINE
  5
17A
330
1F
100
AcDbEntity
  8
SLD-0
  6
HIDDEN
 62
     8
100
AcDbLine
 10
116.1691767097
 20
133.2159978737
 30
0.0
 11
116.2631617094
 21
133.2653231365
 31
0.0
  0
LINE
  5
17B
330
1F
100
AcDbEntity
  8
SLD-0
  6
HIDDEN
 62
     8
100
AcDbLine
 10
119.013294408
 20
133.2653231365
 30
0.0
 11
119.1862383325
 21
133.1904502021
 31
0.0
  0
LINE
  5
17C
330
1F
100
AcDbEntity
  8
SLD-0
  6
HIDDEN
 62
     8
100
AcDbLine
 10
119.1862383325
 20
133.1904502021
 30
0.0
 11
119.2909877859
 21
133.1774551726
 31
0.0
  0
LINE
  5
17D
330
1F
100
AcDbEntity
  8
SLD-0
  6
HIDDEN
 62
     8
100
AcDbLine
 10
104.2909877859
 20
133.1774551726
 30
0.0
 11
105.1382278724
 21
133.1774551726
 31
0.0
  0
LINE
  5
17E
330
1F
100
AcDbEntity
  8
SLD-0
  6
HIDDEN
 62
     8
100
AcDbLine
 10
104.2909877859
 20
133.1774551726
 30
0.0
 11
104.107278928
 21
133.2159978737
 31
0.0
  0
LINE
  5
17F
330
1F
100
AcDbEntity
  8
SLD-0
  6
HIDDEN
 62
     8
100
AcDbLine
 10
104.107278928
 20
133.2159978737
 30
0.0
 11
104.0132945104
 21
133.2653231365
 31
0.0
  0
LINE
  5
180
330
1F
100
AcDbEntity
  8
SLD-0
  6
HIDDEN
 62
     8
100
AcDbLine
 10
101.2631613462
 20
133.2653231365
 30
0.0
 11
101.0902184694
 21
133.1904502021
 31
0.0
  0
LINE
  5
181
330
1F
100
AcDbEntity
  8
SLD-0
  6
HIDDEN
 62
     8
100
AcDbLine
 10
101.0902184694
 20
133.1904502021
 30
0.0
 11
100.9854688941
 21
133.1774551726
 31
0.0
  0
LINE
  5
182
330
1F
100
AcDbEntity
  8
SLD-0
  6
HIDDEN
 62
     8
100
AcDbLine
 10
100.9854688941
 20
133.1774551726
 30
0.0
 11
100.1382279842
 21
133.1774551726
 31
0.0
  0
LINE
  5
183
330
1F
100
AcDbEntity
  8
SLD-0
  6
HIDDEN
 62
     8
100
AcDbLine
 10
100.9854688941
 20
133.1774551726
 30
0.0
 11
101.1691759972
 21
133.2159978737
 31
0.0
  0
LINE
  5
184
330
1F
100
AcDbEntity
  8
SLD-0
  6
HIDDEN
 62
     8
100
AcDbLine
 10
101.1691759972
 20
133.2159978737
 30
0.0
 11
101.2631613462
 21
133.2653231365
 31
0.0
  0
LINE
  5
185
330
1F
100
AcDbEntity
  8
SLD-0
  6
HIDDEN
 62
     8
100
AcDbLine
 10
104.0132945104
 20
133.2653231365
 30
0.0
 11
104.1862383185
 21
133.1904502021
 31
0.0
  0
LINE
  5
186
330
1F
100
AcDbEntity
  8
SLD-0
  6
HIDDEN
 62
     8
100
AcDbLine
 10
104.1862383185
 20
133.1904502021
 30
0.0
 11
104.2909877859
 21
133.1774551726
 31
0.0
  0
LINE
  5
187
330
1F
100
AcDbEntity
  8
SLD-0
  6
HIDDEN
 62
     8
100
AcDbLine
 10
134.2909877859
 20
133.1774551726
 30
0.0
 11
135.1382281332
 21
133.1774551726
 31
0.0
  0
LINE
  5
188
330
1F
100
AcDbEntity
  8
SLD-0
  6
HIDDEN
 62
     8
100
AcDbLine
 10
134.2909877859
 20
133.1774551726
 30
0.0
 11
134.1072801201
 21
133.2159978737
 31
0.0
  0
LINE
  5
189
330
1F
100
AcDbEntity
  8
SLD-0
  6
HIDDEN
 62
     8
100
AcDbLine
 10
134.1072801201
 20
133.2159978737
 30
0.0
 11
134.0132947712
 21
133.2653231365
 31
0.0
  0
LINE
  5
18A
330
1F
100
AcDbEntity
  8
SLD-0
  6
HIDDEN
 62
     8
100
AcDbLine
 10
131.2631616069
 20
133.2653231365
 30
0.0
 11
131.0902177988
 21
133.1904502021
 31
0.0
  0
LINE
  5
18B
330
1F
100
AcDbEntity
  8
SLD-0
  6
HIDDEN
 62
     8
100
AcDbLine
 10
131.0902177988
 20
133.1904502021
 30
0.0
 11
130.9854682235
 21
133.1774551726
 31
0.0
  0
LINE
  5
18C
330
1F
100
AcDbEntity
  8
SLD-0
  6
HIDDEN
 62
     8
100
AcDbLine
 10
130.9854682235
 20
133.1774551726
 30
0.0
 11
130.1382282449
 21
133.1774551726
 31
0.0
  0
LINE
  5
18D
330
1F
100
AcDbEntity
  8
SLD-0
  6
HIDDEN
 62
     8
100
AcDbLine
 10
130.9854682235
 20
133.1774551726
 30
0.0
 11
131.1691771893
 21
133.2159978737
 31
0.0
  0
LINE
  5
18E
330
1F
100
AcDbEntity
  8
SLD-0
  6
HIDDEN
 62
     8
100
AcDbLine
 10
131.1691771893
 20
133.2159978737
 30
0.0
 11
131.2631616069
 21
133.2653231365
 31
0.0
  0
LINE
  5
18F
330
1F
100
AcDbEntity
  8
SLD-0
  6
HIDDEN
 62
     8
100
AcDbLine
 10
134.0132947712
 20
133.2653231365
 30
0.0
 11
134.186237648
 21
133.1904502021
 31
0.0
  0
LINE
  5
190
330
1F
100
AcDbEntity
  8
SLD-0
  6
HIDDEN
 62
     8
100
AcDbLine
 10
134.186237648
 20
133.1904502021
 30
0.0
 11
134.2909877859
 21
133.1774551726
 31
0.0
  0
LINE
  5
191
330
1F
100
AcDbEntity
  8
SLD-0
  6
HIDDEN
 62
     8
100
AcDbLine
 10
100.9854688941
 20
133.1774551726
 30
0.0
 11
97.1382280587
 21
133.1774551726
 31
0.0
  0
LINE
  5
192
330
1F
100
AcDbEntity
  8
SLD-0
  6
HIDDEN
 62
     8
100
AcDbLine
 10
97.1382280587
 20
133.1774551726
 30
0.0
 11
97.1382280587
 21
133.2653231383
 31
0.0
  0
LINE
  5
193
330
1F
100
AcDbEntity
  8
SLD-0
  6
HIDDEN
 62
     8
100
AcDbLine
 10
138.1382280587
 20
133.1774551726
 30
0.0
 11
134.2909877859
 21
133.1774551726
 31
0.0
  0
LINE
  5
194
330
1F
100
AcDbEntity
  8
SLD-0
  6
HIDDEN
 62
     8
100
AcDbLine
 10
138.1382280587
 20
133.1774551726
 30
0.0
 11
138.1382280587
 21
133.2653231383
 31
0.0
  0
LINE
  5
195
330
1F
100
AcDbEntity
  8
SLD-0
  6
HIDDEN
 62
     8
100
AcDbLine
 10
130.9854682235
 20
133.1774551726
 30
0.0
 11
119.2909877859
 21
133.1774551726
 31
0.0
  0
LINE
  5
196
330
1F
100
AcDbEntity
  8
SLD-0
  6
HIDDEN
 62
     8
100
AcDbLine
 10
115.985468326
 20
133.1774551726
 30
0.0
 11
104.2909877859
 21
133.1774551726
 31
0.0
  0
LINE
  5
197
330
1F
100
AcDbEntity
  8
SLD-0
  6
HIDDEN
 62
     8
100
AcDbLine
 10
97.1382280587
 20
127.4774551726
 30
0.0
 11
97.1382280587
 21
127.9698566406
 31
0.0
  0
LINE
  5
198
330
1F
100
AcDbEntity
  8
SLD-0
  6
HIDDEN
 62
     8
100
AcDbLine
 10
138.1382280587
 20
127.4774551726
 30
0.0
 11
138.1382280587
 21
127.9698566406
 31
0.0
  0
LINE
  5
199
330
1F
100
AcDbEntity
  8
SLD-0
  6
HIDDEN
 62
     8
100
AcDbLine
 10
138.1382280587
 20
127.9698566406
 30
0.0
 11
138.1382280587
 21
133.1628361493
 31
0.0
  0
LINE
  5
19A
330
1F
100
AcDbEntity
  8
SLD-0
  6
HIDDEN
 62
     8
100
AcDbLine
 10
97.1382280587
 20
127.9698566406
 30
0.0
 11
97.1382280587
 21
133.1628361493
 31
0.0
  0
LINE
  5
19B
330
1F
100
AcDbEntity
  8
SLD-0
  6
HIDDEN
 62
     8
100
AcDbLine
 10
100.9854688941
 20
133.1774551726
 30
0.0
 11
97.1382280587
 21
133.1774551726
 31
0.0
  0
LINE
  5
19C
330
1F
100
AcDbEntity
  8
SLD-0
  6
HIDDEN
 62
     8
100
AcDbLine
 10
97.1382280587
 20
133.2653231383
 30
0.0
 11
97.1382280587
 21
133.1774551726
 31
0.0
  0
LINE
  5
19D
330
1F
100
AcDbEntity
  8
SLD-0
  6
HIDDEN
 62
     8
100
AcDbLine
 10
138.1382280587
 20
133.1774551726
 30
0.0
 11
134.2909877859
 21
133.1774551726
 31
0.0
  0
LINE
  5
19E
330
1F
100
AcDbEntity
  8
SLD-0
  6
HIDDEN
 62
     8
100
AcDbLine
 10
138.1382280587
 20
133.2653231383
 30
0.0
 11
138.1382280587
 21
133.1774551726
 31
0.0
  0
LINE
  5
19F
330
1F
100
AcDbEntity
  8
SLD-0
  6
HIDDEN
 62
     8
100
AcDbLine
 10
130.9854682235
 20
133.1774551726
 30
0.0
 11
119.2909877859
 21
133.1774551726
 31
0.0
  0
LINE
  5
1A0
330
1F
100
AcDbEntity
  8
SLD-0
  6
HIDDEN
 62
     8
100
AcDbLine
 10
115.985468326
 20
133.1774551726
 30
0.0
 11
104.2909877859
 21
133.1774551726
 31
0.0
  0
LINE
  5
1A1
330
1F
100
AcDbEntity
  8
SLD-0
  6
HIDDEN
 62
     8
100
AcDbLine
 10
138.1382280587
 20
133.789587207
 30
0.0
 11
138.1382280587
 21
133.2653231383
 31
0.0
  0
LINE
  5
1A2
330
1F
100
AcDbEntity
  8
SLD-0
  6
HIDDEN
 62
     8
100
AcDbLine
 10
97.1382280587
 20
133.789587207
 30
0.0
 11
97.1382280587
 21
133.2653231383
 31
0.0
  0
LINE
  5
1A3
330
1F
100
AcDbEntity
  8
SLD-0
  6
HIDDEN
 62
     8
100
AcDbLine
 10
138.1382280587
 20
133.8774551726
 30
0.0
 11
97.1382280587
 21
133.8774551726
 31
0.0
  0
LINE
  5
1A4
330
1F
100
AcDbEntity
  8
SLD-0
  6
HIDDEN
 62
     8
100
AcDbLine
 10
138.1382280587
 20
133.8774551726
 30
0.0
 11
138.1382280587
 21
133.789587207
 31
0.0
  0
LINE
  5
1A5
330
1F
100
AcDbEntity
  8
SLD-0
  6
HIDDEN
 62
     8
100
AcDbLine
 10
97.1382280587
 20
133.8774551726
 30
0.0
 11
97.1382280587
 21
133.789587207
 31
0.0
  0
LINE
  5
1A6
330
1F
100
AcDbEntity
  8
SLD-0
  6
HIDDEN
 62
     8
100
AcDbLine
 10
138.1382280587
 20
133.8774551726
 30
0.0
 11
97.1382280587
 21
133.8774551726
 31
0.0
  0
LINE
  5
1A7
330
1F
100
AcDbEntity
  8
SLD-0
  6
HIDDEN
 62
     8
100
AcDbLine
 10
138.1382280587
 20
133.1628361493
 30
0.0
 11
138.1382280587
 21
133.8774551726
 31
0.0
  0
LINE
  5
1A8
330
1F
100
AcDbEntity
  8
SLD-0
  6
HIDDEN
 62
     8
100
AcDbLine
 10
97.1382280587
 20
133.1628361493
 30
0.0
 11
97.1382280587
 21
133.8774551726
 31
0.0
  0
LINE
  5
1A9
330
1F
100
AcDbEntity
  8
SLD-0
 62
   179
100
AcDbLine
 10
135.6344666033
 20
127.483070486
 30
0.0
 11
135.6340661345
 21
127.4836371957
 31
0.0
  0
LINE
  5
1AA
330
1F
100
AcDbEntity
  8
SLD-0
 62
   179
100
AcDbLine
 10
135.6340661345
 20
127.4836371957
 30
0.0
 11
135.3350501208
 21
127.9698564976
 31
0.0
  0
LINE
  5
1AB
330
1F
100
AcDbEntity
  8
SLD-0
 62
   179
100
AcDbLine
 10
129.941405326
 20
127.9698564976
 30
0.0
 11
129.8329015894
 21
127.78332609
 31
0.0
  0
LINE
  5
1AC
330
1F
100
AcDbEntity
  8
SLD-0
 62
   179
100
AcDbLine
 10
129.8329015894
 20
127.78332609
 30
0.0
 11
129.6419897749
 21
127.483070486
 31
0.0
  0
LINE
  5
1AD
330
1F
100
AcDbEntity
  8
SLD-0
 62
   179
100
AcDbLine
 10
135.3350501208
 20
127.9698564976
 30
0.0
 11
135.0176460741
 21
128.4372859008
 31
0.0
  0
LINE
  5
1AE
330
1F
100
AcDbEntity
  8
SLD-0
 62
   179
100
AcDbLine
 10
135.0176460741
 20
128.4372859008
 30
0.0
 11
134.5916907935
 21
128.8819020919
 31
0.0
  0
LINE
  5
1AF
330
1F
100
AcDbEntity
  8
SLD-0
 62
   179
100
AcDbLine
 10
134.5916907935
 20
128.8819020919
 30
0.0
 11
134.2494632749
 21
129.1492382369
 31
0.0
  0
LINE
  5
1B0
330
1F
100
AcDbEntity
  8
SLD-0
 62
   179
100
AcDbLine
 10
134.2494632749
 20
129.1492382369
 30
0.0
 11
133.8568214028
 21
129.3809140406
 31
0.0
  0
LINE
  5
1B1
330
1F
100
AcDbEntity
  8
SLD-0
 62
   179
100
AcDbLine
 10
133.8568214028
 20
129.3809140406
 30
0.0
 11
133.5213254838
 21
129.5233917262
 31
0.0
  0
LINE
  5
1B2
330
1F
100
AcDbEntity
  8
SLD-0
 62
   179
100
AcDbLine
 10
133.5213254838
 20
129.5233917262
 30
0.0
 11
133.1602098121
 21
129.6245212506
 31
0.0
  0
LINE
  5
1B3
330
1F
100
AcDbEntity
  8
SLD-0
 62
   179
100
AcDbLine
 10
133.1602098121
 20
129.6245212506
 30
0.0
 11
132.7769575341
 21
129.6739134777
 31
0.0
  0
LINE
  5
1B4
330
1F
100
AcDbEntity
  8
SLD-0
 62
   179
100
AcDbLine
 10
132.7769575341
 20
129.6739134777
 30
0.0
 11
132.3885289653
 21
129.6659504368
 31
0.0
  0
LINE
  5
1B5
330
1F
100
AcDbEntity
  8
SLD-0
 62
   179
100
AcDbLine
 10
132.3885289653
 20
129.6659504368
 30
0.0
 11
132.0631853937
 21
129.6128198809
 31
0.0
  0
LINE
  5
1B6
330
1F
100
AcDbEntity
  8
SLD-0
 62
   179
100
AcDbLine
 10
132.0631853937
 20
129.6128198809
 30
0.0
 11
131.752277322
 21
129.5225651774
 31
0.0
  0
LINE
  5
1B7
330
1F
100
AcDbEntity
  8
SLD-0
 62
   179
100
AcDbLine
 10
131.752277322
 20
129.5225651774
 30
0.0
 11
131.3547460063
 21
129.3475303172
 31
0.0
  0
LINE
  5
1B8
330
1F
100
AcDbEntity
  8
SLD-0
 62
   179
100
AcDbLine
 10
131.3547460063
 20
129.3475303172
 30
0.0
 11
130.9991847424
 21
129.1299230724
 31
0.0
  0
LINE
  5
1B9
330
1F
100
AcDbEntity
  8
SLD-0
 62
   179
100
AcDbLine
 10
130.9991847424
 20
129.1299230724
 30
0.0
 11
130.5638733952
 21
128.7704549103
 31
0.0
  0
LINE
  5
1BA
330
1F
100
AcDbEntity
  8
SLD-0
 62
   179
100
AcDbLine
 10
130.5638733952
 20
128.7704549103
 30
0.0
 11
130.2124201952
 21
128.3782186291
 31
0.0
  0
LINE
  5
1BB
330
1F
100
AcDbEntity
  8
SLD-0
 62
   179
100
AcDbLine
 10
130.2124201952
 20
128.3782186291
 30
0.0
 11
129.941405326
 21
127.9698564976
 31
0.0
  0
LINE
  5
1BC
330
1F
100
AcDbEntity
  8
SLD-0
 62
   179
100
AcDbLine
 10
120.6344667057
 20
127.483070486
 30
0.0
 11
120.6340669355
 21
127.4836371957
 31
0.0
  0
LINE
  5
1BD
330
1F
100
AcDbEntity
  8
SLD-0
 62
   179
100
AcDbLine
 10
120.6340669355
 20
127.4836371957
 30
0.0
 11
120.3350509217
 21
127.9698564976
 31
0.0
  0
LINE
  5
1BE
330
1F
100
AcDbEntity
  8
SLD-0
 62
   179
100
AcDbLine
 10
114.9414051956
 20
127.9698564976
 30
0.0
 11
114.832901459
 21
127.78332609
 31
0.0
  0
LINE
  5
1BF
330
1F
100
AcDbEntity
  8
SLD-0
 62
   179
100
AcDbLine
 10
114.832901459
 20
127.78332609
 30
0.0
 11
114.6419894116
 21
127.483070486
 31
0.0
  0
LINE
  5
1C0
330
1F
100
AcDbEntity
  8
SLD-0
 62
   179
100
AcDbLine
 10
120.3350509217
 20
127.9698564976
 30
0.0
 11
120.0176452453
 21
128.4372859008
 31
0.0
  0
LINE
  5
1C1
330
1F
100
AcDbEntity
  8
SLD-0
 62
   179
100
AcDbLine
 10
120.0176452453
 20
128.4372859008
 30
0.0
 11
119.5916906631
 21
128.8819020919
 31
0.0
  0
LINE
  5
1C2
330
1F
100
AcDbEntity
  8
SLD-0
 62
   179
100
AcDbLine
 10
119.5916906631
 20
128.8819020919
 30
0.0
 11
119.2494633774
 21
129.1492382369
 31
0.0
  0
LINE
  5
1C3
330
1F
100
AcDbEntity
  8
SLD-0
 62
   179
100
AcDbLine
 10
119.2494633774
 20
129.1492382369
 30
0.0
 11
118.856821738
 21
129.3809140406
 31
0.0
  0
LINE
  5
1C4
330
1F
100
AcDbEntity
  8
SLD-0
 62
   179
100
AcDbLine
 10
118.856821738
 20
129.3809140406
 30
0.0
 11
118.5213257026
 21
129.5233917262
 31
0.0
  0
LINE
  5
1C5
330
1F
100
AcDbEntity
  8
SLD-0
 62
   179
100
AcDbLine
 10
118.5213257026
 20
129.5233917262
 30
0.0
 11
118.1602098563
 21
129.6245212506
 31
0.0
  0
LINE
  5
1C6
330
1F
100
AcDbEntity
  8
SLD-0
 62
   179
100
AcDbLine
 10
118.1602098563
 20
129.6245212506
 30
0.0
 11
117.7769579858
 21
129.6739134777
 31
0.0
  0
LINE
  5
1C7
330
1F
100
AcDbEntity
  8
SLD-0
 62
   179
100
AcDbLine
 10
117.7769579858
 20
129.6739134777
 30
0.0
 11
117.3885292423
 21
129.6659504368
 31
0.0
  0
LINE
  5
1C8
330
1F
100
AcDbEntity
  8
SLD-0
 62
   179
100
AcDbLine
 10
117.3885292423
 20
129.6659504368
 30
0.0
 11
117.0631850304
 21
129.6128198809
 31
0.0
  0
LINE
  5
1C9
330
1F
100
AcDbEntity
  8
SLD-0
 62
   179
100
AcDbLine
 10
117.0631850304
 20
129.6128198809
 30
0.0
 11
116.7522769587
 21
129.5225651774
 31
0.0
  0
LINE
  5
1CA
330
1F
100
AcDbEntity
  8
SLD-0
 62
   179
100
AcDbLine
 10
116.7522769587
 20
129.5225651774
 30
0.0
 11
116.3547456431
 21
129.3475303172
 31
0.0
  0
LINE
  5
1CB
330
1F
100
AcDbEntity
  8
SLD-0
 62
   179
100
AcDbLine
 10
116.3547456431
 20
129.3475303172
 30
0.0
 11
115.9991847285
 21
129.1299230724
 31
0.0
  0
LINE
  5
1CC
330
1F
100
AcDbEntity
  8
SLD-0
 62
   179
100
AcDbLine
 10
115.9991847285
 20
129.1299230724
 30
0.0
 11
115.563873032
 21
128.7704549103
 31
0.0
  0
LINE
  5
1CD
330
1F
100
AcDbEntity
  8
SLD-0
 62
   179
100
AcDbLine
 10
115.563873032
 20
128.7704549103
 30
0.0
 11
115.2124200648
 21
128.3782186291
 31
0.0
  0
LINE
  5
1CE
330
1F
100
AcDbEntity
  8
SLD-0
 62
   179
100
AcDbLine
 10
115.2124200648
 20
128.3782186291
 30
0.0
 11
114.9414051956
 21
127.9698564976
 31
0.0
  0
LINE
  5
1CF
330
1F
100
AcDbEntity
  8
SLD-0
 62
   179
100
AcDbLine
 10
99.9414059965
 20
127.9698564976
 30
0.0
 11
99.8329013287
 21
127.78332609
 31
0.0
  0
LINE
  5
1D0
330
1F
100
AcDbEntity
  8
SLD-0
 62
   179
100
AcDbLine
 10
99.8329013287
 20
127.78332609
 30
0.0
 11
99.6419895141
 21
127.483070486
 31
0.0
  0
LINE
  5
1D1
330
1F
100
AcDbEntity
  8
SLD-0
 62
   179
100
AcDbLine
 10
105.3350507914
 20
127.9698564976
 30
0.0
 11
105.0176448821
 21
128.4372859008
 31
0.0
  0
LINE
  5
1D2
330
1F
100
AcDbEntity
  8
SLD-0
 62
   179
100
AcDbLine
 10
105.0176448821
 20
128.4372859008
 30
0.0
 11
104.5916905327
 21
128.8819020919
 31
0.0
  0
LINE
  5
1D3
330
1F
100
AcDbEntity
  8
SLD-0
 62
   179
100
AcDbLine
 10
104.5916905327
 20
128.8819020919
 30
0.0
 11
104.2494630142
 21
129.1492382369
 31
0.0
  0
LINE
  5
1D4
330
1F
100
AcDbEntity
  8
SLD-0
 62
   179
100
AcDbLine
 10
104.2494630142
 20
129.1492382369
 30
0.0
 11
103.8568220733
 21
129.3809140406
 31
0.0
  0
LINE
  5
1D5
330
1F
100
AcDbEntity
  8
SLD-0
 62
   179
100
AcDbLine
 10
103.8568220733
 20
129.3809140406
 30
0.0
 11
103.5213261543
 21
129.5233917262
 31
0.0
  0
LINE
  5
1D6
330
1F
100
AcDbEntity
  8
SLD-0
 62
   179
100
AcDbLine
 10
103.5213261543
 20
129.5233917262
 30
0.0
 11
103.1602095513
 21
129.6245212506
 31
0.0
  0
LINE
  5
1D7
330
1F
100
AcDbEntity
  8
SLD-0
 62
   179
100
AcDbLine
 10
103.1602095513
 20
129.6245212506
 30
0.0
 11
102.7769582047
 21
129.6739134777
 31
0.0
  0
LINE
  5
1D8
330
1F
100
AcDbEntity
  8
SLD-0
 62
   179
100
AcDbLine
 10
102.7769582047
 20
129.6739134777
 30
0.0
 11
102.3885296358
 21
129.6659504368
 31
0.0
  0
LINE
  5
1D9
330
1F
100
AcDbEntity
  8
SLD-0
 62
   179
100
AcDbLine
 10
102.3885296358
 20
129.6659504368
 30
0.0
 11
102.0631851329
 21
129.6128198809
 31
0.0
  0
LINE
  5
1DA
330
1F
100
AcDbEntity
  8
SLD-0
 62
   179
100
AcDbLine
 10
102.0631851329
 20
129.6128198809
 30
0.0
 11
101.7522770612
 21
129.5225651774
 31
0.0
  0
LINE
  5
1DB
330
1F
100
AcDbEntity
  8
SLD-0
 62
   179
100
AcDbLine
 10
101.7522770612
 20
129.5225651774
 30
0.0
 11
101.3547457455
 21
129.3475303172
 31
0.0
  0
LINE
  5
1DC
330
1F
100
AcDbEntity
  8
SLD-0
 62
   179
100
AcDbLine
 10
101.3547457455
 20
129.3475303172
 30
0.0
 11
100.999185413
 21
129.1299230724
 31
0.0
  0
LINE
  5
1DD
330
1F
100
AcDbEntity
  8
SLD-0
 62
   179
100
AcDbLine
 10
100.999185413
 20
129.1299230724
 30
0.0
 11
100.5638740657
 21
128.7704549103
 31
0.0
  0
LINE
  5
1DE
330
1F
100
AcDbEntity
  8
SLD-0
 62
   179
100
AcDbLine
 10
100.5638740657
 20
128.7704549103
 30
0.0
 11
100.2124208657
 21
128.3782186291
 31
0.0
  0
LINE
  5
1DF
330
1F
100
AcDbEntity
  8
SLD-0
 62
   179
100
AcDbLine
 10
100.2124208657
 20
128.3782186291
 30
0.0
 11
99.9414059965
 21
127.9698564976
 31
0.0
  0
LINE
  5
1E0
330
1F
100
AcDbEntity
  8
SLD-0
 62
   179
100
AcDbLine
 10
105.6344663425
 20
127.483070486
 30
0.0
 11
105.6340668051
 21
127.4836371957
 31
0.0
  0
LINE
  5
1E1
330
1F
100
AcDbEntity
  8
SLD-0
 62
   179
100
AcDbLine
 10
105.6340668051
 20
127.4836371957
 30
0.0
 11
105.3350507914
 21
127.9698564976
 31
0.0
  0
LINE
  5
1E2
330
1F
100
AcDbEntity
  8
SLD-0
  6
CENTERX2
 62
   179
100
AcDbLine
 10
117.6382280587
 20
125.9698566406
 30
0.0
 11
117.6382280587
 21
135.2653231383
 31
0.0
  0
LINE
  5
1E3
330
1F
100
AcDbEntity
  8
SLD-0
  6
CENTERX2
 62
   179
100
AcDbLine
 10
102.6382280587
 20
125.9698566406
 30
0.0
 11
102.6382280587
 21
135.2653231383
 31
0.0
  0
LINE
  5
1E4
330
1F
100
AcDbEntity
  8
SLD-0
  6
CENTERX2
 62
   179
100
AcDbLine
 10
132.6382280587
 20
125.9698566406
 30
0.0
 11
132.6382280587
 21
135.2653231383
 31
0.0
  0
LINE
  5
1E5
330
1F
100
AcDbEntity
  8
SLD-0
  6
Continuous
 62
   179
100
AcDbLine
 10
69.9816665812
 20
133.2653231382
 30
0.0
 11
70.5059306499
 21
133.7895872069
 31
0.0
  0
LINE
  5
1E6
330
1F
100
AcDbEntity
  8
SLD-0
  6
Continuous
 62
   179
100
AcDbLine
 10
70.7180626843
 20
133.8774551726
 30
0.0
 11
72.6937986156
 21
133.8774551726
 31
0.0
  0
LINE
  5
1E7
330
1F
100
AcDbEntity
  8
SLD-0
  6
Continuous
 62
   179
100
AcDbLine
 10
65.2816665813
 20
133.789587207
 30
0.0
 11
65.8059306499
 21
133.2653231383
 31
0.0
  0
LINE
  5
1E8
330
1F
100
AcDbEntity
  8
SLD-0
  6
Continuous
 62
   179
100
AcDbLine
 10
66.0180626843
 20
133.1774551726
 30
0.0
 11
69.7695345469
 21
133.1774551726
 31
0.0
  0
LINE
  5
1E9
330
1F
100
AcDbEntity
  8
SLD-0
  6
Continuous
 62
   179
100
AcDbLine
 10
63.0937986156
 20
133.8774551726
 30
0.0
 11
65.0695345469
 21
133.8774551726
 31
0.0
  0
LINE
  5
1EA
330
1F
100
AcDbEntity
  8
SLD-0
 62
   179
100
AcDbLine
 10
70.8937986416
 20
129.671023118
 30
0.0
 11
70.8937986416
 21
129.6782050121
 31
0.0
  0
LINE
  5
1EB
330
1F
100
AcDbEntity
  8
SLD-0
 62
   179
100
AcDbLine
 10
64.8937985895
 20
129.6782050121
 30
0.0
 11
64.8937985895
 21
129.671023118
 31
0.0
  0
LINE
  5
1EC
330
1F
100
AcDbEntity
  8
SLD-0
  6
CENTERX2
 62
   179
100
AcDbLine
 10
67.8937986156
 20
125.9698566406
 30
0.0
 11
67.8937986156
 21
135.2653231383
 31
0.0
  0
ARC
  5
1ED
330
1F
100
AcDbEntity
  8
SLD-0
  6
Continuous
 62
   179
100
AcDbCircle
 10
132.6382273553
 20
166.9362949362
 30
0.0
 40
2.500000376176474
100
AcDbArc
 50
56.6311844161
 51
123.3688115534
  0
ARC
  5
1EE
330
1F
100
AcDbEntity
  8
SLD-0
  6
Continuous
 62
   179
100
AcDbCircle
 10
117.6382285072
 20
166.9362952758
 30
0.0
 40
2.500000176485642
100
AcDbArc
 50
56.6311812479
 51
123.3688209199
  0
ARC
  5
1EF
330
1F
100
AcDbEntity
  8
SLD-0
  6
Continuous
 62
   179
100
AcDbCircle
 10
102.6382287621
 20
166.9362949362
 30
0.0
 40
2.500000376176482
100
AcDbArc
 50
56.6311884466
 51
123.3688155838
  0
ARC
  5
1F0
330
1F
100
AcDbEntity
  8
SLD-0
  6
Continuous
 62
   179
100
AcDbCircle
 10
117.6382285072
 20
166.9362952758
 30
0.0
 40
2.500000022861195
100
AcDbArc
 50
236.6311540765
 51
303.3688437136
  0
ARC
  5
1F1
330
1F
100
AcDbEntity
  8
SLD-0
  6
Continuous
 62
   179
100
AcDbCircle
 10
132.6382273553
 20
166.9362949362
 30
0.0
 40
2.500000066258801
100
AcDbArc
 50
236.6311380053
 51
303.3688579642
  0
ARC
  5
1F2
330
1F
100
AcDbEntity
  8
SLD-0
  6
Continuous
 62
   179
100
AcDbCircle
 10
102.6382287621
 20
166.9362949362
 30
0.0
 40
2.500000090625448
100
AcDbArc
 50
236.6311379281
 51
303.368857963
  0
ARC
  5
1F3
330
1F
100
AcDbEntity
  8
SLD-0
  6
Continuous
 62
   179
100
AcDbCircle
 10
132.6382273553
 20
166.9362949362
 30
0.0
 40
2.499999569652669
100
AcDbArc
 50
311.3841297001
 51
48.6159172477
  0
ARC
  5
1F4
330
1F
100
AcDbEntity
  8
SLD-0
  6
Continuous
 62
   179
100
AcDbCircle
 10
102.6382287621
 20
166.9362949362
 30
0.0
 40
2.49999956971878
100
AcDbArc
 50
131.384082754
 51
228.6158702982
  0
ARC
  5
1F5
330
1F
100
AcDbEntity
  8
SLD-0
  6
Continuous
 62
   179
100
AcDbCircle
 10
117.6382285072
 20
166.9362952758
 30
0.0
 40
2.500000020166131
100
AcDbArc
 50
131.3841046916
 51
228.6158700583
  0
ARC
  5
1F6
330
1F
100
AcDbEntity
  8
SLD-0
  6
Continuous
 62
   179
100
AcDbCircle
 10
102.6382287621
 20
166.9362949362
 30
0.0
 40
2.50000016088247
100
AcDbArc
 50
311.384145716
 51
48.615905223
  0
ARC
  5
1F7
330
1F
100
AcDbEntity
  8
SLD-0
  6
Continuous
 62
   179
100
AcDbCircle
 10
117.6382285072
 20
166.9362952758
 30
0.0
 40
2.500000006911188
100
AcDbArc
 50
311.38412994
 51
48.6158974567
  0
ARC
  5
1F8
330
1F
100
AcDbEntity
  8
SLD-0
  6
Continuous
 62
   179
100
AcDbCircle
 10
132.6382273553
 20
166.9362949362
 30
0.0
 40
2.500000160948591
100
AcDbArc
 50
131.3840947787
 51
228.6158542823
  0
ARC
  5
1F9
330
1F
100
AcDbEntity
  8
SLD-0
  6
Continuous
 62
   179
100
AcDbCircle
 10
132.6382281891
 20
126.5694524535
 30
0.0
 40
2.546366713100002
100
AcDbArc
 50
33.3643821748
 51
146.6356178252
  0
ARC
  5
1FA
330
1F
100
AcDbEntity
  8
SLD-0
  6
Continuous
 62
   179
100
AcDbCircle
 10
117.6382280587
 20
126.5694520233
 30
0.0
 40
2.546367144099994
100
AcDbArc
 50
33.364387378
 51
146.635612622
  0
ARC
  5
1FB
330
1F
100
AcDbEntity
  8
SLD-0
  6
Continuous
 62
   179
100
AcDbCircle
 10
102.6382279283
 20
126.5694524535
 30
0.0
 40
2.546366713100003
100
AcDbArc
 50
33.3643821747
 51
146.6356178253
  0
ARC
  5
1FC
330
1F
100
AcDbEntity
  8
SLD-0
  6
Continuous
 62
   179
100
AcDbCircle
 10
129.1618601237
 20
134.7061654445
 30
0.0
 40
11.5620149730522
100
AcDbArc
 50
215.635322613
 51
218.6977485098
  0
ARC
  5
1FD
330
1F
100
AcDbEntity
  8
SLD-0
  6
Continuous
 62
   179
100
AcDbCircle
 10
106.2647490219
 20
134.5923312575
 30
0.0
 40
11.37365791109832
100
AcDbArc
 50
321.2768871658
 51
324.3900417152
  0
ARC
  5
1FE
330
1F
100
AcDbEntity
  8
SLD-0
  6
Continuous
 62
   179
100
AcDbCircle
 10
114.1637479429
 20
134.7076011817
 30
0.0
 40
11.56438607302961
100
AcDbArc
 50
215.6356534892
 51
218.6974520299
  0
ARC
  5
1FF
330
1F
100
AcDbEntity
  8
SLD-0
  6
Continuous
 62
   179
100
AcDbCircle
 10
91.2669461961
 20
134.5906698056
 30
0.0
 40
11.37090428882626
100
AcDbArc
 50
321.276492568
 51
324.3904019053
  0
ARC
  5
200
330
1F
100
AcDbEntity
  8
SLD-0
  6
Continuous
 62
   179
100
AcDbCircle
 10
143.9915317381
 20
134.5770401563
 30
0.0
 40
11.34835199600682
100
AcDbArc
 50
215.6065032344
 51
218.7266022932
  0
ARC
  5
201
330
1F
100
AcDbEntity
  8
SLD-0
  6
Continuous
 62
   179
100
AcDbCircle
 10
121.2646206621
 20
134.5924330409
 30
0.0
 40
11.37382182768005
100
AcDbArc
 50
321.276892046
 51
324.3900024272
  0
ARC
  5
202
330
1F
100
AcDbEntity
  8
SLD-0
  6
HIDDEN
 62
     8
100
AcDbCircle
 10
129.0117070953
 20
134.5923312578
 30
0.0
 40
11.37365791121698
100
AcDbArc
 50
215.6099582867
 51
218.7231128361
  0
ARC
  5
203
330
1F
100
AcDbEntity
  8
SLD-0
  6
HIDDEN
 62
     8
100
AcDbCircle
 10
117.6382280587
 20
126.5694520233
 30
0.0
 40
2.546367144099994
100
AcDbArc
 50
33.364387378
 51
146.635612622
  0
ARC
  5
204
330
1F
100
AcDbEntity
  8
SLD-0
  6
HIDDEN
 62
     8
100
AcDbCircle
 10
106.1145959937
 20
134.706165444
 30
0.0
 40
11.56201497273309
100
AcDbArc
 50
321.3022514921
 51
324.3646773889
  0
ARC
  5
205
330
1F
100
AcDbEntity
  8
SLD-0
  6
HIDDEN
 62
     8
100
AcDbCircle
 10
117.6382280587
 20
131.1774551959
 30
0.0
 40
2.500000000472515
100
AcDbArc
 50
56.6311662833
 51
123.3688337167
  0
ARC
  5
206
330
1F
100
AcDbEntity
  8
SLD-0
  6
HIDDEN
 62
     8
100
AcDbCircle
 10
117.6382280587
 20
131.1774551959
 30
0.0
 40
2.500000000472515
100
AcDbArc
 50
56.6311662833
 51
123.3688337167
  0
ARC
  5
207
330
1F
100
AcDbEntity
  8
SLD-0
  6
HIDDEN
 62
     8
100
AcDbCircle
 10
114.0118354556
 20
134.5924330402
 30
0.0
 40
11.37382182749943
100
AcDbArc
 50
215.609997569
 51
218.7231079501
  0
ARC
  5
208
330
1F
100
AcDbEntity
  8
SLD-0
  6
HIDDEN
 62
     8
100
AcDbCircle
 10
102.6382279283
 20
126.5694524535
 30
0.0
 40
2.546366713100003
100
AcDbArc
 50
33.3643821747
 51
146.6356178253
  0
ARC
  5
209
330
1F
100
AcDbEntity
  8
SLD-0
  6
HIDDEN
 62
     8
100
AcDbCircle
 10
91.2849243796
 20
134.577040156
 30
0.0
 40
11.34835199558669
100
AcDbArc
 50
321.2733977072
 51
324.3934967661
  0
ARC
  5
20A
330
1F
100
AcDbEntity
  8
SLD-0
  6
HIDDEN
 62
     8
100
AcDbCircle
 10
102.6382279283
 20
131.1774544191
 30
0.0
 40
2.500000777261028
100
AcDbArc
 50
56.6311716196
 51
123.3688283804
  0
ARC
  5
20B
330
1F
100
AcDbEntity
  8
SLD-0
  6
HIDDEN
 62
     8
100
AcDbCircle
 10
102.6382279283
 20
131.1774544191
 30
0.0
 40
2.500000777261028
100
AcDbArc
 50
56.6311716196
 51
123.3688283804
  0
ARC
  5
20C
330
1F
100
AcDbEntity
  8
SLD-0
  6
HIDDEN
 62
     8
100
AcDbCircle
 10
132.6382281891
 20
131.1774544191
 30
0.0
 40
2.500000777288534
100
AcDbArc
 50
56.6311716186
 51
123.3688283814
  0
ARC
  5
20D
330
1F
100
AcDbEntity
  8
SLD-0
  6
HIDDEN
 62
     8
100
AcDbCircle
 10
143.6582083107
 20
134.3243404582
 30
0.0
 40
10.9302288015663
100
AcDbArc
 50
215.5468097437
 51
218.7862957838
  0
ARC
  5
20E
330
1F
100
AcDbEntity
  8
SLD-0
  6
HIDDEN
 62
     8
100
AcDbCircle
 10
132.6382281891
 20
126.5694524535
 30
0.0
 40
2.546366713100002
100
AcDbArc
 50
33.3643821748
 51
146.6356178252
  0
ARC
  5
20F
330
1F
100
AcDbEntity
  8
SLD-0
  6
HIDDEN
 62
     8
100
AcDbCircle
 10
121.2826837257
 20
134.5787390418
 30
0.0
 40
11.35116305440737
100
AcDbArc
 50
321.2737841409
 51
324.3931103323
  0
ARC
  5
210
330
1F
100
AcDbEntity
  8
SLD-0
  6
HIDDEN
 62
     8
100
AcDbCircle
 10
132.6382281891
 20
131.1774544191
 30
0.0
 40
2.500000777288534
100
AcDbArc
 50
56.6311716186
 51
123.3688283814
  0
ARC
  5
211
330
1F
100
AcDbEntity
  8
SLD-0
  6
Continuous
 62
   179
100
AcDbCircle
 10
70.7180626843
 20
133.5774551726
 30
0.0
 40
0.30000000003119
100
AcDbArc
 50
90.0
 51
135.0
  0
ARC
  5
212
330
1F
100
AcDbEntity
  8
SLD-0
  6
Continuous
 62
   179
100
AcDbCircle
 10
72.6937986156
 20
133.3774551726
 30
0.0
 40
0.5000000000000009
100
AcDbArc
 50
334.5807856114
 51
90.0
  0
ARC
  5
213
330
1F
100
AcDbEntity
  8
SLD-0
  6
Continuous
 62
   179
100
AcDbCircle
 10
58.694331965
 20
140.0306448964
 30
0.0
 40
16.00000000003452
100
AcDbArc
 50
311.0794373955
 51
334.5807856113
  0
ARC
  5
214
330
1F
100
AcDbEntity
  8
SLD-0
  6
Continuous
 62
   179
100
AcDbCircle
 10
67.8937986156
 20
129.4774551726
 30
0.0
 40
1.999999999963958
100
AcDbArc
 50
228.9205626045
 51
311.0794373953
  0
ARC
  5
215
330
1F
100
AcDbEntity
  8
SLD-0
  6
Continuous
 62
   179
100
AcDbCircle
 10
65.0695345469
 20
133.5774551726
 30
0.0
 40
0.3000000000000398
100
AcDbArc
 50
45.0
 51
90.0
  0
ARC
  5
216
330
1F
100
AcDbEntity
  8
SLD-0
  6
Continuous
 62
   179
100
AcDbCircle
 10
66.0180626843
 20
133.4774551726
 30
0.0
 40
0.299999999995805
100
AcDbArc
 50
224.9999999865
 51
270.0
  0
ARC
  5
217
330
1F
100
AcDbEntity
  8
SLD-0
  6
Continuous
 62
   179
100
AcDbCircle
 10
69.7695345469
 20
133.4774551726
 30
0.0
 40
0.2999999999604632
100
AcDbArc
 50
270.0
 51
315.0
  0
ARC
  5
218
330
1F
100
AcDbEntity
  8
SLD-0
  6
Continuous
 62
   179
100
AcDbCircle
 10
63.0937986156
 20
133.3774551726
 30
0.0
 40
0.5000000000000138
100
AcDbArc
 50
90.0
 51
205.4192143886
  0
ARC
  5
219
330
1F
100
AcDbEntity
  8
SLD-0
  6
Continuous
 62
   179
100
AcDbCircle
 10
77.0932652661
 20
140.0306448965
 30
0.0
 40
15.99999999999256
100
AcDbArc
 50
205.4192143891
 51
228.9205626051
  0
DIMENSION
  5
21A
330
1F
100
AcDbEntity
  8
SLD-0
 62
     7
100
AcDbDimension
  2
*D6
 10
117.6382280587
 20
180.9714042029
 30
0.0
 11
110.1382280587
 21
180.9714042029
 31
0.0
 70
   160
 71
     1
 42
15.0
  3
SLDDIMSTYLE0
100
AcDbAlignedDimension
 13
102.6382280587
 23
171.9362956709
 33
0.0
 14
117.6382280587
 24
171.9362956709
 34
0.0
100
AcDbRotatedDimension
1001
ACAD
1000
DSTYLE
1002
{
1070
    77
1070
     3
1070
   143
1040
0.0393700787
1070
    41
1040
3.0
1070
    44
1040
1.0
1070
    42
1040
1.0
1070
   147
1040
1.524
1070
    73
1070
     0
1070
    74
1070
     0
1070
   140
1040
3.5
1070
   284
1070
    12
1070
    78
1070
    12
1002
}
  0
DIMENSION
  5
236
330
1F
100
AcDbEntity
  8
SLD-0
 62
     7
100
AcDbDimension
  2
*D8
 10
97.1382280587
 20
190.9817906467
 30
0.0
 11
117.6382280587
 21
190.9817906467
 31
0.0
 70
   160
 71
     1
 42
41.0
  3
SLDDIMSTYLE0
100
AcDbAlignedDimension
 13
138.1382280587
 23
172.2362956709
 33
0.0
 14
97.1382280587
 24
172.2362956709
 34
0.0
100
AcDbRotatedDimension
1001
ACAD
1000
DSTYLE
1002
{
1070
    77
1070
     3
1070
   143
1040
0.0393700787
1070
    41
1040
3.0
1070
    44
1040
1.0
1070
    42
1040
1.0
1070
   147
1040
1.524
1070
    73
1070
     0
1070
    74
1070
     0
1070
   140
1040
3.5
1070
   284
1070
    12
1070
    78
1070
    12
1002
}
  0
DIMENSION
  5
24D
330
1F
100
AcDbEntity
  8
SLD-0
 62
     7
100
AcDbDimension
  2
*D9
 10
3.4561923653
 20
4.9045617238
 30
0.0
 11
103.5235592991
 21
-4.9045623118
 31
0.0
 70
   163
  1
3-M<><>
 71
     1
 42
5.9999992807
  3
SLDDIMSTYLE1
100
AcDbDiametricDimension
 15
0.0
 25
0.0
 35
0.0
 40
0.0
1001
ACAD
1000
DSTYLE
1002
{
1070
    77
1070
     0
1070
   143
1040
0.0393700787
1070
    41
1040
3.0
1070
    44
1040
1.0
1070
    42
1040
1.0
1070
   147
1040
1.524
1070
    73
1070
     1
1070
    74
1070
     1
1070
   140
1040
3.5
1070
   284
1070
    12
1070
    78
1070
    12
1002
}
  0
DIMENSION
  5
25E
330
1F
100
AcDbEntity
  8
SLD-0
 62
     7
100
AcDbDimension
  2
*D10
 10
160.4732582353
 20
172.2362956709
 30
0.0
 11
160.4732582353
 21
166.9362956709
 31
0.0
 70
   160
 71
     1
 42
10.6
  3
SLDDIMSTYLE2
100
AcDbAlignedDimension
 13
138.1382280587
 23
161.6362956709
 33
0.0
 14
138.1382280587
 24
172.2362956709
 34
0.0
 50
90.0
100
AcDbRotatedDimension
1001
ACAD
1000
DSTYLE
1002
{
1070
    77
1070
     3
1070
   143
1040
0.0393700787
1070
    41
1040
3.0
1070
    44
1040
1.0
1070
    42
1040
1.0
1070
   147
1040
1.524
1070
    73
1070
     0
1070
    74
1070
     0
1070
   140
1040
3.5
1070
   284
1070
    12
1070
    78
1070
    12
1002
}
  0
DIMENSION
  5
279
330
1F
100
AcDbEntity
  8
SLD-0
 62
     7
100
AcDbDimension
  2
*D11
 10
149.2024064353
 20
161.6362956709
 30
0.0
 11
149.2024064353
 21
154.6497971667
 31
0.0
 70
   160
 71
     1
 42
5.3
  3
SLDDIMSTYLE2
100
AcDbAlignedDimension
 13
122.6382280587
 23
166.9362956709
 33
0.0
 14
138.1382280587
 24
161.6362956709
 34
0.0
 50
90.0
100
AcDbRotatedDimension
1001
ACAD
1000
DSTYLE
1002
{
1070
    77
1070
     3
1070
   143
1040
0.0393700787
1070
    41
1040
3.0
1070
    44
1040
1.0
1070
    42
1040
1.0
1070
   147
1040
1.524
1070
    73
1070
     0
1070
    74
1070
     0
1070
   140
1040
3.5
1070
   284
1070
    12
1070
    78
1070
    12
1002
}
  0
DIMENSION
  5
294
330
1F
100
AcDbEntity
  8
SLD-0
 62
     7
100
AcDbDimension
  2
*D12
 10
138.1382280587
 20
180.9714042029
 30
0.0
 11
149.2024064353
 21
180.9714042029
 31
0.0
 70
   160
 71
     1
 42
5.5
  3
SLDDIMSTYLE2
100
AcDbAlignedDimension
 13
132.6382280587
 23
171.9362956709
 33
0.0
 14
138.1382280587
 24
172.2362956709
 34
0.0
100
AcDbRotatedDimension
1001
ACAD
1000
DSTYLE
1002
{
1070
    77
1070
     3
1070
   143
1040
0.0393700787
1070
    41
1040
3.0
1070
    44
1040
1.0
1070
    42
1040
1.0
1070
   147
1040
1.524
1070
    73
1070
     0
1070
    74
1070
     0
1070
   140
1040
3.5
1070
   284
1070
    12
1070
    78
1070
    12
1002
}
  0
DIMENSION
  5
2B0
330
1F
100
AcDbEntity
  8
SLD-0
 62
     7
100
AcDbDimension
  2
*D13
 10
132.6382280587
 20
180.9714042029
 30
0.0
 11
125.1382280587
 21
180.9714042029
 31
0.0
 70
   160
 71
     1
 42
15.0
  3
SLDDIMSTYLE0
100
AcDbAlignedDimension
 13
117.6382280587
 23
171.9362956709
 33
0.0
 14
132.6382280587
 24
171.9362956709
 34
0.0
100
AcDbRotatedDimension
1001
ACAD
1000
DSTYLE
1002
{
1070
    77
1070
     3
1070
   143
1040
0.0393700787
1070
    41
1040
3.0
1070
    44
1040
1.0
1070
    42
1040
1.0
1070
   147
1040
1.524
1070
    73
1070
     0
1070
    74
1070
     0
1070
   140
1040
3.5
1070
   284
1070
    12
1070
    78
1070
    12
1002
}
  0
MTEXT
  5
2C7
330
1F
100
AcDbEntity
  8
SLD-0
 62
     7
100
AcDbMText
 10
156.3463216247
 20
18.8077288624
 30
0.0
 40
3.5
 41
0.0
 71
     1
 72
     1
  1
131057
  7
SLDTEXTSTYLE0
 73
     1
 44
1.0
  0
MTEXT
  5
2C8
330
1F
100
AcDbEntity
  8
SLD-0
 62
     7
100
AcDbMText
 10
147.2956616897
 20
29.7138882404
 30
0.0
 40
4.2333333333
 41
0.0
 71
     1
 72
     1
  1
N01914-104-0
  7
SLDTEXTSTYLE1
 73
     1
 44
1.0
  0
MTEXT
  5
2C9
330
1F
100
AcDbEntity
  8
SLD-0
 62
     7
100
AcDbMText
 10
146.7793310642
 20
43.2377018572
 30
0.0
 40
4.2333333333
 41
0.0
 71
     1
 72
     1
  1
Nut M6-P15x2
  7
SLDTEXTSTYLE1
 73
     1
 44
1.0
  0
INSERT
  5
2CA
330
1F
100
AcDbEntity
  8
0
  6
Continuous
 62
     7
370
     0
100
AcDbBlockReference
  2
SURFACEFINISH39
 10
176.1663369538
 20
249.0193918395
 30
0.0
  0
INSERT
  5
2CB
330
1F
100
AcDbEntity
  8
0
  6
Continuous
 62
     7
370
     0
100
AcDbBlockReference
  2
注記
 10
106.3230164438
 20
56.4091969054
 30
0.0
  0
INSERT
  5
2CC
330
1F
100
AcDbEntity
  8
0
  6
Continuous
 62
     7
370
     0
100
AcDbBlockReference
  2
SW_CENTERMARK0
 10
0.0
 20
0.0
 30
0.0
  0
INSERT
  5
2CD
330
1F
100
AcDbEntity
  8
0
  6
Continuous
 62
     7
370
     0
100
AcDbBlockReference
  2
SW_CENTERMARK1
 10
0.0
 20
0.0
 30
0.0
  0
INSERT
  5
2CE
330
1F
100
AcDbEntity
  8
0
  6
Continuous
 62
     7
370
     0
100
AcDbBlockReference
  2
SW_CENTERMARK2
 10
0.0
 20
0.0
 30
0.0
  0
ENDSEC
  0
SECTION
  2
OBJECTS
  0
DICTIONARY
  5
C
330
0
100
AcDbDictionary
281
     1
  3
ACAD_GROUP
350
D
  3
ACAD_LAYOUT
350
1A
  3
ACAD_MLINESTYLE
350
17
  3
ACAD_PLOTSETTINGS
350
19
  3
ACAD_PLOTSTYLENAME
350
E
  0
DICTIONARY
  5
D
102
{ACAD_REACTORS
330
C
102
}
330
C
100
AcDbDictionary
281
     1
  0
DICTIONARY
  5
1A
102
{ACAD_REACTORS
330
C
102
}
330
C
100
AcDbDictionary
281
     1
  3
Layout1
350
1E
  3
Layout2
350
26
  3
Model
350
22
  0
DICTIONARY
  5
17
102
{ACAD_REACTORS
330
C
102
}
330
C
100
AcDbDictionary
281
     1
  3
Standard
350
18
  0
DICTIONARY
  5
19
102
{ACAD_REACTORS
330
C
102
}
330
C
100
AcDbDictionary
281
     1
  0
ACDBDICTIONARYWDFLT
  5
E
102
{ACAD_REACTORS
330
C
102
}
330
C
100
AcDbDictionary
281
     1
  3
Normal
350
F
100
AcDbDictionaryWithDefault
340
F
  0
LAYOUT
  5
1E
102
{ACAD_REACTORS
330
1A
102
}
330
1A
100
AcDbPlotSettings
  1

  2

  4

  6

 40
0.0
 41
0.0
 42
0.0
 43
0.0
 44
0.0
 45
0.0
 46
0.0
 47
0.0
 48
0.0
 49
0.0
140
0.0
141
0.0
142
1.0
143
1.0
 70
   688
 72
     0
 73
     0
 74
     5
  7

 75
    16
147
1.0
148
0.0
149
0.0
100
AcDbLayout
  1
Layout1
 70
     1
 71
     1
 10
0.0
 20
0.0
 11
0.0
 21
0.0
 12
0.0
 22
0.0
 32
0.0
 14
0.0
 24
0.0
 34
0.0
 15
0.0
 25
0.0
 35
0.0
146
0.0
 13
0.0
 23
0.0
 33
0.0
 16
1.0
 26
0.0
 36
0.0
 17
0.0
 27
1.0
 37
0.0
 76
     0
330
1B
  0
LAYOUT
  5
26
102
{ACAD_REACTORS
330
1A
102
}
330
1A
100
AcDbPlotSettings
  1

  2

  4

  6

 40
0.0
 41
0.0
 42
0.0
 43
0.0
 44
0.0
 45
0.0
 46
0.0
 47
0.0
 48
0.0
 49
0.0
140
0.0
141
0.0
142
1.0
143
1.0
 70
   688
 72
     0
 73
     0
 74
     5
  7

 75
    16
147
1.0
148
0.0
149
0.0
100
AcDbLayout
  1
Layout2
 70
     1
 71
     2
 10
0.0
 20
0.0
 11
0.0
 21
0.0
 12
0.0
 22
0.0
 32
0.0
 14
0.0
 24
0.0
 34
0.0
 15
0.0
 25
0.0
 35
0.0
146
0.0
 13
0.0
 23
0.0
 33
0.0
 16
1.0
 26
0.0
 36
0.0
 17
0.0
 27
1.0
 37
0.0
 76
     0
330
23
  0
LAYOUT
  5
22
102
{ACAD_REACTORS
330
1A
102
}
330
1A
100
AcDbPlotSettings
  1

  2

  4

  6

 40
0.0
 41
0.0
 42
0.0
 43
0.0
 44
0.0
 45
0.0
 46
0.0
 47
0.0
 48
0.0
 49
0.0
140
0.0
141
0.0
142
1.0
143
1.0
 70
  1712
 72
     0
 73
     0
 74
     0
  7

 75
     0
147
1.0
148
0.0
149
0.0
100
AcDbLayout
  1
Model
 70
     1
 71
     0
 10
0.0
 20
0.0
 11
0.0
 21
0.0
 12
0.0
 22
0.0
 32
0.0
 14
0.0
 24
0.0
 34
0.0
 15
210.0
 25
297.0
 35
0.0
146
0.0
 13
0.0
 23
0.0
 33
0.0
 16
1.0
 26
0.0
 36
0.0
 17
0.0
 27
1.0
 37
0.0
 76
     0
330
1F
  0
MLINESTYLE
  5
18
102
{ACAD_REACTORS
330
17
102
}
330
17
100
AcDbMlineStyle
  2
Standard
 70
     0
  3

 62
   256
 51
90.0
 52
90.0
 71
     2
 49
0.5
 62
   256
  6
BYLAYER
 49
-0.5
 62
   256
  6
BYLAYER
  0
ACDBPLACEHOLDER
  5
F
102
{ACAD_REACTORS
330
E
102
}
330
E
  0
ENDSEC
  0
EOF
