  0
SECTION
  2
HEADER
  9
$ACADVER
  1
AC1015
  9
$ACADMAINTVER
 70
     6
  9
$DWGCODEPAGE
  3
DOS932
  9
$INSBASE
 10
0.0
 20
0.0
 30
0.0
  9
$EXTMIN
 10
0.0
 20
0.0
 30
0.0
  9
$EXTMAX
 10
210.0
 20
297.0
 30
0.0
  9
$LIMMIN
 10
0.0
 20
0.0
  9
$LIMMAX
 10
0.0
 20
0.0
  9
$ORTHOMODE
 70
     0
  9
$REGENMODE
 70
     1
  9
$FILLMODE
 70
     1
  9
$QTEXTMODE
 70
     0
  9
$MIRRTEXT
 70
     1
  9
$LTSCALE
 40
1.0
  9
$ATTMODE
 70
     1
  9
$TEXTSIZE
 40
3.5
  9
$TRACEWID
 40
1.0
  9
$TEXTSTYLE
  7
Standard
  9
$CLAYER
  8
0
  9
$CELTYPE
  6
ByLayer
  9
$CECOLOR
 62
   256
  9
$CELTSCALE
 40
1.0
  9
$DISPSILH
 70
     0
  9
$DIMSCALE
 40
1.0
  9
$DIMASZ
 40
3.0
  9
$DIMEXO
 40
1.0
  9
$DIMDLI
 40
3.75
  9
$DIMRND
 40
0.0
  9
$DIMDLE
 40
0.0
  9
$DIMEXE
 40
1.0
  9
$DIMTP
 40
0.0
  9
$DIMTM
 40
0.0
  9
$DIMTXT
 40
3.5
  9
$DIMCEN
 40
2.5
  9
$DIMTSZ
 40
0.0
  9
$DIMTOL
 70
     0
  9
$DIMLIM
 70
     0
  9
$DIMTIH
 70
     1
  9
$DIMTOH
 70
     1
  9
$DIMSE1
 70
     0
  9
$DIMSE2
 70
     0
  9
$DIMTAD
 70
     1
  9
$DIMZIN
 70
     1
  9
$DIMBLK
  1

  9
$DIMASO
 70
     1
  9
$DIMSHO
 70
     1
  9
$DIMPOST
  1

  9
$DIMAPOST
  1

  9
$DIMALT
 70
     0
  9
$DIMALTD
 70
     3
  9
$DIMALTF
 40
0.0393700787
  9
$DIMLFAC
 40
1.0
  9
$DIMTOFL
 70
     1
  9
$DIMTVP
 40
0.0
  9
$DIMTIX
 70
     0
  9
$DIMSOXD
 70
     0
  9
$DIMSAH
 70
     0
  9
$DIMBLK1
  1

  9
$DIMBLK2
  1

  9
$DIMSTYLE
  2
ISO-25
  9
$DIMCLRD
 70
     0
  9
$DIMCLRE
 70
     0
  9
$DIMCLRT
 70
     0
  9
$DIMTFAC
 40
1.0
  9
$DIMGAP
 40
1.524
  9
$DIMJUST
 70
     0
  9
$DIMSD1
 70
     0
  9
$DIMSD2
 70
     0
  9
$DIMTOLJ
 70
     0
  9
$DIMTZIN
 70
     1
  9
$DIMALTZ
 70
     0
  9
$DIMALTTZ
 70
     0
  9
$DIMUPT
 70
     0
  9
$DIMDEC
 70
     2
  9
$DIMTDEC
 70
     2
  9
$DIMALTU
 70
     2
  9
$DIMALTTD
 70
     3
  9
$DIMTXSTY
  7
Standard
  9
$DIMAUNIT
 70
     0
  9
$DIMADEC
 70
     0
  9
$DIMALTRND
 40
0.0
  9
$DIMAZIN
 70
     0
  9
$DIMDSEP
 70
    44
  9
$DIMATFIT
 70
     3
  9
$DIMFRAC
 70
     0
  9
$DIMLDRBLK
  1

  9
$DIMLUNIT
 70
     2
  9
$DIMLWD
 70
    -2
  9
$DIMLWE
 70
    -2
  9
$DIMTMOVE
 70
     0
  9
$LUNITS
 70
     2
  9
$LUPREC
 70
     1
  9
$SKETCHINC
 40
1.0
  9
$FILLETRAD
 40
10.0
  9
$AUNITS
 70
     0
  9
$AUPREC
 70
     0
  9
$MENU
  1
.
  9
$ELEVATION
 40
0.0
  9
$PELEVATION
 40
0.0
  9
$THICKNESS
 40
0.0
  9
$LIMCHECK
 70
     0
  9
$CHAMFERA
 40
10.0
  9
$CHAMFERB
 40
10.0
  9
$CHAMFERC
 40
20.0
  9
$CHAMFERD
 40
0.0
  9
$SKPOLY
 70
     0
  9
$TDCREATE
 40
2454314.634417488
  9
$TDUCREATE
 40
2454314.259417488
  9
$TDUPDATE
 40
2454314.6344175
  9
$TDUUPDATE
 40
2454314.2594175
  9
$TDINDWG
 40
0.0000000116
  9
$TDUSRTIMER
 40
0.0000000116
  9
$USRTIMER
 70
     1
  9
$ANGBASE
 50
0.0
  9
$ANGDIR
 70
     0
  9
$PDMODE
 70
     0
  9
$PDSIZE
 40
-1.0
  9
$PLINEWID
 40
0.0
  9
$SPLFRAME
 70
     0
  9
$SPLINETYPE
 70
     6
  9
$SPLINESEGS
 70
     8
  9
$HANDSEED
  5
17E
  9
$SURFTAB1
 70
     6
  9
$SURFTAB2
 70
     6
  9
$SURFTYPE
 70
     6
  9
$SURFU
 70
     6
  9
$SURFV
 70
     6
  9
$UCSBASE
  2

  9
$UCSNAME
  2

  9
$UCSORG
 10
0.0
 20
0.0
 30
0.0
  9
$UCSXDIR
 10
1.0
 20
0.0
 30
0.0
  9
$UCSYDIR
 10
0.0
 20
1.0
 30
0.0
  9
$UCSORTHOREF
  2

  9
$UCSORTHOVIEW
 70
     0
  9
$UCSORGTOP
 10
0.0
 20
0.0
 30
0.0
  9
$UCSORGBOTTOM
 10
0.0
 20
0.0
 30
0.0
  9
$UCSORGLEFT
 10
0.0
 20
0.0
 30
0.0
  9
$UCSORGRIGHT
 10
0.0
 20
0.0
 30
0.0
  9
$UCSORGFRONT
 10
0.0
 20
0.0
 30
0.0
  9
$UCSORGBACK
 10
0.0
 20
0.0
 30
0.0
  9
$PUCSBASE
  2

  9
$PUCSNAME
  2

  9
$PUCSORG
 10
0.0
 20
0.0
 30
0.0
  9
$PUCSXDIR
 10
1.0
 20
0.0
 30
0.0
  9
$PUCSYDIR
 10
0.0
 20
1.0
 30
0.0
  9
$PUCSORTHOREF
  2

  9
$PUCSORTHOVIEW
 70
     0
  9
$PUCSORGTOP
 10
0.0
 20
0.0
 30
0.0
  9
$PUCSORGBOTTOM
 10
0.0
 20
0.0
 30
0.0
  9
$PUCSORGLEFT
 10
0.0
 20
0.0
 30
0.0
  9
$PUCSORGRIGHT
 10
0.0
 20
0.0
 30
0.0
  9
$PUCSORGFRONT
 10
0.0
 20
0.0
 30
0.0
  9
$PUCSORGBACK
 10
0.0
 20
0.0
 30
0.0
  9
$USERI1
 70
     0
  9
$USERI2
 70
     0
  9
$USERI3
 70
     0
  9
$USERI4
 70
     0
  9
$USERI5
 70
     0
  9
$USERR1
 40
0.0
  9
$USERR2
 40
0.0
  9
$USERR3
 40
0.0
  9
$USERR4
 40
0.0
  9
$USERR5
 40
0.0
  9
$WORLDVIEW
 70
     1
  9
$SHADEDGE
 70
     3
  9
$SHADEDIF
 70
    70
  9
$TILEMODE
 70
     1
  9
$MAXACTVP
 70
    64
  9
$PINSBASE
 10
0.0
 20
0.0
 30
0.0
  9
$PLIMCHECK
 70
     0
  9
$PEXTMIN
 10
1.0000000000E+20
 20
1.0000000000E+20
 30
1.0000000000E+20
  9
$PEXTMAX
 10
-1.0000000000E+20
 20
-1.0000000000E+20
 30
-1.0000000000E+20
  9
$PLIMMIN
 10
0.0
 20
0.0
  9
$PLIMMAX
 10
420.0
 20
297.0
  9
$UNITMODE
 70
     0
  9
$VISRETAIN
 70
     1
  9
$PLINEGEN
 70
     0
  9
$PSLTSCALE
 70
     1
  9
$TREEDEPTH
 70
  3020
  9
$CMLSTYLE
  2
Standard
  9
$CMLJUST
 70
     0
  9
$CMLSCALE
 40
20.0
  9
$PROXYGRAPHICS
 70
     1
  9
$MEASUREMENT
 70
     1
  9
$CELWEIGHT
370
    -1
  9
$ENDCAPS
280
     0
  9
$JOINSTYLE
280
     0
  9
$LWDISPLAY
290
     1
  9
$INSUNITS
 70
     4
  9
$HYPERLINKBASE
  1

  9
$STYLESHEET
  1

  9
$XEDIT
290
     1
  9
$CEPSNTYPE
380
     0
  9
$PSTYLEMODE
290
     1
  9
$FINGERPRINTGUID
  2
{1D151F79-01E6-4F24-9476-488728B28085}
  9
$VERSIONGUID
  2
{FAEB1C32-E019-11D5-929B-00C0DF256EC4}
  9
$EXTNAMES
290
     1
  9
$PSVPSCALE
 40
0.0
  9
$OLESTARTUP
290
     0
  0
ENDSEC
  0
SECTION
  2
CLASSES
  0
CLASS
  1
ACDBDICTIONARYWDFLT
  2
AcDbDictionaryWithDefault
  3
ObjectDBX Classes
 90
        0
280
     0
281
     0
  0
CLASS
  1
ACDBPLACEHOLDER
  2
AcDbPlaceHolder
  3
ObjectDBX Classes
 90
        0
280
     0
281
     0
  0
CLASS
  1
LAYOUT
  2
AcDbLayout
  3
ObjectDBX Classes
 90
        0
280
     0
281
     0
  0
ENDSEC
  0
SECTION
  2
TABLES
  0
TABLE
  2
VPORT
  5
8
330
0
100
AcDbSymbolTable
 70
     1
  0
VPORT
  5
29
330
8
100
AcDbSymbolTableRecord
100
AcDbViewportTableRecord
  2
*Active
 70
     0
 10
0.0
 20
0.0
 11
1.0
 21
1.0
 12
105.0
 22
148.5
 13
0.0
 23
0.0
 14
10.0
 24
10.0
 15
10.0
 25
10.0
 16
0.0
 26
0.0
 36
1.0
 17
0.0
 27
0.0
 37
0.0
 40
297.0
 41
1.9729729729
 42
50.0
 43
0.0
 44
0.0
 50
0.0
 51
0.0
 71
     0
 72
  2000
 73
     1
 74
     3
 75
     0
 76
     0
 77
     0
 78
     0
281
     0
 65
     1
110
0.0
120
0.0
130
0.0
111
1.0
121
0.0
131
0.0
112
0.0
122
1.0
132
0.0
 79
     0
146
0.0
  0
ENDTAB
  0
TABLE
  2
LTYPE
  5
5
330
0
100
AcDbSymbolTable
 70
     6
  0
LTYPE
  5
14
330
5
100
AcDbSymbolTableRecord
100
AcDbLinetypeTableRecord
  2
ByBlock
 70
     0
  3

 72
    65
 73
     0
 40
0.0
  0
LTYPE
  5
15
330
5
100
AcDbSymbolTableRecord
100
AcDbLinetypeTableRecord
  2
ByLayer
 70
     0
  3

 72
    65
 73
     0
 40
0.0
  0
LTYPE
  5
16
330
5
100
AcDbSymbolTableRecord
100
AcDbLinetypeTableRecord
  2
Continuous
 70
     0
  3
Solid line
 72
    65
 73
     0
 40
0.0
  0
LTYPE
  5
2A
330
5
100
AcDbSymbolTableRecord
100
AcDbLinetypeTableRecord
  2
HIDDEN
 70
     0
  3
Hidden __ __ __ __ __ __ __ __ __ __ __ __ __ __
 72
    65
 73
     2
 40
1.905
 49
1.27
 74
     0
 49
-0.635
 74
     0
  0
LTYPE
  5
2B
330
5
100
AcDbSymbolTableRecord
100
AcDbLinetypeTableRecord
  2
PHANTOM
 70
     0
  3
Phantom ______  __  __  ______  __  __  ______
 72
    65
 73
     6
 40
12.7
 49
6.35
 74
     0
 49
-1.27
 74
     0
 49
1.27
 74
     0
 49
-1.27
 74
     0
 49
1.27
 74
     0
 49
-1.27
 74
     0
  0
LTYPE
  5
2C
330
5
100
AcDbSymbolTableRecord
100
AcDbLinetypeTableRecord
  2
CENTER
 70
     0
  3
Center ____ _ ____ _ ____ _ ____ _ ____ _ ____
 72
    65
 73
     4
 40
10.16
 49
6.35
 74
     0
 49
-1.27
 74
     0
 49
1.27
 74
     0
 49
-1.27
 74
     0
  0
LTYPE
  5
2D
330
5
100
AcDbSymbolTableRecord
100
AcDbLinetypeTableRecord
  2
CENTERX2
 70
     0
  3
Center (2x) ________  __  ________  __  _____
 72
    65
 73
     4
 40
20.32
 49
12.7
 74
     0
 49
-2.54
 74
     0
 49
2.54
 74
     0
 49
-2.54
 74
     0
  0
LTYPE
  5
2E
330
5
100
AcDbSymbolTableRecord
100
AcDbLinetypeTableRecord
  2
DOT2
 70
     0
  3
Dot (.5x) ........................................
 72
    65
 73
     2
 40
0.635
 49
0.0
 74
     0
 49
-0.635
 74
     0
  0
ENDTAB
  0
TABLE
  2
LAYER
  5
2
330
0
100
AcDbSymbolTable
 70
     4
  0
LAYER
  5
10
330
2
100
AcDbSymbolTableRecord
100
AcDbLayerTableRecord
  2
0
 70
     0
 62
     7
  6
Continuous
370
    -3
390
F
  0
LAYER
  5
2F
330
2
100
AcDbSymbolTableRecord
100
AcDbLayerTableRecord
  2
SLD-0
 70
     0
 62
   179
  6
Continuous
370
     0
390
F
  0
LAYER
  5
30
330
2
100
AcDbSymbolTableRecord
100
AcDbLayerTableRecord
  2
SLD-DEFPOINTS
 70
     0
 62
   179
  6
Continuous
370
     0
390
F
  0
LAYER
  5
FC
330
2
100
AcDbSymbolTableRecord
100
AcDbLayerTableRecord
  2
Defpoints
 70
     0
 62
     7
  6
Continuous
290
     0
370
    -3
390
F
  0
ENDTAB
  0
TABLE
  2
STYLE
  5
3
330
0
100
AcDbSymbolTable
 70
     3
  0
STYLE
  5
11
330
3
100
AcDbSymbolTableRecord
100
AcDbTextStyleTableRecord
  2
Standard
 70
     0
 40
0.0
 41
1.0
 50
0.0
 71
     0
 42
2.5
  3
txt
  4
bigfont
  0
STYLE
  5
34
330
3
100
AcDbSymbolTableRecord
100
AcDbTextStyleTableRecord
  2
SLDTEXTSTYLE0
 70
     0
 40
0.0
 41
0.7
 50
0.0
 71
     0
 42
0.2
  3
TXT
  4
bigfont
  0
STYLE
  5
3C
330
3
100
AcDbSymbolTableRecord
100
AcDbTextStyleTableRecord
  2
SLDTEXTSTYLE1
 70
     0
 40
0.0
 41
0.5526315789
 50
0.0
 71
     0
 42
0.2
  3
TXT
  4
bigfont
  0
ENDTAB
  0
TABLE
  2
VIEW
  5
6
330
0
100
AcDbSymbolTable
 70
     0
  0
ENDTAB
  0
TABLE
  2
UCS
  5
7
330
0
100
AcDbSymbolTable
 70
     0
  0
ENDTAB
  0
TABLE
  2
APPID
  5
9
330
0
100
AcDbSymbolTable
 70
     1
  0
APPID
  5
12
330
9
100
AcDbSymbolTableRecord
100
AcDbRegAppTableRecord
  2
ACAD
 70
     0
  0
ENDTAB
  0
TABLE
  2
DIMSTYLE
  5
A
330
0
100
AcDbSymbolTable
 70
     4
100
AcDbDimStyleTable
  0
DIMSTYLE
105
27
330
A
100
AcDbSymbolTableRecord
100
AcDbDimStyleTableRecord
  2
ISO-25
 70
     0
 41
2.5
 42
0.625
 43
3.75
 44
1.25
 73
     0
 74
     0
 77
     1
 78
     8
140
2.5
141
2.5
143
0.0393700787
147
0.625
171
     3
172
     1
271
     2
272
     2
274
     3
278
    44
283
     0
284
     8
340
11
  0
DIMSTYLE
105
10A
102
{ACAD_REACTORS
330
FB
330
132
330
14B
102
}
330
A
100
AcDbSymbolTableRecord
100
AcDbDimStyleTableRecord
  2
SLDDIMSTYLE0
 70
     0
 41
3.0
 44
0.0
 73
     0
 74
     0
 77
     3
 78
    12
140
3.5
147
0.875
173
     1
271
     1
272
     3
284
    12
340
3C
341
10B
343
10B
344
10B
  0
DIMSTYLE
105
127
102
{ACAD_REACTORS
330
11A
102
}
330
A
100
AcDbSymbolTableRecord
100
AcDbDimStyleTableRecord
  2
SLDDIMSTYLE1
 70
     0
 41
3.0
 44
0.0
 73
     0
 74
     0
 77
     3
 78
    12
140
3.5
147
0.875
173
     1
271
     0
272
     3
284
    12
340
3C
341
10B
343
10B
344
10B
  0
DIMSTYLE
105
170
102
{ACAD_REACTORS
330
166
102
}
330
A
100
AcDbSymbolTableRecord
100
AcDbDimStyleTableRecord
  2
SLDDIMSTYLE2
 70
     0
 41
3.0
 44
0.0
 78
    12
140
3.5
147
0.875
172
     1
173
     1
271
     0
272
     3
284
    12
340
3C
341
10B
343
10B
344
10B
  0
ENDTAB
  0
TABLE
  2
BLOCK_RECORD
  5
1
330
0
100
AcDbSymbolTable
 70
    10
  0
BLOCK_RECORD
  5
1F
330
1
100
AcDbSymbolTableRecord
100
AcDbBlockTableRecord
  2
*Model_Space
340
22
  0
BLOCK_RECORD
  5
1B
330
1
100
AcDbSymbolTableRecord
100
AcDbBlockTableRecord
  2
*Paper_Space
340
1E
  0
BLOCK_RECORD
  5
23
330
1
100
AcDbSymbolTableRecord
100
AcDbBlockTableRecord
  2
*Paper_Space0
340
26
  0
BLOCK_RECORD
  5
31
330
1
100
AcDbSymbolTableRecord
100
AcDbBlockTableRecord
  2
注記
340
0
102
{BLKREFS
331
17C
102
}
  0
BLOCK_RECORD
  5
37
330
1
100
AcDbSymbolTableRecord
100
AcDbBlockTableRecord
  2
SURFACEFINISH39
340
0
102
{BLKREFS
331
17B
102
}
  0
BLOCK_RECORD
  5
3E
330
1
100
AcDbSymbolTableRecord
100
AcDbBlockTableRecord
  2
SW_CENTERMARK0
340
0
102
{BLKREFS
331
17D
102
}
  0
BLOCK_RECORD
  5
FD
330
1
100
AcDbSymbolTableRecord
100
AcDbBlockTableRecord
  2
*D4
340
0
  0
BLOCK_RECORD
  5
10B
330
1
100
AcDbSymbolTableRecord
100
AcDbBlockTableRecord
  2
_None
340
0
102
{BLKREFS
331
102
331
101
331
120
331
11F
331
139
331
138
331
152
331
151
331
16B
102
}
  0
BLOCK_RECORD
  5
11B
330
1
100
AcDbSymbolTableRecord
100
AcDbBlockTableRecord
  2
*D6
340
0
  0
BLOCK_RECORD
  5
133
330
1
100
AcDbSymbolTableRecord
100
AcDbBlockTableRecord
  2
*D7
340
0
  0
BLOCK_RECORD
  5
14C
330
1
100
AcDbSymbolTableRecord
100
AcDbBlockTableRecord
  2
*D8
340
0
  0
BLOCK_RECORD
  5
167
330
1
100
AcDbSymbolTableRecord
100
AcDbBlockTableRecord
  2
*D9
340
0
  0
ENDTAB
  0
ENDSEC
  0
SECTION
  2
BLOCKS
  0
BLOCK
  5
20
330
1F
100
AcDbEntity
  8
0
100
AcDbBlockBegin
  2
*Model_Space
 70
     0
 71
     0
 10
0.0
 20
0.0
 30
0.0
  3
*Model_Space
  1

  0
ENDBLK
  5
21
330
1F
100
AcDbEntity
  8
0
100
AcDbBlockEnd
  0
BLOCK
  5
1C
330
1B
100
AcDbEntity
 67
     1
  8
0
100
AcDbBlockBegin
  2
*Paper_Space
 70
     0
 71
     0
 10
0.0
 20
0.0
 30
0.0
  3
*Paper_Space
  1

  0
ENDBLK
  5
1D
330
1B
100
AcDbEntity
 67
     1
  8
0
100
AcDbBlockEnd
  0
BLOCK
  5
24
330
23
100
AcDbEntity
  8
0
100
AcDbBlockBegin
  2
*Paper_Space0
 70
     0
 71
     0
 10
0.0
 20
0.0
 30
0.0
  3
*Paper_Space0
  1

  0
ENDBLK
  5
25
330
23
100
AcDbEntity
  8
0
100
AcDbBlockEnd
  0
BLOCK
  5
32
330
31
100
AcDbEntity
  8
0
100
AcDbBlockBegin
  2
注記
 70
     0
 71
     0
 10
0.0
 20
0.0
 30
0.0
  3
注記
  1

  0
MTEXT
  5
35
330
31
100
AcDbEntity
  8
0
  6
Continuous
 62
     7
370
     0
100
AcDbMText
 10
0.2636785918
 20
9.0739778448
 30
0.0
 40
3.5
 41
0.0
 71
     1
 72
     1
  1
１．特記ナキ角部ハ、バリ　カエリノ無キコト。
  7
SLDTEXTSTYLE0
 73
     1
 44
1.0
  0
MTEXT
  5
36
330
31
100
AcDbEntity
  8
0
  6
Continuous
 62
     7
370
     0
100
AcDbMText
 10
0.2636785918
 20
3.5759549983
 30
0.0
 40
3.5
 41
0.0
 71
     1
 72
     1
  1
２．特記ナキ隅部ハ、Ｒ０．４ＭＡＸトスル。
  7
SLDTEXTSTYLE0
 73
     1
 44
1.0
  0
ENDBLK
  5
33
330
31
100
AcDbEntity
  8
0
100
AcDbBlockEnd
  0
BLOCK
  5
38
330
37
100
AcDbEntity
  8
0
100
AcDbBlockBegin
  2
SURFACEFINISH39
 70
     0
 71
     0
 10
0.0
 20
0.0
 30
0.0
  3
SURFACEFINISH39
  1

  0
LINE
  5
3A
330
37
100
AcDbEntity
  8
SLD-0
  6
Continuous
 62
   179
100
AcDbLine
 10
0.6656399396
 20
-6.0449245738
 30
0.0
 11
-2.9003789868
 21
0.0000001164
 31
0.0
  0
LINE
  5
3B
330
37
100
AcDbEntity
  8
SLD-0
  6
Continuous
 62
   179
100
AcDbLine
 10
0.6656399396
 20
-6.0449245738
 30
0.0
 11
7.7976777926
 21
6.0449248066
 31
0.0
  0
MTEXT
  5
3D
330
37
100
AcDbEntity
  8
SLD-0
100
AcDbMText
 10
0.0
 20
4.9341236929
 30
0.0
 40
3.175
 41
0.0
 71
     1
 72
     1
  1
25
  7
SLDTEXTSTYLE1
 73
     1
 44
1.0
  0
ENDBLK
  5
39
330
37
100
AcDbEntity
  8
0
100
AcDbBlockEnd
  0
BLOCK
  5
3F
330
3E
100
AcDbEntity
  8
0
100
AcDbBlockBegin
  2
SW_CENTERMARK0
 70
     0
 71
     0
 10
0.0
 20
0.0
 30
0.0
  3
SW_CENTERMARK0
  1

  0
LINE
  5
41
330
3E
100
AcDbEntity
  8
SLD-0
  6
Continuous
 62
   179
100
AcDbLine
 10
109.8610397946
 20
189.5271758665
 30
0.0
 11
109.8610397946
 21
192.0271758665
 31
0.0
  0
LINE
  5
42
330
3E
100
AcDbEntity
  8
SLD-0
  6
Continuous
 62
   179
100
AcDbLine
 10
109.8610397946
 20
189.5271758665
 30
0.0
 11
107.3610397946
 21
189.5271758665
 31
0.0
  0
LINE
  5
43
330
3E
100
AcDbEntity
  8
SLD-0
  6
Continuous
 62
   179
100
AcDbLine
 10
109.8610397946
 20
189.5271758665
 30
0.0
 11
109.8610397946
 21
187.0271758665
 31
0.0
  0
LINE
  5
44
330
3E
100
AcDbEntity
  8
SLD-0
  6
Continuous
 62
   179
100
AcDbLine
 10
109.8610397946
 20
189.5271758665
 30
0.0
 11
112.3610397946
 21
189.5271758665
 31
0.0
  0
LINE
  5
45
330
3E
100
AcDbEntity
  8
SLD-0
  6
Continuous
 62
   179
100
AcDbLine
 10
109.8610397946
 20
192.0271758665
 30
0.0
 11
109.8610397946
 21
193.6771758665
 31
0.0
  0
LINE
  5
46
330
3E
100
AcDbEntity
  8
SLD-0
  6
Continuous
 62
   179
100
AcDbLine
 10
107.3610397946
 20
189.5271758665
 30
0.0
 11
105.7110397946
 21
189.5271758665
 31
0.0
  0
LINE
  5
47
330
3E
100
AcDbEntity
  8
SLD-0
  6
Continuous
 62
   179
100
AcDbLine
 10
109.8610397946
 20
187.0271758665
 30
0.0
 11
109.8610397946
 21
185.3771758665
 31
0.0
  0
LINE
  5
48
330
3E
100
AcDbEntity
  8
SLD-0
  6
Continuous
 62
   179
100
AcDbLine
 10
112.3610397946
 20
189.5271758665
 30
0.0
 11
114.0110397946
 21
189.5271758665
 31
0.0
  0
ENDBLK
  5
40
330
3E
100
AcDbEntity
  8
0
100
AcDbBlockEnd
  0
BLOCK
  5
108
330
FD
100
AcDbEntity
  8
0
100
AcDbBlockBegin
  2
*D4
 70
     1
 71
     0
 10
0.0
 20
0.0
 30
0.0
  3
*D4
  1

  0
LINE
  5
10E
330
FD
100
AcDbEntity
  8
SLD-0
 62
     7
100
AcDbLine
 10
117.3610397946
 20
195.8271758665
 30
0.0
 11
117.3610397946
 21
203.0422252574
 31
0.0
  0
LINE
  5
10F
330
FD
100
AcDbEntity
  8
SLD-0
 62
     7
100
AcDbLine
 10
109.8610397946
 20
194.6771758665
 30
0.0
 11
109.8610397946
 21
203.0422252574
 31
0.0
  0
LINE
  5
110
330
FD
100
AcDbEntity
  8
SLD-0
 62
     7
100
AcDbLine
 10
117.3610397946
 20
202.0422252574
 30
0.0
 11
122.3610397946
 21
202.0422252574
 31
0.0
  0
LINE
  5
111
330
FD
100
AcDbEntity
  8
SLD-0
 62
     7
100
AcDbLine
 10
117.3610397946
 20
202.0422252574
 30
0.0
 11
109.8610397946
 21
202.0422252574
 31
0.0
  0
LINE
  5
112
330
FD
100
AcDbEntity
  8
SLD-0
 62
     7
100
AcDbLine
 10
109.8610397946
 20
202.0422252574
 30
0.0
 11
104.8610397946
 21
202.0422252574
 31
0.0
  0
LINE
  5
113
330
FD
100
AcDbEntity
  8
SLD-0
 62
     7
100
AcDbLine
 10
120.3610397946
 20
201.2383782574
 30
0.0
 11
117.3610397946
 21
202.0422252574
 31
0.0
  0
LINE
  5
114
330
FD
100
AcDbEntity
  8
SLD-0
 62
     7
100
AcDbLine
 10
117.3610397946
 20
202.0422252574
 30
0.0
 11
120.3610397946
 21
202.8460722574
 31
0.0
  0
LINE
  5
115
330
FD
100
AcDbEntity
  8
SLD-0
 62
     7
100
AcDbLine
 10
117.3610397946
 20
202.0422252574
 30
0.0
 11
120.3610397946
 21
202.0422252574
 31
0.0
  0
LINE
  5
116
330
FD
100
AcDbEntity
  8
SLD-0
 62
     7
100
AcDbLine
 10
106.8610397946
 20
202.8460722574
 30
0.0
 11
109.8610397946
 21
202.0422252574
 31
0.0
  0
LINE
  5
117
330
FD
100
AcDbEntity
  8
SLD-0
 62
     7
100
AcDbLine
 10
109.8610397946
 20
202.0422252574
 30
0.0
 11
106.8610397946
 21
201.2383782574
 31
0.0
  0
LINE
  5
118
330
FD
100
AcDbEntity
  8
SLD-0
 62
     7
100
AcDbLine
 10
109.8610397946
 20
202.0422252574
 30
0.0
 11
106.8610397946
 21
202.0422252574
 31
0.0
  0
MTEXT
  5
119
330
FD
100
AcDbEntity
  8
SLD-0
 62
     7
100
AcDbMText
 10
110.5560598187
 20
206.5689189534
 30
0.1
 40
3.5
 41
0.0
 71
     1
 72
     1
  1
7.5
  7
SLDTEXTSTYLE0
 73
     1
 44
1.0
  0
ENDBLK
  5
109
330
FD
100
AcDbEntity
  8
0
100
AcDbBlockEnd
  0
BLOCK
  5
10C
330
10B
100
AcDbEntity
  8
0
100
AcDbBlockBegin
  2
_None
 70
     0
 71
     0
 10
0.0
 20
0.0
 30
0.0
  3
_None
  1

  0
ENDBLK
  5
10D
330
10B
100
AcDbEntity
  8
0
100
AcDbBlockEnd
  0
BLOCK
  5
125
330
11B
100
AcDbEntity
  8
0
100
AcDbBlockBegin
  2
*D6
 70
     1
 71
     0
 10
0.0
 20
0.0
 30
0.0
  3
*D6
  1

  0
LINE
  5
128
330
11B
100
AcDbEntity
  8
SLD-0
 62
     7
100
AcDbLine
 10
102.3610397946
 20
195.8271758665
 30
0.0
 11
102.3610397946
 21
210.1075672969
 31
0.0
  0
LINE
  5
129
330
11B
100
AcDbEntity
  8
SLD-0
 62
     7
100
AcDbLine
 10
117.3610397946
 20
195.8271758665
 30
0.0
 11
117.3610397946
 21
210.1075672969
 31
0.0
  0
LINE
  5
12A
330
11B
100
AcDbEntity
  8
SLD-0
 62
     7
100
AcDbLine
 10
102.3610397946
 20
209.1075672969
 30
0.0
 11
117.3610397946
 21
209.1075672969
 31
0.0
  0
LINE
  5
12B
330
11B
100
AcDbEntity
  8
SLD-0
 62
     7
100
AcDbLine
 10
105.3610397946
 20
208.3037202969
 30
0.0
 11
102.3610397946
 21
209.1075672969
 31
0.0
  0
LINE
  5
12C
330
11B
100
AcDbEntity
  8
SLD-0
 62
     7
100
AcDbLine
 10
102.3610397946
 20
209.1075672969
 30
0.0
 11
105.3610397946
 21
209.9114142969
 31
0.0
  0
LINE
  5
12D
330
11B
100
AcDbEntity
  8
SLD-0
 62
     7
100
AcDbLine
 10
102.3610397946
 20
209.1075672969
 30
0.0
 11
105.3610397946
 21
209.1075672969
 31
0.0
  0
LINE
  5
12E
330
11B
100
AcDbEntity
  8
SLD-0
 62
     7
100
AcDbLine
 10
114.3610397946
 20
209.9114142969
 30
0.0
 11
117.3610397946
 21
209.1075672969
 31
0.0
  0
LINE
  5
12F
330
11B
100
AcDbEntity
  8
SLD-0
 62
     7
100
AcDbLine
 10
117.3610397946
 20
209.1075672969
 30
0.0
 11
114.3610397946
 21
208.3037202969
 31
0.0
  0
LINE
  5
130
330
11B
100
AcDbEntity
  8
SLD-0
 62
     7
100
AcDbLine
 10
117.3610397946
 20
209.1075672969
 30
0.0
 11
114.3610397946
 21
209.1075672969
 31
0.0
  0
MTEXT
  5
131
330
11B
100
AcDbEntity
  8
SLD-0
 62
     7
100
AcDbMText
 10
107.8256045714
 20
213.6342609929
 30
0.1
 40
3.5
 41
0.0
 71
     1
 72
     1
  1
15
  7
SLDTEXTSTYLE0
 73
     1
 44
1.0
  0
ENDBLK
  5
126
330
11B
100
AcDbEntity
  8
0
100
AcDbBlockEnd
  0
BLOCK
  5
13E
330
133
100
AcDbEntity
  8
0
100
AcDbBlockBegin
  2
*D7
 70
     1
 71
     0
 10
0.0
 20
0.0
 30
0.0
  3
*D7
  1

  0
LINE
  5
140
330
133
100
AcDbEntity
  8
SLD-0
 62
     7
100
AcDbLine
 10
118.3610397946
 20
194.8271758665
 30
0.0
 11
140.9564547677
 21
194.8271758665
 31
0.0
  0
LINE
  5
141
330
133
100
AcDbEntity
  8
SLD-0
 62
     7
100
AcDbLine
 10
118.3610397946
 20
184.2271758665
 30
0.0
 11
140.9564547677
 21
184.2271758665
 31
0.0
  0
LINE
  5
142
330
133
100
AcDbEntity
  8
SLD-0
 62
     7
100
AcDbLine
 10
139.9564547677
 20
194.8271758665
 30
0.0
 11
139.9564547677
 21
184.2271758665
 31
0.0
  0
LINE
  5
143
330
133
100
AcDbEntity
  8
SLD-0
 62
     7
100
AcDbLine
 10
139.9564547677
 20
184.2271758665
 30
0.0
 11
139.9564547677
 21
171.5804797748
 31
0.0
  0
LINE
  5
144
330
133
100
AcDbEntity
  8
SLD-0
 62
     7
100
AcDbLine
 10
139.1526077677
 20
191.8271758665
 30
0.0
 11
139.9564547677
 21
194.8271758665
 31
0.0
  0
LINE
  5
145
330
133
100
AcDbEntity
  8
SLD-0
 62
     7
100
AcDbLine
 10
139.9564547677
 20
194.8271758665
 30
0.0
 11
140.7603017677
 21
191.8271758665
 31
0.0
  0
LINE
  5
146
330
133
100
AcDbEntity
  8
SLD-0
 62
     7
100
AcDbLine
 10
139.9564547677
 20
194.8271758665
 30
0.0
 11
139.9564547677
 21
191.8271758665
 31
0.0
  0
LINE
  5
147
330
133
100
AcDbEntity
  8
SLD-0
 62
     7
100
AcDbLine
 10
140.7603017677
 20
187.2271758665
 30
0.0
 11
139.9564547677
 21
184.2271758665
 31
0.0
  0
LINE
  5
148
330
133
100
AcDbEntity
  8
SLD-0
 62
     7
100
AcDbLine
 10
139.9564547677
 20
184.2271758665
 30
0.0
 11
139.1526077677
 21
187.2271758665
 31
0.0
  0
LINE
  5
149
330
133
100
AcDbEntity
  8
SLD-0
 62
     7
100
AcDbLine
 10
139.9564547677
 20
184.2271758665
 30
0.0
 11
139.9564547677
 21
187.2271758665
 31
0.0
  0
MTEXT
  5
14A
330
133
100
AcDbEntity
  8
SLD-0
 62
     7
100
AcDbMText
 10
135.4297610718
 20
173.1679797748
 30
0.1
 40
3.5
 41
0.0
 71
     1
 72
     1
  1
10.6
  7
SLDTEXTSTYLE0
 11
6.123031769111886E-17
 21
1.0
 31
0.0
 73
     1
 44
1.0
  0
ENDBLK
  5
13F
330
133
100
AcDbEntity
  8
0
100
AcDbBlockEnd
  0
BLOCK
  5
158
330
14C
100
AcDbEntity
  8
0
100
AcDbBlockBegin
  2
*D8
 70
     1
 71
     0
 10
0.0
 20
0.0
 30
0.0
  3
*D8
  1

  0
LINE
  5
15A
330
14C
100
AcDbEntity
  8
SLD-0
 62
     7
100
AcDbLine
 10
118.3610397946
 20
184.2271758665
 30
0.0
 11
129.4252181712
 21
184.2271758665
 31
0.0
  0
LINE
  5
15B
330
14C
100
AcDbEntity
  8
SLD-0
 62
     7
100
AcDbLine
 10
115.0110397946
 20
189.5271758665
 30
0.0
 11
129.4252181712
 21
189.5271758665
 31
0.0
  0
LINE
  5
15C
330
14C
100
AcDbEntity
  8
SLD-0
 62
     7
100
AcDbLine
 10
128.4252181712
 20
184.2271758665
 30
0.0
 11
128.4252181712
 21
172.5981973864
 31
0.0
  0
LINE
  5
15D
330
14C
100
AcDbEntity
  8
SLD-0
 62
     7
100
AcDbLine
 10
128.4252181712
 20
184.2271758665
 30
0.0
 11
128.4252181712
 21
189.5271758665
 31
0.0
  0
LINE
  5
15E
330
14C
100
AcDbEntity
  8
SLD-0
 62
     7
100
AcDbLine
 10
128.4252181712
 20
189.5271758665
 30
0.0
 11
128.4252181712
 21
194.5271758665
 31
0.0
  0
LINE
  5
15F
330
14C
100
AcDbEntity
  8
SLD-0
 62
     7
100
AcDbLine
 10
127.6213711712
 20
181.2271758665
 30
0.0
 11
128.4252181712
 21
184.2271758665
 31
0.0
  0
LINE
  5
160
330
14C
100
AcDbEntity
  8
SLD-0
 62
     7
100
AcDbLine
 10
128.4252181712
 20
184.2271758665
 30
0.0
 11
129.2290651712
 21
181.2271758665
 31
0.0
  0
LINE
  5
161
330
14C
100
AcDbEntity
  8
SLD-0
 62
     7
100
AcDbLine
 10
128.4252181712
 20
184.2271758665
 30
0.0
 11
128.4252181712
 21
181.2271758665
 31
0.0
  0
LINE
  5
162
330
14C
100
AcDbEntity
  8
SLD-0
 62
     7
100
AcDbLine
 10
129.2290651712
 20
192.5271758665
 30
0.0
 11
128.4252181712
 21
189.5271758665
 31
0.0
  0
LINE
  5
163
330
14C
100
AcDbEntity
  8
SLD-0
 62
     7
100
AcDbLine
 10
128.4252181712
 20
189.5271758665
 30
0.0
 11
127.6213711712
 21
192.5271758665
 31
0.0
  0
LINE
  5
164
330
14C
100
AcDbEntity
  8
SLD-0
 62
     7
100
AcDbLine
 10
128.4252181712
 20
189.5271758665
 30
0.0
 11
128.4252181712
 21
192.5271758665
 31
0.0
  0
MTEXT
  5
165
330
14C
100
AcDbEntity
  8
SLD-0
 62
     7
100
AcDbMText
 10
123.8985244753
 20
174.1856973864
 30
0.1
 40
3.5
 41
0.0
 71
     1
 72
     1
  1
5.3
  7
SLDTEXTSTYLE0
 11
6.123031769111886E-17
 21
1.0
 31
0.0
 73
     1
 44
1.0
  0
ENDBLK
  5
159
330
14C
100
AcDbEntity
  8
0
100
AcDbBlockEnd
  0
BLOCK
  5
16E
330
167
100
AcDbEntity
  8
0
100
AcDbBlockBegin
  2
*D9
 70
     1
 71
     0
 10
0.0
 20
0.0
 30
0.0
  3
*D9
  1

  0
LINE
  5
171
330
167
100
AcDbEntity
  8
SLD-0
 62
     7
100
AcDbLine
 10
108.885874095
 20
187.7810224201
 30
0.0
 11
102.060320107
 21
175.5590332505
 31
0.0
  0
LINE
  5
172
330
167
100
AcDbEntity
  8
SLD-0
 62
     7
100
AcDbLine
 10
102.060320107
 20
175.5590332505
 30
0.0
 11
93.2269496607
 21
175.5590332505
 31
0.0
  0
LINE
  5
173
330
167
100
AcDbEntity
  8
SLD-0
 62
     7
100
AcDbLine
 10
106.7213054409
 20
185.5537342616
 30
0.0
 11
108.885874095
 21
187.7810224201
 31
0.0
  0
LINE
  5
174
330
167
100
AcDbEntity
  8
SLD-0
 62
     7
100
AcDbLine
 10
108.885874095
 20
187.7810224201
 30
0.0
 11
108.1249456503
 21
184.7698502395
 31
0.0
  0
LINE
  5
175
330
167
100
AcDbEntity
  8
SLD-0
 62
     7
100
AcDbLine
 10
108.885874095
 20
187.7810224201
 30
0.0
 11
107.4231255456
 21
185.1617922505
 31
0.0
  0
MTEXT
  5
176
330
167
100
AcDbEntity
  8
SLD-0
 62
     7
100
AcDbMText
 10
94.8144496607
 20
180.0857269464
 30
0.1
 40
3.5
 41
0.0
 71
     1
 72
     1
  1
M
  7
SLDTEXTSTYLE0
 73
     1
 44
1.0
  0
MTEXT
  5
177
330
167
100
AcDbEntity
  8
SLD-0
 62
     7
100
AcDbMText
 10
96.8498848839
 20
180.0857269464
 30
0.1
 40
3.5
 41
0.0
 71
     1
 72
     1
  1
4
  7
SLDTEXTSTYLE0
 73
     1
 44
1.0
  0
ENDBLK
  5
16F
330
167
100
AcDbEntity
  8
0
100
AcDbBlockEnd
  0
ENDSEC
  0
SECTION
  2
ENTITIES
  0
LINE
  5
49
330
1F
100
AcDbEntity
  8
SLD-0
  6
Continuous
 62
   179
100
AcDbLine
 10
20.2604743903
 20
285.0
 30
0.0
 11
196.7604743903
 21
285.0
 31
0.0
  0
LINE
  5
4A
330
1F
100
AcDbEntity
  8
SLD-0
  6
Continuous
 62
   179
100
AcDbLine
 10
20.2604743903
 20
285.0
 30
0.0
 11
20.2604743903
 21
10.0
 31
0.0
  0
LINE
  5
4B
330
1F
100
AcDbEntity
  8
SLD-0
  6
Continuous
 62
   179
100
AcDbLine
 10
20.2604743903
 20
10.0
 30
0.0
 11
196.7604743903
 21
10.0
 31
0.0
  0
LINE
  5
4C
330
1F
100
AcDbEntity
  8
SLD-0
  6
Continuous
 62
   179
100
AcDbLine
 10
196.7604743903
 20
285.0
 30
0.0
 11
196.7604743903
 21
10.0
 31
0.0
  0
LINE
  5
4D
330
1F
100
AcDbEntity
  8
SLD-0
  6
Continuous
 62
   179
100
AcDbLine
 10
127.0104743903
 20
50.75
 30
0.0
 11
196.7604743903
 21
50.75
 31
0.0
  0
LINE
  5
4E
330
1F
100
AcDbEntity
  8
SLD-0
  6
Continuous
 62
   179
100
AcDbLine
 10
127.0104743903
 20
50.75
 30
0.0
 11
127.0104743903
 21
10.0
 31
0.0
  0
LINE
  5
4F
330
1F
100
AcDbEntity
  8
SLD-0
  6
Continuous
 62
   179
100
AcDbLine
 10
127.0104743903
 20
22.75
 30
0.0
 11
196.7604743903
 21
22.75
 31
0.0
  0
LINE
  5
50
330
1F
100
AcDbEntity
  8
SLD-0
  6
Continuous
 62
   179
100
AcDbLine
 10
127.0104743903
 20
36.75
 30
0.0
 11
196.7604743903
 21
36.75
 31
0.0
  0
LINE
  5
51
330
1F
100
AcDbEntity
  8
SLD-0
  6
Continuous
 62
   179
100
AcDbLine
 10
117.3610397946
 20
194.8271758665
 30
0.0
 11
102.3610397946
 21
194.8271758665
 31
0.0
  0
LINE
  5
52
330
1F
100
AcDbEntity
  8
SLD-0
  6
Continuous
 62
   179
100
AcDbLine
 10
102.3610397946
 20
184.2271758665
 30
0.0
 11
117.3610397946
 21
184.2271758665
 31
0.0
  0
LINE
  5
53
330
1F
100
AcDbEntity
  8
SLD-0
  6
Continuous
 62
   179
100
AcDbLine
 10
117.3610397946
 20
194.8271758665
 30
0.0
 11
117.3610397946
 21
194.3271758665
 31
0.0
  0
LINE
  5
54
330
1F
100
AcDbEntity
  8
SLD-0
  6
Continuous
 62
   179
100
AcDbLine
 10
102.3610397946
 20
194.8271758665
 30
0.0
 11
102.3610397946
 21
194.3271758665
 31
0.0
  0
LINE
  5
55
330
1F
100
AcDbEntity
  8
SLD-0
  6
Continuous
 62
   179
100
AcDbLine
 10
117.3610397946
 20
194.3271758665
 30
0.0
 11
117.3610397946
 21
192.3514399352
 31
0.0
  0
LINE
  5
56
330
1F
100
AcDbEntity
  8
SLD-0
  6
Continuous
 62
   179
100
AcDbLine
 10
102.3610397946
 20
194.3271758665
 30
0.0
 11
102.3610397946
 21
192.3514399352
 31
0.0
  0
LINE
  5
57
330
1F
100
AcDbEntity
  8
SLD-0
  6
Continuous
 62
   179
100
AcDbLine
 10
102.3610397946
 20
192.3514399352
 30
0.0
 11
102.3610397946
 21
192.1393079009
 31
0.0
  0
LINE
  5
58
330
1F
100
AcDbEntity
  8
SLD-0
  6
Continuous
 62
   179
100
AcDbLine
 10
117.3610397946
 20
192.3514399352
 30
0.0
 11
117.3610397946
 21
192.1393079009
 31
0.0
  0
LINE
  5
59
330
1F
100
AcDbEntity
  8
SLD-0
  6
Continuous
 62
   179
100
AcDbLine
 10
102.3610397946
 20
184.7271758665
 30
0.0
 11
102.3610397946
 21
184.2271758665
 31
0.0
  0
LINE
  5
5A
330
1F
100
AcDbEntity
  8
SLD-0
  6
Continuous
 62
   179
100
AcDbLine
 10
117.3610397946
 20
184.7271758665
 30
0.0
 11
117.3610397946
 21
184.2271758665
 31
0.0
  0
LINE
  5
5B
330
1F
100
AcDbEntity
  8
SLD-0
  6
Continuous
 62
   179
100
AcDbLine
 10
102.3610397946
 20
186.7029117978
 30
0.0
 11
102.3610397946
 21
184.7271758665
 31
0.0
  0
LINE
  5
5C
330
1F
100
AcDbEntity
  8
SLD-0
  6
Continuous
 62
   179
100
AcDbLine
 10
117.3610397946
 20
186.7029117978
 30
0.0
 11
117.3610397946
 21
184.7271758665
 31
0.0
  0
LINE
  5
5D
330
1F
100
AcDbEntity
  8
SLD-0
  6
Continuous
 62
   179
100
AcDbLine
 10
102.3610397946
 20
186.9150438321
 30
0.0
 11
102.3610397946
 21
186.7029117978
 31
0.0
  0
LINE
  5
5E
330
1F
100
AcDbEntity
  8
SLD-0
  6
Continuous
 62
   179
100
AcDbLine
 10
117.3610397946
 20
186.9150438321
 30
0.0
 11
117.3610397946
 21
186.7029117978
 31
0.0
  0
LINE
  5
5F
330
1F
100
AcDbEntity
  8
SLD-0
  6
Continuous
 62
   179
100
AcDbLine
 10
102.3610397946
 20
192.1393079009
 30
0.0
 11
102.3610397946
 21
191.6150438321
 31
0.0
  0
LINE
  5
60
330
1F
100
AcDbEntity
  8
SLD-0
  6
Continuous
 62
   179
100
AcDbLine
 10
117.3610397946
 20
192.1393079009
 30
0.0
 11
117.3610397946
 21
191.6150438321
 31
0.0
  0
LINE
  5
61
330
1F
100
AcDbEntity
  8
SLD-0
  6
Continuous
 62
   179
100
AcDbLine
 10
102.3610397946
 20
187.4393079009
 30
0.0
 11
102.3610397946
 21
186.9150438321
 31
0.0
  0
LINE
  5
62
330
1F
100
AcDbEntity
  8
SLD-0
  6
Continuous
 62
   179
100
AcDbLine
 10
117.3610397946
 20
187.4393079009
 30
0.0
 11
117.3610397946
 21
186.9150438321
 31
0.0
  0
LINE
  5
63
330
1F
100
AcDbEntity
  8
SLD-0
  6
Continuous
 62
   179
100
AcDbLine
 10
102.3610397946
 20
191.6150438321
 30
0.0
 11
102.3610397946
 21
191.4029117978
 31
0.0
  0
LINE
  5
64
330
1F
100
AcDbEntity
  8
SLD-0
  6
Continuous
 62
   179
100
AcDbLine
 10
117.3610397946
 20
191.6150438321
 30
0.0
 11
117.3610397946
 21
191.4029117978
 31
0.0
  0
LINE
  5
65
330
1F
100
AcDbEntity
  8
SLD-0
  6
Continuous
 62
   179
100
AcDbLine
 10
102.3610397946
 20
187.6514399352
 30
0.0
 11
102.3610397946
 21
187.4393079009
 31
0.0
  0
LINE
  5
66
330
1F
100
AcDbEntity
  8
SLD-0
  6
Continuous
 62
   179
100
AcDbLine
 10
117.3610397946
 20
187.6514399352
 30
0.0
 11
117.3610397946
 21
187.4393079009
 31
0.0
  0
LINE
  5
67
330
1F
100
AcDbEntity
  8
SLD-0
  6
Continuous
 62
   179
100
AcDbLine
 10
102.3610397946
 20
191.4029117978
 30
0.0
 11
102.3610397946
 21
187.6514399352
 31
0.0
  0
LINE
  5
68
330
1F
100
AcDbEntity
  8
SLD-0
  6
Continuous
 62
   179
100
AcDbLine
 10
117.3610397946
 20
191.4029117978
 30
0.0
 11
117.3610397946
 21
187.6514399352
 31
0.0
  0
LINE
  5
69
330
1F
100
AcDbEntity
  8
SLD-0
 62
   179
100
AcDbLine
 10
110.5550244736
 20
191.4029118023
 30
0.0
 11
110.7412788603
 21
191.3230542675
 31
0.0
  0
LINE
  5
6A
330
1F
100
AcDbEntity
  8
SLD-0
 62
   179
100
AcDbLine
 10
110.7412788603
 20
191.3230542675
 30
0.0
 11
110.9184958093
 21
191.2247585249
 31
0.0
  0
LINE
  5
6B
330
1F
100
AcDbEntity
  8
SLD-0
 62
   179
100
AcDbLine
 10
110.9184958093
 20
191.2247585249
 30
0.0
 11
111.0848559817
 21
191.1090336623
 31
0.0
  0
LINE
  5
6C
330
1F
100
AcDbEntity
  8
SLD-0
 62
   179
100
AcDbLine
 10
111.0848559817
 20
191.1090336623
 30
0.0
 11
111.2386510992
 21
190.9770679311
 31
0.0
  0
LINE
  5
6D
330
1F
100
AcDbEntity
  8
SLD-0
 62
   179
100
AcDbLine
 10
111.2386510992
 20
190.9770679311
 30
0.0
 11
111.3783024536
 21
190.8302161726
 31
0.0
  0
LINE
  5
6E
330
1F
100
AcDbEntity
  8
SLD-0
 62
   179
100
AcDbLine
 10
111.3783024536
 20
190.8302161726
 30
0.0
 11
111.502376041
 21
190.6699861982
 31
0.0
  0
LINE
  5
6F
330
1F
100
AcDbEntity
  8
SLD-0
 62
   179
100
AcDbLine
 10
111.502376041
 20
190.6699861982
 30
0.0
 11
111.6095980449
 21
190.4980228981
 31
0.0
  0
LINE
  5
70
330
1F
100
AcDbEntity
  8
SLD-0
 62
   179
100
AcDbLine
 10
111.6095980449
 20
190.4980228981
 30
0.0
 11
111.6988676419
 21
190.3160920017
 31
0.0
  0
LINE
  5
71
330
1F
100
AcDbEntity
  8
SLD-0
 62
   179
100
AcDbLine
 10
111.6988676419
 20
190.3160920017
 30
0.0
 11
111.7692684108
 21
190.1260612765
 31
0.0
  0
LINE
  5
72
330
1F
100
AcDbEntity
  8
SLD-0
 62
   179
100
AcDbLine
 10
111.7692684108
 20
190.1260612765
 30
0.0
 11
111.820077296
 21
189.9298818432
 31
0.0
  0
LINE
  5
73
330
1F
100
AcDbEntity
  8
SLD-0
 62
   179
100
AcDbLine
 10
111.820077296
 20
189.9298818432
 30
0.0
 11
111.8507727567
 21
189.7295678325
 31
0.0
  0
LINE
  5
74
330
1F
100
AcDbEntity
  8
SLD-0
 62
   179
100
AcDbLine
 10
111.8507727567
 20
189.7295678325
 30
0.0
 11
111.8610398896
 21
189.5271758665
 31
0.0
  0
LINE
  5
75
330
1F
100
AcDbEntity
  8
SLD-0
 62
   179
100
AcDbLine
 10
111.8610398896
 20
189.5271758665
 30
0.0
 11
111.8507727567
 21
189.3247839005
 31
0.0
  0
LINE
  5
76
330
1F
100
AcDbEntity
  8
SLD-0
 62
   179
100
AcDbLine
 10
111.8507727567
 20
189.3247839005
 30
0.0
 11
111.820077296
 21
189.1244698898
 31
0.0
  0
LINE
  5
77
330
1F
100
AcDbEntity
  8
SLD-0
 62
   179
100
AcDbLine
 10
111.820077296
 20
189.1244698898
 30
0.0
 11
111.7692684108
 21
188.9282904565
 31
0.0
  0
LINE
  5
78
330
1F
100
AcDbEntity
  8
SLD-0
 62
   179
100
AcDbLine
 10
111.7692684108
 20
188.9282904565
 30
0.0
 11
111.6988676419
 21
188.7382597313
 31
0.0
  0
LINE
  5
79
330
1F
100
AcDbEntity
  8
SLD-0
 62
   179
100
AcDbLine
 10
111.6988676419
 20
188.7382597313
 30
0.0
 11
111.6095980449
 21
188.5563288349
 31
0.0
  0
LINE
  5
7A
330
1F
100
AcDbEntity
  8
SLD-0
 62
   179
100
AcDbLine
 10
111.6095980449
 20
188.5563288349
 30
0.0
 11
111.502376041
 21
188.3843655348
 31
0.0
  0
LINE
  5
7B
330
1F
100
AcDbEntity
  8
SLD-0
 62
   179
100
AcDbLine
 10
111.502376041
 20
188.3843655348
 30
0.0
 11
111.3783024536
 21
188.2241355604
 31
0.0
  0
LINE
  5
7C
330
1F
100
AcDbEntity
  8
SLD-0
 62
   179
100
AcDbLine
 10
111.3783024536
 20
188.2241355604
 30
0.0
 11
111.2386510992
 21
188.0772838019
 31
0.0
  0
LINE
  5
7D
330
1F
100
AcDbEntity
  8
SLD-0
 62
   179
100
AcDbLine
 10
111.2386510992
 20
188.0772838019
 30
0.0
 11
111.0848559817
 21
187.9453180707
 31
0.0
  0
LINE
  5
7E
330
1F
100
AcDbEntity
  8
SLD-0
 62
   179
100
AcDbLine
 10
111.0848559817
 20
187.9453180707
 30
0.0
 11
110.9184958093
 21
187.8295932081
 31
0.0
  0
LINE
  5
7F
330
1F
100
AcDbEntity
  8
SLD-0
 62
   179
100
AcDbLine
 10
110.9184958093
 20
187.8295932081
 30
0.0
 11
110.7412788603
 21
187.7312974655
 31
0.0
  0
LINE
  5
80
330
1F
100
AcDbEntity
  8
SLD-0
 62
   179
100
AcDbLine
 10
110.7412788603
 20
187.7312974655
 30
0.0
 11
110.5550244736
 21
187.6514399307
 31
0.0
  0
LINE
  5
81
330
1F
100
AcDbEntity
  8
SLD-0
 62
   179
100
AcDbLine
 10
109.1670551157
 20
187.6514399307
 30
0.0
 11
108.9808007289
 21
187.7312974655
 31
0.0
  0
LINE
  5
82
330
1F
100
AcDbEntity
  8
SLD-0
 62
   179
100
AcDbLine
 10
108.9808007289
 20
187.7312974655
 30
0.0
 11
108.8035837799
 21
187.8295932081
 31
0.0
  0
LINE
  5
83
330
1F
100
AcDbEntity
  8
SLD-0
 62
   179
100
AcDbLine
 10
108.8035837799
 20
187.8295932081
 30
0.0
 11
108.6372236075
 21
187.9453180707
 31
0.0
  0
LINE
  5
84
330
1F
100
AcDbEntity
  8
SLD-0
 62
   179
100
AcDbLine
 10
108.6372236075
 20
187.9453180707
 30
0.0
 11
108.48342849
 21
188.0772838019
 31
0.0
  0
LINE
  5
85
330
1F
100
AcDbEntity
  8
SLD-0
 62
   179
100
AcDbLine
 10
108.48342849
 20
188.0772838019
 30
0.0
 11
108.3437771356
 21
188.2241355604
 31
0.0
  0
LINE
  5
86
330
1F
100
AcDbEntity
  8
SLD-0
 62
   179
100
AcDbLine
 10
108.3437771356
 20
188.2241355604
 30
0.0
 11
108.2197035482
 21
188.3843655348
 31
0.0
  0
LINE
  5
87
330
1F
100
AcDbEntity
  8
SLD-0
 62
   179
100
AcDbLine
 10
108.2197035482
 20
188.3843655348
 30
0.0
 11
108.1124815444
 21
188.5563288349
 31
0.0
  0
LINE
  5
88
330
1F
100
AcDbEntity
  8
SLD-0
 62
   179
100
AcDbLine
 10
108.1124815444
 20
188.5563288349
 30
0.0
 11
108.0232119473
 21
188.7382597313
 31
0.0
  0
LINE
  5
89
330
1F
100
AcDbEntity
  8
SLD-0
 62
   179
100
AcDbLine
 10
108.0232119473
 20
188.7382597313
 30
0.0
 11
107.9528111784
 21
188.9282904565
 31
0.0
  0
LINE
  5
8A
330
1F
100
AcDbEntity
  8
SLD-0
 62
   179
100
AcDbLine
 10
107.9528111784
 20
188.9282904565
 30
0.0
 11
107.9020022932
 21
189.1244698898
 31
0.0
  0
LINE
  5
8B
330
1F
100
AcDbEntity
  8
SLD-0
 62
   179
100
AcDbLine
 10
107.9020022932
 20
189.1244698898
 30
0.0
 11
107.8713068325
 21
189.3247839005
 31
0.0
  0
LINE
  5
8C
330
1F
100
AcDbEntity
  8
SLD-0
 62
   179
100
AcDbLine
 10
107.8713068325
 20
189.3247839005
 30
0.0
 11
107.8610396996
 21
189.5271758665
 31
0.0
  0
LINE
  5
8D
330
1F
100
AcDbEntity
  8
SLD-0
 62
   179
100
AcDbLine
 10
107.8610396996
 20
189.5271758665
 30
0.0
 11
107.8713068325
 21
189.7295678325
 31
0.0
  0
LINE
  5
8E
330
1F
100
AcDbEntity
  8
SLD-0
 62
   179
100
AcDbLine
 10
107.8713068325
 20
189.7295678325
 30
0.0
 11
107.9020022932
 21
189.9298818432
 31
0.0
  0
LINE
  5
8F
330
1F
100
AcDbEntity
  8
SLD-0
 62
   179
100
AcDbLine
 10
107.9020022932
 20
189.9298818432
 30
0.0
 11
107.9528111784
 21
190.1260612765
 31
0.0
  0
LINE
  5
90
330
1F
100
AcDbEntity
  8
SLD-0
 62
   179
100
AcDbLine
 10
107.9528111784
 20
190.1260612765
 30
0.0
 11
108.0232119473
 21
190.3160920017
 31
0.0
  0
LINE
  5
91
330
1F
100
AcDbEntity
  8
SLD-0
 62
   179
100
AcDbLine
 10
108.0232119473
 20
190.3160920017
 30
0.0
 11
108.1124815444
 21
190.4980228981
 31
0.0
  0
LINE
  5
92
330
1F
100
AcDbEntity
  8
SLD-0
 62
   179
100
AcDbLine
 10
108.1124815444
 20
190.4980228981
 30
0.0
 11
108.2197035482
 21
190.6699861982
 31
0.0
  0
LINE
  5
93
330
1F
100
AcDbEntity
  8
SLD-0
 62
   179
100
AcDbLine
 10
108.2197035482
 20
190.6699861982
 30
0.0
 11
108.3437771356
 21
190.8302161726
 31
0.0
  0
LINE
  5
94
330
1F
100
AcDbEntity
  8
SLD-0
 62
   179
100
AcDbLine
 10
108.3437771356
 20
190.8302161726
 30
0.0
 11
108.48342849
 21
190.9770679311
 31
0.0
  0
LINE
  5
95
330
1F
100
AcDbEntity
  8
SLD-0
 62
   179
100
AcDbLine
 10
108.48342849
 20
190.9770679311
 30
0.0
 11
108.6372236075
 21
191.1090336623
 31
0.0
  0
LINE
  5
96
330
1F
100
AcDbEntity
  8
SLD-0
 62
   179
100
AcDbLine
 10
108.6372236075
 20
191.1090336623
 30
0.0
 11
108.8035837799
 21
191.2247585249
 31
0.0
  0
LINE
  5
97
330
1F
100
AcDbEntity
  8
SLD-0
 62
   179
100
AcDbLine
 10
108.8035837799
 20
191.2247585249
 30
0.0
 11
108.9808007289
 21
191.3230542675
 31
0.0
  0
LINE
  5
98
330
1F
100
AcDbEntity
  8
SLD-0
 62
   179
100
AcDbLine
 10
108.9808007289
 20
191.3230542675
 30
0.0
 11
109.1670551157
 21
191.4029118023
 31
0.0
  0
LINE
  5
99
330
1F
100
AcDbEntity
  8
SLD-0
  6
HIDDEN
 62
   179
100
AcDbLine
 10
111.3686383521
 20
188.2129663252
 30
0.0
 11
111.3363590609
 21
188.1814313936
 31
0.0
  0
LINE
  5
9A
330
1F
100
AcDbEntity
  8
SLD-0
  6
HIDDEN
 62
   179
100
AcDbLine
 10
110.615305666
 20
187.6760019338
 30
0.0
 11
110.4992826638
 21
187.63686741
 31
0.0
  0
LINE
  5
9B
330
1F
100
AcDbEntity
  8
SLD-0
  6
HIDDEN
 62
   179
100
AcDbLine
 10
109.2410372855
 20
187.6288808533
 30
0.0
 11
109.1400079365
 21
187.664606038
 31
0.0
  0
LINE
  5
9C
330
1F
100
AcDbEntity
  8
SLD-0
  6
HIDDEN
 62
   179
100
AcDbLine
 10
108.4438604355
 20
188.1251653074
 30
0.0
 11
108.3534412371
 21
188.2129663252
 31
0.0
  0
LINE
  5
9D
330
1F
100
AcDbEntity
  8
SLD-0
  6
HIDDEN
 62
   179
100
AcDbLine
 10
108.3534412371
 20
190.8413854078
 30
0.0
 11
108.3857205283
 21
190.8729203394
 31
0.0
  0
LINE
  5
9E
330
1F
100
AcDbEntity
  8
SLD-0
  6
HIDDEN
 62
   179
100
AcDbLine
 10
109.1067739232
 20
191.3783497992
 30
0.0
 11
109.2227969254
 21
191.417484323
 31
0.0
  0
LINE
  5
9F
330
1F
100
AcDbEntity
  8
SLD-0
  6
HIDDEN
 62
   179
100
AcDbLine
 10
110.4810423037
 20
191.4254708797
 30
0.0
 11
110.5820716527
 21
191.389745695
 31
0.0
  0
LINE
  5
A0
330
1F
100
AcDbEntity
  8
SLD-0
  6
HIDDEN
 62
   179
100
AcDbLine
 10
111.2782191537
 20
190.9291864256
 30
0.0
 11
111.3686383521
 21
190.8413854078
 31
0.0
  0
LINE
  5
A1
330
1F
100
AcDbEntity
  8
SLD-0
  6
HIDDEN
 62
   179
100
AcDbLine
 10
109.1670551157
 20
191.4029118023
 30
0.0
 11
109.3357318948
 21
191.456956102
 31
0.0
  0
LINE
  5
A2
330
1F
100
AcDbEntity
  8
SLD-0
  6
HIDDEN
 62
   179
100
AcDbLine
 10
109.3357318948
 20
191.456956102
 30
0.0
 11
109.5085286995
 21
191.4958646637
 31
0.0
  0
LINE
  5
A3
330
1F
100
AcDbEntity
  8
SLD-0
  6
HIDDEN
 62
   179
100
AcDbLine
 10
109.5085286995
 20
191.4958646637
 30
0.0
 11
109.6840903244
 21
191.5193325956
 31
0.0
  0
LINE
  5
A4
330
1F
100
AcDbEntity
  8
SLD-0
  6
HIDDEN
 62
   179
100
AcDbLine
 10
109.6840903244
 20
191.5193325956
 30
0.0
 11
109.8610397946
 21
191.5271759615
 31
0.0
  0
LINE
  5
A5
330
1F
100
AcDbEntity
  8
SLD-0
  6
HIDDEN
 62
   179
100
AcDbLine
 10
109.8610397946
 20
191.5271759615
 30
0.0
 11
110.0379892648
 21
191.5193325956
 31
0.0
  0
LINE
  5
A6
330
1F
100
AcDbEntity
  8
SLD-0
  6
HIDDEN
 62
   179
100
AcDbLine
 10
110.0379892648
 20
191.5193325956
 30
0.0
 11
110.2135508897
 21
191.4958646637
 31
0.0
  0
LINE
  5
A7
330
1F
100
AcDbEntity
  8
SLD-0
  6
HIDDEN
 62
   179
100
AcDbLine
 10
110.2135508897
 20
191.4958646637
 30
0.0
 11
110.3863476944
 21
191.456956102
 31
0.0
  0
LINE
  5
A8
330
1F
100
AcDbEntity
  8
SLD-0
  6
HIDDEN
 62
   179
100
AcDbLine
 10
110.3863476944
 20
191.456956102
 30
0.0
 11
110.5550244736
 21
191.4029118023
 31
0.0
  0
LINE
  5
A9
330
1F
100
AcDbEntity
  8
SLD-0
  6
HIDDEN
 62
   179
100
AcDbLine
 10
110.5550244736
 20
187.6514399307
 30
0.0
 11
110.3863476944
 21
187.597395631
 31
0.0
  0
LINE
  5
AA
330
1F
100
AcDbEntity
  8
SLD-0
  6
HIDDEN
 62
   179
100
AcDbLine
 10
110.3863476944
 20
187.597395631
 30
0.0
 11
110.2135508897
 21
187.5584870693
 31
0.0
  0
LINE
  5
AB
330
1F
100
AcDbEntity
  8
SLD-0
  6
HIDDEN
 62
   179
100
AcDbLine
 10
110.2135508897
 20
187.5584870693
 30
0.0
 11
110.0379892648
 21
187.5350191374
 31
0.0
  0
LINE
  5
AC
330
1F
100
AcDbEntity
  8
SLD-0
  6
HIDDEN
 62
   179
100
AcDbLine
 10
110.0379892648
 20
187.5350191374
 30
0.0
 11
109.8610397946
 21
187.5271757715
 31
0.0
  0
LINE
  5
AD
330
1F
100
AcDbEntity
  8
SLD-0
  6
HIDDEN
 62
   179
100
AcDbLine
 10
109.8610397946
 20
187.5271757715
 30
0.0
 11
109.6840903244
 21
187.5350191374
 31
0.0
  0
LINE
  5
AE
330
1F
100
AcDbEntity
  8
SLD-0
  6
HIDDEN
 62
   179
100
AcDbLine
 10
109.6840903244
 20
187.5350191374
 30
0.0
 11
109.5085286995
 21
187.5584870693
 31
0.0
  0
LINE
  5
AF
330
1F
100
AcDbEntity
  8
SLD-0
  6
HIDDEN
 62
   179
100
AcDbLine
 10
109.5085286995
 20
187.5584870693
 30
0.0
 11
109.3357318948
 21
187.597395631
 31
0.0
  0
LINE
  5
B0
330
1F
100
AcDbEntity
  8
SLD-0
  6
HIDDEN
 62
   179
100
AcDbLine
 10
109.3357318948
 20
187.597395631
 30
0.0
 11
109.1670551157
 21
187.6514399307
 31
0.0
  0
LINE
  5
B1
330
1F
100
AcDbEntity
  8
SLD-0
  6
Continuous
 62
   179
100
AcDbLine
 10
111.5110397857
 20
148.2166237807
 30
0.0
 11
117.3610397946
 21
148.2166238768
 31
0.0
  0
LINE
  5
B2
330
1F
100
AcDbEntity
  8
SLD-0
  6
Continuous
 62
   179
100
AcDbLine
 10
102.3610397946
 20
148.2166238768
 30
0.0
 11
108.2110398035
 21
148.2166237807
 31
0.0
  0
LINE
  5
B3
330
1F
100
AcDbEntity
  8
SLD-0
  6
Continuous
 62
   179
100
AcDbLine
 10
117.3610397946
 20
154.6166238768
 30
0.0
 11
102.3610397946
 21
154.6166238768
 31
0.0
  0
LINE
  5
B4
330
1F
100
AcDbEntity
  8
SLD-0
  6
Continuous
 62
   179
100
AcDbLine
 10
102.3610397946
 20
154.6166238768
 30
0.0
 11
102.3610397946
 21
153.9020048534
 31
0.0
  0
LINE
  5
B5
330
1F
100
AcDbEntity
  8
SLD-0
  6
Continuous
 62
   179
100
AcDbLine
 10
117.3610397946
 20
154.6166238768
 30
0.0
 11
117.3610397946
 21
153.9020048534
 31
0.0
  0
LINE
  5
B6
330
1F
100
AcDbEntity
  8
SLD-0
  6
Continuous
 62
   179
100
AcDbLine
 10
102.3610397946
 20
153.9020048534
 30
0.0
 11
102.3610397946
 21
148.7090253448
 31
0.0
  0
LINE
  5
B7
330
1F
100
AcDbEntity
  8
SLD-0
  6
Continuous
 62
   179
100
AcDbLine
 10
117.3610397946
 20
153.9020048534
 30
0.0
 11
117.3610397946
 21
148.7090253448
 31
0.0
  0
LINE
  5
B8
330
1F
100
AcDbEntity
  8
SLD-0
  6
Continuous
 62
   179
100
AcDbLine
 10
117.3610397946
 20
148.7090253448
 30
0.0
 11
117.3610397946
 21
148.2166238768
 31
0.0
  0
LINE
  5
B9
330
1F
100
AcDbEntity
  8
SLD-0
  6
Continuous
 62
   179
100
AcDbLine
 10
102.3610397946
 20
148.7090253448
 30
0.0
 11
102.3610397946
 21
148.2166238768
 31
0.0
  0
LINE
  5
BA
330
1F
100
AcDbEntity
  8
SLD-0
  6
HIDDEN
 62
     8
100
AcDbLine
 10
117.3610397946
 20
154.6166238768
 30
0.0
 11
102.3610397946
 21
154.6166238768
 31
0.0
  0
LINE
  5
BB
330
1F
100
AcDbEntity
  8
SLD-0
  6
HIDDEN
 62
     8
100
AcDbLine
 10
102.3610397946
 20
154.5287559111
 30
0.0
 11
102.3610397946
 21
154.6166238768
 31
0.0
  0
LINE
  5
BC
330
1F
100
AcDbEntity
  8
SLD-0
  6
HIDDEN
 62
     8
100
AcDbLine
 10
117.3610397946
 20
154.5287559111
 30
0.0
 11
117.3610397946
 21
154.6166238768
 31
0.0
  0
LINE
  5
BD
330
1F
100
AcDbEntity
  8
SLD-0
  6
HIDDEN
 62
     8
100
AcDbLine
 10
102.3610397946
 20
154.0044918424
 30
0.0
 11
102.3610397946
 21
154.5287559111
 31
0.0
  0
LINE
  5
BE
330
1F
100
AcDbEntity
  8
SLD-0
  6
HIDDEN
 62
     8
100
AcDbLine
 10
117.3610397946
 20
154.0044918424
 30
0.0
 11
117.3610397946
 21
154.5287559111
 31
0.0
  0
LINE
  5
BF
330
1F
100
AcDbEntity
  8
SLD-0
  6
HIDDEN
 62
     8
100
AcDbLine
 10
117.3610397946
 20
153.9166238768
 30
0.0
 11
102.3610397946
 21
153.9166238768
 31
0.0
  0
LINE
  5
C0
330
1F
100
AcDbEntity
  8
SLD-0
  6
HIDDEN
 62
     8
100
AcDbLine
 10
102.3610397946
 20
153.9166238768
 30
0.0
 11
102.3610397946
 21
154.0044918424
 31
0.0
  0
LINE
  5
C1
330
1F
100
AcDbEntity
  8
SLD-0
  6
HIDDEN
 62
     8
100
AcDbLine
 10
117.3610397946
 20
153.9166238768
 30
0.0
 11
117.3610397946
 21
154.0044918424
 31
0.0
  0
LINE
  5
C2
330
1F
100
AcDbEntity
  8
SLD-0
  6
HIDDEN
 62
     8
100
AcDbLine
 10
108.2116662344
 20
153.9166238768
 30
0.0
 11
111.5104133548
 21
153.9166238768
 31
0.0
  0
LINE
  5
C3
330
1F
100
AcDbEntity
  8
SLD-0
  6
HIDDEN
 62
     8
100
AcDbLine
 10
117.3610397946
 20
148.2166238768
 30
0.0
 11
117.3610397946
 21
148.7090253448
 31
0.0
  0
LINE
  5
C4
330
1F
100
AcDbEntity
  8
SLD-0
  6
HIDDEN
 62
     8
100
AcDbLine
 10
102.3610397946
 20
148.2166238768
 30
0.0
 11
102.3610397946
 21
148.7090253448
 31
0.0
  0
LINE
  5
C5
330
1F
100
AcDbEntity
  8
SLD-0
  6
HIDDEN
 62
     8
100
AcDbLine
 10
102.3610397946
 20
148.7090253448
 30
0.0
 11
102.3610397946
 21
153.9020048534
 31
0.0
  0
LINE
  5
C6
330
1F
100
AcDbEntity
  8
SLD-0
  6
HIDDEN
 62
     8
100
AcDbLine
 10
117.3610397946
 20
148.7090253448
 30
0.0
 11
117.3610397946
 21
153.9020048534
 31
0.0
  0
LINE
  5
C7
330
1F
100
AcDbEntity
  8
SLD-0
  6
HIDDEN
 62
     8
100
AcDbLine
 10
117.3610397946
 20
153.9166238768
 30
0.0
 11
102.3610397946
 21
153.9166238768
 31
0.0
  0
LINE
  5
C8
330
1F
100
AcDbEntity
  8
SLD-0
  6
HIDDEN
 62
     8
100
AcDbLine
 10
102.3610397946
 20
154.0044918424
 30
0.0
 11
102.3610397946
 21
153.9166238768
 31
0.0
  0
LINE
  5
C9
330
1F
100
AcDbEntity
  8
SLD-0
  6
HIDDEN
 62
     8
100
AcDbLine
 10
117.3610397946
 20
154.0044918424
 30
0.0
 11
117.3610397946
 21
153.9166238768
 31
0.0
  0
LINE
  5
CA
330
1F
100
AcDbEntity
  8
SLD-0
  6
HIDDEN
 62
     8
100
AcDbLine
 10
102.3610397946
 20
154.5287559111
 30
0.0
 11
102.3610397946
 21
154.0044918424
 31
0.0
  0
LINE
  5
CB
330
1F
100
AcDbEntity
  8
SLD-0
  6
HIDDEN
 62
     8
100
AcDbLine
 10
117.3610397946
 20
154.5287559111
 30
0.0
 11
117.3610397946
 21
154.0044918424
 31
0.0
  0
LINE
  5
CC
330
1F
100
AcDbEntity
  8
SLD-0
  6
HIDDEN
 62
     8
100
AcDbLine
 10
117.3610397946
 20
154.6166238768
 30
0.0
 11
102.3610397946
 21
154.6166238768
 31
0.0
  0
LINE
  5
CD
330
1F
100
AcDbEntity
  8
SLD-0
  6
HIDDEN
 62
     8
100
AcDbLine
 10
102.3610397946
 20
154.6166238768
 30
0.0
 11
102.3610397946
 21
154.5287559111
 31
0.0
  0
LINE
  5
CE
330
1F
100
AcDbEntity
  8
SLD-0
  6
HIDDEN
 62
     8
100
AcDbLine
 10
117.3610397946
 20
154.6166238768
 30
0.0
 11
117.3610397946
 21
154.5287559111
 31
0.0
  0
LINE
  5
CF
330
1F
100
AcDbEntity
  8
SLD-0
  6
HIDDEN
 62
     8
100
AcDbLine
 10
117.3610397946
 20
154.6166238768
 30
0.0
 11
102.3610397946
 21
154.6166238768
 31
0.0
  0
LINE
  5
D0
330
1F
100
AcDbEntity
  8
SLD-0
  6
HIDDEN
 62
     8
100
AcDbLine
 10
102.3610397946
 20
153.9020048534
 30
0.0
 11
102.3610397946
 21
154.6166238768
 31
0.0
  0
LINE
  5
D1
330
1F
100
AcDbEntity
  8
SLD-0
  6
HIDDEN
 62
     8
100
AcDbLine
 10
117.3610397946
 20
153.9020048534
 30
0.0
 11
117.3610397946
 21
154.6166238768
 31
0.0
  0
LINE
  5
D2
330
1F
100
AcDbEntity
  8
SLD-0
 62
   179
100
AcDbLine
 10
108.3534412371
 20
148.7090252017
 30
0.0
 11
108.2480796665
 21
148.6036637475
 31
0.0
  0
LINE
  5
D3
330
1F
100
AcDbEntity
  8
SLD-0
 62
   179
100
AcDbLine
 10
108.2480796665
 20
148.6036637475
 30
0.0
 11
107.8610396996
 21
148.2166237807
 31
0.0
  0
LINE
  5
D4
330
1F
100
AcDbEntity
  8
SLD-0
 62
   179
100
AcDbLine
 10
111.3686383521
 20
148.7090252017
 30
0.0
 11
111.1402801523
 21
148.9072381196
 31
0.0
  0
LINE
  5
D5
330
1F
100
AcDbEntity
  8
SLD-0
 62
   179
100
AcDbLine
 10
111.1402801523
 20
148.9072381196
 30
0.0
 11
110.8684176631
 21
149.0824059261
 31
0.0
  0
LINE
  5
D6
330
1F
100
AcDbEntity
  8
SLD-0
 62
   179
100
AcDbLine
 10
110.8684176631
 20
149.0824059261
 30
0.0
 11
110.6290204968
 21
149.1946046849
 31
0.0
  0
LINE
  5
D7
330
1F
100
AcDbEntity
  8
SLD-0
 62
   179
100
AcDbLine
 10
110.6290204968
 20
149.1946046849
 30
0.0
 11
110.3667929471
 21
149.2796563221
 31
0.0
  0
LINE
  5
D8
330
1F
100
AcDbEntity
  8
SLD-0
 62
   179
100
AcDbLine
 10
110.3667929471
 20
149.2796563221
 30
0.0
 11
110.0837420142
 21
149.330504672
 31
0.0
  0
LINE
  5
D9
330
1F
100
AcDbEntity
  8
SLD-0
 62
   179
100
AcDbLine
 10
110.0837420142
 20
149.330504672
 30
0.0
 11
109.7920926311
 21
149.3418402647
 31
0.0
  0
LINE
  5
DA
330
1F
100
AcDbEntity
  8
SLD-0
 62
   179
100
AcDbLine
 10
109.7920926311
 20
149.3418402647
 30
0.0
 11
109.5460190606
 21
149.3184347314
 31
0.0
  0
LINE
  5
DB
330
1F
100
AcDbEntity
  8
SLD-0
 62
   179
100
AcDbLine
 10
109.5460190606
 20
149.3184347314
 30
0.0
 11
109.3086443777
 21
149.2672706632
 31
0.0
  0
LINE
  5
DC
330
1F
100
AcDbEntity
  8
SLD-0
 62
   179
100
AcDbLine
 10
109.3086443777
 20
149.2672706632
 30
0.0
 11
109.0833148971
 21
149.1907629793
 31
0.0
  0
LINE
  5
DD
330
1F
100
AcDbEntity
  8
SLD-0
 62
   179
100
AcDbLine
 10
109.0833148971
 20
149.1907629793
 30
0.0
 11
108.8753409037
 21
149.094067016
 31
0.0
  0
LINE
  5
DE
330
1F
100
AcDbEntity
  8
SLD-0
 62
   179
100
AcDbLine
 10
108.8753409037
 20
149.094067016
 30
0.0
 11
108.5910343152
 21
148.9141476018
 31
0.0
  0
LINE
  5
DF
330
1F
100
AcDbEntity
  8
SLD-0
 62
   179
100
AcDbLine
 10
108.5910343152
 20
148.9141476018
 30
0.0
 11
108.3534412371
 21
148.7090252017
 31
0.0
  0
LINE
  5
E0
330
1F
100
AcDbEntity
  8
SLD-0
 62
   179
100
AcDbLine
 10
111.8610398896
 20
148.2166237807
 30
0.0
 11
111.8592612963
 21
148.2184021411
 31
0.0
  0
LINE
  5
E1
330
1F
100
AcDbEntity
  8
SLD-0
 62
   179
100
AcDbLine
 10
111.8592612963
 20
148.2184021411
 30
0.0
 11
111.3686383521
 21
148.7090252017
 31
0.0
  0
LINE
  5
E2
330
1F
100
AcDbEntity
  8
SLD-0
  6
CENTERX2
 62
   179
100
AcDbLine
 10
109.8610397946
 20
146.7090253448
 30
0.0
 11
109.8610397946
 21
155.9166238768
 31
0.0
  0
LINE
  5
E3
330
1F
100
AcDbEntity
  8
SLD-0
  6
Continuous
 62
   179
100
AcDbLine
 10
69.9816665812
 20
154.0044918424
 30
0.0
 11
70.5059306499
 21
154.5287559111
 31
0.0
  0
LINE
  5
E4
330
1F
100
AcDbEntity
  8
SLD-0
  6
Continuous
 62
   179
100
AcDbLine
 10
70.7180626843
 20
154.6166238768
 30
0.0
 11
72.6937986156
 21
154.6166238768
 31
0.0
  0
LINE
  5
E5
330
1F
100
AcDbEntity
  8
SLD-0
  6
Continuous
 62
   179
100
AcDbLine
 10
63.0937986156
 20
154.6166238768
 30
0.0
 11
65.0695345469
 21
154.6166238768
 31
0.0
  0
LINE
  5
E6
330
1F
100
AcDbEntity
  8
SLD-0
  6
Continuous
 62
   179
100
AcDbLine
 10
65.2816665813
 20
154.5287559112
 30
0.0
 11
65.8059306499
 21
154.0044918424
 31
0.0
  0
LINE
  5
E7
330
1F
100
AcDbEntity
  8
SLD-0
  6
Continuous
 62
   179
100
AcDbLine
 10
66.0180626843
 20
153.9166238768
 30
0.0
 11
69.7695345469
 21
153.9166238768
 31
0.0
  0
LINE
  5
E8
330
1F
100
AcDbEntity
  8
SLD-0
 62
   179
100
AcDbLine
 10
69.8937987106
 20
149.3391440859
 30
0.0
 11
69.8937987106
 21
149.3430053493
 31
0.0
  0
LINE
  5
E9
330
1F
100
AcDbEntity
  8
SLD-0
 62
   179
100
AcDbLine
 10
65.8937985206
 20
149.3430053493
 30
0.0
 11
65.8937985206
 21
149.3391440859
 31
0.0
  0
LINE
  5
EA
330
1F
100
AcDbEntity
  8
SLD-0
  6
CENTERX2
 62
   179
100
AcDbLine
 10
67.8937986156
 20
146.7090253448
 30
0.0
 11
67.8937986156
 21
155.9166238768
 31
0.0
  0
CIRCLE
  5
EB
330
1F
100
AcDbEntity
  8
SLD-0
  6
Continuous
 62
   179
100
AcDbCircle
 10
109.8610397946
 20
189.5271758665
 30
0.0
 40
1.650000000000006
  0
ARC
  5
EC
330
1F
100
AcDbEntity
  8
SLD-0
  6
Continuous
 62
   179
100
AcDbCircle
 10
109.8610397946
 20
147.20580147
 30
0.0
 40
1.804171528400007
100
AcDbArc
 50
56.4281841468
 51
123.5718158533
  0
ARC
  5
ED
330
1F
100
AcDbEntity
  8
SLD-0
  6
Continuous
 62
   179
100
AcDbCircle
 10
113.8424815093
 20
141.4344706346
 30
0.0
 40
8.815369361687447
100
AcDbArc
 50
124.38994036
 51
129.7039489829
  0
ARC
  5
EE
330
1F
100
AcDbEntity
  8
SLD-0
  6
Continuous
 62
   179
100
AcDbCircle
 10
105.9128720548
 20
141.4785514988
 30
0.0
 40
8.760199770518888
100
AcDbArc
 50
50.2793057365
 51
55.6268049213
  0
ARC
  5
EF
330
1F
100
AcDbEntity
  8
SLD-0
  6
HIDDEN
 62
     8
100
AcDbCircle
 10
105.87959808
 20
141.4344706347
 30
0.0
 40
8.815369361546603
100
AcDbArc
 50
50.2960510172
 51
55.6100596402
  0
ARC
  5
F0
330
1F
100
AcDbEntity
  8
SLD-0
  6
HIDDEN
 62
     8
100
AcDbCircle
 10
109.8610397946
 20
147.20580147
 30
0.0
 40
1.804171528400007
100
AcDbArc
 50
56.4281841468
 51
123.5718158533
  0
ARC
  5
F1
330
1F
100
AcDbEntity
  8
SLD-0
  6
HIDDEN
 62
     8
100
AcDbCircle
 10
113.8092075347
 20
141.4785514986
 30
0.0
 40
8.76019977086442
100
AcDbArc
 50
124.3731950795
 51
129.7206942641
  0
ARC
  5
F2
330
1F
100
AcDbEntity
  8
SLD-0
  6
Continuous
 62
   179
100
AcDbCircle
 10
70.7180626843
 20
154.3166238768
 30
0.0
 40
0.3000000000000114
100
AcDbArc
 50
90.0
 51
135.0000000119
  0
ARC
  5
F3
330
1F
100
AcDbEntity
  8
SLD-0
  6
Continuous
 62
   179
100
AcDbCircle
 10
72.6937986156
 20
154.1166238768
 30
0.0
 40
0.5
100
AcDbArc
 50
334.5807856114
 51
90.0
  0
ARC
  5
F4
330
1F
100
AcDbEntity
  8
SLD-0
  6
Continuous
 62
   179
100
AcDbCircle
 10
58.694331965
 20
160.7698136005
 30
0.0
 40
16.00000000002608
100
AcDbArc
 50
311.0794373954
 51
334.5807856116
  0
ARC
  5
F5
330
1F
100
AcDbEntity
  8
SLD-0
  6
Continuous
 62
   179
100
AcDbCircle
 10
67.8937986156
 20
150.2166238768
 30
0.0
 40
2.000000000003271
100
AcDbArc
 50
228.9205626046
 51
311.0794373934
  0
ARC
  5
F6
330
1F
100
AcDbEntity
  8
SLD-0
  6
Continuous
 62
   179
100
AcDbCircle
 10
77.0932652661
 20
160.7698136005
 30
0.0
 40
16.0
100
AcDbArc
 50
205.4192143886
 51
228.9205626047
  0
ARC
  5
F7
330
1F
100
AcDbEntity
  8
SLD-0
  6
Continuous
 62
   179
100
AcDbCircle
 10
65.0695345469
 20
154.3166238768
 30
0.0
 40
0.2999999999999843
100
AcDbArc
 50
45.0
 51
90.0
  0
ARC
  5
F8
330
1F
100
AcDbEntity
  8
SLD-0
  6
Continuous
 62
   179
100
AcDbCircle
 10
66.0180626843
 20
154.2166238768
 30
0.0
 40
0.3000000000622856
100
AcDbArc
 50
225.0
 51
270.0
  0
ARC
  5
F9
330
1F
100
AcDbEntity
  8
SLD-0
  6
Continuous
 62
   179
100
AcDbCircle
 10
69.7695345469
 20
154.2166238768
 30
0.0
 40
0.3000000000000114
100
AcDbArc
 50
270.0
 51
314.9999999849
  0
ARC
  5
FA
330
1F
100
AcDbEntity
  8
SLD-0
  6
Continuous
 62
   179
100
AcDbCircle
 10
63.0937986156
 20
154.1166238768
 30
0.0
 40
0.5000000000642326
100
AcDbArc
 50
90.0
 51
205.4192143908
  0
DIMENSION
  5
FB
330
1F
100
AcDbEntity
  8
SLD-0
 62
     7
100
AcDbDimension
  2
*D4
 10
117.3610397946
 20
202.0422252574
 30
0.0
 11
113.6110397946
 21
202.0422252574
 31
0.0
 70
   160
 71
     1
 42
7.5
  3
SLDDIMSTYLE0
100
AcDbAlignedDimension
 13
109.8610397946
 23
193.6771758665
 33
0.0
 14
117.3610397946
 24
194.8271758665
 34
0.0
100
AcDbRotatedDimension
1001
ACAD
1000
DSTYLE
1002
{
1070
    77
1070
     3
1070
   143
1040
0.0393700787
1070
    41
1040
3.0
1070
    44
1040
1.0
1070
    42
1040
1.0
1070
   147
1040
1.524
1070
    73
1070
     0
1070
    74
1070
     0
1070
   140
1040
3.5
1070
   284
1070
    12
1070
    78
1070
    12
1002
}
  0
DIMENSION
  5
11A
330
1F
100
AcDbEntity
  8
SLD-0
 62
     7
100
AcDbDimension
  2
*D6
 10
102.3610397946
 20
209.1075672969
 30
0.0
 11
109.8610397946
 21
209.1075672969
 31
0.0
 70
   160
 71
     1
 42
15.0
  3
SLDDIMSTYLE1
100
AcDbAlignedDimension
 13
117.3610397946
 23
194.8271758665
 33
0.0
 14
102.3610397946
 24
194.8271758665
 34
0.0
100
AcDbRotatedDimension
1001
ACAD
1000
DSTYLE
1002
{
1070
    77
1070
     3
1070
   143
1040
0.0393700787
1070
    41
1040
3.0
1070
    44
1040
1.0
1070
    42
1040
1.0
1070
   147
1040
1.524
1070
    73
1070
     0
1070
    74
1070
     0
1070
   140
1040
3.5
1070
   284
1070
    12
1070
    78
1070
    12
1002
}
  0
DIMENSION
  5
132
330
1F
100
AcDbEntity
  8
SLD-0
 62
     7
100
AcDbDimension
  2
*D7
 10
139.9564547677
 20
194.8271758665
 30
0.0
 11
139.9564547677
 21
177.2406773623
 31
0.0
 70
   160
 71
     1
 42
10.6
  3
SLDDIMSTYLE0
100
AcDbAlignedDimension
 13
117.3610397946
 23
184.2271758665
 33
0.0
 14
117.3610397946
 24
194.8271758665
 34
0.0
 50
90.0
100
AcDbRotatedDimension
1001
ACAD
1000
DSTYLE
1002
{
1070
    77
1070
     3
1070
   143
1040
0.0393700787
1070
    41
1040
3.0
1070
    44
1040
1.0
1070
    42
1040
1.0
1070
   147
1040
1.524
1070
    73
1070
     0
1070
    74
1070
     0
1070
   140
1040
3.5
1070
   284
1070
    12
1070
    78
1070
    12
1002
}
  0
DIMENSION
  5
14B
330
1F
100
AcDbEntity
  8
SLD-0
 62
     7
100
AcDbDimension
  2
*D8
 10
128.4252181712
 20
184.2271758665
 30
0.0
 11
128.4252181712
 21
177.2406773623
 31
0.0
 70
   160
 71
     1
 42
5.3
  3
SLDDIMSTYLE0
100
AcDbAlignedDimension
 13
114.0110397946
 23
189.5271758665
 33
0.0
 14
117.3610397946
 24
184.2271758665
 34
0.0
 50
90.0
100
AcDbRotatedDimension
1001
ACAD
1000
DSTYLE
1002
{
1070
    77
1070
     3
1070
   143
1040
0.0393700787
1070
    41
1040
3.0
1070
    44
1040
1.0
1070
    42
1040
1.0
1070
   147
1040
1.524
1070
    73
1070
     0
1070
    74
1070
     0
1070
   140
1040
3.5
1070
   284
1070
    12
1070
    78
1070
    12
1002
}
  0
DIMENSION
  5
166
330
1F
100
AcDbEntity
  8
SLD-0
 62
     7
100
AcDbDimension
  2
*D9
 10
2.0059877808
 20
3.4606371797
 30
0.0
 11
96.8498848839
 21
-5.1909563104
 31
0.0
 70
   163
  1
M<><>
 71
     1
 42
3.9999995833
  3
SLDDIMSTYLE2
100
AcDbDiametricDimension
 15
0.0
 25
0.0
 35
0.0
 40
0.0
1001
ACAD
1000
DSTYLE
1002
{
1070
    77
1070
     0
1070
   143
1040
0.0393700787
1070
    41
1040
3.0
1070
    44
1040
1.0
1070
    42
1040
1.0
1070
   147
1040
1.524
1070
    73
1070
     1
1070
    74
1070
     1
1070
   140
1040
3.5
1070
   284
1070
    12
1070
    78
1070
    12
1002
}
  0
MTEXT
  5
178
330
1F
100
AcDbEntity
  8
SLD-0
 62
     7
100
AcDbMText
 10
155.026809513
 20
17.9793822754
 30
0.0
 40
4.2333333333
 41
0.0
 71
     1
 72
     1
  1
131061
  7
SLDTEXTSTYLE1
 73
     1
 44
1.0
  0
MTEXT
  5
179
330
1F
100
AcDbEntity
  8
SLD-0
 62
     7
100
AcDbMText
 10
147.3059509415
 20
29.7138882404
 30
0.0
 40
4.2333333333
 41
0.0
 71
     1
 72
     1
  1
N01914-108-0
  7
SLDTEXTSTYLE1
 73
     1
 44
1.0
  0
MTEXT
  5
17A
330
1F
100
AcDbEntity
  8
SLD-0
 62
     7
100
AcDbMText
 10
155.2151308044
 20
43.2377018572
 30
0.0
 40
4.2333333333
 41
0.0
 71
     1
 72
     1
  1
Nut M6
  7
SLDTEXTSTYLE1
 73
     1
 44
1.0
  0
INSERT
  5
17B
330
1F
100
AcDbEntity
  8
0
  6
Continuous
 62
     7
370
     0
100
AcDbBlockReference
  2
SURFACEFINISH39
 10
176.1663369538
 20
249.0193918395
 30
0.0
  0
INSERT
  5
17C
330
1F
100
AcDbEntity
  8
0
  6
Continuous
 62
     7
370
     0
100
AcDbBlockReference
  2
注記
 10
99.9476718122
 20
61.9601111449
 30
0.0
  0
INSERT
  5
17D
330
1F
100
AcDbEntity
  8
0
  6
Continuous
 62
     7
370
     0
100
AcDbBlockReference
  2
SW_CENTERMARK0
 10
0.0
 20
0.0
 30
0.0
  0
ENDSEC
  0
SECTION
  2
OBJECTS
  0
DICTIONARY
  5
C
330
0
100
AcDbDictionary
281
     1
  3
ACAD_GROUP
350
D
  3
ACAD_LAYOUT
350
1A
  3
ACAD_MLINESTYLE
350
17
  3
ACAD_PLOTSETTINGS
350
19
  3
ACAD_PLOTSTYLENAME
350
E
  0
DICTIONARY
  5
D
102
{ACAD_REACTORS
330
C
102
}
330
C
100
AcDbDictionary
281
     1
  0
DICTIONARY
  5
1A
102
{ACAD_REACTORS
330
C
102
}
330
C
100
AcDbDictionary
281
     1
  3
Layout1
350
1E
  3
Layout2
350
26
  3
Model
350
22
  0
DICTIONARY
  5
17
102
{ACAD_REACTORS
330
C
102
}
330
C
100
AcDbDictionary
281
     1
  3
Standard
350
18
  0
DICTIONARY
  5
19
102
{ACAD_REACTORS
330
C
102
}
330
C
100
AcDbDictionary
281
     1
  0
ACDBDICTIONARYWDFLT
  5
E
102
{ACAD_REACTORS
330
C
102
}
330
C
100
AcDbDictionary
281
     1
  3
Normal
350
F
100
AcDbDictionaryWithDefault
340
F
  0
LAYOUT
  5
1E
102
{ACAD_REACTORS
330
1A
102
}
330
1A
100
AcDbPlotSettings
  1

  2

  4

  6

 40
0.0
 41
0.0
 42
0.0
 43
0.0
 44
0.0
 45
0.0
 46
0.0
 47
0.0
 48
0.0
 49
0.0
140
0.0
141
0.0
142
1.0
143
1.0
 70
   688
 72
     0
 73
     0
 74
     5
  7

 75
    16
147
1.0
148
0.0
149
0.0
100
AcDbLayout
  1
Layout1
 70
     1
 71
     1
 10
0.0
 20
0.0
 11
0.0
 21
0.0
 12
0.0
 22
0.0
 32
0.0
 14
0.0
 24
0.0
 34
0.0
 15
0.0
 25
0.0
 35
0.0
146
0.0
 13
0.0
 23
0.0
 33
0.0
 16
1.0
 26
0.0
 36
0.0
 17
0.0
 27
1.0
 37
0.0
 76
     0
330
1B
  0
LAYOUT
  5
26
102
{ACAD_REACTORS
330
1A
102
}
330
1A
100
AcDbPlotSettings
  1

  2

  4

  6

 40
0.0
 41
0.0
 42
0.0
 43
0.0
 44
0.0
 45
0.0
 46
0.0
 47
0.0
 48
0.0
 49
0.0
140
0.0
141
0.0
142
1.0
143
1.0
 70
   688
 72
     0
 73
     0
 74
     5
  7

 75
    16
147
1.0
148
0.0
149
0.0
100
AcDbLayout
  1
Layout2
 70
     1
 71
     2
 10
0.0
 20
0.0
 11
0.0
 21
0.0
 12
0.0
 22
0.0
 32
0.0
 14
0.0
 24
0.0
 34
0.0
 15
0.0
 25
0.0
 35
0.0
146
0.0
 13
0.0
 23
0.0
 33
0.0
 16
1.0
 26
0.0
 36
0.0
 17
0.0
 27
1.0
 37
0.0
 76
     0
330
23
  0
LAYOUT
  5
22
102
{ACAD_REACTORS
330
1A
102
}
330
1A
100
AcDbPlotSettings
  1

  2

  4

  6

 40
0.0
 41
0.0
 42
0.0
 43
0.0
 44
0.0
 45
0.0
 46
0.0
 47
0.0
 48
0.0
 49
0.0
140
0.0
141
0.0
142
1.0
143
1.0
 70
  1712
 72
     0
 73
     0
 74
     0
  7

 75
     0
147
1.0
148
0.0
149
0.0
100
AcDbLayout
  1
Model
 70
     1
 71
     0
 10
0.0
 20
0.0
 11
0.0
 21
0.0
 12
0.0
 22
0.0
 32
0.0
 14
0.0
 24
0.0
 34
0.0
 15
210.0
 25
297.0
 35
0.0
146
0.0
 13
0.0
 23
0.0
 33
0.0
 16
1.0
 26
0.0
 36
0.0
 17
0.0
 27
1.0
 37
0.0
 76
     0
330
1F
  0
MLINESTYLE
  5
18
102
{ACAD_REACTORS
330
17
102
}
330
17
100
AcDbMlineStyle
  2
Standard
 70
     0
  3

 62
   256
 51
90.0
 52
90.0
 71
     2
 49
0.5
 62
   256
  6
BYLAYER
 49
-0.5
 62
   256
  6
BYLAYER
  0
ACDBPLACEHOLDER
  5
F
102
{ACAD_REACTORS
330
E
102
}
330
E
  0
ENDSEC
  0
EOF
