  0
SECTION
  2
HEADER
  9
$ACADVER
  1
AC1015
  9
$ACADMAINTVER
 70
     6
  9
$DWGCODEPAGE
  3
DOS932
  9
$INSBASE
 10
0.0
 20
0.0
 30
0.0
  9
$EXTMIN
 10
0.0
 20
0.0
 30
0.0
  9
$EXTMAX
 10
210.0
 20
297.0
 30
0.0
  9
$LIMMIN
 10
0.0
 20
0.0
  9
$LIMMAX
 10
0.0
 20
0.0
  9
$ORTHOMODE
 70
     0
  9
$REGENMODE
 70
     1
  9
$FILLMODE
 70
     1
  9
$QTEXTMODE
 70
     0
  9
$MIRRTEXT
 70
     1
  9
$LTSCALE
 40
1.0
  9
$ATTMODE
 70
     1
  9
$TEXTSIZE
 40
3.5
  9
$TRACEWID
 40
1.0
  9
$TEXTSTYLE
  7
Standard
  9
$CLAYER
  8
0
  9
$CELTYPE
  6
ByLayer
  9
$CECOLOR
 62
   256
  9
$CELTSCALE
 40
1.0
  9
$DISPSILH
 70
     0
  9
$DIMSCALE
 40
1.0
  9
$DIMASZ
 40
3.0
  9
$DIMEXO
 40
1.0
  9
$DIMDLI
 40
3.75
  9
$DIMRND
 40
0.0
  9
$DIMDLE
 40
0.0
  9
$DIMEXE
 40
1.0
  9
$DIMTP
 40
0.0
  9
$DIMTM
 40
0.0
  9
$DIMTXT
 40
3.5
  9
$DIMCEN
 40
2.5
  9
$DIMTSZ
 40
0.0
  9
$DIMTOL
 70
     0
  9
$DIMLIM
 70
     0
  9
$DIMTIH
 70
     1
  9
$DIMTOH
 70
     1
  9
$DIMSE1
 70
     0
  9
$DIMSE2
 70
     0
  9
$DIMTAD
 70
     1
  9
$DIMZIN
 70
     1
  9
$DIMBLK
  1

  9
$DIMASO
 70
     1
  9
$DIMSHO
 70
     1
  9
$DIMPOST
  1

  9
$DIMAPOST
  1

  9
$DIMALT
 70
     0
  9
$DIMALTD
 70
     3
  9
$DIMALTF
 40
0.0393700787
  9
$DIMLFAC
 40
1.0
  9
$DIMTOFL
 70
     1
  9
$DIMTVP
 40
0.0
  9
$DIMTIX
 70
     0
  9
$DIMSOXD
 70
     0
  9
$DIMSAH
 70
     0
  9
$DIMBLK1
  1

  9
$DIMBLK2
  1

  9
$DIMSTYLE
  2
ISO-25
  9
$DIMCLRD
 70
     0
  9
$DIMCLRE
 70
     0
  9
$DIMCLRT
 70
     0
  9
$DIMTFAC
 40
1.0
  9
$DIMGAP
 40
1.524
  9
$DIMJUST
 70
     0
  9
$DIMSD1
 70
     0
  9
$DIMSD2
 70
     0
  9
$DIMTOLJ
 70
     0
  9
$DIMTZIN
 70
     1
  9
$DIMALTZ
 70
     0
  9
$DIMALTTZ
 70
     0
  9
$DIMUPT
 70
     0
  9
$DIMDEC
 70
     2
  9
$DIMTDEC
 70
     2
  9
$DIMALTU
 70
     2
  9
$DIMALTTD
 70
     3
  9
$DIMTXSTY
  7
Standard
  9
$DIMAUNIT
 70
     0
  9
$DIMADEC
 70
     0
  9
$DIMALTRND
 40
0.0
  9
$DIMAZIN
 70
     0
  9
$DIMDSEP
 70
    44
  9
$DIMATFIT
 70
     3
  9
$DIMFRAC
 70
     0
  9
$DIMLDRBLK
  1

  9
$DIMLUNIT
 70
     2
  9
$DIMLWD
 70
    -2
  9
$DIMLWE
 70
    -2
  9
$DIMTMOVE
 70
     0
  9
$LUNITS
 70
     2
  9
$LUPREC
 70
     1
  9
$SKETCHINC
 40
1.0
  9
$FILLETRAD
 40
10.0
  9
$AUNITS
 70
     0
  9
$AUPREC
 70
     0
  9
$MENU
  1
.
  9
$ELEVATION
 40
0.0
  9
$PELEVATION
 40
0.0
  9
$THICKNESS
 40
0.0
  9
$LIMCHECK
 70
     0
  9
$CHAMFERA
 40
10.0
  9
$CHAMFERB
 40
10.0
  9
$CHAMFERC
 40
20.0
  9
$CHAMFERD
 40
0.0
  9
$SKPOLY
 70
     0
  9
$TDCREATE
 40
2454322.441764317
  9
$TDUCREATE
 40
2454322.066764317
  9
$TDUPDATE
 40
2454322.441764329
  9
$TDUUPDATE
 40
2454322.066764329
  9
$TDINDWG
 40
0.0000000116
  9
$TDUSRTIMER
 40
0.0000000116
  9
$USRTIMER
 70
     1
  9
$ANGBASE
 50
0.0
  9
$ANGDIR
 70
     0
  9
$PDMODE
 70
     0
  9
$PDSIZE
 40
-1.0
  9
$PLINEWID
 40
0.0
  9
$SPLFRAME
 70
     0
  9
$SPLINETYPE
 70
     6
  9
$SPLINESEGS
 70
     8
  9
$HANDSEED
  5
1A9
  9
$SURFTAB1
 70
     6
  9
$SURFTAB2
 70
     6
  9
$SURFTYPE
 70
     6
  9
$SURFU
 70
     6
  9
$SURFV
 70
     6
  9
$UCSBASE
  2

  9
$UCSNAME
  2

  9
$UCSORG
 10
0.0
 20
0.0
 30
0.0
  9
$UCSXDIR
 10
1.0
 20
0.0
 30
0.0
  9
$UCSYDIR
 10
0.0
 20
1.0
 30
0.0
  9
$UCSORTHOREF
  2

  9
$UCSORTHOVIEW
 70
     0
  9
$UCSORGTOP
 10
0.0
 20
0.0
 30
0.0
  9
$UCSORGBOTTOM
 10
0.0
 20
0.0
 30
0.0
  9
$UCSORGLEFT
 10
0.0
 20
0.0
 30
0.0
  9
$UCSORGRIGHT
 10
0.0
 20
0.0
 30
0.0
  9
$UCSORGFRONT
 10
0.0
 20
0.0
 30
0.0
  9
$UCSORGBACK
 10
0.0
 20
0.0
 30
0.0
  9
$PUCSBASE
  2

  9
$PUCSNAME
  2

  9
$PUCSORG
 10
0.0
 20
0.0
 30
0.0
  9
$PUCSXDIR
 10
1.0
 20
0.0
 30
0.0
  9
$PUCSYDIR
 10
0.0
 20
1.0
 30
0.0
  9
$PUCSORTHOREF
  2

  9
$PUCSORTHOVIEW
 70
     0
  9
$PUCSORGTOP
 10
0.0
 20
0.0
 30
0.0
  9
$PUCSORGBOTTOM
 10
0.0
 20
0.0
 30
0.0
  9
$PUCSORGLEFT
 10
0.0
 20
0.0
 30
0.0
  9
$PUCSORGRIGHT
 10
0.0
 20
0.0
 30
0.0
  9
$PUCSORGFRONT
 10
0.0
 20
0.0
 30
0.0
  9
$PUCSORGBACK
 10
0.0
 20
0.0
 30
0.0
  9
$USERI1
 70
     0
  9
$USERI2
 70
     0
  9
$USERI3
 70
     0
  9
$USERI4
 70
     0
  9
$USERI5
 70
     0
  9
$USERR1
 40
0.0
  9
$USERR2
 40
0.0
  9
$USERR3
 40
0.0
  9
$USERR4
 40
0.0
  9
$USERR5
 40
0.0
  9
$WORLDVIEW
 70
     1
  9
$SHADEDGE
 70
     3
  9
$SHADEDIF
 70
    70
  9
$TILEMODE
 70
     1
  9
$MAXACTVP
 70
    64
  9
$PINSBASE
 10
0.0
 20
0.0
 30
0.0
  9
$PLIMCHECK
 70
     0
  9
$PEXTMIN
 10
1.0000000000E+20
 20
1.0000000000E+20
 30
1.0000000000E+20
  9
$PEXTMAX
 10
-1.0000000000E+20
 20
-1.0000000000E+20
 30
-1.0000000000E+20
  9
$PLIMMIN
 10
0.0
 20
0.0
  9
$PLIMMAX
 10
420.0
 20
297.0
  9
$UNITMODE
 70
     0
  9
$VISRETAIN
 70
     1
  9
$PLINEGEN
 70
     0
  9
$PSLTSCALE
 70
     1
  9
$TREEDEPTH
 70
  3020
  9
$CMLSTYLE
  2
Standard
  9
$CMLJUST
 70
     0
  9
$CMLSCALE
 40
20.0
  9
$PROXYGRAPHICS
 70
     1
  9
$MEASUREMENT
 70
     1
  9
$CELWEIGHT
370
    -1
  9
$ENDCAPS
280
     0
  9
$JOINSTYLE
280
     0
  9
$LWDISPLAY
290
     1
  9
$INSUNITS
 70
     4
  9
$HYPERLINKBASE
  1

  9
$STYLESHEET
  1

  9
$XEDIT
290
     1
  9
$CEPSNTYPE
380
     0
  9
$PSTYLEMODE
290
     1
  9
$FINGERPRINTGUID
  2
{C869F6F4-8147-40A1-96BB-A689C27E4442}
  9
$VERSIONGUID
  2
{FAEB1C32-E019-11D5-929B-00C0DF256EC4}
  9
$EXTNAMES
290
     1
  9
$PSVPSCALE
 40
0.0
  9
$OLESTARTUP
290
     0
  0
ENDSEC
  0
SECTION
  2
CLASSES
  0
CLASS
  1
ACDBDICTIONARYWDFLT
  2
AcDbDictionaryWithDefault
  3
ObjectDBX Classes
 90
        0
280
     0
281
     0
  0
CLASS
  1
ACDBPLACEHOLDER
  2
AcDbPlaceHolder
  3
ObjectDBX Classes
 90
        0
280
     0
281
     0
  0
CLASS
  1
LAYOUT
  2
AcDbLayout
  3
ObjectDBX Classes
 90
        0
280
     0
281
     0
  0
ENDSEC
  0
SECTION
  2
TABLES
  0
TABLE
  2
VPORT
  5
8
330
0
100
AcDbSymbolTable
 70
     1
  0
VPORT
  5
29
330
8
100
AcDbSymbolTableRecord
100
AcDbViewportTableRecord
  2
*Active
 70
     0
 10
0.0
 20
0.0
 11
1.0
 21
1.0
 12
105.0
 22
148.5
 13
0.0
 23
0.0
 14
10.0
 24
10.0
 15
10.0
 25
10.0
 16
0.0
 26
0.0
 36
1.0
 17
0.0
 27
0.0
 37
0.0
 40
297.0
 41
1.9729729729
 42
50.0
 43
0.0
 44
0.0
 50
0.0
 51
0.0
 71
     0
 72
  2000
 73
     1
 74
     3
 75
     0
 76
     0
 77
     0
 78
     0
281
     0
 65
     1
110
0.0
120
0.0
130
0.0
111
1.0
121
0.0
131
0.0
112
0.0
122
1.0
132
0.0
 79
     0
146
0.0
  0
ENDTAB
  0
TABLE
  2
LTYPE
  5
5
330
0
100
AcDbSymbolTable
 70
     6
  0
LTYPE
  5
14
330
5
100
AcDbSymbolTableRecord
100
AcDbLinetypeTableRecord
  2
ByBlock
 70
     0
  3

 72
    65
 73
     0
 40
0.0
  0
LTYPE
  5
15
330
5
100
AcDbSymbolTableRecord
100
AcDbLinetypeTableRecord
  2
ByLayer
 70
     0
  3

 72
    65
 73
     0
 40
0.0
  0
LTYPE
  5
16
330
5
100
AcDbSymbolTableRecord
100
AcDbLinetypeTableRecord
  2
Continuous
 70
     0
  3
Solid line
 72
    65
 73
     0
 40
0.0
  0
LTYPE
  5
2A
330
5
100
AcDbSymbolTableRecord
100
AcDbLinetypeTableRecord
  2
HIDDEN
 70
     0
  3
Hidden __ __ __ __ __ __ __ __ __ __ __ __ __ __
 72
    65
 73
     2
 40
1.905
 49
1.27
 74
     0
 49
-0.635
 74
     0
  0
LTYPE
  5
2B
330
5
100
AcDbSymbolTableRecord
100
AcDbLinetypeTableRecord
  2
PHANTOM
 70
     0
  3
Phantom ______  __  __  ______  __  __  ______
 72
    65
 73
     6
 40
12.7
 49
6.35
 74
     0
 49
-1.27
 74
     0
 49
1.27
 74
     0
 49
-1.27
 74
     0
 49
1.27
 74
     0
 49
-1.27
 74
     0
  0
LTYPE
  5
2C
330
5
100
AcDbSymbolTableRecord
100
AcDbLinetypeTableRecord
  2
CENTER
 70
     0
  3
Center ____ _ ____ _ ____ _ ____ _ ____ _ ____
 72
    65
 73
     4
 40
10.16
 49
6.35
 74
     0
 49
-1.27
 74
     0
 49
1.27
 74
     0
 49
-1.27
 74
     0
  0
LTYPE
  5
2D
330
5
100
AcDbSymbolTableRecord
100
AcDbLinetypeTableRecord
  2
CENTERX2
 70
     0
  3
Center (2x) ________  __  ________  __  _____
 72
    65
 73
     4
 40
20.32
 49
12.7
 74
     0
 49
-2.54
 74
     0
 49
2.54
 74
     0
 49
-2.54
 74
     0
  0
LTYPE
  5
2E
330
5
100
AcDbSymbolTableRecord
100
AcDbLinetypeTableRecord
  2
DOT2
 70
     0
  3
Dot (.5x) ........................................
 72
    65
 73
     2
 40
0.635
 49
0.0
 74
     0
 49
-0.635
 74
     0
  0
ENDTAB
  0
TABLE
  2
LAYER
  5
2
330
0
100
AcDbSymbolTable
 70
     4
  0
LAYER
  5
10
330
2
100
AcDbSymbolTableRecord
100
AcDbLayerTableRecord
  2
0
 70
     0
 62
     7
  6
Continuous
370
    -3
390
F
  0
LAYER
  5
2F
330
2
100
AcDbSymbolTableRecord
100
AcDbLayerTableRecord
  2
SLD-0
 70
     0
 62
   179
  6
Continuous
370
     0
390
F
  0
LAYER
  5
30
330
2
100
AcDbSymbolTableRecord
100
AcDbLayerTableRecord
  2
SLD-DEFPOINTS
 70
     0
 62
   179
  6
Continuous
370
     0
390
F
  0
LAYER
  5
99
330
2
100
AcDbSymbolTableRecord
100
AcDbLayerTableRecord
  2
Defpoints
 70
     0
 62
     7
  6
Continuous
290
     0
370
    -3
390
F
  0
ENDTAB
  0
TABLE
  2
STYLE
  5
3
330
0
100
AcDbSymbolTable
 70
     5
  0
STYLE
  5
11
330
3
100
AcDbSymbolTableRecord
100
AcDbTextStyleTableRecord
  2
Standard
 70
     0
 40
0.0
 41
1.0
 50
0.0
 71
     0
 42
2.5
  3
txt
  4
bigfont
  0
STYLE
  5
34
330
3
100
AcDbSymbolTableRecord
100
AcDbTextStyleTableRecord
  2
SLDTEXTSTYLE0
 70
     0
 40
0.0
 41
0.7
 50
0.0
 71
     0
 42
0.2
  3
TXT
  4
bigfont
  0
STYLE
  5
3A
330
3
100
AcDbSymbolTableRecord
100
AcDbTextStyleTableRecord
  2
SLDTEXTSTYLE1
 70
     0
 40
0.0
 41
0.5526315789
 50
0.0
 71
     0
 42
0.2
  3
TXT
  4
bigfont
  0
STYLE
  5
B3
330
3
100
AcDbSymbolTableRecord
100
AcDbTextStyleTableRecord
  2
SLDTEXTSTYLE2
 70
     0
 40
0.0
 41
1.0
 50
0.0
 71
     0
 42
0.2
  3
TXT
  4
bigfont
  0
STYLE
  5
1A0
330
3
100
AcDbSymbolTableRecord
100
AcDbTextStyleTableRecord
  2
SLDTEXTSTYLE3
 70
     0
 40
0.0
 41
0.4156926872
 50
0.0
 71
     0
 42
0.2
  3
TXT
  4
bigfont
  0
ENDTAB
  0
TABLE
  2
VIEW
  5
6
330
0
100
AcDbSymbolTable
 70
     0
  0
ENDTAB
  0
TABLE
  2
UCS
  5
7
330
0
100
AcDbSymbolTable
 70
     0
  0
ENDTAB
  0
TABLE
  2
APPID
  5
9
330
0
100
AcDbSymbolTable
 70
     1
  0
APPID
  5
12
330
9
100
AcDbSymbolTableRecord
100
AcDbRegAppTableRecord
  2
ACAD
 70
     0
  0
ENDTAB
  0
TABLE
  2
DIMSTYLE
  5
A
330
0
100
AcDbSymbolTable
 70
     5
100
AcDbDimStyleTable
  0
DIMSTYLE
105
27
330
A
100
AcDbSymbolTableRecord
100
AcDbDimStyleTableRecord
  2
ISO-25
 70
     0
 41
2.5
 42
0.625
 43
3.75
 44
1.25
 73
     0
 74
     0
 77
     1
 78
     8
140
2.5
141
2.5
143
0.0393700787
147
0.625
171
     3
172
     1
271
     2
272
     2
274
     3
278
    44
283
     0
284
     8
340
11
  0
DIMSTYLE
105
A3
102
{ACAD_REACTORS
330
98
102
}
330
A
100
AcDbSymbolTableRecord
100
AcDbDimStyleTableRecord
  2
SLDDIMSTYLE0
 70
     0
 41
3.0
 44
0.0
 47
0.000015
 71
     1
 78
    12
140
3.5
147
0.875
172
     1
173
     1
271
     0
272
     3
340
3A
341
A4
343
A4
344
A4
  0
DIMSTYLE
105
C4
102
{ACAD_REACTORS
330
B5
330
EE
102
}
330
A
100
AcDbSymbolTableRecord
100
AcDbDimStyleTableRecord
  2
SLDDIMSTYLE1
 70
     0
 41
3.0
 44
0.0
 73
     0
 74
     0
 77
     3
 78
    12
140
3.5
147
0.875
173
     1
271
     1
272
     3
284
    12
340
3A
341
A4
343
A4
344
A4
  0
DIMSTYLE
105
DE
102
{ACAD_REACTORS
330
D0
102
}
330
A
100
AcDbSymbolTableRecord
100
AcDbDimStyleTableRecord
  2
SLDDIMSTYLE2
 70
     0
 41
3.0
 44
0.0
 73
     0
 74
     0
 77
     3
 78
     8
140
3.5
147
0.875
173
     1
271
     1
272
     3
284
    12
340
3A
341
A4
343
A4
344
A4
  0
DIMSTYLE
105
116
102
{ACAD_REACTORS
330
108
330
123
330
13B
330
152
330
169
330
185
102
}
330
A
100
AcDbSymbolTableRecord
100
AcDbDimStyleTableRecord
  2
SLDDIMSTYLE3
 70
     0
 41
3.0
 44
0.0
 73
     0
 74
     0
 77
     3
 78
    12
140
3.5
147
0.875
173
     1
271
     0
272
     3
284
    12
340
3A
341
A4
343
A4
344
A4
  0
ENDTAB
  0
TABLE
  2
BLOCK_RECORD
  5
1
330
0
100
AcDbSymbolTable
 70
    18
  0
BLOCK_RECORD
  5
1F
330
1
100
AcDbSymbolTableRecord
100
AcDbBlockTableRecord
  2
*Model_Space
340
22
  0
BLOCK_RECORD
  5
1B
330
1
100
AcDbSymbolTableRecord
100
AcDbBlockTableRecord
  2
*Paper_Space
340
1E
  0
BLOCK_RECORD
  5
23
330
1
100
AcDbSymbolTableRecord
100
AcDbBlockTableRecord
  2
*Paper_Space0
340
26
  0
BLOCK_RECORD
  5
31
330
1
100
AcDbSymbolTableRecord
100
AcDbBlockTableRecord
  2
注記
340
0
  0
BLOCK_RECORD
  5
37
330
1
100
AcDbSymbolTableRecord
100
AcDbBlockTableRecord
  2
NOTE43
340
0
102
{BLKREFS
331
1A4
102
}
  0
BLOCK_RECORD
  5
3E
330
1
100
AcDbSymbolTableRecord
100
AcDbBlockTableRecord
  2
NOTE44
340
0
102
{BLKREFS
331
1A5
102
}
  0
BLOCK_RECORD
  5
44
330
1
100
AcDbSymbolTableRecord
100
AcDbBlockTableRecord
  2
SW_CENTERMARK0
340
0
102
{BLKREFS
331
1A6
102
}
  0
BLOCK_RECORD
  5
4F
330
1
100
AcDbSymbolTableRecord
100
AcDbBlockTableRecord
  2
SW_CENTERMARK1
340
0
102
{BLKREFS
331
1A7
102
}
  0
BLOCK_RECORD
  5
5A
330
1
100
AcDbSymbolTableRecord
100
AcDbBlockTableRecord
  2
SW_CENTERMARK2
340
0
102
{BLKREFS
331
1A8
102
}
  0
BLOCK_RECORD
  5
9A
330
1
100
AcDbSymbolTableRecord
100
AcDbBlockTableRecord
  2
*D7
340
0
  0
BLOCK_RECORD
  5
A4
330
1
100
AcDbSymbolTableRecord
100
AcDbBlockTableRecord
  2
_None
340
0
102
{BLKREFS
331
9E
331
BC
331
BB
331
D8
331
D7
331
F4
331
F3
331
10E
331
10D
331
129
331
128
331
141
331
140
331
158
331
157
331
170
331
16F
331
18B
331
18A
102
}
  0
BLOCK_RECORD
  5
B6
330
1
100
AcDbSymbolTableRecord
100
AcDbBlockTableRecord
  2
*D9
340
0
  0
BLOCK_RECORD
  5
D1
330
1
100
AcDbSymbolTableRecord
100
AcDbBlockTableRecord
  2
*D10
340
0
  0
BLOCK_RECORD
  5
EF
330
1
100
AcDbSymbolTableRecord
100
AcDbBlockTableRecord
  2
*D11
340
0
  0
BLOCK_RECORD
  5
109
330
1
100
AcDbSymbolTableRecord
100
AcDbBlockTableRecord
  2
*D12
340
0
  0
BLOCK_RECORD
  5
124
330
1
100
AcDbSymbolTableRecord
100
AcDbBlockTableRecord
  2
*D13
340
0
  0
BLOCK_RECORD
  5
13C
330
1
100
AcDbSymbolTableRecord
100
AcDbBlockTableRecord
  2
*D14
340
0
  0
BLOCK_RECORD
  5
153
330
1
100
AcDbSymbolTableRecord
100
AcDbBlockTableRecord
  2
*D15
340
0
  0
BLOCK_RECORD
  5
16A
330
1
100
AcDbSymbolTableRecord
100
AcDbBlockTableRecord
  2
*D16
340
0
  0
BLOCK_RECORD
  5
186
330
1
100
AcDbSymbolTableRecord
100
AcDbBlockTableRecord
  2
*D17
340
0
  0
ENDTAB
  0
ENDSEC
  0
SECTION
  2
BLOCKS
  0
BLOCK
  5
20
330
1F
100
AcDbEntity
  8
0
100
AcDbBlockBegin
  2
*Model_Space
 70
     0
 71
     0
 10
0.0
 20
0.0
 30
0.0
  3
*Model_Space
  1

  0
ENDBLK
  5
21
330
1F
100
AcDbEntity
  8
0
100
AcDbBlockEnd
  0
BLOCK
  5
1C
330
1B
100
AcDbEntity
 67
     1
  8
0
100
AcDbBlockBegin
  2
*Paper_Space
 70
     0
 71
     0
 10
0.0
 20
0.0
 30
0.0
  3
*Paper_Space
  1

  0
ENDBLK
  5
1D
330
1B
100
AcDbEntity
 67
     1
  8
0
100
AcDbBlockEnd
  0
BLOCK
  5
24
330
23
100
AcDbEntity
  8
0
100
AcDbBlockBegin
  2
*Paper_Space0
 70
     0
 71
     0
 10
0.0
 20
0.0
 30
0.0
  3
*Paper_Space0
  1

  0
ENDBLK
  5
25
330
23
100
AcDbEntity
  8
0
100
AcDbBlockEnd
  0
BLOCK
  5
32
330
31
100
AcDbEntity
  8
0
100
AcDbBlockBegin
  2
注記
 70
     0
 71
     0
 10
0.0
 20
0.0
 30
0.0
  3
注記
  1

  0
MTEXT
  5
35
330
31
100
AcDbEntity
  8
0
  6
Continuous
 62
     7
370
     0
100
AcDbMText
 10
0.2636785918
 20
9.0739778448
 30
0.0
 40
3.5
 41
0.0
 71
     1
 72
     1
  1
１．特記ナキ角部ハ、バリ　カエリノ無キコト。
  7
SLDTEXTSTYLE0
 73
     1
 44
1.0
  0
MTEXT
  5
36
330
31
100
AcDbEntity
  8
0
  6
Continuous
 62
     7
370
     0
100
AcDbMText
 10
0.2636785918
 20
3.5759549983
 30
0.0
 40
3.5
 41
0.0
 71
     1
 72
     1
  1
２．特記ナキ隅部ハ、Ｒ０．４ＭＡＸトスル。
  7
SLDTEXTSTYLE0
 73
     1
 44
1.0
  0
ENDBLK
  5
33
330
31
100
AcDbEntity
  8
0
100
AcDbBlockEnd
  0
BLOCK
  5
38
330
37
100
AcDbEntity
  8
0
100
AcDbBlockBegin
  2
NOTE43
 70
     0
 71
     0
 10
0.0
 20
0.0
 30
0.0
  3
NOTE43
  1

  0
MTEXT
  5
3B
330
37
100
AcDbEntity
  8
SLD-0
100
AcDbMText
 10
-14.0516418916
 20
3.9320946715
 30
0.0
 40
3.5
 41
0.0
 71
     1
 72
     1
  1
2-
  7
SLDTEXTSTYLE1
 73
     1
 44
1.0
  0
MTEXT
  5
3C
330
37
100
AcDbEntity
  8
SLD-0
100
AcDbMText
 10
-9.9780308966
 20
3.9320946715
 30
0.0
 40
3.5
 41
0.0
 71
     1
 72
     1
  1
O
  7
SLDTEXTSTYLE1
 73
     1
 44
1.0
  0
MTEXT
  5
3D
330
37
100
AcDbEntity
  8
SLD-0
100
AcDbMText
 10
-6.1081001488
 20
3.9320946715
 30
0.0
 40
3.5
 41
0.0
 71
     1
 72
     1
  1
6.5
  7
SLDTEXTSTYLE1
 73
     1
 44
1.0
  0
ENDBLK
  5
39
330
37
100
AcDbEntity
  8
0
100
AcDbBlockEnd
  0
BLOCK
  5
3F
330
3E
100
AcDbEntity
  8
0
100
AcDbBlockBegin
  2
NOTE44
 70
     0
 71
     0
 10
0.0
 20
0.0
 30
0.0
  3
NOTE44
  1

  0
MTEXT
  5
41
330
3E
100
AcDbEntity
  8
SLD-0
100
AcDbMText
 10
-14.0517882898
 20
3.9318661209
 30
0.0
 40
3.5
 41
0.0
 71
     1
 72
     1
  1
2-
  7
SLDTEXTSTYLE1
 73
     1
 44
1.0
  0
MTEXT
  5
42
330
3E
100
AcDbEntity
  8
SLD-0
100
AcDbMText
 10
-9.9781772949
 20
3.9318661209
 30
0.0
 40
3.5
 41
0.0
 71
     1
 72
     1
  1
O
  7
SLDTEXTSTYLE1
 73
     1
 44
1.0
  0
MTEXT
  5
43
330
3E
100
AcDbEntity
  8
SLD-0
100
AcDbMText
 10
-6.108246547
 20
3.9318661209
 30
0.0
 40
3.5
 41
0.0
 71
     1
 72
     1
  1
6.5
  7
SLDTEXTSTYLE1
 73
     1
 44
1.0
  0
ENDBLK
  5
40
330
3E
100
AcDbEntity
  8
0
100
AcDbBlockEnd
  0
BLOCK
  5
45
330
44
100
AcDbEntity
  8
0
100
AcDbBlockBegin
  2
SW_CENTERMARK0
 70
     0
 71
     0
 10
0.0
 20
0.0
 30
0.0
  3
SW_CENTERMARK0
  1

  0
LINE
  5
47
330
44
100
AcDbEntity
  8
SLD-0
  6
Continuous
 62
   179
100
AcDbLine
 10
112.7590863311
 20
140.551439281
 30
0.0
 11
112.7590863311
 21
143.051439281
 31
0.0
  0
LINE
  5
48
330
44
100
AcDbEntity
  8
SLD-0
  6
Continuous
 62
   179
100
AcDbLine
 10
112.7590863311
 20
140.551439281
 30
0.0
 11
110.2590863311
 21
140.551439281
 31
0.0
  0
LINE
  5
49
330
44
100
AcDbEntity
  8
SLD-0
  6
Continuous
 62
   179
100
AcDbLine
 10
112.7590863311
 20
140.551439281
 30
0.0
 11
112.7590863311
 21
138.051439281
 31
0.0
  0
LINE
  5
4A
330
44
100
AcDbEntity
  8
SLD-0
  6
Continuous
 62
   179
100
AcDbLine
 10
112.7590863311
 20
140.551439281
 30
0.0
 11
115.2590863311
 21
140.551439281
 31
0.0
  0
LINE
  5
4B
330
44
100
AcDbEntity
  8
SLD-0
  6
Continuous
 62
   179
100
AcDbLine
 10
112.7590863311
 20
145.551439281
 30
0.0
 11
112.7590863311
 21
147.051439281
 31
0.0
  0
LINE
  5
4C
330
44
100
AcDbEntity
  8
SLD-0
  6
Continuous
 62
   179
100
AcDbLine
 10
107.7590863311
 20
140.551439281
 30
0.0
 11
106.2590863311
 21
140.551439281
 31
0.0
  0
LINE
  5
4D
330
44
100
AcDbEntity
  8
SLD-0
  6
Continuous
 62
   179
100
AcDbLine
 10
112.7590863311
 20
135.551439281
 30
0.0
 11
112.7590863311
 21
134.051439281
 31
0.0
  0
LINE
  5
4E
330
44
100
AcDbEntity
  8
SLD-0
  6
Continuous
 62
   179
100
AcDbLine
 10
117.7590863311
 20
140.551439281
 30
0.0
 11
119.2590863311
 21
140.551439281
 31
0.0
  0
ENDBLK
  5
46
330
44
100
AcDbEntity
  8
0
100
AcDbBlockEnd
  0
BLOCK
  5
50
330
4F
100
AcDbEntity
  8
0
100
AcDbBlockBegin
  2
SW_CENTERMARK1
 70
     0
 71
     0
 10
0.0
 20
0.0
 30
0.0
  3
SW_CENTERMARK1
  1

  0
LINE
  5
52
330
4F
100
AcDbEntity
  8
SLD-0
  6
Continuous
 62
   179
100
AcDbLine
 10
102.7590863311
 20
185.2943083919
 30
0.0
 11
102.7590863311
 21
187.7943083919
 31
0.0
  0
LINE
  5
53
330
4F
100
AcDbEntity
  8
SLD-0
  6
Continuous
 62
   179
100
AcDbLine
 10
102.7590863311
 20
185.2943083919
 30
0.0
 11
100.2590863311
 21
185.2943083919
 31
0.0
  0
LINE
  5
54
330
4F
100
AcDbEntity
  8
SLD-0
  6
Continuous
 62
   179
100
AcDbLine
 10
102.7590863311
 20
185.2943083919
 30
0.0
 11
102.7590863311
 21
182.7943083919
 31
0.0
  0
LINE
  5
55
330
4F
100
AcDbEntity
  8
SLD-0
  6
Continuous
 62
   179
100
AcDbLine
 10
102.7590863311
 20
185.2943083919
 30
0.0
 11
105.2590863311
 21
185.2943083919
 31
0.0
  0
LINE
  5
56
330
4F
100
AcDbEntity
  8
SLD-0
  6
Continuous
 62
   179
100
AcDbLine
 10
102.7590863311
 20
190.2943083919
 30
0.0
 11
102.7590863311
 21
191.0443083919
 31
0.0
  0
LINE
  5
57
330
4F
100
AcDbEntity
  8
SLD-0
  6
Continuous
 62
   179
100
AcDbLine
 10
97.7590863311
 20
185.2943083919
 30
0.0
 11
97.0090863311
 21
185.2943083919
 31
0.0
  0
LINE
  5
58
330
4F
100
AcDbEntity
  8
SLD-0
  6
Continuous
 62
   179
100
AcDbLine
 10
102.7590863311
 20
180.2943083919
 30
0.0
 11
102.7590863311
 21
179.5443083919
 31
0.0
  0
LINE
  5
59
330
4F
100
AcDbEntity
  8
SLD-0
  6
Continuous
 62
   179
100
AcDbLine
 10
107.7590863311
 20
185.2943083919
 30
0.0
 11
108.5090863311
 21
185.2943083919
 31
0.0
  0
ENDBLK
  5
51
330
4F
100
AcDbEntity
  8
0
100
AcDbBlockEnd
  0
BLOCK
  5
5B
330
5A
100
AcDbEntity
  8
0
100
AcDbBlockBegin
  2
SW_CENTERMARK2
 70
     0
 71
     0
 10
0.0
 20
0.0
 30
0.0
  3
SW_CENTERMARK2
  1

  0
LINE
  5
5D
330
5A
100
AcDbEntity
  8
SLD-0
  6
Continuous
 62
   179
100
AcDbLine
 10
122.7590863311
 20
185.2943083919
 30
0.0
 11
122.7590863311
 21
187.7943083919
 31
0.0
  0
LINE
  5
5E
330
5A
100
AcDbEntity
  8
SLD-0
  6
Continuous
 62
   179
100
AcDbLine
 10
122.7590863311
 20
185.2943083919
 30
0.0
 11
120.2590863311
 21
185.2943083919
 31
0.0
  0
LINE
  5
5F
330
5A
100
AcDbEntity
  8
SLD-0
  6
Continuous
 62
   179
100
AcDbLine
 10
122.7590863311
 20
185.2943083919
 30
0.0
 11
122.7590863311
 21
182.7943083919
 31
0.0
  0
LINE
  5
60
330
5A
100
AcDbEntity
  8
SLD-0
  6
Continuous
 62
   179
100
AcDbLine
 10
122.7590863311
 20
185.2943083919
 30
0.0
 11
125.2590863311
 21
185.2943083919
 31
0.0
  0
LINE
  5
61
330
5A
100
AcDbEntity
  8
SLD-0
  6
Continuous
 62
   179
100
AcDbLine
 10
122.7590863311
 20
190.2943083919
 30
0.0
 11
122.7590863311
 21
191.0443083919
 31
0.0
  0
LINE
  5
62
330
5A
100
AcDbEntity
  8
SLD-0
  6
Continuous
 62
   179
100
AcDbLine
 10
117.7590863311
 20
185.2943083919
 30
0.0
 11
117.0090863311
 21
185.2943083919
 31
0.0
  0
LINE
  5
63
330
5A
100
AcDbEntity
  8
SLD-0
  6
Continuous
 62
   179
100
AcDbLine
 10
122.7590863311
 20
180.2943083919
 30
0.0
 11
122.7590863311
 21
179.5443083919
 31
0.0
  0
LINE
  5
64
330
5A
100
AcDbEntity
  8
SLD-0
  6
Continuous
 62
   179
100
AcDbLine
 10
127.7590863311
 20
185.2943083919
 30
0.0
 11
128.5090863311
 21
185.2943083919
 31
0.0
  0
ENDBLK
  5
5C
330
5A
100
AcDbEntity
  8
0
100
AcDbBlockEnd
  0
BLOCK
  5
A1
330
9A
100
AcDbEntity
  8
0
100
AcDbBlockBegin
  2
*D7
 70
     1
 71
     0
 10
0.0
 20
0.0
 30
0.0
  3
*D7
  1

  0
ARC
  5
A7
330
9A
100
AcDbEntity
  8
SLD-0
 62
     7
100
AcDbCircle
 10
112.7590863311
 20
140.551439281
 30
0.0
 40
3.999999999999999
100
AcDbArc
 50
189.7350211633
 51
264.4249073746
  0
LINE
  5
A8
330
9A
100
AcDbEntity
  8
SLD-0
 62
     7
100
AcDbLine
 10
111.416534526
 20
136.7834750229
 30
0.0
 11
104.2325295212
 21
116.6210693821
 31
0.0
  0
LINE
  5
A9
330
9A
100
AcDbEntity
  8
SLD-0
 62
     7
100
AcDbLine
 10
104.2325295212
 20
116.6210693821
 30
0.0
 11
73.2090968086
 21
116.6210693821
 31
0.0
  0
LINE
  5
AA
330
9A
100
AcDbEntity
  8
SLD-0
 62
     7
100
AcDbLine
 10
109.6524039809
 20
134.2273033895
 30
0.0
 11
111.416534526
 21
136.7834750229
 31
0.0
  0
LINE
  5
AB
330
9A
100
AcDbEntity
  8
SLD-0
 62
     7
100
AcDbLine
 10
111.416534526
 20
136.7834750229
 30
0.0
 11
111.1668373634
 21
133.6877002691
 31
0.0
  0
LINE
  5
AC
330
9A
100
AcDbEntity
  8
SLD-0
 62
     7
100
AcDbLine
 10
111.416534526
 20
136.7834750229
 30
0.0
 11
110.4096206722
 21
133.9575018293
 31
0.0
  0
MTEXT
  5
AD
330
9A
100
AcDbEntity
  8
SLD-0
 62
     7
100
AcDbMText
 10
73.0465968086
 20
121.1477628453
 30
0.1
 40
3.5
 41
0.0
 71
     1
 72
     1
  1
%%c
  7
SLDTEXTSTYLE0
 73
     1
 44
1.0
  0
MTEXT
  5
AE
330
9A
100
AcDbEntity
  8
SLD-0
 62
     7
100
AcDbMText
 10
78.6641392358
 20
121.1477630781
 30
0.1
 40
3.5
 41
0.0
 71
     1
 72
     1
  1
8
  7
SLDTEXTSTYLE0
 73
     1
 44
1.0
  0
MTEXT
  5
AF
330
9A
100
AcDbEntity
  8
SLD-0
 62
     7
100
AcDbMText
 10
82.7362458906
 20
121.1477630781
 30
0.1
 40
3.5
 41
0.0
 71
     1
 72
     1
  1
H7
  7
SLDTEXTSTYLE0
 73
     1
 44
1.0
  0
MTEXT
  5
B0
330
9A
100
AcDbEntity
  8
SLD-0
 62
     7
100
AcDbMText
 10
89.2503380119
 20
119.9480079094
 30
0.1
 40
2.1
 41
0.0
 71
     1
 72
     1
  1
0
  7
SLDTEXTSTYLE0
 73
     1
 44
1.0
  0
MTEXT
  5
B1
330
9A
100
AcDbEntity
  8
SLD-0
 62
     7
100
AcDbMText
 10
88.0293452787
 20
122.3899933759
 30
0.1
 40
2.1
 41
0.0
 71
     1
 72
     1
  1
+
  7
SLDTEXTSTYLE0
 73
     1
 44
1.0
  0
MTEXT
  5
B2
330
9A
100
AcDbEntity
  8
SLD-0
 62
     7
100
AcDbMText
 10
89.2503380119
 20
122.3899933759
 30
0.1
 40
2.1
 41
0.0
 71
     1
 72
     1
  1
0.015
  7
SLDTEXTSTYLE0
 73
     1
 44
1.0
  0
MTEXT
  5
B4
330
9A
100
AcDbEntity
  8
SLD-0
 62
     7
100
AcDbMText
 10
95.3584979941
 20
121.1477630781
 30
0.1
 40
3.5
 41
0.0
 71
     1
 72
     1
  1
　  
  7
SLDTEXTSTYLE2
 73
     1
 44
1.0
  0
ENDBLK
  5
A2
330
9A
100
AcDbEntity
  8
0
100
AcDbBlockEnd
  0
BLOCK
  5
A5
330
A4
100
AcDbEntity
  8
0
100
AcDbBlockBegin
  2
_None
 70
     0
 71
     0
 10
0.0
 20
0.0
 30
0.0
  3
_None
  1

  0
ENDBLK
  5
A6
330
A4
100
AcDbEntity
  8
0
100
AcDbBlockEnd
  0
BLOCK
  5
C2
330
B6
100
AcDbEntity
  8
0
100
AcDbBlockBegin
  2
*D9
 70
     1
 71
     0
 10
0.0
 20
0.0
 30
0.0
  3
*D9
  1

  0
ARC
  5
C5
330
B6
100
AcDbEntity
  8
SLD-0
 62
     7
100
AcDbCircle
 10
91.0432354703
 20
140.851439281
 30
0.0
 40
0.75
100
AcDbArc
 50
90.0
 51
270.0
  0
ARC
  5
C6
330
B6
100
AcDbEntity
  8
SLD-0
 62
     7
100
AcDbCircle
 10
91.0432354703
 20
140.851439281
 30
0.0
 40
0.75
100
AcDbArc
 50
270.0
 51
90.0
  0
LINE
  5
C7
330
B6
100
AcDbEntity
  8
SLD-0
 62
     7
100
AcDbLine
 10
96.7590863311
 20
148.551439281
 30
0.0
 11
90.0432354703
 21
148.551439281
 31
0.0
  0
LINE
  5
C8
330
B6
100
AcDbEntity
  8
SLD-0
 62
     7
100
AcDbLine
 10
96.7590863311
 20
140.851439281
 30
0.0
 11
90.0432354703
 21
140.851439281
 31
0.0
  0
LINE
  5
C9
330
B6
100
AcDbEntity
  8
SLD-0
 62
     7
100
AcDbLine
 10
91.0432354703
 20
148.551439281
 30
0.0
 11
91.0432354703
 21
158.0264549239
 31
0.0
  0
LINE
  5
CA
330
B6
100
AcDbEntity
  8
SLD-0
 62
     7
100
AcDbLine
 10
91.0432354703
 20
148.551439281
 30
0.0
 11
91.0432354703
 21
140.851439281
 31
0.0
  0
LINE
  5
CB
330
B6
100
AcDbEntity
  8
SLD-0
 62
     7
100
AcDbLine
 10
90.2393884703
 20
145.551439281
 30
0.0
 11
91.0432354703
 21
148.551439281
 31
0.0
  0
LINE
  5
CC
330
B6
100
AcDbEntity
  8
SLD-0
 62
     7
100
AcDbLine
 10
91.0432354703
 20
148.551439281
 30
0.0
 11
91.8470824703
 21
145.551439281
 31
0.0
  0
LINE
  5
CD
330
B6
100
AcDbEntity
  8
SLD-0
 62
     7
100
AcDbLine
 10
91.0432354703
 20
148.551439281
 30
0.0
 11
91.0432354703
 21
145.551439281
 31
0.0
  0
LINE
  5
CE
330
B6
100
AcDbEntity
  8
SLD-0
 62
     7
100
AcDbLine
 10
91.0432354703
 20
142.351439281
 30
0.0
 11
91.0432354703
 21
143.851439281
 31
0.0
  0
MTEXT
  5
CF
330
B6
100
AcDbEntity
  8
SLD-0
 62
     7
100
AcDbMText
 10
86.5165417744
 20
150.3307949416
 30
0.1
 40
3.5
 41
0.0
 71
     1
 72
     1
  1
7.7
  7
SLDTEXTSTYLE0
 11
6.123031769111886E-17
 21
1.0
 31
0.0
 73
     1
 44
1.0
  0
ENDBLK
  5
C3
330
B6
100
AcDbEntity
  8
0
100
AcDbBlockEnd
  0
BLOCK
  5
DC
330
D1
100
AcDbEntity
  8
0
100
AcDbBlockBegin
  2
*D10
 70
     1
 71
     0
 10
0.0
 20
0.0
 30
0.0
  3
*D10
  1

  0
ARC
  5
E0
330
D1
100
AcDbEntity
  8
SLD-0
 62
     7
100
AcDbCircle
 10
91.0432354703
 20
140.251439281
 30
0.0
 40
0.75
100
AcDbArc
 50
270.0
 51
90.0
  0
ARC
  5
E1
330
D1
100
AcDbEntity
  8
SLD-0
 62
     7
100
AcDbCircle
 10
91.0432354703
 20
140.251439281
 30
0.0
 40
0.75
100
AcDbArc
 50
90.0
 51
270.0
  0
ARC
  5
E2
330
D1
100
AcDbEntity
  8
SLD-0
 62
     7
100
AcDbCircle
 10
91.0432354703
 20
140.851439281
 30
0.0
 40
0.75
100
AcDbArc
 50
90.0
 51
270.0
  0
ARC
  5
E3
330
D1
100
AcDbEntity
  8
SLD-0
 62
     7
100
AcDbCircle
 10
91.0432354703
 20
140.851439281
 30
0.0
 40
0.75
100
AcDbArc
 50
270.0
 51
90.0
  0
LINE
  5
E4
330
D1
100
AcDbEntity
  8
SLD-0
 62
     7
100
AcDbLine
 10
96.7590863311
 20
140.251439281
 30
0.0
 11
90.0432354703
 21
140.251439281
 31
0.0
  0
LINE
  5
E5
330
D1
100
AcDbEntity
  8
SLD-0
 62
     7
100
AcDbLine
 10
96.7590863311
 20
140.851439281
 30
0.0
 11
90.0432354703
 21
140.851439281
 31
0.0
  0
LINE
  5
E6
330
D1
100
AcDbEntity
  8
SLD-0
 62
     7
100
AcDbLine
 10
91.0432354703
 20
140.251439281
 30
0.0
 11
91.0432354703
 21
135.251439281
 31
0.0
  0
LINE
  5
E7
330
D1
100
AcDbEntity
  8
SLD-0
 62
     7
100
AcDbLine
 10
91.0432354703
 20
140.251439281
 30
0.0
 11
91.0432354703
 21
140.851439281
 31
0.0
  0
LINE
  5
E8
330
D1
100
AcDbEntity
  8
SLD-0
 62
     7
100
AcDbLine
 10
91.0432354703
 20
140.851439281
 30
0.0
 11
91.0432354703
 21
145.851439281
 31
0.0
  0
LINE
  5
E9
330
D1
100
AcDbEntity
  8
SLD-0
 62
     7
100
AcDbLine
 10
91.0432354703
 20
140.551439281
 30
0.0
 11
89.222521215
 21
142.1915715907
 31
0.0
  0
LINE
  5
EA
330
D1
100
AcDbEntity
  8
SLD-0
 62
     7
100
AcDbLine
 10
89.222521215
 20
142.1915715907
 30
0.0
 11
79.9393612328
 21
142.1915715907
 31
0.0
  0
LINE
  5
EB
330
D1
100
AcDbEntity
  8
SLD-0
 62
     7
100
AcDbLine
 10
91.0432354703
 20
138.751439281
 30
0.0
 11
91.0432354703
 21
137.251439281
 31
0.0
  0
LINE
  5
EC
330
D1
100
AcDbEntity
  8
SLD-0
 62
     7
100
AcDbLine
 10
91.0432354703
 20
142.351439281
 30
0.0
 11
91.0432354703
 21
143.851439281
 31
0.0
  0
MTEXT
  5
ED
330
D1
100
AcDbEntity
  8
SLD-0
 62
     7
100
AcDbMText
 10
81.5268612328
 20
146.7182652866
 30
0.1
 40
3.5
 41
0.0
 71
     1
 72
     1
  1
0.6
  7
SLDTEXTSTYLE0
 73
     1
 44
1.0
  0
ENDBLK
  5
DD
330
D1
100
AcDbEntity
  8
0
100
AcDbBlockEnd
  0
BLOCK
  5
FA
330
EF
100
AcDbEntity
  8
0
100
AcDbBlockBegin
  2
*D11
 70
     1
 71
     0
 10
0.0
 20
0.0
 30
0.0
  3
*D11
  1

  0
ARC
  5
FC
330
EF
100
AcDbEntity
  8
SLD-0
 62
     7
100
AcDbCircle
 10
91.0432354703
 20
140.251439281
 30
0.0
 40
0.75
100
AcDbArc
 50
90.0
 51
270.0
  0
ARC
  5
FD
330
EF
100
AcDbEntity
  8
SLD-0
 62
     7
100
AcDbCircle
 10
91.0432354703
 20
140.251439281
 30
0.0
 40
0.75
100
AcDbArc
 50
270.0
 51
90.0
  0
LINE
  5
FE
330
EF
100
AcDbEntity
  8
SLD-0
 62
     7
100
AcDbLine
 10
96.7590863311
 20
140.251439281
 30
0.0
 11
90.0432354703
 21
140.251439281
 31
0.0
  0
LINE
  5
FF
330
EF
100
AcDbEntity
  8
SLD-0
 62
     7
100
AcDbLine
 10
96.7590863311
 20
132.551439281
 30
0.0
 11
90.0432354703
 21
132.551439281
 31
0.0
  0
LINE
  5
100
330
EF
100
AcDbEntity
  8
SLD-0
 62
     7
100
AcDbLine
 10
91.0432354703
 20
140.251439281
 30
0.0
 11
91.0432354703
 21
145.251439281
 31
0.0
  0
LINE
  5
101
330
EF
100
AcDbEntity
  8
SLD-0
 62
     7
100
AcDbLine
 10
91.0432354703
 20
140.251439281
 30
0.0
 11
91.0432354703
 21
132.551439281
 31
0.0
  0
LINE
  5
102
330
EF
100
AcDbEntity
  8
SLD-0
 62
     7
100
AcDbLine
 10
91.0432354703
 20
132.551439281
 30
0.0
 11
91.0432354703
 21
127.551439281
 31
0.0
  0
LINE
  5
103
330
EF
100
AcDbEntity
  8
SLD-0
 62
     7
100
AcDbLine
 10
91.0432354703
 20
141.751439281
 30
0.0
 11
91.0432354703
 21
143.251439281
 31
0.0
  0
LINE
  5
104
330
EF
100
AcDbEntity
  8
SLD-0
 62
     7
100
AcDbLine
 10
90.2393884703
 20
129.551439281
 30
0.0
 11
91.0432354703
 21
132.551439281
 31
0.0
  0
LINE
  5
105
330
EF
100
AcDbEntity
  8
SLD-0
 62
     7
100
AcDbLine
 10
91.0432354703
 20
132.551439281
 30
0.0
 11
91.8470824703
 21
129.551439281
 31
0.0
  0
LINE
  5
106
330
EF
100
AcDbEntity
  8
SLD-0
 62
     7
100
AcDbLine
 10
91.0432354703
 20
132.551439281
 30
0.0
 11
91.0432354703
 21
129.551439281
 31
0.0
  0
MTEXT
  5
107
330
EF
100
AcDbEntity
  8
SLD-0
 62
     7
100
AcDbMText
 10
86.5165417744
 20
133.3473592899
 30
0.1
 40
3.5
 41
0.0
 71
     1
 72
     1
  1
7.7
  7
SLDTEXTSTYLE0
 11
6.123031769111886E-17
 21
1.0
 31
0.0
 73
     1
 44
1.0
  0
ENDBLK
  5
FB
330
EF
100
AcDbEntity
  8
0
100
AcDbBlockEnd
  0
BLOCK
  5
114
330
109
100
AcDbEntity
  8
0
100
AcDbBlockBegin
  2
*D12
 70
     1
 71
     0
 10
0.0
 20
0.0
 30
0.0
  3
*D12
  1

  0
ARC
  5
117
330
109
100
AcDbEntity
  8
SLD-0
 62
     7
100
AcDbCircle
 10
73.2658570257
 20
140.9999926084
 30
0.0
 40
4.552753645900014
100
AcDbArc
 50
243.4349488229
 51
296.5650511771
  0
ARC
  5
118
330
109
100
AcDbEntity
  8
SLD-0
 62
     7
100
AcDbCircle
 10
73.2658570257
 20
140.1028859536
 30
0.0
 40
4.552753645899988
100
AcDbArc
 50
63.4349488229
 51
116.5650511771
  0
LINE
  5
119
330
109
100
AcDbEntity
  8
SLD-0
 62
     7
100
AcDbLine
 10
96.7590863311
 20
148.551439281
 30
0.0
 11
74.3019103532
 21
148.551439281
 31
0.0
  0
LINE
  5
11A
330
109
100
AcDbEntity
  8
SLD-0
 62
     7
100
AcDbLine
 10
96.7590863311
 20
132.551439281
 30
0.0
 11
74.3019103532
 21
132.551439281
 31
0.0
  0
LINE
  5
11B
330
109
100
AcDbEntity
  8
SLD-0
 62
     7
100
AcDbLine
 10
75.3019103532
 20
148.551439281
 30
0.0
 11
75.3019103532
 21
132.551439281
 31
0.0
  0
LINE
  5
11C
330
109
100
AcDbEntity
  8
SLD-0
 62
     7
100
AcDbLine
 10
74.4980633532
 20
145.551439281
 30
0.0
 11
75.3019103532
 21
148.551439281
 31
0.0
  0
LINE
  5
11D
330
109
100
AcDbEntity
  8
SLD-0
 62
     7
100
AcDbLine
 10
75.3019103532
 20
148.551439281
 30
0.0
 11
76.1057573532
 21
145.551439281
 31
0.0
  0
LINE
  5
11E
330
109
100
AcDbEntity
  8
SLD-0
 62
     7
100
AcDbLine
 10
75.3019103532
 20
148.551439281
 30
0.0
 11
75.3019103532
 21
145.551439281
 31
0.0
  0
LINE
  5
11F
330
109
100
AcDbEntity
  8
SLD-0
 62
     7
100
AcDbLine
 10
76.1057573532
 20
135.551439281
 30
0.0
 11
75.3019103532
 21
132.551439281
 31
0.0
  0
LINE
  5
120
330
109
100
AcDbEntity
  8
SLD-0
 62
     7
100
AcDbLine
 10
75.3019103532
 20
132.551439281
 30
0.0
 11
74.4980633532
 21
135.551439281
 31
0.0
  0
LINE
  5
121
330
109
100
AcDbEntity
  8
SLD-0
 62
     7
100
AcDbLine
 10
75.3019103532
 20
132.551439281
 30
0.0
 11
75.3019103532
 21
135.551439281
 31
0.0
  0
MTEXT
  5
122
330
109
100
AcDbEntity
  8
SLD-0
 62
     7
100
AcDbMText
 10
70.7752166572
 20
138.5153859536
 30
0.1
 40
3.5
 41
0.0
 71
     1
 72
     1
  1
16
  7
SLDTEXTSTYLE0
 11
6.123031769111886E-17
 21
1.0
 31
0.0
 73
     1
 44
1.0
  0
ENDBLK
  5
115
330
109
100
AcDbEntity
  8
0
100
AcDbBlockEnd
  0
BLOCK
  5
12F
330
124
100
AcDbEntity
  8
0
100
AcDbBlockBegin
  2
*D13
 70
     1
 71
     0
 10
0.0
 20
0.0
 30
0.0
  3
*D13
  1

  0
LINE
  5
131
330
124
100
AcDbEntity
  8
SLD-0
 62
     7
100
AcDbLine
 10
126.7590863311
 20
193.2943083919
 30
0.0
 11
79.7725119051
 21
193.2943083919
 31
0.0
  0
LINE
  5
132
330
124
100
AcDbEntity
  8
SLD-0
 62
     7
100
AcDbLine
 10
126.7590863311
 20
177.2943083919
 30
0.0
 11
79.7725119051
 21
177.2943083919
 31
0.0
  0
LINE
  5
133
330
124
100
AcDbEntity
  8
SLD-0
 62
     7
100
AcDbLine
 10
80.7725119051
 20
193.2943083919
 30
0.0
 11
80.7725119051
 21
177.2943083919
 31
0.0
  0
LINE
  5
134
330
124
100
AcDbEntity
  8
SLD-0
 62
     7
100
AcDbLine
 10
79.9686649051
 20
190.2943083919
 30
0.0
 11
80.7725119051
 21
193.2943083919
 31
0.0
  0
LINE
  5
135
330
124
100
AcDbEntity
  8
SLD-0
 62
     7
100
AcDbLine
 10
80.7725119051
 20
193.2943083919
 30
0.0
 11
81.5763589051
 21
190.2943083919
 31
0.0
  0
LINE
  5
136
330
124
100
AcDbEntity
  8
SLD-0
 62
     7
100
AcDbLine
 10
80.7725119051
 20
193.2943083919
 30
0.0
 11
80.7725119051
 21
190.2943083919
 31
0.0
  0
LINE
  5
137
330
124
100
AcDbEntity
  8
SLD-0
 62
     7
100
AcDbLine
 10
81.5763589051
 20
180.2943083919
 30
0.0
 11
80.7725119051
 21
177.2943083919
 31
0.0
  0
LINE
  5
138
330
124
100
AcDbEntity
  8
SLD-0
 62
     7
100
AcDbLine
 10
80.7725119051
 20
177.2943083919
 30
0.0
 11
79.9686649051
 21
180.2943083919
 31
0.0
  0
LINE
  5
139
330
124
100
AcDbEntity
  8
SLD-0
 62
     7
100
AcDbLine
 10
80.7725119051
 20
177.2943083919
 30
0.0
 11
80.7725119051
 21
180.2943083919
 31
0.0
  0
MTEXT
  5
13A
330
124
100
AcDbEntity
  8
SLD-0
 62
     7
100
AcDbMText
 10
76.2458182092
 20
183.2582550645
 30
0.1
 40
3.5
 41
0.0
 71
     1
 72
     1
  1
16
  7
SLDTEXTSTYLE0
 11
6.123031769111886E-17
 21
1.0
 31
0.0
 73
     1
 44
1.0
  0
ENDBLK
  5
130
330
124
100
AcDbEntity
  8
0
100
AcDbBlockEnd
  0
BLOCK
  5
146
330
13C
100
AcDbEntity
  8
0
100
AcDbBlockBegin
  2
*D14
 70
     1
 71
     0
 10
0.0
 20
0.0
 30
0.0
  3
*D14
  1

  0
LINE
  5
148
330
13C
100
AcDbEntity
  8
SLD-0
 62
     7
100
AcDbLine
 10
122.7590863311
 20
192.0443083919
 30
0.0
 11
122.7590863311
 21
208.0293034576
 31
0.0
  0
LINE
  5
149
330
13C
100
AcDbEntity
  8
SLD-0
 62
     7
100
AcDbLine
 10
102.7590863311
 20
192.0443083919
 30
0.0
 11
102.7590863311
 21
208.0293034576
 31
0.0
  0
LINE
  5
14A
330
13C
100
AcDbEntity
  8
SLD-0
 62
     7
100
AcDbLine
 10
122.7590863311
 20
207.0293034576
 30
0.0
 11
102.7590863311
 21
207.0293034576
 31
0.0
  0
LINE
  5
14B
330
13C
100
AcDbEntity
  8
SLD-0
 62
     7
100
AcDbLine
 10
119.7590863311
 20
207.8331504576
 30
0.0
 11
122.7590863311
 21
207.0293034576
 31
0.0
  0
LINE
  5
14C
330
13C
100
AcDbEntity
  8
SLD-0
 62
     7
100
AcDbLine
 10
122.7590863311
 20
207.0293034576
 30
0.0
 11
119.7590863311
 21
206.2254564576
 31
0.0
  0
LINE
  5
14D
330
13C
100
AcDbEntity
  8
SLD-0
 62
     7
100
AcDbLine
 10
122.7590863311
 20
207.0293034576
 30
0.0
 11
119.7590863311
 21
207.0293034576
 31
0.0
  0
LINE
  5
14E
330
13C
100
AcDbEntity
  8
SLD-0
 62
     7
100
AcDbLine
 10
105.7590863311
 20
206.2254564576
 30
0.0
 11
102.7590863311
 21
207.0293034576
 31
0.0
  0
LINE
  5
14F
330
13C
100
AcDbEntity
  8
SLD-0
 62
     7
100
AcDbLine
 10
102.7590863311
 20
207.0293034576
 30
0.0
 11
105.7590863311
 21
207.8331504576
 31
0.0
  0
LINE
  5
150
330
13C
100
AcDbEntity
  8
SLD-0
 62
     7
100
AcDbLine
 10
102.7590863311
 20
207.0293034576
 30
0.0
 11
105.7590863311
 21
207.0293034576
 31
0.0
  0
MTEXT
  5
151
330
13C
100
AcDbEntity
  8
SLD-0
 62
     7
100
AcDbMText
 10
110.7230330037
 20
211.5559971535
 30
0.1
 40
3.5
 41
0.0
 71
     1
 72
     1
  1
20
  7
SLDTEXTSTYLE0
 73
     1
 44
1.0
  0
ENDBLK
  5
147
330
13C
100
AcDbEntity
  8
0
100
AcDbBlockEnd
  0
BLOCK
  5
15D
330
153
100
AcDbEntity
  8
0
100
AcDbBlockBegin
  2
*D15
 70
     1
 71
     0
 10
0.0
 20
0.0
 30
0.0
  3
*D15
  1

  0
LINE
  5
15F
330
153
100
AcDbEntity
  8
SLD-0
 62
     7
100
AcDbLine
 10
127.7590863311
 20
186.2943083919
 30
0.0
 11
127.7590863311
 21
216.2815834504
 31
0.0
  0
LINE
  5
160
330
153
100
AcDbEntity
  8
SLD-0
 62
     7
100
AcDbLine
 10
97.7590863311
 20
186.2943083919
 30
0.0
 11
97.7590863311
 21
216.2815834504
 31
0.0
  0
LINE
  5
161
330
153
100
AcDbEntity
  8
SLD-0
 62
     7
100
AcDbLine
 10
127.7590863311
 20
215.2815834504
 30
0.0
 11
97.7590863311
 21
215.2815834504
 31
0.0
  0
LINE
  5
162
330
153
100
AcDbEntity
  8
SLD-0
 62
     7
100
AcDbLine
 10
124.7590863311
 20
216.0854304504
 30
0.0
 11
127.7590863311
 21
215.2815834504
 31
0.0
  0
LINE
  5
163
330
153
100
AcDbEntity
  8
SLD-0
 62
     7
100
AcDbLine
 10
127.7590863311
 20
215.2815834504
 30
0.0
 11
124.7590863311
 21
214.4777364504
 31
0.0
  0
LINE
  5
164
330
153
100
AcDbEntity
  8
SLD-0
 62
     7
100
AcDbLine
 10
127.7590863311
 20
215.2815834504
 30
0.0
 11
124.7590863311
 21
215.2815834504
 31
0.0
  0
LINE
  5
165
330
153
100
AcDbEntity
  8
SLD-0
 62
     7
100
AcDbLine
 10
100.7590863311
 20
214.4777364504
 30
0.0
 11
97.7590863311
 21
215.2815834504
 31
0.0
  0
LINE
  5
166
330
153
100
AcDbEntity
  8
SLD-0
 62
     7
100
AcDbLine
 10
97.7590863311
 20
215.2815834504
 30
0.0
 11
100.7590863311
 21
216.0854304504
 31
0.0
  0
LINE
  5
167
330
153
100
AcDbEntity
  8
SLD-0
 62
     7
100
AcDbLine
 10
97.7590863311
 20
215.2815834504
 30
0.0
 11
100.7590863311
 21
215.2815834504
 31
0.0
  0
MTEXT
  5
168
330
153
100
AcDbEntity
  8
SLD-0
 62
     7
100
AcDbMText
 10
110.7230330037
 20
219.8082771463
 30
0.1
 40
3.5
 41
0.0
 71
     1
 72
     1
  1
30
  7
SLDTEXTSTYLE0
 73
     1
 44
1.0
  0
ENDBLK
  5
15E
330
153
100
AcDbEntity
  8
0
100
AcDbBlockEnd
  0
BLOCK
  5
177
330
16A
100
AcDbEntity
  8
0
100
AcDbBlockBegin
  2
*D16
 70
     1
 71
     0
 10
0.0
 20
0.0
 30
0.0
  3
*D16
  1

  0
LINE
  5
179
330
16A
100
AcDbEntity
  8
SLD-0
 62
     7
100
AcDbLine
 10
97.7590863311
 20
194.2943083919
 30
0.0
 11
97.7590863311
 21
208.0293034576
 31
0.0
  0
LINE
  5
17A
330
16A
100
AcDbEntity
  8
SLD-0
 62
     7
100
AcDbLine
 10
102.7590863311
 20
192.0443083919
 30
0.0
 11
102.7590863311
 21
208.0293034576
 31
0.0
  0
LINE
  5
17B
330
16A
100
AcDbEntity
  8
SLD-0
 62
     7
100
AcDbLine
 10
97.7590863311
 20
207.0293034576
 30
0.0
 11
89.1385055671
 21
207.0293034576
 31
0.0
  0
LINE
  5
17C
330
16A
100
AcDbEntity
  8
SLD-0
 62
     7
100
AcDbLine
 10
97.7590863311
 20
207.0293034576
 30
0.0
 11
102.7590863311
 21
207.0293034576
 31
0.0
  0
LINE
  5
17D
330
16A
100
AcDbEntity
  8
SLD-0
 62
     7
100
AcDbLine
 10
102.7590863311
 20
207.0293034576
 30
0.0
 11
107.7590863311
 21
207.0293034576
 31
0.0
  0
LINE
  5
17E
330
16A
100
AcDbEntity
  8
SLD-0
 62
     7
100
AcDbLine
 10
94.7590863311
 20
207.8331504576
 30
0.0
 11
97.7590863311
 21
207.0293034576
 31
0.0
  0
LINE
  5
17F
330
16A
100
AcDbEntity
  8
SLD-0
 62
     7
100
AcDbLine
 10
97.7590863311
 20
207.0293034576
 30
0.0
 11
94.7590863311
 21
206.2254564576
 31
0.0
  0
LINE
  5
180
330
16A
100
AcDbEntity
  8
SLD-0
 62
     7
100
AcDbLine
 10
97.7590863311
 20
207.0293034576
 30
0.0
 11
94.7590863311
 21
207.0293034576
 31
0.0
  0
LINE
  5
181
330
16A
100
AcDbEntity
  8
SLD-0
 62
     7
100
AcDbLine
 10
105.7590863311
 20
206.2254564576
 30
0.0
 11
102.7590863311
 21
207.0293034576
 31
0.0
  0
LINE
  5
182
330
16A
100
AcDbEntity
  8
SLD-0
 62
     7
100
AcDbLine
 10
102.7590863311
 20
207.0293034576
 30
0.0
 11
105.7590863311
 21
207.8331504576
 31
0.0
  0
LINE
  5
183
330
16A
100
AcDbEntity
  8
SLD-0
 62
     7
100
AcDbLine
 10
102.7590863311
 20
207.0293034576
 30
0.0
 11
105.7590863311
 21
207.0293034576
 31
0.0
  0
MTEXT
  5
184
330
16A
100
AcDbEntity
  8
SLD-0
 62
     7
100
AcDbMText
 10
90.7260055671
 20
211.5559971535
 30
0.1
 40
3.5
 41
0.0
 71
     1
 72
     1
  1
5
  7
SLDTEXTSTYLE0
 73
     1
 44
1.0
  0
ENDBLK
  5
178
330
16A
100
AcDbEntity
  8
0
100
AcDbBlockEnd
  0
BLOCK
  5
191
330
186
100
AcDbEntity
  8
0
100
AcDbBlockBegin
  2
*D17
 70
     1
 71
     0
 10
0.0
 20
0.0
 30
0.0
  3
*D17
  1

  0
LINE
  5
193
330
186
100
AcDbEntity
  8
SLD-0
 62
     7
100
AcDbLine
 10
96.0090863311
 20
185.2943083919
 30
0.0
 11
89.7338954954
 21
185.2943083919
 31
0.0
  0
LINE
  5
194
330
186
100
AcDbEntity
  8
SLD-0
 62
     7
100
AcDbLine
 10
96.7590863311
 20
177.2943083919
 30
0.0
 11
89.7338954954
 21
177.2943083919
 31
0.0
  0
LINE
  5
195
330
186
100
AcDbEntity
  8
SLD-0
 62
     7
100
AcDbLine
 10
90.7338954954
 20
185.2943083919
 30
0.0
 11
90.7338954954
 21
190.2943083919
 31
0.0
  0
LINE
  5
196
330
186
100
AcDbEntity
  8
SLD-0
 62
     7
100
AcDbLine
 10
90.7338954954
 20
185.2943083919
 30
0.0
 11
90.7338954954
 21
177.2943083919
 31
0.0
  0
LINE
  5
197
330
186
100
AcDbEntity
  8
SLD-0
 62
     7
100
AcDbLine
 10
90.7338954954
 20
177.2943083919
 30
0.0
 11
90.7338954954
 21
172.2943083919
 31
0.0
  0
LINE
  5
198
330
186
100
AcDbEntity
  8
SLD-0
 62
     7
100
AcDbLine
 10
91.5377424954
 20
188.2943083919
 30
0.0
 11
90.7338954954
 21
185.2943083919
 31
0.0
  0
LINE
  5
199
330
186
100
AcDbEntity
  8
SLD-0
 62
     7
100
AcDbLine
 10
90.7338954954
 20
185.2943083919
 30
0.0
 11
89.9300484954
 21
188.2943083919
 31
0.0
  0
LINE
  5
19A
330
186
100
AcDbEntity
  8
SLD-0
 62
     7
100
AcDbLine
 10
90.7338954954
 20
185.2943083919
 30
0.0
 11
90.7338954954
 21
188.2943083919
 31
0.0
  0
LINE
  5
19B
330
186
100
AcDbEntity
  8
SLD-0
 62
     7
100
AcDbLine
 10
89.9300484954
 20
174.2943083919
 30
0.0
 11
90.7338954954
 21
177.2943083919
 31
0.0
  0
LINE
  5
19C
330
186
100
AcDbEntity
  8
SLD-0
 62
     7
100
AcDbLine
 10
90.7338954954
 20
177.2943083919
 30
0.0
 11
91.5377424954
 21
174.2943083919
 31
0.0
  0
LINE
  5
19D
330
186
100
AcDbEntity
  8
SLD-0
 62
     7
100
AcDbLine
 10
90.7338954954
 20
177.2943083919
 30
0.0
 11
90.7338954954
 21
174.2943083919
 31
0.0
  0
MTEXT
  5
19E
330
186
100
AcDbEntity
  8
SLD-0
 62
     7
100
AcDbMText
 10
86.2072017995
 20
180.2762817282
 30
0.1
 40
3.5
 41
0.0
 71
     1
 72
     1
  1
8
  7
SLDTEXTSTYLE0
 11
6.123031769111886E-17
 21
1.0
 31
0.0
 73
     1
 44
1.0
  0
ENDBLK
  5
192
330
186
100
AcDbEntity
  8
0
100
AcDbBlockEnd
  0
ENDSEC
  0
SECTION
  2
ENTITIES
  0
LINE
  5
65
330
1F
100
AcDbEntity
  8
SLD-0
  6
Continuous
 62
   179
100
AcDbLine
 10
20.2604743903
 20
285.0
 30
0.0
 11
196.7604743903
 21
285.0
 31
0.0
  0
LINE
  5
66
330
1F
100
AcDbEntity
  8
SLD-0
  6
Continuous
 62
   179
100
AcDbLine
 10
20.2604743903
 20
285.0
 30
0.0
 11
20.2604743903
 21
10.0
 31
0.0
  0
LINE
  5
67
330
1F
100
AcDbEntity
  8
SLD-0
  6
Continuous
 62
   179
100
AcDbLine
 10
20.2604743903
 20
10.0
 30
0.0
 11
196.7604743903
 21
10.0
 31
0.0
  0
LINE
  5
68
330
1F
100
AcDbEntity
  8
SLD-0
  6
Continuous
 62
   179
100
AcDbLine
 10
196.7604743903
 20
285.0
 30
0.0
 11
196.7604743903
 21
10.0
 31
0.0
  0
LINE
  5
69
330
1F
100
AcDbEntity
  8
SLD-0
  6
Continuous
 62
   179
100
AcDbLine
 10
65.7604743903
 20
285.0
 30
0.0
 11
196.7604743903
 21
285.0
 31
0.0
  0
LINE
  5
6A
330
1F
100
AcDbEntity
  8
SLD-0
  6
Continuous
 62
   179
100
AcDbLine
 10
196.7604743903
 20
285.0
 30
0.0
 11
196.7604743903
 21
264.25
 31
0.0
  0
LINE
  5
6B
330
1F
100
AcDbEntity
  8
SLD-0
  6
Continuous
 62
   179
100
AcDbLine
 10
127.0104743903
 20
50.75
 30
0.0
 11
196.7604743903
 21
50.75
 31
0.0
  0
LINE
  5
6C
330
1F
100
AcDbEntity
  8
SLD-0
  6
Continuous
 62
   179
100
AcDbLine
 10
127.0104743903
 20
50.75
 30
0.0
 11
127.0104743903
 21
22.75
 31
0.0
  0
LINE
  5
6D
330
1F
100
AcDbEntity
  8
SLD-0
  6
Continuous
 62
   179
100
AcDbLine
 10
127.0104743903
 20
22.75
 30
0.0
 11
196.7604743903
 21
22.75
 31
0.0
  0
LINE
  5
6E
330
1F
100
AcDbEntity
  8
SLD-0
  6
Continuous
 62
   179
100
AcDbLine
 10
127.0104743903
 20
36.75
 30
0.0
 11
196.7604743903
 21
36.75
 31
0.0
  0
LINE
  5
6F
330
1F
100
AcDbEntity
  8
SLD-0
100
AcDbLine
 10
124.8632001127
 20
150.7968773994
 30
0.0
 11
122.8118572217
 21
148.551439281
 31
0.0
  0
LINE
  5
70
330
1F
100
AcDbEntity
  8
SLD-0
100
AcDbLine
 10
122.8118572217
 20
148.551439281
 30
0.0
 11
124.0240665126
 21
151.3408027631
 31
0.0
  0
LINE
  5
71
330
1F
100
AcDbEntity
  8
SLD-0
100
AcDbLine
 10
124.0240665126
 20
151.3408027631
 30
0.0
 11
124.8632001127
 21
150.7968773994
 31
0.0
  0
LINE
  5
72
330
1F
100
AcDbEntity
  8
SLD-0
100
AcDbLine
 10
123.7164403557
 20
129.6476952576
 30
0.0
 11
122.8118572217
 21
132.551439281
 31
0.0
  0
LINE
  5
73
330
1F
100
AcDbEntity
  8
SLD-0
100
AcDbLine
 10
122.8118572217
 20
132.551439281
 30
0.0
 11
124.6092987885
 21
130.0980327077
 31
0.0
  0
LINE
  5
74
330
1F
100
AcDbEntity
  8
SLD-0
  6
Continuous
 62
   179
100
AcDbLine
 10
127.7590859959
 20
148.5514396325
 30
0.0
 11
97.7590866664
 21
148.5514396325
 31
0.0
  0
LINE
  5
75
330
1F
100
AcDbEntity
  8
SLD-0
  6
Continuous
 62
   179
100
AcDbLine
 10
127.7590859959
 20
140.8514392667
 30
0.0
 11
127.7590859959
 21
148.5514396325
 31
0.0
  0
LINE
  5
76
330
1F
100
AcDbEntity
  8
SLD-0
  6
Continuous
 62
   179
100
AcDbLine
 10
116.7478204662
 20
140.8514392667
 30
0.0
 11
127.7590859959
 21
140.8514392667
 31
0.0
  0
LINE
  5
77
330
1F
100
AcDbEntity
  8
SLD-0
  6
Continuous
 62
   179
100
AcDbLine
 10
97.7590866664
 20
140.8514392667
 30
0.0
 11
108.7703521961
 21
140.8514392667
 31
0.0
  0
LINE
  5
78
330
1F
100
AcDbEntity
  8
SLD-0
  6
Continuous
 62
   179
100
AcDbLine
 10
97.7590866664
 20
148.5514396325
 30
0.0
 11
97.7590866664
 21
140.8514392667
 31
0.0
  0
LINE
  5
79
330
1F
100
AcDbEntity
  8
SLD-0
  6
Continuous
 62
   179
100
AcDbLine
 10
127.7590859959
 20
140.2514392667
 30
0.0
 11
116.7478204662
 21
140.2514392667
 31
0.0
  0
LINE
  5
7A
330
1F
100
AcDbEntity
  8
SLD-0
  6
Continuous
 62
   179
100
AcDbLine
 10
108.7703521961
 20
140.2514392667
 30
0.0
 11
97.7590866664
 21
140.2514392667
 31
0.0
  0
LINE
  5
7B
330
1F
100
AcDbEntity
  8
SLD-0
  6
Continuous
 62
   179
100
AcDbLine
 10
127.7590859959
 20
132.551438901
 30
0.0
 11
127.7590859959
 21
140.2514392667
 31
0.0
  0
LINE
  5
7C
330
1F
100
AcDbEntity
  8
SLD-0
  6
Continuous
 62
   179
100
AcDbLine
 10
97.7590866664
 20
132.551438901
 30
0.0
 11
127.7590859959
 21
132.551438901
 31
0.0
  0
LINE
  5
7D
330
1F
100
AcDbEntity
  8
SLD-0
  6
Continuous
 62
   179
100
AcDbLine
 10
97.7590866664
 20
140.2514392667
 30
0.0
 11
97.7590866664
 21
132.551438901
 31
0.0
  0
LINE
  5
7E
330
1F
100
AcDbEntity
  8
SLD-0
  6
HIDDEN
 62
     8
100
AcDbLine
 10
119.5090865062
 20
148.551439661
 30
0.0
 11
119.5090865062
 21
140.8514392952
 31
0.0
  0
LINE
  5
7F
330
1F
100
AcDbEntity
  8
SLD-0
  6
HIDDEN
 62
     8
100
AcDbLine
 10
126.0090861747
 20
140.8514392952
 30
0.0
 11
126.0090861747
 21
148.551439661
 31
0.0
  0
LINE
  5
80
330
1F
100
AcDbEntity
  8
SLD-0
  6
HIDDEN
 62
     8
100
AcDbLine
 10
99.5090864876
 20
148.551439661
 30
0.0
 11
99.5090864876
 21
140.8514392952
 31
0.0
  0
LINE
  5
81
330
1F
100
AcDbEntity
  8
SLD-0
  6
HIDDEN
 62
     8
100
AcDbLine
 10
106.0090861561
 20
140.8514392952
 30
0.0
 11
106.0090861561
 21
148.551439661
 31
0.0
  0
LINE
  5
82
330
1F
100
AcDbEntity
  8
SLD-0
  6
HIDDEN
 62
     8
100
AcDbLine
 10
99.5090864876
 20
140.2514392667
 30
0.0
 11
99.5090864876
 21
132.551438901
 31
0.0
  0
LINE
  5
83
330
1F
100
AcDbEntity
  8
SLD-0
  6
HIDDEN
 62
     8
100
AcDbLine
 10
106.0090861561
 20
132.551438901
 30
0.0
 11
106.0090861561
 21
140.2514392667
 31
0.0
  0
LINE
  5
84
330
1F
100
AcDbEntity
  8
SLD-0
  6
HIDDEN
 62
     8
100
AcDbLine
 10
119.5090865062
 20
140.2514392667
 30
0.0
 11
119.5090865062
 21
132.551438901
 31
0.0
  0
LINE
  5
85
330
1F
100
AcDbEntity
  8
SLD-0
  6
HIDDEN
 62
     8
100
AcDbLine
 10
126.0090861747
 20
132.551438901
 30
0.0
 11
126.0090861747
 21
140.2514392667
 31
0.0
  0
LINE
  5
86
330
1F
100
AcDbEntity
  8
SLD-0
100
AcDbLine
 10
124.4436333127
 20
151.0688400812
 30
0.0
 11
130.1913803072
 21
159.9361000955
 31
0.0
  0
LINE
  5
87
330
1F
100
AcDbEntity
  8
SLD-0
100
AcDbLine
 10
130.1913803072
 20
159.9361000955
 30
0.0
 11
144.7455820036
 21
159.9361000955
 31
0.0
  0
LINE
  5
88
330
1F
100
AcDbEntity
  8
SLD-0
100
AcDbLine
 10
124.6092987885
 20
130.0980327077
 30
0.0
 11
123.7164403557
 21
129.6476952576
 31
0.0
  0
LINE
  5
89
330
1F
100
AcDbEntity
  8
SLD-0
100
AcDbLine
 10
124.1628695721
 20
129.8728639826
 30
0.0
 11
129.6416139456
 21
119.0104693198
 31
0.0
  0
LINE
  5
8A
330
1F
100
AcDbEntity
  8
SLD-0
100
AcDbLine
 10
129.6416139456
 20
119.0104693198
 30
0.0
 11
144.195815642
 21
119.0104693198
 31
0.0
  0
LINE
  5
8B
330
1F
100
AcDbEntity
  8
SLD-0
  6
CENTERX2
 62
   179
100
AcDbLine
 10
122.7590863311
 20
129.8279047604
 30
0.0
 11
122.7590863311
 21
150.551439281
 31
0.0
  0
LINE
  5
8C
330
1F
100
AcDbEntity
  8
SLD-0
  6
CENTERX2
 62
   179
100
AcDbLine
 10
102.7590863311
 20
129.5039749303
 30
0.0
 11
102.7590863311
 21
150.551439281
 31
0.0
  0
LINE
  5
8D
330
1F
100
AcDbEntity
  8
SLD-0
  6
Continuous
 62
   179
100
AcDbLine
 10
127.7590859959
 20
177.2943080119
 30
0.0
 11
127.7590859959
 21
193.2943087719
 31
0.0
  0
LINE
  5
8E
330
1F
100
AcDbEntity
  8
SLD-0
  6
Continuous
 62
   179
100
AcDbLine
 10
127.7590859959
 20
177.2943080119
 30
0.0
 11
97.7590866664
 21
177.2943080119
 31
0.0
  0
LINE
  5
8F
330
1F
100
AcDbEntity
  8
SLD-0
  6
Continuous
 62
   179
100
AcDbLine
 10
127.7590859959
 20
193.2943087719
 30
0.0
 11
97.7590866664
 21
193.2943087719
 31
0.0
  0
LINE
  5
90
330
1F
100
AcDbEntity
  8
SLD-0
  6
Continuous
 62
   179
100
AcDbLine
 10
97.7590866664
 20
177.2943080119
 30
0.0
 11
97.7590866664
 21
193.2943087719
 31
0.0
  0
LINE
  5
91
330
1F
100
AcDbEntity
  8
SLD-0
  6
HIDDEN
 62
     8
100
AcDbLine
 10
116.7478203119
 20
177.2943080119
 30
0.0
 11
116.7478203119
 21
193.2943087719
 31
0.0
  0
LINE
  5
92
330
1F
100
AcDbEntity
  8
SLD-0
  6
HIDDEN
 62
     8
100
AcDbLine
 10
108.7703523503
 20
177.2943080119
 30
0.0
 11
108.7703523503
 21
193.2943087719
 31
0.0
  0
LINE
  5
93
330
1F
100
AcDbEntity
  8
SLD-0
  6
CENTERX2
 62
   179
100
AcDbLine
 10
112.7590863311
 20
175.2943083919
 30
0.0
 11
112.7590863311
 21
195.2943083919
 31
0.0
  0
ARC
  5
94
330
1F
100
AcDbEntity
  8
SLD-0
  6
Continuous
 62
   179
100
AcDbCircle
 10
112.7590863311
 20
140.5514392667
 30
0.0
 40
4.000000000031992
100
AcDbArc
 50
4.3012223046
 51
175.6987776953
  0
ARC
  5
95
330
1F
100
AcDbEntity
  8
SLD-0
  6
Continuous
 62
   179
100
AcDbCircle
 10
112.7590863311
 20
140.5514392667
 30
0.0
 40
4.000000000014142
100
AcDbArc
 50
184.3012223047
 51
355.6987776954
  0
CIRCLE
  5
96
330
1F
100
AcDbEntity
  8
SLD-0
  6
Continuous
 62
   179
100
AcDbCircle
 10
122.7590863311
 20
185.2943083919
 30
0.0
 40
3.250000000000014
  0
CIRCLE
  5
97
330
1F
100
AcDbEntity
  8
SLD-0
  6
Continuous
 62
   179
100
AcDbCircle
 10
102.7590863311
 20
185.2943083919
 30
0.0
 40
3.25
  0
DIMENSION
  5
98
330
1F
100
AcDbEntity
  8
SLD-0
 62
     7
100
AcDbDimension
  2
*D7
 10
5.0061617861
 20
6.2400580494
 30
0.0
 11
87.9270631649
 21
-4.6800442578
 31
0.0
 70
   163
  1
<>　  
 71
     1
 42
7.999998768
  3
SLDDIMSTYLE0
100
AcDbDiametricDimension
 15
0.0
 25
0.0
 35
0.0
 40
0.0
1001
ACAD
1000
DSTYLE
1002
{
1070
    77
1070
     0
1070
   143
1040
0.0393700787
1070
    41
1040
3.0
1070
    44
1040
1.0
1070
    42
1040
1.0
1070
   147
1040
1.524
1070
    73
1070
     1
1070
    74
1070
     1
1070
   140
1040
3.5
1070
   284
1070
     0
1070
    78
1070
    12
1002
}
  0
DIMENSION
  5
B5
330
1F
100
AcDbEntity
  8
SLD-0
 62
     7
100
AcDbDimension
  2
*D9
 10
91.0432354703
 20
148.551439281
 30
0.0
 11
91.0432354703
 21
153.3848749328
 31
0.0
 70
   160
 71
     1
 42
7.7
  3
SLDDIMSTYLE1
100
AcDbAlignedDimension
 13
97.7590863311
 23
140.851439281
 33
0.0
 14
97.7590863311
 24
148.551439281
 34
0.0
 50
90.0
100
AcDbRotatedDimension
1001
ACAD
1000
DSTYLE
1002
{
1070
    77
1070
     3
1070
   143
1040
0.0393700787
1070
    41
1040
3.0
1070
    44
1040
1.0
1070
    42
1040
1.0
1070
   147
1040
1.524
1070
    73
1070
     0
1070
    74
1070
     0
1070
   140
1040
3.5
1070
   284
1070
    12
1070
    78
1070
    12
1002
}
  0
DIMENSION
  5
D0
330
1F
100
AcDbEntity
  8
SLD-0
 62
     7
100
AcDbDimension
  2
*D10
 10
91.0432354703
 20
140.251439281
 30
0.0
 11
91.0432354703
 21
140.551439281
 31
0.0
 70
   160
 71
     1
 42
0.6
  3
SLDDIMSTYLE2
100
AcDbAlignedDimension
 13
97.7590863311
 23
140.851439281
 33
0.0
 14
97.7590863311
 24
140.251439281
 34
0.0
 50
90.0
100
AcDbRotatedDimension
1001
ACAD
1000
DSTYLE
1002
{
1070
    77
1070
     3
1070
   143
1040
0.0393700787
1070
    41
1040
3.0
1070
    44
1040
1.0
1070
    42
1040
1.0
1070
   147
1040
1.524
1070
    73
1070
     0
1070
    74
1070
     0
1070
   140
1040
3.5
1070
   284
1070
    12
1070
    78
1070
     8
1002
}
  0
DIMENSION
  5
EE
330
1F
100
AcDbEntity
  8
SLD-0
 62
     7
100
AcDbDimension
  2
*D11
 10
91.0432354703
 20
140.251439281
 30
0.0
 11
91.0432354703
 21
136.401439281
 31
0.0
 70
   160
 71
     1
 42
7.7
  3
SLDDIMSTYLE1
100
AcDbAlignedDimension
 13
97.7590863311
 23
132.551439281
 33
0.0
 14
97.7590863311
 24
140.251439281
 34
0.0
 50
90.0
100
AcDbRotatedDimension
1001
ACAD
1000
DSTYLE
1002
{
1070
    77
1070
     3
1070
   143
1040
0.0393700787
1070
    41
1040
3.0
1070
    44
1040
1.0
1070
    42
1040
1.0
1070
   147
1040
1.524
1070
    73
1070
     0
1070
    74
1070
     0
1070
   140
1040
3.5
1070
   284
1070
    12
1070
    78
1070
    12
1002
}
  0
DIMENSION
  5
108
330
1F
100
AcDbEntity
  8
SLD-0
 62
     7
100
AcDbDimension
  2
*D12
 10
75.3019103532
 20
148.551439281
 30
0.0
 11
75.3019103532
 21
140.551439281
 31
0.0
 70
   160
  1
(<>)
 71
     1
 42
16.0
  3
SLDDIMSTYLE3
100
AcDbAlignedDimension
 13
97.7590863311
 23
132.551439281
 33
0.0
 14
97.7590863311
 24
148.551439281
 34
0.0
 50
90.0
100
AcDbRotatedDimension
1001
ACAD
1000
DSTYLE
1002
{
1070
    77
1070
     3
1070
   143
1040
0.0393700787
1070
    41
1040
3.0
1070
    44
1040
1.0
1070
    42
1040
1.0
1070
   147
1040
1.524
1070
    73
1070
     0
1070
    74
1070
     0
1070
   140
1040
3.5
1070
   284
1070
    12
1070
    78
1070
    12
1002
}
  0
DIMENSION
  5
123
330
1F
100
AcDbEntity
  8
SLD-0
 62
     7
100
AcDbDimension
  2
*D13
 10
80.7725119051
 20
193.2943083919
 30
0.0
 11
80.7725119051
 21
185.2943083919
 31
0.0
 70
   160
 71
     1
 42
16.0
  3
SLDDIMSTYLE3
100
AcDbAlignedDimension
 13
127.7590863311
 23
177.2943083919
 33
0.0
 14
127.7590863311
 24
193.2943083919
 34
0.0
 50
90.0
100
AcDbRotatedDimension
1001
ACAD
1000
DSTYLE
1002
{
1070
    77
1070
     3
1070
   143
1040
0.0393700787
1070
    41
1040
3.0
1070
    44
1040
1.0
1070
    42
1040
1.0
1070
   147
1040
1.524
1070
    73
1070
     0
1070
    74
1070
     0
1070
   140
1040
3.5
1070
   284
1070
    12
1070
    78
1070
    12
1002
}
  0
DIMENSION
  5
13B
330
1F
100
AcDbEntity
  8
SLD-0
 62
     7
100
AcDbDimension
  2
*D14
 10
122.7590863311
 20
207.0293034576
 30
0.0
 11
112.7590863311
 21
207.0293034576
 31
0.0
 70
   160
 71
     1
 42
20.0
  3
SLDDIMSTYLE3
100
AcDbAlignedDimension
 13
102.7590863311
 23
185.2943083919
 33
0.0
 14
122.7590863311
 24
185.2943083919
 34
0.0
100
AcDbRotatedDimension
1001
ACAD
1000
DSTYLE
1002
{
1070
    77
1070
     3
1070
   143
1040
0.0393700787
1070
    41
1040
3.0
1070
    44
1040
1.0
1070
    42
1040
1.0
1070
   147
1040
1.524
1070
    73
1070
     0
1070
    74
1070
     0
1070
   140
1040
3.5
1070
   284
1070
    12
1070
    78
1070
    12
1002
}
  0
DIMENSION
  5
152
330
1F
100
AcDbEntity
  8
SLD-0
 62
     7
100
AcDbDimension
  2
*D15
 10
127.7590863311
 20
215.2815834504
 30
0.0
 11
112.7590863311
 21
215.2815834504
 31
0.0
 70
   160
 71
     1
 42
30.0
  3
SLDDIMSTYLE3
100
AcDbAlignedDimension
 13
97.7590863311
 23
185.2943083919
 33
0.0
 14
127.7590863311
 24
185.2943083919
 34
0.0
100
AcDbRotatedDimension
1001
ACAD
1000
DSTYLE
1002
{
1070
    77
1070
     3
1070
   143
1040
0.0393700787
1070
    41
1040
3.0
1070
    44
1040
1.0
1070
    42
1040
1.0
1070
   147
1040
1.524
1070
    73
1070
     0
1070
    74
1070
     0
1070
   140
1040
3.5
1070
   284
1070
    12
1070
    78
1070
    12
1002
}
  0
DIMENSION
  5
169
330
1F
100
AcDbEntity
  8
SLD-0
 62
     7
100
AcDbDimension
  2
*D16
 10
97.7590863311
 20
207.0293034576
 30
0.0
 11
91.7440322308
 21
207.0293034576
 31
0.0
 70
   160
 71
     1
 42
5.0
  3
SLDDIMSTYLE3
100
AcDbAlignedDimension
 13
102.7590863311
 23
191.0443083919
 33
0.0
 14
97.7590863311
 24
193.2943083919
 34
0.0
100
AcDbRotatedDimension
1001
ACAD
1000
DSTYLE
1002
{
1070
    77
1070
     3
1070
   143
1040
0.0393700787
1070
    41
1040
3.0
1070
    44
1040
1.0
1070
    42
1040
1.0
1070
   147
1040
1.524
1070
    73
1070
     0
1070
    74
1070
     0
1070
   140
1040
3.5
1070
   284
1070
    12
1070
    78
1070
    12
1002
}
  0
DIMENSION
  5
185
330
1F
100
AcDbEntity
  8
SLD-0
 62
     7
100
AcDbDimension
  2
*D17
 10
90.7338954954
 20
185.2943083919
 30
0.0
 11
90.7338954954
 21
181.2943083919
 31
0.0
 70
   160
 71
     1
 42
8.0
  3
SLDDIMSTYLE3
100
AcDbAlignedDimension
 13
97.7590863311
 23
177.2943083919
 33
0.0
 14
97.0090863311
 24
185.2943083919
 34
0.0
 50
90.0
100
AcDbRotatedDimension
1001
ACAD
1000
DSTYLE
1002
{
1070
    77
1070
     3
1070
   143
1040
0.0393700787
1070
    41
1040
3.0
1070
    44
1040
1.0
1070
    42
1040
1.0
1070
   147
1040
1.524
1070
    73
1070
     0
1070
    74
1070
     0
1070
   140
1040
3.5
1070
   284
1070
    12
1070
    78
1070
    12
1002
}
  0
MTEXT
  5
19F
330
1F
100
AcDbEntity
  8
SLD-0
 62
     7
100
AcDbMText
 10
147.318687709
 20
29.7138882404
 30
0.0
 40
4.2333333333
 41
0.0
 71
     1
 72
     1
  1
N01915-108-0
  7
SLDTEXTSTYLE1
 73
     1
 44
1.0
  0
MTEXT
  5
1A1
330
1F
100
AcDbEntity
  8
SLD-0
 62
     7
100
AcDbMText
 10
153.3718674093
 20
43.2377018572
 30
0.0
 40
4.2333333333
 41
0.0
 71
     1
 72
     1
  1
8 BKT W
  7
SLDTEXTSTYLE3
 73
     1
 44
1.0
  0
HATCH
  5
1A2
330
1F
100
AcDbEntity
  8
0
  6
Continuous
 62
   179
100
AcDbHatch
 10
0.0
 20
0.0
 30
0.0
210
0.0
220
0.0
230
1.0
  2
ANSI31
 70
     0
 71
     0
 91
        1
 92
        0
 93
        3
 72
     1
 10
124.0240665126173
 20
151.3408027630536
 11
124.8632001126932
 21
150.7968773994018
 72
     1
 10
124.8632001126932
 20
150.7968773994018
 11
122.8118572217
 21
148.551439281
 72
     1
 10
122.8118572217
 20
148.551439281
 11
124.0240665126173
 21
151.3408027630536
 97
        0
 75
     0
 76
     1
 52
0.0
 41
1.0
 77
     0
 78
     1
 53
45.00000209717174
 43
0.0
 44
0.0
 45
-2.245064112442359
 46
2.245063948092215
 79
     0
 98
        1
 10
0.0
 20
0.0
  0
HATCH
  5
1A3
330
1F
100
AcDbEntity
  8
0
  6
Continuous
 62
   179
100
AcDbHatch
 10
0.0
 20
0.0
 30
0.0
210
0.0
220
0.0
230
1.0
  2
ANSI31
 70
     0
 71
     0
 91
        1
 92
        0
 93
        3
 72
     1
 10
124.6092987885269
 20
130.098032707714
 11
123.7164403557408
 21
129.6476952575694
 72
     1
 10
123.7164403557408
 20
129.6476952575694
 11
122.8118572217
 21
132.551439281
 72
     1
 10
122.8118572217
 20
132.551439281
 11
124.6092987885269
 21
130.098032707714
 97
        0
 75
     0
 76
     1
 52
0.0
 41
1.0
 77
     0
 78
     1
 53
45.00000209717174
 43
0.0
 44
0.0
 45
-2.245064112442359
 46
2.245063948092215
 79
     0
 98
        1
 10
0.0
 20
0.0
  0
INSERT
  5
1A4
330
1F
100
AcDbEntity
  8
0
  6
Continuous
 62
     7
370
     0
100
AcDbBlockReference
  2
NOTE43
 10
144.7455820036
 20
159.9361000955
 30
0.0
  0
INSERT
  5
1A5
330
1F
100
AcDbEntity
  8
0
  6
Continuous
 62
     7
370
     0
100
AcDbBlockReference
  2
NOTE44
 10
144.195815642
 20
119.0104693198
 30
0.0
  0
INSERT
  5
1A6
330
1F
100
AcDbEntity
  8
0
  6
Continuous
 62
     7
370
     0
100
AcDbBlockReference
  2
SW_CENTERMARK0
 10
0.0
 20
0.0
 30
0.0
  0
INSERT
  5
1A7
330
1F
100
AcDbEntity
  8
0
  6
Continuous
 62
     7
370
     0
100
AcDbBlockReference
  2
SW_CENTERMARK1
 10
0.0
 20
0.0
 30
0.0
  0
INSERT
  5
1A8
330
1F
100
AcDbEntity
  8
0
  6
Continuous
 62
     7
370
     0
100
AcDbBlockReference
  2
SW_CENTERMARK2
 10
0.0
 20
0.0
 30
0.0
  0
ENDSEC
  0
SECTION
  2
OBJECTS
  0
DICTIONARY
  5
C
330
0
100
AcDbDictionary
281
     1
  3
ACAD_GROUP
350
D
  3
ACAD_LAYOUT
350
1A
  3
ACAD_MLINESTYLE
350
17
  3
ACAD_PLOTSETTINGS
350
19
  3
ACAD_PLOTSTYLENAME
350
E
  0
DICTIONARY
  5
D
102
{ACAD_REACTORS
330
C
102
}
330
C
100
AcDbDictionary
281
     1
  0
DICTIONARY
  5
1A
102
{ACAD_REACTORS
330
C
102
}
330
C
100
AcDbDictionary
281
     1
  3
Layout1
350
1E
  3
Layout2
350
26
  3
Model
350
22
  0
DICTIONARY
  5
17
102
{ACAD_REACTORS
330
C
102
}
330
C
100
AcDbDictionary
281
     1
  3
Standard
350
18
  0
DICTIONARY
  5
19
102
{ACAD_REACTORS
330
C
102
}
330
C
100
AcDbDictionary
281
     1
  0
ACDBDICTIONARYWDFLT
  5
E
102
{ACAD_REACTORS
330
C
102
}
330
C
100
AcDbDictionary
281
     1
  3
Normal
350
F
100
AcDbDictionaryWithDefault
340
F
  0
LAYOUT
  5
1E
102
{ACAD_REACTORS
330
1A
102
}
330
1A
100
AcDbPlotSettings
  1

  2

  4

  6

 40
0.0
 41
0.0
 42
0.0
 43
0.0
 44
0.0
 45
0.0
 46
0.0
 47
0.0
 48
0.0
 49
0.0
140
0.0
141
0.0
142
1.0
143
1.0
 70
   688
 72
     0
 73
     0
 74
     5
  7

 75
    16
147
1.0
148
0.0
149
0.0
100
AcDbLayout
  1
Layout1
 70
     1
 71
     1
 10
0.0
 20
0.0
 11
0.0
 21
0.0
 12
0.0
 22
0.0
 32
0.0
 14
0.0
 24
0.0
 34
0.0
 15
0.0
 25
0.0
 35
0.0
146
0.0
 13
0.0
 23
0.0
 33
0.0
 16
1.0
 26
0.0
 36
0.0
 17
0.0
 27
1.0
 37
0.0
 76
     0
330
1B
  0
LAYOUT
  5
26
102
{ACAD_REACTORS
330
1A
102
}
330
1A
100
AcDbPlotSettings
  1

  2

  4

  6

 40
0.0
 41
0.0
 42
0.0
 43
0.0
 44
0.0
 45
0.0
 46
0.0
 47
0.0
 48
0.0
 49
0.0
140
0.0
141
0.0
142
1.0
143
1.0
 70
   688
 72
     0
 73
     0
 74
     5
  7

 75
    16
147
1.0
148
0.0
149
0.0
100
AcDbLayout
  1
Layout2
 70
     1
 71
     2
 10
0.0
 20
0.0
 11
0.0
 21
0.0
 12
0.0
 22
0.0
 32
0.0
 14
0.0
 24
0.0
 34
0.0
 15
0.0
 25
0.0
 35
0.0
146
0.0
 13
0.0
 23
0.0
 33
0.0
 16
1.0
 26
0.0
 36
0.0
 17
0.0
 27
1.0
 37
0.0
 76
     0
330
23
  0
LAYOUT
  5
22
102
{ACAD_REACTORS
330
1A
102
}
330
1A
100
AcDbPlotSettings
  1

  2

  4

  6

 40
0.0
 41
0.0
 42
0.0
 43
0.0
 44
0.0
 45
0.0
 46
0.0
 47
0.0
 48
0.0
 49
0.0
140
0.0
141
0.0
142
1.0
143
1.0
 70
  1712
 72
     0
 73
     0
 74
     0
  7

 75
     0
147
1.0
148
0.0
149
0.0
100
AcDbLayout
  1
Model
 70
     1
 71
     0
 10
0.0
 20
0.0
 11
0.0
 21
0.0
 12
0.0
 22
0.0
 32
0.0
 14
0.0
 24
0.0
 34
0.0
 15
210.0
 25
297.0
 35
0.0
146
0.0
 13
0.0
 23
0.0
 33
0.0
 16
1.0
 26
0.0
 36
0.0
 17
0.0
 27
1.0
 37
0.0
 76
     0
330
1F
  0
MLINESTYLE
  5
18
102
{ACAD_REACTORS
330
17
102
}
330
17
100
AcDbMlineStyle
  2
Standard
 70
     0
  3

 62
   256
 51
90.0
 52
90.0
 71
     2
 49
0.5
 62
   256
  6
BYLAYER
 49
-0.5
 62
   256
  6
BYLAYER
  0
ACDBPLACEHOLDER
  5
F
102
{ACAD_REACTORS
330
E
102
}
330
E
  0
ENDSEC
  0
EOF
