  0
SECTION
  2
HEADER
  9
$ACADVER
  1
AC1015
  9
$ACADMAINTVER
 70
     6
  9
$DWGCODEPAGE
  3
DOS932
  9
$INSBASE
 10
0.0
 20
0.0
 30
0.0
  9
$EXTMIN
 10
0.0
 20
0.0
 30
0.0
  9
$EXTMAX
 10
210.0
 20
297.0
 30
0.0
  9
$LIMMIN
 10
0.0
 20
0.0
  9
$LIMMAX
 10
0.0
 20
0.0
  9
$ORTHOMODE
 70
     0
  9
$REGENMODE
 70
     1
  9
$FILLMODE
 70
     1
  9
$QTEXTMODE
 70
     0
  9
$MIRRTEXT
 70
     1
  9
$LTSCALE
 40
1.0
  9
$ATTMODE
 70
     1
  9
$TEXTSIZE
 40
3.5
  9
$TRACEWID
 40
1.0
  9
$TEXTSTYLE
  7
Standard
  9
$CLAYER
  8
0
  9
$CELTYPE
  6
ByLayer
  9
$CECOLOR
 62
   256
  9
$CELTSCALE
 40
1.0
  9
$DISPSILH
 70
     0
  9
$DIMSCALE
 40
1.0
  9
$DIMASZ
 40
3.0
  9
$DIMEXO
 40
1.0
  9
$DIMDLI
 40
3.75
  9
$DIMRND
 40
0.0
  9
$DIMDLE
 40
0.0
  9
$DIMEXE
 40
1.0
  9
$DIMTP
 40
0.0
  9
$DIMTM
 40
0.0
  9
$DIMTXT
 40
3.5
  9
$DIMCEN
 40
2.5
  9
$DIMTSZ
 40
0.0
  9
$DIMTOL
 70
     0
  9
$DIMLIM
 70
     0
  9
$DIMTIH
 70
     1
  9
$DIMTOH
 70
     1
  9
$DIMSE1
 70
     0
  9
$DIMSE2
 70
     0
  9
$DIMTAD
 70
     1
  9
$DIMZIN
 70
     1
  9
$DIMBLK
  1

  9
$DIMASO
 70
     1
  9
$DIMSHO
 70
     1
  9
$DIMPOST
  1

  9
$DIMAPOST
  1

  9
$DIMALT
 70
     0
  9
$DIMALTD
 70
     3
  9
$DIMALTF
 40
0.0393700787
  9
$DIMLFAC
 40
1.0
  9
$DIMTOFL
 70
     1
  9
$DIMTVP
 40
0.0
  9
$DIMTIX
 70
     0
  9
$DIMSOXD
 70
     0
  9
$DIMSAH
 70
     0
  9
$DIMBLK1
  1

  9
$DIMBLK2
  1

  9
$DIMSTYLE
  2
ISO-25
  9
$DIMCLRD
 70
     0
  9
$DIMCLRE
 70
     0
  9
$DIMCLRT
 70
     0
  9
$DIMTFAC
 40
1.0
  9
$DIMGAP
 40
1.524
  9
$DIMJUST
 70
     0
  9
$DIMSD1
 70
     0
  9
$DIMSD2
 70
     0
  9
$DIMTOLJ
 70
     0
  9
$DIMTZIN
 70
     1
  9
$DIMALTZ
 70
     0
  9
$DIMALTTZ
 70
     0
  9
$DIMUPT
 70
     0
  9
$DIMDEC
 70
     2
  9
$DIMTDEC
 70
     2
  9
$DIMALTU
 70
     2
  9
$DIMALTTD
 70
     3
  9
$DIMTXSTY
  7
Standard
  9
$DIMAUNIT
 70
     0
  9
$DIMADEC
 70
     0
  9
$DIMALTRND
 40
0.0
  9
$DIMAZIN
 70
     0
  9
$DIMDSEP
 70
    44
  9
$DIMATFIT
 70
     3
  9
$DIMFRAC
 70
     0
  9
$DIMLDRBLK
  1

  9
$DIMLUNIT
 70
     2
  9
$DIMLWD
 70
    -2
  9
$DIMLWE
 70
    -2
  9
$DIMTMOVE
 70
     0
  9
$LUNITS
 70
     2
  9
$LUPREC
 70
     1
  9
$SKETCHINC
 40
1.0
  9
$FILLETRAD
 40
10.0
  9
$AUNITS
 70
     0
  9
$AUPREC
 70
     0
  9
$MENU
  1
.
  9
$ELEVATION
 40
0.0
  9
$PELEVATION
 40
0.0
  9
$THICKNESS
 40
0.0
  9
$LIMCHECK
 70
     0
  9
$CHAMFERA
 40
10.0
  9
$CHAMFERB
 40
10.0
  9
$CHAMFERC
 40
20.0
  9
$CHAMFERD
 40
0.0
  9
$SKPOLY
 70
     0
  9
$TDCREATE
 40
2454322.452506146
  9
$TDUCREATE
 40
2454322.077506146
  9
$TDUPDATE
 40
2454322.452506158
  9
$TDUUPDATE
 40
2454322.077506158
  9
$TDINDWG
 40
0.0000000116
  9
$TDUSRTIMER
 40
0.0000000116
  9
$USRTIMER
 70
     1
  9
$ANGBASE
 50
0.0
  9
$ANGDIR
 70
     0
  9
$PDMODE
 70
     0
  9
$PDSIZE
 40
-1.0
  9
$PLINEWID
 40
0.0
  9
$SPLFRAME
 70
     0
  9
$SPLINETYPE
 70
     6
  9
$SPLINESEGS
 70
     8
  9
$HANDSEED
  5
211
  9
$SURFTAB1
 70
     6
  9
$SURFTAB2
 70
     6
  9
$SURFTYPE
 70
     6
  9
$SURFU
 70
     6
  9
$SURFV
 70
     6
  9
$UCSBASE
  2

  9
$UCSNAME
  2

  9
$UCSORG
 10
0.0
 20
0.0
 30
0.0
  9
$UCSXDIR
 10
1.0
 20
0.0
 30
0.0
  9
$UCSYDIR
 10
0.0
 20
1.0
 30
0.0
  9
$UCSORTHOREF
  2

  9
$UCSORTHOVIEW
 70
     0
  9
$UCSORGTOP
 10
0.0
 20
0.0
 30
0.0
  9
$UCSORGBOTTOM
 10
0.0
 20
0.0
 30
0.0
  9
$UCSORGLEFT
 10
0.0
 20
0.0
 30
0.0
  9
$UCSORGRIGHT
 10
0.0
 20
0.0
 30
0.0
  9
$UCSORGFRONT
 10
0.0
 20
0.0
 30
0.0
  9
$UCSORGBACK
 10
0.0
 20
0.0
 30
0.0
  9
$PUCSBASE
  2

  9
$PUCSNAME
  2

  9
$PUCSORG
 10
0.0
 20
0.0
 30
0.0
  9
$PUCSXDIR
 10
1.0
 20
0.0
 30
0.0
  9
$PUCSYDIR
 10
0.0
 20
1.0
 30
0.0
  9
$PUCSORTHOREF
  2

  9
$PUCSORTHOVIEW
 70
     0
  9
$PUCSORGTOP
 10
0.0
 20
0.0
 30
0.0
  9
$PUCSORGBOTTOM
 10
0.0
 20
0.0
 30
0.0
  9
$PUCSORGLEFT
 10
0.0
 20
0.0
 30
0.0
  9
$PUCSORGRIGHT
 10
0.0
 20
0.0
 30
0.0
  9
$PUCSORGFRONT
 10
0.0
 20
0.0
 30
0.0
  9
$PUCSORGBACK
 10
0.0
 20
0.0
 30
0.0
  9
$USERI1
 70
     0
  9
$USERI2
 70
     0
  9
$USERI3
 70
     0
  9
$USERI4
 70
     0
  9
$USERI5
 70
     0
  9
$USERR1
 40
0.0
  9
$USERR2
 40
0.0
  9
$USERR3
 40
0.0
  9
$USERR4
 40
0.0
  9
$USERR5
 40
0.0
  9
$WORLDVIEW
 70
     1
  9
$SHADEDGE
 70
     3
  9
$SHADEDIF
 70
    70
  9
$TILEMODE
 70
     1
  9
$MAXACTVP
 70
    64
  9
$PINSBASE
 10
0.0
 20
0.0
 30
0.0
  9
$PLIMCHECK
 70
     0
  9
$PEXTMIN
 10
1.0000000000E+20
 20
1.0000000000E+20
 30
1.0000000000E+20
  9
$PEXTMAX
 10
-1.0000000000E+20
 20
-1.0000000000E+20
 30
-1.0000000000E+20
  9
$PLIMMIN
 10
0.0
 20
0.0
  9
$PLIMMAX
 10
420.0
 20
297.0
  9
$UNITMODE
 70
     0
  9
$VISRETAIN
 70
     1
  9
$PLINEGEN
 70
     0
  9
$PSLTSCALE
 70
     1
  9
$TREEDEPTH
 70
  3020
  9
$CMLSTYLE
  2
Standard
  9
$CMLJUST
 70
     0
  9
$CMLSCALE
 40
20.0
  9
$PROXYGRAPHICS
 70
     1
  9
$MEASUREMENT
 70
     1
  9
$CELWEIGHT
370
    -1
  9
$ENDCAPS
280
     0
  9
$JOINSTYLE
280
     0
  9
$LWDISPLAY
290
     1
  9
$INSUNITS
 70
     4
  9
$HYPERLINKBASE
  1

  9
$STYLESHEET
  1

  9
$XEDIT
290
     1
  9
$CEPSNTYPE
380
     0
  9
$PSTYLEMODE
290
     1
  9
$FINGERPRINTGUID
  2
{82FF3040-06FD-40B2-8B85-A34DDF411193}
  9
$VERSIONGUID
  2
{FAEB1C32-E019-11D5-929B-00C0DF256EC4}
  9
$EXTNAMES
290
     1
  9
$PSVPSCALE
 40
0.0
  9
$OLESTARTUP
290
     0
  0
ENDSEC
  0
SECTION
  2
CLASSES
  0
CLASS
  1
ACDBDICTIONARYWDFLT
  2
AcDbDictionaryWithDefault
  3
ObjectDBX Classes
 90
        0
280
     0
281
     0
  0
CLASS
  1
ACDBPLACEHOLDER
  2
AcDbPlaceHolder
  3
ObjectDBX Classes
 90
        0
280
     0
281
     0
  0
CLASS
  1
LAYOUT
  2
AcDbLayout
  3
ObjectDBX Classes
 90
        0
280
     0
281
     0
  0
ENDSEC
  0
SECTION
  2
TABLES
  0
TABLE
  2
VPORT
  5
8
330
0
100
AcDbSymbolTable
 70
     1
  0
VPORT
  5
29
330
8
100
AcDbSymbolTableRecord
100
AcDbViewportTableRecord
  2
*Active
 70
     0
 10
0.0
 20
0.0
 11
1.0
 21
1.0
 12
105.0
 22
148.5
 13
0.0
 23
0.0
 14
10.0
 24
10.0
 15
10.0
 25
10.0
 16
0.0
 26
0.0
 36
1.0
 17
0.0
 27
0.0
 37
0.0
 40
297.0
 41
1.9729729729
 42
50.0
 43
0.0
 44
0.0
 50
0.0
 51
0.0
 71
     0
 72
  2000
 73
     1
 74
     3
 75
     0
 76
     0
 77
     0
 78
     0
281
     0
 65
     1
110
0.0
120
0.0
130
0.0
111
1.0
121
0.0
131
0.0
112
0.0
122
1.0
132
0.0
 79
     0
146
0.0
  0
ENDTAB
  0
TABLE
  2
LTYPE
  5
5
330
0
100
AcDbSymbolTable
 70
     6
  0
LTYPE
  5
14
330
5
100
AcDbSymbolTableRecord
100
AcDbLinetypeTableRecord
  2
ByBlock
 70
     0
  3

 72
    65
 73
     0
 40
0.0
  0
LTYPE
  5
15
330
5
100
AcDbSymbolTableRecord
100
AcDbLinetypeTableRecord
  2
ByLayer
 70
     0
  3

 72
    65
 73
     0
 40
0.0
  0
LTYPE
  5
16
330
5
100
AcDbSymbolTableRecord
100
AcDbLinetypeTableRecord
  2
Continuous
 70
     0
  3
Solid line
 72
    65
 73
     0
 40
0.0
  0
LTYPE
  5
2A
330
5
100
AcDbSymbolTableRecord
100
AcDbLinetypeTableRecord
  2
HIDDEN
 70
     0
  3
Hidden __ __ __ __ __ __ __ __ __ __ __ __ __ __
 72
    65
 73
     2
 40
1.905
 49
1.27
 74
     0
 49
-0.635
 74
     0
  0
LTYPE
  5
2B
330
5
100
AcDbSymbolTableRecord
100
AcDbLinetypeTableRecord
  2
PHANTOM
 70
     0
  3
Phantom ______  __  __  ______  __  __  ______
 72
    65
 73
     6
 40
12.7
 49
6.35
 74
     0
 49
-1.27
 74
     0
 49
1.27
 74
     0
 49
-1.27
 74
     0
 49
1.27
 74
     0
 49
-1.27
 74
     0
  0
LTYPE
  5
2C
330
5
100
AcDbSymbolTableRecord
100
AcDbLinetypeTableRecord
  2
CENTER
 70
     0
  3
Center ____ _ ____ _ ____ _ ____ _ ____ _ ____
 72
    65
 73
     4
 40
10.16
 49
6.35
 74
     0
 49
-1.27
 74
     0
 49
1.27
 74
     0
 49
-1.27
 74
     0
  0
LTYPE
  5
2D
330
5
100
AcDbSymbolTableRecord
100
AcDbLinetypeTableRecord
  2
CENTERX2
 70
     0
  3
Center (2x) ________  __  ________  __  _____
 72
    65
 73
     4
 40
20.32
 49
12.7
 74
     0
 49
-2.54
 74
     0
 49
2.54
 74
     0
 49
-2.54
 74
     0
  0
LTYPE
  5
2E
330
5
100
AcDbSymbolTableRecord
100
AcDbLinetypeTableRecord
  2
DOT2
 70
     0
  3
Dot (.5x) ........................................
 72
    65
 73
     2
 40
0.635
 49
0.0
 74
     0
 49
-0.635
 74
     0
  0
ENDTAB
  0
TABLE
  2
LAYER
  5
2
330
0
100
AcDbSymbolTable
 70
     4
  0
LAYER
  5
10
330
2
100
AcDbSymbolTableRecord
100
AcDbLayerTableRecord
  2
0
 70
     0
 62
     7
  6
Continuous
370
    -3
390
F
  0
LAYER
  5
2F
330
2
100
AcDbSymbolTableRecord
100
AcDbLayerTableRecord
  2
SLD-0
 70
     0
 62
   179
  6
Continuous
370
     0
390
F
  0
LAYER
  5
30
330
2
100
AcDbSymbolTableRecord
100
AcDbLayerTableRecord
  2
SLD-DEFPOINTS
 70
     0
 62
   179
  6
Continuous
370
     0
390
F
  0
LAYER
  5
B8
330
2
100
AcDbSymbolTableRecord
100
AcDbLayerTableRecord
  2
Defpoints
 70
     0
 62
     7
  6
Continuous
290
     0
370
    -3
390
F
  0
ENDTAB
  0
TABLE
  2
STYLE
  5
3
330
0
100
AcDbSymbolTable
 70
     3
  0
STYLE
  5
11
330
3
100
AcDbSymbolTableRecord
100
AcDbTextStyleTableRecord
  2
Standard
 70
     0
 40
0.0
 41
1.0
 50
0.0
 71
     0
 42
2.5
  3
txt
  4
bigfont
  0
STYLE
  5
34
330
3
100
AcDbSymbolTableRecord
100
AcDbTextStyleTableRecord
  2
SLDTEXTSTYLE0
 70
     0
 40
0.0
 41
0.7
 50
0.0
 71
     0
 42
0.2
  3
TXT
  4
bigfont
  0
STYLE
  5
C5
330
3
100
AcDbSymbolTableRecord
100
AcDbTextStyleTableRecord
  2
SLDTEXTSTYLE1
 70
     0
 40
0.0
 41
0.5526315789
 50
0.0
 71
     0
 42
0.2
  3
TXT
  4
bigfont
  0
ENDTAB
  0
TABLE
  2
VIEW
  5
6
330
0
100
AcDbSymbolTable
 70
     0
  0
ENDTAB
  0
TABLE
  2
UCS
  5
7
330
0
100
AcDbSymbolTable
 70
     0
  0
ENDTAB
  0
TABLE
  2
APPID
  5
9
330
0
100
AcDbSymbolTable
 70
     1
  0
APPID
  5
12
330
9
100
AcDbSymbolTableRecord
100
AcDbRegAppTableRecord
  2
ACAD
 70
     0
  0
ENDTAB
  0
TABLE
  2
DIMSTYLE
  5
A
330
0
100
AcDbSymbolTable
 70
     5
100
AcDbDimStyleTable
  0
DIMSTYLE
105
27
330
A
100
AcDbSymbolTableRecord
100
AcDbDimStyleTableRecord
  2
ISO-25
 70
     0
 41
2.5
 42
0.625
 43
3.75
 44
1.25
 73
     0
 74
     0
 77
     1
 78
     8
140
2.5
141
2.5
143
0.0393700787
147
0.625
171
     3
172
     1
271
     2
272
     2
274
     3
278
    44
283
     0
284
     8
340
11
  0
DIMSTYLE
105
C6
102
{ACAD_REACTORS
330
B7
330
D4
330
104
330
151
330
187
330
1A0
330
1D6
102
}
330
A
100
AcDbSymbolTableRecord
100
AcDbDimStyleTableRecord
  2
SLDDIMSTYLE0
 70
     0
 41
3.0
 44
0.0
 73
     0
 74
     0
 77
     3
 78
    12
140
3.5
147
0.875
173
     1
271
     0
272
     3
284
    12
340
C5
341
C7
343
C7
344
C7
  0
DIMSTYLE
105
F9
102
{ACAD_REACTORS
330
EB
330
11E
330
16B
330
1BA
102
}
330
A
100
AcDbSymbolTableRecord
100
AcDbDimStyleTableRecord
  2
SLDDIMSTYLE1
 70
     0
 41
3.0
 44
0.0
 73
     0
 74
     0
 77
     3
 78
    12
140
3.5
147
0.875
173
     1
271
     1
272
     3
284
    12
340
C5
341
C7
343
C7
344
C7
  0
DIMSTYLE
105
144
102
{ACAD_REACTORS
330
135
102
}
330
A
100
AcDbSymbolTableRecord
100
AcDbDimStyleTableRecord
  2
SLDDIMSTYLE2
 70
     0
 41
3.0
 44
0.0
 73
     0
 74
     0
 77
     3
 78
    12
140
3.5
147
0.875
173
     1
271
     2
272
     3
284
    12
340
C5
341
C7
343
C7
344
C7
  0
DIMSTYLE
105
1FB
102
{ACAD_REACTORS
330
1ED
102
}
330
A
100
AcDbSymbolTableRecord
100
AcDbDimStyleTableRecord
  2
SLDDIMSTYLE3
 70
     0
 41
3.0
 44
0.0
 73
     0
 74
     0
 77
     3
 78
    12
140
3.5
147
0.875
173
     1
271
     0
272
     2
284
    12
340
C5
341
C7
343
C7
344
C7
  0
ENDTAB
  0
TABLE
  2
BLOCK_RECORD
  5
1
330
0
100
AcDbSymbolTable
 70
    23
  0
BLOCK_RECORD
  5
1F
330
1
100
AcDbSymbolTableRecord
100
AcDbBlockTableRecord
  2
*Model_Space
340
22
  0
BLOCK_RECORD
  5
1B
330
1
100
AcDbSymbolTableRecord
100
AcDbBlockTableRecord
  2
*Paper_Space
340
1E
  0
BLOCK_RECORD
  5
23
330
1
100
AcDbSymbolTableRecord
100
AcDbBlockTableRecord
  2
*Paper_Space0
340
26
  0
BLOCK_RECORD
  5
31
330
1
100
AcDbSymbolTableRecord
100
AcDbBlockTableRecord
  2
注記
340
0
  0
BLOCK_RECORD
  5
37
330
1
100
AcDbSymbolTableRecord
100
AcDbBlockTableRecord
  2
SW_CENTERMARK0
340
0
102
{BLKREFS
331
20A
102
}
  0
BLOCK_RECORD
  5
42
330
1
100
AcDbSymbolTableRecord
100
AcDbBlockTableRecord
  2
SW_CENTERMARK1
340
0
102
{BLKREFS
331
20B
102
}
  0
BLOCK_RECORD
  5
4D
330
1
100
AcDbSymbolTableRecord
100
AcDbBlockTableRecord
  2
SW_CENTERMARK2
340
0
102
{BLKREFS
331
20C
102
}
  0
BLOCK_RECORD
  5
58
330
1
100
AcDbSymbolTableRecord
100
AcDbBlockTableRecord
  2
SW_CENTERMARK3
340
0
102
{BLKREFS
331
20D
102
}
  0
BLOCK_RECORD
  5
63
330
1
100
AcDbSymbolTableRecord
100
AcDbBlockTableRecord
  2
SW_CENTERMARK4
340
0
102
{BLKREFS
331
20E
102
}
  0
BLOCK_RECORD
  5
6E
330
1
100
AcDbSymbolTableRecord
100
AcDbBlockTableRecord
  2
SW_CENTERMARK5
340
0
102
{BLKREFS
331
20F
102
}
  0
BLOCK_RECORD
  5
79
330
1
100
AcDbSymbolTableRecord
100
AcDbBlockTableRecord
  2
SW_CENTERMARK6
340
0
102
{BLKREFS
331
210
102
}
  0
BLOCK_RECORD
  5
B9
330
1
100
AcDbSymbolTableRecord
100
AcDbBlockTableRecord
  2
*D9
340
0
  0
BLOCK_RECORD
  5
C7
330
1
100
AcDbSymbolTableRecord
100
AcDbBlockTableRecord
  2
_None
340
0
102
{BLKREFS
331
BE
331
BD
331
DA
331
D9
331
F1
331
F0
331
10A
331
109
331
124
331
123
331
13C
331
13B
331
157
331
156
331
172
331
171
331
18D
331
18C
331
1A6
331
1A5
331
1C1
331
1C0
331
1DC
331
1DB
331
1F3
331
1F2
102
}
  0
BLOCK_RECORD
  5
D5
330
1
100
AcDbSymbolTableRecord
100
AcDbBlockTableRecord
  2
*D11
340
0
  0
BLOCK_RECORD
  5
EC
330
1
100
AcDbSymbolTableRecord
100
AcDbBlockTableRecord
  2
*D12
340
0
  0
BLOCK_RECORD
  5
105
330
1
100
AcDbSymbolTableRecord
100
AcDbBlockTableRecord
  2
*D13
340
0
  0
BLOCK_RECORD
  5
11F
330
1
100
AcDbSymbolTableRecord
100
AcDbBlockTableRecord
  2
*D14
340
0
  0
BLOCK_RECORD
  5
136
330
1
100
AcDbSymbolTableRecord
100
AcDbBlockTableRecord
  2
*D15
340
0
  0
BLOCK_RECORD
  5
152
330
1
100
AcDbSymbolTableRecord
100
AcDbBlockTableRecord
  2
*D16
340
0
  0
BLOCK_RECORD
  5
16C
330
1
100
AcDbSymbolTableRecord
100
AcDbBlockTableRecord
  2
*D17
340
0
  0
BLOCK_RECORD
  5
188
330
1
100
AcDbSymbolTableRecord
100
AcDbBlockTableRecord
  2
*D18
340
0
  0
BLOCK_RECORD
  5
1A1
330
1
100
AcDbSymbolTableRecord
100
AcDbBlockTableRecord
  2
*D19
340
0
  0
BLOCK_RECORD
  5
1BB
330
1
100
AcDbSymbolTableRecord
100
AcDbBlockTableRecord
  2
*D20
340
0
  0
BLOCK_RECORD
  5
1D7
330
1
100
AcDbSymbolTableRecord
100
AcDbBlockTableRecord
  2
*D21
340
0
  0
BLOCK_RECORD
  5
1EE
330
1
100
AcDbSymbolTableRecord
100
AcDbBlockTableRecord
  2
*D22
340
0
  0
ENDTAB
  0
ENDSEC
  0
SECTION
  2
BLOCKS
  0
BLOCK
  5
20
330
1F
100
AcDbEntity
  8
0
100
AcDbBlockBegin
  2
*Model_Space
 70
     0
 71
     0
 10
0.0
 20
0.0
 30
0.0
  3
*Model_Space
  1

  0
ENDBLK
  5
21
330
1F
100
AcDbEntity
  8
0
100
AcDbBlockEnd
  0
BLOCK
  5
1C
330
1B
100
AcDbEntity
 67
     1
  8
0
100
AcDbBlockBegin
  2
*Paper_Space
 70
     0
 71
     0
 10
0.0
 20
0.0
 30
0.0
  3
*Paper_Space
  1

  0
ENDBLK
  5
1D
330
1B
100
AcDbEntity
 67
     1
  8
0
100
AcDbBlockEnd
  0
BLOCK
  5
24
330
23
100
AcDbEntity
  8
0
100
AcDbBlockBegin
  2
*Paper_Space0
 70
     0
 71
     0
 10
0.0
 20
0.0
 30
0.0
  3
*Paper_Space0
  1

  0
ENDBLK
  5
25
330
23
100
AcDbEntity
  8
0
100
AcDbBlockEnd
  0
BLOCK
  5
32
330
31
100
AcDbEntity
  8
0
100
AcDbBlockBegin
  2
注記
 70
     0
 71
     0
 10
0.0
 20
0.0
 30
0.0
  3
注記
  1

  0
MTEXT
  5
35
330
31
100
AcDbEntity
  8
0
  6
Continuous
 62
     7
370
     0
100
AcDbMText
 10
0.2636785918
 20
9.0739778448
 30
0.0
 40
3.5
 41
0.0
 71
     1
 72
     1
  1
１．特記ナキ角部ハ、バリ　カエリノ無キコト。
  7
SLDTEXTSTYLE0
 73
     1
 44
1.0
  0
MTEXT
  5
36
330
31
100
AcDbEntity
  8
0
  6
Continuous
 62
     7
370
     0
100
AcDbMText
 10
0.2636785918
 20
3.5759549983
 30
0.0
 40
3.5
 41
0.0
 71
     1
 72
     1
  1
２．特記ナキ隅部ハ、Ｒ０．４ＭＡＸトスル。
  7
SLDTEXTSTYLE0
 73
     1
 44
1.0
  0
ENDBLK
  5
33
330
31
100
AcDbEntity
  8
0
100
AcDbBlockEnd
  0
BLOCK
  5
38
330
37
100
AcDbEntity
  8
0
100
AcDbBlockBegin
  2
SW_CENTERMARK0
 70
     0
 71
     0
 10
0.0
 20
0.0
 30
0.0
  3
SW_CENTERMARK0
  1

  0
LINE
  5
3A
330
37
100
AcDbEntity
  8
SLD-0
  6
Continuous
 62
   179
100
AcDbLine
 10
106.4061842105
 20
180.3109460246
 30
0.0
 11
106.4061842105
 21
182.8109460246
 31
0.0
  0
LINE
  5
3B
330
37
100
AcDbEntity
  8
SLD-0
  6
Continuous
 62
   179
100
AcDbLine
 10
106.4061842105
 20
180.3109460246
 30
0.0
 11
103.9061842105
 21
180.3109460246
 31
0.0
  0
LINE
  5
3C
330
37
100
AcDbEntity
  8
SLD-0
  6
Continuous
 62
   179
100
AcDbLine
 10
106.4061842105
 20
180.3109460246
 30
0.0
 11
106.4061842105
 21
177.8109460246
 31
0.0
  0
LINE
  5
3D
330
37
100
AcDbEntity
  8
SLD-0
  6
Continuous
 62
   179
100
AcDbLine
 10
106.4061842105
 20
180.3109460246
 30
0.0
 11
108.9061842105
 21
180.3109460246
 31
0.0
  0
LINE
  5
3E
330
37
100
AcDbEntity
  8
SLD-0
  6
Continuous
 62
   179
100
AcDbLine
 10
106.4061842105
 20
182.8109460246
 30
0.0
 11
106.4061842105
 21
184.0609460246
 31
0.0
  0
LINE
  5
3F
330
37
100
AcDbEntity
  8
SLD-0
  6
Continuous
 62
   179
100
AcDbLine
 10
103.9061842105
 20
180.3109460246
 30
0.0
 11
102.6561842105
 21
180.3109460246
 31
0.0
  0
LINE
  5
40
330
37
100
AcDbEntity
  8
SLD-0
  6
Continuous
 62
   179
100
AcDbLine
 10
106.4061842105
 20
177.8109460246
 30
0.0
 11
106.4061842105
 21
176.5609460246
 31
0.0
  0
LINE
  5
41
330
37
100
AcDbEntity
  8
SLD-0
  6
Continuous
 62
   179
100
AcDbLine
 10
108.9061842105
 20
180.3109460246
 30
0.0
 11
110.1561842105
 21
180.3109460246
 31
0.0
  0
ENDBLK
  5
39
330
37
100
AcDbEntity
  8
0
100
AcDbBlockEnd
  0
BLOCK
  5
43
330
42
100
AcDbEntity
  8
0
100
AcDbBlockBegin
  2
SW_CENTERMARK1
 70
     0
 71
     0
 10
0.0
 20
0.0
 30
0.0
  3
SW_CENTERMARK1
  1

  0
LINE
  5
45
330
42
100
AcDbEntity
  8
SLD-0
  6
Continuous
 62
   179
100
AcDbLine
 10
106.4061842105
 20
175.3109460246
 30
0.0
 11
106.4061842105
 21
177.8109460246
 31
0.0
  0
LINE
  5
46
330
42
100
AcDbEntity
  8
SLD-0
  6
Continuous
 62
   179
100
AcDbLine
 10
106.4061842105
 20
175.3109460246
 30
0.0
 11
103.9061842105
 21
175.3109460246
 31
0.0
  0
LINE
  5
47
330
42
100
AcDbEntity
  8
SLD-0
  6
Continuous
 62
   179
100
AcDbLine
 10
106.4061842105
 20
175.3109460246
 30
0.0
 11
106.4061842105
 21
172.8109460246
 31
0.0
  0
LINE
  5
48
330
42
100
AcDbEntity
  8
SLD-0
  6
Continuous
 62
   179
100
AcDbLine
 10
106.4061842105
 20
175.3109460246
 30
0.0
 11
108.9061842105
 21
175.3109460246
 31
0.0
  0
LINE
  5
49
330
42
100
AcDbEntity
  8
SLD-0
  6
Continuous
 62
   179
100
AcDbLine
 10
106.4061842105
 20
177.8109460246
 30
0.0
 11
106.4061842105
 21
179.4609460246
 31
0.0
  0
LINE
  5
4A
330
42
100
AcDbEntity
  8
SLD-0
  6
Continuous
 62
   179
100
AcDbLine
 10
103.9061842105
 20
175.3109460246
 30
0.0
 11
102.2561842105
 21
175.3109460246
 31
0.0
  0
LINE
  5
4B
330
42
100
AcDbEntity
  8
SLD-0
  6
Continuous
 62
   179
100
AcDbLine
 10
106.4061842105
 20
172.8109460246
 30
0.0
 11
106.4061842105
 21
171.1609460246
 31
0.0
  0
LINE
  5
4C
330
42
100
AcDbEntity
  8
SLD-0
  6
Continuous
 62
   179
100
AcDbLine
 10
108.9061842105
 20
175.3109460246
 30
0.0
 11
110.5561842105
 21
175.3109460246
 31
0.0
  0
ENDBLK
  5
44
330
42
100
AcDbEntity
  8
0
100
AcDbBlockEnd
  0
BLOCK
  5
4E
330
4D
100
AcDbEntity
  8
0
100
AcDbBlockBegin
  2
SW_CENTERMARK2
 70
     0
 71
     0
 10
0.0
 20
0.0
 30
0.0
  3
SW_CENTERMARK2
  1

  0
LINE
  5
50
330
4D
100
AcDbEntity
  8
SLD-0
  6
Continuous
 62
   179
100
AcDbLine
 10
81.0061842105
 20
175.3109460246
 30
0.0
 11
81.0061842105
 21
177.8109460246
 31
0.0
  0
LINE
  5
51
330
4D
100
AcDbEntity
  8
SLD-0
  6
Continuous
 62
   179
100
AcDbLine
 10
81.0061842105
 20
175.3109460246
 30
0.0
 11
78.5061842105
 21
175.3109460246
 31
0.0
  0
LINE
  5
52
330
4D
100
AcDbEntity
  8
SLD-0
  6
Continuous
 62
   179
100
AcDbLine
 10
81.0061842105
 20
175.3109460246
 30
0.0
 11
81.0061842105
 21
172.8109460246
 31
0.0
  0
LINE
  5
53
330
4D
100
AcDbEntity
  8
SLD-0
  6
Continuous
 62
   179
100
AcDbLine
 10
81.0061842105
 20
175.3109460246
 30
0.0
 11
83.5061842105
 21
175.3109460246
 31
0.0
  0
LINE
  5
54
330
4D
100
AcDbEntity
  8
SLD-0
  6
Continuous
 62
   179
100
AcDbLine
 10
81.0061842105
 20
177.8109460246
 30
0.0
 11
81.0061842105
 21
179.4609460246
 31
0.0
  0
LINE
  5
55
330
4D
100
AcDbEntity
  8
SLD-0
  6
Continuous
 62
   179
100
AcDbLine
 10
78.5061842105
 20
175.3109460246
 30
0.0
 11
76.8561842105
 21
175.3109460246
 31
0.0
  0
LINE
  5
56
330
4D
100
AcDbEntity
  8
SLD-0
  6
Continuous
 62
   179
100
AcDbLine
 10
81.0061842105
 20
172.8109460246
 30
0.0
 11
81.0061842105
 21
171.1609460246
 31
0.0
  0
LINE
  5
57
330
4D
100
AcDbEntity
  8
SLD-0
  6
Continuous
 62
   179
100
AcDbLine
 10
83.5061842105
 20
175.3109460246
 30
0.0
 11
85.1561842105
 21
175.3109460246
 31
0.0
  0
ENDBLK
  5
4F
330
4D
100
AcDbEntity
  8
0
100
AcDbBlockEnd
  0
BLOCK
  5
59
330
58
100
AcDbEntity
  8
0
100
AcDbBlockBegin
  2
SW_CENTERMARK3
 70
     0
 71
     0
 10
0.0
 20
0.0
 30
0.0
  3
SW_CENTERMARK3
  1

  0
LINE
  5
5B
330
58
100
AcDbEntity
  8
SLD-0
  6
Continuous
 62
   179
100
AcDbLine
 10
81.0061842105
 20
180.3109460246
 30
0.0
 11
81.0061842105
 21
182.8109460246
 31
0.0
  0
LINE
  5
5C
330
58
100
AcDbEntity
  8
SLD-0
  6
Continuous
 62
   179
100
AcDbLine
 10
81.0061842105
 20
180.3109460246
 30
0.0
 11
78.5061842105
 21
180.3109460246
 31
0.0
  0
LINE
  5
5D
330
58
100
AcDbEntity
  8
SLD-0
  6
Continuous
 62
   179
100
AcDbLine
 10
81.0061842105
 20
180.3109460246
 30
0.0
 11
81.0061842105
 21
177.8109460246
 31
0.0
  0
LINE
  5
5E
330
58
100
AcDbEntity
  8
SLD-0
  6
Continuous
 62
   179
100
AcDbLine
 10
81.0061842105
 20
180.3109460246
 30
0.0
 11
83.5061842105
 21
180.3109460246
 31
0.0
  0
LINE
  5
5F
330
58
100
AcDbEntity
  8
SLD-0
  6
Continuous
 62
   179
100
AcDbLine
 10
81.0061842105
 20
182.8109460246
 30
0.0
 11
81.0061842105
 21
184.0609460246
 31
0.0
  0
LINE
  5
60
330
58
100
AcDbEntity
  8
SLD-0
  6
Continuous
 62
   179
100
AcDbLine
 10
78.5061842105
 20
180.3109460246
 30
0.0
 11
77.2561842105
 21
180.3109460246
 31
0.0
  0
LINE
  5
61
330
58
100
AcDbEntity
  8
SLD-0
  6
Continuous
 62
   179
100
AcDbLine
 10
81.0061842105
 20
177.8109460246
 30
0.0
 11
81.0061842105
 21
176.5609460246
 31
0.0
  0
LINE
  5
62
330
58
100
AcDbEntity
  8
SLD-0
  6
Continuous
 62
   179
100
AcDbLine
 10
83.5061842105
 20
180.3109460246
 30
0.0
 11
84.7561842105
 21
180.3109460246
 31
0.0
  0
ENDBLK
  5
5A
330
58
100
AcDbEntity
  8
0
100
AcDbBlockEnd
  0
BLOCK
  5
64
330
63
100
AcDbEntity
  8
0
100
AcDbBlockBegin
  2
SW_CENTERMARK4
 70
     0
 71
     0
 10
0.0
 20
0.0
 30
0.0
  3
SW_CENTERMARK4
  1

  0
LINE
  5
66
330
63
100
AcDbEntity
  8
SLD-0
  6
Continuous
 62
   179
100
AcDbLine
 10
93.7061842105
 20
148.3609460246
 30
0.0
 11
93.7061842105
 21
150.8609460246
 31
0.0
  0
LINE
  5
67
330
63
100
AcDbEntity
  8
SLD-0
  6
Continuous
 62
   179
100
AcDbLine
 10
93.7061842105
 20
148.3609460246
 30
0.0
 11
91.2061842105
 21
148.3609460246
 31
0.0
  0
LINE
  5
68
330
63
100
AcDbEntity
  8
SLD-0
  6
Continuous
 62
   179
100
AcDbLine
 10
93.7061842105
 20
148.3609460246
 30
0.0
 11
93.7061842105
 21
145.8609460246
 31
0.0
  0
LINE
  5
69
330
63
100
AcDbEntity
  8
SLD-0
  6
Continuous
 62
   179
100
AcDbLine
 10
93.7061842105
 20
148.3609460246
 30
0.0
 11
96.2061842105
 21
148.3609460246
 31
0.0
  0
LINE
  5
6A
330
63
100
AcDbEntity
  8
SLD-0
  6
Continuous
 62
   179
100
AcDbLine
 10
93.7061842105
 20
153.3609460246
 30
0.0
 11
93.7061842105
 21
156.8609460246
 31
0.0
  0
LINE
  5
6B
330
63
100
AcDbEntity
  8
SLD-0
  6
Continuous
 62
   179
100
AcDbLine
 10
88.7061842105
 20
148.3609460246
 30
0.0
 11
85.2061842105
 21
148.3609460246
 31
0.0
  0
LINE
  5
6C
330
63
100
AcDbEntity
  8
SLD-0
  6
Continuous
 62
   179
100
AcDbLine
 10
93.7061842105
 20
143.3609460246
 30
0.0
 11
93.7061842105
 21
139.8609460246
 31
0.0
  0
LINE
  5
6D
330
63
100
AcDbEntity
  8
SLD-0
  6
Continuous
 62
   179
100
AcDbLine
 10
98.7061842105
 20
148.3609460246
 30
0.0
 11
102.2061842105
 21
148.3609460246
 31
0.0
  0
ENDBLK
  5
65
330
63
100
AcDbEntity
  8
0
100
AcDbBlockEnd
  0
BLOCK
  5
6F
330
6E
100
AcDbEntity
  8
0
100
AcDbBlockBegin
  2
SW_CENTERMARK5
 70
     0
 71
     0
 10
0.0
 20
0.0
 30
0.0
  3
SW_CENTERMARK5
  1

  0
LINE
  5
71
330
6E
100
AcDbEntity
  8
SLD-0
  6
Continuous
 62
   179
100
AcDbLine
 10
86.2061842105
 20
177.0609460246
 30
0.0
 11
86.2061842105
 21
179.5609460246
 31
0.0
  0
LINE
  5
72
330
6E
100
AcDbEntity
  8
SLD-0
  6
Continuous
 62
   179
100
AcDbLine
 10
86.2061842105
 20
177.0609460246
 30
0.0
 11
83.7061842105
 21
177.0609460246
 31
0.0
  0
LINE
  5
73
330
6E
100
AcDbEntity
  8
SLD-0
  6
Continuous
 62
   179
100
AcDbLine
 10
86.2061842105
 20
177.0609460246
 30
0.0
 11
86.2061842105
 21
174.5609460246
 31
0.0
  0
LINE
  5
74
330
6E
100
AcDbEntity
  8
SLD-0
  6
Continuous
 62
   179
100
AcDbLine
 10
86.2061842105
 20
177.0609460246
 30
0.0
 11
88.7061842105
 21
177.0609460246
 31
0.0
  0
LINE
  5
75
330
6E
100
AcDbEntity
  8
SLD-0
  6
Continuous
 62
   179
100
AcDbLine
 10
86.2061842105
 20
179.5609460246
 30
0.0
 11
86.2061842105
 21
180.3609460246
 31
0.0
  0
LINE
  5
76
330
6E
100
AcDbEntity
  8
SLD-0
  6
Continuous
 62
   179
100
AcDbLine
 10
83.7061842105
 20
177.0609460246
 30
0.0
 11
82.9061842105
 21
177.0609460246
 31
0.0
  0
LINE
  5
77
330
6E
100
AcDbEntity
  8
SLD-0
  6
Continuous
 62
   179
100
AcDbLine
 10
86.2061842105
 20
174.5609460246
 30
0.0
 11
86.2061842105
 21
173.7609460246
 31
0.0
  0
LINE
  5
78
330
6E
100
AcDbEntity
  8
SLD-0
  6
Continuous
 62
   179
100
AcDbLine
 10
88.7061842105
 20
177.0609460246
 30
0.0
 11
89.5061842105
 21
177.0609460246
 31
0.0
  0
ENDBLK
  5
70
330
6E
100
AcDbEntity
  8
0
100
AcDbBlockEnd
  0
BLOCK
  5
7A
330
79
100
AcDbEntity
  8
0
100
AcDbBlockBegin
  2
SW_CENTERMARK6
 70
     0
 71
     0
 10
0.0
 20
0.0
 30
0.0
  3
SW_CENTERMARK6
  1

  0
LINE
  5
7C
330
79
100
AcDbEntity
  8
SLD-0
  6
Continuous
 62
   179
100
AcDbLine
 10
101.2061842105
 20
177.0609460246
 30
0.0
 11
101.2061842105
 21
179.5609460246
 31
0.0
  0
LINE
  5
7D
330
79
100
AcDbEntity
  8
SLD-0
  6
Continuous
 62
   179
100
AcDbLine
 10
101.2061842105
 20
177.0609460246
 30
0.0
 11
98.7061842105
 21
177.0609460246
 31
0.0
  0
LINE
  5
7E
330
79
100
AcDbEntity
  8
SLD-0
  6
Continuous
 62
   179
100
AcDbLine
 10
101.2061842105
 20
177.0609460246
 30
0.0
 11
101.2061842105
 21
174.5609460246
 31
0.0
  0
LINE
  5
7F
330
79
100
AcDbEntity
  8
SLD-0
  6
Continuous
 62
   179
100
AcDbLine
 10
101.2061842105
 20
177.0609460246
 30
0.0
 11
103.7061842105
 21
177.0609460246
 31
0.0
  0
LINE
  5
80
330
79
100
AcDbEntity
  8
SLD-0
  6
Continuous
 62
   179
100
AcDbLine
 10
101.2061842105
 20
179.5609460246
 30
0.0
 11
101.2061842105
 21
180.3609460246
 31
0.0
  0
LINE
  5
81
330
79
100
AcDbEntity
  8
SLD-0
  6
Continuous
 62
   179
100
AcDbLine
 10
98.7061842105
 20
177.0609460246
 30
0.0
 11
97.9061842105
 21
177.0609460246
 31
0.0
  0
LINE
  5
82
330
79
100
AcDbEntity
  8
SLD-0
  6
Continuous
 62
   179
100
AcDbLine
 10
101.2061842105
 20
174.5609460246
 30
0.0
 11
101.2061842105
 21
173.7609460246
 31
0.0
  0
LINE
  5
83
330
79
100
AcDbEntity
  8
SLD-0
  6
Continuous
 62
   179
100
AcDbLine
 10
103.7061842105
 20
177.0609460246
 30
0.0
 11
104.5061842105
 21
177.0609460246
 31
0.0
  0
ENDBLK
  5
7B
330
79
100
AcDbEntity
  8
0
100
AcDbBlockEnd
  0
BLOCK
  5
C3
330
B9
100
AcDbEntity
  8
0
100
AcDbBlockBegin
  2
*D9
 70
     1
 71
     0
 10
0.0
 20
0.0
 30
0.0
  3
*D9
  1

  0
LINE
  5
CA
330
B9
100
AcDbEntity
  8
SLD-0
 62
     7
100
AcDbLine
 10
99.7061842105
 20
147.3609460246
 30
0.0
 11
99.7061842105
 21
125.2252474583
 31
0.0
  0
LINE
  5
CB
330
B9
100
AcDbEntity
  8
SLD-0
 62
     7
100
AcDbLine
 10
87.7061842105
 20
147.3609460246
 30
0.0
 11
87.7061842105
 21
125.2252474583
 31
0.0
  0
LINE
  5
CC
330
B9
100
AcDbEntity
  8
SLD-0
 62
     7
100
AcDbLine
 10
99.7061842105
 20
126.2252474583
 30
0.0
 11
87.7061842105
 21
126.2252474583
 31
0.0
  0
LINE
  5
CD
330
B9
100
AcDbEntity
  8
SLD-0
 62
     7
100
AcDbLine
 10
96.7061842105
 20
127.0290944583
 30
0.0
 11
99.7061842105
 21
126.2252474583
 31
0.0
  0
LINE
  5
CE
330
B9
100
AcDbEntity
  8
SLD-0
 62
     7
100
AcDbLine
 10
99.7061842105
 20
126.2252474583
 30
0.0
 11
96.7061842105
 21
125.4214004583
 31
0.0
  0
LINE
  5
CF
330
B9
100
AcDbEntity
  8
SLD-0
 62
     7
100
AcDbLine
 10
99.7061842105
 20
126.2252474583
 30
0.0
 11
96.7061842105
 21
126.2252474583
 31
0.0
  0
LINE
  5
D0
330
B9
100
AcDbEntity
  8
SLD-0
 62
     7
100
AcDbLine
 10
90.7061842105
 20
125.4214004583
 30
0.0
 11
87.7061842105
 21
126.2252474583
 31
0.0
  0
LINE
  5
D1
330
B9
100
AcDbEntity
  8
SLD-0
 62
     7
100
AcDbLine
 10
87.7061842105
 20
126.2252474583
 30
0.0
 11
90.7061842105
 21
127.0290944583
 31
0.0
  0
LINE
  5
D2
330
B9
100
AcDbEntity
  8
SLD-0
 62
     7
100
AcDbLine
 10
87.7061842105
 20
126.2252474583
 30
0.0
 11
90.7061842105
 21
126.2252474583
 31
0.0
  0
MTEXT
  5
D3
330
B9
100
AcDbEntity
  8
SLD-0
 62
     7
100
AcDbMText
 10
91.6707489874
 20
130.7519411542
 30
0.1
 40
3.5
 41
0.0
 71
     1
 72
     1
  1
12
  7
SLDTEXTSTYLE0
 73
     1
 44
1.0
  0
ENDBLK
  5
C4
330
B9
100
AcDbEntity
  8
0
100
AcDbBlockEnd
  0
BLOCK
  5
C8
330
C7
100
AcDbEntity
  8
0
100
AcDbBlockBegin
  2
_None
 70
     0
 71
     0
 10
0.0
 20
0.0
 30
0.0
  3
_None
  1

  0
ENDBLK
  5
C9
330
C7
100
AcDbEntity
  8
0
100
AcDbBlockEnd
  0
BLOCK
  5
DF
330
D5
100
AcDbEntity
  8
0
100
AcDbBlockBegin
  2
*D11
 70
     1
 71
     0
 10
0.0
 20
0.0
 30
0.0
  3
*D11
  1

  0
LINE
  5
E1
330
D5
100
AcDbEntity
  8
SLD-0
 62
     7
100
AcDbLine
 10
77.7061842105
 20
182.0609460246
 30
0.0
 11
77.7061842105
 21
221.7567850694
 31
0.0
  0
LINE
  5
E2
330
D5
100
AcDbEntity
  8
SLD-0
 62
     7
100
AcDbLine
 10
109.7061842105
 20
182.0609460246
 30
0.0
 11
109.7061842105
 21
221.7567850694
 31
0.0
  0
LINE
  5
E3
330
D5
100
AcDbEntity
  8
SLD-0
 62
     7
100
AcDbLine
 10
77.7061842105
 20
220.7567850694
 30
0.0
 11
109.7061842105
 21
220.7567850694
 31
0.0
  0
LINE
  5
E4
330
D5
100
AcDbEntity
  8
SLD-0
 62
     7
100
AcDbLine
 10
80.7061842105
 20
219.9529380694
 30
0.0
 11
77.7061842105
 21
220.7567850694
 31
0.0
  0
LINE
  5
E5
330
D5
100
AcDbEntity
  8
SLD-0
 62
     7
100
AcDbLine
 10
77.7061842105
 20
220.7567850694
 30
0.0
 11
80.7061842105
 21
221.5606320694
 31
0.0
  0
LINE
  5
E6
330
D5
100
AcDbEntity
  8
SLD-0
 62
     7
100
AcDbLine
 10
77.7061842105
 20
220.7567850694
 30
0.0
 11
80.7061842105
 21
220.7567850694
 31
0.0
  0
LINE
  5
E7
330
D5
100
AcDbEntity
  8
SLD-0
 62
     7
100
AcDbLine
 10
106.7061842105
 20
221.5606320694
 30
0.0
 11
109.7061842105
 21
220.7567850694
 31
0.0
  0
LINE
  5
E8
330
D5
100
AcDbEntity
  8
SLD-0
 62
     7
100
AcDbLine
 10
109.7061842105
 20
220.7567850694
 30
0.0
 11
106.7061842105
 21
219.9529380694
 31
0.0
  0
LINE
  5
E9
330
D5
100
AcDbEntity
  8
SLD-0
 62
     7
100
AcDbLine
 10
109.7061842105
 20
220.7567850694
 30
0.0
 11
106.7061842105
 21
220.7567850694
 31
0.0
  0
MTEXT
  5
EA
330
D5
100
AcDbEntity
  8
SLD-0
 62
     7
100
AcDbMText
 10
91.6707489874
 20
225.2834787653
 30
0.1
 40
3.5
 41
0.0
 71
     1
 72
     1
  1
32
  7
SLDTEXTSTYLE0
 73
     1
 44
1.0
  0
ENDBLK
  5
E0
330
D5
100
AcDbEntity
  8
0
100
AcDbBlockEnd
  0
BLOCK
  5
F7
330
EC
100
AcDbEntity
  8
0
100
AcDbBlockBegin
  2
*D12
 70
     1
 71
     0
 10
0.0
 20
0.0
 30
0.0
  3
*D12
  1

  0
LINE
  5
FA
330
EC
100
AcDbEntity
  8
SLD-0
 62
     7
100
AcDbLine
 10
108.7061842105
 20
158.3609460246
 30
0.0
 11
132.9208259602
 21
158.3609460246
 31
0.0
  0
LINE
  5
FB
330
EC
100
AcDbEntity
  8
SLD-0
 62
     7
100
AcDbLine
 10
108.7061842105
 20
183.0609460246
 30
0.0
 11
132.9208259602
 21
183.0609460246
 31
0.0
  0
LINE
  5
FC
330
EC
100
AcDbEntity
  8
SLD-0
 62
     7
100
AcDbLine
 10
131.9208259602
 20
158.3609460246
 30
0.0
 11
131.9208259602
 21
183.0609460246
 31
0.0
  0
LINE
  5
FD
330
EC
100
AcDbEntity
  8
SLD-0
 62
     7
100
AcDbLine
 10
132.7246729602
 20
161.3609460246
 30
0.0
 11
131.9208259602
 21
158.3609460246
 31
0.0
  0
LINE
  5
FE
330
EC
100
AcDbEntity
  8
SLD-0
 62
     7
100
AcDbLine
 10
131.9208259602
 20
158.3609460246
 30
0.0
 11
131.1169789602
 21
161.3609460246
 31
0.0
  0
LINE
  5
FF
330
EC
100
AcDbEntity
  8
SLD-0
 62
     7
100
AcDbLine
 10
131.9208259602
 20
158.3609460246
 30
0.0
 11
131.9208259602
 21
161.3609460246
 31
0.0
  0
LINE
  5
100
330
EC
100
AcDbEntity
  8
SLD-0
 62
     7
100
AcDbLine
 10
131.1169789602
 20
180.0609460246
 30
0.0
 11
131.9208259602
 21
183.0609460246
 31
0.0
  0
LINE
  5
101
330
EC
100
AcDbEntity
  8
SLD-0
 62
     7
100
AcDbLine
 10
131.9208259602
 20
183.0609460246
 30
0.0
 11
132.7246729602
 21
180.0609460246
 31
0.0
  0
LINE
  5
102
330
EC
100
AcDbEntity
  8
SLD-0
 62
     7
100
AcDbLine
 10
131.9208259602
 20
183.0609460246
 30
0.0
 11
131.9208259602
 21
180.0609460246
 31
0.0
  0
MTEXT
  5
103
330
EC
100
AcDbEntity
  8
SLD-0
 62
     7
100
AcDbMText
 10
127.3941322643
 20
166.6382484371
 30
0.1
 40
3.5
 41
0.0
 71
     1
 72
     1
  1
24.7
  7
SLDTEXTSTYLE0
 11
6.123031769111886E-17
 21
1.0
 31
0.0
 73
     1
 44
1.0
  0
ENDBLK
  5
F8
330
EC
100
AcDbEntity
  8
0
100
AcDbBlockEnd
  0
BLOCK
  5
110
330
105
100
AcDbEntity
  8
0
100
AcDbBlockBegin
  2
*D13
 70
     1
 71
     0
 10
0.0
 20
0.0
 30
0.0
  3
*D13
  1

  0
LINE
  5
112
330
105
100
AcDbEntity
  8
SLD-0
 62
     7
100
AcDbLine
 10
103.2061842105
 20
148.3609460246
 30
0.0
 11
132.9208259602
 21
148.3609460246
 31
0.0
  0
LINE
  5
113
330
105
100
AcDbEntity
  8
SLD-0
 62
     7
100
AcDbLine
 10
108.7061842105
 20
158.3609460246
 30
0.0
 11
132.9208259602
 21
158.3609460246
 31
0.0
  0
LINE
  5
114
330
105
100
AcDbEntity
  8
SLD-0
 62
     7
100
AcDbLine
 10
131.9208259602
 20
148.3609460246
 30
0.0
 11
131.9208259602
 21
143.3609460246
 31
0.0
  0
LINE
  5
115
330
105
100
AcDbEntity
  8
SLD-0
 62
     7
100
AcDbLine
 10
131.9208259602
 20
148.3609460246
 30
0.0
 11
131.9208259602
 21
158.3609460246
 31
0.0
  0
LINE
  5
116
330
105
100
AcDbEntity
  8
SLD-0
 62
     7
100
AcDbLine
 10
131.9208259602
 20
158.3609460246
 30
0.0
 11
131.9208259602
 21
163.3609460246
 31
0.0
  0
LINE
  5
117
330
105
100
AcDbEntity
  8
SLD-0
 62
     7
100
AcDbLine
 10
131.1169789602
 20
145.3609460246
 30
0.0
 11
131.9208259602
 21
148.3609460246
 31
0.0
  0
LINE
  5
118
330
105
100
AcDbEntity
  8
SLD-0
 62
     7
100
AcDbLine
 10
131.9208259602
 20
148.3609460246
 30
0.0
 11
132.7246729602
 21
145.3609460246
 31
0.0
  0
LINE
  5
119
330
105
100
AcDbEntity
  8
SLD-0
 62
     7
100
AcDbLine
 10
131.9208259602
 20
148.3609460246
 30
0.0
 11
131.9208259602
 21
145.3609460246
 31
0.0
  0
LINE
  5
11A
330
105
100
AcDbEntity
  8
SLD-0
 62
     7
100
AcDbLine
 10
132.7246729602
 20
161.3609460246
 30
0.0
 11
131.9208259602
 21
158.3609460246
 31
0.0
  0
LINE
  5
11B
330
105
100
AcDbEntity
  8
SLD-0
 62
     7
100
AcDbLine
 10
131.9208259602
 20
158.3609460246
 30
0.0
 11
131.1169789602
 21
161.3609460246
 31
0.0
  0
LINE
  5
11C
330
105
100
AcDbEntity
  8
SLD-0
 62
     7
100
AcDbLine
 10
131.9208259602
 20
158.3609460246
 30
0.0
 11
131.9208259602
 21
161.3609460246
 31
0.0
  0
MTEXT
  5
11D
330
105
100
AcDbEntity
  8
SLD-0
 62
     7
100
AcDbMText
 10
127.3941322643
 20
151.3255108014
 30
0.1
 40
3.5
 41
0.0
 71
     1
 72
     1
  1
10
  7
SLDTEXTSTYLE0
 11
6.123031769111886E-17
 21
1.0
 31
0.0
 73
     1
 44
1.0
  0
ENDBLK
  5
111
330
105
100
AcDbEntity
  8
0
100
AcDbBlockEnd
  0
BLOCK
  5
129
330
11F
100
AcDbEntity
  8
0
100
AcDbBlockBegin
  2
*D14
 70
     1
 71
     0
 10
0.0
 20
0.0
 30
0.0
  3
*D14
  1

  0
LINE
  5
12B
330
11F
100
AcDbEntity
  8
SLD-0
 62
     7
100
AcDbLine
 10
81.0061842105
 20
185.0609460246
 30
0.0
 11
81.0061842105
 21
213.0867244538
 31
0.0
  0
LINE
  5
12C
330
11F
100
AcDbEntity
  8
SLD-0
 62
     7
100
AcDbLine
 10
106.4061842105
 20
185.0609460246
 30
0.0
 11
106.4061842105
 21
213.0867244538
 31
0.0
  0
LINE
  5
12D
330
11F
100
AcDbEntity
  8
SLD-0
 62
     7
100
AcDbLine
 10
81.0061842105
 20
212.0867244538
 30
0.0
 11
106.4061842105
 21
212.0867244538
 31
0.0
  0
LINE
  5
12E
330
11F
100
AcDbEntity
  8
SLD-0
 62
     7
100
AcDbLine
 10
84.0061842105
 20
211.2828774538
 30
0.0
 11
81.0061842105
 21
212.0867244538
 31
0.0
  0
LINE
  5
12F
330
11F
100
AcDbEntity
  8
SLD-0
 62
     7
100
AcDbLine
 10
81.0061842105
 20
212.0867244538
 30
0.0
 11
84.0061842105
 21
212.8905714538
 31
0.0
  0
LINE
  5
130
330
11F
100
AcDbEntity
  8
SLD-0
 62
     7
100
AcDbLine
 10
81.0061842105
 20
212.0867244538
 30
0.0
 11
84.0061842105
 21
212.0867244538
 31
0.0
  0
LINE
  5
131
330
11F
100
AcDbEntity
  8
SLD-0
 62
     7
100
AcDbLine
 10
103.4061842105
 20
212.8905714538
 30
0.0
 11
106.4061842105
 21
212.0867244538
 31
0.0
  0
LINE
  5
132
330
11F
100
AcDbEntity
  8
SLD-0
 62
     7
100
AcDbLine
 10
106.4061842105
 20
212.0867244538
 30
0.0
 11
103.4061842105
 21
211.2828774538
 31
0.0
  0
LINE
  5
133
330
11F
100
AcDbEntity
  8
SLD-0
 62
     7
100
AcDbLine
 10
106.4061842105
 20
212.0867244538
 30
0.0
 11
103.4061842105
 21
212.0867244538
 31
0.0
  0
MTEXT
  5
134
330
11F
100
AcDbEntity
  8
SLD-0
 62
     7
100
AcDbMText
 10
89.6334866231
 20
216.6134181497
 30
0.1
 40
3.5
 41
0.0
 71
     1
 72
     1
  1
25.4
  7
SLDTEXTSTYLE0
 73
     1
 44
1.0
  0
ENDBLK
  5
12A
330
11F
100
AcDbEntity
  8
0
100
AcDbBlockEnd
  0
BLOCK
  5
142
330
136
100
AcDbEntity
  8
0
100
AcDbBlockBegin
  2
*D15
 70
     1
 71
     0
 10
0.0
 20
0.0
 30
0.0
  3
*D15
  1

  0
ARC
  5
145
330
136
100
AcDbEntity
  8
SLD-0
 62
     7
100
AcDbCircle
 10
121.6279633785
 20
180.3109460246
 30
0.0
 40
0.75
100
AcDbArc
 50
270.0
 51
90.0
  0
ARC
  5
146
330
136
100
AcDbEntity
  8
SLD-0
 62
     7
100
AcDbCircle
 10
121.6279633785
 20
180.3109460246
 30
0.0
 40
0.75
100
AcDbArc
 50
90.0
 51
270.0
  0
LINE
  5
147
330
136
100
AcDbEntity
  8
SLD-0
 62
     7
100
AcDbLine
 10
111.1561842105
 20
180.3109460246
 30
0.0
 11
122.6279633785
 21
180.3109460246
 31
0.0
  0
LINE
  5
148
330
136
100
AcDbEntity
  8
SLD-0
 62
     7
100
AcDbLine
 10
108.7061842105
 20
183.0609460246
 30
0.0
 11
122.6279633785
 21
183.0609460246
 31
0.0
  0
LINE
  5
149
330
136
100
AcDbEntity
  8
SLD-0
 62
     7
100
AcDbLine
 10
121.6279633785
 20
180.3109460246
 30
0.0
 11
121.6279633785
 21
175.3109460246
 31
0.0
  0
LINE
  5
14A
330
136
100
AcDbEntity
  8
SLD-0
 62
     7
100
AcDbLine
 10
121.6279633785
 20
180.3109460246
 30
0.0
 11
121.6279633785
 21
183.0609460246
 31
0.0
  0
LINE
  5
14B
330
136
100
AcDbEntity
  8
SLD-0
 62
     7
100
AcDbLine
 10
121.6279633785
 20
183.0609460246
 30
0.0
 11
121.6279633785
 21
197.934553775
 31
0.0
  0
LINE
  5
14C
330
136
100
AcDbEntity
  8
SLD-0
 62
     7
100
AcDbLine
 10
121.6279633785
 20
178.8109460246
 30
0.0
 11
121.6279633785
 21
177.3109460246
 31
0.0
  0
LINE
  5
14D
330
136
100
AcDbEntity
  8
SLD-0
 62
     7
100
AcDbLine
 10
122.4318103785
 20
186.0609460246
 30
0.0
 11
121.6279633785
 21
183.0609460246
 31
0.0
  0
LINE
  5
14E
330
136
100
AcDbEntity
  8
SLD-0
 62
     7
100
AcDbLine
 10
121.6279633785
 20
183.0609460246
 30
0.0
 11
120.8241163785
 21
186.0609460246
 31
0.0
  0
LINE
  5
14F
330
136
100
AcDbEntity
  8
SLD-0
 62
     7
100
AcDbLine
 10
121.6279633785
 20
183.0609460246
 30
0.0
 11
121.6279633785
 21
186.0609460246
 31
0.0
  0
MTEXT
  5
150
330
136
100
AcDbEntity
  8
SLD-0
 62
     7
100
AcDbMText
 10
117.1012696826
 20
188.2016586001
 30
0.1
 40
3.5
 41
0.0
 71
     1
 72
     1
  1
2.75
  7
SLDTEXTSTYLE0
 11
6.123031769111886E-17
 21
1.0
 31
0.0
 73
     1
 44
1.0
  0
ENDBLK
  5
143
330
136
100
AcDbEntity
  8
0
100
AcDbBlockEnd
  0
BLOCK
  5
15D
330
152
100
AcDbEntity
  8
0
100
AcDbBlockBegin
  2
*D16
 70
     1
 71
     0
 10
0.0
 20
0.0
 30
0.0
  3
*D16
  1

  0
ARC
  5
15F
330
152
100
AcDbEntity
  8
SLD-0
 62
     7
100
AcDbCircle
 10
121.6279633785
 20
180.3109460246
 30
0.0
 40
0.75
100
AcDbArc
 50
90.0
 51
270.0
  0
ARC
  5
160
330
152
100
AcDbEntity
  8
SLD-0
 62
     7
100
AcDbCircle
 10
121.6279633785
 20
180.3109460246
 30
0.0
 40
0.75
100
AcDbArc
 50
270.0
 51
90.0
  0
LINE
  5
161
330
152
100
AcDbEntity
  8
SLD-0
 62
     7
100
AcDbLine
 10
111.5561842105
 20
175.3109460246
 30
0.0
 11
122.6279633785
 21
175.3109460246
 31
0.0
  0
LINE
  5
162
330
152
100
AcDbEntity
  8
SLD-0
 62
     7
100
AcDbLine
 10
111.1561842105
 20
180.3109460246
 30
0.0
 11
122.6279633785
 21
180.3109460246
 31
0.0
  0
LINE
  5
163
330
152
100
AcDbEntity
  8
SLD-0
 62
     7
100
AcDbLine
 10
121.6279633785
 20
175.3109460246
 30
0.0
 11
121.6279633785
 21
170.3109460246
 31
0.0
  0
LINE
  5
164
330
152
100
AcDbEntity
  8
SLD-0
 62
     7
100
AcDbLine
 10
121.6279633785
 20
175.3109460246
 30
0.0
 11
121.6279633785
 21
180.3109460246
 31
0.0
  0
LINE
  5
165
330
152
100
AcDbEntity
  8
SLD-0
 62
     7
100
AcDbLine
 10
121.6279633785
 20
180.3109460246
 30
0.0
 11
121.6279633785
 21
185.3109460246
 31
0.0
  0
LINE
  5
166
330
152
100
AcDbEntity
  8
SLD-0
 62
     7
100
AcDbLine
 10
120.8241163785
 20
172.3109460246
 30
0.0
 11
121.6279633785
 21
175.3109460246
 31
0.0
  0
LINE
  5
167
330
152
100
AcDbEntity
  8
SLD-0
 62
     7
100
AcDbLine
 10
121.6279633785
 20
175.3109460246
 30
0.0
 11
122.4318103785
 21
172.3109460246
 31
0.0
  0
LINE
  5
168
330
152
100
AcDbEntity
  8
SLD-0
 62
     7
100
AcDbLine
 10
121.6279633785
 20
175.3109460246
 30
0.0
 11
121.6279633785
 21
172.3109460246
 31
0.0
  0
LINE
  5
169
330
152
100
AcDbEntity
  8
SLD-0
 62
     7
100
AcDbLine
 10
121.6279633785
 20
181.8109460246
 30
0.0
 11
121.6279633785
 21
183.3109460246
 31
0.0
  0
MTEXT
  5
16A
330
152
100
AcDbEntity
  8
SLD-0
 62
     7
100
AcDbMText
 10
117.1012696826
 20
176.793228413
 30
0.1
 40
3.5
 41
0.0
 71
     1
 72
     1
  1
5
  7
SLDTEXTSTYLE0
 11
6.123031769111886E-17
 21
1.0
 31
0.0
 73
     1
 44
1.0
  0
ENDBLK
  5
15E
330
152
100
AcDbEntity
  8
0
100
AcDbBlockEnd
  0
BLOCK
  5
179
330
16C
100
AcDbEntity
  8
0
100
AcDbBlockBegin
  2
*D17
 70
     1
 71
     0
 10
0.0
 20
0.0
 30
0.0
  3
*D17
  1

  0
LINE
  5
17B
330
16C
100
AcDbEntity
  8
SLD-0
 62
     7
100
AcDbLine
 10
109.7061842105
 20
182.0609460246
 30
0.0
 11
109.7061842105
 21
213.0867244538
 31
0.0
  0
LINE
  5
17C
330
16C
100
AcDbEntity
  8
SLD-0
 62
     7
100
AcDbLine
 10
106.4061842105
 20
185.0609460246
 30
0.0
 11
106.4061842105
 21
213.0867244538
 31
0.0
  0
LINE
  5
17D
330
16C
100
AcDbEntity
  8
SLD-0
 62
     7
100
AcDbLine
 10
109.7061842105
 20
212.0867244538
 30
0.0
 11
122.6063211486
 21
212.0867244538
 31
0.0
  0
LINE
  5
17E
330
16C
100
AcDbEntity
  8
SLD-0
 62
     7
100
AcDbLine
 10
109.7061842105
 20
212.0867244538
 30
0.0
 11
106.4061842105
 21
212.0867244538
 31
0.0
  0
LINE
  5
17F
330
16C
100
AcDbEntity
  8
SLD-0
 62
     7
100
AcDbLine
 10
106.4061842105
 20
212.0867244538
 30
0.0
 11
101.4061842105
 21
212.0867244538
 31
0.0
  0
LINE
  5
180
330
16C
100
AcDbEntity
  8
SLD-0
 62
     7
100
AcDbLine
 10
112.7061842105
 20
211.2828774538
 30
0.0
 11
109.7061842105
 21
212.0867244538
 31
0.0
  0
LINE
  5
181
330
16C
100
AcDbEntity
  8
SLD-0
 62
     7
100
AcDbLine
 10
109.7061842105
 20
212.0867244538
 30
0.0
 11
112.7061842105
 21
212.8905714538
 31
0.0
  0
LINE
  5
182
330
16C
100
AcDbEntity
  8
SLD-0
 62
     7
100
AcDbLine
 10
109.7061842105
 20
212.0867244538
 30
0.0
 11
112.7061842105
 21
212.0867244538
 31
0.0
  0
LINE
  5
183
330
16C
100
AcDbEntity
  8
SLD-0
 62
     7
100
AcDbLine
 10
103.4061842105
 20
212.8905714538
 30
0.0
 11
106.4061842105
 21
212.0867244538
 31
0.0
  0
LINE
  5
184
330
16C
100
AcDbEntity
  8
SLD-0
 62
     7
100
AcDbLine
 10
106.4061842105
 20
212.0867244538
 30
0.0
 11
103.4061842105
 21
211.2828774538
 31
0.0
  0
LINE
  5
185
330
16C
100
AcDbEntity
  8
SLD-0
 62
     7
100
AcDbLine
 10
106.4061842105
 20
212.0867244538
 30
0.0
 11
103.4061842105
 21
212.0867244538
 31
0.0
  0
MTEXT
  5
186
330
16C
100
AcDbEntity
  8
SLD-0
 62
     7
100
AcDbMText
 10
114.9088611969
 20
216.6134181497
 30
0.1
 40
3.5
 41
0.0
 71
     1
 72
     1
  1
3.3
  7
SLDTEXTSTYLE0
 73
     1
 44
1.0
  0
ENDBLK
  5
17A
330
16C
100
AcDbEntity
  8
0
100
AcDbBlockEnd
  0
BLOCK
  5
192
330
188
100
AcDbEntity
  8
0
100
AcDbBlockBegin
  2
*D18
 70
     1
 71
     0
 10
0.0
 20
0.0
 30
0.0
  3
*D18
  1

  0
LINE
  5
194
330
188
100
AcDbEntity
  8
SLD-0
 62
     7
100
AcDbLine
 10
109.7061842105
 20
159.3609460246
 30
0.0
 11
109.7061842105
 21
125.2252474583
 31
0.0
  0
LINE
  5
195
330
188
100
AcDbEntity
  8
SLD-0
 62
     7
100
AcDbLine
 10
99.7061842105
 20
147.3609460246
 30
0.0
 11
99.7061842105
 21
125.2252474583
 31
0.0
  0
LINE
  5
196
330
188
100
AcDbEntity
  8
SLD-0
 62
     7
100
AcDbLine
 10
109.7061842105
 20
126.2252474583
 30
0.0
 11
114.7061842105
 21
126.2252474583
 31
0.0
  0
LINE
  5
197
330
188
100
AcDbEntity
  8
SLD-0
 62
     7
100
AcDbLine
 10
109.7061842105
 20
126.2252474583
 30
0.0
 11
99.7061842105
 21
126.2252474583
 31
0.0
  0
LINE
  5
198
330
188
100
AcDbEntity
  8
SLD-0
 62
     7
100
AcDbLine
 10
99.7061842105
 20
126.2252474583
 30
0.0
 11
94.7061842105
 21
126.2252474583
 31
0.0
  0
LINE
  5
199
330
188
100
AcDbEntity
  8
SLD-0
 62
     7
100
AcDbLine
 10
112.7061842105
 20
125.4214004583
 30
0.0
 11
109.7061842105
 21
126.2252474583
 31
0.0
  0
LINE
  5
19A
330
188
100
AcDbEntity
  8
SLD-0
 62
     7
100
AcDbLine
 10
109.7061842105
 20
126.2252474583
 30
0.0
 11
112.7061842105
 21
127.0290944583
 31
0.0
  0
LINE
  5
19B
330
188
100
AcDbEntity
  8
SLD-0
 62
     7
100
AcDbLine
 10
109.7061842105
 20
126.2252474583
 30
0.0
 11
112.7061842105
 21
126.2252474583
 31
0.0
  0
LINE
  5
19C
330
188
100
AcDbEntity
  8
SLD-0
 62
     7
100
AcDbLine
 10
96.7061842105
 20
127.0290944583
 30
0.0
 11
99.7061842105
 21
126.2252474583
 31
0.0
  0
LINE
  5
19D
330
188
100
AcDbEntity
  8
SLD-0
 62
     7
100
AcDbLine
 10
99.7061842105
 20
126.2252474583
 30
0.0
 11
96.7061842105
 21
125.4214004583
 31
0.0
  0
LINE
  5
19E
330
188
100
AcDbEntity
  8
SLD-0
 62
     7
100
AcDbLine
 10
99.7061842105
 20
126.2252474583
 30
0.0
 11
96.7061842105
 21
126.2252474583
 31
0.0
  0
MTEXT
  5
19F
330
188
100
AcDbEntity
  8
SLD-0
 62
     7
100
AcDbMText
 10
102.6707489874
 20
130.7519411542
 30
0.1
 40
3.5
 41
0.0
 71
     1
 72
     1
  1
10
  7
SLDTEXTSTYLE0
 73
     1
 44
1.0
  0
ENDBLK
  5
193
330
188
100
AcDbEntity
  8
0
100
AcDbBlockEnd
  0
BLOCK
  5
1AC
330
1A1
100
AcDbEntity
  8
0
100
AcDbBlockBegin
  2
*D19
 70
     1
 71
     0
 10
0.0
 20
0.0
 30
0.0
  3
*D19
  1

  0
LINE
  5
1AE
330
1A1
100
AcDbEntity
  8
SLD-0
 62
     7
100
AcDbLine
 10
81.9061842105
 20
177.0609460246
 30
0.0
 11
65.5441669243
 21
177.0609460246
 31
0.0
  0
LINE
  5
1AF
330
1A1
100
AcDbEntity
  8
SLD-0
 62
     7
100
AcDbLine
 10
78.7061842105
 20
183.0609460246
 30
0.0
 11
65.5441669243
 21
183.0609460246
 31
0.0
  0
LINE
  5
1B0
330
1A1
100
AcDbEntity
  8
SLD-0
 62
     7
100
AcDbLine
 10
66.5441669243
 20
177.0609460246
 30
0.0
 11
66.5441669243
 21
172.0609460246
 31
0.0
  0
LINE
  5
1B1
330
1A1
100
AcDbEntity
  8
SLD-0
 62
     7
100
AcDbLine
 10
66.5441669243
 20
177.0609460246
 30
0.0
 11
66.5441669243
 21
183.0609460246
 31
0.0
  0
LINE
  5
1B2
330
1A1
100
AcDbEntity
  8
SLD-0
 62
     7
100
AcDbLine
 10
66.5441669243
 20
183.0609460246
 30
0.0
 11
66.5441669243
 21
188.0609460246
 31
0.0
  0
LINE
  5
1B3
330
1A1
100
AcDbEntity
  8
SLD-0
 62
     7
100
AcDbLine
 10
65.7403199243
 20
174.0609460246
 30
0.0
 11
66.5441669243
 21
177.0609460246
 31
0.0
  0
LINE
  5
1B4
330
1A1
100
AcDbEntity
  8
SLD-0
 62
     7
100
AcDbLine
 10
66.5441669243
 20
177.0609460246
 30
0.0
 11
67.3480139243
 21
174.0609460246
 31
0.0
  0
LINE
  5
1B5
330
1A1
100
AcDbEntity
  8
SLD-0
 62
     7
100
AcDbLine
 10
66.5441669243
 20
177.0609460246
 30
0.0
 11
66.5441669243
 21
174.0609460246
 31
0.0
  0
LINE
  5
1B6
330
1A1
100
AcDbEntity
  8
SLD-0
 62
     7
100
AcDbLine
 10
67.3480139243
 20
186.0609460246
 30
0.0
 11
66.5441669243
 21
183.0609460246
 31
0.0
  0
LINE
  5
1B7
330
1A1
100
AcDbEntity
  8
SLD-0
 62
     7
100
AcDbLine
 10
66.5441669243
 20
183.0609460246
 30
0.0
 11
65.7403199243
 21
186.0609460246
 31
0.0
  0
LINE
  5
1B8
330
1A1
100
AcDbEntity
  8
SLD-0
 62
     7
100
AcDbLine
 10
66.5441669243
 20
183.0609460246
 30
0.0
 11
66.5441669243
 21
186.0609460246
 31
0.0
  0
MTEXT
  5
1B9
330
1A1
100
AcDbEntity
  8
SLD-0
 62
     7
100
AcDbMText
 10
62.0174732284
 20
179.043228413
 30
0.1
 40
3.5
 41
0.0
 71
     1
 72
     1
  1
6
  7
SLDTEXTSTYLE0
 11
6.123031769111886E-17
 21
1.0
 31
0.0
 73
     1
 44
1.0
  0
ENDBLK
  5
1AD
330
1A1
100
AcDbEntity
  8
0
100
AcDbBlockEnd
  0
BLOCK
  5
1C8
330
1BB
100
AcDbEntity
  8
0
100
AcDbBlockBegin
  2
*D20
 70
     1
 71
     0
 10
0.0
 20
0.0
 30
0.0
  3
*D20
  1

  0
LINE
  5
1CA
330
1BB
100
AcDbEntity
  8
SLD-0
 62
     7
100
AcDbLine
 10
109.7061842105
 20
182.0609460246
 30
0.0
 11
109.7061842105
 21
204.272162828
 31
0.0
  0
LINE
  5
1CB
330
1BB
100
AcDbEntity
  8
SLD-0
 62
     7
100
AcDbLine
 10
101.2061842105
 20
181.3609460246
 30
0.0
 11
101.2061842105
 21
204.272162828
 31
0.0
  0
LINE
  5
1CC
330
1BB
100
AcDbEntity
  8
SLD-0
 62
     7
100
AcDbLine
 10
109.7061842105
 20
203.272162828
 30
0.0
 11
122.6063211486
 21
203.272162828
 31
0.0
  0
LINE
  5
1CD
330
1BB
100
AcDbEntity
  8
SLD-0
 62
     7
100
AcDbLine
 10
109.7061842105
 20
203.272162828
 30
0.0
 11
101.2061842105
 21
203.272162828
 31
0.0
  0
LINE
  5
1CE
330
1BB
100
AcDbEntity
  8
SLD-0
 62
     7
100
AcDbLine
 10
101.2061842105
 20
203.272162828
 30
0.0
 11
96.2061842105
 21
203.272162828
 31
0.0
  0
LINE
  5
1CF
330
1BB
100
AcDbEntity
  8
SLD-0
 62
     7
100
AcDbLine
 10
112.7061842105
 20
202.468315828
 30
0.0
 11
109.7061842105
 21
203.272162828
 31
0.0
  0
LINE
  5
1D0
330
1BB
100
AcDbEntity
  8
SLD-0
 62
     7
100
AcDbLine
 10
109.7061842105
 20
203.272162828
 30
0.0
 11
112.7061842105
 21
204.076009828
 31
0.0
  0
LINE
  5
1D1
330
1BB
100
AcDbEntity
  8
SLD-0
 62
     7
100
AcDbLine
 10
109.7061842105
 20
203.272162828
 30
0.0
 11
112.7061842105
 21
203.272162828
 31
0.0
  0
LINE
  5
1D2
330
1BB
100
AcDbEntity
  8
SLD-0
 62
     7
100
AcDbLine
 10
98.2061842105
 20
204.076009828
 30
0.0
 11
101.2061842105
 21
203.272162828
 31
0.0
  0
LINE
  5
1D3
330
1BB
100
AcDbEntity
  8
SLD-0
 62
     7
100
AcDbLine
 10
101.2061842105
 20
203.272162828
 30
0.0
 11
98.2061842105
 21
202.468315828
 31
0.0
  0
LINE
  5
1D4
330
1BB
100
AcDbEntity
  8
SLD-0
 62
     7
100
AcDbLine
 10
101.2061842105
 20
203.272162828
 30
0.0
 11
98.2061842105
 21
203.272162828
 31
0.0
  0
MTEXT
  5
1D5
330
1BB
100
AcDbEntity
  8
SLD-0
 62
     7
100
AcDbMText
 10
114.9088611969
 20
207.7988565239
 30
0.1
 40
3.5
 41
0.0
 71
     1
 72
     1
  1
8.5
  7
SLDTEXTSTYLE0
 73
     1
 44
1.0
  0
ENDBLK
  5
1C9
330
1BB
100
AcDbEntity
  8
0
100
AcDbBlockEnd
  0
BLOCK
  5
1E1
330
1D7
100
AcDbEntity
  8
0
100
AcDbBlockBegin
  2
*D21
 70
     1
 71
     0
 10
0.0
 20
0.0
 30
0.0
  3
*D21
  1

  0
LINE
  5
1E3
330
1D7
100
AcDbEntity
  8
SLD-0
 62
     7
100
AcDbLine
 10
101.2061842105
 20
181.3609460246
 30
0.0
 11
101.2061842105
 21
204.272162828
 31
0.0
  0
LINE
  5
1E4
330
1D7
100
AcDbEntity
  8
SLD-0
 62
     7
100
AcDbLine
 10
86.2061842105
 20
181.3609460246
 30
0.0
 11
86.2061842105
 21
204.272162828
 31
0.0
  0
LINE
  5
1E5
330
1D7
100
AcDbEntity
  8
SLD-0
 62
     7
100
AcDbLine
 10
101.2061842105
 20
203.272162828
 30
0.0
 11
86.2061842105
 21
203.272162828
 31
0.0
  0
LINE
  5
1E6
330
1D7
100
AcDbEntity
  8
SLD-0
 62
     7
100
AcDbLine
 10
98.2061842105
 20
204.076009828
 30
0.0
 11
101.2061842105
 21
203.272162828
 31
0.0
  0
LINE
  5
1E7
330
1D7
100
AcDbEntity
  8
SLD-0
 62
     7
100
AcDbLine
 10
101.2061842105
 20
203.272162828
 30
0.0
 11
98.2061842105
 21
202.468315828
 31
0.0
  0
LINE
  5
1E8
330
1D7
100
AcDbEntity
  8
SLD-0
 62
     7
100
AcDbLine
 10
101.2061842105
 20
203.272162828
 30
0.0
 11
98.2061842105
 21
203.272162828
 31
0.0
  0
LINE
  5
1E9
330
1D7
100
AcDbEntity
  8
SLD-0
 62
     7
100
AcDbLine
 10
89.2061842105
 20
202.468315828
 30
0.0
 11
86.2061842105
 21
203.272162828
 31
0.0
  0
LINE
  5
1EA
330
1D7
100
AcDbEntity
  8
SLD-0
 62
     7
100
AcDbLine
 10
86.2061842105
 20
203.272162828
 30
0.0
 11
89.2061842105
 21
204.076009828
 31
0.0
  0
LINE
  5
1EB
330
1D7
100
AcDbEntity
  8
SLD-0
 62
     7
100
AcDbLine
 10
86.2061842105
 20
203.272162828
 30
0.0
 11
89.2061842105
 21
203.272162828
 31
0.0
  0
MTEXT
  5
1EC
330
1D7
100
AcDbEntity
  8
SLD-0
 62
     7
100
AcDbMText
 10
91.6707489874
 20
207.7988565239
 30
0.1
 40
3.5
 41
0.0
 71
     1
 72
     1
  1
15
  7
SLDTEXTSTYLE0
 73
     1
 44
1.0
  0
ENDBLK
  5
1E2
330
1D7
100
AcDbEntity
  8
0
100
AcDbBlockEnd
  0
BLOCK
  5
1F9
330
1EE
100
AcDbEntity
  8
0
100
AcDbBlockBegin
  2
*D22
 70
     1
 71
     0
 10
0.0
 20
0.0
 30
0.0
  3
*D22
  1

  0
LINE
  5
1FC
330
1EE
100
AcDbEntity
  8
SLD-0
 62
     7
100
AcDbLine
 10
158.4553432887
 20
161.3609460246
 30
0.0
 11
158.4553432887
 21
198.1259314656
 31
0.0
  0
LINE
  5
1FD
330
1EE
100
AcDbEntity
  8
SLD-0
 62
     7
100
AcDbLine
 10
153.4553432887
 20
161.3609460246
 30
0.0
 11
153.4553432887
 21
198.1259314656
 31
0.0
  0
LINE
  5
1FE
330
1EE
100
AcDbEntity
  8
SLD-0
 62
     7
100
AcDbLine
 10
158.4553432887
 20
197.1259314656
 30
0.0
 11
163.4553432887
 21
197.1259314656
 31
0.0
  0
LINE
  5
1FF
330
1EE
100
AcDbEntity
  8
SLD-0
 62
     7
100
AcDbLine
 10
158.4553432887
 20
197.1259314656
 30
0.0
 11
153.4553432887
 21
197.1259314656
 31
0.0
  0
LINE
  5
200
330
1EE
100
AcDbEntity
  8
SLD-0
 62
     7
100
AcDbLine
 10
153.4553432887
 20
197.1259314656
 30
0.0
 11
148.4553432887
 21
197.1259314656
 31
0.0
  0
LINE
  5
201
330
1EE
100
AcDbEntity
  8
SLD-0
 62
     7
100
AcDbLine
 10
161.4553432887
 20
196.3220844656
 30
0.0
 11
158.4553432887
 21
197.1259314656
 31
0.0
  0
LINE
  5
202
330
1EE
100
AcDbEntity
  8
SLD-0
 62
     7
100
AcDbLine
 10
158.4553432887
 20
197.1259314656
 30
0.0
 11
161.4553432887
 21
197.9297784656
 31
0.0
  0
LINE
  5
203
330
1EE
100
AcDbEntity
  8
SLD-0
 62
     7
100
AcDbLine
 10
158.4553432887
 20
197.1259314656
 30
0.0
 11
161.4553432887
 21
197.1259314656
 31
0.0
  0
LINE
  5
204
330
1EE
100
AcDbEntity
  8
SLD-0
 62
     7
100
AcDbLine
 10
150.4553432887
 20
197.9297784656
 30
0.0
 11
153.4553432887
 21
197.1259314656
 31
0.0
  0
LINE
  5
205
330
1EE
100
AcDbEntity
  8
SLD-0
 62
     7
100
AcDbLine
 10
153.4553432887
 20
197.1259314656
 30
0.0
 11
150.4553432887
 21
196.3220844656
 31
0.0
  0
LINE
  5
206
330
1EE
100
AcDbEntity
  8
SLD-0
 62
     7
100
AcDbLine
 10
153.4553432887
 20
197.1259314656
 30
0.0
 11
150.4553432887
 21
197.1259314656
 31
0.0
  0
MTEXT
  5
207
330
1EE
100
AcDbEntity
  8
SLD-0
 62
     7
100
AcDbMText
 10
154.9376256771
 20
201.6526251616
 30
0.1
 40
3.5
 41
0.0
 71
     1
 72
     1
  1
5
  7
SLDTEXTSTYLE0
 73
     1
 44
1.0
  0
ENDBLK
  5
1FA
330
1EE
100
AcDbEntity
  8
0
100
AcDbBlockEnd
  0
ENDSEC
  0
SECTION
  2
ENTITIES
  0
LINE
  5
84
330
1F
100
AcDbEntity
  8
SLD-0
  6
Continuous
 62
   179
100
AcDbLine
 10
20.2604743903
 20
285.0
 30
0.0
 11
196.7604743903
 21
285.0
 31
0.0
  0
LINE
  5
85
330
1F
100
AcDbEntity
  8
SLD-0
  6
Continuous
 62
   179
100
AcDbLine
 10
20.2604743903
 20
285.0
 30
0.0
 11
20.2604743903
 21
10.0
 31
0.0
  0
LINE
  5
86
330
1F
100
AcDbEntity
  8
SLD-0
  6
Continuous
 62
   179
100
AcDbLine
 10
20.2604743903
 20
10.0
 30
0.0
 11
196.7604743903
 21
10.0
 31
0.0
  0
LINE
  5
87
330
1F
100
AcDbEntity
  8
SLD-0
  6
Continuous
 62
   179
100
AcDbLine
 10
196.7604743903
 20
285.0
 30
0.0
 11
196.7604743903
 21
10.0
 31
0.0
  0
LINE
  5
88
330
1F
100
AcDbEntity
  8
SLD-0
  6
Continuous
 62
   179
100
AcDbLine
 10
65.7604743903
 20
285.0
 30
0.0
 11
196.7604743903
 21
285.0
 31
0.0
  0
LINE
  5
89
330
1F
100
AcDbEntity
  8
SLD-0
  6
Continuous
 62
   179
100
AcDbLine
 10
196.7604743903
 20
285.0
 30
0.0
 11
196.7604743903
 21
264.25
 31
0.0
  0
LINE
  5
8A
330
1F
100
AcDbEntity
  8
SLD-0
  6
Continuous
 62
   179
100
AcDbLine
 10
127.0104743903
 20
50.75
 30
0.0
 11
196.7604743903
 21
50.75
 31
0.0
  0
LINE
  5
8B
330
1F
100
AcDbEntity
  8
SLD-0
  6
Continuous
 62
   179
100
AcDbLine
 10
127.0104743903
 20
50.75
 30
0.0
 11
127.0104743903
 21
10.0
 31
0.0
  0
LINE
  5
8C
330
1F
100
AcDbEntity
  8
SLD-0
  6
Continuous
 62
   179
100
AcDbLine
 10
127.0104743903
 20
22.75
 30
0.0
 11
196.7604743903
 21
22.75
 31
0.0
  0
LINE
  5
8D
330
1F
100
AcDbEntity
  8
SLD-0
  6
Continuous
 62
   179
100
AcDbLine
 10
127.0104743903
 20
36.75
 30
0.0
 11
196.7604743903
 21
36.75
 31
0.0
  0
LINE
  5
8E
330
1F
100
AcDbEntity
  8
SLD-0
  6
Continuous
 62
   179
100
AcDbLine
 10
79.7061842105
 20
158.3609460246
 30
0.0
 11
87.7061841584
 21
158.3609451424
 31
0.0
  0
LINE
  5
8F
330
1F
100
AcDbEntity
  8
SLD-0
  6
Continuous
 62
   179
100
AcDbLine
 10
77.7061842105
 20
181.0609460246
 30
0.0
 11
77.7061842105
 21
160.3609460246
 31
0.0
  0
LINE
  5
90
330
1F
100
AcDbEntity
  8
SLD-0
  6
Continuous
 62
   179
100
AcDbLine
 10
107.7061842105
 20
183.0609460246
 30
0.0
 11
79.7061842105
 21
183.0609460246
 31
0.0
  0
LINE
  5
91
330
1F
100
AcDbEntity
  8
SLD-0
  6
Continuous
 62
   179
100
AcDbLine
 10
109.7061842105
 20
160.3609460246
 30
0.0
 11
109.7061842105
 21
181.0609460246
 31
0.0
  0
LINE
  5
92
330
1F
100
AcDbEntity
  8
SLD-0
  6
Continuous
 62
   179
100
AcDbLine
 10
99.7061842627
 20
158.3609451424
 30
0.0
 11
107.7061842105
 21
158.3609460246
 31
0.0
  0
LINE
  5
93
330
1F
100
AcDbEntity
  8
SLD-0
  6
Continuous
 62
   179
100
AcDbLine
 10
99.7061842105
 20
148.3609460246
 30
0.0
 11
99.7061842627
 21
158.3609451424
 31
0.0
  0
LINE
  5
94
330
1F
100
AcDbEntity
  8
SLD-0
  6
Continuous
 62
   179
100
AcDbLine
 10
87.7061841584
 20
158.3609451424
 30
0.0
 11
87.7061842105
 21
148.3609460246
 31
0.0
  0
LINE
  5
95
330
1F
100
AcDbEntity
  8
SLD-0
  6
Continuous
 62
   179
100
AcDbLine
 10
153.4553432887
 20
142.3609460246
 30
0.0
 11
158.4553432887
 21
142.3609460246
 31
0.0
  0
LINE
  5
96
330
1F
100
AcDbEntity
  8
SLD-0
  6
Continuous
 62
   179
100
AcDbLine
 10
153.4553432887
 20
158.3609460246
 30
0.0
 11
158.4553432887
 21
158.3609460246
 31
0.0
  0
LINE
  5
97
330
1F
100
AcDbEntity
  8
SLD-0
  6
Continuous
 62
   179
100
AcDbLine
 10
153.4553432887
 20
158.3609460246
 30
0.0
 11
153.4553432887
 21
160.3609460246
 31
0.0
  0
LINE
  5
98
330
1F
100
AcDbEntity
  8
SLD-0
  6
Continuous
 62
   179
100
AcDbLine
 10
158.4553432887
 20
158.3609460246
 30
0.0
 11
158.4553432887
 21
160.3609460246
 31
0.0
  0
LINE
  5
99
330
1F
100
AcDbEntity
  8
SLD-0
  6
Continuous
 62
   179
100
AcDbLine
 10
153.4553432887
 20
160.3609460246
 30
0.0
 11
153.4553432887
 21
181.0609460246
 31
0.0
  0
LINE
  5
9A
330
1F
100
AcDbEntity
  8
SLD-0
  6
Continuous
 62
   179
100
AcDbLine
 10
158.4553432887
 20
160.3609460246
 30
0.0
 11
158.4553432887
 21
181.0609460246
 31
0.0
  0
LINE
  5
9B
330
1F
100
AcDbEntity
  8
SLD-0
  6
Continuous
 62
   179
100
AcDbLine
 10
153.4553432887
 20
181.0609460246
 30
0.0
 11
153.4553432887
 21
183.0609460246
 31
0.0
  0
LINE
  5
9C
330
1F
100
AcDbEntity
  8
SLD-0
  6
Continuous
 62
   179
100
AcDbLine
 10
153.4553432887
 20
183.0609460246
 30
0.0
 11
158.4553432887
 21
183.0609460246
 31
0.0
  0
LINE
  5
9D
330
1F
100
AcDbEntity
  8
SLD-0
  6
Continuous
 62
   179
100
AcDbLine
 10
158.4553432887
 20
181.0609460246
 30
0.0
 11
158.4553432887
 21
183.0609460246
 31
0.0
  0
LINE
  5
9E
330
1F
100
AcDbEntity
  8
SLD-0
  6
Continuous
 62
   179
100
AcDbLine
 10
153.4553432887
 20
142.3609460246
 30
0.0
 11
153.4553432887
 21
148.3609460246
 31
0.0
  0
LINE
  5
9F
330
1F
100
AcDbEntity
  8
SLD-0
  6
Continuous
 62
   179
100
AcDbLine
 10
158.4553432887
 20
142.3609460246
 30
0.0
 11
158.4553432887
 21
148.3609460246
 31
0.0
  0
LINE
  5
A0
330
1F
100
AcDbEntity
  8
SLD-0
  6
Continuous
 62
   179
100
AcDbLine
 10
153.4553432887
 20
148.3609460246
 30
0.0
 11
153.4553432887
 21
158.3609460246
 31
0.0
  0
LINE
  5
A1
330
1F
100
AcDbEntity
  8
SLD-0
  6
Continuous
 62
   179
100
AcDbLine
 10
158.4553432887
 20
148.3609460246
 30
0.0
 11
158.4553432887
 21
158.3609460246
 31
0.0
  0
LINE
  5
A2
330
1F
100
AcDbEntity
  8
SLD-0
  6
CENTERX2
 62
   179
100
AcDbLine
 10
151.4553432887
 20
148.3609460246
 30
0.0
 11
160.4553432887
 21
148.3609460246
 31
0.0
  0
LINE
  5
A3
330
1F
100
AcDbEntity
  8
SLD-0
  6
CENTERX2
 62
   179
100
AcDbLine
 10
160.4553432887
 20
175.3109460246
 30
0.0
 11
151.4553432887
 21
175.3109460246
 31
0.0
  0
LINE
  5
A4
330
1F
100
AcDbEntity
  8
SLD-0
  6
CENTERX2
 62
   179
100
AcDbLine
 10
160.4553432887
 20
180.3109460246
 30
0.0
 11
151.4553432887
 21
180.3109460246
 31
0.0
  0
CIRCLE
  5
A5
330
1F
100
AcDbEntity
  8
SLD-0
  6
Continuous
 62
   179
100
AcDbCircle
 10
93.7061842105
 20
148.3609460246
 30
0.0
 40
3.250000000000014
  0
ARC
  5
A6
330
1F
100
AcDbEntity
  8
SLD-0
  6
Continuous
 62
   179
100
AcDbCircle
 10
79.7061842105
 20
160.3609460246
 30
0.0
 40
2.000000000000014
100
AcDbArc
 50
180.0
 51
270.0
  0
ARC
  5
A7
330
1F
100
AcDbEntity
  8
SLD-0
  6
Continuous
 62
   179
100
AcDbCircle
 10
79.7061842105
 20
181.0609460246
 30
0.0
 40
2.000000000000014
100
AcDbArc
 50
90.0
 51
180.0
  0
ARC
  5
A8
330
1F
100
AcDbEntity
  8
SLD-0
  6
Continuous
 62
   179
100
AcDbCircle
 10
107.7061842105
 20
181.0609460246
 30
0.0
 40
2.0
100
AcDbArc
 50
0.0
 51
90.0
  0
ARC
  5
A9
330
1F
100
AcDbEntity
  8
SLD-0
  6
Continuous
 62
   179
100
AcDbCircle
 10
107.7061842105
 20
160.3609460246
 30
0.0
 40
2.0
100
AcDbArc
 50
270.0
 51
0.0
  0
ARC
  5
AA
330
1F
100
AcDbEntity
  8
SLD-0
  6
Continuous
 62
   179
100
AcDbCircle
 10
93.7061842105
 20
148.3609460246
 30
0.0
 40
6.0
100
AcDbArc
 50
180.0
 51
0.0
  0
CIRCLE
  5
AB
330
1F
100
AcDbEntity
  8
SLD-0
  6
Continuous
 62
   179
100
AcDbCircle
 10
106.4061842105
 20
180.3109460246
 30
0.0
 40
1.250000000000014
  0
CIRCLE
  5
AC
330
1F
100
AcDbEntity
  8
SLD-0
  6
Continuous
 62
   179
100
AcDbCircle
 10
81.0061842105
 20
180.3109460246
 30
0.0
 40
1.25
  0
CIRCLE
  5
AD
330
1F
100
AcDbEntity
  8
SLD-0
  6
Continuous
 62
   179
100
AcDbCircle
 10
106.4061842105
 20
175.3109460246
 30
0.0
 40
1.650000000000006
  0
CIRCLE
  5
AE
330
1F
100
AcDbEntity
  8
SLD-0
  6
Continuous
 62
   179
100
AcDbCircle
 10
81.0061842105
 20
175.3109460246
 30
0.0
 40
1.650000000000006
  0
CIRCLE
  5
AF
330
1F
100
AcDbEntity
  8
SLD-0
  6
Continuous
 62
   179
100
AcDbCircle
 10
101.2061842105
 20
177.0609460246
 30
0.0
 40
0.7999999999999972
  0
CIRCLE
  5
B0
330
1F
100
AcDbEntity
  8
SLD-0
  6
Continuous
 62
   179
100
AcDbCircle
 10
86.2061842105
 20
177.0609460246
 30
0.0
 40
0.7999999999999972
  0
CIRCLE
  5
B1
330
1F
100
AcDbEntity
  8
SLD-0
 62
   179
100
AcDbCircle
 10
106.4061842105
 20
180.3109460246
 30
0.0
 40
1.500000092400015
  0
CIRCLE
  5
B2
330
1F
100
AcDbEntity
  8
SLD-0
 62
   179
100
AcDbCircle
 10
81.0061842105
 20
180.3109460246
 30
0.0
 40
1.500000399400008
  0
CIRCLE
  5
B3
330
1F
100
AcDbEntity
  8
SLD-0
 62
   179
100
AcDbCircle
 10
106.4061842105
 20
175.3109460246
 30
0.0
 40
2.000000174300013
  0
CIRCLE
  5
B4
330
1F
100
AcDbEntity
  8
SLD-0
 62
   179
100
AcDbCircle
 10
81.0061842105
 20
175.3109460246
 30
0.0
 40
1.999999550000013
  0
CIRCLE
  5
B5
330
1F
100
AcDbEntity
  8
SLD-0
 62
   179
100
AcDbCircle
 10
101.2061842105
 20
177.0609460246
 30
0.0
 40
1.000000461900001
  0
CIRCLE
  5
B6
330
1F
100
AcDbEntity
  8
SLD-0
 62
   179
100
AcDbCircle
 10
86.2061842105
 20
177.0609460246
 30
0.0
 40
0.9999998659000084
  0
DIMENSION
  5
B7
330
1F
100
AcDbEntity
  8
SLD-0
 62
     7
100
AcDbDimension
  2
*D9
 10
99.7061842105
 20
126.2252474583
 30
0.0
 11
93.7061842105
 21
126.2252474583
 31
0.0
 70
   160
 71
     1
 42
12.0
  3
SLDDIMSTYLE0
100
AcDbAlignedDimension
 13
87.7061842105
 23
148.3609460246
 33
0.0
 14
99.7061842105
 24
148.3609460246
 34
0.0
100
AcDbRotatedDimension
1001
ACAD
1000
DSTYLE
1002
{
1070
    77
1070
     3
1070
   143
1040
0.0393700787
1070
    41
1040
3.0
1070
    44
1040
1.0
1070
    42
1040
1.0
1070
   147
1040
1.524
1070
    73
1070
     0
1070
    74
1070
     0
1070
   140
1040
3.5
1070
   284
1070
    12
1070
    78
1070
    12
1002
}
  0
DIMENSION
  5
D4
330
1F
100
AcDbEntity
  8
SLD-0
 62
     7
100
AcDbDimension
  2
*D11
 10
77.7061842105
 20
220.7567850694
 30
0.0
 11
93.7061842105
 21
220.7567850694
 31
0.0
 70
   160
 71
     1
 42
32.0
  3
SLDDIMSTYLE0
100
AcDbAlignedDimension
 13
109.7061842105
 23
181.0609460246
 33
0.0
 14
77.7061842105
 24
181.0609460246
 34
0.0
100
AcDbRotatedDimension
1001
ACAD
1000
DSTYLE
1002
{
1070
    77
1070
     3
1070
   143
1040
0.0393700787
1070
    41
1040
3.0
1070
    44
1040
1.0
1070
    42
1040
1.0
1070
   147
1040
1.524
1070
    73
1070
     0
1070
    74
1070
     0
1070
   140
1040
3.5
1070
   284
1070
    12
1070
    78
1070
    12
1002
}
  0
DIMENSION
  5
EB
330
1F
100
AcDbEntity
  8
SLD-0
 62
     7
100
AcDbDimension
  2
*D12
 10
131.9208259602
 20
158.3609460246
 30
0.0
 11
131.9208259602
 21
170.7109460246
 31
0.0
 70
   160
 71
     1
 42
24.7
  3
SLDDIMSTYLE1
100
AcDbAlignedDimension
 13
107.7061842105
 23
183.0609460246
 33
0.0
 14
107.7061842105
 24
158.3609460246
 34
0.0
 50
90.0
100
AcDbRotatedDimension
1001
ACAD
1000
DSTYLE
1002
{
1070
    77
1070
     3
1070
   143
1040
0.0393700787
1070
    41
1040
3.0
1070
    44
1040
1.0
1070
    42
1040
1.0
1070
   147
1040
1.524
1070
    73
1070
     0
1070
    74
1070
     0
1070
   140
1040
3.5
1070
   284
1070
    12
1070
    78
1070
    12
1002
}
  0
DIMENSION
  5
104
330
1F
100
AcDbEntity
  8
SLD-0
 62
     7
100
AcDbDimension
  2
*D13
 10
131.9208259602
 20
148.3609460246
 30
0.0
 11
131.9208259602
 21
153.3609460246
 31
0.0
 70
   160
 71
     1
 42
10.0
  3
SLDDIMSTYLE0
100
AcDbAlignedDimension
 13
107.7061842105
 23
158.3609460246
 33
0.0
 14
93.7061842105
 24
148.3609460246
 34
0.0
 50
90.0
100
AcDbRotatedDimension
1001
ACAD
1000
DSTYLE
1002
{
1070
    77
1070
     3
1070
   143
1040
0.0393700787
1070
    41
1040
3.0
1070
    44
1040
1.0
1070
    42
1040
1.0
1070
   147
1040
1.524
1070
    73
1070
     0
1070
    74
1070
     0
1070
   140
1040
3.5
1070
   284
1070
    12
1070
    78
1070
    12
1002
}
  0
DIMENSION
  5
11E
330
1F
100
AcDbEntity
  8
SLD-0
 62
     7
100
AcDbDimension
  2
*D14
 10
81.0061842105
 20
212.0867244538
 30
0.0
 11
93.7061842105
 21
212.0867244538
 31
0.0
 70
   160
 71
     1
 42
25.4
  3
SLDDIMSTYLE1
100
AcDbAlignedDimension
 13
106.4061842105
 23
180.3109460246
 33
0.0
 14
81.0061842105
 24
180.3109460246
 34
0.0
100
AcDbRotatedDimension
1001
ACAD
1000
DSTYLE
1002
{
1070
    77
1070
     3
1070
   143
1040
0.0393700787
1070
    41
1040
3.0
1070
    44
1040
1.0
1070
    42
1040
1.0
1070
   147
1040
1.524
1070
    73
1070
     0
1070
    74
1070
     0
1070
   140
1040
3.5
1070
   284
1070
    12
1070
    78
1070
    12
1002
}
  0
DIMENSION
  5
135
330
1F
100
AcDbEntity
  8
SLD-0
 62
     7
100
AcDbDimension
  2
*D15
 10
121.6279633785
 20
180.3109460246
 30
0.0
 11
121.6279633785
 21
192.2743561876
 31
0.0
 70
   160
 71
     1
 42
2.75
  3
SLDDIMSTYLE2
100
AcDbAlignedDimension
 13
107.7061842105
 23
183.0609460246
 33
0.0
 14
106.4061842105
 24
180.3109460246
 34
0.0
 50
90.0
100
AcDbRotatedDimension
1001
ACAD
1000
DSTYLE
1002
{
1070
    77
1070
     3
1070
   143
1040
0.0393700787
1070
    41
1040
3.0
1070
    44
1040
1.0
1070
    42
1040
1.0
1070
   147
1040
1.524
1070
    73
1070
     0
1070
    74
1070
     0
1070
   140
1040
3.5
1070
   284
1070
    12
1070
    78
1070
    12
1002
}
  0
DIMENSION
  5
151
330
1F
100
AcDbEntity
  8
SLD-0
 62
     7
100
AcDbDimension
  2
*D16
 10
121.6279633785
 20
175.3109460246
 30
0.0
 11
121.6279633785
 21
177.8109460246
 31
0.0
 70
   160
 71
     1
 42
5.0
  3
SLDDIMSTYLE0
100
AcDbAlignedDimension
 13
106.4061842105
 23
180.3109460246
 33
0.0
 14
106.4061842105
 24
175.3109460246
 34
0.0
 50
90.0
100
AcDbRotatedDimension
1001
ACAD
1000
DSTYLE
1002
{
1070
    77
1070
     3
1070
   143
1040
0.0393700787
1070
    41
1040
3.0
1070
    44
1040
1.0
1070
    42
1040
1.0
1070
   147
1040
1.524
1070
    73
1070
     0
1070
    74
1070
     0
1070
   140
1040
3.5
1070
   284
1070
    12
1070
    78
1070
    12
1002
}
  0
DIMENSION
  5
16B
330
1F
100
AcDbEntity
  8
SLD-0
 62
     7
100
AcDbDimension
  2
*D17
 10
109.7061842105
 20
212.0867244538
 30
0.0
 11
117.9638411727
 21
212.0867244538
 31
0.0
 70
   160
 71
     1
 42
3.3
  3
SLDDIMSTYLE1
100
AcDbAlignedDimension
 13
106.4061842105
 23
184.0609460246
 33
0.0
 14
109.7061842105
 24
181.0609460246
 34
0.0
100
AcDbRotatedDimension
1001
ACAD
1000
DSTYLE
1002
{
1070
    77
1070
     3
1070
   143
1040
0.0393700787
1070
    41
1040
3.0
1070
    44
1040
1.0
1070
    42
1040
1.0
1070
   147
1040
1.524
1070
    73
1070
     0
1070
    74
1070
     0
1070
   140
1040
3.5
1070
   284
1070
    12
1070
    78
1070
    12
1002
}
  0
DIMENSION
  5
187
330
1F
100
AcDbEntity
  8
SLD-0
 62
     7
100
AcDbDimension
  2
*D18
 10
109.7061842105
 20
126.2252474583
 30
0.0
 11
104.7061842105
 21
126.2252474583
 31
0.0
 70
   160
 71
     1
 42
10.0
  3
SLDDIMSTYLE0
100
AcDbAlignedDimension
 13
99.7061842105
 23
148.3609460246
 33
0.0
 14
109.7061842105
 24
160.3609460246
 34
0.0
100
AcDbRotatedDimension
1001
ACAD
1000
DSTYLE
1002
{
1070
    77
1070
     3
1070
   143
1040
0.0393700787
1070
    41
1040
3.0
1070
    44
1040
1.0
1070
    42
1040
1.0
1070
   147
1040
1.524
1070
    73
1070
     0
1070
    74
1070
     0
1070
   140
1040
3.5
1070
   284
1070
    12
1070
    78
1070
    12
1002
}
  0
DIMENSION
  5
1A0
330
1F
100
AcDbEntity
  8
SLD-0
 62
     7
100
AcDbDimension
  2
*D19
 10
66.5441669243
 20
177.0609460246
 30
0.0
 11
66.5441669243
 21
180.0609460246
 31
0.0
 70
   160
 71
     1
 42
6.0
  3
SLDDIMSTYLE0
100
AcDbAlignedDimension
 13
79.7061842105
 23
183.0609460246
 33
0.0
 14
82.9061842105
 24
177.0609460246
 34
0.0
 50
90.0
100
AcDbRotatedDimension
1001
ACAD
1000
DSTYLE
1002
{
1070
    77
1070
     3
1070
   143
1040
0.0393700787
1070
    41
1040
3.0
1070
    44
1040
1.0
1070
    42
1040
1.0
1070
   147
1040
1.524
1070
    73
1070
     0
1070
    74
1070
     0
1070
   140
1040
3.5
1070
   284
1070
    12
1070
    78
1070
    12
1002
}
  0
DIMENSION
  5
1BA
330
1F
100
AcDbEntity
  8
SLD-0
 62
     7
100
AcDbDimension
  2
*D20
 10
109.7061842105
 20
203.272162828
 30
0.0
 11
117.9638411727
 21
203.272162828
 31
0.0
 70
   160
 71
     1
 42
8.5
  3
SLDDIMSTYLE1
100
AcDbAlignedDimension
 13
101.2061842105
 23
180.3609460246
 33
0.0
 14
109.7061842105
 24
181.0609460246
 34
0.0
100
AcDbRotatedDimension
1001
ACAD
1000
DSTYLE
1002
{
1070
    77
1070
     3
1070
   143
1040
0.0393700787
1070
    41
1040
3.0
1070
    44
1040
1.0
1070
    42
1040
1.0
1070
   147
1040
1.524
1070
    73
1070
     0
1070
    74
1070
     0
1070
   140
1040
3.5
1070
   284
1070
    12
1070
    78
1070
    12
1002
}
  0
DIMENSION
  5
1D6
330
1F
100
AcDbEntity
  8
SLD-0
 62
     7
100
AcDbDimension
  2
*D21
 10
101.2061842105
 20
203.272162828
 30
0.0
 11
93.7061842105
 21
203.272162828
 31
0.0
 70
   160
 71
     1
 42
15.0
  3
SLDDIMSTYLE0
100
AcDbAlignedDimension
 13
86.2061842105
 23
180.3609460246
 33
0.0
 14
101.2061842105
 24
180.3609460246
 34
0.0
100
AcDbRotatedDimension
1001
ACAD
1000
DSTYLE
1002
{
1070
    77
1070
     3
1070
   143
1040
0.0393700787
1070
    41
1040
3.0
1070
    44
1040
1.0
1070
    42
1040
1.0
1070
   147
1040
1.524
1070
    73
1070
     0
1070
    74
1070
     0
1070
   140
1040
3.5
1070
   284
1070
    12
1070
    78
1070
    12
1002
}
  0
DIMENSION
  5
1ED
330
1F
100
AcDbEntity
  8
SLD-0
 62
     7
100
AcDbDimension
  2
*D22
 10
158.4553432887
 20
197.1259314656
 30
0.0
 11
155.9553432887
 21
197.1259314656
 31
0.0
 70
   160
 71
     1
 42
5.0
  3
SLDDIMSTYLE3
100
AcDbAlignedDimension
 13
153.4553432887
 23
160.3609460246
 33
0.0
 14
158.4553432887
 24
160.3609460246
 34
0.0
100
AcDbRotatedDimension
1001
ACAD
1000
DSTYLE
1002
{
1070
    77
1070
     3
1070
   143
1040
0.0393700787
1070
    41
1040
3.0
1070
    44
1040
1.0
1070
    42
1040
1.0
1070
   147
1040
1.524
1070
    73
1070
     0
1070
    74
1070
     0
1070
   140
1040
3.5
1070
   284
1070
    12
1070
    78
1070
    12
1002
}
  0
MTEXT
  5
208
330
1F
100
AcDbEntity
  8
SLD-0
 62
     7
100
AcDbMText
 10
147.3324079532
 20
29.7138882404
 30
0.0
 40
4.2333333333
 41
0.0
 71
     1
 72
     1
  1
N01915-201
  7
SLDTEXTSTYLE1
 73
     1
 44
1.0
  0
MTEXT
  5
209
330
1F
100
AcDbEntity
  8
SLD-0
 62
     7
100
AcDbMText
 10
149.6559415593
 20
43.2377018572
 30
0.0
 40
4.2333333333
 41
0.0
 71
     1
 72
     1
  1
Sensor BKT
  7
SLDTEXTSTYLE1
 73
     1
 44
1.0
  0
INSERT
  5
20A
330
1F
100
AcDbEntity
  8
0
  6
Continuous
 62
     7
370
     0
100
AcDbBlockReference
  2
SW_CENTERMARK0
 10
0.0
 20
0.0
 30
0.0
  0
INSERT
  5
20B
330
1F
100
AcDbEntity
  8
0
  6
Continuous
 62
     7
370
     0
100
AcDbBlockReference
  2
SW_CENTERMARK1
 10
0.0
 20
0.0
 30
0.0
  0
INSERT
  5
20C
330
1F
100
AcDbEntity
  8
0
  6
Continuous
 62
     7
370
     0
100
AcDbBlockReference
  2
SW_CENTERMARK2
 10
0.0
 20
0.0
 30
0.0
  0
INSERT
  5
20D
330
1F
100
AcDbEntity
  8
0
  6
Continuous
 62
     7
370
     0
100
AcDbBlockReference
  2
SW_CENTERMARK3
 10
0.0
 20
0.0
 30
0.0
  0
INSERT
  5
20E
330
1F
100
AcDbEntity
  8
0
  6
Continuous
 62
     7
370
     0
100
AcDbBlockReference
  2
SW_CENTERMARK4
 10
0.0
 20
0.0
 30
0.0
  0
INSERT
  5
20F
330
1F
100
AcDbEntity
  8
0
  6
Continuous
 62
     7
370
     0
100
AcDbBlockReference
  2
SW_CENTERMARK5
 10
0.0
 20
0.0
 30
0.0
  0
INSERT
  5
210
330
1F
100
AcDbEntity
  8
0
  6
Continuous
 62
     7
370
     0
100
AcDbBlockReference
  2
SW_CENTERMARK6
 10
0.0
 20
0.0
 30
0.0
  0
ENDSEC
  0
SECTION
  2
OBJECTS
  0
DICTIONARY
  5
C
330
0
100
AcDbDictionary
281
     1
  3
ACAD_GROUP
350
D
  3
ACAD_LAYOUT
350
1A
  3
ACAD_MLINESTYLE
350
17
  3
ACAD_PLOTSETTINGS
350
19
  3
ACAD_PLOTSTYLENAME
350
E
  0
DICTIONARY
  5
D
102
{ACAD_REACTORS
330
C
102
}
330
C
100
AcDbDictionary
281
     1
  0
DICTIONARY
  5
1A
102
{ACAD_REACTORS
330
C
102
}
330
C
100
AcDbDictionary
281
     1
  3
Layout1
350
1E
  3
Layout2
350
26
  3
Model
350
22
  0
DICTIONARY
  5
17
102
{ACAD_REACTORS
330
C
102
}
330
C
100
AcDbDictionary
281
     1
  3
Standard
350
18
  0
DICTIONARY
  5
19
102
{ACAD_REACTORS
330
C
102
}
330
C
100
AcDbDictionary
281
     1
  0
ACDBDICTIONARYWDFLT
  5
E
102
{ACAD_REACTORS
330
C
102
}
330
C
100
AcDbDictionary
281
     1
  3
Normal
350
F
100
AcDbDictionaryWithDefault
340
F
  0
LAYOUT
  5
1E
102
{ACAD_REACTORS
330
1A
102
}
330
1A
100
AcDbPlotSettings
  1

  2

  4

  6

 40
0.0
 41
0.0
 42
0.0
 43
0.0
 44
0.0
 45
0.0
 46
0.0
 47
0.0
 48
0.0
 49
0.0
140
0.0
141
0.0
142
1.0
143
1.0
 70
   688
 72
     0
 73
     0
 74
     5
  7

 75
    16
147
1.0
148
0.0
149
0.0
100
AcDbLayout
  1
Layout1
 70
     1
 71
     1
 10
0.0
 20
0.0
 11
0.0
 21
0.0
 12
0.0
 22
0.0
 32
0.0
 14
0.0
 24
0.0
 34
0.0
 15
0.0
 25
0.0
 35
0.0
146
0.0
 13
0.0
 23
0.0
 33
0.0
 16
1.0
 26
0.0
 36
0.0
 17
0.0
 27
1.0
 37
0.0
 76
     0
330
1B
  0
LAYOUT
  5
26
102
{ACAD_REACTORS
330
1A
102
}
330
1A
100
AcDbPlotSettings
  1

  2

  4

  6

 40
0.0
 41
0.0
 42
0.0
 43
0.0
 44
0.0
 45
0.0
 46
0.0
 47
0.0
 48
0.0
 49
0.0
140
0.0
141
0.0
142
1.0
143
1.0
 70
   688
 72
     0
 73
     0
 74
     5
  7

 75
    16
147
1.0
148
0.0
149
0.0
100
AcDbLayout
  1
Layout2
 70
     1
 71
     2
 10
0.0
 20
0.0
 11
0.0
 21
0.0
 12
0.0
 22
0.0
 32
0.0
 14
0.0
 24
0.0
 34
0.0
 15
0.0
 25
0.0
 35
0.0
146
0.0
 13
0.0
 23
0.0
 33
0.0
 16
1.0
 26
0.0
 36
0.0
 17
0.0
 27
1.0
 37
0.0
 76
     0
330
23
  0
LAYOUT
  5
22
102
{ACAD_REACTORS
330
1A
102
}
330
1A
100
AcDbPlotSettings
  1

  2

  4

  6

 40
0.0
 41
0.0
 42
0.0
 43
0.0
 44
0.0
 45
0.0
 46
0.0
 47
0.0
 48
0.0
 49
0.0
140
0.0
141
0.0
142
1.0
143
1.0
 70
  1712
 72
     0
 73
     0
 74
     0
  7

 75
     0
147
1.0
148
0.0
149
0.0
100
AcDbLayout
  1
Model
 70
     1
 71
     0
 10
0.0
 20
0.0
 11
0.0
 21
0.0
 12
0.0
 22
0.0
 32
0.0
 14
0.0
 24
0.0
 34
0.0
 15
210.0
 25
297.0
 35
0.0
146
0.0
 13
0.0
 23
0.0
 33
0.0
 16
1.0
 26
0.0
 36
0.0
 17
0.0
 27
1.0
 37
0.0
 76
     0
330
1F
  0
MLINESTYLE
  5
18
102
{ACAD_REACTORS
330
17
102
}
330
17
100
AcDbMlineStyle
  2
Standard
 70
     0
  3

 62
   256
 51
90.0
 52
90.0
 71
     2
 49
0.5
 62
   256
  6
BYLAYER
 49
-0.5
 62
   256
  6
BYLAYER
  0
ACDBPLACEHOLDER
  5
F
102
{ACAD_REACTORS
330
E
102
}
330
E
  0
ENDSEC
  0
EOF
