  0
SECTION
  2
HEADER
  9
$ACADVER
  1
AC1015
  9
$ACADMAINTVER
 70
     6
  9
$DWGCODEPAGE
  3
DOS932
  9
$INSBASE
 10
0.0
 20
0.0
 30
0.0
  9
$EXTMIN
 10
0.0
 20
0.0
 30
0.0
  9
$EXTMAX
 10
210.0
 20
297.0
 30
0.0
  9
$LIMMIN
 10
0.0
 20
0.0
  9
$LIMMAX
 10
0.0
 20
0.0
  9
$ORTHOMODE
 70
     0
  9
$REGENMODE
 70
     1
  9
$FILLMODE
 70
     1
  9
$QTEXTMODE
 70
     0
  9
$MIRRTEXT
 70
     1
  9
$LTSCALE
 40
1.0
  9
$ATTMODE
 70
     1
  9
$TEXTSIZE
 40
3.5
  9
$TRACEWID
 40
1.0
  9
$TEXTSTYLE
  7
Standard
  9
$CLAYER
  8
0
  9
$CELTYPE
  6
ByLayer
  9
$CECOLOR
 62
   256
  9
$CELTSCALE
 40
1.0
  9
$DISPSILH
 70
     0
  9
$DIMSCALE
 40
1.0
  9
$DIMASZ
 40
3.0
  9
$DIMEXO
 40
1.0
  9
$DIMDLI
 40
3.75
  9
$DIMRND
 40
0.0
  9
$DIMDLE
 40
0.0
  9
$DIMEXE
 40
1.0
  9
$DIMTP
 40
0.0
  9
$DIMTM
 40
0.0
  9
$DIMTXT
 40
3.5
  9
$DIMCEN
 40
2.5
  9
$DIMTSZ
 40
0.0
  9
$DIMTOL
 70
     0
  9
$DIMLIM
 70
     0
  9
$DIMTIH
 70
     1
  9
$DIMTOH
 70
     1
  9
$DIMSE1
 70
     0
  9
$DIMSE2
 70
     0
  9
$DIMTAD
 70
     1
  9
$DIMZIN
 70
     1
  9
$DIMBLK
  1

  9
$DIMASO
 70
     1
  9
$DIMSHO
 70
     1
  9
$DIMPOST
  1

  9
$DIMAPOST
  1

  9
$DIMALT
 70
     0
  9
$DIMALTD
 70
     3
  9
$DIMALTF
 40
0.0393700787
  9
$DIMLFAC
 40
1.0
  9
$DIMTOFL
 70
     1
  9
$DIMTVP
 40
0.0
  9
$DIMTIX
 70
     0
  9
$DIMSOXD
 70
     0
  9
$DIMSAH
 70
     0
  9
$DIMBLK1
  1

  9
$DIMBLK2
  1

  9
$DIMSTYLE
  2
ISO-25
  9
$DIMCLRD
 70
     0
  9
$DIMCLRE
 70
     0
  9
$DIMCLRT
 70
     0
  9
$DIMTFAC
 40
1.0
  9
$DIMGAP
 40
1.524
  9
$DIMJUST
 70
     0
  9
$DIMSD1
 70
     0
  9
$DIMSD2
 70
     0
  9
$DIMTOLJ
 70
     0
  9
$DIMTZIN
 70
     1
  9
$DIMALTZ
 70
     0
  9
$DIMALTTZ
 70
     0
  9
$DIMUPT
 70
     0
  9
$DIMDEC
 70
     2
  9
$DIMTDEC
 70
     2
  9
$DIMALTU
 70
     2
  9
$DIMALTTD
 70
     3
  9
$DIMTXSTY
  7
Standard
  9
$DIMAUNIT
 70
     0
  9
$DIMADEC
 70
     0
  9
$DIMALTRND
 40
0.0
  9
$DIMAZIN
 70
     0
  9
$DIMDSEP
 70
    44
  9
$DIMATFIT
 70
     3
  9
$DIMFRAC
 70
     0
  9
$DIMLDRBLK
  1

  9
$DIMLUNIT
 70
     2
  9
$DIMLWD
 70
    -2
  9
$DIMLWE
 70
    -2
  9
$DIMTMOVE
 70
     0
  9
$LUNITS
 70
     2
  9
$LUPREC
 70
     1
  9
$SKETCHINC
 40
1.0
  9
$FILLETRAD
 40
10.0
  9
$AUNITS
 70
     0
  9
$AUPREC
 70
     0
  9
$MENU
  1
.
  9
$ELEVATION
 40
0.0
  9
$PELEVATION
 40
0.0
  9
$THICKNESS
 40
0.0
  9
$LIMCHECK
 70
     0
  9
$CHAMFERA
 40
10.0
  9
$CHAMFERB
 40
10.0
  9
$CHAMFERC
 40
20.0
  9
$CHAMFERD
 40
0.0
  9
$SKPOLY
 70
     0
  9
$TDCREATE
 40
2454322.458401331
  9
$TDUCREATE
 40
2454322.083401331
  9
$TDUPDATE
 40
2454322.458401342
  9
$TDUUPDATE
 40
2454322.083401342
  9
$TDINDWG
 40
0.0000000116
  9
$TDUSRTIMER
 40
0.0000000116
  9
$USRTIMER
 70
     1
  9
$ANGBASE
 50
0.0
  9
$ANGDIR
 70
     0
  9
$PDMODE
 70
     0
  9
$PDSIZE
 40
-1.0
  9
$PLINEWID
 40
0.0
  9
$SPLFRAME
 70
     0
  9
$SPLINETYPE
 70
     6
  9
$SPLINESEGS
 70
     8
  9
$HANDSEED
  5
29D
  9
$SURFTAB1
 70
     6
  9
$SURFTAB2
 70
     6
  9
$SURFTYPE
 70
     6
  9
$SURFU
 70
     6
  9
$SURFV
 70
     6
  9
$UCSBASE
  2

  9
$UCSNAME
  2

  9
$UCSORG
 10
0.0
 20
0.0
 30
0.0
  9
$UCSXDIR
 10
1.0
 20
0.0
 30
0.0
  9
$UCSYDIR
 10
0.0
 20
1.0
 30
0.0
  9
$UCSORTHOREF
  2

  9
$UCSORTHOVIEW
 70
     0
  9
$UCSORGTOP
 10
0.0
 20
0.0
 30
0.0
  9
$UCSORGBOTTOM
 10
0.0
 20
0.0
 30
0.0
  9
$UCSORGLEFT
 10
0.0
 20
0.0
 30
0.0
  9
$UCSORGRIGHT
 10
0.0
 20
0.0
 30
0.0
  9
$UCSORGFRONT
 10
0.0
 20
0.0
 30
0.0
  9
$UCSORGBACK
 10
0.0
 20
0.0
 30
0.0
  9
$PUCSBASE
  2

  9
$PUCSNAME
  2

  9
$PUCSORG
 10
0.0
 20
0.0
 30
0.0
  9
$PUCSXDIR
 10
1.0
 20
0.0
 30
0.0
  9
$PUCSYDIR
 10
0.0
 20
1.0
 30
0.0
  9
$PUCSORTHOREF
  2

  9
$PUCSORTHOVIEW
 70
     0
  9
$PUCSORGTOP
 10
0.0
 20
0.0
 30
0.0
  9
$PUCSORGBOTTOM
 10
0.0
 20
0.0
 30
0.0
  9
$PUCSORGLEFT
 10
0.0
 20
0.0
 30
0.0
  9
$PUCSORGRIGHT
 10
0.0
 20
0.0
 30
0.0
  9
$PUCSORGFRONT
 10
0.0
 20
0.0
 30
0.0
  9
$PUCSORGBACK
 10
0.0
 20
0.0
 30
0.0
  9
$USERI1
 70
     0
  9
$USERI2
 70
     0
  9
$USERI3
 70
     0
  9
$USERI4
 70
     0
  9
$USERI5
 70
     0
  9
$USERR1
 40
0.0
  9
$USERR2
 40
0.0
  9
$USERR3
 40
0.0
  9
$USERR4
 40
0.0
  9
$USERR5
 40
0.0
  9
$WORLDVIEW
 70
     1
  9
$SHADEDGE
 70
     3
  9
$SHADEDIF
 70
    70
  9
$TILEMODE
 70
     1
  9
$MAXACTVP
 70
    64
  9
$PINSBASE
 10
0.0
 20
0.0
 30
0.0
  9
$PLIMCHECK
 70
     0
  9
$PEXTMIN
 10
1.0000000000E+20
 20
1.0000000000E+20
 30
1.0000000000E+20
  9
$PEXTMAX
 10
-1.0000000000E+20
 20
-1.0000000000E+20
 30
-1.0000000000E+20
  9
$PLIMMIN
 10
0.0
 20
0.0
  9
$PLIMMAX
 10
420.0
 20
297.0
  9
$UNITMODE
 70
     0
  9
$VISRETAIN
 70
     1
  9
$PLINEGEN
 70
     0
  9
$PSLTSCALE
 70
     1
  9
$TREEDEPTH
 70
  3020
  9
$CMLSTYLE
  2
Standard
  9
$CMLJUST
 70
     0
  9
$CMLSCALE
 40
20.0
  9
$PROXYGRAPHICS
 70
     1
  9
$MEASUREMENT
 70
     1
  9
$CELWEIGHT
370
    -1
  9
$ENDCAPS
280
     0
  9
$JOINSTYLE
280
     0
  9
$LWDISPLAY
290
     1
  9
$INSUNITS
 70
     4
  9
$HYPERLINKBASE
  1

  9
$STYLESHEET
  1

  9
$XEDIT
290
     1
  9
$CEPSNTYPE
380
     0
  9
$PSTYLEMODE
290
     1
  9
$FINGERPRINTGUID
  2
{4238A0CF-1F05-4BDC-A81E-728148D331FA}
  9
$VERSIONGUID
  2
{FAEB1C32-E019-11D5-929B-00C0DF256EC4}
  9
$EXTNAMES
290
     1
  9
$PSVPSCALE
 40
0.0
  9
$OLESTARTUP
290
     0
  0
ENDSEC
  0
SECTION
  2
CLASSES
  0
CLASS
  1
ACDBDICTIONARYWDFLT
  2
AcDbDictionaryWithDefault
  3
ObjectDBX Classes
 90
        0
280
     0
281
     0
  0
CLASS
  1
ACDBPLACEHOLDER
  2
AcDbPlaceHolder
  3
ObjectDBX Classes
 90
        0
280
     0
281
     0
  0
CLASS
  1
LAYOUT
  2
AcDbLayout
  3
ObjectDBX Classes
 90
        0
280
     0
281
     0
  0
ENDSEC
  0
SECTION
  2
TABLES
  0
TABLE
  2
VPORT
  5
8
330
0
100
AcDbSymbolTable
 70
     1
  0
VPORT
  5
29
330
8
100
AcDbSymbolTableRecord
100
AcDbViewportTableRecord
  2
*Active
 70
     0
 10
0.0
 20
0.0
 11
1.0
 21
1.0
 12
105.0
 22
148.5
 13
0.0
 23
0.0
 14
10.0
 24
10.0
 15
10.0
 25
10.0
 16
0.0
 26
0.0
 36
1.0
 17
0.0
 27
0.0
 37
0.0
 40
297.0
 41
1.9729729729
 42
50.0
 43
0.0
 44
0.0
 50
0.0
 51
0.0
 71
     0
 72
  2000
 73
     1
 74
     3
 75
     0
 76
     0
 77
     0
 78
     0
281
     0
 65
     1
110
0.0
120
0.0
130
0.0
111
1.0
121
0.0
131
0.0
112
0.0
122
1.0
132
0.0
 79
     0
146
0.0
  0
ENDTAB
  0
TABLE
  2
LTYPE
  5
5
330
0
100
AcDbSymbolTable
 70
     6
  0
LTYPE
  5
14
330
5
100
AcDbSymbolTableRecord
100
AcDbLinetypeTableRecord
  2
ByBlock
 70
     0
  3

 72
    65
 73
     0
 40
0.0
  0
LTYPE
  5
15
330
5
100
AcDbSymbolTableRecord
100
AcDbLinetypeTableRecord
  2
ByLayer
 70
     0
  3

 72
    65
 73
     0
 40
0.0
  0
LTYPE
  5
16
330
5
100
AcDbSymbolTableRecord
100
AcDbLinetypeTableRecord
  2
Continuous
 70
     0
  3
Solid line
 72
    65
 73
     0
 40
0.0
  0
LTYPE
  5
2A
330
5
100
AcDbSymbolTableRecord
100
AcDbLinetypeTableRecord
  2
HIDDEN
 70
     0
  3
Hidden __ __ __ __ __ __ __ __ __ __ __ __ __ __
 72
    65
 73
     2
 40
1.905
 49
1.27
 74
     0
 49
-0.635
 74
     0
  0
LTYPE
  5
2B
330
5
100
AcDbSymbolTableRecord
100
AcDbLinetypeTableRecord
  2
PHANTOM
 70
     0
  3
Phantom ______  __  __  ______  __  __  ______
 72
    65
 73
     6
 40
12.7
 49
6.35
 74
     0
 49
-1.27
 74
     0
 49
1.27
 74
     0
 49
-1.27
 74
     0
 49
1.27
 74
     0
 49
-1.27
 74
     0
  0
LTYPE
  5
2C
330
5
100
AcDbSymbolTableRecord
100
AcDbLinetypeTableRecord
  2
CENTER
 70
     0
  3
Center ____ _ ____ _ ____ _ ____ _ ____ _ ____
 72
    65
 73
     4
 40
10.16
 49
6.35
 74
     0
 49
-1.27
 74
     0
 49
1.27
 74
     0
 49
-1.27
 74
     0
  0
LTYPE
  5
2D
330
5
100
AcDbSymbolTableRecord
100
AcDbLinetypeTableRecord
  2
CENTERX2
 70
     0
  3
Center (2x) ________  __  ________  __  _____
 72
    65
 73
     4
 40
20.32
 49
12.7
 74
     0
 49
-2.54
 74
     0
 49
2.54
 74
     0
 49
-2.54
 74
     0
  0
LTYPE
  5
2E
330
5
100
AcDbSymbolTableRecord
100
AcDbLinetypeTableRecord
  2
DOT2
 70
     0
  3
Dot (.5x) ........................................
 72
    65
 73
     2
 40
0.635
 49
0.0
 74
     0
 49
-0.635
 74
     0
  0
ENDTAB
  0
TABLE
  2
LAYER
  5
2
330
0
100
AcDbSymbolTable
 70
     4
  0
LAYER
  5
10
330
2
100
AcDbSymbolTableRecord
100
AcDbLayerTableRecord
  2
0
 70
     0
 62
     7
  6
Continuous
370
    -3
390
F
  0
LAYER
  5
2F
330
2
100
AcDbSymbolTableRecord
100
AcDbLayerTableRecord
  2
SLD-0
 70
     0
 62
   179
  6
Continuous
370
     0
390
F
  0
LAYER
  5
30
330
2
100
AcDbSymbolTableRecord
100
AcDbLayerTableRecord
  2
SLD-DEFPOINTS
 70
     0
 62
   179
  6
Continuous
370
     0
390
F
  0
LAYER
  5
C5
330
2
100
AcDbSymbolTableRecord
100
AcDbLayerTableRecord
  2
Defpoints
 70
     0
 62
     7
  6
Continuous
290
     0
370
    -3
390
F
  0
ENDTAB
  0
TABLE
  2
STYLE
  5
3
330
0
100
AcDbSymbolTable
 70
     4
  0
STYLE
  5
11
330
3
100
AcDbSymbolTableRecord
100
AcDbTextStyleTableRecord
  2
Standard
 70
     0
 40
0.0
 41
1.0
 50
0.0
 71
     0
 42
2.5
  3
txt
  4
bigfont
  0
STYLE
  5
34
330
3
100
AcDbSymbolTableRecord
100
AcDbTextStyleTableRecord
  2
SLDTEXTSTYLE0
 70
     0
 40
0.0
 41
0.7
 50
0.0
 71
     0
 42
0.2
  3
TXT
  4
bigfont
  0
STYLE
  5
D2
330
3
100
AcDbSymbolTableRecord
100
AcDbTextStyleTableRecord
  2
SLDTEXTSTYLE1
 70
     0
 40
0.0
 41
0.5526315789
 50
0.0
 71
     0
 42
0.2
  3
TXT
  4
bigfont
  0
STYLE
  5
29A
330
3
100
AcDbSymbolTableRecord
100
AcDbTextStyleTableRecord
  2
SLDTEXTSTYLE2
 70
     0
 40
0.0
 41
0.47432
 50
0.0
 71
     0
 42
0.2
  3
TXT
  4
bigfont
  0
ENDTAB
  0
TABLE
  2
VIEW
  5
6
330
0
100
AcDbSymbolTable
 70
     0
  0
ENDTAB
  0
TABLE
  2
UCS
  5
7
330
0
100
AcDbSymbolTable
 70
     0
  0
ENDTAB
  0
TABLE
  2
APPID
  5
9
330
0
100
AcDbSymbolTable
 70
     1
  0
APPID
  5
12
330
9
100
AcDbSymbolTableRecord
100
AcDbRegAppTableRecord
  2
ACAD
 70
     0
  0
ENDTAB
  0
TABLE
  2
DIMSTYLE
  5
A
330
0
100
AcDbSymbolTable
 70
     4
100
AcDbDimStyleTable
  0
DIMSTYLE
105
27
330
A
100
AcDbSymbolTableRecord
100
AcDbDimStyleTableRecord
  2
ISO-25
 70
     0
 41
2.5
 42
0.625
 43
3.75
 44
1.25
 73
     0
 74
     0
 77
     1
 78
     8
140
2.5
141
2.5
143
0.0393700787
147
0.625
171
     3
172
     1
271
     2
272
     2
274
     3
278
    44
283
     0
284
     8
340
11
  0
DIMSTYLE
105
D3
102
{ACAD_REACTORS
330
C4
330
E1
330
F9
330
15D
330
175
330
18C
330
1A3
330
1D1
330
1EB
330
205
330
21C
330
24C
330
266
102
}
330
A
100
AcDbSymbolTableRecord
100
AcDbDimStyleTableRecord
  2
SLDDIMSTYLE0
 70
     0
 41
3.0
 44
0.0
 73
     0
 74
     0
 77
     3
 78
    12
140
3.5
147
0.875
173
     1
271
     0
272
     3
284
    12
340
D2
341
D4
343
D4
344
D4
  0
DIMSTYLE
105
11E
102
{ACAD_REACTORS
330
111
330
12B
330
142
330
1BA
330
235
102
}
330
A
100
AcDbSymbolTableRecord
100
AcDbDimStyleTableRecord
  2
SLDDIMSTYLE1
 70
     0
 41
3.0
 44
0.0
 73
     0
 74
     0
 77
     3
 78
    12
140
3.5
147
0.875
173
     1
271
     1
272
     3
284
    12
340
D2
341
D4
343
D4
344
D4
  0
DIMSTYLE
105
28C
102
{ACAD_REACTORS
330
27E
102
}
330
A
100
AcDbSymbolTableRecord
100
AcDbDimStyleTableRecord
  2
SLDDIMSTYLE2
 70
     0
 41
3.0
 44
0.0
 73
     0
 74
     0
 77
     3
 78
    12
140
3.5
147
0.875
173
     1
271
     0
272
     2
284
    12
340
D2
341
D4
343
D4
344
D4
  0
ENDTAB
  0
TABLE
  2
BLOCK_RECORD
  5
1
330
0
100
AcDbSymbolTable
 70
    23
  0
BLOCK_RECORD
  5
1F
330
1
100
AcDbSymbolTableRecord
100
AcDbBlockTableRecord
  2
*Model_Space
340
22
  0
BLOCK_RECORD
  5
1B
330
1
100
AcDbSymbolTableRecord
100
AcDbBlockTableRecord
  2
*Paper_Space
340
1E
  0
BLOCK_RECORD
  5
23
330
1
100
AcDbSymbolTableRecord
100
AcDbBlockTableRecord
  2
*Paper_Space0
340
26
  0
BLOCK_RECORD
  5
31
330
1
100
AcDbSymbolTableRecord
100
AcDbBlockTableRecord
  2
注記
340
0
  0
BLOCK_RECORD
  5
37
330
1
100
AcDbSymbolTableRecord
100
AcDbBlockTableRecord
  2
SW_CENTERMARK0
340
0
102
{BLKREFS
331
29C
102
}
  0
BLOCK_RECORD
  5
C6
330
1
100
AcDbSymbolTableRecord
100
AcDbBlockTableRecord
  2
*D3
340
0
  0
BLOCK_RECORD
  5
D4
330
1
100
AcDbSymbolTableRecord
100
AcDbBlockTableRecord
  2
_None
340
0
102
{BLKREFS
331
CB
331
CA
331
E7
331
E6
331
FF
331
FE
331
117
331
116
331
131
331
130
331
149
331
148
331
163
331
162
331
17B
331
17A
331
192
331
191
331
1A9
331
1A8
331
1C0
331
1BF
331
1D7
331
1D6
331
1F1
331
1F0
331
20B
331
20A
331
222
331
221
331
23B
331
23A
331
252
331
251
331
26C
331
26B
331
284
331
283
102
}
  0
BLOCK_RECORD
  5
E2
330
1
100
AcDbSymbolTableRecord
100
AcDbBlockTableRecord
  2
*D5
340
0
  0
BLOCK_RECORD
  5
FA
330
1
100
AcDbSymbolTableRecord
100
AcDbBlockTableRecord
  2
*D6
340
0
  0
BLOCK_RECORD
  5
112
330
1
100
AcDbSymbolTableRecord
100
AcDbBlockTableRecord
  2
*D7
340
0
  0
BLOCK_RECORD
  5
12C
330
1
100
AcDbSymbolTableRecord
100
AcDbBlockTableRecord
  2
*D8
340
0
  0
BLOCK_RECORD
  5
143
330
1
100
AcDbSymbolTableRecord
100
AcDbBlockTableRecord
  2
*D9
340
0
  0
BLOCK_RECORD
  5
15E
330
1
100
AcDbSymbolTableRecord
100
AcDbBlockTableRecord
  2
*D10
340
0
  0
BLOCK_RECORD
  5
176
330
1
100
AcDbSymbolTableRecord
100
AcDbBlockTableRecord
  2
*D11
340
0
  0
BLOCK_RECORD
  5
18D
330
1
100
AcDbSymbolTableRecord
100
AcDbBlockTableRecord
  2
*D12
340
0
  0
BLOCK_RECORD
  5
1A4
330
1
100
AcDbSymbolTableRecord
100
AcDbBlockTableRecord
  2
*D13
340
0
  0
BLOCK_RECORD
  5
1BB
330
1
100
AcDbSymbolTableRecord
100
AcDbBlockTableRecord
  2
*D14
340
0
  0
BLOCK_RECORD
  5
1D2
330
1
100
AcDbSymbolTableRecord
100
AcDbBlockTableRecord
  2
*D15
340
0
  0
BLOCK_RECORD
  5
1EC
330
1
100
AcDbSymbolTableRecord
100
AcDbBlockTableRecord
  2
*D16
340
0
  0
BLOCK_RECORD
  5
206
330
1
100
AcDbSymbolTableRecord
100
AcDbBlockTableRecord
  2
*D17
340
0
  0
BLOCK_RECORD
  5
21D
330
1
100
AcDbSymbolTableRecord
100
AcDbBlockTableRecord
  2
*D18
340
0
  0
BLOCK_RECORD
  5
236
330
1
100
AcDbSymbolTableRecord
100
AcDbBlockTableRecord
  2
*D19
340
0
  0
BLOCK_RECORD
  5
24D
330
1
100
AcDbSymbolTableRecord
100
AcDbBlockTableRecord
  2
*D20
340
0
  0
BLOCK_RECORD
  5
267
330
1
100
AcDbSymbolTableRecord
100
AcDbBlockTableRecord
  2
*D21
340
0
  0
BLOCK_RECORD
  5
27F
330
1
100
AcDbSymbolTableRecord
100
AcDbBlockTableRecord
  2
*D22
340
0
  0
ENDTAB
  0
ENDSEC
  0
SECTION
  2
BLOCKS
  0
BLOCK
  5
20
330
1F
100
AcDbEntity
  8
0
100
AcDbBlockBegin
  2
*Model_Space
 70
     0
 71
     0
 10
0.0
 20
0.0
 30
0.0
  3
*Model_Space
  1

  0
ENDBLK
  5
21
330
1F
100
AcDbEntity
  8
0
100
AcDbBlockEnd
  0
BLOCK
  5
1C
330
1B
100
AcDbEntity
 67
     1
  8
0
100
AcDbBlockBegin
  2
*Paper_Space
 70
     0
 71
     0
 10
0.0
 20
0.0
 30
0.0
  3
*Paper_Space
  1

  0
ENDBLK
  5
1D
330
1B
100
AcDbEntity
 67
     1
  8
0
100
AcDbBlockEnd
  0
BLOCK
  5
24
330
23
100
AcDbEntity
  8
0
100
AcDbBlockBegin
  2
*Paper_Space0
 70
     0
 71
     0
 10
0.0
 20
0.0
 30
0.0
  3
*Paper_Space0
  1

  0
ENDBLK
  5
25
330
23
100
AcDbEntity
  8
0
100
AcDbBlockEnd
  0
BLOCK
  5
32
330
31
100
AcDbEntity
  8
0
100
AcDbBlockBegin
  2
注記
 70
     0
 71
     0
 10
0.0
 20
0.0
 30
0.0
  3
注記
  1

  0
MTEXT
  5
35
330
31
100
AcDbEntity
  8
0
  6
Continuous
 62
     7
370
     0
100
AcDbMText
 10
0.2636785918
 20
9.0739778448
 30
0.0
 40
3.5
 41
0.0
 71
     1
 72
     1
  1
１．特記ナキ角部ハ、バリ　カエリノ無キコト。
  7
SLDTEXTSTYLE0
 73
     1
 44
1.0
  0
MTEXT
  5
36
330
31
100
AcDbEntity
  8
0
  6
Continuous
 62
     7
370
     0
100
AcDbMText
 10
0.2636785918
 20
3.5759549983
 30
0.0
 40
3.5
 41
0.0
 71
     1
 72
     1
  1
２．特記ナキ隅部ハ、Ｒ０．４ＭＡＸトスル。
  7
SLDTEXTSTYLE0
 73
     1
 44
1.0
  0
ENDBLK
  5
33
330
31
100
AcDbEntity
  8
0
100
AcDbBlockEnd
  0
BLOCK
  5
38
330
37
100
AcDbEntity
  8
0
100
AcDbBlockBegin
  2
SW_CENTERMARK0
 70
     0
 71
     0
 10
0.0
 20
0.0
 30
0.0
  3
SW_CENTERMARK0
  1

  0
LINE
  5
3A
330
37
100
AcDbEntity
  8
SLD-0
  6
Continuous
 62
   179
100
AcDbLine
 10
68.8302681619
 20
201.2986096405
 30
0.0
 11
68.8302681619
 21
203.7986096405
 31
0.0
  0
LINE
  5
3B
330
37
100
AcDbEntity
  8
SLD-0
  6
Continuous
 62
   179
100
AcDbLine
 10
68.8302681619
 20
201.2986096405
 30
0.0
 11
66.3302681619
 21
201.2986096405
 31
0.0
  0
LINE
  5
3C
330
37
100
AcDbEntity
  8
SLD-0
  6
Continuous
 62
   179
100
AcDbLine
 10
68.8302681619
 20
201.2986096405
 30
0.0
 11
68.8302681619
 21
198.7986096405
 31
0.0
  0
LINE
  5
3D
330
37
100
AcDbEntity
  8
SLD-0
  6
Continuous
 62
   179
100
AcDbLine
 10
68.8302681619
 20
201.2986096405
 30
0.0
 11
71.3302681619
 21
201.2986096405
 31
0.0
  0
LINE
  5
3E
330
37
100
AcDbEntity
  8
SLD-0
  6
Continuous
 62
   179
100
AcDbLine
 10
68.8302681619
 20
206.2986096405
 30
0.0
 11
68.8302681619
 21
207.0486096405
 31
0.0
  0
LINE
  5
3F
330
37
100
AcDbEntity
  8
SLD-0
  6
Continuous
 62
   179
100
AcDbLine
 10
63.8302681619
 20
201.2986096405
 30
0.0
 11
63.0802681619
 21
201.2986096405
 31
0.0
  0
LINE
  5
40
330
37
100
AcDbEntity
  8
SLD-0
  6
Continuous
 62
   179
100
AcDbLine
 10
68.8302681619
 20
196.2986096405
 30
0.0
 11
68.8302681619
 21
195.5486096405
 31
0.0
  0
LINE
  5
41
330
37
100
AcDbEntity
  8
SLD-0
  6
Continuous
 62
   179
100
AcDbLine
 10
97.3302681619
 20
201.2986096405
 30
0.0
 11
97.3302681619
 21
203.7986096405
 31
0.0
  0
LINE
  5
42
330
37
100
AcDbEntity
  8
SLD-0
  6
Continuous
 62
   179
100
AcDbLine
 10
97.3302681619
 20
201.2986096405
 30
0.0
 11
94.8302681619
 21
201.2986096405
 31
0.0
  0
LINE
  5
43
330
37
100
AcDbEntity
  8
SLD-0
  6
Continuous
 62
   179
100
AcDbLine
 10
97.3302681619
 20
201.2986096405
 30
0.0
 11
97.3302681619
 21
198.7986096405
 31
0.0
  0
LINE
  5
44
330
37
100
AcDbEntity
  8
SLD-0
  6
Continuous
 62
   179
100
AcDbLine
 10
97.3302681619
 20
201.2986096405
 30
0.0
 11
99.8302681619
 21
201.2986096405
 31
0.0
  0
LINE
  5
45
330
37
100
AcDbEntity
  8
SLD-0
  6
Continuous
 62
   179
100
AcDbLine
 10
97.3302681619
 20
206.2986096405
 30
0.0
 11
97.3302681619
 21
207.0486096405
 31
0.0
  0
LINE
  5
46
330
37
100
AcDbEntity
  8
SLD-0
  6
Continuous
 62
   179
100
AcDbLine
 10
97.3302681619
 20
196.2986096405
 30
0.0
 11
97.3302681619
 21
195.5486096405
 31
0.0
  0
LINE
  5
47
330
37
100
AcDbEntity
  8
SLD-0
  6
Continuous
 62
   179
100
AcDbLine
 10
97.3302681619
 20
181.2986096405
 30
0.0
 11
97.3302681619
 21
183.7986096405
 31
0.0
  0
LINE
  5
48
330
37
100
AcDbEntity
  8
SLD-0
  6
Continuous
 62
   179
100
AcDbLine
 10
97.3302681619
 20
181.2986096405
 30
0.0
 11
94.8302681619
 21
181.2986096405
 31
0.0
  0
LINE
  5
49
330
37
100
AcDbEntity
  8
SLD-0
  6
Continuous
 62
   179
100
AcDbLine
 10
97.3302681619
 20
181.2986096405
 30
0.0
 11
97.3302681619
 21
178.7986096405
 31
0.0
  0
LINE
  5
4A
330
37
100
AcDbEntity
  8
SLD-0
  6
Continuous
 62
   179
100
AcDbLine
 10
97.3302681619
 20
181.2986096405
 30
0.0
 11
99.8302681619
 21
181.2986096405
 31
0.0
  0
LINE
  5
4B
330
37
100
AcDbEntity
  8
SLD-0
  6
Continuous
 62
   179
100
AcDbLine
 10
97.3302681619
 20
186.2986096405
 30
0.0
 11
97.3302681619
 21
187.0486096405
 31
0.0
  0
LINE
  5
4C
330
37
100
AcDbEntity
  8
SLD-0
  6
Continuous
 62
   179
100
AcDbLine
 10
97.3302681619
 20
176.2986096405
 30
0.0
 11
97.3302681619
 21
175.5486096405
 31
0.0
  0
LINE
  5
4D
330
37
100
AcDbEntity
  8
SLD-0
  6
Continuous
 62
   179
100
AcDbLine
 10
68.8302681619
 20
181.2986096405
 30
0.0
 11
68.8302681619
 21
183.7986096405
 31
0.0
  0
LINE
  5
4E
330
37
100
AcDbEntity
  8
SLD-0
  6
Continuous
 62
   179
100
AcDbLine
 10
68.8302681619
 20
181.2986096405
 30
0.0
 11
66.3302681619
 21
181.2986096405
 31
0.0
  0
LINE
  5
4F
330
37
100
AcDbEntity
  8
SLD-0
  6
Continuous
 62
   179
100
AcDbLine
 10
68.8302681619
 20
181.2986096405
 30
0.0
 11
68.8302681619
 21
178.7986096405
 31
0.0
  0
LINE
  5
50
330
37
100
AcDbEntity
  8
SLD-0
  6
Continuous
 62
   179
100
AcDbLine
 10
68.8302681619
 20
181.2986096405
 30
0.0
 11
71.3302681619
 21
181.2986096405
 31
0.0
  0
LINE
  5
51
330
37
100
AcDbEntity
  8
SLD-0
  6
Continuous
 62
   179
100
AcDbLine
 10
68.8302681619
 20
186.2986096405
 30
0.0
 11
68.8302681619
 21
187.0486096405
 31
0.0
  0
LINE
  5
52
330
37
100
AcDbEntity
  8
SLD-0
  6
Continuous
 62
   179
100
AcDbLine
 10
63.8302681619
 20
181.2986096405
 30
0.0
 11
63.0802681619
 21
181.2986096405
 31
0.0
  0
LINE
  5
53
330
37
100
AcDbEntity
  8
SLD-0
  6
Continuous
 62
   179
100
AcDbLine
 10
68.8302681619
 20
176.2986096405
 30
0.0
 11
68.8302681619
 21
175.5486096405
 31
0.0
  0
LINE
  5
54
330
37
100
AcDbEntity
  8
SLD-0
  6
Continuous
 62
   179
100
AcDbLine
 10
126.8302681619
 20
191.2986096405
 30
0.0
 11
126.8302681619
 21
193.7986096405
 31
0.0
  0
LINE
  5
55
330
37
100
AcDbEntity
  8
SLD-0
  6
Continuous
 62
   179
100
AcDbLine
 10
126.8302681619
 20
191.2986096405
 30
0.0
 11
124.3302681619
 21
191.2986096405
 31
0.0
  0
LINE
  5
56
330
37
100
AcDbEntity
  8
SLD-0
  6
Continuous
 62
   179
100
AcDbLine
 10
126.8302681619
 20
191.2986096405
 30
0.0
 11
126.8302681619
 21
188.7986096405
 31
0.0
  0
LINE
  5
57
330
37
100
AcDbEntity
  8
SLD-0
  6
Continuous
 62
   179
100
AcDbLine
 10
126.8302681619
 20
191.2986096405
 30
0.0
 11
129.3302681619
 21
191.2986096405
 31
0.0
  0
LINE
  5
58
330
37
100
AcDbEntity
  8
SLD-0
  6
Continuous
 62
   179
100
AcDbLine
 10
146.8302681619
 20
191.2986096405
 30
0.0
 11
146.8302681619
 21
193.7986096405
 31
0.0
  0
LINE
  5
59
330
37
100
AcDbEntity
  8
SLD-0
  6
Continuous
 62
   179
100
AcDbLine
 10
146.8302681619
 20
191.2986096405
 30
0.0
 11
144.3302681619
 21
191.2986096405
 31
0.0
  0
LINE
  5
5A
330
37
100
AcDbEntity
  8
SLD-0
  6
Continuous
 62
   179
100
AcDbLine
 10
146.8302681619
 20
191.2986096405
 30
0.0
 11
146.8302681619
 21
188.7986096405
 31
0.0
  0
LINE
  5
5B
330
37
100
AcDbEntity
  8
SLD-0
  6
Continuous
 62
   179
100
AcDbLine
 10
146.8302681619
 20
191.2986096405
 30
0.0
 11
149.3302681619
 21
191.2986096405
 31
0.0
  0
LINE
  5
5C
330
37
100
AcDbEntity
  8
SLD-0
  6
Continuous
 62
   179
100
AcDbLine
 10
146.8302681619
 20
181.2986096405
 30
0.0
 11
146.8302681619
 21
183.7986096405
 31
0.0
  0
LINE
  5
5D
330
37
100
AcDbEntity
  8
SLD-0
  6
Continuous
 62
   179
100
AcDbLine
 10
146.8302681619
 20
181.2986096405
 30
0.0
 11
144.3302681619
 21
181.2986096405
 31
0.0
  0
LINE
  5
5E
330
37
100
AcDbEntity
  8
SLD-0
  6
Continuous
 62
   179
100
AcDbLine
 10
146.8302681619
 20
181.2986096405
 30
0.0
 11
146.8302681619
 21
178.7986096405
 31
0.0
  0
LINE
  5
5F
330
37
100
AcDbEntity
  8
SLD-0
  6
Continuous
 62
   179
100
AcDbLine
 10
146.8302681619
 20
181.2986096405
 30
0.0
 11
149.3302681619
 21
181.2986096405
 31
0.0
  0
LINE
  5
60
330
37
100
AcDbEntity
  8
SLD-0
  6
Continuous
 62
   179
100
AcDbLine
 10
146.8302681619
 20
183.7986096405
 30
0.0
 11
146.8302681619
 21
186.2986096405
 31
0.0
  0
LINE
  5
61
330
37
100
AcDbEntity
  8
SLD-0
  6
Continuous
 62
   179
100
AcDbLine
 10
146.8302681619
 20
178.7986096405
 30
0.0
 11
146.8302681619
 21
176.2986096405
 31
0.0
  0
LINE
  5
62
330
37
100
AcDbEntity
  8
SLD-0
  6
Continuous
 62
   179
100
AcDbLine
 10
149.3302681619
 20
181.2986096405
 30
0.0
 11
151.8302681619
 21
181.2986096405
 31
0.0
  0
LINE
  5
63
330
37
100
AcDbEntity
  8
SLD-0
  6
Continuous
 62
   179
100
AcDbLine
 10
136.8302681619
 20
181.2986096405
 30
0.0
 11
136.8302681619
 21
183.7986096405
 31
0.0
  0
LINE
  5
64
330
37
100
AcDbEntity
  8
SLD-0
  6
Continuous
 62
   179
100
AcDbLine
 10
136.8302681619
 20
181.2986096405
 30
0.0
 11
134.3302681619
 21
181.2986096405
 31
0.0
  0
LINE
  5
65
330
37
100
AcDbEntity
  8
SLD-0
  6
Continuous
 62
   179
100
AcDbLine
 10
136.8302681619
 20
181.2986096405
 30
0.0
 11
136.8302681619
 21
178.7986096405
 31
0.0
  0
LINE
  5
66
330
37
100
AcDbEntity
  8
SLD-0
  6
Continuous
 62
   179
100
AcDbLine
 10
136.8302681619
 20
181.2986096405
 30
0.0
 11
139.3302681619
 21
181.2986096405
 31
0.0
  0
LINE
  5
67
330
37
100
AcDbEntity
  8
SLD-0
  6
Continuous
 62
   179
100
AcDbLine
 10
136.8302681619
 20
201.2986096405
 30
0.0
 11
136.8302681619
 21
203.7986096405
 31
0.0
  0
LINE
  5
68
330
37
100
AcDbEntity
  8
SLD-0
  6
Continuous
 62
   179
100
AcDbLine
 10
136.8302681619
 20
201.2986096405
 30
0.0
 11
134.3302681619
 21
201.2986096405
 31
0.0
  0
LINE
  5
69
330
37
100
AcDbEntity
  8
SLD-0
  6
Continuous
 62
   179
100
AcDbLine
 10
136.8302681619
 20
201.2986096405
 30
0.0
 11
136.8302681619
 21
198.7986096405
 31
0.0
  0
LINE
  5
6A
330
37
100
AcDbEntity
  8
SLD-0
  6
Continuous
 62
   179
100
AcDbLine
 10
136.8302681619
 20
201.2986096405
 30
0.0
 11
139.3302681619
 21
201.2986096405
 31
0.0
  0
LINE
  5
6B
330
37
100
AcDbEntity
  8
SLD-0
  6
Continuous
 62
   179
100
AcDbLine
 10
146.8302681619
 20
201.2986096405
 30
0.0
 11
146.8302681619
 21
203.7986096405
 31
0.0
  0
LINE
  5
6C
330
37
100
AcDbEntity
  8
SLD-0
  6
Continuous
 62
   179
100
AcDbLine
 10
146.8302681619
 20
201.2986096405
 30
0.0
 11
144.3302681619
 21
201.2986096405
 31
0.0
  0
LINE
  5
6D
330
37
100
AcDbEntity
  8
SLD-0
  6
Continuous
 62
   179
100
AcDbLine
 10
146.8302681619
 20
201.2986096405
 30
0.0
 11
146.8302681619
 21
198.7986096405
 31
0.0
  0
LINE
  5
6E
330
37
100
AcDbEntity
  8
SLD-0
  6
Continuous
 62
   179
100
AcDbLine
 10
146.8302681619
 20
201.2986096405
 30
0.0
 11
149.3302681619
 21
201.2986096405
 31
0.0
  0
LINE
  5
6F
330
37
100
AcDbEntity
  8
SLD-0
  6
Continuous
 62
   179
100
AcDbLine
 10
146.8302681619
 20
203.7986096405
 30
0.0
 11
146.8302681619
 21
206.2986096405
 31
0.0
  0
LINE
  5
70
330
37
100
AcDbEntity
  8
SLD-0
  6
Continuous
 62
   179
100
AcDbLine
 10
149.3302681619
 20
201.2986096405
 30
0.0
 11
151.8302681619
 21
201.2986096405
 31
0.0
  0
LINE
  5
71
330
37
100
AcDbEntity
  8
SLD-0
  6
Continuous
 62
   179
100
AcDbLine
 10
154.3302681619
 20
198.2986096405
 30
0.0
 11
154.3302681619
 21
200.7986096405
 31
0.0
  0
LINE
  5
72
330
37
100
AcDbEntity
  8
SLD-0
  6
Continuous
 62
   179
100
AcDbLine
 10
154.3302681619
 20
198.2986096405
 30
0.0
 11
151.8302681619
 21
198.2986096405
 31
0.0
  0
LINE
  5
73
330
37
100
AcDbEntity
  8
SLD-0
  6
Continuous
 62
   179
100
AcDbLine
 10
154.3302681619
 20
198.2986096405
 30
0.0
 11
154.3302681619
 21
195.7986096405
 31
0.0
  0
LINE
  5
74
330
37
100
AcDbEntity
  8
SLD-0
  6
Continuous
 62
   179
100
AcDbLine
 10
154.3302681619
 20
198.2986096405
 30
0.0
 11
156.8302681619
 21
198.2986096405
 31
0.0
  0
LINE
  5
75
330
37
100
AcDbEntity
  8
SLD-0
  6
Continuous
 62
   179
100
AcDbLine
 10
154.3302681619
 20
200.7986096405
 30
0.0
 11
154.3302681619
 21
202.7986096405
 31
0.0
  0
LINE
  5
76
330
37
100
AcDbEntity
  8
SLD-0
  6
Continuous
 62
   179
100
AcDbLine
 10
154.3302681619
 20
195.7986096405
 30
0.0
 11
154.3302681619
 21
193.7986096405
 31
0.0
  0
LINE
  5
77
330
37
100
AcDbEntity
  8
SLD-0
  6
Continuous
 62
   179
100
AcDbLine
 10
156.8302681619
 20
198.2986096405
 30
0.0
 11
158.8302681619
 21
198.2986096405
 31
0.0
  0
LINE
  5
78
330
37
100
AcDbEntity
  8
SLD-0
  6
Continuous
 62
   179
100
AcDbLine
 10
154.3302681619
 20
184.2986096405
 30
0.0
 11
154.3302681619
 21
186.7986096405
 31
0.0
  0
LINE
  5
79
330
37
100
AcDbEntity
  8
SLD-0
  6
Continuous
 62
   179
100
AcDbLine
 10
154.3302681619
 20
184.2986096405
 30
0.0
 11
151.8302681619
 21
184.2986096405
 31
0.0
  0
LINE
  5
7A
330
37
100
AcDbEntity
  8
SLD-0
  6
Continuous
 62
   179
100
AcDbLine
 10
154.3302681619
 20
184.2986096405
 30
0.0
 11
154.3302681619
 21
181.7986096405
 31
0.0
  0
LINE
  5
7B
330
37
100
AcDbEntity
  8
SLD-0
  6
Continuous
 62
   179
100
AcDbLine
 10
154.3302681619
 20
184.2986096405
 30
0.0
 11
156.8302681619
 21
184.2986096405
 31
0.0
  0
LINE
  5
7C
330
37
100
AcDbEntity
  8
SLD-0
  6
Continuous
 62
   179
100
AcDbLine
 10
154.3302681619
 20
186.7986096405
 30
0.0
 11
154.3302681619
 21
188.7986096405
 31
0.0
  0
LINE
  5
7D
330
37
100
AcDbEntity
  8
SLD-0
  6
Continuous
 62
   179
100
AcDbLine
 10
154.3302681619
 20
181.7986096405
 30
0.0
 11
154.3302681619
 21
179.7986096405
 31
0.0
  0
LINE
  5
7E
330
37
100
AcDbEntity
  8
SLD-0
  6
Continuous
 62
   179
100
AcDbLine
 10
156.8302681619
 20
184.2986096405
 30
0.0
 11
158.8302681619
 21
184.2986096405
 31
0.0
  0
LINE
  5
7F
330
37
100
AcDbEntity
  8
SLD-0
  6
Continuous
 62
   179
100
AcDbLine
 10
111.3302681619
 20
184.2986096405
 30
0.0
 11
111.3302681619
 21
186.7986096405
 31
0.0
  0
LINE
  5
80
330
37
100
AcDbEntity
  8
SLD-0
  6
Continuous
 62
   179
100
AcDbLine
 10
111.3302681619
 20
184.2986096405
 30
0.0
 11
108.8302681619
 21
184.2986096405
 31
0.0
  0
LINE
  5
81
330
37
100
AcDbEntity
  8
SLD-0
  6
Continuous
 62
   179
100
AcDbLine
 10
111.3302681619
 20
184.2986096405
 30
0.0
 11
111.3302681619
 21
181.7986096405
 31
0.0
  0
LINE
  5
82
330
37
100
AcDbEntity
  8
SLD-0
  6
Continuous
 62
   179
100
AcDbLine
 10
111.3302681619
 20
184.2986096405
 30
0.0
 11
113.8302681619
 21
184.2986096405
 31
0.0
  0
LINE
  5
83
330
37
100
AcDbEntity
  8
SLD-0
  6
Continuous
 62
   179
100
AcDbLine
 10
111.3302681619
 20
186.7986096405
 30
0.0
 11
111.3302681619
 21
188.7986096405
 31
0.0
  0
LINE
  5
84
330
37
100
AcDbEntity
  8
SLD-0
  6
Continuous
 62
   179
100
AcDbLine
 10
108.8302681619
 20
184.2986096405
 30
0.0
 11
106.8302681619
 21
184.2986096405
 31
0.0
  0
LINE
  5
85
330
37
100
AcDbEntity
  8
SLD-0
  6
Continuous
 62
   179
100
AcDbLine
 10
111.3302681619
 20
181.7986096405
 30
0.0
 11
111.3302681619
 21
179.7986096405
 31
0.0
  0
LINE
  5
86
330
37
100
AcDbEntity
  8
SLD-0
  6
Continuous
 62
   179
100
AcDbLine
 10
111.3302681619
 20
198.2986096405
 30
0.0
 11
111.3302681619
 21
200.7986096405
 31
0.0
  0
LINE
  5
87
330
37
100
AcDbEntity
  8
SLD-0
  6
Continuous
 62
   179
100
AcDbLine
 10
111.3302681619
 20
198.2986096405
 30
0.0
 11
108.8302681619
 21
198.2986096405
 31
0.0
  0
LINE
  5
88
330
37
100
AcDbEntity
  8
SLD-0
  6
Continuous
 62
   179
100
AcDbLine
 10
111.3302681619
 20
198.2986096405
 30
0.0
 11
111.3302681619
 21
195.7986096405
 31
0.0
  0
LINE
  5
89
330
37
100
AcDbEntity
  8
SLD-0
  6
Continuous
 62
   179
100
AcDbLine
 10
111.3302681619
 20
198.2986096405
 30
0.0
 11
113.8302681619
 21
198.2986096405
 31
0.0
  0
LINE
  5
8A
330
37
100
AcDbEntity
  8
SLD-0
  6
Continuous
 62
   179
100
AcDbLine
 10
111.3302681619
 20
200.7986096405
 30
0.0
 11
111.3302681619
 21
202.7986096405
 31
0.0
  0
LINE
  5
8B
330
37
100
AcDbEntity
  8
SLD-0
  6
Continuous
 62
   179
100
AcDbLine
 10
108.8302681619
 20
198.2986096405
 30
0.0
 11
106.8302681619
 21
198.2986096405
 31
0.0
  0
LINE
  5
8C
330
37
100
AcDbEntity
  8
SLD-0
  6
Continuous
 62
   179
100
AcDbLine
 10
111.3302681619
 20
195.7986096405
 30
0.0
 11
111.3302681619
 21
193.7986096405
 31
0.0
  0
LINE
  5
8D
330
37
100
AcDbEntity
  8
SLD-0
  6
CENTERX2
 62
   179
100
AcDbLine
 10
73.8302681619
 20
201.2986096405
 30
0.0
 11
92.3302681619
 21
201.2986096405
 31
0.0
  0
LINE
  5
8E
330
37
100
AcDbEntity
  8
SLD-0
  6
CENTERX2
 62
   179
100
AcDbLine
 10
73.8302681619
 20
181.2986096405
 30
0.0
 11
92.3302681619
 21
181.2986096405
 31
0.0
  0
LINE
  5
8F
330
37
100
AcDbEntity
  8
SLD-0
  6
CENTERX2
 62
   179
100
AcDbLine
 10
131.8302681619
 20
191.2986096405
 30
0.0
 11
141.8302681619
 21
191.2986096405
 31
0.0
  0
ENDBLK
  5
39
330
37
100
AcDbEntity
  8
0
100
AcDbBlockEnd
  0
BLOCK
  5
D0
330
C6
100
AcDbEntity
  8
0
100
AcDbBlockBegin
  2
*D3
 70
     1
 71
     0
 10
0.0
 20
0.0
 30
0.0
  3
*D3
  1

  0
LINE
  5
D7
330
C6
100
AcDbEntity
  8
SLD-0
 62
     7
100
AcDbLine
 10
59.3302681619
 20
177.2986096405
 30
0.0
 11
59.3302681619
 21
144.2397758691
 31
0.0
  0
LINE
  5
D8
330
C6
100
AcDbEntity
  8
SLD-0
 62
     7
100
AcDbLine
 10
159.3302681619
 20
177.2986096405
 30
0.0
 11
159.3302681619
 21
144.2397758691
 31
0.0
  0
LINE
  5
D9
330
C6
100
AcDbEntity
  8
SLD-0
 62
     7
100
AcDbLine
 10
59.3302681619
 20
145.2397758691
 30
0.0
 11
159.3302681619
 21
145.2397758691
 31
0.0
  0
LINE
  5
DA
330
C6
100
AcDbEntity
  8
SLD-0
 62
     7
100
AcDbLine
 10
62.3302681619
 20
144.4359288691
 30
0.0
 11
59.3302681619
 21
145.2397758691
 31
0.0
  0
LINE
  5
DB
330
C6
100
AcDbEntity
  8
SLD-0
 62
     7
100
AcDbLine
 10
59.3302681619
 20
145.2397758691
 30
0.0
 11
62.3302681619
 21
146.0436228691
 31
0.0
  0
LINE
  5
DC
330
C6
100
AcDbEntity
  8
SLD-0
 62
     7
100
AcDbLine
 10
59.3302681619
 20
145.2397758691
 30
0.0
 11
62.3302681619
 21
145.2397758691
 31
0.0
  0
LINE
  5
DD
330
C6
100
AcDbEntity
  8
SLD-0
 62
     7
100
AcDbLine
 10
156.3302681619
 20
146.0436228691
 30
0.0
 11
159.3302681619
 21
145.2397758691
 31
0.0
  0
LINE
  5
DE
330
C6
100
AcDbEntity
  8
SLD-0
 62
     7
100
AcDbLine
 10
159.3302681619
 20
145.2397758691
 30
0.0
 11
156.3302681619
 21
144.4359288691
 31
0.0
  0
LINE
  5
DF
330
C6
100
AcDbEntity
  8
SLD-0
 62
     7
100
AcDbLine
 10
159.3302681619
 20
145.2397758691
 30
0.0
 11
156.3302681619
 21
145.2397758691
 31
0.0
  0
MTEXT
  5
E0
330
C6
100
AcDbEntity
  8
SLD-0
 62
     7
100
AcDbMText
 10
106.275727134
 20
149.766469565
 30
0.1
 40
3.5
 41
0.0
 71
     1
 72
     1
  1
100
  7
SLDTEXTSTYLE0
 73
     1
 44
1.0
  0
ENDBLK
  5
D1
330
C6
100
AcDbEntity
  8
0
100
AcDbBlockEnd
  0
BLOCK
  5
D5
330
D4
100
AcDbEntity
  8
0
100
AcDbBlockBegin
  2
_None
 70
     0
 71
     0
 10
0.0
 20
0.0
 30
0.0
  3
_None
  1

  0
ENDBLK
  5
D6
330
D4
100
AcDbEntity
  8
0
100
AcDbBlockEnd
  0
BLOCK
  5
ED
330
E2
100
AcDbEntity
  8
0
100
AcDbBlockBegin
  2
*D5
 70
     1
 71
     0
 10
0.0
 20
0.0
 30
0.0
  3
*D5
  1

  0
LINE
  5
EF
330
E2
100
AcDbEntity
  8
SLD-0
 62
     7
100
AcDbLine
 10
63.3302681619
 20
209.2986096405
 30
0.0
 11
31.6580190949
 21
209.2986096405
 31
0.0
  0
LINE
  5
F0
330
E2
100
AcDbEntity
  8
SLD-0
 62
     7
100
AcDbLine
 10
63.3302681619
 20
173.2986096405
 30
0.0
 11
31.6580190949
 21
173.2986096405
 31
0.0
  0
LINE
  5
F1
330
E2
100
AcDbEntity
  8
SLD-0
 62
     7
100
AcDbLine
 10
32.6580190949
 20
209.2986096405
 30
0.0
 11
32.6580190949
 21
173.2986096405
 31
0.0
  0
LINE
  5
F2
330
E2
100
AcDbEntity
  8
SLD-0
 62
     7
100
AcDbLine
 10
31.8541720949
 20
206.2986096405
 30
0.0
 11
32.6580190949
 21
209.2986096405
 31
0.0
  0
LINE
  5
F3
330
E2
100
AcDbEntity
  8
SLD-0
 62
     7
100
AcDbLine
 10
32.6580190949
 20
209.2986096405
 30
0.0
 11
33.4618660949
 21
206.2986096405
 31
0.0
  0
LINE
  5
F4
330
E2
100
AcDbEntity
  8
SLD-0
 62
     7
100
AcDbLine
 10
32.6580190949
 20
209.2986096405
 30
0.0
 11
32.6580190949
 21
206.2986096405
 31
0.0
  0
LINE
  5
F5
330
E2
100
AcDbEntity
  8
SLD-0
 62
     7
100
AcDbLine
 10
33.4618660949
 20
176.2986096405
 30
0.0
 11
32.6580190949
 21
173.2986096405
 31
0.0
  0
LINE
  5
F6
330
E2
100
AcDbEntity
  8
SLD-0
 62
     7
100
AcDbLine
 10
32.6580190949
 20
173.2986096405
 30
0.0
 11
31.8541720949
 21
176.2986096405
 31
0.0
  0
LINE
  5
F7
330
E2
100
AcDbEntity
  8
SLD-0
 62
     7
100
AcDbLine
 10
32.6580190949
 20
173.2986096405
 30
0.0
 11
32.6580190949
 21
176.2986096405
 31
0.0
  0
MTEXT
  5
F8
330
E2
100
AcDbEntity
  8
SLD-0
 62
     7
100
AcDbMText
 10
28.131325399
 20
189.2627285504
 30
0.1
 40
3.5
 41
0.0
 71
     1
 72
     1
  1
36
  7
SLDTEXTSTYLE0
 11
6.123031769111886E-17
 21
1.0
 31
0.0
 73
     1
 44
1.0
  0
ENDBLK
  5
EE
330
E2
100
AcDbEntity
  8
0
100
AcDbBlockEnd
  0
BLOCK
  5
105
330
FA
100
AcDbEntity
  8
0
100
AcDbBlockBegin
  2
*D6
 70
     1
 71
     0
 10
0.0
 20
0.0
 30
0.0
  3
*D6
  1

  0
LINE
  5
107
330
FA
100
AcDbEntity
  8
SLD-0
 62
     7
100
AcDbLine
 10
62.0802681619
 20
201.2986096405
 30
0.0
 11
40.4968091732
 21
201.2986096405
 31
0.0
  0
LINE
  5
108
330
FA
100
AcDbEntity
  8
SLD-0
 62
     7
100
AcDbLine
 10
62.0802681619
 20
181.2986096405
 30
0.0
 11
40.4968091732
 21
181.2986096405
 31
0.0
  0
LINE
  5
109
330
FA
100
AcDbEntity
  8
SLD-0
 62
     7
100
AcDbLine
 10
41.4968091732
 20
201.2986096405
 30
0.0
 11
41.4968091732
 21
181.2986096405
 31
0.0
  0
LINE
  5
10A
330
FA
100
AcDbEntity
  8
SLD-0
 62
     7
100
AcDbLine
 10
40.6929621732
 20
198.2986096405
 30
0.0
 11
41.4968091732
 21
201.2986096405
 31
0.0
  0
LINE
  5
10B
330
FA
100
AcDbEntity
  8
SLD-0
 62
     7
100
AcDbLine
 10
41.4968091732
 20
201.2986096405
 30
0.0
 11
42.3006561732
 21
198.2986096405
 31
0.0
  0
LINE
  5
10C
330
FA
100
AcDbEntity
  8
SLD-0
 62
     7
100
AcDbLine
 10
41.4968091732
 20
201.2986096405
 30
0.0
 11
41.4968091732
 21
198.2986096405
 31
0.0
  0
LINE
  5
10D
330
FA
100
AcDbEntity
  8
SLD-0
 62
     7
100
AcDbLine
 10
42.3006561732
 20
184.2986096405
 30
0.0
 11
41.4968091732
 21
181.2986096405
 31
0.0
  0
LINE
  5
10E
330
FA
100
AcDbEntity
  8
SLD-0
 62
     7
100
AcDbLine
 10
41.4968091732
 20
181.2986096405
 30
0.0
 11
40.6929621732
 21
184.2986096405
 31
0.0
  0
LINE
  5
10F
330
FA
100
AcDbEntity
  8
SLD-0
 62
     7
100
AcDbLine
 10
41.4968091732
 20
181.2986096405
 30
0.0
 11
41.4968091732
 21
184.2986096405
 31
0.0
  0
MTEXT
  5
110
330
FA
100
AcDbEntity
  8
SLD-0
 62
     7
100
AcDbMText
 10
36.9701154772
 20
189.2627285504
 30
0.1
 40
3.5
 41
0.0
 71
     1
 72
     1
  1
20
  7
SLDTEXTSTYLE0
 11
6.123031769111886E-17
 21
1.0
 31
0.0
 73
     1
 44
1.0
  0
ENDBLK
  5
106
330
FA
100
AcDbEntity
  8
0
100
AcDbBlockEnd
  0
BLOCK
  5
11C
330
112
100
AcDbEntity
  8
0
100
AcDbBlockBegin
  2
*D7
 70
     1
 71
     0
 10
0.0
 20
0.0
 30
0.0
  3
*D7
  1

  0
LINE
  5
11F
330
112
100
AcDbEntity
  8
SLD-0
 62
     7
100
AcDbLine
 10
68.8302681619
 20
208.0486096405
 30
0.0
 11
68.8302681619
 21
221.7954482184
 31
0.0
  0
LINE
  5
120
330
112
100
AcDbEntity
  8
SLD-0
 62
     7
100
AcDbLine
 10
59.3302681619
 20
205.2986096405
 30
0.0
 11
59.3302681619
 21
221.7954482184
 31
0.0
  0
LINE
  5
121
330
112
100
AcDbEntity
  8
SLD-0
 62
     7
100
AcDbLine
 10
68.8302681619
 20
220.7954482184
 30
0.0
 11
73.8302681619
 21
220.7954482184
 31
0.0
  0
LINE
  5
122
330
112
100
AcDbEntity
  8
SLD-0
 62
     7
100
AcDbLine
 10
68.8302681619
 20
220.7954482184
 30
0.0
 11
59.3302681619
 21
220.7954482184
 31
0.0
  0
LINE
  5
123
330
112
100
AcDbEntity
  8
SLD-0
 62
     7
100
AcDbLine
 10
59.3302681619
 20
220.7954482184
 30
0.0
 11
54.3302681619
 21
220.7954482184
 31
0.0
  0
LINE
  5
124
330
112
100
AcDbEntity
  8
SLD-0
 62
     7
100
AcDbLine
 10
71.8302681619
 20
219.9916012184
 30
0.0
 11
68.8302681619
 21
220.7954482184
 31
0.0
  0
LINE
  5
125
330
112
100
AcDbEntity
  8
SLD-0
 62
     7
100
AcDbLine
 10
68.8302681619
 20
220.7954482184
 30
0.0
 11
71.8302681619
 21
221.5992952184
 31
0.0
  0
LINE
  5
126
330
112
100
AcDbEntity
  8
SLD-0
 62
     7
100
AcDbLine
 10
68.8302681619
 20
220.7954482184
 30
0.0
 11
71.8302681619
 21
220.7954482184
 31
0.0
  0
LINE
  5
127
330
112
100
AcDbEntity
  8
SLD-0
 62
     7
100
AcDbLine
 10
56.3302681619
 20
221.5992952184
 30
0.0
 11
59.3302681619
 21
220.7954482184
 31
0.0
  0
LINE
  5
128
330
112
100
AcDbEntity
  8
SLD-0
 62
     7
100
AcDbLine
 10
59.3302681619
 20
220.7954482184
 30
0.0
 11
56.3302681619
 21
219.9916012184
 31
0.0
  0
LINE
  5
129
330
112
100
AcDbEntity
  8
SLD-0
 62
     7
100
AcDbLine
 10
59.3302681619
 20
220.7954482184
 30
0.0
 11
56.3302681619
 21
220.7954482184
 31
0.0
  0
MTEXT
  5
12A
330
112
100
AcDbEntity
  8
SLD-0
 62
     7
100
AcDbMText
 10
61.025727134
 20
225.3221419144
 30
0.1
 40
3.5
 41
0.0
 71
     1
 72
     1
  1
9.5
  7
SLDTEXTSTYLE0
 73
     1
 44
1.0
  0
ENDBLK
  5
11D
330
112
100
AcDbEntity
  8
0
100
AcDbBlockEnd
  0
BLOCK
  5
136
330
12C
100
AcDbEntity
  8
0
100
AcDbBlockBegin
  2
*D8
 70
     1
 71
     0
 10
0.0
 20
0.0
 30
0.0
  3
*D8
  1

  0
LINE
  5
138
330
12C
100
AcDbEntity
  8
SLD-0
 62
     7
100
AcDbLine
 10
68.8302681619
 20
208.0486096405
 30
0.0
 11
68.8302681619
 21
221.7954482184
 31
0.0
  0
LINE
  5
139
330
12C
100
AcDbEntity
  8
SLD-0
 62
     7
100
AcDbLine
 10
97.3302681619
 20
208.0486096405
 30
0.0
 11
97.3302681619
 21
221.7954482184
 31
0.0
  0
LINE
  5
13A
330
12C
100
AcDbEntity
  8
SLD-0
 62
     7
100
AcDbLine
 10
68.8302681619
 20
220.7954482184
 30
0.0
 11
97.3302681619
 21
220.7954482184
 31
0.0
  0
LINE
  5
13B
330
12C
100
AcDbEntity
  8
SLD-0
 62
     7
100
AcDbLine
 10
71.8302681619
 20
219.9916012184
 30
0.0
 11
68.8302681619
 21
220.7954482184
 31
0.0
  0
LINE
  5
13C
330
12C
100
AcDbEntity
  8
SLD-0
 62
     7
100
AcDbLine
 10
68.8302681619
 20
220.7954482184
 30
0.0
 11
71.8302681619
 21
221.5992952184
 31
0.0
  0
LINE
  5
13D
330
12C
100
AcDbEntity
  8
SLD-0
 62
     7
100
AcDbLine
 10
68.8302681619
 20
220.7954482184
 30
0.0
 11
71.8302681619
 21
220.7954482184
 31
0.0
  0
LINE
  5
13E
330
12C
100
AcDbEntity
  8
SLD-0
 62
     7
100
AcDbLine
 10
94.3302681619
 20
221.5992952184
 30
0.0
 11
97.3302681619
 21
220.7954482184
 31
0.0
  0
LINE
  5
13F
330
12C
100
AcDbEntity
  8
SLD-0
 62
     7
100
AcDbLine
 10
97.3302681619
 20
220.7954482184
 30
0.0
 11
94.3302681619
 21
219.9916012184
 31
0.0
  0
LINE
  5
140
330
12C
100
AcDbEntity
  8
SLD-0
 62
     7
100
AcDbLine
 10
97.3302681619
 20
220.7954482184
 30
0.0
 11
94.3302681619
 21
220.7954482184
 31
0.0
  0
MTEXT
  5
141
330
12C
100
AcDbEntity
  8
SLD-0
 62
     7
100
AcDbMText
 10
79.0070671963
 20
225.3221419144
 30
0.1
 40
3.5
 41
0.0
 71
     1
 72
     1
  1
28.5
  7
SLDTEXTSTYLE0
 73
     1
 44
1.0
  0
ENDBLK
  5
137
330
12C
100
AcDbEntity
  8
0
100
AcDbBlockEnd
  0
BLOCK
  5
14F
330
143
100
AcDbEntity
  8
0
100
AcDbBlockBegin
  2
*D9
 70
     1
 71
     0
 10
0.0
 20
0.0
 30
0.0
  3
*D9
  1

  0
LINE
  5
151
330
143
100
AcDbEntity
  8
SLD-0
 62
     7
100
AcDbLine
 10
67.8302681619
 20
198.0486096405
 30
0.0
 11
44.5633128406
 21
198.0486096405
 31
0.0
  0
LINE
  5
152
330
143
100
AcDbEntity
  8
SLD-0
 62
     7
100
AcDbLine
 10
67.8302681619
 20
204.5486096405
 30
0.0
 11
44.5633128406
 21
204.5486096405
 31
0.0
  0
LINE
  5
153
330
143
100
AcDbEntity
  8
SLD-0
 62
     7
100
AcDbLine
 10
45.5633128406
 20
198.0486096405
 30
0.0
 11
45.5633128406
 21
193.0486096405
 31
0.0
  0
LINE
  5
154
330
143
100
AcDbEntity
  8
SLD-0
 62
     7
100
AcDbLine
 10
45.5633128406
 20
198.0486096405
 30
0.0
 11
45.5633128406
 21
204.5486096405
 31
0.0
  0
LINE
  5
155
330
143
100
AcDbEntity
  8
SLD-0
 62
     7
100
AcDbLine
 10
45.5633128406
 20
204.5486096405
 30
0.0
 11
45.5633128406
 21
218.0190952161
 31
0.0
  0
LINE
  5
156
330
143
100
AcDbEntity
  8
SLD-0
 62
     7
100
AcDbLine
 10
44.7594658406
 20
195.0486096405
 30
0.0
 11
45.5633128406
 21
198.0486096405
 31
0.0
  0
LINE
  5
157
330
143
100
AcDbEntity
  8
SLD-0
 62
     7
100
AcDbLine
 10
45.5633128406
 20
198.0486096405
 30
0.0
 11
46.3671598406
 21
195.0486096405
 31
0.0
  0
LINE
  5
158
330
143
100
AcDbEntity
  8
SLD-0
 62
     7
100
AcDbLine
 10
45.5633128406
 20
198.0486096405
 30
0.0
 11
45.5633128406
 21
195.0486096405
 31
0.0
  0
LINE
  5
159
330
143
100
AcDbEntity
  8
SLD-0
 62
     7
100
AcDbLine
 10
46.3671598406
 20
207.5486096405
 30
0.0
 11
45.5633128406
 21
204.5486096405
 31
0.0
  0
LINE
  5
15A
330
143
100
AcDbEntity
  8
SLD-0
 62
     7
100
AcDbLine
 10
45.5633128406
 20
204.5486096405
 30
0.0
 11
44.7594658406
 21
207.5486096405
 31
0.0
  0
LINE
  5
15B
330
143
100
AcDbEntity
  8
SLD-0
 62
     7
100
AcDbLine
 10
45.5633128406
 20
204.5486096405
 30
0.0
 11
45.5633128406
 21
207.5486096405
 31
0.0
  0
MTEXT
  5
15C
330
143
100
AcDbEntity
  8
SLD-0
 62
     7
100
AcDbMText
 10
41.0366191447
 20
210.3225131603
 30
0.1
 40
3.5
 41
0.0
 71
     1
 72
     1
  1
6.5
  7
SLDTEXTSTYLE0
 11
6.123031769111886E-17
 21
1.0
 31
0.0
 73
     1
 44
1.0
  0
ENDBLK
  5
150
330
143
100
AcDbEntity
  8
0
100
AcDbBlockEnd
  0
BLOCK
  5
169
330
15E
100
AcDbEntity
  8
0
100
AcDbBlockBegin
  2
*D10
 70
     1
 71
     0
 10
0.0
 20
0.0
 30
0.0
  3
*D10
  1

  0
LINE
  5
16B
330
15E
100
AcDbEntity
  8
SLD-0
 62
     7
100
AcDbLine
 10
159.8302681619
 20
184.2986096405
 30
0.0
 11
172.7226096918
 21
184.2986096405
 31
0.0
  0
LINE
  5
16C
330
15E
100
AcDbEntity
  8
SLD-0
 62
     7
100
AcDbLine
 10
159.8302681619
 20
198.2986096405
 30
0.0
 11
172.7226096918
 21
198.2986096405
 31
0.0
  0
LINE
  5
16D
330
15E
100
AcDbEntity
  8
SLD-0
 62
     7
100
AcDbLine
 10
171.7226096918
 20
184.2986096405
 30
0.0
 11
171.7226096918
 21
198.2986096405
 31
0.0
  0
LINE
  5
16E
330
15E
100
AcDbEntity
  8
SLD-0
 62
     7
100
AcDbLine
 10
172.5264566918
 20
187.2986096405
 30
0.0
 11
171.7226096918
 21
184.2986096405
 31
0.0
  0
LINE
  5
16F
330
15E
100
AcDbEntity
  8
SLD-0
 62
     7
100
AcDbLine
 10
171.7226096918
 20
184.2986096405
 30
0.0
 11
170.9187626918
 21
187.2986096405
 31
0.0
  0
LINE
  5
170
330
15E
100
AcDbEntity
  8
SLD-0
 62
     7
100
AcDbLine
 10
171.7226096918
 20
184.2986096405
 30
0.0
 11
171.7226096918
 21
187.2986096405
 31
0.0
  0
LINE
  5
171
330
15E
100
AcDbEntity
  8
SLD-0
 62
     7
100
AcDbLine
 10
170.9187626918
 20
195.2986096405
 30
0.0
 11
171.7226096918
 21
198.2986096405
 31
0.0
  0
LINE
  5
172
330
15E
100
AcDbEntity
  8
SLD-0
 62
     7
100
AcDbLine
 10
171.7226096918
 20
198.2986096405
 30
0.0
 11
172.5264566918
 21
195.2986096405
 31
0.0
  0
LINE
  5
173
330
15E
100
AcDbEntity
  8
SLD-0
 62
     7
100
AcDbLine
 10
171.7226096918
 20
198.2986096405
 30
0.0
 11
171.7226096918
 21
195.2986096405
 31
0.0
  0
MTEXT
  5
174
330
15E
100
AcDbEntity
  8
SLD-0
 62
     7
100
AcDbMText
 10
167.1959159959
 20
189.2627285504
 30
0.1
 40
3.5
 41
0.0
 71
     1
 72
     1
  1
14
  7
SLDTEXTSTYLE0
 11
6.123031769111886E-17
 21
1.0
 31
0.0
 73
     1
 44
1.0
  0
ENDBLK
  5
16A
330
15E
100
AcDbEntity
  8
0
100
AcDbBlockEnd
  0
BLOCK
  5
180
330
176
100
AcDbEntity
  8
0
100
AcDbBlockBegin
  2
*D11
 70
     1
 71
     0
 10
0.0
 20
0.0
 30
0.0
  3
*D11
  1

  0
LINE
  5
182
330
176
100
AcDbEntity
  8
SLD-0
 62
     7
100
AcDbLine
 10
111.3302681619
 20
178.7986096405
 30
0.0
 11
111.3302681619
 21
153.9023804396
 31
0.0
  0
LINE
  5
183
330
176
100
AcDbEntity
  8
SLD-0
 62
     7
100
AcDbLine
 10
59.3302681619
 20
177.2986096405
 30
0.0
 11
59.3302681619
 21
153.9023804396
 31
0.0
  0
LINE
  5
184
330
176
100
AcDbEntity
  8
SLD-0
 62
     7
100
AcDbLine
 10
111.3302681619
 20
154.9023804396
 30
0.0
 11
59.3302681619
 21
154.9023804396
 31
0.0
  0
LINE
  5
185
330
176
100
AcDbEntity
  8
SLD-0
 62
     7
100
AcDbLine
 10
108.3302681619
 20
155.7062274396
 30
0.0
 11
111.3302681619
 21
154.9023804396
 31
0.0
  0
LINE
  5
186
330
176
100
AcDbEntity
  8
SLD-0
 62
     7
100
AcDbLine
 10
111.3302681619
 20
154.9023804396
 30
0.0
 11
108.3302681619
 21
154.0985334396
 31
0.0
  0
LINE
  5
187
330
176
100
AcDbEntity
  8
SLD-0
 62
     7
100
AcDbLine
 10
111.3302681619
 20
154.9023804396
 30
0.0
 11
108.3302681619
 21
154.9023804396
 31
0.0
  0
LINE
  5
188
330
176
100
AcDbEntity
  8
SLD-0
 62
     7
100
AcDbLine
 10
62.3302681619
 20
154.0985334396
 30
0.0
 11
59.3302681619
 21
154.9023804396
 31
0.0
  0
LINE
  5
189
330
176
100
AcDbEntity
  8
SLD-0
 62
     7
100
AcDbLine
 10
59.3302681619
 20
154.9023804396
 30
0.0
 11
62.3302681619
 21
155.7062274396
 31
0.0
  0
LINE
  5
18A
330
176
100
AcDbEntity
  8
SLD-0
 62
     7
100
AcDbLine
 10
59.3302681619
 20
154.9023804396
 30
0.0
 11
62.3302681619
 21
154.9023804396
 31
0.0
  0
MTEXT
  5
18B
330
176
100
AcDbEntity
  8
SLD-0
 62
     7
100
AcDbMText
 10
83.2943870717
 20
159.4290741355
 30
0.1
 40
3.5
 41
0.0
 71
     1
 72
     1
  1
52
  7
SLDTEXTSTYLE0
 73
     1
 44
1.0
  0
ENDBLK
  5
181
330
176
100
AcDbEntity
  8
0
100
AcDbBlockEnd
  0
BLOCK
  5
197
330
18D
100
AcDbEntity
  8
0
100
AcDbBlockBegin
  2
*D12
 70
     1
 71
     0
 10
0.0
 20
0.0
 30
0.0
  3
*D12
  1

  0
LINE
  5
199
330
18D
100
AcDbEntity
  8
SLD-0
 62
     7
100
AcDbLine
 10
154.3302681619
 20
178.7986096405
 30
0.0
 11
154.3302681619
 21
153.9023804396
 31
0.0
  0
LINE
  5
19A
330
18D
100
AcDbEntity
  8
SLD-0
 62
     7
100
AcDbLine
 10
111.3302681619
 20
178.7986096405
 30
0.0
 11
111.3302681619
 21
153.9023804396
 31
0.0
  0
LINE
  5
19B
330
18D
100
AcDbEntity
  8
SLD-0
 62
     7
100
AcDbLine
 10
154.3302681619
 20
154.9023804396
 30
0.0
 11
111.3302681619
 21
154.9023804396
 31
0.0
  0
LINE
  5
19C
330
18D
100
AcDbEntity
  8
SLD-0
 62
     7
100
AcDbLine
 10
151.3302681619
 20
155.7062274396
 30
0.0
 11
154.3302681619
 21
154.9023804396
 31
0.0
  0
LINE
  5
19D
330
18D
100
AcDbEntity
  8
SLD-0
 62
     7
100
AcDbLine
 10
154.3302681619
 20
154.9023804396
 30
0.0
 11
151.3302681619
 21
154.0985334396
 31
0.0
  0
LINE
  5
19E
330
18D
100
AcDbEntity
  8
SLD-0
 62
     7
100
AcDbLine
 10
154.3302681619
 20
154.9023804396
 30
0.0
 11
151.3302681619
 21
154.9023804396
 31
0.0
  0
LINE
  5
19F
330
18D
100
AcDbEntity
  8
SLD-0
 62
     7
100
AcDbLine
 10
114.3302681619
 20
154.0985334396
 30
0.0
 11
111.3302681619
 21
154.9023804396
 31
0.0
  0
LINE
  5
1A0
330
18D
100
AcDbEntity
  8
SLD-0
 62
     7
100
AcDbLine
 10
111.3302681619
 20
154.9023804396
 30
0.0
 11
114.3302681619
 21
155.7062274396
 31
0.0
  0
LINE
  5
1A1
330
18D
100
AcDbEntity
  8
SLD-0
 62
     7
100
AcDbLine
 10
111.3302681619
 20
154.9023804396
 30
0.0
 11
114.3302681619
 21
154.9023804396
 31
0.0
  0
MTEXT
  5
1A2
330
18D
100
AcDbEntity
  8
SLD-0
 62
     7
100
AcDbMText
 10
130.7943870717
 20
159.4290741355
 30
0.1
 40
3.5
 41
0.0
 71
     1
 72
     1
  1
43
  7
SLDTEXTSTYLE0
 73
     1
 44
1.0
  0
ENDBLK
  5
198
330
18D
100
AcDbEntity
  8
0
100
AcDbBlockEnd
  0
BLOCK
  5
1AE
330
1A4
100
AcDbEntity
  8
0
100
AcDbBlockBegin
  2
*D13
 70
     1
 71
     0
 10
0.0
 20
0.0
 30
0.0
  3
*D13
  1

  0
LINE
  5
1B0
330
1A4
100
AcDbEntity
  8
SLD-0
 62
     7
100
AcDbLine
 10
126.8302681619
 20
185.2986096405
 30
0.0
 11
126.8302681619
 21
229.3822902458
 31
0.0
  0
LINE
  5
1B1
330
1A4
100
AcDbEntity
  8
SLD-0
 62
     7
100
AcDbLine
 10
146.8302681619
 20
185.2986096405
 30
0.0
 11
146.8302681619
 21
229.3822902458
 31
0.0
  0
LINE
  5
1B2
330
1A4
100
AcDbEntity
  8
SLD-0
 62
     7
100
AcDbLine
 10
126.8302681619
 20
228.3822902458
 30
0.0
 11
146.8302681619
 21
228.3822902458
 31
0.0
  0
LINE
  5
1B3
330
1A4
100
AcDbEntity
  8
SLD-0
 62
     7
100
AcDbLine
 10
129.8302681619
 20
227.5784432458
 30
0.0
 11
126.8302681619
 21
228.3822902458
 31
0.0
  0
LINE
  5
1B4
330
1A4
100
AcDbEntity
  8
SLD-0
 62
     7
100
AcDbLine
 10
126.8302681619
 20
228.3822902458
 30
0.0
 11
129.8302681619
 21
229.1861372458
 31
0.0
  0
LINE
  5
1B5
330
1A4
100
AcDbEntity
  8
SLD-0
 62
     7
100
AcDbLine
 10
126.8302681619
 20
228.3822902458
 30
0.0
 11
129.8302681619
 21
228.3822902458
 31
0.0
  0
LINE
  5
1B6
330
1A4
100
AcDbEntity
  8
SLD-0
 62
     7
100
AcDbLine
 10
143.8302681619
 20
229.1861372458
 30
0.0
 11
146.8302681619
 21
228.3822902458
 31
0.0
  0
LINE
  5
1B7
330
1A4
100
AcDbEntity
  8
SLD-0
 62
     7
100
AcDbLine
 10
146.8302681619
 20
228.3822902458
 30
0.0
 11
143.8302681619
 21
227.5784432458
 31
0.0
  0
LINE
  5
1B8
330
1A4
100
AcDbEntity
  8
SLD-0
 62
     7
100
AcDbLine
 10
146.8302681619
 20
228.3822902458
 30
0.0
 11
143.8302681619
 21
228.3822902458
 31
0.0
  0
MTEXT
  5
1B9
330
1A4
100
AcDbEntity
  8
SLD-0
 62
     7
100
AcDbMText
 10
134.7943870717
 20
232.9089839417
 30
0.1
 40
3.5
 41
0.0
 71
     1
 72
     1
  1
20
  7
SLDTEXTSTYLE0
 73
     1
 44
1.0
  0
ENDBLK
  5
1AF
330
1A4
100
AcDbEntity
  8
0
100
AcDbBlockEnd
  0
BLOCK
  5
1C5
330
1BB
100
AcDbEntity
  8
0
100
AcDbBlockBegin
  2
*D14
 70
     1
 71
     0
 10
0.0
 20
0.0
 30
0.0
  3
*D14
  1

  0
LINE
  5
1C7
330
1BB
100
AcDbEntity
  8
SLD-0
 62
     7
100
AcDbLine
 10
59.3302681619
 20
205.2986096405
 30
0.0
 11
59.3302681619
 21
229.3822902458
 31
0.0
  0
LINE
  5
1C8
330
1BB
100
AcDbEntity
  8
SLD-0
 62
     7
100
AcDbLine
 10
126.8302681619
 20
197.2986096405
 30
0.0
 11
126.8302681619
 21
229.3822902458
 31
0.0
  0
LINE
  5
1C9
330
1BB
100
AcDbEntity
  8
SLD-0
 62
     7
100
AcDbLine
 10
59.3302681619
 20
228.3822902458
 30
0.0
 11
126.8302681619
 21
228.3822902458
 31
0.0
  0
LINE
  5
1CA
330
1BB
100
AcDbEntity
  8
SLD-0
 62
     7
100
AcDbLine
 10
62.3302681619
 20
227.5784432458
 30
0.0
 11
59.3302681619
 21
228.3822902458
 31
0.0
  0
LINE
  5
1CB
330
1BB
100
AcDbEntity
  8
SLD-0
 62
     7
100
AcDbLine
 10
59.3302681619
 20
228.3822902458
 30
0.0
 11
62.3302681619
 21
229.1861372458
 31
0.0
  0
LINE
  5
1CC
330
1BB
100
AcDbEntity
  8
SLD-0
 62
     7
100
AcDbLine
 10
59.3302681619
 20
228.3822902458
 30
0.0
 11
62.3302681619
 21
228.3822902458
 31
0.0
  0
LINE
  5
1CD
330
1BB
100
AcDbEntity
  8
SLD-0
 62
     7
100
AcDbLine
 10
123.8302681619
 20
229.1861372458
 30
0.0
 11
126.8302681619
 21
228.3822902458
 31
0.0
  0
LINE
  5
1CE
330
1BB
100
AcDbEntity
  8
SLD-0
 62
     7
100
AcDbLine
 10
126.8302681619
 20
228.3822902458
 30
0.0
 11
123.8302681619
 21
227.5784432458
 31
0.0
  0
LINE
  5
1CF
330
1BB
100
AcDbEntity
  8
SLD-0
 62
     7
100
AcDbLine
 10
126.8302681619
 20
228.3822902458
 30
0.0
 11
123.8302681619
 21
228.3822902458
 31
0.0
  0
MTEXT
  5
1D0
330
1BB
100
AcDbEntity
  8
SLD-0
 62
     7
100
AcDbMText
 10
89.0070671963
 20
232.9089839417
 30
0.1
 40
3.5
 41
0.0
 71
     1
 72
     1
  1
67.5
  7
SLDTEXTSTYLE0
 73
     1
 44
1.0
  0
ENDBLK
  5
1C6
330
1BB
100
AcDbEntity
  8
0
100
AcDbBlockEnd
  0
BLOCK
  5
1DD
330
1D2
100
AcDbEntity
  8
0
100
AcDbBlockBegin
  2
*D15
 70
     1
 71
     0
 10
0.0
 20
0.0
 30
0.0
  3
*D15
  1

  0
LINE
  5
1DF
330
1D2
100
AcDbEntity
  8
SLD-0
 62
     7
100
AcDbLine
 10
155.3302681619
 20
173.2986096405
 30
0.0
 11
172.7226096918
 21
173.2986096405
 31
0.0
  0
LINE
  5
1E0
330
1D2
100
AcDbEntity
  8
SLD-0
 62
     7
100
AcDbLine
 10
159.8302681619
 20
184.2986096405
 30
0.0
 11
172.7226096918
 21
184.2986096405
 31
0.0
  0
LINE
  5
1E1
330
1D2
100
AcDbEntity
  8
SLD-0
 62
     7
100
AcDbLine
 10
171.7226096918
 20
173.2986096405
 30
0.0
 11
171.7226096918
 21
168.2986096405
 31
0.0
  0
LINE
  5
1E2
330
1D2
100
AcDbEntity
  8
SLD-0
 62
     7
100
AcDbLine
 10
171.7226096918
 20
173.2986096405
 30
0.0
 11
171.7226096918
 21
184.2986096405
 31
0.0
  0
LINE
  5
1E3
330
1D2
100
AcDbEntity
  8
SLD-0
 62
     7
100
AcDbLine
 10
171.7226096918
 20
184.2986096405
 30
0.0
 11
171.7226096918
 21
189.2986096405
 31
0.0
  0
LINE
  5
1E4
330
1D2
100
AcDbEntity
  8
SLD-0
 62
     7
100
AcDbLine
 10
170.9187626918
 20
170.2986096405
 30
0.0
 11
171.7226096918
 21
173.2986096405
 31
0.0
  0
LINE
  5
1E5
330
1D2
100
AcDbEntity
  8
SLD-0
 62
     7
100
AcDbLine
 10
171.7226096918
 20
173.2986096405
 30
0.0
 11
172.5264566918
 21
170.2986096405
 31
0.0
  0
LINE
  5
1E6
330
1D2
100
AcDbEntity
  8
SLD-0
 62
     7
100
AcDbLine
 10
171.7226096918
 20
173.2986096405
 30
0.0
 11
171.7226096918
 21
170.2986096405
 31
0.0
  0
LINE
  5
1E7
330
1D2
100
AcDbEntity
  8
SLD-0
 62
     7
100
AcDbLine
 10
172.5264566918
 20
187.2986096405
 30
0.0
 11
171.7226096918
 21
184.2986096405
 31
0.0
  0
LINE
  5
1E8
330
1D2
100
AcDbEntity
  8
SLD-0
 62
     7
100
AcDbLine
 10
171.7226096918
 20
184.2986096405
 30
0.0
 11
170.9187626918
 21
187.2986096405
 31
0.0
  0
LINE
  5
1E9
330
1D2
100
AcDbEntity
  8
SLD-0
 62
     7
100
AcDbLine
 10
171.7226096918
 20
184.2986096405
 30
0.0
 11
171.7226096918
 21
187.2986096405
 31
0.0
  0
MTEXT
  5
1EA
330
1D2
100
AcDbEntity
  8
SLD-0
 62
     7
100
AcDbMText
 10
167.1959159959
 20
176.7627285504
 30
0.1
 40
3.5
 41
0.0
 71
     1
 72
     1
  1
11
  7
SLDTEXTSTYLE0
 11
6.123031769111886E-17
 21
1.0
 31
0.0
 73
     1
 44
1.0
  0
ENDBLK
  5
1DE
330
1D2
100
AcDbEntity
  8
0
100
AcDbBlockEnd
  0
BLOCK
  5
1F7
330
1EC
100
AcDbEntity
  8
0
100
AcDbBlockBegin
  2
*D16
 70
     1
 71
     0
 10
0.0
 20
0.0
 30
0.0
  3
*D16
  1

  0
LINE
  5
1F9
330
1EC
100
AcDbEntity
  8
SLD-0
 62
     7
100
AcDbLine
 10
63.3302681619
 20
173.2986096405
 30
0.0
 11
40.4968091732
 21
173.2986096405
 31
0.0
  0
LINE
  5
1FA
330
1EC
100
AcDbEntity
  8
SLD-0
 62
     7
100
AcDbLine
 10
73.5802681619
 20
181.2986096405
 30
0.0
 11
40.4968091732
 21
181.2986096405
 31
0.0
  0
LINE
  5
1FB
330
1EC
100
AcDbEntity
  8
SLD-0
 62
     7
100
AcDbLine
 10
41.4968091732
 20
173.2986096405
 30
0.0
 11
41.4968091732
 21
168.2986096405
 31
0.0
  0
LINE
  5
1FC
330
1EC
100
AcDbEntity
  8
SLD-0
 62
     7
100
AcDbLine
 10
41.4968091732
 20
173.2986096405
 30
0.0
 11
41.4968091732
 21
181.2986096405
 31
0.0
  0
LINE
  5
1FD
330
1EC
100
AcDbEntity
  8
SLD-0
 62
     7
100
AcDbLine
 10
41.4968091732
 20
181.2986096405
 30
0.0
 11
41.4968091732
 21
186.2986096405
 31
0.0
  0
LINE
  5
1FE
330
1EC
100
AcDbEntity
  8
SLD-0
 62
     7
100
AcDbLine
 10
40.6929621732
 20
170.2986096405
 30
0.0
 11
41.4968091732
 21
173.2986096405
 31
0.0
  0
LINE
  5
1FF
330
1EC
100
AcDbEntity
  8
SLD-0
 62
     7
100
AcDbLine
 10
41.4968091732
 20
173.2986096405
 30
0.0
 11
42.3006561732
 21
170.2986096405
 31
0.0
  0
LINE
  5
200
330
1EC
100
AcDbEntity
  8
SLD-0
 62
     7
100
AcDbLine
 10
41.4968091732
 20
173.2986096405
 30
0.0
 11
41.4968091732
 21
170.2986096405
 31
0.0
  0
LINE
  5
201
330
1EC
100
AcDbEntity
  8
SLD-0
 62
     7
100
AcDbLine
 10
42.3006561732
 20
184.2986096405
 30
0.0
 11
41.4968091732
 21
181.2986096405
 31
0.0
  0
LINE
  5
202
330
1EC
100
AcDbEntity
  8
SLD-0
 62
     7
100
AcDbLine
 10
41.4968091732
 20
181.2986096405
 30
0.0
 11
40.6929621732
 21
184.2986096405
 31
0.0
  0
LINE
  5
203
330
1EC
100
AcDbEntity
  8
SLD-0
 62
     7
100
AcDbLine
 10
41.4968091732
 20
181.2986096405
 30
0.0
 11
41.4968091732
 21
184.2986096405
 31
0.0
  0
MTEXT
  5
204
330
1EC
100
AcDbEntity
  8
SLD-0
 62
     7
100
AcDbMText
 10
36.9701154772
 20
176.2813884881
 30
0.1
 40
3.5
 41
0.0
 71
     1
 72
     1
  1
8
  7
SLDTEXTSTYLE0
 11
6.123031769111886E-17
 21
1.0
 31
0.0
 73
     1
 44
1.0
  0
ENDBLK
  5
1F8
330
1EC
100
AcDbEntity
  8
0
100
AcDbBlockEnd
  0
BLOCK
  5
211
330
206
100
AcDbEntity
  8
0
100
AcDbBlockBegin
  2
*D17
 70
     1
 71
     0
 10
0.0
 20
0.0
 30
0.0
  3
*D17
  1

  0
LINE
  5
213
330
206
100
AcDbEntity
  8
SLD-0
 62
     7
100
AcDbLine
 10
140.8302681619
 20
191.2986096405
 30
0.0
 11
119.5062690236
 21
191.2986096405
 31
0.0
  0
LINE
  5
214
330
206
100
AcDbEntity
  8
SLD-0
 62
     7
100
AcDbLine
 10
120.5062690236
 20
173.2986096405
 30
0.0
 11
120.5062690236
 21
191.2986096405
 31
0.0
  0
LINE
  5
215
330
206
100
AcDbEntity
  8
SLD-0
 62
     7
100
AcDbLine
 10
121.3101160236
 20
176.2986096405
 30
0.0
 11
120.5062690236
 21
173.2986096405
 31
0.0
  0
LINE
  5
216
330
206
100
AcDbEntity
  8
SLD-0
 62
     7
100
AcDbLine
 10
120.5062690236
 20
173.2986096405
 30
0.0
 11
119.7024220236
 21
176.2986096405
 31
0.0
  0
LINE
  5
217
330
206
100
AcDbEntity
  8
SLD-0
 62
     7
100
AcDbLine
 10
120.5062690236
 20
173.2986096405
 30
0.0
 11
120.5062690236
 21
176.2986096405
 31
0.0
  0
LINE
  5
218
330
206
100
AcDbEntity
  8
SLD-0
 62
     7
100
AcDbLine
 10
119.7024220236
 20
188.2986096405
 30
0.0
 11
120.5062690236
 21
191.2986096405
 31
0.0
  0
LINE
  5
219
330
206
100
AcDbEntity
  8
SLD-0
 62
     7
100
AcDbLine
 10
120.5062690236
 20
191.2986096405
 30
0.0
 11
121.3101160236
 21
188.2986096405
 31
0.0
  0
LINE
  5
21A
330
206
100
AcDbEntity
  8
SLD-0
 62
     7
100
AcDbLine
 10
120.5062690236
 20
191.2986096405
 30
0.0
 11
120.5062690236
 21
188.2986096405
 31
0.0
  0
MTEXT
  5
21B
330
206
100
AcDbEntity
  8
SLD-0
 62
     7
100
AcDbMText
 10
115.9795753276
 20
180.2627285504
 30
0.1
 40
3.5
 41
0.0
 71
     1
 72
     1
  1
18
  7
SLDTEXTSTYLE0
 11
6.123031769111886E-17
 21
1.0
 31
0.0
 73
     1
 44
1.0
  0
ENDBLK
  5
212
330
206
100
AcDbEntity
  8
0
100
AcDbBlockEnd
  0
BLOCK
  5
227
330
21D
100
AcDbEntity
  8
0
100
AcDbBlockBegin
  2
*D18
 70
     1
 71
     0
 10
0.0
 20
0.0
 30
0.0
  3
*D18
  1

  0
LINE
  5
229
330
21D
100
AcDbEntity
  8
SLD-0
 62
     7
100
AcDbLine
 10
136.8302681619
 20
175.2986096405
 30
0.0
 11
136.8302681619
 21
160.7543754114
 31
0.0
  0
LINE
  5
22A
330
21D
100
AcDbEntity
  8
SLD-0
 62
     7
100
AcDbLine
 10
146.8302681619
 20
175.2986096405
 30
0.0
 11
146.8302681619
 21
160.7543754114
 31
0.0
  0
LINE
  5
22B
330
21D
100
AcDbEntity
  8
SLD-0
 62
     7
100
AcDbLine
 10
136.8302681619
 20
161.7543754114
 30
0.0
 11
131.8302681619
 21
161.7543754114
 31
0.0
  0
LINE
  5
22C
330
21D
100
AcDbEntity
  8
SLD-0
 62
     7
100
AcDbLine
 10
136.8302681619
 20
161.7543754114
 30
0.0
 11
146.8302681619
 21
161.7543754114
 31
0.0
  0
LINE
  5
22D
330
21D
100
AcDbEntity
  8
SLD-0
 62
     7
100
AcDbLine
 10
146.8302681619
 20
161.7543754114
 30
0.0
 11
151.8302681619
 21
161.7543754114
 31
0.0
  0
LINE
  5
22E
330
21D
100
AcDbEntity
  8
SLD-0
 62
     7
100
AcDbLine
 10
133.8302681619
 20
162.5582224114
 30
0.0
 11
136.8302681619
 21
161.7543754114
 31
0.0
  0
LINE
  5
22F
330
21D
100
AcDbEntity
  8
SLD-0
 62
     7
100
AcDbLine
 10
136.8302681619
 20
161.7543754114
 30
0.0
 11
133.8302681619
 21
160.9505284114
 31
0.0
  0
LINE
  5
230
330
21D
100
AcDbEntity
  8
SLD-0
 62
     7
100
AcDbLine
 10
136.8302681619
 20
161.7543754114
 30
0.0
 11
133.8302681619
 21
161.7543754114
 31
0.0
  0
LINE
  5
231
330
21D
100
AcDbEntity
  8
SLD-0
 62
     7
100
AcDbLine
 10
149.8302681619
 20
160.9505284114
 30
0.0
 11
146.8302681619
 21
161.7543754114
 31
0.0
  0
LINE
  5
232
330
21D
100
AcDbEntity
  8
SLD-0
 62
     7
100
AcDbLine
 10
146.8302681619
 20
161.7543754114
 30
0.0
 11
149.8302681619
 21
162.5582224114
 31
0.0
  0
LINE
  5
233
330
21D
100
AcDbEntity
  8
SLD-0
 62
     7
100
AcDbLine
 10
146.8302681619
 20
161.7543754114
 30
0.0
 11
149.8302681619
 21
161.7543754114
 31
0.0
  0
MTEXT
  5
234
330
21D
100
AcDbEntity
  8
SLD-0
 62
     7
100
AcDbMText
 10
139.7943870717
 20
166.2810691073
 30
0.1
 40
3.5
 41
0.0
 71
     1
 72
     1
  1
10
  7
SLDTEXTSTYLE0
 73
     1
 44
1.0
  0
ENDBLK
  5
228
330
21D
100
AcDbEntity
  8
0
100
AcDbBlockEnd
  0
BLOCK
  5
240
330
236
100
AcDbEntity
  8
0
100
AcDbBlockBegin
  2
*D19
 70
     1
 71
     0
 10
0.0
 20
0.0
 30
0.0
  3
*D19
  1

  0
LINE
  5
242
330
236
100
AcDbEntity
  8
SLD-0
 62
     7
100
AcDbLine
 10
59.3302681619
 20
177.2986096405
 30
0.0
 11
59.3302681619
 21
160.7543754114
 31
0.0
  0
LINE
  5
243
330
236
100
AcDbEntity
  8
SLD-0
 62
     7
100
AcDbLine
 10
136.8302681619
 20
175.2986096405
 30
0.0
 11
136.8302681619
 21
160.7543754114
 31
0.0
  0
LINE
  5
244
330
236
100
AcDbEntity
  8
SLD-0
 62
     7
100
AcDbLine
 10
59.3302681619
 20
161.7543754114
 30
0.0
 11
136.8302681619
 21
161.7543754114
 31
0.0
  0
LINE
  5
245
330
236
100
AcDbEntity
  8
SLD-0
 62
     7
100
AcDbLine
 10
62.3302681619
 20
160.9505284114
 30
0.0
 11
59.3302681619
 21
161.7543754114
 31
0.0
  0
LINE
  5
246
330
236
100
AcDbEntity
  8
SLD-0
 62
     7
100
AcDbLine
 10
59.3302681619
 20
161.7543754114
 30
0.0
 11
62.3302681619
 21
162.5582224114
 31
0.0
  0
LINE
  5
247
330
236
100
AcDbEntity
  8
SLD-0
 62
     7
100
AcDbLine
 10
59.3302681619
 20
161.7543754114
 30
0.0
 11
62.3302681619
 21
161.7543754114
 31
0.0
  0
LINE
  5
248
330
236
100
AcDbEntity
  8
SLD-0
 62
     7
100
AcDbLine
 10
133.8302681619
 20
162.5582224114
 30
0.0
 11
136.8302681619
 21
161.7543754114
 31
0.0
  0
LINE
  5
249
330
236
100
AcDbEntity
  8
SLD-0
 62
     7
100
AcDbLine
 10
136.8302681619
 20
161.7543754114
 30
0.0
 11
133.8302681619
 21
160.9505284114
 31
0.0
  0
LINE
  5
24A
330
236
100
AcDbEntity
  8
SLD-0
 62
     7
100
AcDbLine
 10
136.8302681619
 20
161.7543754114
 30
0.0
 11
133.8302681619
 21
161.7543754114
 31
0.0
  0
MTEXT
  5
24B
330
236
100
AcDbEntity
  8
SLD-0
 62
     7
100
AcDbMText
 10
94.0070671963
 20
166.2810691073
 30
0.1
 40
3.5
 41
0.0
 71
     1
 72
     1
  1
77.5
  7
SLDTEXTSTYLE0
 73
     1
 44
1.0
  0
ENDBLK
  5
241
330
236
100
AcDbEntity
  8
0
100
AcDbBlockEnd
  0
BLOCK
  5
258
330
24D
100
AcDbEntity
  8
0
100
AcDbBlockBegin
  2
*D20
 70
     1
 71
     0
 10
0.0
 20
0.0
 30
0.0
  3
*D20
  1

  0
LINE
  5
25A
330
24D
100
AcDbEntity
  8
SLD-0
 62
     7
100
AcDbLine
 10
155.3302681619
 20
173.2986096405
 30
0.0
 11
180.6416515805
 21
173.2986096405
 31
0.0
  0
LINE
  5
25B
330
24D
100
AcDbEntity
  8
SLD-0
 62
     7
100
AcDbLine
 10
152.8302681619
 20
181.2986096405
 30
0.0
 11
180.6416515805
 21
181.2986096405
 31
0.0
  0
LINE
  5
25C
330
24D
100
AcDbEntity
  8
SLD-0
 62
     7
100
AcDbLine
 10
179.6416515805
 20
173.2986096405
 30
0.0
 11
179.6416515805
 21
168.2986096405
 31
0.0
  0
LINE
  5
25D
330
24D
100
AcDbEntity
  8
SLD-0
 62
     7
100
AcDbLine
 10
179.6416515805
 20
173.2986096405
 30
0.0
 11
179.6416515805
 21
181.2986096405
 31
0.0
  0
LINE
  5
25E
330
24D
100
AcDbEntity
  8
SLD-0
 62
     7
100
AcDbLine
 10
179.6416515805
 20
181.2986096405
 30
0.0
 11
179.6416515805
 21
186.2986096405
 31
0.0
  0
LINE
  5
25F
330
24D
100
AcDbEntity
  8
SLD-0
 62
     7
100
AcDbLine
 10
178.8378045805
 20
170.2986096405
 30
0.0
 11
179.6416515805
 21
173.2986096405
 31
0.0
  0
LINE
  5
260
330
24D
100
AcDbEntity
  8
SLD-0
 62
     7
100
AcDbLine
 10
179.6416515805
 20
173.2986096405
 30
0.0
 11
180.4454985805
 21
170.2986096405
 31
0.0
  0
LINE
  5
261
330
24D
100
AcDbEntity
  8
SLD-0
 62
     7
100
AcDbLine
 10
179.6416515805
 20
173.2986096405
 30
0.0
 11
179.6416515805
 21
170.2986096405
 31
0.0
  0
LINE
  5
262
330
24D
100
AcDbEntity
  8
SLD-0
 62
     7
100
AcDbLine
 10
180.4454985805
 20
184.2986096405
 30
0.0
 11
179.6416515805
 21
181.2986096405
 31
0.0
  0
LINE
  5
263
330
24D
100
AcDbEntity
  8
SLD-0
 62
     7
100
AcDbLine
 10
179.6416515805
 20
181.2986096405
 30
0.0
 11
178.8378045805
 21
184.2986096405
 31
0.0
  0
LINE
  5
264
330
24D
100
AcDbEntity
  8
SLD-0
 62
     7
100
AcDbLine
 10
179.6416515805
 20
181.2986096405
 30
0.0
 11
179.6416515805
 21
184.2986096405
 31
0.0
  0
MTEXT
  5
265
330
24D
100
AcDbEntity
  8
SLD-0
 62
     7
100
AcDbMText
 10
175.1149578845
 20
176.2813884881
 30
0.1
 40
3.5
 41
0.0
 71
     1
 72
     1
  1
8
  7
SLDTEXTSTYLE0
 11
6.123031769111886E-17
 21
1.0
 31
0.0
 73
     1
 44
1.0
  0
ENDBLK
  5
259
330
24D
100
AcDbEntity
  8
0
100
AcDbBlockEnd
  0
BLOCK
  5
272
330
267
100
AcDbEntity
  8
0
100
AcDbBlockBegin
  2
*D21
 70
     1
 71
     0
 10
0.0
 20
0.0
 30
0.0
  3
*D21
  1

  0
LINE
  5
274
330
267
100
AcDbEntity
  8
SLD-0
 62
     7
100
AcDbLine
 10
152.8302681619
 20
181.2986096405
 30
0.0
 11
180.6416515805
 21
181.2986096405
 31
0.0
  0
LINE
  5
275
330
267
100
AcDbEntity
  8
SLD-0
 62
     7
100
AcDbLine
 10
152.8302681619
 20
201.2986096405
 30
0.0
 11
180.6416515805
 21
201.2986096405
 31
0.0
  0
LINE
  5
276
330
267
100
AcDbEntity
  8
SLD-0
 62
     7
100
AcDbLine
 10
179.6416515805
 20
181.2986096405
 30
0.0
 11
179.6416515805
 21
201.2986096405
 31
0.0
  0
LINE
  5
277
330
267
100
AcDbEntity
  8
SLD-0
 62
     7
100
AcDbLine
 10
180.4454985805
 20
184.2986096405
 30
0.0
 11
179.6416515805
 21
181.2986096405
 31
0.0
  0
LINE
  5
278
330
267
100
AcDbEntity
  8
SLD-0
 62
     7
100
AcDbLine
 10
179.6416515805
 20
181.2986096405
 30
0.0
 11
178.8378045805
 21
184.2986096405
 31
0.0
  0
LINE
  5
279
330
267
100
AcDbEntity
  8
SLD-0
 62
     7
100
AcDbLine
 10
179.6416515805
 20
181.2986096405
 30
0.0
 11
179.6416515805
 21
184.2986096405
 31
0.0
  0
LINE
  5
27A
330
267
100
AcDbEntity
  8
SLD-0
 62
     7
100
AcDbLine
 10
178.8378045805
 20
198.2986096405
 30
0.0
 11
179.6416515805
 21
201.2986096405
 31
0.0
  0
LINE
  5
27B
330
267
100
AcDbEntity
  8
SLD-0
 62
     7
100
AcDbLine
 10
179.6416515805
 20
201.2986096405
 30
0.0
 11
180.4454985805
 21
198.2986096405
 31
0.0
  0
LINE
  5
27C
330
267
100
AcDbEntity
  8
SLD-0
 62
     7
100
AcDbLine
 10
179.6416515805
 20
201.2986096405
 30
0.0
 11
179.6416515805
 21
198.2986096405
 31
0.0
  0
MTEXT
  5
27D
330
267
100
AcDbEntity
  8
SLD-0
 62
     7
100
AcDbMText
 10
175.1149578845
 20
189.2627285504
 30
0.1
 40
3.5
 41
0.0
 71
     1
 72
     1
  1
20
  7
SLDTEXTSTYLE0
 11
6.123031769111886E-17
 21
1.0
 31
0.0
 73
     1
 44
1.0
  0
ENDBLK
  5
273
330
267
100
AcDbEntity
  8
0
100
AcDbBlockEnd
  0
BLOCK
  5
28A
330
27F
100
AcDbEntity
  8
0
100
AcDbBlockBegin
  2
*D22
 70
     1
 71
     0
 10
0.0
 20
0.0
 30
0.0
  3
*D22
  1

  0
LINE
  5
28D
330
27F
100
AcDbEntity
  8
SLD-0
 62
     7
100
AcDbLine
 10
160.3302681619
 20
110.046898613
 30
0.0
 11
174.6488637996
 21
110.046898613
 31
0.0
  0
LINE
  5
28E
330
27F
100
AcDbEntity
  8
SLD-0
 62
     7
100
AcDbLine
 10
160.3302681619
 20
115.046898613
 30
0.0
 11
174.6488637996
 21
115.046898613
 31
0.0
  0
LINE
  5
28F
330
27F
100
AcDbEntity
  8
SLD-0
 62
     7
100
AcDbLine
 10
173.6488637996
 20
110.046898613
 30
0.0
 11
173.6488637996
 21
105.046898613
 31
0.0
  0
LINE
  5
290
330
27F
100
AcDbEntity
  8
SLD-0
 62
     7
100
AcDbLine
 10
173.6488637996
 20
110.046898613
 30
0.0
 11
173.6488637996
 21
115.046898613
 31
0.0
  0
LINE
  5
291
330
27F
100
AcDbEntity
  8
SLD-0
 62
     7
100
AcDbLine
 10
173.6488637996
 20
115.046898613
 30
0.0
 11
173.6488637996
 21
120.046898613
 31
0.0
  0
LINE
  5
292
330
27F
100
AcDbEntity
  8
SLD-0
 62
     7
100
AcDbLine
 10
172.8450167996
 20
107.046898613
 30
0.0
 11
173.6488637996
 21
110.046898613
 31
0.0
  0
LINE
  5
293
330
27F
100
AcDbEntity
  8
SLD-0
 62
     7
100
AcDbLine
 10
173.6488637996
 20
110.046898613
 30
0.0
 11
174.4527107996
 21
107.046898613
 31
0.0
  0
LINE
  5
294
330
27F
100
AcDbEntity
  8
SLD-0
 62
     7
100
AcDbLine
 10
173.6488637996
 20
110.046898613
 30
0.0
 11
173.6488637996
 21
107.046898613
 31
0.0
  0
LINE
  5
295
330
27F
100
AcDbEntity
  8
SLD-0
 62
     7
100
AcDbLine
 10
174.4527107996
 20
118.046898613
 30
0.0
 11
173.6488637996
 21
115.046898613
 31
0.0
  0
LINE
  5
296
330
27F
100
AcDbEntity
  8
SLD-0
 62
     7
100
AcDbLine
 10
173.6488637996
 20
115.046898613
 30
0.0
 11
172.8450167996
 21
118.046898613
 31
0.0
  0
LINE
  5
297
330
27F
100
AcDbEntity
  8
SLD-0
 62
     7
100
AcDbLine
 10
173.6488637996
 20
115.046898613
 30
0.0
 11
173.6488637996
 21
118.046898613
 31
0.0
  0
MTEXT
  5
298
330
27F
100
AcDbEntity
  8
SLD-0
 62
     7
100
AcDbMText
 10
169.1221701037
 20
111.5296774605
 30
0.1
 40
3.5
 41
0.0
 71
     1
 72
     1
  1
5
  7
SLDTEXTSTYLE0
 11
6.123031769111886E-17
 21
1.0
 31
0.0
 73
     1
 44
1.0
  0
ENDBLK
  5
28B
330
27F
100
AcDbEntity
  8
0
100
AcDbBlockEnd
  0
ENDSEC
  0
SECTION
  2
ENTITIES
  0
LINE
  5
90
330
1F
100
AcDbEntity
  8
SLD-0
  6
Continuous
 62
   179
100
AcDbLine
 10
20.2604743903
 20
285.0
 30
0.0
 11
196.7604743903
 21
285.0
 31
0.0
  0
LINE
  5
91
330
1F
100
AcDbEntity
  8
SLD-0
  6
Continuous
 62
   179
100
AcDbLine
 10
20.2604743903
 20
285.0
 30
0.0
 11
20.2604743903
 21
10.0
 31
0.0
  0
LINE
  5
92
330
1F
100
AcDbEntity
  8
SLD-0
  6
Continuous
 62
   179
100
AcDbLine
 10
20.2604743903
 20
10.0
 30
0.0
 11
196.7604743903
 21
10.0
 31
0.0
  0
LINE
  5
93
330
1F
100
AcDbEntity
  8
SLD-0
  6
Continuous
 62
   179
100
AcDbLine
 10
196.7604743903
 20
285.0
 30
0.0
 11
196.7604743903
 21
10.0
 31
0.0
  0
LINE
  5
94
330
1F
100
AcDbEntity
  8
SLD-0
  6
Continuous
 62
   179
100
AcDbLine
 10
65.7604743903
 20
285.0
 30
0.0
 11
196.7604743903
 21
285.0
 31
0.0
  0
LINE
  5
95
330
1F
100
AcDbEntity
  8
SLD-0
  6
Continuous
 62
   179
100
AcDbLine
 10
196.7604743903
 20
285.0
 30
0.0
 11
196.7604743903
 21
264.25
 31
0.0
  0
LINE
  5
96
330
1F
100
AcDbEntity
  8
SLD-0
  6
Continuous
 62
   179
100
AcDbLine
 10
127.0104743903
 20
50.75
 30
0.0
 11
196.7604743903
 21
50.75
 31
0.0
  0
LINE
  5
97
330
1F
100
AcDbEntity
  8
SLD-0
  6
Continuous
 62
   179
100
AcDbLine
 10
127.0104743903
 20
50.75
 30
0.0
 11
127.0104743903
 21
22.75
 31
0.0
  0
LINE
  5
98
330
1F
100
AcDbEntity
  8
SLD-0
  6
Continuous
 62
   179
100
AcDbLine
 10
127.0104743903
 20
22.75
 30
0.0
 11
196.7604743903
 21
22.75
 31
0.0
  0
LINE
  5
99
330
1F
100
AcDbEntity
  8
SLD-0
  6
Continuous
 62
   179
100
AcDbLine
 10
127.0104743903
 20
36.75
 30
0.0
 11
196.7604743903
 21
36.75
 31
0.0
  0
LINE
  5
9A
330
1F
100
AcDbEntity
  8
SLD-0
  6
Continuous
 62
   179
100
AcDbLine
 10
68.8302681619
 20
198.0486096405
 30
0.0
 11
97.3302681619
 21
198.0486096405
 31
0.0
  0
LINE
  5
9B
330
1F
100
AcDbEntity
  8
SLD-0
  6
Continuous
 62
   179
100
AcDbLine
 10
97.3302681619
 20
204.5486096405
 30
0.0
 11
68.8302681619
 21
204.5486096405
 31
0.0
  0
LINE
  5
9C
330
1F
100
AcDbEntity
  8
SLD-0
  6
Continuous
 62
   179
100
AcDbLine
 10
68.8302681619
 20
178.0486096405
 30
0.0
 11
97.3302681619
 21
178.0486096405
 31
0.0
  0
LINE
  5
9D
330
1F
100
AcDbEntity
  8
SLD-0
  6
Continuous
 62
   179
100
AcDbLine
 10
97.3302681619
 20
184.5486096405
 30
0.0
 11
68.8302681619
 21
184.5486096405
 31
0.0
  0
LINE
  5
9E
330
1F
100
AcDbEntity
  8
SLD-0
  6
Continuous
 62
   179
100
AcDbLine
 10
126.8302681619
 20
188.7986096405
 30
0.0
 11
146.8302681619
 21
188.7986096405
 31
0.0
  0
LINE
  5
9F
330
1F
100
AcDbEntity
  8
SLD-0
  6
Continuous
 62
   179
100
AcDbLine
 10
146.8302681619
 20
193.7986096405
 30
0.0
 11
126.8302681619
 21
193.7986096405
 31
0.0
  0
LINE
  5
A0
330
1F
100
AcDbEntity
  8
SLD-0
  6
Continuous
 62
   179
100
AcDbLine
 10
136.8302681619
 20
198.7986096405
 30
0.0
 11
146.8302681619
 21
198.7986096405
 31
0.0
  0
LINE
  5
A1
330
1F
100
AcDbEntity
  8
SLD-0
  6
Continuous
 62
   179
100
AcDbLine
 10
146.8302681619
 20
203.7986096405
 30
0.0
 11
136.8302681619
 21
203.7986096405
 31
0.0
  0
LINE
  5
A2
330
1F
100
AcDbEntity
  8
SLD-0
  6
Continuous
 62
   179
100
AcDbLine
 10
136.8302681619
 20
178.7986096405
 30
0.0
 11
146.8302681619
 21
178.7986096405
 31
0.0
  0
LINE
  5
A3
330
1F
100
AcDbEntity
  8
SLD-0
  6
Continuous
 62
   179
100
AcDbLine
 10
146.8302681619
 20
183.7986096405
 30
0.0
 11
136.8302681619
 21
183.7986096405
 31
0.0
  0
LINE
  5
A4
330
1F
100
AcDbEntity
  8
SLD-0
  6
Continuous
 62
   179
100
AcDbLine
 10
59.3302681619
 20
204.2986096405
 30
0.0
 11
59.3302681619
 21
178.2986096405
 31
0.0
  0
LINE
  5
A5
330
1F
100
AcDbEntity
  8
SLD-0
  6
Continuous
 62
   179
100
AcDbLine
 10
64.3302681619
 20
209.2986096405
 30
0.0
 11
59.3302681619
 21
204.2986096405
 31
0.0
  0
LINE
  5
A6
330
1F
100
AcDbEntity
  8
SLD-0
  6
Continuous
 62
   179
100
AcDbLine
 10
154.3302681619
 20
209.2986096405
 30
0.0
 11
64.3302681619
 21
209.2986096405
 31
0.0
  0
LINE
  5
A7
330
1F
100
AcDbEntity
  8
SLD-0
  6
Continuous
 62
   179
100
AcDbLine
 10
159.3302681619
 20
204.2986096405
 30
0.0
 11
154.3302681619
 21
209.2986096405
 31
0.0
  0
LINE
  5
A8
330
1F
100
AcDbEntity
  8
SLD-0
  6
Continuous
 62
   179
100
AcDbLine
 10
159.3302681619
 20
178.2986096405
 30
0.0
 11
159.3302681619
 21
204.2986096405
 31
0.0
  0
LINE
  5
A9
330
1F
100
AcDbEntity
  8
SLD-0
  6
Continuous
 62
   179
100
AcDbLine
 10
154.3302681619
 20
173.2986096405
 30
0.0
 11
159.3302681619
 21
178.2986096405
 31
0.0
  0
LINE
  5
AA
330
1F
100
AcDbEntity
  8
SLD-0
  6
Continuous
 62
   179
100
AcDbLine
 10
64.3302681619
 20
173.2986096405
 30
0.0
 11
154.3302681619
 21
173.2986096405
 31
0.0
  0
LINE
  5
AB
330
1F
100
AcDbEntity
  8
SLD-0
  6
Continuous
 62
   179
100
AcDbLine
 10
59.3302681619
 20
178.2986096405
 30
0.0
 11
64.3302681619
 21
173.2986096405
 31
0.0
  0
LINE
  5
AC
330
1F
100
AcDbEntity
  8
SLD-0
  6
Continuous
 62
   179
100
AcDbLine
 10
59.3302681619
 20
115.046898613
 30
0.0
 11
59.3302681619
 21
110.046898613
 31
0.0
  0
LINE
  5
AD
330
1F
100
AcDbEntity
  8
SLD-0
  6
Continuous
 62
   179
100
AcDbLine
 10
59.3302681619
 20
115.046898613
 30
0.0
 11
64.3302681619
 21
115.046898613
 31
0.0
  0
LINE
  5
AE
330
1F
100
AcDbEntity
  8
SLD-0
  6
Continuous
 62
   179
100
AcDbLine
 10
64.3302681619
 20
115.046898613
 30
0.0
 11
64.3302681619
 21
110.046898613
 31
0.0
  0
LINE
  5
AF
330
1F
100
AcDbEntity
  8
SLD-0
  6
Continuous
 62
   179
100
AcDbLine
 10
59.3302681619
 20
110.046898613
 30
0.0
 11
64.3302681619
 21
110.046898613
 31
0.0
  0
LINE
  5
B0
330
1F
100
AcDbEntity
  8
SLD-0
  6
Continuous
 62
   179
100
AcDbLine
 10
64.3302681619
 20
115.046898613
 30
0.0
 11
154.3302681619
 21
115.046898613
 31
0.0
  0
LINE
  5
B1
330
1F
100
AcDbEntity
  8
SLD-0
  6
Continuous
 62
   179
100
AcDbLine
 10
154.3302681619
 20
115.046898613
 30
0.0
 11
154.3302681619
 21
110.046898613
 31
0.0
  0
LINE
  5
B2
330
1F
100
AcDbEntity
  8
SLD-0
  6
Continuous
 62
   179
100
AcDbLine
 10
64.3302681619
 20
110.046898613
 30
0.0
 11
154.3302681619
 21
110.046898613
 31
0.0
  0
LINE
  5
B3
330
1F
100
AcDbEntity
  8
SLD-0
  6
Continuous
 62
   179
100
AcDbLine
 10
154.3302681619
 20
115.046898613
 30
0.0
 11
159.3302681619
 21
115.046898613
 31
0.0
  0
LINE
  5
B4
330
1F
100
AcDbEntity
  8
SLD-0
  6
Continuous
 62
   179
100
AcDbLine
 10
159.3302681619
 20
115.046898613
 30
0.0
 11
159.3302681619
 21
110.046898613
 31
0.0
  0
LINE
  5
B5
330
1F
100
AcDbEntity
  8
SLD-0
  6
Continuous
 62
   179
100
AcDbLine
 10
154.3302681619
 20
110.046898613
 30
0.0
 11
159.3302681619
 21
110.046898613
 31
0.0
  0
ARC
  5
B6
330
1F
100
AcDbEntity
  8
SLD-0
  6
Continuous
 62
   179
100
AcDbCircle
 10
97.3302681619
 20
201.2986096405
 30
0.0
 40
3.250000000000028
100
AcDbArc
 50
270.0
 51
90.0
  0
ARC
  5
B7
330
1F
100
AcDbEntity
  8
SLD-0
  6
Continuous
 62
   179
100
AcDbCircle
 10
68.8302681619
 20
201.2986096405
 30
0.0
 40
3.250000000000028
100
AcDbArc
 50
90.0
 51
270.0
  0
ARC
  5
B8
330
1F
100
AcDbEntity
  8
SLD-0
  6
Continuous
 62
   179
100
AcDbCircle
 10
97.3302681619
 20
181.2986096405
 30
0.0
 40
3.25
100
AcDbArc
 50
270.0
 51
90.0
  0
ARC
  5
B9
330
1F
100
AcDbEntity
  8
SLD-0
  6
Continuous
 62
   179
100
AcDbCircle
 10
68.8302681619
 20
181.2986096405
 30
0.0
 40
3.25
100
AcDbArc
 50
90.0
 51
270.0
  0
ARC
  5
BA
330
1F
100
AcDbEntity
  8
SLD-0
  6
Continuous
 62
   179
100
AcDbCircle
 10
146.8302681619
 20
191.2986096405
 30
0.0
 40
2.5
100
AcDbArc
 50
270.0
 51
90.0
  0
ARC
  5
BB
330
1F
100
AcDbEntity
  8
SLD-0
  6
Continuous
 62
   179
100
AcDbCircle
 10
126.8302681619
 20
191.2986096405
 30
0.0
 40
2.5
100
AcDbArc
 50
90.0
 51
270.0
  0
ARC
  5
BC
330
1F
100
AcDbEntity
  8
SLD-0
  6
Continuous
 62
   179
100
AcDbCircle
 10
146.8302681619
 20
201.2986096405
 30
0.0
 40
2.500000000000028
100
AcDbArc
 50
270.0
 51
90.0
  0
ARC
  5
BD
330
1F
100
AcDbEntity
  8
SLD-0
  6
Continuous
 62
   179
100
AcDbCircle
 10
136.8302681619
 20
201.2986096405
 30
0.0
 40
2.500000000000028
100
AcDbArc
 50
90.0
 51
270.0
  0
ARC
  5
BE
330
1F
100
AcDbEntity
  8
SLD-0
  6
Continuous
 62
   179
100
AcDbCircle
 10
146.8302681619
 20
181.2986096405
 30
0.0
 40
2.5
100
AcDbArc
 50
270.0
 51
90.0
  0
ARC
  5
BF
330
1F
100
AcDbEntity
  8
SLD-0
  6
Continuous
 62
   179
100
AcDbCircle
 10
136.8302681619
 20
181.2986096405
 30
0.0
 40
2.5
100
AcDbArc
 50
90.0
 51
270.0
  0
CIRCLE
  5
C0
330
1F
100
AcDbEntity
  8
SLD-0
  6
Continuous
 62
   179
100
AcDbCircle
 10
111.3302681619
 20
184.2986096405
 30
0.0
 40
2.0
  0
CIRCLE
  5
C1
330
1F
100
AcDbEntity
  8
SLD-0
  6
Continuous
 62
   179
100
AcDbCircle
 10
154.3302681619
 20
184.2986096405
 30
0.0
 40
2.0
  0
CIRCLE
  5
C2
330
1F
100
AcDbEntity
  8
SLD-0
  6
Continuous
 62
   179
100
AcDbCircle
 10
154.3302681619
 20
198.2986096405
 30
0.0
 40
2.0
  0
CIRCLE
  5
C3
330
1F
100
AcDbEntity
  8
SLD-0
  6
Continuous
 62
   179
100
AcDbCircle
 10
111.3302681619
 20
198.2986096405
 30
0.0
 40
2.0
  0
DIMENSION
  5
C4
330
1F
100
AcDbEntity
  8
SLD-0
 62
     7
100
AcDbDimension
  2
*D3
 10
59.3302681619
 20
145.2397758691
 30
0.0
 11
109.3302681619
 21
145.2397758691
 31
0.0
 70
   160
 71
     1
 42
100.0
  3
SLDDIMSTYLE0
100
AcDbAlignedDimension
 13
159.3302681619
 23
178.2986096405
 33
0.0
 14
59.3302681619
 24
178.2986096405
 34
0.0
100
AcDbRotatedDimension
1001
ACAD
1000
DSTYLE
1002
{
1070
    77
1070
     3
1070
   143
1040
0.0393700787
1070
    41
1040
3.0
1070
    44
1040
1.0
1070
    42
1040
1.0
1070
   147
1040
1.524
1070
    73
1070
     0
1070
    74
1070
     0
1070
   140
1040
3.5
1070
   284
1070
    12
1070
    78
1070
    12
1002
}
  0
DIMENSION
  5
E1
330
1F
100
AcDbEntity
  8
SLD-0
 62
     7
100
AcDbDimension
  2
*D5
 10
32.6580190949
 20
209.2986096405
 30
0.0
 11
32.6580190949
 21
191.2986096405
 31
0.0
 70
   160
 71
     1
 42
36.0
  3
SLDDIMSTYLE0
100
AcDbAlignedDimension
 13
64.3302681619
 23
173.2986096405
 33
0.0
 14
64.3302681619
 24
209.2986096405
 34
0.0
 50
90.0
100
AcDbRotatedDimension
1001
ACAD
1000
DSTYLE
1002
{
1070
    77
1070
     3
1070
   143
1040
0.0393700787
1070
    41
1040
3.0
1070
    44
1040
1.0
1070
    42
1040
1.0
1070
   147
1040
1.524
1070
    73
1070
     0
1070
    74
1070
     0
1070
   140
1040
3.5
1070
   284
1070
    12
1070
    78
1070
    12
1002
}
  0
DIMENSION
  5
F9
330
1F
100
AcDbEntity
  8
SLD-0
 62
     7
100
AcDbDimension
  2
*D6
 10
41.4968091732
 20
201.2986096405
 30
0.0
 11
41.4968091732
 21
191.2986096405
 31
0.0
 70
   160
 71
     1
 42
20.0
  3
SLDDIMSTYLE0
100
AcDbAlignedDimension
 13
68.8302681619
 23
181.2986096405
 33
0.0
 14
68.8302681619
 24
201.2986096405
 34
0.0
 50
90.0
100
AcDbRotatedDimension
1001
ACAD
1000
DSTYLE
1002
{
1070
    77
1070
     3
1070
   143
1040
0.0393700787
1070
    41
1040
3.0
1070
    44
1040
1.0
1070
    42
1040
1.0
1070
   147
1040
1.524
1070
    73
1070
     0
1070
    74
1070
     0
1070
   140
1040
3.5
1070
   284
1070
    12
1070
    78
1070
    12
1002
}
  0
DIMENSION
  5
111
330
1F
100
AcDbEntity
  8
SLD-0
 62
     7
100
AcDbDimension
  2
*D7
 10
68.8302681619
 20
220.7954482184
 30
0.0
 11
64.0802681619
 21
220.7954482184
 31
0.0
 70
   160
 71
     1
 42
9.5
  3
SLDDIMSTYLE1
100
AcDbAlignedDimension
 13
59.3302681619
 23
204.2986096405
 33
0.0
 14
68.8302681619
 24
201.2986096405
 34
0.0
100
AcDbRotatedDimension
1001
ACAD
1000
DSTYLE
1002
{
1070
    77
1070
     3
1070
   143
1040
0.0393700787
1070
    41
1040
3.0
1070
    44
1040
1.0
1070
    42
1040
1.0
1070
   147
1040
1.524
1070
    73
1070
     0
1070
    74
1070
     0
1070
   140
1040
3.5
1070
   284
1070
    12
1070
    78
1070
    12
1002
}
  0
DIMENSION
  5
12B
330
1F
100
AcDbEntity
  8
SLD-0
 62
     7
100
AcDbDimension
  2
*D8
 10
68.8302681619
 20
220.7954482184
 30
0.0
 11
83.0802681619
 21
220.7954482184
 31
0.0
 70
   160
 71
     1
 42
28.5
  3
SLDDIMSTYLE1
100
AcDbAlignedDimension
 13
97.3302681619
 23
201.2986096405
 33
0.0
 14
68.8302681619
 24
201.2986096405
 34
0.0
100
AcDbRotatedDimension
1001
ACAD
1000
DSTYLE
1002
{
1070
    77
1070
     3
1070
   143
1040
0.0393700787
1070
    41
1040
3.0
1070
    44
1040
1.0
1070
    42
1040
1.0
1070
   147
1040
1.524
1070
    73
1070
     0
1070
    74
1070
     0
1070
   140
1040
3.5
1070
   284
1070
    12
1070
    78
1070
    12
1002
}
  0
DIMENSION
  5
142
330
1F
100
AcDbEntity
  8
SLD-0
 62
     7
100
AcDbDimension
  2
*D9
 10
45.5633128406
 20
198.0486096405
 30
0.0
 11
45.5633128406
 21
213.3770541882
 31
0.0
 70
   160
 71
     1
 42
6.5
  3
SLDDIMSTYLE1
100
AcDbAlignedDimension
 13
68.8302681619
 23
204.5486096405
 33
0.0
 14
68.8302681619
 24
198.0486096405
 34
0.0
 50
90.0
100
AcDbRotatedDimension
1001
ACAD
1000
DSTYLE
1002
{
1070
    77
1070
     3
1070
   143
1040
0.0393700787
1070
    41
1040
3.0
1070
    44
1040
1.0
1070
    42
1040
1.0
1070
   147
1040
1.524
1070
    73
1070
     0
1070
    74
1070
     0
1070
   140
1040
3.5
1070
   284
1070
    12
1070
    78
1070
    12
1002
}
  0
DIMENSION
  5
15D
330
1F
100
AcDbEntity
  8
SLD-0
 62
     7
100
AcDbDimension
  2
*D10
 10
171.7226096918
 20
184.2986096405
 30
0.0
 11
171.7226096918
 21
191.2986096405
 31
0.0
 70
   160
 71
     1
 42
14.0
  3
SLDDIMSTYLE0
100
AcDbAlignedDimension
 13
154.3302681619
 23
198.2986096405
 33
0.0
 14
154.3302681619
 24
184.2986096405
 34
0.0
 50
90.0
100
AcDbRotatedDimension
1001
ACAD
1000
DSTYLE
1002
{
1070
    77
1070
     3
1070
   143
1040
0.0393700787
1070
    41
1040
3.0
1070
    44
1040
1.0
1070
    42
1040
1.0
1070
   147
1040
1.524
1070
    73
1070
     0
1070
    74
1070
     0
1070
   140
1040
3.5
1070
   284
1070
    12
1070
    78
1070
    12
1002
}
  0
DIMENSION
  5
175
330
1F
100
AcDbEntity
  8
SLD-0
 62
     7
100
AcDbDimension
  2
*D11
 10
111.3302681619
 20
154.9023804396
 30
0.0
 11
85.3302681619
 21
154.9023804396
 31
0.0
 70
   160
 71
     1
 42
52.0
  3
SLDDIMSTYLE0
100
AcDbAlignedDimension
 13
59.3302681619
 23
178.2986096405
 33
0.0
 14
111.3302681619
 24
184.2986096405
 34
0.0
100
AcDbRotatedDimension
1001
ACAD
1000
DSTYLE
1002
{
1070
    77
1070
     3
1070
   143
1040
0.0393700787
1070
    41
1040
3.0
1070
    44
1040
1.0
1070
    42
1040
1.0
1070
   147
1040
1.524
1070
    73
1070
     0
1070
    74
1070
     0
1070
   140
1040
3.5
1070
   284
1070
    12
1070
    78
1070
    12
1002
}
  0
DIMENSION
  5
18C
330
1F
100
AcDbEntity
  8
SLD-0
 62
     7
100
AcDbDimension
  2
*D12
 10
154.3302681619
 20
154.9023804396
 30
0.0
 11
132.8302681619
 21
154.9023804396
 31
0.0
 70
   160
 71
     1
 42
43.0
  3
SLDDIMSTYLE0
100
AcDbAlignedDimension
 13
111.3302681619
 23
184.2986096405
 33
0.0
 14
154.3302681619
 24
184.2986096405
 34
0.0
100
AcDbRotatedDimension
1001
ACAD
1000
DSTYLE
1002
{
1070
    77
1070
     3
1070
   143
1040
0.0393700787
1070
    41
1040
3.0
1070
    44
1040
1.0
1070
    42
1040
1.0
1070
   147
1040
1.524
1070
    73
1070
     0
1070
    74
1070
     0
1070
   140
1040
3.5
1070
   284
1070
    12
1070
    78
1070
    12
1002
}
  0
DIMENSION
  5
1A3
330
1F
100
AcDbEntity
  8
SLD-0
 62
     7
100
AcDbDimension
  2
*D13
 10
126.8302681619
 20
228.3822902458
 30
0.0
 11
136.8302681619
 21
228.3822902458
 31
0.0
 70
   160
 71
     1
 42
20.0
  3
SLDDIMSTYLE0
100
AcDbAlignedDimension
 13
146.8302681619
 23
191.2986096405
 33
0.0
 14
126.8302681619
 24
191.2986096405
 34
0.0
100
AcDbRotatedDimension
1001
ACAD
1000
DSTYLE
1002
{
1070
    77
1070
     3
1070
   143
1040
0.0393700787
1070
    41
1040
3.0
1070
    44
1040
1.0
1070
    42
1040
1.0
1070
   147
1040
1.524
1070
    73
1070
     0
1070
    74
1070
     0
1070
   140
1040
3.5
1070
   284
1070
    12
1070
    78
1070
    12
1002
}
  0
DIMENSION
  5
1BA
330
1F
100
AcDbEntity
  8
SLD-0
 62
     7
100
AcDbDimension
  2
*D14
 10
59.3302681619
 20
228.3822902458
 30
0.0
 11
93.0802681619
 21
228.3822902458
 31
0.0
 70
   160
 71
     1
 42
67.5
  3
SLDDIMSTYLE1
100
AcDbAlignedDimension
 13
126.8302681619
 23
196.2986096405
 33
0.0
 14
59.3302681619
 24
204.2986096405
 34
0.0
100
AcDbRotatedDimension
1001
ACAD
1000
DSTYLE
1002
{
1070
    77
1070
     3
1070
   143
1040
0.0393700787
1070
    41
1040
3.0
1070
    44
1040
1.0
1070
    42
1040
1.0
1070
   147
1040
1.524
1070
    73
1070
     0
1070
    74
1070
     0
1070
   140
1040
3.5
1070
   284
1070
    12
1070
    78
1070
    12
1002
}
  0
DIMENSION
  5
1D1
330
1F
100
AcDbEntity
  8
SLD-0
 62
     7
100
AcDbDimension
  2
*D15
 10
171.7226096918
 20
173.2986096405
 30
0.0
 11
171.7226096918
 21
178.7986096405
 31
0.0
 70
   160
 71
     1
 42
11.0
  3
SLDDIMSTYLE0
100
AcDbAlignedDimension
 13
158.8302681619
 23
184.2986096405
 33
0.0
 14
154.3302681619
 24
173.2986096405
 34
0.0
 50
90.0
100
AcDbRotatedDimension
1001
ACAD
1000
DSTYLE
1002
{
1070
    77
1070
     3
1070
   143
1040
0.0393700787
1070
    41
1040
3.0
1070
    44
1040
1.0
1070
    42
1040
1.0
1070
   147
1040
1.524
1070
    73
1070
     0
1070
    74
1070
     0
1070
   140
1040
3.5
1070
   284
1070
    12
1070
    78
1070
    12
1002
}
  0
DIMENSION
  5
1EB
330
1F
100
AcDbEntity
  8
SLD-0
 62
     7
100
AcDbDimension
  2
*D16
 10
41.4968091732
 20
173.2986096405
 30
0.0
 11
41.4968091732
 21
177.2986096405
 31
0.0
 70
   160
 71
     1
 42
8.0
  3
SLDDIMSTYLE0
100
AcDbAlignedDimension
 13
74.5802681619
 23
181.2986096405
 33
0.0
 14
64.3302681619
 24
173.2986096405
 34
0.0
 50
90.0
100
AcDbRotatedDimension
1001
ACAD
1000
DSTYLE
1002
{
1070
    77
1070
     3
1070
   143
1040
0.0393700787
1070
    41
1040
3.0
1070
    44
1040
1.0
1070
    42
1040
1.0
1070
   147
1040
1.524
1070
    73
1070
     0
1070
    74
1070
     0
1070
   140
1040
3.5
1070
   284
1070
    12
1070
    78
1070
    12
1002
}
  0
DIMENSION
  5
205
330
1F
100
AcDbEntity
  8
SLD-0
 62
     7
100
AcDbDimension
  2
*D17
 10
120.5062690236
 20
173.2986096405
 30
0.0
 11
120.5062690236
 21
182.2986096405
 31
0.0
 70
   160
 71
     1
 42
18.0
  3
SLDDIMSTYLE0
100
AcDbAlignedDimension
 13
141.8302681619
 23
191.2986096405
 33
0.0
 14
154.3302681619
 24
173.2986096405
 34
0.0
 50
90.0
100
AcDbRotatedDimension
1001
ACAD
1000
DSTYLE
1002
{
1070
    77
1070
     3
1070
   143
1040
0.0393700787
1070
    41
1040
3.0
1070
    44
1040
1.0
1070
    42
1040
1.0
1070
   147
1040
1.524
1070
    73
1070
     0
1070
    74
1070
     0
1070
   140
1040
3.5
1070
   284
1070
    12
1070
    78
1070
    12
1002
}
  0
DIMENSION
  5
21C
330
1F
100
AcDbEntity
  8
SLD-0
 62
     7
100
AcDbDimension
  2
*D18
 10
136.8302681619
 20
161.7543754114
 30
0.0
 11
141.8302681619
 21
161.7543754114
 31
0.0
 70
   160
 71
     1
 42
10.0
  3
SLDDIMSTYLE0
100
AcDbAlignedDimension
 13
146.8302681619
 23
181.2986096405
 33
0.0
 14
136.8302681619
 24
181.2986096405
 34
0.0
100
AcDbRotatedDimension
1001
ACAD
1000
DSTYLE
1002
{
1070
    77
1070
     3
1070
   143
1040
0.0393700787
1070
    41
1040
3.0
1070
    44
1040
1.0
1070
    42
1040
1.0
1070
   147
1040
1.524
1070
    73
1070
     0
1070
    74
1070
     0
1070
   140
1040
3.5
1070
   284
1070
    12
1070
    78
1070
    12
1002
}
  0
DIMENSION
  5
235
330
1F
100
AcDbEntity
  8
SLD-0
 62
     7
100
AcDbDimension
  2
*D19
 10
59.3302681619
 20
161.7543754114
 30
0.0
 11
98.0802681619
 21
161.7543754114
 31
0.0
 70
   160
 71
     1
 42
77.5
  3
SLDDIMSTYLE1
100
AcDbAlignedDimension
 13
136.8302681619
 23
176.2986096405
 33
0.0
 14
59.3302681619
 24
178.2986096405
 34
0.0
100
AcDbRotatedDimension
1001
ACAD
1000
DSTYLE
1002
{
1070
    77
1070
     3
1070
   143
1040
0.0393700787
1070
    41
1040
3.0
1070
    44
1040
1.0
1070
    42
1040
1.0
1070
   147
1040
1.524
1070
    73
1070
     0
1070
    74
1070
     0
1070
   140
1040
3.5
1070
   284
1070
    12
1070
    78
1070
    12
1002
}
  0
DIMENSION
  5
24C
330
1F
100
AcDbEntity
  8
SLD-0
 62
     7
100
AcDbDimension
  2
*D20
 10
179.6416515805
 20
173.2986096405
 30
0.0
 11
179.6416515805
 21
177.2986096405
 31
0.0
 70
   160
 71
     1
 42
8.0
  3
SLDDIMSTYLE0
100
AcDbAlignedDimension
 13
151.8302681619
 23
181.2986096405
 33
0.0
 14
154.3302681619
 24
173.2986096405
 34
0.0
 50
90.0
100
AcDbRotatedDimension
1001
ACAD
1000
DSTYLE
1002
{
1070
    77
1070
     3
1070
   143
1040
0.0393700787
1070
    41
1040
3.0
1070
    44
1040
1.0
1070
    42
1040
1.0
1070
   147
1040
1.524
1070
    73
1070
     0
1070
    74
1070
     0
1070
   140
1040
3.5
1070
   284
1070
    12
1070
    78
1070
    12
1002
}
  0
DIMENSION
  5
266
330
1F
100
AcDbEntity
  8
SLD-0
 62
     7
100
AcDbDimension
  2
*D21
 10
179.6416515805
 20
181.2986096405
 30
0.0
 11
179.6416515805
 21
191.2986096405
 31
0.0
 70
   160
 71
     1
 42
20.0
  3
SLDDIMSTYLE0
100
AcDbAlignedDimension
 13
151.8302681619
 23
201.2986096405
 33
0.0
 14
151.8302681619
 24
181.2986096405
 34
0.0
 50
90.0
100
AcDbRotatedDimension
1001
ACAD
1000
DSTYLE
1002
{
1070
    77
1070
     3
1070
   143
1040
0.0393700787
1070
    41
1040
3.0
1070
    44
1040
1.0
1070
    42
1040
1.0
1070
   147
1040
1.524
1070
    73
1070
     0
1070
    74
1070
     0
1070
   140
1040
3.5
1070
   284
1070
    12
1070
    78
1070
    12
1002
}
  0
DIMENSION
  5
27E
330
1F
100
AcDbEntity
  8
SLD-0
 62
     7
100
AcDbDimension
  2
*D22
 10
173.6488637996
 20
110.046898613
 30
0.0
 11
173.6488637996
 21
112.546898613
 31
0.0
 70
   160
 71
     1
 42
5.0
  3
SLDDIMSTYLE2
100
AcDbAlignedDimension
 13
159.3302681619
 23
115.046898613
 33
0.0
 14
159.3302681619
 24
110.046898613
 34
0.0
 50
90.0
100
AcDbRotatedDimension
1001
ACAD
1000
DSTYLE
1002
{
1070
    77
1070
     3
1070
   143
1040
0.0393700787
1070
    41
1040
3.0
1070
    44
1040
1.0
1070
    42
1040
1.0
1070
   147
1040
1.524
1070
    73
1070
     0
1070
    74
1070
     0
1070
   140
1040
3.5
1070
   284
1070
    12
1070
    78
1070
    12
1002
}
  0
MTEXT
  5
299
330
1F
100
AcDbEntity
  8
SLD-0
 62
     7
100
AcDbMText
 10
147.2407844383
 20
29.7138882404
 30
0.0
 40
4.2333333333
 41
0.0
 71
     1
 72
     1
  1
N01915-304-0
  7
SLDTEXTSTYLE1
 73
     1
 44
1.0
  0
MTEXT
  5
29B
330
1F
100
AcDbEntity
  8
SLD-0
 62
     7
100
AcDbMText
 10
147.6813672691
 20
43.2377018572
 30
0.0
 40
4.2333333333
 41
0.0
 71
     1
 72
     1
  1
Nipper BKT D
  7
SLDTEXTSTYLE2
 73
     1
 44
1.0
  0
INSERT
  5
29C
330
1F
100
AcDbEntity
  8
0
  6
Continuous
 62
     7
370
     0
100
AcDbBlockReference
  2
SW_CENTERMARK0
 10
0.0
 20
0.0
 30
0.0
  0
ENDSEC
  0
SECTION
  2
OBJECTS
  0
DICTIONARY
  5
C
330
0
100
AcDbDictionary
281
     1
  3
ACAD_GROUP
350
D
  3
ACAD_LAYOUT
350
1A
  3
ACAD_MLINESTYLE
350
17
  3
ACAD_PLOTSETTINGS
350
19
  3
ACAD_PLOTSTYLENAME
350
E
  0
DICTIONARY
  5
D
102
{ACAD_REACTORS
330
C
102
}
330
C
100
AcDbDictionary
281
     1
  0
DICTIONARY
  5
1A
102
{ACAD_REACTORS
330
C
102
}
330
C
100
AcDbDictionary
281
     1
  3
Layout1
350
1E
  3
Layout2
350
26
  3
Model
350
22
  0
DICTIONARY
  5
17
102
{ACAD_REACTORS
330
C
102
}
330
C
100
AcDbDictionary
281
     1
  3
Standard
350
18
  0
DICTIONARY
  5
19
102
{ACAD_REACTORS
330
C
102
}
330
C
100
AcDbDictionary
281
     1
  0
ACDBDICTIONARYWDFLT
  5
E
102
{ACAD_REACTORS
330
C
102
}
330
C
100
AcDbDictionary
281
     1
  3
Normal
350
F
100
AcDbDictionaryWithDefault
340
F
  0
LAYOUT
  5
1E
102
{ACAD_REACTORS
330
1A
102
}
330
1A
100
AcDbPlotSettings
  1

  2

  4

  6

 40
0.0
 41
0.0
 42
0.0
 43
0.0
 44
0.0
 45
0.0
 46
0.0
 47
0.0
 48
0.0
 49
0.0
140
0.0
141
0.0
142
1.0
143
1.0
 70
   688
 72
     0
 73
     0
 74
     5
  7

 75
    16
147
1.0
148
0.0
149
0.0
100
AcDbLayout
  1
Layout1
 70
     1
 71
     1
 10
0.0
 20
0.0
 11
0.0
 21
0.0
 12
0.0
 22
0.0
 32
0.0
 14
0.0
 24
0.0
 34
0.0
 15
0.0
 25
0.0
 35
0.0
146
0.0
 13
0.0
 23
0.0
 33
0.0
 16
1.0
 26
0.0
 36
0.0
 17
0.0
 27
1.0
 37
0.0
 76
     0
330
1B
  0
LAYOUT
  5
26
102
{ACAD_REACTORS
330
1A
102
}
330
1A
100
AcDbPlotSettings
  1

  2

  4

  6

 40
0.0
 41
0.0
 42
0.0
 43
0.0
 44
0.0
 45
0.0
 46
0.0
 47
0.0
 48
0.0
 49
0.0
140
0.0
141
0.0
142
1.0
143
1.0
 70
   688
 72
     0
 73
     0
 74
     5
  7

 75
    16
147
1.0
148
0.0
149
0.0
100
AcDbLayout
  1
Layout2
 70
     1
 71
     2
 10
0.0
 20
0.0
 11
0.0
 21
0.0
 12
0.0
 22
0.0
 32
0.0
 14
0.0
 24
0.0
 34
0.0
 15
0.0
 25
0.0
 35
0.0
146
0.0
 13
0.0
 23
0.0
 33
0.0
 16
1.0
 26
0.0
 36
0.0
 17
0.0
 27
1.0
 37
0.0
 76
     0
330
23
  0
LAYOUT
  5
22
102
{ACAD_REACTORS
330
1A
102
}
330
1A
100
AcDbPlotSettings
  1

  2

  4

  6

 40
0.0
 41
0.0
 42
0.0
 43
0.0
 44
0.0
 45
0.0
 46
0.0
 47
0.0
 48
0.0
 49
0.0
140
0.0
141
0.0
142
1.0
143
1.0
 70
  1712
 72
     0
 73
     0
 74
     0
  7

 75
     0
147
1.0
148
0.0
149
0.0
100
AcDbLayout
  1
Model
 70
     1
 71
     0
 10
0.0
 20
0.0
 11
0.0
 21
0.0
 12
0.0
 22
0.0
 32
0.0
 14
0.0
 24
0.0
 34
0.0
 15
210.0
 25
297.0
 35
0.0
146
0.0
 13
0.0
 23
0.0
 33
0.0
 16
1.0
 26
0.0
 36
0.0
 17
0.0
 27
1.0
 37
0.0
 76
     0
330
1F
  0
MLINESTYLE
  5
18
102
{ACAD_REACTORS
330
17
102
}
330
17
100
AcDbMlineStyle
  2
Standard
 70
     0
  3

 62
   256
 51
90.0
 52
90.0
 71
     2
 49
0.5
 62
   256
  6
BYLAYER
 49
-0.5
 62
   256
  6
BYLAYER
  0
ACDBPLACEHOLDER
  5
F
102
{ACAD_REACTORS
330
E
102
}
330
E
  0
ENDSEC
  0
EOF
