  0
SECTION
  2
HEADER
  9
$ACADVER
  1
AC1015
  9
$ACADMAINTVER
 70
     6
  9
$DWGCODEPAGE
  3
DOS932
  9
$INSBASE
 10
0.0
 20
0.0
 30
0.0
  9
$EXTMIN
 10
0.0
 20
0.0
 30
0.0
  9
$EXTMAX
 10
210.0
 20
297.0
 30
0.0
  9
$LIMMIN
 10
0.0
 20
0.0
  9
$LIMMAX
 10
0.0
 20
0.0
  9
$ORTHOMODE
 70
     0
  9
$REGENMODE
 70
     1
  9
$FILLMODE
 70
     1
  9
$QTEXTMODE
 70
     0
  9
$MIRRTEXT
 70
     1
  9
$LTSCALE
 40
1.0
  9
$ATTMODE
 70
     1
  9
$TEXTSIZE
 40
3.5
  9
$TRACEWID
 40
1.0
  9
$TEXTSTYLE
  7
Standard
  9
$CLAYER
  8
0
  9
$CELTYPE
  6
ByLayer
  9
$CECOLOR
 62
   256
  9
$CELTSCALE
 40
1.0
  9
$DISPSILH
 70
     0
  9
$DIMSCALE
 40
1.0
  9
$DIMASZ
 40
3.0
  9
$DIMEXO
 40
1.0
  9
$DIMDLI
 40
3.75
  9
$DIMRND
 40
0.0
  9
$DIMDLE
 40
0.0
  9
$DIMEXE
 40
1.0
  9
$DIMTP
 40
0.0
  9
$DIMTM
 40
0.0
  9
$DIMTXT
 40
3.5
  9
$DIMCEN
 40
2.5
  9
$DIMTSZ
 40
0.0
  9
$DIMTOL
 70
     0
  9
$DIMLIM
 70
     0
  9
$DIMTIH
 70
     1
  9
$DIMTOH
 70
     1
  9
$DIMSE1
 70
     0
  9
$DIMSE2
 70
     0
  9
$DIMTAD
 70
     1
  9
$DIMZIN
 70
     1
  9
$DIMBLK
  1

  9
$DIMASO
 70
     1
  9
$DIMSHO
 70
     1
  9
$DIMPOST
  1

  9
$DIMAPOST
  1

  9
$DIMALT
 70
     0
  9
$DIMALTD
 70
     3
  9
$DIMALTF
 40
0.0393700787
  9
$DIMLFAC
 40
1.0
  9
$DIMTOFL
 70
     1
  9
$DIMTVP
 40
0.0
  9
$DIMTIX
 70
     0
  9
$DIMSOXD
 70
     0
  9
$DIMSAH
 70
     0
  9
$DIMBLK1
  1

  9
$DIMBLK2
  1

  9
$DIMSTYLE
  2
ISO-25
  9
$DIMCLRD
 70
     0
  9
$DIMCLRE
 70
     0
  9
$DIMCLRT
 70
     0
  9
$DIMTFAC
 40
1.0
  9
$DIMGAP
 40
1.524
  9
$DIMJUST
 70
     0
  9
$DIMSD1
 70
     0
  9
$DIMSD2
 70
     0
  9
$DIMTOLJ
 70
     0
  9
$DIMTZIN
 70
     1
  9
$DIMALTZ
 70
     0
  9
$DIMALTTZ
 70
     0
  9
$DIMUPT
 70
     0
  9
$DIMDEC
 70
     2
  9
$DIMTDEC
 70
     2
  9
$DIMALTU
 70
     2
  9
$DIMALTTD
 70
     3
  9
$DIMTXSTY
  7
Standard
  9
$DIMAUNIT
 70
     0
  9
$DIMADEC
 70
     0
  9
$DIMALTRND
 40
0.0
  9
$DIMAZIN
 70
     0
  9
$DIMDSEP
 70
    44
  9
$DIMATFIT
 70
     3
  9
$DIMFRAC
 70
     0
  9
$DIMLDRBLK
  1

  9
$DIMLUNIT
 70
     2
  9
$DIMLWD
 70
    -2
  9
$DIMLWE
 70
    -2
  9
$DIMTMOVE
 70
     0
  9
$LUNITS
 70
     2
  9
$LUPREC
 70
     1
  9
$SKETCHINC
 40
1.0
  9
$FILLETRAD
 40
10.0
  9
$AUNITS
 70
     0
  9
$AUPREC
 70
     0
  9
$MENU
  1
.
  9
$ELEVATION
 40
0.0
  9
$PELEVATION
 40
0.0
  9
$THICKNESS
 40
0.0
  9
$LIMCHECK
 70
     0
  9
$CHAMFERA
 40
10.0
  9
$CHAMFERB
 40
10.0
  9
$CHAMFERC
 40
20.0
  9
$CHAMFERD
 40
0.0
  9
$SKPOLY
 70
     0
  9
$TDCREATE
 40
2454322.467873796
  9
$TDUCREATE
 40
2454322.092873796
  9
$TDUPDATE
 40
2454322.467873808
  9
$TDUUPDATE
 40
2454322.092873808
  9
$TDINDWG
 40
0.0000000116
  9
$TDUSRTIMER
 40
0.0000000116
  9
$USRTIMER
 70
     1
  9
$ANGBASE
 50
0.0
  9
$ANGDIR
 70
     0
  9
$PDMODE
 70
     0
  9
$PDSIZE
 40
-1.0
  9
$PLINEWID
 40
0.0
  9
$SPLFRAME
 70
     0
  9
$SPLINETYPE
 70
     6
  9
$SPLINESEGS
 70
     8
  9
$HANDSEED
  5
113
  9
$SURFTAB1
 70
     6
  9
$SURFTAB2
 70
     6
  9
$SURFTYPE
 70
     6
  9
$SURFU
 70
     6
  9
$SURFV
 70
     6
  9
$UCSBASE
  2

  9
$UCSNAME
  2

  9
$UCSORG
 10
0.0
 20
0.0
 30
0.0
  9
$UCSXDIR
 10
1.0
 20
0.0
 30
0.0
  9
$UCSYDIR
 10
0.0
 20
1.0
 30
0.0
  9
$UCSORTHOREF
  2

  9
$UCSORTHOVIEW
 70
     0
  9
$UCSORGTOP
 10
0.0
 20
0.0
 30
0.0
  9
$UCSORGBOTTOM
 10
0.0
 20
0.0
 30
0.0
  9
$UCSORGLEFT
 10
0.0
 20
0.0
 30
0.0
  9
$UCSORGRIGHT
 10
0.0
 20
0.0
 30
0.0
  9
$UCSORGFRONT
 10
0.0
 20
0.0
 30
0.0
  9
$UCSORGBACK
 10
0.0
 20
0.0
 30
0.0
  9
$PUCSBASE
  2

  9
$PUCSNAME
  2

  9
$PUCSORG
 10
0.0
 20
0.0
 30
0.0
  9
$PUCSXDIR
 10
1.0
 20
0.0
 30
0.0
  9
$PUCSYDIR
 10
0.0
 20
1.0
 30
0.0
  9
$PUCSORTHOREF
  2

  9
$PUCSORTHOVIEW
 70
     0
  9
$PUCSORGTOP
 10
0.0
 20
0.0
 30
0.0
  9
$PUCSORGBOTTOM
 10
0.0
 20
0.0
 30
0.0
  9
$PUCSORGLEFT
 10
0.0
 20
0.0
 30
0.0
  9
$PUCSORGRIGHT
 10
0.0
 20
0.0
 30
0.0
  9
$PUCSORGFRONT
 10
0.0
 20
0.0
 30
0.0
  9
$PUCSORGBACK
 10
0.0
 20
0.0
 30
0.0
  9
$USERI1
 70
     0
  9
$USERI2
 70
     0
  9
$USERI3
 70
     0
  9
$USERI4
 70
     0
  9
$USERI5
 70
     0
  9
$USERR1
 40
0.0
  9
$USERR2
 40
0.0
  9
$USERR3
 40
0.0
  9
$USERR4
 40
0.0
  9
$USERR5
 40
0.0
  9
$WORLDVIEW
 70
     1
  9
$SHADEDGE
 70
     3
  9
$SHADEDIF
 70
    70
  9
$TILEMODE
 70
     1
  9
$MAXACTVP
 70
    64
  9
$PINSBASE
 10
0.0
 20
0.0
 30
0.0
  9
$PLIMCHECK
 70
     0
  9
$PEXTMIN
 10
1.0000000000E+20
 20
1.0000000000E+20
 30
1.0000000000E+20
  9
$PEXTMAX
 10
-1.0000000000E+20
 20
-1.0000000000E+20
 30
-1.0000000000E+20
  9
$PLIMMIN
 10
0.0
 20
0.0
  9
$PLIMMAX
 10
420.0
 20
297.0
  9
$UNITMODE
 70
     0
  9
$VISRETAIN
 70
     1
  9
$PLINEGEN
 70
     0
  9
$PSLTSCALE
 70
     1
  9
$TREEDEPTH
 70
  3020
  9
$CMLSTYLE
  2
Standard
  9
$CMLJUST
 70
     0
  9
$CMLSCALE
 40
20.0
  9
$PROXYGRAPHICS
 70
     1
  9
$MEASUREMENT
 70
     1
  9
$CELWEIGHT
370
    -1
  9
$ENDCAPS
280
     0
  9
$JOINSTYLE
280
     0
  9
$LWDISPLAY
290
     1
  9
$INSUNITS
 70
     4
  9
$HYPERLINKBASE
  1

  9
$STYLESHEET
  1

  9
$XEDIT
290
     1
  9
$CEPSNTYPE
380
     0
  9
$PSTYLEMODE
290
     1
  9
$FINGERPRINTGUID
  2
{282C1A7A-47AC-4EDE-A776-06658C79E56E}
  9
$VERSIONGUID
  2
{FAEB1C32-E019-11D5-929B-00C0DF256EC4}
  9
$EXTNAMES
290
     1
  9
$PSVPSCALE
 40
0.0
  9
$OLESTARTUP
290
     0
  0
ENDSEC
  0
SECTION
  2
CLASSES
  0
CLASS
  1
ACDBDICTIONARYWDFLT
  2
AcDbDictionaryWithDefault
  3
ObjectDBX Classes
 90
        0
280
     0
281
     0
  0
CLASS
  1
ACDBPLACEHOLDER
  2
AcDbPlaceHolder
  3
ObjectDBX Classes
 90
        0
280
     0
281
     0
  0
CLASS
  1
LAYOUT
  2
AcDbLayout
  3
ObjectDBX Classes
 90
        0
280
     0
281
     0
  0
ENDSEC
  0
SECTION
  2
TABLES
  0
TABLE
  2
VPORT
  5
8
330
0
100
AcDbSymbolTable
 70
     1
  0
VPORT
  5
29
330
8
100
AcDbSymbolTableRecord
100
AcDbViewportTableRecord
  2
*Active
 70
     0
 10
0.0
 20
0.0
 11
1.0
 21
1.0
 12
105.0
 22
148.5
 13
0.0
 23
0.0
 14
10.0
 24
10.0
 15
10.0
 25
10.0
 16
0.0
 26
0.0
 36
1.0
 17
0.0
 27
0.0
 37
0.0
 40
297.0
 41
1.9729729729
 42
50.0
 43
0.0
 44
0.0
 50
0.0
 51
0.0
 71
     0
 72
  2000
 73
     1
 74
     3
 75
     0
 76
     0
 77
     0
 78
     0
281
     0
 65
     1
110
0.0
120
0.0
130
0.0
111
1.0
121
0.0
131
0.0
112
0.0
122
1.0
132
0.0
 79
     0
146
0.0
  0
ENDTAB
  0
TABLE
  2
LTYPE
  5
5
330
0
100
AcDbSymbolTable
 70
     6
  0
LTYPE
  5
14
330
5
100
AcDbSymbolTableRecord
100
AcDbLinetypeTableRecord
  2
ByBlock
 70
     0
  3

 72
    65
 73
     0
 40
0.0
  0
LTYPE
  5
15
330
5
100
AcDbSymbolTableRecord
100
AcDbLinetypeTableRecord
  2
ByLayer
 70
     0
  3

 72
    65
 73
     0
 40
0.0
  0
LTYPE
  5
16
330
5
100
AcDbSymbolTableRecord
100
AcDbLinetypeTableRecord
  2
Continuous
 70
     0
  3
Solid line
 72
    65
 73
     0
 40
0.0
  0
LTYPE
  5
2A
330
5
100
AcDbSymbolTableRecord
100
AcDbLinetypeTableRecord
  2
HIDDEN
 70
     0
  3
Hidden __ __ __ __ __ __ __ __ __ __ __ __ __ __
 72
    65
 73
     2
 40
1.905
 49
1.27
 74
     0
 49
-0.635
 74
     0
  0
LTYPE
  5
2B
330
5
100
AcDbSymbolTableRecord
100
AcDbLinetypeTableRecord
  2
PHANTOM
 70
     0
  3
Phantom ______  __  __  ______  __  __  ______
 72
    65
 73
     6
 40
12.7
 49
6.35
 74
     0
 49
-1.27
 74
     0
 49
1.27
 74
     0
 49
-1.27
 74
     0
 49
1.27
 74
     0
 49
-1.27
 74
     0
  0
LTYPE
  5
2C
330
5
100
AcDbSymbolTableRecord
100
AcDbLinetypeTableRecord
  2
CENTER
 70
     0
  3
Center ____ _ ____ _ ____ _ ____ _ ____ _ ____
 72
    65
 73
     4
 40
10.16
 49
6.35
 74
     0
 49
-1.27
 74
     0
 49
1.27
 74
     0
 49
-1.27
 74
     0
  0
LTYPE
  5
2D
330
5
100
AcDbSymbolTableRecord
100
AcDbLinetypeTableRecord
  2
CENTERX2
 70
     0
  3
Center (2x) ________  __  ________  __  _____
 72
    65
 73
     4
 40
20.32
 49
12.7
 74
     0
 49
-2.54
 74
     0
 49
2.54
 74
     0
 49
-2.54
 74
     0
  0
LTYPE
  5
2E
330
5
100
AcDbSymbolTableRecord
100
AcDbLinetypeTableRecord
  2
DOT2
 70
     0
  3
Dot (.5x) ........................................
 72
    65
 73
     2
 40
0.635
 49
0.0
 74
     0
 49
-0.635
 74
     0
  0
ENDTAB
  0
TABLE
  2
LAYER
  5
2
330
0
100
AcDbSymbolTable
 70
     4
  0
LAYER
  5
10
330
2
100
AcDbSymbolTableRecord
100
AcDbLayerTableRecord
  2
0
 70
     0
 62
     7
  6
Continuous
370
    -3
390
F
  0
LAYER
  5
2F
330
2
100
AcDbSymbolTableRecord
100
AcDbLayerTableRecord
  2
SLD-0
 70
     0
 62
   179
  6
Continuous
370
     0
390
F
  0
LAYER
  5
30
330
2
100
AcDbSymbolTableRecord
100
AcDbLayerTableRecord
  2
SLD-DEFPOINTS
 70
     0
 62
   179
  6
Continuous
370
     0
390
F
  0
LAYER
  5
62
330
2
100
AcDbSymbolTableRecord
100
AcDbLayerTableRecord
  2
Defpoints
 70
     0
 62
     7
  6
Continuous
290
     0
370
    -3
390
F
  0
ENDTAB
  0
TABLE
  2
STYLE
  5
3
330
0
100
AcDbSymbolTable
 70
     4
  0
STYLE
  5
11
330
3
100
AcDbSymbolTableRecord
100
AcDbTextStyleTableRecord
  2
Standard
 70
     0
 40
0.0
 41
1.0
 50
0.0
 71
     0
 42
2.5
  3
txt
  4
bigfont
  0
STYLE
  5
34
330
3
100
AcDbSymbolTableRecord
100
AcDbTextStyleTableRecord
  2
SLDTEXTSTYLE0
 70
     0
 40
0.0
 41
0.7
 50
0.0
 71
     0
 42
0.2
  3
TXT
  4
bigfont
  0
STYLE
  5
70
330
3
100
AcDbSymbolTableRecord
100
AcDbTextStyleTableRecord
  2
SLDTEXTSTYLE1
 70
     0
 40
0.0
 41
0.5526315789
 50
0.0
 71
     0
 42
0.2
  3
TXT
  4
bigfont
  0
STYLE
  5
10F
330
3
100
AcDbSymbolTableRecord
100
AcDbTextStyleTableRecord
  2
SLDTEXTSTYLE2
 70
     0
 40
0.0
 41
0.4930669355
 50
0.0
 71
     0
 42
0.2
  3
TXT
  4
bigfont
  0
ENDTAB
  0
TABLE
  2
VIEW
  5
6
330
0
100
AcDbSymbolTable
 70
     0
  0
ENDTAB
  0
TABLE
  2
UCS
  5
7
330
0
100
AcDbSymbolTable
 70
     0
  0
ENDTAB
  0
TABLE
  2
APPID
  5
9
330
0
100
AcDbSymbolTable
 70
     1
  0
APPID
  5
12
330
9
100
AcDbSymbolTableRecord
100
AcDbRegAppTableRecord
  2
ACAD
 70
     0
  0
ENDTAB
  0
TABLE
  2
DIMSTYLE
  5
A
330
0
100
AcDbSymbolTable
 70
     4
100
AcDbDimStyleTable
  0
DIMSTYLE
105
27
330
A
100
AcDbSymbolTableRecord
100
AcDbDimStyleTableRecord
  2
ISO-25
 70
     0
 41
2.5
 42
0.625
 43
3.75
 44
1.25
 73
     0
 74
     0
 77
     1
 78
     8
140
2.5
141
2.5
143
0.0393700787
147
0.625
171
     3
172
     1
271
     2
272
     2
274
     3
278
    44
283
     0
284
     8
340
11
  0
DIMSTYLE
105
71
102
{ACAD_REACTORS
330
61
330
7F
330
96
330
F4
102
}
330
A
100
AcDbSymbolTableRecord
100
AcDbDimStyleTableRecord
  2
SLDDIMSTYLE0
 70
     0
 41
3.0
 44
0.0
 73
     0
 74
     0
 77
     3
 78
    12
140
3.5
147
0.875
173
     1
271
     0
272
     3
284
    12
340
70
341
72
343
72
344
72
  0
DIMSTYLE
105
BB
102
{ACAD_REACTORS
330
AD
330
C8
102
}
330
A
100
AcDbSymbolTableRecord
100
AcDbDimStyleTableRecord
  2
SLDDIMSTYLE1
 70
     0
 41
3.0
 44
0.0
 73
     0
 74
     0
 77
     3
 78
    12
140
3.5
147
0.875
173
     1
271
     1
272
     3
284
    12
340
70
341
72
343
72
344
72
  0
DIMSTYLE
105
EB
102
{ACAD_REACTORS
330
E1
102
}
330
A
100
AcDbSymbolTableRecord
100
AcDbDimStyleTableRecord
  2
SLDDIMSTYLE2
 70
     0
 41
3.0
 44
0.0
 78
    12
140
3.5
147
0.875
172
     1
173
     1
271
     1
272
     3
284
    12
340
70
341
72
343
72
344
72
  0
ENDTAB
  0
TABLE
  2
BLOCK_RECORD
  5
1
330
0
100
AcDbSymbolTable
 70
    12
  0
BLOCK_RECORD
  5
1F
330
1
100
AcDbSymbolTableRecord
100
AcDbBlockTableRecord
  2
*Model_Space
340
22
  0
BLOCK_RECORD
  5
1B
330
1
100
AcDbSymbolTableRecord
100
AcDbBlockTableRecord
  2
*Paper_Space
340
1E
  0
BLOCK_RECORD
  5
23
330
1
100
AcDbSymbolTableRecord
100
AcDbBlockTableRecord
  2
*Paper_Space0
340
26
  0
BLOCK_RECORD
  5
31
330
1
100
AcDbSymbolTableRecord
100
AcDbBlockTableRecord
  2
注記
340
0
  0
BLOCK_RECORD
  5
37
330
1
100
AcDbSymbolTableRecord
100
AcDbBlockTableRecord
  2
SW_CENTERMARK0
340
0
102
{BLKREFS
331
111
102
}
  0
BLOCK_RECORD
  5
42
330
1
100
AcDbSymbolTableRecord
100
AcDbBlockTableRecord
  2
SW_CENTERMARK1
340
0
102
{BLKREFS
331
112
102
}
  0
BLOCK_RECORD
  5
63
330
1
100
AcDbSymbolTableRecord
100
AcDbBlockTableRecord
  2
*D4
340
0
  0
BLOCK_RECORD
  5
72
330
1
100
AcDbSymbolTableRecord
100
AcDbBlockTableRecord
  2
_None
340
0
102
{BLKREFS
331
68
331
67
331
85
331
84
331
9C
331
9B
331
B3
331
B2
331
CE
331
CD
331
E6
331
FA
331
F9
102
}
  0
BLOCK_RECORD
  5
80
330
1
100
AcDbSymbolTableRecord
100
AcDbBlockTableRecord
  2
*D6
340
0
  0
BLOCK_RECORD
  5
97
330
1
100
AcDbSymbolTableRecord
100
AcDbBlockTableRecord
  2
*D7
340
0
  0
BLOCK_RECORD
  5
AE
330
1
100
AcDbSymbolTableRecord
100
AcDbBlockTableRecord
  2
*D8
340
0
  0
BLOCK_RECORD
  5
C9
330
1
100
AcDbSymbolTableRecord
100
AcDbBlockTableRecord
  2
*D9
340
0
  0
BLOCK_RECORD
  5
E2
330
1
100
AcDbSymbolTableRecord
100
AcDbBlockTableRecord
  2
*D10
340
0
  0
BLOCK_RECORD
  5
F5
330
1
100
AcDbSymbolTableRecord
100
AcDbBlockTableRecord
  2
*D11
340
0
  0
ENDTAB
  0
ENDSEC
  0
SECTION
  2
BLOCKS
  0
BLOCK
  5
20
330
1F
100
AcDbEntity
  8
0
100
AcDbBlockBegin
  2
*Model_Space
 70
     0
 71
     0
 10
0.0
 20
0.0
 30
0.0
  3
*Model_Space
  1

  0
ENDBLK
  5
21
330
1F
100
AcDbEntity
  8
0
100
AcDbBlockEnd
  0
BLOCK
  5
1C
330
1B
100
AcDbEntity
 67
     1
  8
0
100
AcDbBlockBegin
  2
*Paper_Space
 70
     0
 71
     0
 10
0.0
 20
0.0
 30
0.0
  3
*Paper_Space
  1

  0
ENDBLK
  5
1D
330
1B
100
AcDbEntity
 67
     1
  8
0
100
AcDbBlockEnd
  0
BLOCK
  5
24
330
23
100
AcDbEntity
  8
0
100
AcDbBlockBegin
  2
*Paper_Space0
 70
     0
 71
     0
 10
0.0
 20
0.0
 30
0.0
  3
*Paper_Space0
  1

  0
ENDBLK
  5
25
330
23
100
AcDbEntity
  8
0
100
AcDbBlockEnd
  0
BLOCK
  5
32
330
31
100
AcDbEntity
  8
0
100
AcDbBlockBegin
  2
注記
 70
     0
 71
     0
 10
0.0
 20
0.0
 30
0.0
  3
注記
  1

  0
MTEXT
  5
35
330
31
100
AcDbEntity
  8
0
  6
Continuous
 62
     7
370
     0
100
AcDbMText
 10
0.2636785918
 20
9.0739778448
 30
0.0
 40
3.5
 41
0.0
 71
     1
 72
     1
  1
１．特記ナキ角部ハ、バリ　カエリノ無キコト。
  7
SLDTEXTSTYLE0
 73
     1
 44
1.0
  0
MTEXT
  5
36
330
31
100
AcDbEntity
  8
0
  6
Continuous
 62
     7
370
     0
100
AcDbMText
 10
0.2636785918
 20
3.5759549983
 30
0.0
 40
3.5
 41
0.0
 71
     1
 72
     1
  1
２．特記ナキ隅部ハ、Ｒ０．４ＭＡＸトスル。
  7
SLDTEXTSTYLE0
 73
     1
 44
1.0
  0
ENDBLK
  5
33
330
31
100
AcDbEntity
  8
0
100
AcDbBlockEnd
  0
BLOCK
  5
38
330
37
100
AcDbEntity
  8
0
100
AcDbBlockBegin
  2
SW_CENTERMARK0
 70
     0
 71
     0
 10
0.0
 20
0.0
 30
0.0
  3
SW_CENTERMARK0
  1

  0
LINE
  5
3A
330
37
100
AcDbEntity
  8
SLD-0
  6
Continuous
 62
   179
100
AcDbLine
 10
89.4134629829
 20
169.1483687581
 30
0.0
 11
89.4134629829
 21
171.6483687581
 31
0.0
  0
LINE
  5
3B
330
37
100
AcDbEntity
  8
SLD-0
  6
Continuous
 62
   179
100
AcDbLine
 10
89.4134629829
 20
169.1483687581
 30
0.0
 11
86.9134629829
 21
169.1483687581
 31
0.0
  0
LINE
  5
3C
330
37
100
AcDbEntity
  8
SLD-0
  6
Continuous
 62
   179
100
AcDbLine
 10
89.4134629829
 20
169.1483687581
 30
0.0
 11
89.4134629829
 21
166.6483687581
 31
0.0
  0
LINE
  5
3D
330
37
100
AcDbEntity
  8
SLD-0
  6
Continuous
 62
   179
100
AcDbLine
 10
89.4134629829
 20
169.1483687581
 30
0.0
 11
91.9134629829
 21
169.1483687581
 31
0.0
  0
LINE
  5
3E
330
37
100
AcDbEntity
  8
SLD-0
  6
Continuous
 62
   179
100
AcDbLine
 10
89.4134629829
 20
174.1483687581
 30
0.0
 11
89.4134629829
 21
174.8983687581
 31
0.0
  0
LINE
  5
3F
330
37
100
AcDbEntity
  8
SLD-0
  6
Continuous
 62
   179
100
AcDbLine
 10
84.4134629829
 20
169.1483687581
 30
0.0
 11
83.6634629829
 21
169.1483687581
 31
0.0
  0
LINE
  5
40
330
37
100
AcDbEntity
  8
SLD-0
  6
Continuous
 62
   179
100
AcDbLine
 10
89.4134629829
 20
164.1483687581
 30
0.0
 11
89.4134629829
 21
163.3983687581
 31
0.0
  0
LINE
  5
41
330
37
100
AcDbEntity
  8
SLD-0
  6
Continuous
 62
   179
100
AcDbLine
 10
94.4134629829
 20
169.1483687581
 30
0.0
 11
95.1634629829
 21
169.1483687581
 31
0.0
  0
ENDBLK
  5
39
330
37
100
AcDbEntity
  8
0
100
AcDbBlockEnd
  0
BLOCK
  5
43
330
42
100
AcDbEntity
  8
0
100
AcDbBlockBegin
  2
SW_CENTERMARK1
 70
     0
 71
     0
 10
0.0
 20
0.0
 30
0.0
  3
SW_CENTERMARK1
  1

  0
LINE
  5
45
330
42
100
AcDbEntity
  8
SLD-0
  6
Continuous
 62
   179
100
AcDbLine
 10
114.4134629829
 20
169.1483687581
 30
0.0
 11
114.4134629829
 21
171.6483687581
 31
0.0
  0
LINE
  5
46
330
42
100
AcDbEntity
  8
SLD-0
  6
Continuous
 62
   179
100
AcDbLine
 10
114.4134629829
 20
169.1483687581
 30
0.0
 11
111.9134629829
 21
169.1483687581
 31
0.0
  0
LINE
  5
47
330
42
100
AcDbEntity
  8
SLD-0
  6
Continuous
 62
   179
100
AcDbLine
 10
114.4134629829
 20
169.1483687581
 30
0.0
 11
114.4134629829
 21
166.6483687581
 31
0.0
  0
LINE
  5
48
330
42
100
AcDbEntity
  8
SLD-0
  6
Continuous
 62
   179
100
AcDbLine
 10
114.4134629829
 20
169.1483687581
 30
0.0
 11
116.9134629829
 21
169.1483687581
 31
0.0
  0
LINE
  5
49
330
42
100
AcDbEntity
  8
SLD-0
  6
Continuous
 62
   179
100
AcDbLine
 10
114.4134629829
 20
174.1483687581
 30
0.0
 11
114.4134629829
 21
174.8983687581
 31
0.0
  0
LINE
  5
4A
330
42
100
AcDbEntity
  8
SLD-0
  6
Continuous
 62
   179
100
AcDbLine
 10
109.4134629829
 20
169.1483687581
 30
0.0
 11
108.6634629829
 21
169.1483687581
 31
0.0
  0
LINE
  5
4B
330
42
100
AcDbEntity
  8
SLD-0
  6
Continuous
 62
   179
100
AcDbLine
 10
114.4134629829
 20
164.1483687581
 30
0.0
 11
114.4134629829
 21
163.3983687581
 31
0.0
  0
LINE
  5
4C
330
42
100
AcDbEntity
  8
SLD-0
  6
Continuous
 62
   179
100
AcDbLine
 10
119.4134629829
 20
169.1483687581
 30
0.0
 11
120.1634629829
 21
169.1483687581
 31
0.0
  0
ENDBLK
  5
44
330
42
100
AcDbEntity
  8
0
100
AcDbBlockEnd
  0
BLOCK
  5
6E
330
63
100
AcDbEntity
  8
0
100
AcDbBlockBegin
  2
*D4
 70
     1
 71
     0
 10
0.0
 20
0.0
 30
0.0
  3
*D4
  1

  0
LINE
  5
75
330
63
100
AcDbEntity
  8
SLD-0
 62
     7
100
AcDbLine
 10
127.9134629829
 20
181.6483687581
 30
0.0
 11
152.4707474071
 21
181.6483687581
 31
0.0
  0
LINE
  5
76
330
63
100
AcDbEntity
  8
SLD-0
 62
     7
100
AcDbLine
 10
127.9134629829
 20
156.6483687581
 30
0.0
 11
152.4707474071
 21
156.6483687581
 31
0.0
  0
LINE
  5
77
330
63
100
AcDbEntity
  8
SLD-0
 62
     7
100
AcDbLine
 10
151.4707474071
 20
181.6483687581
 30
0.0
 11
151.4707474071
 21
156.6483687581
 31
0.0
  0
LINE
  5
78
330
63
100
AcDbEntity
  8
SLD-0
 62
     7
100
AcDbLine
 10
150.6669004071
 20
178.6483687581
 30
0.0
 11
151.4707474071
 21
181.6483687581
 31
0.0
  0
LINE
  5
79
330
63
100
AcDbEntity
  8
SLD-0
 62
     7
100
AcDbLine
 10
151.4707474071
 20
181.6483687581
 30
0.0
 11
152.2745944071
 21
178.6483687581
 31
0.0
  0
LINE
  5
7A
330
63
100
AcDbEntity
  8
SLD-0
 62
     7
100
AcDbLine
 10
151.4707474071
 20
181.6483687581
 30
0.0
 11
151.4707474071
 21
178.6483687581
 31
0.0
  0
LINE
  5
7B
330
63
100
AcDbEntity
  8
SLD-0
 62
     7
100
AcDbLine
 10
152.2745944071
 20
159.6483687581
 30
0.0
 11
151.4707474071
 21
156.6483687581
 31
0.0
  0
LINE
  5
7C
330
63
100
AcDbEntity
  8
SLD-0
 62
     7
100
AcDbLine
 10
151.4707474071
 20
156.6483687581
 30
0.0
 11
150.6669004071
 21
159.6483687581
 31
0.0
  0
LINE
  5
7D
330
63
100
AcDbEntity
  8
SLD-0
 62
     7
100
AcDbLine
 10
151.4707474071
 20
156.6483687581
 30
0.0
 11
151.4707474071
 21
159.6483687581
 31
0.0
  0
MTEXT
  5
7E
330
63
100
AcDbEntity
  8
SLD-0
 62
     7
100
AcDbMText
 10
146.9440537112
 20
167.112144656
 30
0.1
 40
3.5
 41
0.0
 71
     1
 72
     1
  1
25
  7
SLDTEXTSTYLE0
 11
6.123031769111886E-17
 21
1.0
 31
0.0
 73
     1
 44
1.0
  0
ENDBLK
  5
6F
330
63
100
AcDbEntity
  8
0
100
AcDbBlockEnd
  0
BLOCK
  5
73
330
72
100
AcDbEntity
  8
0
100
AcDbBlockBegin
  2
_None
 70
     0
 71
     0
 10
0.0
 20
0.0
 30
0.0
  3
_None
  1

  0
ENDBLK
  5
74
330
72
100
AcDbEntity
  8
0
100
AcDbBlockEnd
  0
BLOCK
  5
8A
330
80
100
AcDbEntity
  8
0
100
AcDbBlockBegin
  2
*D6
 70
     1
 71
     0
 10
0.0
 20
0.0
 30
0.0
  3
*D6
  1

  0
LINE
  5
8C
330
80
100
AcDbEntity
  8
SLD-0
 62
     7
100
AcDbLine
 10
126.9134629829
 20
182.6483687581
 30
0.0
 11
126.9134629829
 21
204.5293080546
 31
0.0
  0
LINE
  5
8D
330
80
100
AcDbEntity
  8
SLD-0
 62
     7
100
AcDbLine
 10
76.9134629829
 20
182.6483687581
 30
0.0
 11
76.9134629829
 21
204.5293080546
 31
0.0
  0
LINE
  5
8E
330
80
100
AcDbEntity
  8
SLD-0
 62
     7
100
AcDbLine
 10
126.9134629829
 20
203.5293080546
 30
0.0
 11
76.9134629829
 21
203.5293080546
 31
0.0
  0
LINE
  5
8F
330
80
100
AcDbEntity
  8
SLD-0
 62
     7
100
AcDbLine
 10
123.9134629829
 20
204.3331550546
 30
0.0
 11
126.9134629829
 21
203.5293080546
 31
0.0
  0
LINE
  5
90
330
80
100
AcDbEntity
  8
SLD-0
 62
     7
100
AcDbLine
 10
126.9134629829
 20
203.5293080546
 30
0.0
 11
123.9134629829
 21
202.7254610546
 31
0.0
  0
LINE
  5
91
330
80
100
AcDbEntity
  8
SLD-0
 62
     7
100
AcDbLine
 10
126.9134629829
 20
203.5293080546
 30
0.0
 11
123.9134629829
 21
203.5293080546
 31
0.0
  0
LINE
  5
92
330
80
100
AcDbEntity
  8
SLD-0
 62
     7
100
AcDbLine
 10
79.9134629829
 20
202.7254610546
 30
0.0
 11
76.9134629829
 21
203.5293080546
 31
0.0
  0
LINE
  5
93
330
80
100
AcDbEntity
  8
SLD-0
 62
     7
100
AcDbLine
 10
76.9134629829
 20
203.5293080546
 30
0.0
 11
79.9134629829
 21
204.3331550546
 31
0.0
  0
LINE
  5
94
330
80
100
AcDbEntity
  8
SLD-0
 62
     7
100
AcDbLine
 10
76.9134629829
 20
203.5293080546
 30
0.0
 11
79.9134629829
 21
203.5293080546
 31
0.0
  0
MTEXT
  5
95
330
80
100
AcDbEntity
  8
SLD-0
 62
     7
100
AcDbMText
 10
99.8772388808
 20
208.0560017505
 30
0.1
 40
3.5
 41
0.0
 71
     1
 72
     1
  1
50
  7
SLDTEXTSTYLE0
 73
     1
 44
1.0
  0
ENDBLK
  5
8B
330
80
100
AcDbEntity
  8
0
100
AcDbBlockEnd
  0
BLOCK
  5
A1
330
97
100
AcDbEntity
  8
0
100
AcDbBlockBegin
  2
*D7
 70
     1
 71
     0
 10
0.0
 20
0.0
 30
0.0
  3
*D7
  1

  0
LINE
  5
A3
330
97
100
AcDbEntity
  8
SLD-0
 62
     7
100
AcDbLine
 10
89.4134629829
 20
175.8983687581
 30
0.0
 11
89.4134629829
 21
194.7655859609
 31
0.0
  0
LINE
  5
A4
330
97
100
AcDbEntity
  8
SLD-0
 62
     7
100
AcDbLine
 10
114.4134629829
 20
175.8983687581
 30
0.0
 11
114.4134629829
 21
194.7655859609
 31
0.0
  0
LINE
  5
A5
330
97
100
AcDbEntity
  8
SLD-0
 62
     7
100
AcDbLine
 10
89.4134629829
 20
193.7655859609
 30
0.0
 11
114.4134629829
 21
193.7655859609
 31
0.0
  0
LINE
  5
A6
330
97
100
AcDbEntity
  8
SLD-0
 62
     7
100
AcDbLine
 10
92.4134629829
 20
192.9617389609
 30
0.0
 11
89.4134629829
 21
193.7655859609
 31
0.0
  0
LINE
  5
A7
330
97
100
AcDbEntity
  8
SLD-0
 62
     7
100
AcDbLine
 10
89.4134629829
 20
193.7655859609
 30
0.0
 11
92.4134629829
 21
194.5694329609
 31
0.0
  0
LINE
  5
A8
330
97
100
AcDbEntity
  8
SLD-0
 62
     7
100
AcDbLine
 10
89.4134629829
 20
193.7655859609
 30
0.0
 11
92.4134629829
 21
193.7655859609
 31
0.0
  0
LINE
  5
A9
330
97
100
AcDbEntity
  8
SLD-0
 62
     7
100
AcDbLine
 10
111.4134629829
 20
194.5694329609
 30
0.0
 11
114.4134629829
 21
193.7655859609
 31
0.0
  0
LINE
  5
AA
330
97
100
AcDbEntity
  8
SLD-0
 62
     7
100
AcDbLine
 10
114.4134629829
 20
193.7655859609
 30
0.0
 11
111.4134629829
 21
192.9617389609
 31
0.0
  0
LINE
  5
AB
330
97
100
AcDbEntity
  8
SLD-0
 62
     7
100
AcDbLine
 10
114.4134629829
 20
193.7655859609
 30
0.0
 11
111.4134629829
 21
193.7655859609
 31
0.0
  0
MTEXT
  5
AC
330
97
100
AcDbEntity
  8
SLD-0
 62
     7
100
AcDbMText
 10
99.8772388808
 20
198.2922796568
 30
0.1
 40
3.5
 41
0.0
 71
     1
 72
     1
  1
25
  7
SLDTEXTSTYLE0
 73
     1
 44
1.0
  0
ENDBLK
  5
A2
330
97
100
AcDbEntity
  8
0
100
AcDbBlockEnd
  0
BLOCK
  5
B9
330
AE
100
AcDbEntity
  8
0
100
AcDbBlockBegin
  2
*D8
 70
     1
 71
     0
 10
0.0
 20
0.0
 30
0.0
  3
*D8
  1

  0
LINE
  5
BC
330
AE
100
AcDbEntity
  8
SLD-0
 62
     7
100
AcDbLine
 10
127.9134629829
 20
181.6483687581
 30
0.0
 11
142.4509004894
 21
181.6483687581
 31
0.0
  0
LINE
  5
BD
330
AE
100
AcDbEntity
  8
SLD-0
 62
     7
100
AcDbLine
 10
121.1634629829
 20
169.1483687581
 30
0.0
 11
142.4509004894
 21
169.1483687581
 31
0.0
  0
LINE
  5
BE
330
AE
100
AcDbEntity
  8
SLD-0
 62
     7
100
AcDbLine
 10
141.4509004894
 20
181.6483687581
 30
0.0
 11
141.4509004894
 21
186.6483687581
 31
0.0
  0
LINE
  5
BF
330
AE
100
AcDbEntity
  8
SLD-0
 62
     7
100
AcDbLine
 10
141.4509004894
 20
181.6483687581
 30
0.0
 11
141.4509004894
 21
169.1483687581
 31
0.0
  0
LINE
  5
C0
330
AE
100
AcDbEntity
  8
SLD-0
 62
     7
100
AcDbLine
 10
141.4509004894
 20
169.1483687581
 30
0.0
 11
141.4509004894
 21
164.1483687581
 31
0.0
  0
LINE
  5
C1
330
AE
100
AcDbEntity
  8
SLD-0
 62
     7
100
AcDbLine
 10
142.2547474894
 20
184.6483687581
 30
0.0
 11
141.4509004894
 21
181.6483687581
 31
0.0
  0
LINE
  5
C2
330
AE
100
AcDbEntity
  8
SLD-0
 62
     7
100
AcDbLine
 10
141.4509004894
 20
181.6483687581
 30
0.0
 11
140.6470534894
 21
184.6483687581
 31
0.0
  0
LINE
  5
C3
330
AE
100
AcDbEntity
  8
SLD-0
 62
     7
100
AcDbLine
 10
141.4509004894
 20
181.6483687581
 30
0.0
 11
141.4509004894
 21
184.6483687581
 31
0.0
  0
LINE
  5
C4
330
AE
100
AcDbEntity
  8
SLD-0
 62
     7
100
AcDbLine
 10
140.6470534894
 20
166.1483687581
 30
0.0
 11
141.4509004894
 21
169.1483687581
 31
0.0
  0
LINE
  5
C5
330
AE
100
AcDbEntity
  8
SLD-0
 62
     7
100
AcDbLine
 10
141.4509004894
 20
169.1483687581
 30
0.0
 11
142.2547474894
 21
166.1483687581
 31
0.0
  0
LINE
  5
C6
330
AE
100
AcDbEntity
  8
SLD-0
 62
     7
100
AcDbLine
 10
141.4509004894
 20
169.1483687581
 30
0.0
 11
141.4509004894
 21
166.1483687581
 31
0.0
  0
MTEXT
  5
C7
330
AE
100
AcDbEntity
  8
SLD-0
 62
     7
100
AcDbMText
 10
136.9242067934
 20
171.3259205539
 30
0.1
 40
3.5
 41
0.0
 71
     1
 72
     1
  1
12.5
  7
SLDTEXTSTYLE0
 11
6.123031769111886E-17
 21
1.0
 31
0.0
 73
     1
 44
1.0
  0
ENDBLK
  5
BA
330
AE
100
AcDbEntity
  8
0
100
AcDbBlockEnd
  0
BLOCK
  5
D3
330
C9
100
AcDbEntity
  8
0
100
AcDbBlockBegin
  2
*D9
 70
     1
 71
     0
 10
0.0
 20
0.0
 30
0.0
  3
*D9
  1

  0
LINE
  5
D5
330
C9
100
AcDbEntity
  8
SLD-0
 62
     7
100
AcDbLine
 10
126.9134629829
 20
182.6483687581
 30
0.0
 11
126.9134629829
 21
194.7655859609
 31
0.0
  0
LINE
  5
D6
330
C9
100
AcDbEntity
  8
SLD-0
 62
     7
100
AcDbLine
 10
114.4134629829
 20
175.8983687581
 30
0.0
 11
114.4134629829
 21
194.7655859609
 31
0.0
  0
LINE
  5
D7
330
C9
100
AcDbEntity
  8
SLD-0
 62
     7
100
AcDbLine
 10
126.9134629829
 20
193.7655859609
 30
0.0
 11
131.9134629829
 21
193.7655859609
 31
0.0
  0
LINE
  5
D8
330
C9
100
AcDbEntity
  8
SLD-0
 62
     7
100
AcDbLine
 10
126.9134629829
 20
193.7655859609
 30
0.0
 11
114.4134629829
 21
193.7655859609
 31
0.0
  0
LINE
  5
D9
330
C9
100
AcDbEntity
  8
SLD-0
 62
     7
100
AcDbLine
 10
114.4134629829
 20
193.7655859609
 30
0.0
 11
109.4134629829
 21
193.7655859609
 31
0.0
  0
LINE
  5
DA
330
C9
100
AcDbEntity
  8
SLD-0
 62
     7
100
AcDbLine
 10
129.9134629829
 20
192.9617389609
 30
0.0
 11
126.9134629829
 21
193.7655859609
 31
0.0
  0
LINE
  5
DB
330
C9
100
AcDbEntity
  8
SLD-0
 62
     7
100
AcDbLine
 10
126.9134629829
 20
193.7655859609
 30
0.0
 11
129.9134629829
 21
194.5694329609
 31
0.0
  0
LINE
  5
DC
330
C9
100
AcDbEntity
  8
SLD-0
 62
     7
100
AcDbLine
 10
126.9134629829
 20
193.7655859609
 30
0.0
 11
129.9134629829
 21
193.7655859609
 31
0.0
  0
LINE
  5
DD
330
C9
100
AcDbEntity
  8
SLD-0
 62
     7
100
AcDbLine
 10
111.4134629829
 20
194.5694329609
 30
0.0
 11
114.4134629829
 21
193.7655859609
 31
0.0
  0
LINE
  5
DE
330
C9
100
AcDbEntity
  8
SLD-0
 62
     7
100
AcDbLine
 10
114.4134629829
 20
193.7655859609
 30
0.0
 11
111.4134629829
 21
192.9617389609
 31
0.0
  0
LINE
  5
DF
330
C9
100
AcDbEntity
  8
SLD-0
 62
     7
100
AcDbLine
 10
114.4134629829
 20
193.7655859609
 30
0.0
 11
111.4134629829
 21
193.7655859609
 31
0.0
  0
MTEXT
  5
E0
330
C9
100
AcDbEntity
  8
SLD-0
 62
     7
100
AcDbMText
 10
116.5910147786
 20
198.2922796568
 30
0.1
 40
3.5
 41
0.0
 71
     1
 72
     1
  1
12.5
  7
SLDTEXTSTYLE0
 73
     1
 44
1.0
  0
ENDBLK
  5
D4
330
C9
100
AcDbEntity
  8
0
100
AcDbBlockEnd
  0
BLOCK
  5
E9
330
E2
100
AcDbEntity
  8
0
100
AcDbBlockBegin
  2
*D10
 70
     1
 71
     0
 10
0.0
 20
0.0
 30
0.0
  3
*D10
  1

  0
LINE
  5
EC
330
E2
100
AcDbEntity
  8
SLD-0
 62
     7
100
AcDbLine
 10
88.5604142728
 20
166.0123190299
 30
0.0
 11
82.6440190827
 21
144.2619672526
 31
0.0
  0
LINE
  5
ED
330
E2
100
AcDbEntity
  8
SLD-0
 62
     7
100
AcDbLine
 10
82.6440190827
 20
144.2619672526
 30
0.0
 11
63.8334797516
 21
144.2619672526
 31
0.0
  0
LINE
  5
EE
330
E2
100
AcDbEntity
  8
SLD-0
 62
     7
100
AcDbLine
 10
86.9973218739
 20
163.3284948643
 30
0.0
 11
88.5604142728
 21
166.0123190299
 31
0.0
  0
LINE
  5
EF
330
E2
100
AcDbEntity
  8
SLD-0
 62
     7
100
AcDbLine
 10
88.5604142728
 20
166.0123190299
 30
0.0
 11
88.5486475145
 21
162.906512928
 31
0.0
  0
LINE
  5
F0
330
E2
100
AcDbEntity
  8
SLD-0
 62
     7
100
AcDbLine
 10
88.5604142728
 20
166.0123190299
 30
0.0
 11
87.7729846942
 21
163.1175038961
 31
0.0
  0
MTEXT
  5
F1
330
E2
100
AcDbEntity
  8
SLD-0
 62
     7
100
AcDbMText
 10
65.4209797516
 20
148.7886609485
 30
0.1
 40
3.5
 41
0.0
 71
     1
 72
     1
  1
2-
  7
SLDTEXTSTYLE0
 73
     1
 44
1.0
  0
MTEXT
  5
F2
330
E2
100
AcDbEntity
  8
SLD-0
 62
     7
100
AcDbMText
 10
67.7445907466
 20
148.7886607157
 30
0.1
 40
3.5
 41
0.0
 71
     1
 72
     1
  1
%%c
  7
SLDTEXTSTYLE0
 73
     1
 44
1.0
  0
MTEXT
  5
F3
330
E2
100
AcDbEntity
  8
SLD-0
 62
     7
100
AcDbMText
 10
73.3624656359
 20
148.7886609485
 30
0.1
 40
3.5
 41
0.0
 71
     1
 72
     1
  1
6.5
  7
SLDTEXTSTYLE0
 73
     1
 44
1.0
  0
ENDBLK
  5
EA
330
E2
100
AcDbEntity
  8
0
100
AcDbBlockEnd
  0
BLOCK
  5
100
330
F5
100
AcDbEntity
  8
0
100
AcDbBlockBegin
  2
*D11
 70
     1
 71
     0
 10
0.0
 20
0.0
 30
0.0
  3
*D11
  1

  0
LINE
  5
102
330
F5
100
AcDbEntity
  8
SLD-0
 62
     7
100
AcDbLine
 10
127.9134629829
 20
119.8059691913
 30
0.0
 11
141.9133089393
 21
119.8059691913
 31
0.0
  0
LINE
  5
103
330
F5
100
AcDbEntity
  8
SLD-0
 62
     7
100
AcDbLine
 10
127.9134629829
 20
124.8059691913
 30
0.0
 11
141.9133089393
 21
124.8059691913
 31
0.0
  0
LINE
  5
104
330
F5
100
AcDbEntity
  8
SLD-0
 62
     7
100
AcDbLine
 10
140.9133089393
 20
119.8059691913
 30
0.0
 11
140.9133089393
 21
114.8059691913
 31
0.0
  0
LINE
  5
105
330
F5
100
AcDbEntity
  8
SLD-0
 62
     7
100
AcDbLine
 10
140.9133089393
 20
119.8059691913
 30
0.0
 11
140.9133089393
 21
124.8059691913
 31
0.0
  0
LINE
  5
106
330
F5
100
AcDbEntity
  8
SLD-0
 62
     7
100
AcDbLine
 10
140.9133089393
 20
124.8059691913
 30
0.0
 11
140.9133089393
 21
129.8059691913
 31
0.0
  0
LINE
  5
107
330
F5
100
AcDbEntity
  8
SLD-0
 62
     7
100
AcDbLine
 10
140.1094619393
 20
116.8059691913
 30
0.0
 11
140.9133089393
 21
119.8059691913
 31
0.0
  0
LINE
  5
108
330
F5
100
AcDbEntity
  8
SLD-0
 62
     7
100
AcDbLine
 10
140.9133089393
 20
119.8059691913
 30
0.0
 11
141.7171559393
 21
116.8059691913
 31
0.0
  0
LINE
  5
109
330
F5
100
AcDbEntity
  8
SLD-0
 62
     7
100
AcDbLine
 10
140.9133089393
 20
119.8059691913
 30
0.0
 11
140.9133089393
 21
116.8059691913
 31
0.0
  0
LINE
  5
10A
330
F5
100
AcDbEntity
  8
SLD-0
 62
     7
100
AcDbLine
 10
141.7171559393
 20
127.8059691913
 30
0.0
 11
140.9133089393
 21
124.8059691913
 31
0.0
  0
LINE
  5
10B
330
F5
100
AcDbEntity
  8
SLD-0
 62
     7
100
AcDbLine
 10
140.9133089393
 20
124.8059691913
 30
0.0
 11
140.1094619393
 21
127.8059691913
 31
0.0
  0
LINE
  5
10C
330
F5
100
AcDbEntity
  8
SLD-0
 62
     7
100
AcDbLine
 10
140.9133089393
 20
124.8059691913
 30
0.0
 11
140.9133089393
 21
127.8059691913
 31
0.0
  0
MTEXT
  5
10D
330
F5
100
AcDbEntity
  8
SLD-0
 62
     7
100
AcDbMText
 10
136.3866152433
 20
121.28891657
 30
0.1
 40
3.5
 41
0.0
 71
     1
 72
     1
  1
5
  7
SLDTEXTSTYLE0
 11
6.123031769111886E-17
 21
1.0
 31
0.0
 73
     1
 44
1.0
  0
ENDBLK
  5
101
330
F5
100
AcDbEntity
  8
0
100
AcDbBlockEnd
  0
ENDSEC
  0
SECTION
  2
ENTITIES
  0
LINE
  5
4D
330
1F
100
AcDbEntity
  8
SLD-0
  6
Continuous
 62
   179
100
AcDbLine
 10
20.2604743903
 20
285.0
 30
0.0
 11
196.7604743903
 21
285.0
 31
0.0
  0
LINE
  5
4E
330
1F
100
AcDbEntity
  8
SLD-0
  6
Continuous
 62
   179
100
AcDbLine
 10
20.2604743903
 20
285.0
 30
0.0
 11
20.2604743903
 21
10.0
 31
0.0
  0
LINE
  5
4F
330
1F
100
AcDbEntity
  8
SLD-0
  6
Continuous
 62
   179
100
AcDbLine
 10
20.2604743903
 20
10.0
 30
0.0
 11
196.7604743903
 21
10.0
 31
0.0
  0
LINE
  5
50
330
1F
100
AcDbEntity
  8
SLD-0
  6
Continuous
 62
   179
100
AcDbLine
 10
196.7604743903
 20
285.0
 30
0.0
 11
196.7604743903
 21
10.0
 31
0.0
  0
LINE
  5
51
330
1F
100
AcDbEntity
  8
SLD-0
  6
Continuous
 62
   179
100
AcDbLine
 10
127.0104743903
 20
50.75
 30
0.0
 11
196.7604743903
 21
50.75
 31
0.0
  0
LINE
  5
52
330
1F
100
AcDbEntity
  8
SLD-0
  6
Continuous
 62
   179
100
AcDbLine
 10
127.0104743903
 20
50.75
 30
0.0
 11
127.0104743903
 21
10.0
 31
0.0
  0
LINE
  5
53
330
1F
100
AcDbEntity
  8
SLD-0
  6
Continuous
 62
   179
100
AcDbLine
 10
127.0104743903
 20
22.75
 30
0.0
 11
196.7604743903
 21
22.75
 31
0.0
  0
LINE
  5
54
330
1F
100
AcDbEntity
  8
SLD-0
  6
Continuous
 62
   179
100
AcDbLine
 10
127.0104743903
 20
36.75
 30
0.0
 11
196.7604743903
 21
36.75
 31
0.0
  0
LINE
  5
55
330
1F
100
AcDbEntity
  8
SLD-0
  6
Continuous
 62
   179
100
AcDbLine
 10
126.9134633554
 20
181.6483689444
 30
0.0
 11
76.9134626104
 21
181.6483689444
 31
0.0
  0
LINE
  5
56
330
1F
100
AcDbEntity
  8
SLD-0
  6
Continuous
 62
   179
100
AcDbLine
 10
126.9134633554
 20
156.6483685719
 30
0.0
 11
126.9134633554
 21
181.6483689444
 31
0.0
  0
LINE
  5
57
330
1F
100
AcDbEntity
  8
SLD-0
  6
Continuous
 62
   179
100
AcDbLine
 10
76.9134626104
 20
156.6483685719
 30
0.0
 11
126.9134633554
 21
156.6483685719
 31
0.0
  0
LINE
  5
58
330
1F
100
AcDbEntity
  8
SLD-0
  6
Continuous
 62
   179
100
AcDbLine
 10
76.9134626104
 20
181.6483689444
 30
0.0
 11
76.9134626104
 21
156.6483685719
 31
0.0
  0
LINE
  5
59
330
1F
100
AcDbEntity
  8
SLD-0
  6
Continuous
 62
   179
100
AcDbLine
 10
76.9134626104
 20
124.8059690795
 30
0.0
 11
126.9134633554
 21
124.8059690795
 31
0.0
  0
LINE
  5
5A
330
1F
100
AcDbEntity
  8
SLD-0
  6
Continuous
 62
   179
100
AcDbLine
 10
126.9134633554
 20
124.8059690795
 30
0.0
 11
126.9134633554
 21
119.8059691913
 31
0.0
  0
LINE
  5
5B
330
1F
100
AcDbEntity
  8
SLD-0
  6
Continuous
 62
   179
100
AcDbLine
 10
76.9134626104
 20
119.8059691913
 30
0.0
 11
126.9134633554
 21
119.8059691913
 31
0.0
  0
LINE
  5
5C
330
1F
100
AcDbEntity
  8
SLD-0
  6
Continuous
 62
   179
100
AcDbLine
 10
76.9134626104
 20
124.8059690795
 30
0.0
 11
76.9134626104
 21
119.8059691913
 31
0.0
  0
LINE
  5
5D
330
1F
100
AcDbEntity
  8
SLD-0
  6
CENTERX2
 62
   179
100
AcDbLine
 10
114.4134629829
 20
117.8059691913
 30
0.0
 11
114.4134629829
 21
126.8059691913
 31
0.0
  0
LINE
  5
5E
330
1F
100
AcDbEntity
  8
SLD-0
  6
CENTERX2
 62
   179
100
AcDbLine
 10
89.4134629829
 20
117.8059691913
 30
0.0
 11
89.4134629829
 21
126.8059691913
 31
0.0
  0
CIRCLE
  5
5F
330
1F
100
AcDbEntity
  8
SLD-0
  6
Continuous
 62
   179
100
AcDbCircle
 10
114.4134629829
 20
169.1483687581
 30
0.0
 40
3.250000000000014
  0
CIRCLE
  5
60
330
1F
100
AcDbEntity
  8
SLD-0
  6
Continuous
 62
   179
100
AcDbCircle
 10
89.4134629829
 20
169.1483687581
 30
0.0
 40
3.25
  0
DIMENSION
  5
61
330
1F
100
AcDbEntity
  8
SLD-0
 62
     7
100
AcDbDimension
  2
*D4
 10
151.4707474071
 20
181.6483687581
 30
0.0
 11
151.4707474071
 21
169.1483687581
 31
0.0
 70
   160
 71
     1
 42
25.0
  3
SLDDIMSTYLE0
100
AcDbAlignedDimension
 13
126.9134629829
 23
156.6483687581
 33
0.0
 14
126.9134629829
 24
181.6483687581
 34
0.0
 50
90.0
100
AcDbRotatedDimension
1001
ACAD
1000
DSTYLE
1002
{
1070
    77
1070
     3
1070
   143
1040
0.0393700787
1070
    41
1040
3.0
1070
    44
1040
1.0
1070
    42
1040
1.0
1070
   147
1040
1.524
1070
    73
1070
     0
1070
    74
1070
     0
1070
   140
1040
3.5
1070
   284
1070
    12
1070
    78
1070
    12
1002
}
  0
DIMENSION
  5
7F
330
1F
100
AcDbEntity
  8
SLD-0
 62
     7
100
AcDbDimension
  2
*D6
 10
126.9134629829
 20
203.5293080546
 30
0.0
 11
101.9134629829
 21
203.5293080546
 31
0.0
 70
   160
 71
     1
 42
50.0
  3
SLDDIMSTYLE0
100
AcDbAlignedDimension
 13
76.9134629829
 23
181.6483687581
 33
0.0
 14
126.9134629829
 24
181.6483687581
 34
0.0
100
AcDbRotatedDimension
1001
ACAD
1000
DSTYLE
1002
{
1070
    77
1070
     3
1070
   143
1040
0.0393700787
1070
    41
1040
3.0
1070
    44
1040
1.0
1070
    42
1040
1.0
1070
   147
1040
1.524
1070
    73
1070
     0
1070
    74
1070
     0
1070
   140
1040
3.5
1070
   284
1070
    12
1070
    78
1070
    12
1002
}
  0
DIMENSION
  5
96
330
1F
100
AcDbEntity
  8
SLD-0
 62
     7
100
AcDbDimension
  2
*D7
 10
89.4134629829
 20
193.7655859609
 30
0.0
 11
101.9134629829
 21
193.7655859609
 31
0.0
 70
   160
 71
     1
 42
25.0
  3
SLDDIMSTYLE0
100
AcDbAlignedDimension
 13
114.4134629829
 23
169.1483687581
 33
0.0
 14
89.4134629829
 24
169.1483687581
 34
0.0
100
AcDbRotatedDimension
1001
ACAD
1000
DSTYLE
1002
{
1070
    77
1070
     3
1070
   143
1040
0.0393700787
1070
    41
1040
3.0
1070
    44
1040
1.0
1070
    42
1040
1.0
1070
   147
1040
1.524
1070
    73
1070
     0
1070
    74
1070
     0
1070
   140
1040
3.5
1070
   284
1070
    12
1070
    78
1070
    12
1002
}
  0
DIMENSION
  5
AD
330
1F
100
AcDbEntity
  8
SLD-0
 62
     7
100
AcDbDimension
  2
*D8
 10
141.4509004894
 20
181.6483687581
 30
0.0
 11
141.4509004894
 21
175.3983687581
 31
0.0
 70
   160
 71
     1
 42
12.5
  3
SLDDIMSTYLE1
100
AcDbAlignedDimension
 13
120.1634629829
 23
169.1483687581
 33
0.0
 14
126.9134629829
 24
181.6483687581
 34
0.0
 50
90.0
100
AcDbRotatedDimension
1001
ACAD
1000
DSTYLE
1002
{
1070
    77
1070
     3
1070
   143
1040
0.0393700787
1070
    41
1040
3.0
1070
    44
1040
1.0
1070
    42
1040
1.0
1070
   147
1040
1.524
1070
    73
1070
     0
1070
    74
1070
     0
1070
   140
1040
3.5
1070
   284
1070
    12
1070
    78
1070
    12
1002
}
  0
DIMENSION
  5
C8
330
1F
100
AcDbEntity
  8
SLD-0
 62
     7
100
AcDbDimension
  2
*D9
 10
126.9134629829
 20
193.7655859609
 30
0.0
 11
120.6634629829
 21
193.7655859609
 31
0.0
 70
   160
 71
     1
 42
12.5
  3
SLDDIMSTYLE1
100
AcDbAlignedDimension
 13
114.4134629829
 23
174.8983687581
 33
0.0
 14
126.9134629829
 24
181.6483687581
 34
0.0
100
AcDbRotatedDimension
1001
ACAD
1000
DSTYLE
1002
{
1070
    77
1070
     3
1070
   143
1040
0.0393700787
1070
    41
1040
3.0
1070
    44
1040
1.0
1070
    42
1040
1.0
1070
   147
1040
1.524
1070
    73
1070
     0
1070
    74
1070
     0
1070
   140
1040
3.5
1070
   284
1070
    12
1070
    78
1070
    12
1002
}
  0
DIMENSION
  5
E1
330
1F
100
AcDbEntity
  8
SLD-0
 62
     7
100
AcDbDimension
  2
*D10
 10
3.0376689552
 20
5.7465255395
 30
0.0
 11
72.4449994171
 21
-5.3044858379
 31
0.0
 70
   163
  1
2-<>
 71
     1
 42
6.4999991121
  3
SLDDIMSTYLE2
100
AcDbDiametricDimension
 15
0.0
 25
0.0
 35
0.0
 40
0.0
1001
ACAD
1000
DSTYLE
1002
{
1070
    77
1070
     0
1070
   143
1040
0.0393700787
1070
    41
1040
3.0
1070
    44
1040
1.0
1070
    42
1040
1.0
1070
   147
1040
1.524
1070
    73
1070
     1
1070
    74
1070
     1
1070
   140
1040
3.5
1070
   284
1070
    12
1070
    78
1070
    12
1002
}
  0
DIMENSION
  5
F4
330
1F
100
AcDbEntity
  8
SLD-0
 62
     7
100
AcDbDimension
  2
*D11
 10
140.9133089393
 20
119.8059691913
 30
0.0
 11
140.9133089393
 21
122.3059691913
 31
0.0
 70
   160
 71
     1
 42
5.0
  3
SLDDIMSTYLE0
100
AcDbAlignedDimension
 13
126.9134629829
 23
124.8059691913
 33
0.0
 14
126.9134629829
 24
119.8059691913
 34
0.0
 50
90.0
100
AcDbRotatedDimension
1001
ACAD
1000
DSTYLE
1002
{
1070
    77
1070
     3
1070
   143
1040
0.0393700787
1070
    41
1040
3.0
1070
    44
1040
1.0
1070
    42
1040
1.0
1070
   147
1040
1.524
1070
    73
1070
     0
1070
    74
1070
     0
1070
   140
1040
3.5
1070
   284
1070
    12
1070
    78
1070
    12
1002
}
  0
MTEXT
  5
10E
330
1F
100
AcDbEntity
  8
SLD-0
 62
     7
100
AcDbMText
 10
147.3863054532
 20
29.7138882404
 30
0.0
 40
4.2333333333
 41
0.0
 71
     1
 72
     1
  1
N01918-101-0
  7
SLDTEXTSTYLE1
 73
     1
 44
1.0
  0
MTEXT
  5
110
330
1F
100
AcDbEntity
  8
SLD-0
 62
     7
100
AcDbMText
 10
142.8723192423
 20
43.2377018572
 30
0.0
 40
4.2333333333
 41
0.0
 71
     1
 72
     1
  1
25 Spacer t5-P25
  7
SLDTEXTSTYLE2
 73
     1
 44
1.0
  0
INSERT
  5
111
330
1F
100
AcDbEntity
  8
0
  6
Continuous
 62
     7
370
     0
100
AcDbBlockReference
  2
SW_CENTERMARK0
 10
0.0
 20
0.0
 30
0.0
  0
INSERT
  5
112
330
1F
100
AcDbEntity
  8
0
  6
Continuous
 62
     7
370
     0
100
AcDbBlockReference
  2
SW_CENTERMARK1
 10
0.0
 20
0.0
 30
0.0
  0
ENDSEC
  0
SECTION
  2
OBJECTS
  0
DICTIONARY
  5
C
330
0
100
AcDbDictionary
281
     1
  3
ACAD_GROUP
350
D
  3
ACAD_LAYOUT
350
1A
  3
ACAD_MLINESTYLE
350
17
  3
ACAD_PLOTSETTINGS
350
19
  3
ACAD_PLOTSTYLENAME
350
E
  0
DICTIONARY
  5
D
102
{ACAD_REACTORS
330
C
102
}
330
C
100
AcDbDictionary
281
     1
  0
DICTIONARY
  5
1A
102
{ACAD_REACTORS
330
C
102
}
330
C
100
AcDbDictionary
281
     1
  3
Layout1
350
1E
  3
Layout2
350
26
  3
Model
350
22
  0
DICTIONARY
  5
17
102
{ACAD_REACTORS
330
C
102
}
330
C
100
AcDbDictionary
281
     1
  3
Standard
350
18
  0
DICTIONARY
  5
19
102
{ACAD_REACTORS
330
C
102
}
330
C
100
AcDbDictionary
281
     1
  0
ACDBDICTIONARYWDFLT
  5
E
102
{ACAD_REACTORS
330
C
102
}
330
C
100
AcDbDictionary
281
     1
  3
Normal
350
F
100
AcDbDictionaryWithDefault
340
F
  0
LAYOUT
  5
1E
102
{ACAD_REACTORS
330
1A
102
}
330
1A
100
AcDbPlotSettings
  1

  2

  4

  6

 40
0.0
 41
0.0
 42
0.0
 43
0.0
 44
0.0
 45
0.0
 46
0.0
 47
0.0
 48
0.0
 49
0.0
140
0.0
141
0.0
142
1.0
143
1.0
 70
   688
 72
     0
 73
     0
 74
     5
  7

 75
    16
147
1.0
148
0.0
149
0.0
100
AcDbLayout
  1
Layout1
 70
     1
 71
     1
 10
0.0
 20
0.0
 11
0.0
 21
0.0
 12
0.0
 22
0.0
 32
0.0
 14
0.0
 24
0.0
 34
0.0
 15
0.0
 25
0.0
 35
0.0
146
0.0
 13
0.0
 23
0.0
 33
0.0
 16
1.0
 26
0.0
 36
0.0
 17
0.0
 27
1.0
 37
0.0
 76
     0
330
1B
  0
LAYOUT
  5
26
102
{ACAD_REACTORS
330
1A
102
}
330
1A
100
AcDbPlotSettings
  1

  2

  4

  6

 40
0.0
 41
0.0
 42
0.0
 43
0.0
 44
0.0
 45
0.0
 46
0.0
 47
0.0
 48
0.0
 49
0.0
140
0.0
141
0.0
142
1.0
143
1.0
 70
   688
 72
     0
 73
     0
 74
     5
  7

 75
    16
147
1.0
148
0.0
149
0.0
100
AcDbLayout
  1
Layout2
 70
     1
 71
     2
 10
0.0
 20
0.0
 11
0.0
 21
0.0
 12
0.0
 22
0.0
 32
0.0
 14
0.0
 24
0.0
 34
0.0
 15
0.0
 25
0.0
 35
0.0
146
0.0
 13
0.0
 23
0.0
 33
0.0
 16
1.0
 26
0.0
 36
0.0
 17
0.0
 27
1.0
 37
0.0
 76
     0
330
23
  0
LAYOUT
  5
22
102
{ACAD_REACTORS
330
1A
102
}
330
1A
100
AcDbPlotSettings
  1

  2

  4

  6

 40
0.0
 41
0.0
 42
0.0
 43
0.0
 44
0.0
 45
0.0
 46
0.0
 47
0.0
 48
0.0
 49
0.0
140
0.0
141
0.0
142
1.0
143
1.0
 70
  1712
 72
     0
 73
     0
 74
     0
  7

 75
     0
147
1.0
148
0.0
149
0.0
100
AcDbLayout
  1
Model
 70
     1
 71
     0
 10
0.0
 20
0.0
 11
0.0
 21
0.0
 12
0.0
 22
0.0
 32
0.0
 14
0.0
 24
0.0
 34
0.0
 15
210.0
 25
297.0
 35
0.0
146
0.0
 13
0.0
 23
0.0
 33
0.0
 16
1.0
 26
0.0
 36
0.0
 17
0.0
 27
1.0
 37
0.0
 76
     0
330
1F
  0
MLINESTYLE
  5
18
102
{ACAD_REACTORS
330
17
102
}
330
17
100
AcDbMlineStyle
  2
Standard
 70
     0
  3

 62
   256
 51
90.0
 52
90.0
 71
     2
 49
0.5
 62
   256
  6
BYLAYER
 49
-0.5
 62
   256
  6
BYLAYER
  0
ACDBPLACEHOLDER
  5
F
102
{ACAD_REACTORS
330
E
102
}
330
E
  0
ENDSEC
  0
EOF
