  0
SECTION
  2
HEADER
  9
$ACADVER
  1
AC1015
  9
$ACADMAINTVER
 70
     6
  9
$DWGCODEPAGE
  3
DOS932
  9
$INSBASE
 10
0.0
 20
0.0
 30
0.0
  9
$EXTMIN
 10
0.0
 20
0.0
 30
0.0
  9
$EXTMAX
 10
210.0
 20
297.0
 30
0.0
  9
$LIMMIN
 10
0.0
 20
0.0
  9
$LIMMAX
 10
0.0
 20
0.0
  9
$ORTHOMODE
 70
     0
  9
$REGENMODE
 70
     1
  9
$FILLMODE
 70
     1
  9
$QTEXTMODE
 70
     0
  9
$MIRRTEXT
 70
     1
  9
$LTSCALE
 40
1.0
  9
$ATTMODE
 70
     1
  9
$TEXTSIZE
 40
3.5
  9
$TRACEWID
 40
1.0
  9
$TEXTSTYLE
  7
Standard
  9
$CLAYER
  8
0
  9
$CELTYPE
  6
ByLayer
  9
$CECOLOR
 62
   256
  9
$CELTSCALE
 40
1.0
  9
$DISPSILH
 70
     0
  9
$DIMSCALE
 40
1.0
  9
$DIMASZ
 40
3.0
  9
$DIMEXO
 40
1.0
  9
$DIMDLI
 40
3.75
  9
$DIMRND
 40
0.0
  9
$DIMDLE
 40
0.0
  9
$DIMEXE
 40
1.0
  9
$DIMTP
 40
0.0
  9
$DIMTM
 40
0.0
  9
$DIMTXT
 40
3.5
  9
$DIMCEN
 40
2.5
  9
$DIMTSZ
 40
0.0
  9
$DIMTOL
 70
     0
  9
$DIMLIM
 70
     0
  9
$DIMTIH
 70
     1
  9
$DIMTOH
 70
     1
  9
$DIMSE1
 70
     0
  9
$DIMSE2
 70
     0
  9
$DIMTAD
 70
     1
  9
$DIMZIN
 70
     1
  9
$DIMBLK
  1

  9
$DIMASO
 70
     1
  9
$DIMSHO
 70
     1
  9
$DIMPOST
  1

  9
$DIMAPOST
  1

  9
$DIMALT
 70
     0
  9
$DIMALTD
 70
     3
  9
$DIMALTF
 40
0.0393700787
  9
$DIMLFAC
 40
1.0
  9
$DIMTOFL
 70
     1
  9
$DIMTVP
 40
0.0
  9
$DIMTIX
 70
     0
  9
$DIMSOXD
 70
     0
  9
$DIMSAH
 70
     0
  9
$DIMBLK1
  1

  9
$DIMBLK2
  1

  9
$DIMSTYLE
  2
ISO-25
  9
$DIMCLRD
 70
     0
  9
$DIMCLRE
 70
     0
  9
$DIMCLRT
 70
     0
  9
$DIMTFAC
 40
1.0
  9
$DIMGAP
 40
1.524
  9
$DIMJUST
 70
     0
  9
$DIMSD1
 70
     0
  9
$DIMSD2
 70
     0
  9
$DIMTOLJ
 70
     0
  9
$DIMTZIN
 70
     1
  9
$DIMALTZ
 70
     0
  9
$DIMALTTZ
 70
     0
  9
$DIMUPT
 70
     0
  9
$DIMDEC
 70
     2
  9
$DIMTDEC
 70
     2
  9
$DIMALTU
 70
     2
  9
$DIMALTTD
 70
     3
  9
$DIMTXSTY
  7
Standard
  9
$DIMAUNIT
 70
     0
  9
$DIMADEC
 70
     0
  9
$DIMALTRND
 40
0.0
  9
$DIMAZIN
 70
     0
  9
$DIMDSEP
 70
    44
  9
$DIMATFIT
 70
     3
  9
$DIMFRAC
 70
     0
  9
$DIMLDRBLK
  1

  9
$DIMLUNIT
 70
     2
  9
$DIMLWD
 70
    -2
  9
$DIMLWE
 70
    -2
  9
$DIMTMOVE
 70
     0
  9
$LUNITS
 70
     2
  9
$LUPREC
 70
     1
  9
$SKETCHINC
 40
1.0
  9
$FILLETRAD
 40
10.0
  9
$AUNITS
 70
     0
  9
$AUPREC
 70
     0
  9
$MENU
  1
.
  9
$ELEVATION
 40
0.0
  9
$PELEVATION
 40
0.0
  9
$THICKNESS
 40
0.0
  9
$LIMCHECK
 70
     0
  9
$CHAMFERA
 40
10.0
  9
$CHAMFERB
 40
10.0
  9
$CHAMFERC
 40
20.0
  9
$CHAMFERD
 40
0.0
  9
$SKPOLY
 70
     0
  9
$TDCREATE
 40
2454322.46999529
  9
$TDUCREATE
 40
2454322.09499529
  9
$TDUPDATE
 40
2454322.469995301
  9
$TDUUPDATE
 40
2454322.094995301
  9
$TDINDWG
 40
0.0000000116
  9
$TDUSRTIMER
 40
0.0000000116
  9
$USRTIMER
 70
     1
  9
$ANGBASE
 50
0.0
  9
$ANGDIR
 70
     0
  9
$PDMODE
 70
     0
  9
$PDSIZE
 40
-1.0
  9
$PLINEWID
 40
0.0
  9
$SPLFRAME
 70
     0
  9
$SPLINETYPE
 70
     6
  9
$SPLINESEGS
 70
     8
  9
$HANDSEED
  5
10D
  9
$SURFTAB1
 70
     6
  9
$SURFTAB2
 70
     6
  9
$SURFTYPE
 70
     6
  9
$SURFU
 70
     6
  9
$SURFV
 70
     6
  9
$UCSBASE
  2

  9
$UCSNAME
  2

  9
$UCSORG
 10
0.0
 20
0.0
 30
0.0
  9
$UCSXDIR
 10
1.0
 20
0.0
 30
0.0
  9
$UCSYDIR
 10
0.0
 20
1.0
 30
0.0
  9
$UCSORTHOREF
  2

  9
$UCSORTHOVIEW
 70
     0
  9
$UCSORGTOP
 10
0.0
 20
0.0
 30
0.0
  9
$UCSORGBOTTOM
 10
0.0
 20
0.0
 30
0.0
  9
$UCSORGLEFT
 10
0.0
 20
0.0
 30
0.0
  9
$UCSORGRIGHT
 10
0.0
 20
0.0
 30
0.0
  9
$UCSORGFRONT
 10
0.0
 20
0.0
 30
0.0
  9
$UCSORGBACK
 10
0.0
 20
0.0
 30
0.0
  9
$PUCSBASE
  2

  9
$PUCSNAME
  2

  9
$PUCSORG
 10
0.0
 20
0.0
 30
0.0
  9
$PUCSXDIR
 10
1.0
 20
0.0
 30
0.0
  9
$PUCSYDIR
 10
0.0
 20
1.0
 30
0.0
  9
$PUCSORTHOREF
  2

  9
$PUCSORTHOVIEW
 70
     0
  9
$PUCSORGTOP
 10
0.0
 20
0.0
 30
0.0
  9
$PUCSORGBOTTOM
 10
0.0
 20
0.0
 30
0.0
  9
$PUCSORGLEFT
 10
0.0
 20
0.0
 30
0.0
  9
$PUCSORGRIGHT
 10
0.0
 20
0.0
 30
0.0
  9
$PUCSORGFRONT
 10
0.0
 20
0.0
 30
0.0
  9
$PUCSORGBACK
 10
0.0
 20
0.0
 30
0.0
  9
$USERI1
 70
     0
  9
$USERI2
 70
     0
  9
$USERI3
 70
     0
  9
$USERI4
 70
     0
  9
$USERI5
 70
     0
  9
$USERR1
 40
0.0
  9
$USERR2
 40
0.0
  9
$USERR3
 40
0.0
  9
$USERR4
 40
0.0
  9
$USERR5
 40
0.0
  9
$WORLDVIEW
 70
     1
  9
$SHADEDGE
 70
     3
  9
$SHADEDIF
 70
    70
  9
$TILEMODE
 70
     1
  9
$MAXACTVP
 70
    64
  9
$PINSBASE
 10
0.0
 20
0.0
 30
0.0
  9
$PLIMCHECK
 70
     0
  9
$PEXTMIN
 10
1.0000000000E+20
 20
1.0000000000E+20
 30
1.0000000000E+20
  9
$PEXTMAX
 10
-1.0000000000E+20
 20
-1.0000000000E+20
 30
-1.0000000000E+20
  9
$PLIMMIN
 10
0.0
 20
0.0
  9
$PLIMMAX
 10
420.0
 20
297.0
  9
$UNITMODE
 70
     0
  9
$VISRETAIN
 70
     1
  9
$PLINEGEN
 70
     0
  9
$PSLTSCALE
 70
     1
  9
$TREEDEPTH
 70
  3020
  9
$CMLSTYLE
  2
Standard
  9
$CMLJUST
 70
     0
  9
$CMLSCALE
 40
20.0
  9
$PROXYGRAPHICS
 70
     1
  9
$MEASUREMENT
 70
     1
  9
$CELWEIGHT
370
    -1
  9
$ENDCAPS
280
     0
  9
$JOINSTYLE
280
     0
  9
$LWDISPLAY
290
     1
  9
$INSUNITS
 70
     4
  9
$HYPERLINKBASE
  1

  9
$STYLESHEET
  1

  9
$XEDIT
290
     1
  9
$CEPSNTYPE
380
     0
  9
$PSTYLEMODE
290
     1
  9
$FINGERPRINTGUID
  2
{DDAA7D63-BC69-49F8-9057-545528B73379}
  9
$VERSIONGUID
  2
{FAEB1C32-E019-11D5-929B-00C0DF256EC4}
  9
$EXTNAMES
290
     1
  9
$PSVPSCALE
 40
0.0
  9
$OLESTARTUP
290
     0
  0
ENDSEC
  0
SECTION
  2
CLASSES
  0
CLASS
  1
ACDBDICTIONARYWDFLT
  2
AcDbDictionaryWithDefault
  3
ObjectDBX Classes
 90
        0
280
     0
281
     0
  0
CLASS
  1
ACDBPLACEHOLDER
  2
AcDbPlaceHolder
  3
ObjectDBX Classes
 90
        0
280
     0
281
     0
  0
CLASS
  1
LAYOUT
  2
AcDbLayout
  3
ObjectDBX Classes
 90
        0
280
     0
281
     0
  0
ENDSEC
  0
SECTION
  2
TABLES
  0
TABLE
  2
VPORT
  5
8
330
0
100
AcDbSymbolTable
 70
     1
  0
VPORT
  5
29
330
8
100
AcDbSymbolTableRecord
100
AcDbViewportTableRecord
  2
*Active
 70
     0
 10
0.0
 20
0.0
 11
1.0
 21
1.0
 12
105.0
 22
148.5
 13
0.0
 23
0.0
 14
10.0
 24
10.0
 15
10.0
 25
10.0
 16
0.0
 26
0.0
 36
1.0
 17
0.0
 27
0.0
 37
0.0
 40
297.0
 41
1.9729729729
 42
50.0
 43
0.0
 44
0.0
 50
0.0
 51
0.0
 71
     0
 72
  2000
 73
     1
 74
     3
 75
     0
 76
     0
 77
     0
 78
     0
281
     0
 65
     1
110
0.0
120
0.0
130
0.0
111
1.0
121
0.0
131
0.0
112
0.0
122
1.0
132
0.0
 79
     0
146
0.0
  0
ENDTAB
  0
TABLE
  2
LTYPE
  5
5
330
0
100
AcDbSymbolTable
 70
     6
  0
LTYPE
  5
14
330
5
100
AcDbSymbolTableRecord
100
AcDbLinetypeTableRecord
  2
ByBlock
 70
     0
  3

 72
    65
 73
     0
 40
0.0
  0
LTYPE
  5
15
330
5
100
AcDbSymbolTableRecord
100
AcDbLinetypeTableRecord
  2
ByLayer
 70
     0
  3

 72
    65
 73
     0
 40
0.0
  0
LTYPE
  5
16
330
5
100
AcDbSymbolTableRecord
100
AcDbLinetypeTableRecord
  2
Continuous
 70
     0
  3
Solid line
 72
    65
 73
     0
 40
0.0
  0
LTYPE
  5
2A
330
5
100
AcDbSymbolTableRecord
100
AcDbLinetypeTableRecord
  2
HIDDEN
 70
     0
  3
Hidden __ __ __ __ __ __ __ __ __ __ __ __ __ __
 72
    65
 73
     2
 40
1.905
 49
1.27
 74
     0
 49
-0.635
 74
     0
  0
LTYPE
  5
2B
330
5
100
AcDbSymbolTableRecord
100
AcDbLinetypeTableRecord
  2
PHANTOM
 70
     0
  3
Phantom ______  __  __  ______  __  __  ______
 72
    65
 73
     6
 40
12.7
 49
6.35
 74
     0
 49
-1.27
 74
     0
 49
1.27
 74
     0
 49
-1.27
 74
     0
 49
1.27
 74
     0
 49
-1.27
 74
     0
  0
LTYPE
  5
2C
330
5
100
AcDbSymbolTableRecord
100
AcDbLinetypeTableRecord
  2
CENTER
 70
     0
  3
Center ____ _ ____ _ ____ _ ____ _ ____ _ ____
 72
    65
 73
     4
 40
10.16
 49
6.35
 74
     0
 49
-1.27
 74
     0
 49
1.27
 74
     0
 49
-1.27
 74
     0
  0
LTYPE
  5
2D
330
5
100
AcDbSymbolTableRecord
100
AcDbLinetypeTableRecord
  2
CENTERX2
 70
     0
  3
Center (2x) ________  __  ________  __  _____
 72
    65
 73
     4
 40
20.32
 49
12.7
 74
     0
 49
-2.54
 74
     0
 49
2.54
 74
     0
 49
-2.54
 74
     0
  0
LTYPE
  5
2E
330
5
100
AcDbSymbolTableRecord
100
AcDbLinetypeTableRecord
  2
DOT2
 70
     0
  3
Dot (.5x) ........................................
 72
    65
 73
     2
 40
0.635
 49
0.0
 74
     0
 49
-0.635
 74
     0
  0
ENDTAB
  0
TABLE
  2
LAYER
  5
2
330
0
100
AcDbSymbolTable
 70
     4
  0
LAYER
  5
10
330
2
100
AcDbSymbolTableRecord
100
AcDbLayerTableRecord
  2
0
 70
     0
 62
     7
  6
Continuous
370
    -3
390
F
  0
LAYER
  5
2F
330
2
100
AcDbSymbolTableRecord
100
AcDbLayerTableRecord
  2
SLD-0
 70
     0
 62
   179
  6
Continuous
370
     0
390
F
  0
LAYER
  5
30
330
2
100
AcDbSymbolTableRecord
100
AcDbLayerTableRecord
  2
SLD-DEFPOINTS
 70
     0
 62
   179
  6
Continuous
370
     0
390
F
  0
LAYER
  5
60
330
2
100
AcDbSymbolTableRecord
100
AcDbLayerTableRecord
  2
Defpoints
 70
     0
 62
     7
  6
Continuous
290
     0
370
    -3
390
F
  0
ENDTAB
  0
TABLE
  2
STYLE
  5
3
330
0
100
AcDbSymbolTable
 70
     3
  0
STYLE
  5
11
330
3
100
AcDbSymbolTableRecord
100
AcDbTextStyleTableRecord
  2
Standard
 70
     0
 40
0.0
 41
1.0
 50
0.0
 71
     0
 42
2.5
  3
txt
  4
bigfont
  0
STYLE
  5
34
330
3
100
AcDbSymbolTableRecord
100
AcDbTextStyleTableRecord
  2
SLDTEXTSTYLE0
 70
     0
 40
0.0
 41
0.7
 50
0.0
 71
     0
 42
0.2
  3
TXT
  4
bigfont
  0
STYLE
  5
6E
330
3
100
AcDbSymbolTableRecord
100
AcDbTextStyleTableRecord
  2
SLDTEXTSTYLE1
 70
     0
 40
0.0
 41
0.5526315789
 50
0.0
 71
     0
 42
0.2
  3
TXT
  4
bigfont
  0
ENDTAB
  0
TABLE
  2
VIEW
  5
6
330
0
100
AcDbSymbolTable
 70
     0
  0
ENDTAB
  0
TABLE
  2
UCS
  5
7
330
0
100
AcDbSymbolTable
 70
     0
  0
ENDTAB
  0
TABLE
  2
APPID
  5
9
330
0
100
AcDbSymbolTable
 70
     1
  0
APPID
  5
12
330
9
100
AcDbSymbolTableRecord
100
AcDbRegAppTableRecord
  2
ACAD
 70
     0
  0
ENDTAB
  0
TABLE
  2
DIMSTYLE
  5
A
330
0
100
AcDbSymbolTable
 70
     4
100
AcDbDimStyleTable
  0
DIMSTYLE
105
27
330
A
100
AcDbSymbolTableRecord
100
AcDbDimStyleTableRecord
  2
ISO-25
 70
     0
 41
2.5
 42
0.625
 43
3.75
 44
1.25
 73
     0
 74
     0
 77
     1
 78
     8
140
2.5
141
2.5
143
0.0393700787
147
0.625
171
     3
172
     1
271
     2
272
     2
274
     3
278
    44
283
     0
284
     8
340
11
  0
DIMSTYLE
105
6F
102
{ACAD_REACTORS
330
5F
330
7F
330
A7
330
BE
330
D8
102
}
330
A
100
AcDbSymbolTableRecord
100
AcDbDimStyleTableRecord
  2
SLDDIMSTYLE0
 70
     0
 41
3.0
 44
0.0
 73
     0
 74
     0
 77
     3
 78
    12
140
3.5
147
0.875
173
     1
271
     0
272
     3
284
    12
340
6E
341
70
343
70
344
70
  0
DIMSTYLE
105
A0
102
{ACAD_REACTORS
330
96
102
}
330
A
100
AcDbSymbolTableRecord
100
AcDbDimStyleTableRecord
  2
SLDDIMSTYLE1
 70
     0
 41
3.0
 44
0.0
 78
    12
140
3.5
147
0.875
173
     1
271
     0
272
     3
284
    12
340
6E
341
70
343
70
344
70
  0
DIMSTYLE
105
FE
102
{ACAD_REACTORS
330
F4
102
}
330
A
100
AcDbSymbolTableRecord
100
AcDbDimStyleTableRecord
  2
SLDDIMSTYLE2
 70
     0
 41
3.0
 44
0.0
 78
    12
140
3.5
147
0.875
172
     1
173
     1
271
     1
272
     3
284
    12
340
6E
341
70
343
70
344
70
  0
ENDTAB
  0
TABLE
  2
BLOCK_RECORD
  5
1
330
0
100
AcDbSymbolTable
 70
    12
  0
BLOCK_RECORD
  5
1F
330
1
100
AcDbSymbolTableRecord
100
AcDbBlockTableRecord
  2
*Model_Space
340
22
  0
BLOCK_RECORD
  5
1B
330
1
100
AcDbSymbolTableRecord
100
AcDbBlockTableRecord
  2
*Paper_Space
340
1E
  0
BLOCK_RECORD
  5
23
330
1
100
AcDbSymbolTableRecord
100
AcDbBlockTableRecord
  2
*Paper_Space0
340
26
  0
BLOCK_RECORD
  5
31
330
1
100
AcDbSymbolTableRecord
100
AcDbBlockTableRecord
  2
注記
340
0
  0
BLOCK_RECORD
  5
37
330
1
100
AcDbSymbolTableRecord
100
AcDbBlockTableRecord
  2
SW_CENTERMARK0
340
0
102
{BLKREFS
331
10B
102
}
  0
BLOCK_RECORD
  5
42
330
1
100
AcDbSymbolTableRecord
100
AcDbBlockTableRecord
  2
SW_CENTERMARK1
340
0
102
{BLKREFS
331
10C
102
}
  0
BLOCK_RECORD
  5
61
330
1
100
AcDbSymbolTableRecord
100
AcDbBlockTableRecord
  2
*D4
340
0
  0
BLOCK_RECORD
  5
70
330
1
100
AcDbSymbolTableRecord
100
AcDbBlockTableRecord
  2
_None
340
0
102
{BLKREFS
331
66
331
65
331
85
331
84
331
9B
331
AD
331
AC
331
C4
331
C3
331
DF
331
DE
331
F9
102
}
  0
BLOCK_RECORD
  5
80
330
1
100
AcDbSymbolTableRecord
100
AcDbBlockTableRecord
  2
*D6
340
0
  0
BLOCK_RECORD
  5
97
330
1
100
AcDbSymbolTableRecord
100
AcDbBlockTableRecord
  2
*D7
340
0
  0
BLOCK_RECORD
  5
A8
330
1
100
AcDbSymbolTableRecord
100
AcDbBlockTableRecord
  2
*D8
340
0
  0
BLOCK_RECORD
  5
BF
330
1
100
AcDbSymbolTableRecord
100
AcDbBlockTableRecord
  2
*D9
340
0
  0
BLOCK_RECORD
  5
D9
330
1
100
AcDbSymbolTableRecord
100
AcDbBlockTableRecord
  2
*D10
340
0
  0
BLOCK_RECORD
  5
F5
330
1
100
AcDbSymbolTableRecord
100
AcDbBlockTableRecord
  2
*D11
340
0
  0
ENDTAB
  0
ENDSEC
  0
SECTION
  2
BLOCKS
  0
BLOCK
  5
20
330
1F
100
AcDbEntity
  8
0
100
AcDbBlockBegin
  2
*Model_Space
 70
     0
 71
     0
 10
0.0
 20
0.0
 30
0.0
  3
*Model_Space
  1

  0
ENDBLK
  5
21
330
1F
100
AcDbEntity
  8
0
100
AcDbBlockEnd
  0
BLOCK
  5
1C
330
1B
100
AcDbEntity
 67
     1
  8
0
100
AcDbBlockBegin
  2
*Paper_Space
 70
     0
 71
     0
 10
0.0
 20
0.0
 30
0.0
  3
*Paper_Space
  1

  0
ENDBLK
  5
1D
330
1B
100
AcDbEntity
 67
     1
  8
0
100
AcDbBlockEnd
  0
BLOCK
  5
24
330
23
100
AcDbEntity
  8
0
100
AcDbBlockBegin
  2
*Paper_Space0
 70
     0
 71
     0
 10
0.0
 20
0.0
 30
0.0
  3
*Paper_Space0
  1

  0
ENDBLK
  5
25
330
23
100
AcDbEntity
  8
0
100
AcDbBlockEnd
  0
BLOCK
  5
32
330
31
100
AcDbEntity
  8
0
100
AcDbBlockBegin
  2
注記
 70
     0
 71
     0
 10
0.0
 20
0.0
 30
0.0
  3
注記
  1

  0
MTEXT
  5
35
330
31
100
AcDbEntity
  8
0
  6
Continuous
 62
     7
370
     0
100
AcDbMText
 10
0.2636785918
 20
9.0739778448
 30
0.0
 40
3.5
 41
0.0
 71
     1
 72
     1
  1
１．特記ナキ角部ハ、バリ　カエリノ無キコト。
  7
SLDTEXTSTYLE0
 73
     1
 44
1.0
  0
MTEXT
  5
36
330
31
100
AcDbEntity
  8
0
  6
Continuous
 62
     7
370
     0
100
AcDbMText
 10
0.2636785918
 20
3.5759549983
 30
0.0
 40
3.5
 41
0.0
 71
     1
 72
     1
  1
２．特記ナキ隅部ハ、Ｒ０．４ＭＡＸトスル。
  7
SLDTEXTSTYLE0
 73
     1
 44
1.0
  0
ENDBLK
  5
33
330
31
100
AcDbEntity
  8
0
100
AcDbBlockEnd
  0
BLOCK
  5
38
330
37
100
AcDbEntity
  8
0
100
AcDbBlockBegin
  2
SW_CENTERMARK0
 70
     0
 71
     0
 10
0.0
 20
0.0
 30
0.0
  3
SW_CENTERMARK0
  1

  0
LINE
  5
3A
330
37
100
AcDbEntity
  8
SLD-0
  6
Continuous
 62
   179
100
AcDbLine
 10
99.9722079589
 20
164.6386521181
 30
0.0
 11
99.9722079589
 21
167.1386521181
 31
0.0
  0
LINE
  5
3B
330
37
100
AcDbEntity
  8
SLD-0
  6
Continuous
 62
   179
100
AcDbLine
 10
99.9722079589
 20
164.6386521181
 30
0.0
 11
97.4722079589
 21
164.6386521181
 31
0.0
  0
LINE
  5
3C
330
37
100
AcDbEntity
  8
SLD-0
  6
Continuous
 62
   179
100
AcDbLine
 10
99.9722079589
 20
164.6386521181
 30
0.0
 11
99.9722079589
 21
162.1386521181
 31
0.0
  0
LINE
  5
3D
330
37
100
AcDbEntity
  8
SLD-0
  6
Continuous
 62
   179
100
AcDbLine
 10
99.9722079589
 20
164.6386521181
 30
0.0
 11
102.4722079589
 21
164.6386521181
 31
0.0
  0
LINE
  5
3E
330
37
100
AcDbEntity
  8
SLD-0
  6
Continuous
 62
   179
100
AcDbLine
 10
99.9722079589
 20
169.6386521181
 30
0.0
 11
99.9722079589
 21
170.3886521181
 31
0.0
  0
LINE
  5
3F
330
37
100
AcDbEntity
  8
SLD-0
  6
Continuous
 62
   179
100
AcDbLine
 10
94.9722079589
 20
164.6386521181
 30
0.0
 11
94.2222079589
 21
164.6386521181
 31
0.0
  0
LINE
  5
40
330
37
100
AcDbEntity
  8
SLD-0
  6
Continuous
 62
   179
100
AcDbLine
 10
99.9722079589
 20
159.6386521181
 30
0.0
 11
99.9722079589
 21
158.8886521181
 31
0.0
  0
LINE
  5
41
330
37
100
AcDbEntity
  8
SLD-0
  6
Continuous
 62
   179
100
AcDbLine
 10
104.9722079589
 20
164.6386521181
 30
0.0
 11
105.7222079589
 21
164.6386521181
 31
0.0
  0
ENDBLK
  5
39
330
37
100
AcDbEntity
  8
0
100
AcDbBlockEnd
  0
BLOCK
  5
43
330
42
100
AcDbEntity
  8
0
100
AcDbBlockBegin
  2
SW_CENTERMARK1
 70
     0
 71
     0
 10
0.0
 20
0.0
 30
0.0
  3
SW_CENTERMARK1
  1

  0
LINE
  5
45
330
42
100
AcDbEntity
  8
SLD-0
  6
Continuous
 62
   179
100
AcDbLine
 10
111.9722079589
 20
164.6386521181
 30
0.0
 11
111.9722079589
 21
167.1386521181
 31
0.0
  0
LINE
  5
46
330
42
100
AcDbEntity
  8
SLD-0
  6
Continuous
 62
   179
100
AcDbLine
 10
111.9722079589
 20
164.6386521181
 30
0.0
 11
109.4722079589
 21
164.6386521181
 31
0.0
  0
LINE
  5
47
330
42
100
AcDbEntity
  8
SLD-0
  6
Continuous
 62
   179
100
AcDbLine
 10
111.9722079589
 20
164.6386521181
 30
0.0
 11
111.9722079589
 21
162.1386521181
 31
0.0
  0
LINE
  5
48
330
42
100
AcDbEntity
  8
SLD-0
  6
Continuous
 62
   179
100
AcDbLine
 10
111.9722079589
 20
164.6386521181
 30
0.0
 11
114.4722079589
 21
164.6386521181
 31
0.0
  0
LINE
  5
49
330
42
100
AcDbEntity
  8
SLD-0
  6
Continuous
 62
   179
100
AcDbLine
 10
111.9722079589
 20
169.6386521181
 30
0.0
 11
111.9722079589
 21
170.3886521181
 31
0.0
  0
LINE
  5
4A
330
42
100
AcDbEntity
  8
SLD-0
  6
Continuous
 62
   179
100
AcDbLine
 10
106.9722079589
 20
164.6386521181
 30
0.0
 11
106.2222079589
 21
164.6386521181
 31
0.0
  0
LINE
  5
4B
330
42
100
AcDbEntity
  8
SLD-0
  6
Continuous
 62
   179
100
AcDbLine
 10
111.9722079589
 20
159.6386521181
 30
0.0
 11
111.9722079589
 21
158.8886521181
 31
0.0
  0
LINE
  5
4C
330
42
100
AcDbEntity
  8
SLD-0
  6
Continuous
 62
   179
100
AcDbLine
 10
116.9722079589
 20
164.6386521181
 30
0.0
 11
117.7222079589
 21
164.6386521181
 31
0.0
  0
ENDBLK
  5
44
330
42
100
AcDbEntity
  8
0
100
AcDbBlockEnd
  0
BLOCK
  5
6C
330
61
100
AcDbEntity
  8
0
100
AcDbBlockBegin
  2
*D4
 70
     1
 71
     0
 10
0.0
 20
0.0
 30
0.0
  3
*D4
  1

  0
LINE
  5
73
330
61
100
AcDbEntity
  8
SLD-0
 62
     7
100
AcDbLine
 10
116.9722079589
 20
170.6386521181
 30
0.0
 11
141.5294923832
 21
170.6386521181
 31
0.0
  0
LINE
  5
74
330
61
100
AcDbEntity
  8
SLD-0
 62
     7
100
AcDbLine
 10
116.9722079589
 20
158.6386521181
 30
0.0
 11
141.5294923832
 21
158.6386521181
 31
0.0
  0
LINE
  5
75
330
61
100
AcDbEntity
  8
SLD-0
 62
     7
100
AcDbLine
 10
140.5294923832
 20
170.6386521181
 30
0.0
 11
140.5294923832
 21
175.6386521181
 31
0.0
  0
LINE
  5
76
330
61
100
AcDbEntity
  8
SLD-0
 62
     7
100
AcDbLine
 10
140.5294923832
 20
170.6386521181
 30
0.0
 11
140.5294923832
 21
158.6386521181
 31
0.0
  0
LINE
  5
77
330
61
100
AcDbEntity
  8
SLD-0
 62
     7
100
AcDbLine
 10
140.5294923832
 20
158.6386521181
 30
0.0
 11
140.5294923832
 21
153.6386521181
 31
0.0
  0
LINE
  5
78
330
61
100
AcDbEntity
  8
SLD-0
 62
     7
100
AcDbLine
 10
141.3333393832
 20
173.6386521181
 30
0.0
 11
140.5294923832
 21
170.6386521181
 31
0.0
  0
LINE
  5
79
330
61
100
AcDbEntity
  8
SLD-0
 62
     7
100
AcDbLine
 10
140.5294923832
 20
170.6386521181
 30
0.0
 11
139.7256453832
 21
173.6386521181
 31
0.0
  0
LINE
  5
7A
330
61
100
AcDbEntity
  8
SLD-0
 62
     7
100
AcDbLine
 10
140.5294923832
 20
170.6386521181
 30
0.0
 11
140.5294923832
 21
173.6386521181
 31
0.0
  0
LINE
  5
7B
330
61
100
AcDbEntity
  8
SLD-0
 62
     7
100
AcDbLine
 10
139.7256453832
 20
155.6386521181
 30
0.0
 11
140.5294923832
 21
158.6386521181
 31
0.0
  0
LINE
  5
7C
330
61
100
AcDbEntity
  8
SLD-0
 62
     7
100
AcDbLine
 10
140.5294923832
 20
158.6386521181
 30
0.0
 11
141.3333393832
 21
155.6386521181
 31
0.0
  0
LINE
  5
7D
330
61
100
AcDbEntity
  8
SLD-0
 62
     7
100
AcDbLine
 10
140.5294923832
 20
158.6386521181
 30
0.0
 11
140.5294923832
 21
155.6386521181
 31
0.0
  0
MTEXT
  5
7E
330
61
100
AcDbEntity
  8
SLD-0
 62
     7
100
AcDbMText
 10
136.0027986872
 20
162.6032168949
 30
0.1
 40
3.5
 41
0.0
 71
     1
 72
     1
  1
12
  7
SLDTEXTSTYLE0
 11
6.123031769111886E-17
 21
1.0
 31
0.0
 73
     1
 44
1.0
  0
ENDBLK
  5
6D
330
61
100
AcDbEntity
  8
0
100
AcDbBlockEnd
  0
BLOCK
  5
71
330
70
100
AcDbEntity
  8
0
100
AcDbBlockBegin
  2
_None
 70
     0
 71
     0
 10
0.0
 20
0.0
 30
0.0
  3
_None
  1

  0
ENDBLK
  5
72
330
70
100
AcDbEntity
  8
0
100
AcDbBlockEnd
  0
BLOCK
  5
8A
330
80
100
AcDbEntity
  8
0
100
AcDbBlockBegin
  2
*D6
 70
     1
 71
     0
 10
0.0
 20
0.0
 30
0.0
  3
*D6
  1

  0
LINE
  5
8C
330
80
100
AcDbEntity
  8
SLD-0
 62
     7
100
AcDbLine
 10
117.9722079589
 20
169.6386521181
 30
0.0
 11
117.9722079589
 21
198.0189200608
 31
0.0
  0
LINE
  5
8D
330
80
100
AcDbEntity
  8
SLD-0
 62
     7
100
AcDbLine
 10
93.9722079589
 20
169.6386521181
 30
0.0
 11
93.9722079589
 21
198.0189200608
 31
0.0
  0
LINE
  5
8E
330
80
100
AcDbEntity
  8
SLD-0
 62
     7
100
AcDbLine
 10
117.9722079589
 20
197.0189200608
 30
0.0
 11
93.9722079589
 21
197.0189200608
 31
0.0
  0
LINE
  5
8F
330
80
100
AcDbEntity
  8
SLD-0
 62
     7
100
AcDbLine
 10
114.9722079589
 20
197.8227670608
 30
0.0
 11
117.9722079589
 21
197.0189200608
 31
0.0
  0
LINE
  5
90
330
80
100
AcDbEntity
  8
SLD-0
 62
     7
100
AcDbLine
 10
117.9722079589
 20
197.0189200608
 30
0.0
 11
114.9722079589
 21
196.2150730608
 31
0.0
  0
LINE
  5
91
330
80
100
AcDbEntity
  8
SLD-0
 62
     7
100
AcDbLine
 10
117.9722079589
 20
197.0189200608
 30
0.0
 11
114.9722079589
 21
197.0189200608
 31
0.0
  0
LINE
  5
92
330
80
100
AcDbEntity
  8
SLD-0
 62
     7
100
AcDbLine
 10
96.9722079589
 20
196.2150730608
 30
0.0
 11
93.9722079589
 21
197.0189200608
 31
0.0
  0
LINE
  5
93
330
80
100
AcDbEntity
  8
SLD-0
 62
     7
100
AcDbLine
 10
93.9722079589
 20
197.0189200608
 30
0.0
 11
96.9722079589
 21
197.8227670608
 31
0.0
  0
LINE
  5
94
330
80
100
AcDbEntity
  8
SLD-0
 62
     7
100
AcDbLine
 10
93.9722079589
 20
197.0189200608
 30
0.0
 11
96.9722079589
 21
197.0189200608
 31
0.0
  0
MTEXT
  5
95
330
80
100
AcDbEntity
  8
SLD-0
 62
     7
100
AcDbMText
 10
103.9367727358
 20
201.5456137567
 30
0.1
 40
3.5
 41
0.0
 71
     1
 72
     1
  1
24
  7
SLDTEXTSTYLE0
 73
     1
 44
1.0
  0
ENDBLK
  5
8B
330
80
100
AcDbEntity
  8
0
100
AcDbBlockEnd
  0
BLOCK
  5
9E
330
97
100
AcDbEntity
  8
0
100
AcDbBlockBegin
  2
*D7
 70
     1
 71
     0
 10
0.0
 20
0.0
 30
0.0
  3
*D7
  1

  0
LINE
  5
A1
330
97
100
AcDbEntity
  8
SLD-0
 62
     7
100
AcDbLine
 10
117.2954050511
 20
159.1389356598
 30
0.0
 11
127.9531035342
 21
147.0594609409
 31
0.0
  0
LINE
  5
A2
330
97
100
AcDbEntity
  8
SLD-0
 62
     7
100
AcDbLine
 10
118.6774294014
 20
156.3575369659
 30
0.0
 11
117.2954050511
 21
159.1389356598
 31
0.0
  0
LINE
  5
A3
330
97
100
AcDbEntity
  8
SLD-0
 62
     7
100
AcDbLine
 10
117.2954050511
 20
159.1389356598
 30
0.0
 11
119.8829719773
 21
157.4211849788
 31
0.0
  0
LINE
  5
A4
330
97
100
AcDbEntity
  8
SLD-0
 62
     7
100
AcDbLine
 10
117.2954050511
 20
159.1389356598
 30
0.0
 11
119.2802006893
 21
156.8893609723
 31
0.0
  0
MTEXT
  5
A5
330
97
100
AcDbEntity
  8
SLD-0
 62
     7
100
AcDbMText
 10
124.8887094778
 20
157.3353987422
 30
0.1
 40
3.5
 41
0.0
 71
     1
 72
     1
  1
4-R
  7
SLDTEXTSTYLE0
 11
0.6615985460667238
 21
-0.7498582291622845
 31
0.0
 73
     1
 44
1.0
  0
MTEXT
  5
A6
330
97
100
AcDbEntity
  8
SLD-0
 62
     7
100
AcDbMText
 10
128.9310500985
 20
152.7537949926
 30
0.1
 40
3.5
 41
0.0
 71
     1
 72
     1
  1
2
  7
SLDTEXTSTYLE0
 11
0.6615985460667238
 21
-0.7498582291622845
 31
0.0
 73
     1
 44
1.0
  0
ENDBLK
  5
9F
330
97
100
AcDbEntity
  8
0
100
AcDbBlockEnd
  0
BLOCK
  5
B2
330
A8
100
AcDbEntity
  8
0
100
AcDbBlockBegin
  2
*D8
 70
     1
 71
     0
 10
0.0
 20
0.0
 30
0.0
  3
*D8
  1

  0
LINE
  5
B4
330
A8
100
AcDbEntity
  8
SLD-0
 62
     7
100
AcDbLine
 10
99.9722079589
 20
171.3886521181
 30
0.0
 11
99.9722079589
 21
186.5428446891
 31
0.0
  0
LINE
  5
B5
330
A8
100
AcDbEntity
  8
SLD-0
 62
     7
100
AcDbLine
 10
111.9722079589
 20
171.3886521181
 30
0.0
 11
111.9722079589
 21
186.5428446891
 31
0.0
  0
LINE
  5
B6
330
A8
100
AcDbEntity
  8
SLD-0
 62
     7
100
AcDbLine
 10
99.9722079589
 20
185.5428446891
 30
0.0
 11
111.9722079589
 21
185.5428446891
 31
0.0
  0
LINE
  5
B7
330
A8
100
AcDbEntity
  8
SLD-0
 62
     7
100
AcDbLine
 10
102.9722079589
 20
184.7389976891
 30
0.0
 11
99.9722079589
 21
185.5428446891
 31
0.0
  0
LINE
  5
B8
330
A8
100
AcDbEntity
  8
SLD-0
 62
     7
100
AcDbLine
 10
99.9722079589
 20
185.5428446891
 30
0.0
 11
102.9722079589
 21
186.3466916891
 31
0.0
  0
LINE
  5
B9
330
A8
100
AcDbEntity
  8
SLD-0
 62
     7
100
AcDbLine
 10
99.9722079589
 20
185.5428446891
 30
0.0
 11
102.9722079589
 21
185.5428446891
 31
0.0
  0
LINE
  5
BA
330
A8
100
AcDbEntity
  8
SLD-0
 62
     7
100
AcDbLine
 10
108.9722079589
 20
186.3466916891
 30
0.0
 11
111.9722079589
 21
185.5428446891
 31
0.0
  0
LINE
  5
BB
330
A8
100
AcDbEntity
  8
SLD-0
 62
     7
100
AcDbLine
 10
111.9722079589
 20
185.5428446891
 30
0.0
 11
108.9722079589
 21
184.7389976891
 31
0.0
  0
LINE
  5
BC
330
A8
100
AcDbEntity
  8
SLD-0
 62
     7
100
AcDbLine
 10
111.9722079589
 20
185.5428446891
 30
0.0
 11
108.9722079589
 21
185.5428446891
 31
0.0
  0
MTEXT
  5
BD
330
A8
100
AcDbEntity
  8
SLD-0
 62
     7
100
AcDbMText
 10
103.9367727358
 20
190.069538385
 30
0.1
 40
3.5
 41
0.0
 71
     1
 72
     1
  1
12
  7
SLDTEXTSTYLE0
 73
     1
 44
1.0
  0
ENDBLK
  5
B3
330
A8
100
AcDbEntity
  8
0
100
AcDbBlockEnd
  0
BLOCK
  5
CA
330
BF
100
AcDbEntity
  8
0
100
AcDbBlockBegin
  2
*D9
 70
     1
 71
     0
 10
0.0
 20
0.0
 30
0.0
  3
*D9
  1

  0
LINE
  5
CC
330
BF
100
AcDbEntity
  8
SLD-0
 62
     7
100
AcDbLine
 10
116.9722079589
 20
170.6386521181
 30
0.0
 11
131.5096454654
 21
170.6386521181
 31
0.0
  0
LINE
  5
CD
330
BF
100
AcDbEntity
  8
SLD-0
 62
     7
100
AcDbLine
 10
118.7222079589
 20
164.6386521181
 30
0.0
 11
131.5096454654
 21
164.6386521181
 31
0.0
  0
LINE
  5
CE
330
BF
100
AcDbEntity
  8
SLD-0
 62
     7
100
AcDbLine
 10
130.5096454654
 20
170.6386521181
 30
0.0
 11
130.5096454654
 21
175.6386521181
 31
0.0
  0
LINE
  5
CF
330
BF
100
AcDbEntity
  8
SLD-0
 62
     7
100
AcDbLine
 10
130.5096454654
 20
170.6386521181
 30
0.0
 11
130.5096454654
 21
164.6386521181
 31
0.0
  0
LINE
  5
D0
330
BF
100
AcDbEntity
  8
SLD-0
 62
     7
100
AcDbLine
 10
130.5096454654
 20
164.6386521181
 30
0.0
 11
130.5096454654
 21
159.6386521181
 31
0.0
  0
LINE
  5
D1
330
BF
100
AcDbEntity
  8
SLD-0
 62
     7
100
AcDbLine
 10
131.3134924654
 20
173.6386521181
 30
0.0
 11
130.5096454654
 21
170.6386521181
 31
0.0
  0
LINE
  5
D2
330
BF
100
AcDbEntity
  8
SLD-0
 62
     7
100
AcDbLine
 10
130.5096454654
 20
170.6386521181
 30
0.0
 11
129.7057984654
 21
173.6386521181
 31
0.0
  0
LINE
  5
D3
330
BF
100
AcDbEntity
  8
SLD-0
 62
     7
100
AcDbLine
 10
130.5096454654
 20
170.6386521181
 30
0.0
 11
130.5096454654
 21
173.6386521181
 31
0.0
  0
LINE
  5
D4
330
BF
100
AcDbEntity
  8
SLD-0
 62
     7
100
AcDbLine
 10
129.7057984654
 20
161.6386521181
 30
0.0
 11
130.5096454654
 21
164.6386521181
 31
0.0
  0
LINE
  5
D5
330
BF
100
AcDbEntity
  8
SLD-0
 62
     7
100
AcDbLine
 10
130.5096454654
 20
164.6386521181
 30
0.0
 11
131.3134924654
 21
161.6386521181
 31
0.0
  0
LINE
  5
D6
330
BF
100
AcDbEntity
  8
SLD-0
 62
     7
100
AcDbLine
 10
130.5096454654
 20
164.6386521181
 30
0.0
 11
130.5096454654
 21
161.6386521181
 31
0.0
  0
MTEXT
  5
D7
330
BF
100
AcDbEntity
  8
SLD-0
 62
     7
100
AcDbMText
 10
125.9829517695
 20
166.6209345065
 30
0.1
 40
3.5
 41
0.0
 71
     1
 72
     1
  1
6
  7
SLDTEXTSTYLE0
 11
6.123031769111886E-17
 21
1.0
 31
0.0
 73
     1
 44
1.0
  0
ENDBLK
  5
CB
330
BF
100
AcDbEntity
  8
0
100
AcDbBlockEnd
  0
BLOCK
  5
E6
330
D9
100
AcDbEntity
  8
0
100
AcDbBlockBegin
  2
*D10
 70
     1
 71
     0
 10
0.0
 20
0.0
 30
0.0
  3
*D10
  1

  0
LINE
  5
E8
330
D9
100
AcDbEntity
  8
SLD-0
 62
     7
100
AcDbLine
 10
117.9722079589
 20
169.6386521181
 30
0.0
 11
117.9722079589
 21
186.5428446891
 31
0.0
  0
LINE
  5
E9
330
D9
100
AcDbEntity
  8
SLD-0
 62
     7
100
AcDbLine
 10
111.9722079589
 20
171.3886521181
 30
0.0
 11
111.9722079589
 21
186.5428446891
 31
0.0
  0
LINE
  5
EA
330
D9
100
AcDbEntity
  8
SLD-0
 62
     7
100
AcDbLine
 10
117.9722079589
 20
185.5428446891
 30
0.0
 11
126.5169387068
 21
185.5428446891
 31
0.0
  0
LINE
  5
EB
330
D9
100
AcDbEntity
  8
SLD-0
 62
     7
100
AcDbLine
 10
117.9722079589
 20
185.5428446891
 30
0.0
 11
111.9722079589
 21
185.5428446891
 31
0.0
  0
LINE
  5
EC
330
D9
100
AcDbEntity
  8
SLD-0
 62
     7
100
AcDbLine
 10
111.9722079589
 20
185.5428446891
 30
0.0
 11
106.9722079589
 21
185.5428446891
 31
0.0
  0
LINE
  5
ED
330
D9
100
AcDbEntity
  8
SLD-0
 62
     7
100
AcDbLine
 10
120.9722079589
 20
184.7389976891
 30
0.0
 11
117.9722079589
 21
185.5428446891
 31
0.0
  0
LINE
  5
EE
330
D9
100
AcDbEntity
  8
SLD-0
 62
     7
100
AcDbLine
 10
117.9722079589
 20
185.5428446891
 30
0.0
 11
120.9722079589
 21
186.3466916891
 31
0.0
  0
LINE
  5
EF
330
D9
100
AcDbEntity
  8
SLD-0
 62
     7
100
AcDbLine
 10
117.9722079589
 20
185.5428446891
 30
0.0
 11
120.9722079589
 21
185.5428446891
 31
0.0
  0
LINE
  5
F0
330
D9
100
AcDbEntity
  8
SLD-0
 62
     7
100
AcDbLine
 10
108.9722079589
 20
186.3466916891
 30
0.0
 11
111.9722079589
 21
185.5428446891
 31
0.0
  0
LINE
  5
F1
330
D9
100
AcDbEntity
  8
SLD-0
 62
     7
100
AcDbLine
 10
111.9722079589
 20
185.5428446891
 30
0.0
 11
108.9722079589
 21
184.7389976891
 31
0.0
  0
LINE
  5
F2
330
D9
100
AcDbEntity
  8
SLD-0
 62
     7
100
AcDbLine
 10
111.9722079589
 20
185.5428446891
 30
0.0
 11
108.9722079589
 21
185.5428446891
 31
0.0
  0
MTEXT
  5
F3
330
D9
100
AcDbEntity
  8
SLD-0
 62
     7
100
AcDbMText
 10
122.8940034836
 20
190.069538385
 30
0.1
 40
3.5
 41
0.0
 71
     1
 72
     1
  1
6
  7
SLDTEXTSTYLE0
 73
     1
 44
1.0
  0
ENDBLK
  5
E7
330
D9
100
AcDbEntity
  8
0
100
AcDbBlockEnd
  0
BLOCK
  5
FC
330
F5
100
AcDbEntity
  8
0
100
AcDbBlockBegin
  2
*D11
 70
     1
 71
     0
 10
0.0
 20
0.0
 30
0.0
  3
*D11
  1

  0
LINE
  5
FF
330
F5
100
AcDbEntity
  8
SLD-0
 62
     7
100
AcDbLine
 10
97.9206887228
 20
167.1593204469
 30
0.0
 11
94.4532103152
 21
171.4197547869
 31
0.0
  0
LINE
  5
100
330
F5
100
AcDbEntity
  8
SLD-0
 62
     7
100
AcDbLine
 10
93.4912056026
 20
172.6017543355
 30
0.0
 11
86.5781928633
 21
181.0956606863
 31
0.0
  0
LINE
  5
101
330
F5
100
AcDbEntity
  8
SLD-0
 62
     7
100
AcDbLine
 10
86.5781928633
 20
181.0956606863
 30
0.0
 11
67.7649775437
 21
181.0956606863
 31
0.0
  0
LINE
  5
102
330
F5
100
AcDbEntity
  8
SLD-0
 62
     7
100
AcDbLine
 10
96.6504345584
 20
169.9935089299
 30
0.0
 11
97.9206887228
 21
167.1593204469
 31
0.0
  0
LINE
  5
103
330
F5
100
AcDbEntity
  8
SLD-0
 62
     7
100
AcDbLine
 10
97.9206887228
 20
167.1593204469
 30
0.0
 11
95.403522759
 21
168.978673494
 31
0.0
  0
LINE
  5
104
330
F5
100
AcDbEntity
  8
SLD-0
 62
     7
100
AcDbLine
 10
97.9206887228
 20
167.1593204469
 30
0.0
 11
96.0269786587
 21
169.4860912119
 31
0.0
  0
MTEXT
  5
105
330
F5
100
AcDbEntity
  8
SLD-0
 62
     7
100
AcDbMText
 10
69.3524775437
 20
185.6223543823
 30
0.1
 40
3.5
 41
0.0
 71
     1
 72
     1
  1
2-
  7
SLDTEXTSTYLE0
 73
     1
 44
1.0
  0
MTEXT
  5
106
330
F5
100
AcDbEntity
  8
SLD-0
 62
     7
100
AcDbMText
 10
71.6760885386
 20
185.6223541495
 30
0.1
 40
3.5
 41
0.0
 71
     1
 72
     1
  1
%%c
  7
SLDTEXTSTYLE0
 73
     1
 44
1.0
  0
MTEXT
  5
107
330
F5
100
AcDbEntity
  8
SLD-0
 62
     7
100
AcDbMText
 10
77.2932329116
 20
185.6223543823
 30
0.1
 40
3.5
 41
0.0
 71
     1
 72
     1
  1
6.5
  7
SLDTEXTSTYLE0
 73
     1
 44
1.0
  0
ENDBLK
  5
FD
330
F5
100
AcDbEntity
  8
0
100
AcDbBlockEnd
  0
ENDSEC
  0
SECTION
  2
ENTITIES
  0
LINE
  5
4D
330
1F
100
AcDbEntity
  8
SLD-0
  6
Continuous
 62
   179
100
AcDbLine
 10
20.2604743903
 20
285.0
 30
0.0
 11
196.7604743903
 21
285.0
 31
0.0
  0
LINE
  5
4E
330
1F
100
AcDbEntity
  8
SLD-0
  6
Continuous
 62
   179
100
AcDbLine
 10
20.2604743903
 20
285.0
 30
0.0
 11
20.2604743903
 21
10.0
 31
0.0
  0
LINE
  5
4F
330
1F
100
AcDbEntity
  8
SLD-0
  6
Continuous
 62
   179
100
AcDbLine
 10
20.2604743903
 20
10.0
 30
0.0
 11
196.7604743903
 21
10.0
 31
0.0
  0
LINE
  5
50
330
1F
100
AcDbEntity
  8
SLD-0
  6
Continuous
 62
   179
100
AcDbLine
 10
196.7604743903
 20
285.0
 30
0.0
 11
196.7604743903
 21
10.0
 31
0.0
  0
LINE
  5
51
330
1F
100
AcDbEntity
  8
SLD-0
  6
Continuous
 62
   179
100
AcDbLine
 10
127.0104743903
 20
50.75
 30
0.0
 11
196.7604743903
 21
50.75
 31
0.0
  0
LINE
  5
52
330
1F
100
AcDbEntity
  8
SLD-0
  6
Continuous
 62
   179
100
AcDbLine
 10
127.0104743903
 20
50.75
 30
0.0
 11
127.0104743903
 21
22.75
 31
0.0
  0
LINE
  5
53
330
1F
100
AcDbEntity
  8
SLD-0
  6
Continuous
 62
   179
100
AcDbLine
 10
127.0104743903
 20
22.75
 30
0.0
 11
196.7604743903
 21
22.75
 31
0.0
  0
LINE
  5
54
330
1F
100
AcDbEntity
  8
SLD-0
  6
Continuous
 62
   179
100
AcDbLine
 10
127.0104743903
 20
36.75
 30
0.0
 11
196.7604743903
 21
36.75
 31
0.0
  0
LINE
  5
55
330
1F
100
AcDbEntity
  8
SLD-0
  6
Continuous
 62
   179
100
AcDbLine
 10
95.9722079589
 20
158.6386521181
 30
0.0
 11
115.9722079589
 21
158.6386521181
 31
0.0
  0
LINE
  5
56
330
1F
100
AcDbEntity
  8
SLD-0
  6
Continuous
 62
   179
100
AcDbLine
 10
93.9722079589
 20
168.6386521181
 30
0.0
 11
93.9722079589
 21
160.6386521181
 31
0.0
  0
LINE
  5
57
330
1F
100
AcDbEntity
  8
SLD-0
  6
Continuous
 62
   179
100
AcDbLine
 10
115.9722079589
 20
170.6386521181
 30
0.0
 11
95.9722079589
 21
170.6386521181
 31
0.0
  0
LINE
  5
58
330
1F
100
AcDbEntity
  8
SLD-0
  6
Continuous
 62
   179
100
AcDbLine
 10
117.9722079589
 20
160.6386521181
 30
0.0
 11
117.9722079589
 21
168.6386521181
 31
0.0
  0
CIRCLE
  5
59
330
1F
100
AcDbEntity
  8
SLD-0
  6
Continuous
 62
   179
100
AcDbCircle
 10
111.9722079589
 20
164.6386521181
 30
0.0
 40
3.250000000000014
  0
CIRCLE
  5
5A
330
1F
100
AcDbEntity
  8
SLD-0
  6
Continuous
 62
   179
100
AcDbCircle
 10
99.9722079589
 20
164.6386521181
 30
0.0
 40
3.25
  0
ARC
  5
5B
330
1F
100
AcDbEntity
  8
SLD-0
  6
Continuous
 62
   179
100
AcDbCircle
 10
95.9722079589
 20
160.6386521181
 30
0.0
 40
2.0
100
AcDbArc
 50
180.0
 51
270.0
  0
ARC
  5
5C
330
1F
100
AcDbEntity
  8
SLD-0
  6
Continuous
 62
   179
100
AcDbCircle
 10
95.9722079589
 20
168.6386521181
 30
0.0
 40
2.0
100
AcDbArc
 50
90.0
 51
180.0
  0
ARC
  5
5D
330
1F
100
AcDbEntity
  8
SLD-0
  6
Continuous
 62
   179
100
AcDbCircle
 10
115.9722079589
 20
168.6386521181
 30
0.0
 40
2.0
100
AcDbArc
 50
0.0
 51
90.0
  0
ARC
  5
5E
330
1F
100
AcDbEntity
  8
SLD-0
  6
Continuous
 62
   179
100
AcDbCircle
 10
115.9722079589
 20
160.6386521181
 30
0.0
 40
2.0
100
AcDbArc
 50
270.0
 51
0.0
  0
DIMENSION
  5
5F
330
1F
100
AcDbEntity
  8
SLD-0
 62
     7
100
AcDbDimension
  2
*D4
 10
140.5294923832
 20
170.6386521181
 30
0.0
 11
140.5294923832
 21
164.6386521181
 31
0.0
 70
   160
 71
     1
 42
12.0
  3
SLDDIMSTYLE0
100
AcDbAlignedDimension
 13
115.9722079589
 23
158.6386521181
 33
0.0
 14
115.9722079589
 24
170.6386521181
 34
0.0
 50
90.0
100
AcDbRotatedDimension
1001
ACAD
1000
DSTYLE
1002
{
1070
    77
1070
     3
1070
   143
1040
0.0393700787
1070
    41
1040
3.0
1070
    44
1040
1.0
1070
    42
1040
1.0
1070
   147
1040
1.524
1070
    73
1070
     0
1070
    74
1070
     0
1070
   140
1040
3.5
1070
   284
1070
    12
1070
    78
1070
    12
1002
}
  0
DIMENSION
  5
7F
330
1F
100
AcDbEntity
  8
SLD-0
 62
     7
100
AcDbDimension
  2
*D6
 10
117.9722079589
 20
197.0189200608
 30
0.0
 11
105.9722079589
 21
197.0189200608
 31
0.0
 70
   160
 71
     1
 42
24.0
  3
SLDDIMSTYLE0
100
AcDbAlignedDimension
 13
93.9722079589
 23
168.6386521181
 33
0.0
 14
117.9722079589
 24
168.6386521181
 34
0.0
100
AcDbRotatedDimension
1001
ACAD
1000
DSTYLE
1002
{
1070
    77
1070
     3
1070
   143
1040
0.0393700787
1070
    41
1040
3.0
1070
    44
1040
1.0
1070
    42
1040
1.0
1070
   147
1040
1.524
1070
    73
1070
     0
1070
    74
1070
     0
1070
   140
1040
3.5
1070
   284
1070
    12
1070
    78
1070
    12
1002
}
  0
DIMENSION
  5
96
330
1F
100
AcDbEntity
  8
SLD-0
 62
     7
100
AcDbDimension
  2
*D7
 10
115.9722079589
 20
160.6386521181
 30
0.0
 11
124.3149303808
 21
151.1829797942
 31
0.0
 70
   164
  1
4-<>
 71
     1
 42
198.1270541173
  3
SLDDIMSTYLE1
100
AcDbRadialDimension
 15
0.0
 25
0.0
 35
0.0
 40
0.0
1001
ACAD
1000
DSTYLE
1002
{
1070
    77
1070
     0
1070
   143
1040
0.0393700787
1070
    41
1040
3.0
1070
    44
1040
1.0
1070
    42
1040
1.0
1070
   147
1040
1.524
1070
    73
1070
     1
1070
    74
1070
     1
1070
   140
1040
3.5
1070
   284
1070
    12
1070
    78
1070
    12
1002
}
  0
DIMENSION
  5
A7
330
1F
100
AcDbEntity
  8
SLD-0
 62
     7
100
AcDbDimension
  2
*D8
 10
99.9722079589
 20
185.5428446891
 30
0.0
 11
105.9722079589
 21
185.5428446891
 31
0.0
 70
   160
 71
     1
 42
12.0
  3
SLDDIMSTYLE0
100
AcDbAlignedDimension
 13
111.9722079589
 23
164.6386521181
 33
0.0
 14
99.9722079589
 24
164.6386521181
 34
0.0
100
AcDbRotatedDimension
1001
ACAD
1000
DSTYLE
1002
{
1070
    77
1070
     3
1070
   143
1040
0.0393700787
1070
    41
1040
3.0
1070
    44
1040
1.0
1070
    42
1040
1.0
1070
   147
1040
1.524
1070
    73
1070
     0
1070
    74
1070
     0
1070
   140
1040
3.5
1070
   284
1070
    12
1070
    78
1070
    12
1002
}
  0
DIMENSION
  5
BE
330
1F
100
AcDbEntity
  8
SLD-0
 62
     7
100
AcDbDimension
  2
*D9
 10
130.5096454654
 20
170.6386521181
 30
0.0
 11
130.5096454654
 21
167.6386521181
 31
0.0
 70
   160
 71
     1
 42
6.0
  3
SLDDIMSTYLE0
100
AcDbAlignedDimension
 13
117.7222079589
 23
164.6386521181
 33
0.0
 14
115.9722079589
 24
170.6386521181
 34
0.0
 50
90.0
100
AcDbRotatedDimension
1001
ACAD
1000
DSTYLE
1002
{
1070
    77
1070
     3
1070
   143
1040
0.0393700787
1070
    41
1040
3.0
1070
    44
1040
1.0
1070
    42
1040
1.0
1070
   147
1040
1.524
1070
    73
1070
     0
1070
    74
1070
     0
1070
   140
1040
3.5
1070
   284
1070
    12
1070
    78
1070
    12
1002
}
  0
DIMENSION
  5
D8
330
1F
100
AcDbEntity
  8
SLD-0
 62
     7
100
AcDbDimension
  2
*D10
 10
117.9722079589
 20
185.5428446891
 30
0.0
 11
123.9117210952
 21
185.5428446891
 31
0.0
 70
   160
 71
     1
 42
6.0
  3
SLDDIMSTYLE0
100
AcDbAlignedDimension
 13
111.9722079589
 23
170.3886521181
 33
0.0
 14
117.9722079589
 24
168.6386521181
 34
0.0
100
AcDbRotatedDimension
1001
ACAD
1000
DSTYLE
1002
{
1070
    77
1070
     3
1070
   143
1040
0.0393700787
1070
    41
1040
3.0
1070
    44
1040
1.0
1070
    42
1040
1.0
1070
   147
1040
1.524
1070
    73
1070
     0
1070
    74
1070
     0
1070
   140
1040
3.5
1070
   284
1070
    12
1070
    78
1070
    12
1002
}
  0
DIMENSION
  5
F4
330
1F
100
AcDbEntity
  8
SLD-0
 62
     7
100
AcDbDimension
  2
*D11
 10
3.3736786026
 20
5.5559230825
 30
0.0
 11
76.3778352035
 21
-5.128545075
 31
0.0
 70
   163
  1
2-<>
 71
     1
 42
6.499999124
  3
SLDDIMSTYLE2
100
AcDbDiametricDimension
 15
0.0
 25
0.0
 35
0.0
 40
0.0
1001
ACAD
1000
DSTYLE
1002
{
1070
    77
1070
     0
1070
   143
1040
0.0393700787
1070
    41
1040
3.0
1070
    44
1040
1.0
1070
    42
1040
1.0
1070
   147
1040
1.524
1070
    73
1070
     1
1070
    74
1070
     1
1070
   140
1040
3.5
1070
   284
1070
    12
1070
    78
1070
    12
1002
}
  0
MTEXT
  5
108
330
1F
100
AcDbEntity
  8
SLD-0
 62
     7
100
AcDbMText
 10
135.795228091
 20
122.7092855764
 30
0.0
 40
4.2333333333
 41
0.0
 71
     1
 72
     1
  1
t= 1.0
  7
SLDTEXTSTYLE1
 73
     1
 44
1.0
  0
MTEXT
  5
109
330
1F
100
AcDbEntity
  8
SLD-0
 62
     7
100
AcDbMText
 10
147.3975744564
 20
29.7138882404
 30
0.0
 40
4.2333333333
 41
0.0
 71
     1
 72
     1
  1
N01918-103-1
  7
SLDTEXTSTYLE1
 73
     1
 44
1.0
  0
MTEXT
  5
10A
330
1F
100
AcDbEntity
  8
SLD-0
 62
     7
100
AcDbMText
 10
151.3458449974
 20
43.2377018572
 30
0.0
 40
4.2333333333
 41
0.0
 71
     1
 72
     1
  1
Washser B
  7
SLDTEXTSTYLE1
 73
     1
 44
1.0
  0
INSERT
  5
10B
330
1F
100
AcDbEntity
  8
0
  6
Continuous
 62
     7
370
     0
100
AcDbBlockReference
  2
SW_CENTERMARK0
 10
0.0
 20
0.0
 30
0.0
  0
INSERT
  5
10C
330
1F
100
AcDbEntity
  8
0
  6
Continuous
 62
     7
370
     0
100
AcDbBlockReference
  2
SW_CENTERMARK1
 10
0.0
 20
0.0
 30
0.0
  0
ENDSEC
  0
SECTION
  2
OBJECTS
  0
DICTIONARY
  5
C
330
0
100
AcDbDictionary
281
     1
  3
ACAD_GROUP
350
D
  3
ACAD_LAYOUT
350
1A
  3
ACAD_MLINESTYLE
350
17
  3
ACAD_PLOTSETTINGS
350
19
  3
ACAD_PLOTSTYLENAME
350
E
  0
DICTIONARY
  5
D
102
{ACAD_REACTORS
330
C
102
}
330
C
100
AcDbDictionary
281
     1
  0
DICTIONARY
  5
1A
102
{ACAD_REACTORS
330
C
102
}
330
C
100
AcDbDictionary
281
     1
  3
Layout1
350
1E
  3
Layout2
350
26
  3
Model
350
22
  0
DICTIONARY
  5
17
102
{ACAD_REACTORS
330
C
102
}
330
C
100
AcDbDictionary
281
     1
  3
Standard
350
18
  0
DICTIONARY
  5
19
102
{ACAD_REACTORS
330
C
102
}
330
C
100
AcDbDictionary
281
     1
  0
ACDBDICTIONARYWDFLT
  5
E
102
{ACAD_REACTORS
330
C
102
}
330
C
100
AcDbDictionary
281
     1
  3
Normal
350
F
100
AcDbDictionaryWithDefault
340
F
  0
LAYOUT
  5
1E
102
{ACAD_REACTORS
330
1A
102
}
330
1A
100
AcDbPlotSettings
  1

  2

  4

  6

 40
0.0
 41
0.0
 42
0.0
 43
0.0
 44
0.0
 45
0.0
 46
0.0
 47
0.0
 48
0.0
 49
0.0
140
0.0
141
0.0
142
1.0
143
1.0
 70
   688
 72
     0
 73
     0
 74
     5
  7

 75
    16
147
1.0
148
0.0
149
0.0
100
AcDbLayout
  1
Layout1
 70
     1
 71
     1
 10
0.0
 20
0.0
 11
0.0
 21
0.0
 12
0.0
 22
0.0
 32
0.0
 14
0.0
 24
0.0
 34
0.0
 15
0.0
 25
0.0
 35
0.0
146
0.0
 13
0.0
 23
0.0
 33
0.0
 16
1.0
 26
0.0
 36
0.0
 17
0.0
 27
1.0
 37
0.0
 76
     0
330
1B
  0
LAYOUT
  5
26
102
{ACAD_REACTORS
330
1A
102
}
330
1A
100
AcDbPlotSettings
  1

  2

  4

  6

 40
0.0
 41
0.0
 42
0.0
 43
0.0
 44
0.0
 45
0.0
 46
0.0
 47
0.0
 48
0.0
 49
0.0
140
0.0
141
0.0
142
1.0
143
1.0
 70
   688
 72
     0
 73
     0
 74
     5
  7

 75
    16
147
1.0
148
0.0
149
0.0
100
AcDbLayout
  1
Layout2
 70
     1
 71
     2
 10
0.0
 20
0.0
 11
0.0
 21
0.0
 12
0.0
 22
0.0
 32
0.0
 14
0.0
 24
0.0
 34
0.0
 15
0.0
 25
0.0
 35
0.0
146
0.0
 13
0.0
 23
0.0
 33
0.0
 16
1.0
 26
0.0
 36
0.0
 17
0.0
 27
1.0
 37
0.0
 76
     0
330
23
  0
LAYOUT
  5
22
102
{ACAD_REACTORS
330
1A
102
}
330
1A
100
AcDbPlotSettings
  1

  2

  4

  6

 40
0.0
 41
0.0
 42
0.0
 43
0.0
 44
0.0
 45
0.0
 46
0.0
 47
0.0
 48
0.0
 49
0.0
140
0.0
141
0.0
142
1.0
143
1.0
 70
  1712
 72
     0
 73
     0
 74
     0
  7

 75
     0
147
1.0
148
0.0
149
0.0
100
AcDbLayout
  1
Model
 70
     1
 71
     0
 10
0.0
 20
0.0
 11
0.0
 21
0.0
 12
0.0
 22
0.0
 32
0.0
 14
0.0
 24
0.0
 34
0.0
 15
210.0
 25
297.0
 35
0.0
146
0.0
 13
0.0
 23
0.0
 33
0.0
 16
1.0
 26
0.0
 36
0.0
 17
0.0
 27
1.0
 37
0.0
 76
     0
330
1F
  0
MLINESTYLE
  5
18
102
{ACAD_REACTORS
330
17
102
}
330
17
100
AcDbMlineStyle
  2
Standard
 70
     0
  3

 62
   256
 51
90.0
 52
90.0
 71
     2
 49
0.5
 62
   256
  6
BYLAYER
 49
-0.5
 62
   256
  6
BYLAYER
  0
ACDBPLACEHOLDER
  5
F
102
{ACAD_REACTORS
330
E
102
}
330
E
  0
ENDSEC
  0
EOF
