  0
SECTION
  2
HEADER
  9
$ACADVER
  1
AC1015
  9
$ACADMAINTVER
 70
     6
  9
$DWGCODEPAGE
  3
DOS932
  9
$INSBASE
 10
0.0
 20
0.0
 30
0.0
  9
$EXTMIN
 10
0.0
 20
0.0
 30
0.0
  9
$EXTMAX
 10
210.0
 20
297.0
 30
0.0
  9
$LIMMIN
 10
0.0
 20
0.0
  9
$LIMMAX
 10
0.0
 20
0.0
  9
$ORTHOMODE
 70
     0
  9
$REGENMODE
 70
     1
  9
$FILLMODE
 70
     1
  9
$QTEXTMODE
 70
     0
  9
$MIRRTEXT
 70
     1
  9
$LTSCALE
 40
1.0
  9
$ATTMODE
 70
     1
  9
$TEXTSIZE
 40
3.5
  9
$TRACEWID
 40
1.0
  9
$TEXTSTYLE
  7
Standard
  9
$CLAYER
  8
0
  9
$CELTYPE
  6
ByLayer
  9
$CECOLOR
 62
   256
  9
$CELTSCALE
 40
1.0
  9
$DISPSILH
 70
     0
  9
$DIMSCALE
 40
1.0
  9
$DIMASZ
 40
3.0
  9
$DIMEXO
 40
1.0
  9
$DIMDLI
 40
3.75
  9
$DIMRND
 40
0.0
  9
$DIMDLE
 40
0.0
  9
$DIMEXE
 40
1.0
  9
$DIMTP
 40
0.0
  9
$DIMTM
 40
0.0
  9
$DIMTXT
 40
3.5
  9
$DIMCEN
 40
2.5
  9
$DIMTSZ
 40
0.0
  9
$DIMTOL
 70
     0
  9
$DIMLIM
 70
     0
  9
$DIMTIH
 70
     1
  9
$DIMTOH
 70
     1
  9
$DIMSE1
 70
     0
  9
$DIMSE2
 70
     0
  9
$DIMTAD
 70
     1
  9
$DIMZIN
 70
     1
  9
$DIMBLK
  1

  9
$DIMASO
 70
     1
  9
$DIMSHO
 70
     1
  9
$DIMPOST
  1

  9
$DIMAPOST
  1

  9
$DIMALT
 70
     0
  9
$DIMALTD
 70
     3
  9
$DIMALTF
 40
0.0393700787
  9
$DIMLFAC
 40
1.0
  9
$DIMTOFL
 70
     1
  9
$DIMTVP
 40
0.0
  9
$DIMTIX
 70
     0
  9
$DIMSOXD
 70
     0
  9
$DIMSAH
 70
     0
  9
$DIMBLK1
  1

  9
$DIMBLK2
  1

  9
$DIMSTYLE
  2
ISO-25
  9
$DIMCLRD
 70
     0
  9
$DIMCLRE
 70
     0
  9
$DIMCLRT
 70
     0
  9
$DIMTFAC
 40
1.0
  9
$DIMGAP
 40
1.524
  9
$DIMJUST
 70
     0
  9
$DIMSD1
 70
     0
  9
$DIMSD2
 70
     0
  9
$DIMTOLJ
 70
     0
  9
$DIMTZIN
 70
     1
  9
$DIMALTZ
 70
     0
  9
$DIMALTTZ
 70
     0
  9
$DIMUPT
 70
     0
  9
$DIMDEC
 70
     2
  9
$DIMTDEC
 70
     2
  9
$DIMALTU
 70
     2
  9
$DIMALTTD
 70
     3
  9
$DIMTXSTY
  7
Standard
  9
$DIMAUNIT
 70
     0
  9
$DIMADEC
 70
     0
  9
$DIMALTRND
 40
0.0
  9
$DIMAZIN
 70
     0
  9
$DIMDSEP
 70
    44
  9
$DIMATFIT
 70
     3
  9
$DIMFRAC
 70
     0
  9
$DIMLDRBLK
  1

  9
$DIMLUNIT
 70
     2
  9
$DIMLWD
 70
    -2
  9
$DIMLWE
 70
    -2
  9
$DIMTMOVE
 70
     0
  9
$LUNITS
 70
     2
  9
$LUPREC
 70
     1
  9
$SKETCHINC
 40
1.0
  9
$FILLETRAD
 40
10.0
  9
$AUNITS
 70
     0
  9
$AUPREC
 70
     0
  9
$MENU
  1
.
  9
$ELEVATION
 40
0.0
  9
$PELEVATION
 40
0.0
  9
$THICKNESS
 40
0.0
  9
$LIMCHECK
 70
     0
  9
$CHAMFERA
 40
10.0
  9
$CHAMFERB
 40
10.0
  9
$CHAMFERC
 40
20.0
  9
$CHAMFERD
 40
0.0
  9
$SKPOLY
 70
     0
  9
$TDCREATE
 40
2454359.553689051
  9
$TDUCREATE
 40
2454359.178689051
  9
$TDUPDATE
 40
2454359.553689063
  9
$TDUUPDATE
 40
2454359.178689063
  9
$TDINDWG
 40
0.0000000116
  9
$TDUSRTIMER
 40
0.0000000116
  9
$USRTIMER
 70
     1
  9
$ANGBASE
 50
0.0
  9
$ANGDIR
 70
     0
  9
$PDMODE
 70
     0
  9
$PDSIZE
 40
-1.0
  9
$PLINEWID
 40
0.0
  9
$SPLFRAME
 70
     0
  9
$SPLINETYPE
 70
     6
  9
$SPLINESEGS
 70
     8
  9
$HANDSEED
  5
19F
  9
$SURFTAB1
 70
     6
  9
$SURFTAB2
 70
     6
  9
$SURFTYPE
 70
     6
  9
$SURFU
 70
     6
  9
$SURFV
 70
     6
  9
$UCSBASE
  2

  9
$UCSNAME
  2

  9
$UCSORG
 10
0.0
 20
0.0
 30
0.0
  9
$UCSXDIR
 10
1.0
 20
0.0
 30
0.0
  9
$UCSYDIR
 10
0.0
 20
1.0
 30
0.0
  9
$UCSORTHOREF
  2

  9
$UCSORTHOVIEW
 70
     0
  9
$UCSORGTOP
 10
0.0
 20
0.0
 30
0.0
  9
$UCSORGBOTTOM
 10
0.0
 20
0.0
 30
0.0
  9
$UCSORGLEFT
 10
0.0
 20
0.0
 30
0.0
  9
$UCSORGRIGHT
 10
0.0
 20
0.0
 30
0.0
  9
$UCSORGFRONT
 10
0.0
 20
0.0
 30
0.0
  9
$UCSORGBACK
 10
0.0
 20
0.0
 30
0.0
  9
$PUCSBASE
  2

  9
$PUCSNAME
  2

  9
$PUCSORG
 10
0.0
 20
0.0
 30
0.0
  9
$PUCSXDIR
 10
1.0
 20
0.0
 30
0.0
  9
$PUCSYDIR
 10
0.0
 20
1.0
 30
0.0
  9
$PUCSORTHOREF
  2

  9
$PUCSORTHOVIEW
 70
     0
  9
$PUCSORGTOP
 10
0.0
 20
0.0
 30
0.0
  9
$PUCSORGBOTTOM
 10
0.0
 20
0.0
 30
0.0
  9
$PUCSORGLEFT
 10
0.0
 20
0.0
 30
0.0
  9
$PUCSORGRIGHT
 10
0.0
 20
0.0
 30
0.0
  9
$PUCSORGFRONT
 10
0.0
 20
0.0
 30
0.0
  9
$PUCSORGBACK
 10
0.0
 20
0.0
 30
0.0
  9
$USERI1
 70
     0
  9
$USERI2
 70
     0
  9
$USERI3
 70
     0
  9
$USERI4
 70
     0
  9
$USERI5
 70
     0
  9
$USERR1
 40
0.0
  9
$USERR2
 40
0.0
  9
$USERR3
 40
0.0
  9
$USERR4
 40
0.0
  9
$USERR5
 40
0.0
  9
$WORLDVIEW
 70
     1
  9
$SHADEDGE
 70
     3
  9
$SHADEDIF
 70
    70
  9
$TILEMODE
 70
     1
  9
$MAXACTVP
 70
    64
  9
$PINSBASE
 10
0.0
 20
0.0
 30
0.0
  9
$PLIMCHECK
 70
     0
  9
$PEXTMIN
 10
1.0000000000E+20
 20
1.0000000000E+20
 30
1.0000000000E+20
  9
$PEXTMAX
 10
-1.0000000000E+20
 20
-1.0000000000E+20
 30
-1.0000000000E+20
  9
$PLIMMIN
 10
0.0
 20
0.0
  9
$PLIMMAX
 10
420.0
 20
297.0
  9
$UNITMODE
 70
     0
  9
$VISRETAIN
 70
     1
  9
$PLINEGEN
 70
     0
  9
$PSLTSCALE
 70
     1
  9
$TREEDEPTH
 70
  3020
  9
$CMLSTYLE
  2
Standard
  9
$CMLJUST
 70
     0
  9
$CMLSCALE
 40
20.0
  9
$PROXYGRAPHICS
 70
     1
  9
$MEASUREMENT
 70
     1
  9
$CELWEIGHT
370
    -1
  9
$ENDCAPS
280
     0
  9
$JOINSTYLE
280
     0
  9
$LWDISPLAY
290
     1
  9
$INSUNITS
 70
     4
  9
$HYPERLINKBASE
  1

  9
$STYLESHEET
  1

  9
$XEDIT
290
     1
  9
$CEPSNTYPE
380
     0
  9
$PSTYLEMODE
290
     1
  9
$FINGERPRINTGUID
  2
{EC0249E4-448B-4631-A71D-9EDC6096225D}
  9
$VERSIONGUID
  2
{FAEB1C32-E019-11D5-929B-00C0DF256EC4}
  9
$EXTNAMES
290
     1
  9
$PSVPSCALE
 40
0.0
  9
$OLESTARTUP
290
     0
  0
ENDSEC
  0
SECTION
  2
CLASSES
  0
CLASS
  1
ACDBDICTIONARYWDFLT
  2
AcDbDictionaryWithDefault
  3
ObjectDBX Classes
 90
        0
280
     0
281
     0
  0
CLASS
  1
ACDBPLACEHOLDER
  2
AcDbPlaceHolder
  3
ObjectDBX Classes
 90
        0
280
     0
281
     0
  0
CLASS
  1
LAYOUT
  2
AcDbLayout
  3
ObjectDBX Classes
 90
        0
280
     0
281
     0
  0
ENDSEC
  0
SECTION
  2
TABLES
  0
TABLE
  2
VPORT
  5
8
330
0
100
AcDbSymbolTable
 70
     1
  0
VPORT
  5
29
330
8
100
AcDbSymbolTableRecord
100
AcDbViewportTableRecord
  2
*Active
 70
     0
 10
0.0
 20
0.0
 11
1.0
 21
1.0
 12
105.0
 22
148.5
 13
0.0
 23
0.0
 14
10.0
 24
10.0
 15
10.0
 25
10.0
 16
0.0
 26
0.0
 36
1.0
 17
0.0
 27
0.0
 37
0.0
 40
297.0
 41
1.9729729729
 42
50.0
 43
0.0
 44
0.0
 50
0.0
 51
0.0
 71
     0
 72
  2000
 73
     1
 74
     3
 75
     0
 76
     0
 77
     0
 78
     0
281
     0
 65
     1
110
0.0
120
0.0
130
0.0
111
1.0
121
0.0
131
0.0
112
0.0
122
1.0
132
0.0
 79
     0
146
0.0
  0
ENDTAB
  0
TABLE
  2
LTYPE
  5
5
330
0
100
AcDbSymbolTable
 70
     6
  0
LTYPE
  5
14
330
5
100
AcDbSymbolTableRecord
100
AcDbLinetypeTableRecord
  2
ByBlock
 70
     0
  3

 72
    65
 73
     0
 40
0.0
  0
LTYPE
  5
15
330
5
100
AcDbSymbolTableRecord
100
AcDbLinetypeTableRecord
  2
ByLayer
 70
     0
  3

 72
    65
 73
     0
 40
0.0
  0
LTYPE
  5
16
330
5
100
AcDbSymbolTableRecord
100
AcDbLinetypeTableRecord
  2
Continuous
 70
     0
  3
Solid line
 72
    65
 73
     0
 40
0.0
  0
LTYPE
  5
2A
330
5
100
AcDbSymbolTableRecord
100
AcDbLinetypeTableRecord
  2
HIDDEN
 70
     0
  3
Hidden __ __ __ __ __ __ __ __ __ __ __ __ __ __
 72
    65
 73
     2
 40
1.905
 49
1.27
 74
     0
 49
-0.635
 74
     0
  0
LTYPE
  5
2B
330
5
100
AcDbSymbolTableRecord
100
AcDbLinetypeTableRecord
  2
PHANTOM
 70
     0
  3
Phantom ______  __  __  ______  __  __  ______
 72
    65
 73
     6
 40
12.7
 49
6.35
 74
     0
 49
-1.27
 74
     0
 49
1.27
 74
     0
 49
-1.27
 74
     0
 49
1.27
 74
     0
 49
-1.27
 74
     0
  0
LTYPE
  5
2C
330
5
100
AcDbSymbolTableRecord
100
AcDbLinetypeTableRecord
  2
CENTER
 70
     0
  3
Center ____ _ ____ _ ____ _ ____ _ ____ _ ____
 72
    65
 73
     4
 40
10.16
 49
6.35
 74
     0
 49
-1.27
 74
     0
 49
1.27
 74
     0
 49
-1.27
 74
     0
  0
LTYPE
  5
2D
330
5
100
AcDbSymbolTableRecord
100
AcDbLinetypeTableRecord
  2
CENTERX2
 70
     0
  3
Center (2x) ________  __  ________  __  _____
 72
    65
 73
     4
 40
20.32
 49
12.7
 74
     0
 49
-2.54
 74
     0
 49
2.54
 74
     0
 49
-2.54
 74
     0
  0
LTYPE
  5
2E
330
5
100
AcDbSymbolTableRecord
100
AcDbLinetypeTableRecord
  2
DOT2
 70
     0
  3
Dot (.5x) ........................................
 72
    65
 73
     2
 40
0.635
 49
0.0
 74
     0
 49
-0.635
 74
     0
  0
ENDTAB
  0
TABLE
  2
LAYER
  5
2
330
0
100
AcDbSymbolTable
 70
     4
  0
LAYER
  5
10
330
2
100
AcDbSymbolTableRecord
100
AcDbLayerTableRecord
  2
0
 70
     0
 62
     7
  6
Continuous
370
    -3
390
F
  0
LAYER
  5
2F
330
2
100
AcDbSymbolTableRecord
100
AcDbLayerTableRecord
  2
SLD-0
 70
     0
 62
     7
  6
Continuous
370
     0
390
F
  0
LAYER
  5
30
330
2
100
AcDbSymbolTableRecord
100
AcDbLayerTableRecord
  2
SLD-DEFPOINTS
 70
     0
 62
     7
  6
Continuous
370
     0
390
F
  0
LAYER
  5
87
330
2
100
AcDbSymbolTableRecord
100
AcDbLayerTableRecord
  2
Defpoints
 70
     0
 62
     7
  6
Continuous
290
     0
370
    -3
390
F
  0
ENDTAB
  0
TABLE
  2
STYLE
  5
3
330
0
100
AcDbSymbolTable
 70
     4
  0
STYLE
  5
11
330
3
100
AcDbSymbolTableRecord
100
AcDbTextStyleTableRecord
  2
Standard
 70
     0
 40
0.0
 41
1.0
 50
0.0
 71
     0
 42
2.5
  3
txt
  4
bigfont
  0
STYLE
  5
34
330
3
100
AcDbSymbolTableRecord
100
AcDbTextStyleTableRecord
  2
SLDTEXTSTYLE0
 70
     0
 40
0.0
 41
0.7
 50
0.0
 71
     0
 42
0.2
  3
TXT
  4
bigfont
  0
STYLE
  5
94
330
3
100
AcDbSymbolTableRecord
100
AcDbTextStyleTableRecord
  2
SLDTEXTSTYLE1
 70
     0
 40
0.0
 41
0.75
 50
0.0
 71
     0
 42
0.2
  3
TXT
  4
bigfont
  0
STYLE
  5
A2
330
3
100
AcDbSymbolTableRecord
100
AcDbTextStyleTableRecord
  2
SLDTEXTSTYLE2
 70
     0
 40
0.0
 41
0.96
 50
0.0
 71
     0
 42
0.2
  3
TXT
  4
bigfont
  0
ENDTAB
  0
TABLE
  2
VIEW
  5
6
330
0
100
AcDbSymbolTable
 70
     0
  0
ENDTAB
  0
TABLE
  2
UCS
  5
7
330
0
100
AcDbSymbolTable
 70
     0
  0
ENDTAB
  0
TABLE
  2
APPID
  5
9
330
0
100
AcDbSymbolTable
 70
     1
  0
APPID
  5
12
330
9
100
AcDbSymbolTableRecord
100
AcDbRegAppTableRecord
  2
ACAD
 70
     0
  0
ENDTAB
  0
TABLE
  2
DIMSTYLE
  5
A
330
0
100
AcDbSymbolTable
 70
     5
100
AcDbDimStyleTable
  0
DIMSTYLE
105
27
330
A
100
AcDbSymbolTableRecord
100
AcDbDimStyleTableRecord
  2
ISO-25
 70
     0
 41
2.5
 42
0.625
 43
3.75
 44
1.25
 73
     0
 74
     0
 77
     1
 78
     8
140
2.5
141
2.5
143
0.0393700787
147
0.625
171
     3
172
     1
271
     2
272
     2
274
     3
278
    44
283
     0
284
     8
340
11
  0
DIMSTYLE
105
95
102
{ACAD_REACTORS
330
86
330
A4
330
D5
330
EF
330
109
330
145
330
15E
330
176
102
}
330
A
100
AcDbSymbolTableRecord
100
AcDbDimStyleTableRecord
  2
SLDDIMSTYLE0
 70
     0
 41
3.0
 44
0.0
 73
     0
 74
     0
 77
     3
 78
    12
140
3.5
147
0.875
173
     1
271
     0
272
     2
284
    12
340
94
341
96
343
96
344
96
  0
DIMSTYLE
105
CA
102
{ACAD_REACTORS
330
BB
102
}
330
A
100
AcDbSymbolTableRecord
100
AcDbDimStyleTableRecord
  2
SLDDIMSTYLE1
 70
     0
 41
3.0
 44
0.0
 73
     0
 74
     0
 77
     3
 78
    12
140
3.5
147
0.875
173
     1
271
     1
272
     2
284
    12
340
94
341
96
343
96
344
96
  0
DIMSTYLE
105
12A
102
{ACAD_REACTORS
330
120
102
}
330
A
100
AcDbSymbolTableRecord
100
AcDbDimStyleTableRecord
  2
SLDDIMSTYLE2
 70
     0
 41
3.0
 44
0.0
 78
    12
140
3.5
147
0.875
173
     1
271
     0
272
     2
284
    12
340
94
341
96
343
96
344
96
  0
DIMSTYLE
105
13C
102
{ACAD_REACTORS
330
132
102
}
330
A
100
AcDbSymbolTableRecord
100
AcDbDimStyleTableRecord
  2
SLDDIMSTYLE3
 70
     0
 41
3.0
 44
0.0
 78
    12
140
3.5
147
0.875
172
     1
173
     1
271
     0
272
     2
284
    12
340
94
341
96
343
96
344
96
  0
ENDTAB
  0
TABLE
  2
BLOCK_RECORD
  5
1
330
0
100
AcDbSymbolTable
 70
    19
  0
BLOCK_RECORD
  5
1F
330
1
100
AcDbSymbolTableRecord
100
AcDbBlockTableRecord
  2
*Model_Space
340
22
  0
BLOCK_RECORD
  5
1B
330
1
100
AcDbSymbolTableRecord
100
AcDbBlockTableRecord
  2
*Paper_Space
340
1E
  0
BLOCK_RECORD
  5
23
330
1
100
AcDbSymbolTableRecord
100
AcDbBlockTableRecord
  2
*Paper_Space0
340
26
  0
BLOCK_RECORD
  5
31
330
1
100
AcDbSymbolTableRecord
100
AcDbBlockTableRecord
  2
注記
340
0
  0
BLOCK_RECORD
  5
37
330
1
100
AcDbSymbolTableRecord
100
AcDbBlockTableRecord
  2
_OPEN30
340
0
102
{BLKREFS
331
19B
102
}
  0
BLOCK_RECORD
  5
3D
330
1
100
AcDbSymbolTableRecord
100
AcDbBlockTableRecord
  2
SW_CENTERMARK0
340
0
102
{BLKREFS
331
19C
102
}
  0
BLOCK_RECORD
  5
44
330
1
100
AcDbSymbolTableRecord
100
AcDbBlockTableRecord
  2
SW_CENTERMARK1
340
0
102
{BLKREFS
331
19D
102
}
  0
BLOCK_RECORD
  5
4B
330
1
100
AcDbSymbolTableRecord
100
AcDbBlockTableRecord
  2
SW_CENTERMARK2
340
0
102
{BLKREFS
331
19E
102
}
  0
BLOCK_RECORD
  5
88
330
1
100
AcDbSymbolTableRecord
100
AcDbBlockTableRecord
  2
*D6
340
0
  0
BLOCK_RECORD
  5
96
330
1
100
AcDbSymbolTableRecord
100
AcDbBlockTableRecord
  2
_None
340
0
102
{BLKREFS
331
8D
331
8C
331
AA
331
A9
331
C2
331
C1
331
DB
331
DA
331
F5
331
F4
331
10F
331
10E
331
125
331
137
331
14B
331
14A
331
164
331
163
331
17C
331
17B
102
}
  0
BLOCK_RECORD
  5
A5
330
1
100
AcDbSymbolTableRecord
100
AcDbBlockTableRecord
  2
*D8
340
0
  0
BLOCK_RECORD
  5
BC
330
1
100
AcDbSymbolTableRecord
100
AcDbBlockTableRecord
  2
*D9
340
0
  0
BLOCK_RECORD
  5
D6
330
1
100
AcDbSymbolTableRecord
100
AcDbBlockTableRecord
  2
*D10
340
0
  0
BLOCK_RECORD
  5
F0
330
1
100
AcDbSymbolTableRecord
100
AcDbBlockTableRecord
  2
*D11
340
0
  0
BLOCK_RECORD
  5
10A
330
1
100
AcDbSymbolTableRecord
100
AcDbBlockTableRecord
  2
*D12
340
0
  0
BLOCK_RECORD
  5
121
330
1
100
AcDbSymbolTableRecord
100
AcDbBlockTableRecord
  2
*D13
340
0
  0
BLOCK_RECORD
  5
133
330
1
100
AcDbSymbolTableRecord
100
AcDbBlockTableRecord
  2
*D14
340
0
  0
BLOCK_RECORD
  5
146
330
1
100
AcDbSymbolTableRecord
100
AcDbBlockTableRecord
  2
*D15
340
0
  0
BLOCK_RECORD
  5
15F
330
1
100
AcDbSymbolTableRecord
100
AcDbBlockTableRecord
  2
*D16
340
0
  0
BLOCK_RECORD
  5
177
330
1
100
AcDbSymbolTableRecord
100
AcDbBlockTableRecord
  2
*D17
340
0
  0
BLOCK_RECORD
  5
194
330
1
100
AcDbSymbolTableRecord
100
AcDbBlockTableRecord
  2
SW_NOTE_0
340
0
102
{BLKREFS
331
199
102
}
  0
ENDTAB
  0
ENDSEC
  0
SECTION
  2
BLOCKS
  0
BLOCK
  5
20
330
1F
100
AcDbEntity
  8
0
100
AcDbBlockBegin
  2
*Model_Space
 70
     0
 71
     0
 10
0.0
 20
0.0
 30
0.0
  3
*Model_Space
  1

  0
ENDBLK
  5
21
330
1F
100
AcDbEntity
  8
0
100
AcDbBlockEnd
  0
BLOCK
  5
1C
330
1B
100
AcDbEntity
 67
     1
  8
0
100
AcDbBlockBegin
  2
*Paper_Space
 70
     0
 71
     0
 10
0.0
 20
0.0
 30
0.0
  3
*Paper_Space
  1

  0
ENDBLK
  5
1D
330
1B
100
AcDbEntity
 67
     1
  8
0
100
AcDbBlockEnd
  0
BLOCK
  5
24
330
23
100
AcDbEntity
  8
0
100
AcDbBlockBegin
  2
*Paper_Space0
 70
     0
 71
     0
 10
0.0
 20
0.0
 30
0.0
  3
*Paper_Space0
  1

  0
ENDBLK
  5
25
330
23
100
AcDbEntity
  8
0
100
AcDbBlockEnd
  0
BLOCK
  5
32
330
31
100
AcDbEntity
  8
0
100
AcDbBlockBegin
  2
注記
 70
     0
 71
     0
 10
0.0
 20
0.0
 30
0.0
  3
注記
  1

  0
MTEXT
  5
35
330
31
100
AcDbEntity
  8
0
  6
Continuous
 62
     7
370
     0
100
AcDbMText
 10
0.2636785918
 20
9.0739778448
 30
0.0
 40
3.5
 41
0.0
 71
     1
 72
     1
  1
１．特記ナキ角部ハ、バリ　カエリノ無キコト。
  7
SLDTEXTSTYLE0
 73
     1
 44
1.0
  0
MTEXT
  5
36
330
31
100
AcDbEntity
  8
0
  6
Continuous
 62
     7
370
     0
100
AcDbMText
 10
0.2636785918
 20
3.5759549983
 30
0.0
 40
3.5
 41
0.0
 71
     1
 72
     1
  1
２．特記ナキ隅部ハ、Ｒ０．４ＭＡＸトスル。
  7
SLDTEXTSTYLE0
 73
     1
 44
1.0
  0
ENDBLK
  5
33
330
31
100
AcDbEntity
  8
0
100
AcDbBlockEnd
  0
BLOCK
  5
38
330
37
100
AcDbEntity
  8
0
100
AcDbBlockBegin
  2
_OPEN30
 70
     0
 71
     0
 10
0.0
 20
0.0
 30
0.0
  3
_OPEN30
  1

  0
LINE
  5
3A
330
37
100
AcDbEntity
  8
SLD-0
  6
Continuous
100
AcDbLine
 10
-1.0
 20
0.267949
 30
0.0
 11
0.0
 21
0.0
 31
0.0
  0
LINE
  5
3B
330
37
100
AcDbEntity
  8
SLD-0
  6
Continuous
100
AcDbLine
 10
0.0
 20
0.0
 30
0.0
 11
-1.0
 21
-0.267949
 31
0.0
  0
LINE
  5
3C
330
37
100
AcDbEntity
  8
SLD-0
  6
Continuous
100
AcDbLine
 10
0.0
 20
0.0
 30
0.0
 11
-1.0
 21
0.0
 31
0.0
  0
ENDBLK
  5
39
330
37
100
AcDbEntity
  8
0
100
AcDbBlockEnd
  0
BLOCK
  5
3E
330
3D
100
AcDbEntity
  8
0
100
AcDbBlockBegin
  2
SW_CENTERMARK0
 70
     0
 71
     0
 10
0.0
 20
0.0
 30
0.0
  3
SW_CENTERMARK0
  1

  0
LINE
  5
40
330
3D
100
AcDbEntity
  8
SLD-0
  6
Continuous
 62
     7
100
AcDbLine
 10
85.5654514056
 20
177.6171404592
 30
0.0
 11
85.5654514056
 21
180.1171404592
 31
0.0
  0
LINE
  5
41
330
3D
100
AcDbEntity
  8
SLD-0
  6
Continuous
 62
     7
100
AcDbLine
 10
85.5654514056
 20
177.6171404592
 30
0.0
 11
83.0654514056
 21
177.6171404592
 31
0.0
  0
LINE
  5
42
330
3D
100
AcDbEntity
  8
SLD-0
  6
Continuous
 62
     7
100
AcDbLine
 10
85.5654514056
 20
177.6171404592
 30
0.0
 11
85.5654514056
 21
175.1171404592
 31
0.0
  0
LINE
  5
43
330
3D
100
AcDbEntity
  8
SLD-0
  6
Continuous
 62
     7
100
AcDbLine
 10
85.5654514056
 20
177.6171404592
 30
0.0
 11
88.0654514056
 21
177.6171404592
 31
0.0
  0
ENDBLK
  5
3F
330
3D
100
AcDbEntity
  8
0
100
AcDbBlockEnd
  0
BLOCK
  5
45
330
44
100
AcDbEntity
  8
0
100
AcDbBlockBegin
  2
SW_CENTERMARK1
 70
     0
 71
     0
 10
0.0
 20
0.0
 30
0.0
  3
SW_CENTERMARK1
  1

  0
LINE
  5
47
330
44
100
AcDbEntity
  8
SLD-0
  6
Continuous
 62
     7
100
AcDbLine
 10
155.5654514056
 20
177.6171404592
 30
0.0
 11
155.5654514056
 21
180.1171404592
 31
0.0
  0
LINE
  5
48
330
44
100
AcDbEntity
  8
SLD-0
  6
Continuous
 62
     7
100
AcDbLine
 10
155.5654514056
 20
177.6171404592
 30
0.0
 11
153.0654514056
 21
177.6171404592
 31
0.0
  0
LINE
  5
49
330
44
100
AcDbEntity
  8
SLD-0
  6
Continuous
 62
     7
100
AcDbLine
 10
155.5654514056
 20
177.6171404592
 30
0.0
 11
155.5654514056
 21
175.1171404592
 31
0.0
  0
LINE
  5
4A
330
44
100
AcDbEntity
  8
SLD-0
  6
Continuous
 62
     7
100
AcDbLine
 10
155.5654514056
 20
177.6171404592
 30
0.0
 11
158.0654514056
 21
177.6171404592
 31
0.0
  0
ENDBLK
  5
46
330
44
100
AcDbEntity
  8
0
100
AcDbBlockEnd
  0
BLOCK
  5
4C
330
4B
100
AcDbEntity
  8
0
100
AcDbBlockBegin
  2
SW_CENTERMARK2
 70
     0
 71
     0
 10
0.0
 20
0.0
 30
0.0
  3
SW_CENTERMARK2
  1

  0
LINE
  5
4E
330
4B
100
AcDbEntity
  8
SLD-0
  6
Continuous
 62
     7
100
AcDbLine
 10
69.5654514056
 20
177.6171404592
 30
0.0
 11
69.5654514056
 21
180.1171404592
 31
0.0
  0
LINE
  5
4F
330
4B
100
AcDbEntity
  8
SLD-0
  6
Continuous
 62
     7
100
AcDbLine
 10
69.5654514056
 20
177.6171404592
 30
0.0
 11
67.0654514056
 21
177.6171404592
 31
0.0
  0
LINE
  5
50
330
4B
100
AcDbEntity
  8
SLD-0
  6
Continuous
 62
     7
100
AcDbLine
 10
69.5654514056
 20
177.6171404592
 30
0.0
 11
69.5654514056
 21
175.1171404592
 31
0.0
  0
LINE
  5
51
330
4B
100
AcDbEntity
  8
SLD-0
  6
Continuous
 62
     7
100
AcDbLine
 10
69.5654514056
 20
177.6171404592
 30
0.0
 11
72.0654514056
 21
177.6171404592
 31
0.0
  0
LINE
  5
52
330
4B
100
AcDbEntity
  8
SLD-0
  6
Continuous
 62
     7
100
AcDbLine
 10
69.5654514056
 20
182.6171404592
 30
0.0
 11
69.5654514056
 21
185.3671404592
 31
0.0
  0
LINE
  5
53
330
4B
100
AcDbEntity
  8
SLD-0
  6
Continuous
 62
     7
100
AcDbLine
 10
64.5654514056
 20
177.6171404592
 30
0.0
 11
61.8154514056
 21
177.6171404592
 31
0.0
  0
LINE
  5
54
330
4B
100
AcDbEntity
  8
SLD-0
  6
Continuous
 62
     7
100
AcDbLine
 10
69.5654514056
 20
172.6171404592
 30
0.0
 11
69.5654514056
 21
169.8671404592
 31
0.0
  0
LINE
  5
55
330
4B
100
AcDbEntity
  8
SLD-0
  6
Continuous
 62
     7
100
AcDbLine
 10
74.5654514056
 20
177.6171404592
 30
0.0
 11
77.3154514056
 21
177.6171404592
 31
0.0
  0
ENDBLK
  5
4D
330
4B
100
AcDbEntity
  8
0
100
AcDbBlockEnd
  0
BLOCK
  5
92
330
88
100
AcDbEntity
  8
0
100
AcDbBlockBegin
  2
*D6
 70
     1
 71
     0
 10
0.0
 20
0.0
 30
0.0
  3
*D6
  1

  0
LINE
  5
99
330
88
100
AcDbEntity
  8
SLD-0
 62
     7
100
AcDbLine
 10
85.5654514056
 20
178.6171404592
 30
0.0
 11
85.5654514056
 21
206.4004082789
 31
0.0
  0
LINE
  5
9A
330
88
100
AcDbEntity
  8
SLD-0
 62
     7
100
AcDbLine
 10
59.5654514056
 20
186.6171404592
 30
0.0
 11
59.5654514056
 21
206.4004082789
 31
0.0
  0
LINE
  5
9B
330
88
100
AcDbEntity
  8
SLD-0
 62
     7
100
AcDbLine
 10
85.5654514056
 20
205.4004082789
 30
0.0
 11
59.5654514056
 21
205.4004082789
 31
0.0
  0
LINE
  5
9C
330
88
100
AcDbEntity
  8
SLD-0
 62
     7
100
AcDbLine
 10
82.5654514056
 20
206.2042552789
 30
0.0
 11
85.5654514056
 21
205.4004082789
 31
0.0
  0
LINE
  5
9D
330
88
100
AcDbEntity
  8
SLD-0
 62
     7
100
AcDbLine
 10
85.5654514056
 20
205.4004082789
 30
0.0
 11
82.5654514056
 21
204.5965612789
 31
0.0
  0
LINE
  5
9E
330
88
100
AcDbEntity
  8
SLD-0
 62
     7
100
AcDbLine
 10
85.5654514056
 20
205.4004082789
 30
0.0
 11
82.5654514056
 21
205.4004082789
 31
0.0
  0
LINE
  5
9F
330
88
100
AcDbEntity
  8
SLD-0
 62
     7
100
AcDbLine
 10
62.5654514056
 20
204.5965612789
 30
0.0
 11
59.5654514056
 21
205.4004082789
 31
0.0
  0
LINE
  5
A0
330
88
100
AcDbEntity
  8
SLD-0
 62
     7
100
AcDbLine
 10
59.5654514056
 20
205.4004082789
 30
0.0
 11
62.5654514056
 21
206.2042552789
 31
0.0
  0
LINE
  5
A1
330
88
100
AcDbEntity
  8
SLD-0
 62
     7
100
AcDbLine
 10
59.5654514056
 20
205.4004082789
 30
0.0
 11
62.5654514056
 21
205.4004082789
 31
0.0
  0
MTEXT
  5
A3
330
88
100
AcDbEntity
  8
SLD-0
 62
     7
100
AcDbMText
 10
70.529001346
 20
209.9271020912
 30
0.1
 40
3.5
 41
0.0
 71
     1
 72
     1
  1
26
  7
SLDTEXTSTYLE2
 73
     1
 44
1.0
  0
ENDBLK
  5
93
330
88
100
AcDbEntity
  8
0
100
AcDbBlockEnd
  0
BLOCK
  5
97
330
96
100
AcDbEntity
  8
0
100
AcDbBlockBegin
  2
_None
 70
     0
 71
     0
 10
0.0
 20
0.0
 30
0.0
  3
_None
  1

  0
ENDBLK
  5
98
330
96
100
AcDbEntity
  8
0
100
AcDbBlockEnd
  0
BLOCK
  5
AF
330
A5
100
AcDbEntity
  8
0
100
AcDbBlockBegin
  2
*D8
 70
     1
 71
     0
 10
0.0
 20
0.0
 30
0.0
  3
*D8
  1

  0
LINE
  5
B1
330
A5
100
AcDbEntity
  8
SLD-0
 62
     7
100
AcDbLine
 10
85.5654514056
 20
178.6171404592
 30
0.0
 11
85.5654514056
 21
206.4004082789
 31
0.0
  0
LINE
  5
B2
330
A5
100
AcDbEntity
  8
SLD-0
 62
     7
100
AcDbLine
 10
155.5654514056
 20
178.6171404592
 30
0.0
 11
155.5654514056
 21
206.4004082789
 31
0.0
  0
LINE
  5
B3
330
A5
100
AcDbEntity
  8
SLD-0
 62
     7
100
AcDbLine
 10
85.5654514056
 20
205.4004082789
 30
0.0
 11
155.5654514056
 21
205.4004082789
 31
0.0
  0
LINE
  5
B4
330
A5
100
AcDbEntity
  8
SLD-0
 62
     7
100
AcDbLine
 10
88.5654514056
 20
204.5965612789
 30
0.0
 11
85.5654514056
 21
205.4004082789
 31
0.0
  0
LINE
  5
B5
330
A5
100
AcDbEntity
  8
SLD-0
 62
     7
100
AcDbLine
 10
85.5654514056
 20
205.4004082789
 30
0.0
 11
88.5654514056
 21
206.2042552789
 31
0.0
  0
LINE
  5
B6
330
A5
100
AcDbEntity
  8
SLD-0
 62
     7
100
AcDbLine
 10
85.5654514056
 20
205.4004082789
 30
0.0
 11
88.5654514056
 21
205.4004082789
 31
0.0
  0
LINE
  5
B7
330
A5
100
AcDbEntity
  8
SLD-0
 62
     7
100
AcDbLine
 10
152.5654514056
 20
206.2042552789
 30
0.0
 11
155.5654514056
 21
205.4004082789
 31
0.0
  0
LINE
  5
B8
330
A5
100
AcDbEntity
  8
SLD-0
 62
     7
100
AcDbLine
 10
155.5654514056
 20
205.4004082789
 30
0.0
 11
152.5654514056
 21
204.5965612789
 31
0.0
  0
LINE
  5
B9
330
A5
100
AcDbEntity
  8
SLD-0
 62
     7
100
AcDbLine
 10
155.5654514056
 20
205.4004082789
 30
0.0
 11
152.5654514056
 21
205.4004082789
 31
0.0
  0
MTEXT
  5
BA
330
A5
100
AcDbEntity
  8
SLD-0
 62
     7
100
AcDbMText
 10
118.529001346
 20
209.9271020912
 30
0.1
 40
3.5
 41
0.0
 71
     1
 72
     1
  1
70
  7
SLDTEXTSTYLE2
 73
     1
 44
1.0
  0
ENDBLK
  5
B0
330
A5
100
AcDbEntity
  8
0
100
AcDbBlockEnd
  0
BLOCK
  5
C8
330
BC
100
AcDbEntity
  8
0
100
AcDbBlockBegin
  2
*D9
 70
     1
 71
     0
 10
0.0
 20
0.0
 30
0.0
  3
*D9
  1

  0
LINE
  5
CB
330
BC
100
AcDbEntity
  8
SLD-0
 62
     7
100
AcDbLine
 10
120.0942134396
 20
180.8671404592
 30
0.0
 11
120.0942134396
 21
185.8671404592
 31
0.0
  0
LINE
  5
CC
330
BC
100
AcDbEntity
  8
SLD-0
 62
     7
100
AcDbLine
 10
120.0942134396
 20
180.8671404592
 30
0.0
 11
120.0942134396
 21
174.3671404592
 31
0.0
  0
LINE
  5
CD
330
BC
100
AcDbEntity
  8
SLD-0
 62
     7
100
AcDbLine
 10
120.0942134396
 20
174.3671404592
 30
0.0
 11
120.0942134396
 21
157.0243802366
 31
0.0
  0
LINE
  5
CE
330
BC
100
AcDbEntity
  8
SLD-0
 62
     7
100
AcDbLine
 10
120.8980604396
 20
183.8671404592
 30
0.0
 11
120.0942134396
 21
180.8671404592
 31
0.0
  0
LINE
  5
CF
330
BC
100
AcDbEntity
  8
SLD-0
 62
     7
100
AcDbLine
 10
120.0942134396
 20
180.8671404592
 30
0.0
 11
119.2903664396
 21
183.8671404592
 31
0.0
  0
LINE
  5
D0
330
BC
100
AcDbEntity
  8
SLD-0
 62
     7
100
AcDbLine
 10
120.0942134396
 20
180.8671404592
 30
0.0
 11
120.0942134396
 21
183.8671404592
 31
0.0
  0
LINE
  5
D1
330
BC
100
AcDbEntity
  8
SLD-0
 62
     7
100
AcDbLine
 10
119.2903664396
 20
171.3671404592
 30
0.0
 11
120.0942134396
 21
174.3671404592
 31
0.0
  0
LINE
  5
D2
330
BC
100
AcDbEntity
  8
SLD-0
 62
     7
100
AcDbLine
 10
120.0942134396
 20
174.3671404592
 30
0.0
 11
120.8980604396
 21
171.3671404592
 31
0.0
  0
LINE
  5
D3
330
BC
100
AcDbEntity
  8
SLD-0
 62
     7
100
AcDbLine
 10
120.0942134396
 20
174.3671404592
 30
0.0
 11
120.0942134396
 21
171.3671404592
 31
0.0
  0
MTEXT
  5
D4
330
BC
100
AcDbEntity
  8
SLD-0
 62
     7
100
AcDbMText
 10
115.5675196272
 20
158.6118802366
 30
0.1
 40
3.5
 41
0.0
 71
     1
 72
     1
  1
6.5
  7
SLDTEXTSTYLE2
 11
6.123031769111886E-17
 21
1.0
 31
0.0
 73
     1
 44
1.0
  0
ENDBLK
  5
C9
330
BC
100
AcDbEntity
  8
0
100
AcDbBlockEnd
  0
BLOCK
  5
E1
330
D6
100
AcDbEntity
  8
0
100
AcDbBlockBegin
  2
*D10
 70
     1
 71
     0
 10
0.0
 20
0.0
 30
0.0
  3
*D10
  1

  0
LINE
  5
E3
330
D6
100
AcDbEntity
  8
SLD-0
100
AcDbLine
 10
158.5654514056
 20
177.6171404592
 30
0.0
 11
173.5157662115
 21
177.6171404592
 31
0.0
  0
LINE
  5
E4
330
D6
100
AcDbEntity
  8
SLD-0
100
AcDbLine
 10
159.5654514056
 20
169.6171404592
 30
0.0
 11
173.5157662115
 21
169.6171404592
 31
0.0
  0
LINE
  5
E5
330
D6
100
AcDbEntity
  8
SLD-0
100
AcDbLine
 10
172.5157662115
 20
177.6171404592
 30
0.0
 11
172.5157662115
 21
182.6171404592
 31
0.0
  0
LINE
  5
E6
330
D6
100
AcDbEntity
  8
SLD-0
100
AcDbLine
 10
172.5157662115
 20
177.6171404592
 30
0.0
 11
172.5157662115
 21
169.6171404592
 31
0.0
  0
LINE
  5
E7
330
D6
100
AcDbEntity
  8
SLD-0
100
AcDbLine
 10
172.5157662115
 20
169.6171404592
 30
0.0
 11
172.5157662115
 21
164.6171404592
 31
0.0
  0
LINE
  5
E8
330
D6
100
AcDbEntity
  8
SLD-0
100
AcDbLine
 10
173.3196132115
 20
180.6171404592
 30
0.0
 11
172.5157662115
 21
177.6171404592
 31
0.0
  0
LINE
  5
E9
330
D6
100
AcDbEntity
  8
SLD-0
100
AcDbLine
 10
172.5157662115
 20
177.6171404592
 30
0.0
 11
171.7119192115
 21
180.6171404592
 31
0.0
  0
LINE
  5
EA
330
D6
100
AcDbEntity
  8
SLD-0
100
AcDbLine
 10
172.5157662115
 20
177.6171404592
 30
0.0
 11
172.5157662115
 21
180.6171404592
 31
0.0
  0
LINE
  5
EB
330
D6
100
AcDbEntity
  8
SLD-0
100
AcDbLine
 10
171.7119192115
 20
166.6171404592
 30
0.0
 11
172.5157662115
 21
169.6171404592
 31
0.0
  0
LINE
  5
EC
330
D6
100
AcDbEntity
  8
SLD-0
100
AcDbLine
 10
172.5157662115
 20
169.6171404592
 30
0.0
 11
173.3196132115
 21
166.6171404592
 31
0.0
  0
LINE
  5
ED
330
D6
100
AcDbEntity
  8
SLD-0
100
AcDbLine
 10
172.5157662115
 20
169.6171404592
 30
0.0
 11
172.5157662115
 21
166.6171404592
 31
0.0
  0
MTEXT
  5
EE
330
D6
100
AcDbEntity
  8
SLD-0
100
AcDbMText
 10
167.9890723992
 20
172.5989154294
 30
0.1
 40
3.5
 41
0.0
 71
     1
 72
     1
  1
8
  7
SLDTEXTSTYLE2
 11
6.123031769111886E-17
 21
1.0
 31
0.0
 73
     1
 44
1.0
  0
ENDBLK
  5
E2
330
D6
100
AcDbEntity
  8
0
100
AcDbBlockEnd
  0
BLOCK
  5
FB
330
F0
100
AcDbEntity
  8
0
100
AcDbBlockBegin
  2
*D11
 70
     1
 71
     0
 10
0.0
 20
0.0
 30
0.0
  3
*D11
  1

  0
LINE
  5
FD
330
F0
100
AcDbEntity
  8
SLD-0
100
AcDbLine
 10
61.5654514056
 20
169.6171404592
 30
0.0
 11
46.5421413116
 21
169.6171404592
 31
0.0
  0
LINE
  5
FE
330
F0
100
AcDbEntity
  8
SLD-0
100
AcDbLine
 10
62.1154514056
 20
177.6171404592
 30
0.0
 11
46.5421413116
 21
177.6171404592
 31
0.0
  0
LINE
  5
FF
330
F0
100
AcDbEntity
  8
SLD-0
100
AcDbLine
 10
47.5421413116
 20
169.6171404592
 30
0.0
 11
47.5421413116
 21
164.6171404592
 31
0.0
  0
LINE
  5
100
330
F0
100
AcDbEntity
  8
SLD-0
100
AcDbLine
 10
47.5421413116
 20
169.6171404592
 30
0.0
 11
47.5421413116
 21
177.6171404592
 31
0.0
  0
LINE
  5
101
330
F0
100
AcDbEntity
  8
SLD-0
100
AcDbLine
 10
47.5421413116
 20
177.6171404592
 30
0.0
 11
47.5421413116
 21
182.6171404592
 31
0.0
  0
LINE
  5
102
330
F0
100
AcDbEntity
  8
SLD-0
100
AcDbLine
 10
46.7382943116
 20
166.6171404592
 30
0.0
 11
47.5421413116
 21
169.6171404592
 31
0.0
  0
LINE
  5
103
330
F0
100
AcDbEntity
  8
SLD-0
100
AcDbLine
 10
47.5421413116
 20
169.6171404592
 30
0.0
 11
48.3459883116
 21
166.6171404592
 31
0.0
  0
LINE
  5
104
330
F0
100
AcDbEntity
  8
SLD-0
100
AcDbLine
 10
47.5421413116
 20
169.6171404592
 30
0.0
 11
47.5421413116
 21
166.6171404592
 31
0.0
  0
LINE
  5
105
330
F0
100
AcDbEntity
  8
SLD-0
100
AcDbLine
 10
48.3459883116
 20
180.6171404592
 30
0.0
 11
47.5421413116
 21
177.6171404592
 31
0.0
  0
LINE
  5
106
330
F0
100
AcDbEntity
  8
SLD-0
100
AcDbLine
 10
47.5421413116
 20
177.6171404592
 30
0.0
 11
46.7382943116
 21
180.6171404592
 31
0.0
  0
LINE
  5
107
330
F0
100
AcDbEntity
  8
SLD-0
100
AcDbLine
 10
47.5421413116
 20
177.6171404592
 30
0.0
 11
47.5421413116
 21
180.6171404592
 31
0.0
  0
MTEXT
  5
108
330
F0
100
AcDbEntity
  8
SLD-0
100
AcDbMText
 10
43.0154474993
 20
172.5989154294
 30
0.1
 40
3.5
 41
0.0
 71
     1
 72
     1
  1
8
  7
SLDTEXTSTYLE2
 11
6.123031769111886E-17
 21
1.0
 31
0.0
 73
     1
 44
1.0
  0
ENDBLK
  5
FC
330
F0
100
AcDbEntity
  8
0
100
AcDbBlockEnd
  0
BLOCK
  5
114
330
10A
100
AcDbEntity
  8
0
100
AcDbBlockBegin
  2
*D12
 70
     1
 71
     0
 10
0.0
 20
0.0
 30
0.0
  3
*D12
  1

  0
LINE
  5
116
330
10A
100
AcDbEntity
  8
SLD-0
 62
     7
100
AcDbLine
 10
161.5654514056
 20
178.6171404592
 30
0.0
 11
161.5654514056
 21
216.1224517216
 31
0.0
  0
LINE
  5
117
330
10A
100
AcDbEntity
  8
SLD-0
 62
     7
100
AcDbLine
 10
59.5654514056
 20
178.6171404592
 30
0.0
 11
59.5654514056
 21
216.1224517216
 31
0.0
  0
LINE
  5
118
330
10A
100
AcDbEntity
  8
SLD-0
 62
     7
100
AcDbLine
 10
161.5654514056
 20
215.1224517216
 30
0.0
 11
59.5654514056
 21
215.1224517216
 31
0.0
  0
LINE
  5
119
330
10A
100
AcDbEntity
  8
SLD-0
 62
     7
100
AcDbLine
 10
158.5654514056
 20
215.9262987216
 30
0.0
 11
161.5654514056
 21
215.1224517216
 31
0.0
  0
LINE
  5
11A
330
10A
100
AcDbEntity
  8
SLD-0
 62
     7
100
AcDbLine
 10
161.5654514056
 20
215.1224517216
 30
0.0
 11
158.5654514056
 21
214.3186047216
 31
0.0
  0
LINE
  5
11B
330
10A
100
AcDbEntity
  8
SLD-0
 62
     7
100
AcDbLine
 10
161.5654514056
 20
215.1224517216
 30
0.0
 11
158.5654514056
 21
215.1224517216
 31
0.0
  0
LINE
  5
11C
330
10A
100
AcDbEntity
  8
SLD-0
 62
     7
100
AcDbLine
 10
62.5654514056
 20
214.3186047216
 30
0.0
 11
59.5654514056
 21
215.1224517216
 31
0.0
  0
LINE
  5
11D
330
10A
100
AcDbEntity
  8
SLD-0
 62
     7
100
AcDbLine
 10
59.5654514056
 20
215.1224517216
 30
0.0
 11
62.5654514056
 21
215.9262987216
 31
0.0
  0
LINE
  5
11E
330
10A
100
AcDbEntity
  8
SLD-0
 62
     7
100
AcDbLine
 10
59.5654514056
 20
215.1224517216
 30
0.0
 11
62.5654514056
 21
215.1224517216
 31
0.0
  0
MTEXT
  5
11F
330
10A
100
AcDbEntity
  8
SLD-0
 62
     7
100
AcDbMText
 10
107.5107763162
 20
219.6491455339
 30
0.1
 40
3.5
 41
0.0
 71
     1
 72
     1
  1
102
  7
SLDTEXTSTYLE2
 73
     1
 44
1.0
  0
ENDBLK
  5
115
330
10A
100
AcDbEntity
  8
0
100
AcDbBlockEnd
  0
BLOCK
  5
128
330
121
100
AcDbEntity
  8
0
100
AcDbBlockBegin
  2
*D13
 70
     1
 71
     0
 10
0.0
 20
0.0
 30
0.0
  3
*D13
  1

  0
LINE
  5
12B
330
121
100
AcDbEntity
  8
SLD-0
 62
     7
100
AcDbLine
 10
157.1925850773
 20
174.8037908516
 30
0.0
 11
159.8108447698
 21
170.2767627364
 31
0.0
  0
LINE
  5
12C
330
121
100
AcDbEntity
  8
SLD-0
 62
     7
100
AcDbLine
 10
160.5738452977
 20
168.9575181819
 30
0.0
 11
168.3127660601
 21
155.5767553904
 31
0.0
  0
LINE
  5
12D
330
121
100
AcDbEntity
  8
SLD-0
 62
     7
100
AcDbLine
 10
168.3127660601
 20
155.5767553904
 30
0.0
 11
179.1846162389
 21
155.5767553904
 31
0.0
  0
LINE
  5
12E
330
121
100
AcDbEntity
  8
SLD-0
 62
     7
100
AcDbLine
 10
157.9987076536
 20
171.8044015152
 30
0.0
 11
157.1925850773
 21
174.8037908516
 31
0.0
  0
LINE
  5
12F
330
121
100
AcDbEntity
  8
SLD-0
 62
     7
100
AcDbLine
 10
157.1925850773
 20
174.8037908516
 30
0.0
 11
159.3904015871
 21
172.6093039894
 31
0.0
  0
LINE
  5
130
330
121
100
AcDbEntity
  8
SLD-0
 62
     7
100
AcDbLine
 10
157.1925850773
 20
174.8037908516
 30
0.0
 11
158.6945546204
 21
172.2068527523
 31
0.0
  0
MTEXT
  5
131
330
121
100
AcDbEntity
  8
SLD-0
 62
     7
100
AcDbMText
 10
171.4877660601
 20
160.1034492028
 30
0.1
 40
3.5
 41
0.0
 71
     1
 72
     1
  1
2-R
  7
SLDTEXTSTYLE2
 73
     1
 44
1.0
  0
ENDBLK
  5
129
330
121
100
AcDbEntity
  8
0
100
AcDbBlockEnd
  0
BLOCK
  5
13A
330
133
100
AcDbEntity
  8
0
100
AcDbBlockBegin
  2
*D14
 70
     1
 71
     0
 10
0.0
 20
0.0
 30
0.0
  3
*D14
  1

  0
LINE
  5
13D
330
133
100
AcDbEntity
  8
SLD-0
 62
     7
100
AcDbLine
 10
66.1362088397
 20
182.5405839111
 30
0.0
 11
56.8362666121
 21
195.8927276521
 31
0.0
  0
LINE
  5
13E
330
133
100
AcDbEntity
  8
SLD-0
 62
     7
100
AcDbLine
 10
56.8362666121
 20
195.8927276521
 30
0.0
 11
35.7821661353
 21
195.8927276521
 31
0.0
  0
LINE
  5
13F
330
133
100
AcDbEntity
  8
SLD-0
 62
     7
100
AcDbLine
 10
65.0812034315
 20
185.4617366952
 30
0.0
 11
66.1362088397
 21
182.5405839111
 31
0.0
  0
LINE
  5
140
330
133
100
AcDbEntity
  8
SLD-0
 62
     7
100
AcDbLine
 10
66.1362088397
 20
182.5405839111
 30
0.0
 11
63.761971682
 21
184.5428745789
 31
0.0
  0
LINE
  5
141
330
133
100
AcDbEntity
  8
SLD-0
 62
     7
100
AcDbLine
 10
66.1362088397
 20
182.5405839111
 30
0.0
 11
64.4215875567
 21
185.002305637
 31
0.0
  0
MTEXT
  5
142
330
133
100
AcDbEntity
  8
SLD-0
 62
     7
100
AcDbMText
 10
37.3696661353
 20
200.4194214644
 30
0.1
 40
3.5
 41
0.0
 71
     1
 72
     1
  1
M
  7
SLDTEXTSTYLE2
 73
     1
 44
1.0
  0
MTEXT
  5
143
330
133
100
AcDbEntity
  8
SLD-0
 62
     7
100
AcDbMText
 10
39.4061161949
 20
200.4194214644
 30
0.1
 40
3.5
 41
0.0
 71
     1
 72
     1
  1
12
  7
SLDTEXTSTYLE2
 73
     1
 44
1.0
  0
MTEXT
  5
144
330
133
100
AcDbEntity
  8
SLD-0
 62
     7
100
AcDbMText
 10
43.4790163141
 20
200.4194214644
 30
0.1
 40
3.5
 41
0.0
 71
     1
 72
     1
  1
xP1.0
  7
SLDTEXTSTYLE2
 73
     1
 44
1.0
  0
ENDBLK
  5
13B
330
133
100
AcDbEntity
  8
0
100
AcDbBlockEnd
  0
BLOCK
  5
150
330
146
100
AcDbEntity
  8
0
100
AcDbBlockBegin
  2
*D15
 70
     1
 71
     0
 10
0.0
 20
0.0
 30
0.0
  3
*D15
  1

  0
LINE
  5
152
330
146
100
AcDbEntity
  8
SLD-0
 62
     7
100
AcDbLine
 10
69.5654514056
 20
186.3671404592
 30
0.0
 11
69.5654514056
 21
158.639880388
 31
0.0
  0
LINE
  5
153
330
146
100
AcDbEntity
  8
SLD-0
 62
     7
100
AcDbLine
 10
59.5654514056
 20
176.6171404592
 30
0.0
 11
59.5654514056
 21
158.639880388
 31
0.0
  0
LINE
  5
154
330
146
100
AcDbEntity
  8
SLD-0
 62
     7
100
AcDbLine
 10
69.5654514056
 20
159.639880388
 30
0.0
 11
74.5654514056
 21
159.639880388
 31
0.0
  0
LINE
  5
155
330
146
100
AcDbEntity
  8
SLD-0
 62
     7
100
AcDbLine
 10
69.5654514056
 20
159.639880388
 30
0.0
 11
59.5654514056
 21
159.639880388
 31
0.0
  0
LINE
  5
156
330
146
100
AcDbEntity
  8
SLD-0
 62
     7
100
AcDbLine
 10
59.5654514056
 20
159.639880388
 30
0.0
 11
54.5654514056
 21
159.639880388
 31
0.0
  0
LINE
  5
157
330
146
100
AcDbEntity
  8
SLD-0
 62
     7
100
AcDbLine
 10
72.5654514056
 20
158.836033388
 30
0.0
 11
69.5654514056
 21
159.639880388
 31
0.0
  0
LINE
  5
158
330
146
100
AcDbEntity
  8
SLD-0
 62
     7
100
AcDbLine
 10
69.5654514056
 20
159.639880388
 30
0.0
 11
72.5654514056
 21
160.443727388
 31
0.0
  0
LINE
  5
159
330
146
100
AcDbEntity
  8
SLD-0
 62
     7
100
AcDbLine
 10
69.5654514056
 20
159.639880388
 30
0.0
 11
72.5654514056
 21
159.639880388
 31
0.0
  0
LINE
  5
15A
330
146
100
AcDbEntity
  8
SLD-0
 62
     7
100
AcDbLine
 10
56.5654514056
 20
160.443727388
 30
0.0
 11
59.5654514056
 21
159.639880388
 31
0.0
  0
LINE
  5
15B
330
146
100
AcDbEntity
  8
SLD-0
 62
     7
100
AcDbLine
 10
59.5654514056
 20
159.639880388
 30
0.0
 11
56.5654514056
 21
158.836033388
 31
0.0
  0
LINE
  5
15C
330
146
100
AcDbEntity
  8
SLD-0
 62
     7
100
AcDbLine
 10
59.5654514056
 20
159.639880388
 30
0.0
 11
56.5654514056
 21
159.639880388
 31
0.0
  0
MTEXT
  5
15D
330
146
100
AcDbEntity
  8
SLD-0
 62
     7
100
AcDbMText
 10
62.529001346
 20
164.1665742003
 30
0.1
 40
3.5
 41
0.0
 71
     1
 72
     1
  1
10
  7
SLDTEXTSTYLE2
 73
     1
 44
1.0
  0
ENDBLK
  5
151
330
146
100
AcDbEntity
  8
0
100
AcDbBlockEnd
  0
BLOCK
  5
16A
330
15F
100
AcDbEntity
  8
0
100
AcDbBlockBegin
  2
*D16
 70
     1
 71
     0
 10
0.0
 20
0.0
 30
0.0
  3
*D16
  1

  0
LINE
  5
16C
330
15F
100
AcDbEntity
  8
SLD-0
 62
     7
100
AcDbLine
 10
61.5654514056
 20
185.6171404592
 30
0.0
 11
39.5121894942
 21
185.6171404592
 31
0.0
  0
LINE
  5
16D
330
15F
100
AcDbEntity
  8
SLD-0
 62
     7
100
AcDbLine
 10
61.5654514056
 20
169.6171404592
 30
0.0
 11
39.5121894942
 21
169.6171404592
 31
0.0
  0
LINE
  5
16E
330
15F
100
AcDbEntity
  8
SLD-0
 62
     7
100
AcDbLine
 10
40.5121894942
 20
185.6171404592
 30
0.0
 11
40.5121894942
 21
169.6171404592
 31
0.0
  0
LINE
  5
16F
330
15F
100
AcDbEntity
  8
SLD-0
 62
     7
100
AcDbLine
 10
39.7083424942
 20
182.6171404592
 30
0.0
 11
40.5121894942
 21
185.6171404592
 31
0.0
  0
LINE
  5
170
330
15F
100
AcDbEntity
  8
SLD-0
 62
     7
100
AcDbLine
 10
40.5121894942
 20
185.6171404592
 30
0.0
 11
41.3160364942
 21
182.6171404592
 31
0.0
  0
LINE
  5
171
330
15F
100
AcDbEntity
  8
SLD-0
 62
     7
100
AcDbLine
 10
40.5121894942
 20
185.6171404592
 30
0.0
 11
40.5121894942
 21
182.6171404592
 31
0.0
  0
LINE
  5
172
330
15F
100
AcDbEntity
  8
SLD-0
 62
     7
100
AcDbLine
 10
41.3160364942
 20
172.6171404592
 30
0.0
 11
40.5121894942
 21
169.6171404592
 31
0.0
  0
LINE
  5
173
330
15F
100
AcDbEntity
  8
SLD-0
 62
     7
100
AcDbLine
 10
40.5121894942
 20
169.6171404592
 30
0.0
 11
39.7083424942
 21
172.6171404592
 31
0.0
  0
LINE
  5
174
330
15F
100
AcDbEntity
  8
SLD-0
 62
     7
100
AcDbLine
 10
40.5121894942
 20
169.6171404592
 30
0.0
 11
40.5121894942
 21
172.6171404592
 31
0.0
  0
MTEXT
  5
175
330
15F
100
AcDbEntity
  8
SLD-0
 62
     7
100
AcDbMText
 10
35.9854956819
 20
175.5806903996
 30
0.1
 40
3.5
 41
0.0
 71
     1
 72
     1
  1
16
  7
SLDTEXTSTYLE2
 11
6.123031769111886E-17
 21
1.0
 31
0.0
 73
     1
 44
1.0
  0
ENDBLK
  5
16B
330
15F
100
AcDbEntity
  8
0
100
AcDbBlockEnd
  0
BLOCK
  5
182
330
177
100
AcDbEntity
  8
0
100
AcDbBlockBegin
  2
*D17
 70
     1
 71
     0
 10
0.0
 20
0.0
 30
0.0
  3
*D17
  1

  0
LINE
  5
184
330
177
100
AcDbEntity
  8
SLD-0
 62
     7
100
AcDbLine
 10
58.5654514056
 20
134.5999940184
 30
0.0
 11
44.4148057186
 21
134.5999940184
 31
0.0
  0
LINE
  5
185
330
177
100
AcDbEntity
  8
SLD-0
 62
     7
100
AcDbLine
 10
58.5654514056
 20
129.5999940184
 30
0.0
 11
44.4148057186
 21
129.5999940184
 31
0.0
  0
LINE
  5
186
330
177
100
AcDbEntity
  8
SLD-0
 62
     7
100
AcDbLine
 10
45.4148057186
 20
134.5999940184
 30
0.0
 11
45.4148057186
 21
139.5999940184
 31
0.0
  0
LINE
  5
187
330
177
100
AcDbEntity
  8
SLD-0
 62
     7
100
AcDbLine
 10
45.4148057186
 20
134.5999940184
 30
0.0
 11
45.4148057186
 21
129.5999940184
 31
0.0
  0
LINE
  5
188
330
177
100
AcDbEntity
  8
SLD-0
 62
     7
100
AcDbLine
 10
45.4148057186
 20
129.5999940184
 30
0.0
 11
45.4148057186
 21
124.5999940184
 31
0.0
  0
LINE
  5
189
330
177
100
AcDbEntity
  8
SLD-0
 62
     7
100
AcDbLine
 10
46.2186527186
 20
137.5999940184
 30
0.0
 11
45.4148057186
 21
134.5999940184
 31
0.0
  0
LINE
  5
18A
330
177
100
AcDbEntity
  8
SLD-0
 62
     7
100
AcDbLine
 10
45.4148057186
 20
134.5999940184
 30
0.0
 11
44.6109587186
 21
137.5999940184
 31
0.0
  0
LINE
  5
18B
330
177
100
AcDbEntity
  8
SLD-0
 62
     7
100
AcDbLine
 10
45.4148057186
 20
134.5999940184
 30
0.0
 11
45.4148057186
 21
137.5999940184
 31
0.0
  0
LINE
  5
18C
330
177
100
AcDbEntity
  8
SLD-0
 62
     7
100
AcDbLine
 10
44.6109587186
 20
126.5999940184
 30
0.0
 11
45.4148057186
 21
129.5999940184
 31
0.0
  0
LINE
  5
18D
330
177
100
AcDbEntity
  8
SLD-0
 62
     7
100
AcDbLine
 10
45.4148057186
 20
129.5999940184
 30
0.0
 11
46.2186527186
 21
126.5999940184
 31
0.0
  0
LINE
  5
18E
330
177
100
AcDbEntity
  8
SLD-0
 62
     7
100
AcDbLine
 10
45.4148057186
 20
129.5999940184
 30
0.0
 11
45.4148057186
 21
126.5999940184
 31
0.0
  0
MTEXT
  5
18F
330
177
100
AcDbEntity
  8
SLD-0
 62
     7
100
AcDbMText
 10
40.8881119063
 20
131.0817689886
 30
0.1
 40
3.5
 41
0.0
 71
     1
 72
     1
  1
5
  7
SLDTEXTSTYLE2
 11
6.123031769111886E-17
 21
1.0
 31
0.0
 73
     1
 44
1.0
  0
ENDBLK
  5
183
330
177
100
AcDbEntity
  8
0
100
AcDbBlockEnd
  0
BLOCK
  5
195
330
194
100
AcDbEntity
  8
0
100
AcDbBlockBegin
  2
SW_NOTE_0
 70
     0
 71
     0
 10
0.0
 20
0.0
 30
0.0
  3
SW_NOTE_0
  1

  0
MTEXT
  5
197
330
194
100
AcDbEntity
  8
0
  6
Continuous
 62
     7
370
     0
100
AcDbMText
 10
0.0
 20
4.9260606061
 30
0.0
 40
4.2333333333
 41
0.0
 71
     1
 72
     1
  1
スライド70Ｔ5
  7
SLDTEXTSTYLE0
 73
     1
 44
1.0
  0
MTEXT
  5
198
330
194
100
AcDbEntity
  8
0
  6
Continuous
 62
     7
370
     0
100
AcDbMText
 10
-6.1432346702
 20
-0.7183837702
 30
0.0
 40
4.2333333333
 41
0.0
 71
     1
 72
     1
  1
ブラケットＷ　Ｍ12
  7
SLDTEXTSTYLE0
 73
     1
 44
1.0
  0
ENDBLK
  5
196
330
194
100
AcDbEntity
  8
0
100
AcDbBlockEnd
  0
ENDSEC
  0
SECTION
  2
ENTITIES
  0
LINE
  5
56
330
1F
100
AcDbEntity
  8
SLD-0
  6
Continuous
 62
     7
100
AcDbLine
 10
161.5654515844
 20
182.6171403474
 30
0.0
 11
158.5654529553
 21
185.6171408391
 31
0.0
  0
LINE
  5
57
330
1F
100
AcDbEntity
  8
SLD-0
  6
Continuous
 62
     7
100
AcDbLine
 10
158.5654529553
 20
169.6171400792
 30
0.0
 11
161.5654515844
 21
172.6171405709
 31
0.0
  0
LINE
  5
58
330
1F
100
AcDbEntity
  8
SLD-0
  6
Continuous
 62
     7
100
AcDbLine
 10
62.5654511895
 20
169.6171400792
 30
0.0
 11
158.5654529553
 21
169.6171400792
 31
0.0
  0
LINE
  5
59
330
1F
100
AcDbEntity
  8
SLD-0
  6
Continuous
 62
     7
100
AcDbLine
 10
59.5654516291
 20
172.6171405709
 30
0.0
 11
62.5654511895
 21
169.6171400792
 31
0.0
  0
LINE
  5
5A
330
1F
100
AcDbEntity
  8
SLD-0
  6
Continuous
 62
     7
100
AcDbLine
 10
62.5654511895
 20
185.6171408391
 30
0.0
 11
59.5654516291
 21
182.6171403474
 31
0.0
  0
LINE
  5
5B
330
1F
100
AcDbEntity
  8
SLD-0
  6
Continuous
 62
     7
100
AcDbLine
 10
62.5654511895
 20
185.6171408391
 30
0.0
 11
158.5654529553
 21
185.6171408391
 31
0.0
  0
LINE
  5
5C
330
1F
100
AcDbEntity
  8
SLD-0
  6
Continuous
 62
     7
100
AcDbLine
 10
155.5654514056
 20
180.8671404592
 30
0.0
 11
85.5654514056
 21
180.8671404592
 31
0.0
  0
LINE
  5
5D
330
1F
100
AcDbEntity
  8
SLD-0
  6
Continuous
 62
     7
100
AcDbLine
 10
85.5654514056
 20
174.3671404592
 30
0.0
 11
155.5654514056
 21
174.3671404592
 31
0.0
  0
LINE
  5
5E
330
1F
100
AcDbEntity
  8
SLD-0
  6
Continuous
 62
     7
100
AcDbLine
 10
59.5654516291
 20
182.6171403474
 30
0.0
 11
59.5654516291
 21
172.6171405709
 31
0.0
  0
LINE
  5
5F
330
1F
100
AcDbEntity
  8
SLD-0
  6
Continuous
 62
     7
100
AcDbLine
 10
161.5654515844
 20
182.6171403474
 30
0.0
 11
161.5654515844
 21
172.6171405709
 31
0.0
  0
LINE
  5
60
330
1F
100
AcDbEntity
  8
SLD-0
 62
     7
100
AcDbLine
 10
160.0654514056
 20
184.1171404592
 30
0.0
 11
160.9214219197
 21
184.6584391833
 31
0.0
  0
LINE
  5
61
330
1F
100
AcDbEntity
  8
SLD-0
 62
     7
100
AcDbLine
 10
162.2094808916
 20
185.472982052
 30
0.0
 11
167.1383127962
 21
188.5898772925
 31
0.0
  0
LINE
  5
62
330
1F
100
AcDbEntity
  8
SLD-0
 62
     7
100
AcDbLine
 10
167.1383127962
 20
188.5898772925
 30
0.0
 11
176.6914636577
 21
194.6642354195
 31
0.0
  0
LINE
  5
63
330
1F
100
AcDbEntity
  8
SLD-0
  6
CENTERX2
 62
     7
100
AcDbLine
 10
157.5654514056
 20
177.6171404592
 30
0.0
 11
83.5654514056
 21
177.6171404592
 31
0.0
  0
LINE
  5
64
330
1F
100
AcDbEntity
  8
SLD-0
  6
Continuous
 62
     7
100
AcDbLine
 10
161.5654515844
 20
134.5999939067
 30
0.0
 11
161.5654515844
 21
129.5999940184
 31
0.0
  0
LINE
  5
65
330
1F
100
AcDbEntity
  8
SLD-0
  6
Continuous
 62
     7
100
AcDbLine
 10
161.5654515844
 20
129.5999940184
 30
0.0
 11
158.5654529553
 21
129.5999940184
 31
0.0
  0
LINE
  5
66
330
1F
100
AcDbEntity
  8
SLD-0
  6
Continuous
 62
     7
100
AcDbLine
 10
158.5654529553
 20
129.5999940184
 30
0.0
 11
158.5654529553
 21
134.5999939067
 31
0.0
  0
LINE
  5
67
330
1F
100
AcDbEntity
  8
SLD-0
  6
Continuous
 62
     7
100
AcDbLine
 10
158.5654529553
 20
134.5999939067
 30
0.0
 11
161.5654515844
 21
134.5999939067
 31
0.0
  0
LINE
  5
68
330
1F
100
AcDbEntity
  8
SLD-0
  6
Continuous
 62
     7
100
AcDbLine
 10
158.5654529553
 20
129.5999940184
 30
0.0
 11
62.5654511895
 21
129.5999940184
 31
0.0
  0
LINE
  5
69
330
1F
100
AcDbEntity
  8
SLD-0
  6
Continuous
 62
     7
100
AcDbLine
 10
62.5654511895
 20
134.5999939067
 30
0.0
 11
62.5654511895
 21
129.5999940184
 31
0.0
  0
LINE
  5
6A
330
1F
100
AcDbEntity
  8
SLD-0
  6
Continuous
 62
     7
100
AcDbLine
 10
62.5654511895
 20
134.5999939067
 30
0.0
 11
158.5654529553
 21
134.5999939067
 31
0.0
  0
LINE
  5
6B
330
1F
100
AcDbEntity
  8
SLD-0
  6
Continuous
 62
     7
100
AcDbLine
 10
59.5654516291
 20
129.5999940184
 30
0.0
 11
59.5654516291
 21
134.5999939067
 31
0.0
  0
LINE
  5
6C
330
1F
100
AcDbEntity
  8
SLD-0
  6
Continuous
 62
     7
100
AcDbLine
 10
59.5654516291
 20
134.5999939067
 30
0.0
 11
62.5654511895
 21
134.5999939067
 31
0.0
  0
LINE
  5
6D
330
1F
100
AcDbEntity
  8
SLD-0
  6
Continuous
 62
     7
100
AcDbLine
 10
62.5654511895
 20
129.5999940184
 30
0.0
 11
59.5654516291
 21
129.5999940184
 31
0.0
  0
LINE
  5
6E
330
1F
100
AcDbEntity
  8
SLD-0
  6
HIDDEN
 62
     7
100
AcDbLine
 10
85.5654521656
 20
129.5999940184
 30
0.0
 11
85.5654521656
 21
134.5999939067
 31
0.0
  0
LINE
  5
6F
330
1F
100
AcDbEntity
  8
SLD-0
  6
HIDDEN
 62
     7
100
AcDbLine
 10
85.5654521656
 20
129.5999940184
 30
0.0
 11
85.5654521656
 21
134.5999939067
 31
0.0
  0
LINE
  5
70
330
1F
100
AcDbEntity
  8
SLD-0
  6
HIDDEN
 62
     7
100
AcDbLine
 10
155.5654543262
 20
129.5999940184
 30
0.0
 11
155.5654543262
 21
134.5999939067
 31
0.0
  0
LINE
  5
71
330
1F
100
AcDbEntity
  8
SLD-0
  6
HIDDEN
 62
     7
100
AcDbLine
 10
64.3154514764
 20
134.5999939067
 30
0.0
 11
64.3154514764
 21
129.5999940184
 31
0.0
  0
LINE
  5
72
330
1F
100
AcDbEntity
  8
SLD-0
  6
HIDDEN
 62
     7
100
AcDbLine
 10
74.8154513348
 20
129.5999940184
 30
0.0
 11
74.8154513348
 21
134.5999939067
 31
0.0
  0
LINE
  5
73
330
1F
100
AcDbEntity
  8
SLD-0
  6
HIDDEN
 62
     7
100
AcDbLine
 10
82.3154511672
 20
134.5999939067
 30
0.0
 11
82.3154511672
 21
129.5999940184
 31
0.0
  0
LINE
  5
74
330
1F
100
AcDbEntity
  8
SLD-0
  6
HIDDEN
 62
     7
100
AcDbLine
 10
158.8154497367
 20
129.5999940184
 30
0.0
 11
158.8154497367
 21
134.5999939067
 31
0.0
  0
LINE
  5
75
330
1F
100
AcDbEntity
  8
SLD-0
  6
HIDDEN
 62
     7
100
AcDbLine
 10
75.5654514578
 20
129.5999940184
 30
0.0
 11
75.5654514578
 21
134.5999939067
 31
0.0
  0
LINE
  5
76
330
1F
100
AcDbEntity
  8
SLD-0
  6
HIDDEN
 62
     7
100
AcDbLine
 10
63.5654513535
 20
134.5999939067
 30
0.0
 11
63.5654513535
 21
129.5999940184
 31
0.0
  0
LINE
  5
77
330
1F
100
AcDbEntity
  8
SLD-0
  6
CENTERX2
 62
     7
100
AcDbLine
 10
85.5654514056
 20
127.5999940184
 30
0.0
 11
85.5654514056
 21
136.5999940184
 31
0.0
  0
LINE
  5
78
330
1F
100
AcDbEntity
  8
SLD-0
  6
CENTERX2
 62
     7
100
AcDbLine
 10
155.5654514056
 20
127.5999940184
 30
0.0
 11
155.5654514056
 21
136.5999940184
 31
0.0
  0
LINE
  5
79
330
1F
100
AcDbEntity
  8
SLD-0
  6
CENTERX2
 62
     7
100
AcDbLine
 10
69.5654514056
 20
127.5999940184
 30
0.0
 11
69.5654514056
 21
136.5999940184
 31
0.0
  0
LINE
  5
7A
330
1F
100
AcDbEntity
  8
0
  6
Continuous
 62
     7
370
     0
100
AcDbLine
 10
20.2604743903
 20
285.0
 30
0.0
 11
196.7604743903
 21
285.0
 31
0.0
  0
LINE
  5
7B
330
1F
100
AcDbEntity
  8
0
  6
Continuous
 62
     7
370
     0
100
AcDbLine
 10
20.2604743903
 20
285.0
 30
0.0
 11
20.2604743903
 21
10.0
 31
0.0
  0
LINE
  5
7C
330
1F
100
AcDbEntity
  8
0
  6
Continuous
 62
     7
370
     0
100
AcDbLine
 10
20.2604743903
 20
10.0
 30
0.0
 11
196.7604743903
 21
10.0
 31
0.0
  0
LINE
  5
7D
330
1F
100
AcDbEntity
  8
0
  6
Continuous
 62
     7
370
     0
100
AcDbLine
 10
196.7604743903
 20
285.0
 30
0.0
 11
196.7604743903
 21
10.0
 31
0.0
  0
LINE
  5
7E
330
1F
100
AcDbEntity
  8
0
  6
Continuous
 62
     7
370
     0
100
AcDbLine
 10
127.0104743903
 20
50.75
 30
0.0
 11
196.7604743903
 21
50.75
 31
0.0
  0
LINE
  5
7F
330
1F
100
AcDbEntity
  8
0
  6
Continuous
 62
     7
370
     0
100
AcDbLine
 10
127.0104743903
 20
50.75
 30
0.0
 11
127.0104743903
 21
10.0
 31
0.0
  0
LINE
  5
80
330
1F
100
AcDbEntity
  8
0
  6
Continuous
 62
     7
370
     0
100
AcDbLine
 10
127.0104743903
 20
22.75
 30
0.0
 11
196.7604743903
 21
22.75
 31
0.0
  0
LINE
  5
81
330
1F
100
AcDbEntity
  8
0
  6
Continuous
 62
     7
370
     0
100
AcDbLine
 10
127.0104743903
 20
36.75
 30
0.0
 11
196.7604743903
 21
36.75
 31
0.0
  0
ARC
  5
82
330
1F
100
AcDbEntity
  8
SLD-0
  6
Continuous
 62
     7
100
AcDbCircle
 10
85.5654514056
 20
177.6171404592
 30
0.0
 40
3.25
100
AcDbArc
 50
90.0
 51
270.0
  0
CIRCLE
  5
83
330
1F
100
AcDbEntity
  8
SLD-0
  6
Continuous
 62
     7
100
AcDbCircle
 10
69.5654514056
 20
177.6171404592
 30
0.0
 40
5.25
  0
ARC
  5
84
330
1F
100
AcDbEntity
  8
SLD-0
  6
Continuous
 62
     7
100
AcDbCircle
 10
155.5654514056
 20
177.6171404592
 30
0.0
 40
3.25
100
AcDbArc
 50
270.0
 51
90.0
  0
CIRCLE
  5
85
330
1F
100
AcDbEntity
  8
SLD-0
 62
     7
100
AcDbCircle
 10
69.5654514056
 20
177.6171404592
 30
0.0
 40
6.000000052199994
  0
DIMENSION
  5
86
330
1F
100
AcDbEntity
  8
SLD-0
 62
     7
100
AcDbDimension
  2
*D6
 10
85.5654514056
 20
205.4004082789
 30
0.0
 11
72.5654514056
 21
205.4004082789
 31
0.0
 70
   160
 71
     1
 42
26.0
  3
SLDDIMSTYLE0
100
AcDbAlignedDimension
 13
59.5654514056
 23
185.6171404592
 33
0.0
 14
85.5654514056
 24
177.6171404592
 34
0.0
100
AcDbRotatedDimension
1001
ACAD
1000
DSTYLE
1002
{
1070
    77
1070
     3
1070
   143
1040
0.0393700787
1070
    41
1040
3.0
1070
    44
1040
1.0
1070
    42
1040
1.0
1070
   147
1040
1.524
1070
    73
1070
     0
1070
    74
1070
     0
1070
   140
1040
3.5
1070
   284
1070
    12
1070
    78
1070
    12
1002
}
  0
DIMENSION
  5
A4
330
1F
100
AcDbEntity
  8
SLD-0
 62
     7
100
AcDbDimension
  2
*D8
 10
85.5654514056
 20
205.4004082789
 30
0.0
 11
120.5654514056
 21
205.4004082789
 31
0.0
 70
   160
 71
     1
 42
70.0
  3
SLDDIMSTYLE0
100
AcDbAlignedDimension
 13
155.5654514056
 23
177.6171404592
 33
0.0
 14
85.5654514056
 24
177.6171404592
 34
0.0
100
AcDbRotatedDimension
1001
ACAD
1000
DSTYLE
1002
{
1070
    77
1070
     3
1070
   143
1040
0.0393700787
1070
    41
1040
3.0
1070
    44
1040
1.0
1070
    42
1040
1.0
1070
   147
1040
1.524
1070
    73
1070
     0
1070
    74
1070
     0
1070
   140
1040
3.5
1070
   284
1070
    12
1070
    78
1070
    12
1002
}
  0
DIMENSION
  5
BB
330
1F
100
AcDbEntity
  8
SLD-0
 62
     7
100
AcDbDimension
  2
*D9
 10
120.0942134396
 20
180.8671404592
 30
0.0
 11
120.0942134396
 21
161.666555326
 31
0.0
 70
   160
 71
     1
 42
6.5
  3
SLDDIMSTYLE1
100
AcDbAlignedDimension
 13
85.5654514056
 23
174.3671404592
 33
0.0
 14
85.5654514056
 24
180.8671404592
 34
0.0
 50
90.0
100
AcDbRotatedDimension
1001
ACAD
1000
DSTYLE
1002
{
1070
    77
1070
     3
1070
   143
1040
0.0393700787
1070
    41
1040
3.0
1070
    44
1040
1.0
1070
    42
1040
1.0
1070
   147
1040
1.524
1070
    73
1070
     0
1070
    74
1070
     0
1070
   140
1040
3.5
1070
   284
1070
    12
1070
    78
1070
    12
1002
}
  0
DIMENSION
  5
D5
330
1F
100
AcDbEntity
  8
SLD-0
100
AcDbDimension
  2
*D10
 10
172.5157662115
 20
177.6171404592
 30
0.0
 11
172.5157662115
 21
173.6171404592
 31
0.0
 70
   160
 71
     1
 42
8.0
  3
SLDDIMSTYLE0
100
AcDbAlignedDimension
 13
158.5654514056
 23
169.6171404592
 33
0.0
 14
157.5654514056
 24
177.6171404592
 34
0.0
 50
90.0
100
AcDbRotatedDimension
1001
ACAD
1000
DSTYLE
1002
{
1070
    77
1070
     3
1070
   143
1040
0.0393700787
1070
    41
1040
3.0
1070
    44
1040
1.0
1070
    42
1040
1.0
1070
   147
1040
1.524
1070
    73
1070
     0
1070
    74
1070
     0
1070
   140
1040
3.5
1070
   284
1070
    12
1070
    78
1070
    12
1002
}
  0
DIMENSION
  5
EF
330
1F
100
AcDbEntity
  8
SLD-0
100
AcDbDimension
  2
*D11
 10
47.5421413116
 20
169.6171404592
 30
0.0
 11
47.5421413116
 21
173.6171404592
 31
0.0
 70
   160
 71
     1
 42
8.0
  3
SLDDIMSTYLE0
100
AcDbAlignedDimension
 13
63.1154514056
 23
177.6171404592
 33
0.0
 14
62.5654514056
 24
169.6171404592
 34
0.0
 50
90.0
100
AcDbRotatedDimension
1001
ACAD
1000
DSTYLE
1002
{
1070
    77
1070
     3
1070
   143
1040
0.0393700787
1070
    41
1040
3.0
1070
    44
1040
1.0
1070
    42
1040
1.0
1070
   147
1040
1.524
1070
    73
1070
     0
1070
    74
1070
     0
1070
   140
1040
3.5
1070
   284
1070
    12
1070
    78
1070
    12
1002
}
  0
DIMENSION
  5
109
330
1F
100
AcDbEntity
  8
SLD-0
 62
     7
100
AcDbDimension
  2
*D12
 10
161.5654514056
 20
215.1224517216
 30
0.0
 11
110.5654514056
 21
215.1224517216
 31
0.0
 70
   160
 71
     1
 42
102.0
  3
SLDDIMSTYLE0
100
AcDbAlignedDimension
 13
59.5654514056
 23
177.6171404592
 33
0.0
 14
161.5654514056
 24
177.6171404592
 34
0.0
100
AcDbRotatedDimension
1001
ACAD
1000
DSTYLE
1002
{
1070
    77
1070
     3
1070
   143
1040
0.0393700787
1070
    41
1040
3.0
1070
    44
1040
1.0
1070
    42
1040
1.0
1070
   147
1040
1.524
1070
    73
1070
     0
1070
    74
1070
     0
1070
   140
1040
3.5
1070
   284
1070
    12
1070
    78
1070
    12
1002
}
  0
DIMENSION
  5
120
330
1F
100
AcDbEntity
  8
SLD-0
 62
     7
100
AcDbDimension
  2
*D13
 10
155.5654514056
 20
177.6171404592
 30
0.0
 11
174.5424411495
 21
157.61320545
 31
0.0
 70
   164
  1
<>-R
 71
     1
 42
236.1111142152
  3
SLDDIMSTYLE2
100
AcDbRadialDimension
 15
0.0
 25
0.0
 35
0.0
 40
0.0
1001
ACAD
1000
DSTYLE
1002
{
1070
    77
1070
     0
1070
   143
1040
0.0393700787
1070
    41
1040
3.0
1070
    44
1040
1.0
1070
    42
1040
1.0
1070
   147
1040
1.524
1070
    73
1070
     1
1070
    74
1070
     1
1070
   140
1040
3.5
1070
   284
1070
    12
1070
    78
1070
    12
1002
}
  0
DIMENSION
  5
132
330
1F
100
AcDbEntity
  8
SLD-0
 62
     7
100
AcDbDimension
  2
*D14
 10
4.3762333492
 20
11.1735644313
 30
0.0
 11
45.5154663737
 21
-5.5867829833
 31
0.0
 70
   163
  1
M<>xP1.0<>
 71
     1
 42
11.9999983511
  3
SLDDIMSTYLE3
100
AcDbDiametricDimension
 15
0.0
 25
0.0
 35
0.0
 40
0.0
1001
ACAD
1000
DSTYLE
1002
{
1070
    77
1070
     0
1070
   143
1040
0.0393700787
1070
    41
1040
3.0
1070
    44
1040
1.0
1070
    42
1040
1.0
1070
   147
1040
1.524
1070
    73
1070
     1
1070
    74
1070
     1
1070
   140
1040
3.5
1070
   284
1070
    12
1070
    78
1070
    12
1002
}
  0
DIMENSION
  5
145
330
1F
100
AcDbEntity
  8
SLD-0
 62
     7
100
AcDbDimension
  2
*D15
 10
69.5654514056
 20
159.639880388
 30
0.0
 11
64.5654514056
 21
159.639880388
 31
0.0
 70
   160
 71
     1
 42
10.0
  3
SLDDIMSTYLE0
100
AcDbAlignedDimension
 13
59.5654514056
 23
177.6171404592
 33
0.0
 14
69.5654514056
 24
177.6171404592
 34
0.0
100
AcDbRotatedDimension
1001
ACAD
1000
DSTYLE
1002
{
1070
    77
1070
     3
1070
   143
1040
0.0393700787
1070
    41
1040
3.0
1070
    44
1040
1.0
1070
    42
1040
1.0
1070
   147
1040
1.524
1070
    73
1070
     0
1070
    74
1070
     0
1070
   140
1040
3.5
1070
   284
1070
    12
1070
    78
1070
    12
1002
}
  0
DIMENSION
  5
15E
330
1F
100
AcDbEntity
  8
SLD-0
 62
     7
100
AcDbDimension
  2
*D16
 10
40.5121894942
 20
185.6171404592
 30
0.0
 11
40.5121894942
 21
177.6171404592
 31
0.0
 70
   160
 71
     1
 42
16.0
  3
SLDDIMSTYLE0
100
AcDbAlignedDimension
 13
62.5654514056
 23
169.6171404592
 33
0.0
 14
62.5654514056
 24
185.6171404592
 34
0.0
 50
90.0
100
AcDbRotatedDimension
1001
ACAD
1000
DSTYLE
1002
{
1070
    77
1070
     3
1070
   143
1040
0.0393700787
1070
    41
1040
3.0
1070
    44
1040
1.0
1070
    42
1040
1.0
1070
   147
1040
1.524
1070
    73
1070
     0
1070
    74
1070
     0
1070
   140
1040
3.5
1070
   284
1070
    12
1070
    78
1070
    12
1002
}
  0
DIMENSION
  5
176
330
1F
100
AcDbEntity
  8
SLD-0
 62
     7
100
AcDbDimension
  2
*D17
 10
45.4148057186
 20
134.5999940184
 30
0.0
 11
45.4148057186
 21
132.0999940184
 31
0.0
 70
   160
 71
     1
 42
5.0
  3
SLDDIMSTYLE0
100
AcDbAlignedDimension
 13
59.5654514056
 23
129.5999940184
 33
0.0
 14
59.5654514056
 24
134.5999940184
 34
0.0
 50
90.0
100
AcDbRotatedDimension
1001
ACAD
1000
DSTYLE
1002
{
1070
    77
1070
     3
1070
   143
1040
0.0393700787
1070
    41
1040
3.0
1070
    44
1040
1.0
1070
    42
1040
1.0
1070
   147
1040
1.524
1070
    73
1070
     0
1070
    74
1070
     0
1070
   140
1040
3.5
1070
   284
1070
    12
1070
    78
1070
    12
1002
}
  0
MTEXT
  5
190
330
1F
100
AcDbEntity
  8
SLD-0
 62
     7
100
AcDbMText
 10
166.0488044935
 20
193.2619771204
 30
0.0
 40
3.5
 41
0.0
 71
     1
 72
     1
  1
4-
  7
SLDTEXTSTYLE1
 11
0.8438582662456334
 21
0.5365661436290159
 31
0.0
 73
     1
 44
1.0
  0
MTEXT
  5
191
330
1F
100
AcDbEntity
  8
SLD-0
 62
     7
100
AcDbMText
 10
169.4857549266
 20
195.4473574309
 30
0.0
 40
3.5
 41
0.0
 71
     1
 72
     1
  1
C
  7
SLDTEXTSTYLE1
 11
0.8438582662456334
 21
0.5365661436290159
 31
0.0
 73
     1
 44
1.0
  0
MTEXT
  5
192
330
1F
100
AcDbEntity
  8
SLD-0
 62
     7
100
AcDbMText
 10
171.2042301432
 20
196.5400475861
 30
0.0
 40
3.5
 41
0.0
 71
     1
 72
     1
  1
3
  7
SLDTEXTSTYLE1
 11
0.8438582662456334
 21
0.5365661436290159
 31
0.0
 73
     1
 44
1.0
  0
MTEXT
  5
193
330
1F
100
AcDbEntity
  8
0
  6
Continuous
 62
     7
370
     0
100
AcDbMText
 10
150.108082639
 20
29.8861652342
 30
0.0
 40
4.2333333333
 41
0.0
 71
     1
 72
     1
  1
N01863-121
  7
SLDTEXTSTYLE0
 73
     1
 44
1.0
  0
INSERT
  5
199
330
1F
100
AcDbEntity
  8
0
  6
Continuous
 62
     7
370
     0
100
AcDbBlockReference
  2
SW_NOTE_0
 10
148.1411836753
 20
43.7204197317
 30
0.0
  0
MTEXT
  5
19A
330
1F
100
AcDbEntity
  8
0
  6
Continuous
 62
     7
370
     0
100
AcDbMText
 10
154.6717524373
 20
17.6605573222
 30
0.0
 40
4.2333333333
 41
0.0
 71
     1
 72
     1
  1
131142
  7
SLDTEXTSTYLE0
 73
     1
 44
1.0
  0
INSERT
  5
19B
330
1F
100
AcDbEntity
  8
0
  6
Continuous
 62
     7
370
     0
100
AcDbBlockReference
  2
_OPEN30
 10
160.0654514056
 20
184.1171404592
 30
0.0
 41
3.0
 42
3.0
 43
3.0
 50
-147.6915537348
  0
INSERT
  5
19C
330
1F
100
AcDbEntity
  8
0
  6
Continuous
 62
     7
370
     0
100
AcDbBlockReference
  2
SW_CENTERMARK0
 10
0.0
 20
0.0
 30
0.0
  0
INSERT
  5
19D
330
1F
100
AcDbEntity
  8
0
  6
Continuous
 62
     7
370
     0
100
AcDbBlockReference
  2
SW_CENTERMARK1
 10
0.0
 20
0.0
 30
0.0
  0
INSERT
  5
19E
330
1F
100
AcDbEntity
  8
0
  6
Continuous
 62
     7
370
     0
100
AcDbBlockReference
  2
SW_CENTERMARK2
 10
0.0
 20
0.0
 30
0.0
  0
ENDSEC
  0
SECTION
  2
OBJECTS
  0
DICTIONARY
  5
C
330
0
100
AcDbDictionary
281
     1
  3
ACAD_GROUP
350
D
  3
ACAD_LAYOUT
350
1A
  3
ACAD_MLINESTYLE
350
17
  3
ACAD_PLOTSETTINGS
350
19
  3
ACAD_PLOTSTYLENAME
350
E
  0
DICTIONARY
  5
D
102
{ACAD_REACTORS
330
C
102
}
330
C
100
AcDbDictionary
281
     1
  0
DICTIONARY
  5
1A
102
{ACAD_REACTORS
330
C
102
}
330
C
100
AcDbDictionary
281
     1
  3
Layout1
350
1E
  3
Layout2
350
26
  3
Model
350
22
  0
DICTIONARY
  5
17
102
{ACAD_REACTORS
330
C
102
}
330
C
100
AcDbDictionary
281
     1
  3
Standard
350
18
  0
DICTIONARY
  5
19
102
{ACAD_REACTORS
330
C
102
}
330
C
100
AcDbDictionary
281
     1
  0
ACDBDICTIONARYWDFLT
  5
E
102
{ACAD_REACTORS
330
C
102
}
330
C
100
AcDbDictionary
281
     1
  3
Normal
350
F
100
AcDbDictionaryWithDefault
340
F
  0
LAYOUT
  5
1E
102
{ACAD_REACTORS
330
1A
102
}
330
1A
100
AcDbPlotSettings
  1

  2

  4

  6

 40
0.0
 41
0.0
 42
0.0
 43
0.0
 44
0.0
 45
0.0
 46
0.0
 47
0.0
 48
0.0
 49
0.0
140
0.0
141
0.0
142
1.0
143
1.0
 70
   688
 72
     0
 73
     0
 74
     5
  7

 75
    16
147
1.0
148
0.0
149
0.0
100
AcDbLayout
  1
Layout1
 70
     1
 71
     1
 10
0.0
 20
0.0
 11
0.0
 21
0.0
 12
0.0
 22
0.0
 32
0.0
 14
0.0
 24
0.0
 34
0.0
 15
0.0
 25
0.0
 35
0.0
146
0.0
 13
0.0
 23
0.0
 33
0.0
 16
1.0
 26
0.0
 36
0.0
 17
0.0
 27
1.0
 37
0.0
 76
     0
330
1B
  0
LAYOUT
  5
26
102
{ACAD_REACTORS
330
1A
102
}
330
1A
100
AcDbPlotSettings
  1

  2

  4

  6

 40
0.0
 41
0.0
 42
0.0
 43
0.0
 44
0.0
 45
0.0
 46
0.0
 47
0.0
 48
0.0
 49
0.0
140
0.0
141
0.0
142
1.0
143
1.0
 70
   688
 72
     0
 73
     0
 74
     5
  7

 75
    16
147
1.0
148
0.0
149
0.0
100
AcDbLayout
  1
Layout2
 70
     1
 71
     2
 10
0.0
 20
0.0
 11
0.0
 21
0.0
 12
0.0
 22
0.0
 32
0.0
 14
0.0
 24
0.0
 34
0.0
 15
0.0
 25
0.0
 35
0.0
146
0.0
 13
0.0
 23
0.0
 33
0.0
 16
1.0
 26
0.0
 36
0.0
 17
0.0
 27
1.0
 37
0.0
 76
     0
330
23
  0
LAYOUT
  5
22
102
{ACAD_REACTORS
330
1A
102
}
330
1A
100
AcDbPlotSettings
  1

  2

  4

  6

 40
0.0
 41
0.0
 42
0.0
 43
0.0
 44
0.0
 45
0.0
 46
0.0
 47
0.0
 48
0.0
 49
0.0
140
0.0
141
0.0
142
1.0
143
1.0
 70
  1712
 72
     0
 73
     0
 74
     0
  7

 75
     0
147
1.0
148
0.0
149
0.0
100
AcDbLayout
  1
Model
 70
     1
 71
     0
 10
0.0
 20
0.0
 11
0.0
 21
0.0
 12
0.0
 22
0.0
 32
0.0
 14
0.0
 24
0.0
 34
0.0
 15
210.0
 25
297.0
 35
0.0
146
0.0
 13
0.0
 23
0.0
 33
0.0
 16
1.0
 26
0.0
 36
0.0
 17
0.0
 27
1.0
 37
0.0
 76
     0
330
1F
  0
MLINESTYLE
  5
18
102
{ACAD_REACTORS
330
17
102
}
330
17
100
AcDbMlineStyle
  2
Standard
 70
     0
  3

 62
   256
 51
90.0
 52
90.0
 71
     2
 49
0.5
 62
   256
  6
BYLAYER
 49
-0.5
 62
   256
  6
BYLAYER
  0
ACDBPLACEHOLDER
  5
F
102
{ACAD_REACTORS
330
E
102
}
330
E
  0
ENDSEC
  0
EOF
