  0
SECTION
  2
HEADER
  9
$ACADVER
  1
AC1015
  9
$ACADMAINTVER
 70
     6
  9
$DWGCODEPAGE
  3
DOS932
  9
$INSBASE
 10
0.0
 20
0.0
 30
0.0
  9
$EXTMIN
 10
0.0
 20
0.0
 30
0.0
  9
$EXTMAX
 10
210.0
 20
297.0
 30
0.0
  9
$LIMMIN
 10
0.0
 20
0.0
  9
$LIMMAX
 10
0.0
 20
0.0
  9
$ORTHOMODE
 70
     0
  9
$REGENMODE
 70
     1
  9
$FILLMODE
 70
     1
  9
$QTEXTMODE
 70
     0
  9
$MIRRTEXT
 70
     1
  9
$LTSCALE
 40
1.0
  9
$ATTMODE
 70
     1
  9
$TEXTSIZE
 40
3.5
  9
$TRACEWID
 40
1.0
  9
$TEXTSTYLE
  7
Standard
  9
$CLAYER
  8
0
  9
$CELTYPE
  6
ByLayer
  9
$CECOLOR
 62
   256
  9
$CELTSCALE
 40
1.0
  9
$DISPSILH
 70
     0
  9
$DIMSCALE
 40
1.0
  9
$DIMASZ
 40
3.0
  9
$DIMEXO
 40
1.0
  9
$DIMDLI
 40
3.75
  9
$DIMRND
 40
0.0
  9
$DIMDLE
 40
0.0
  9
$DIMEXE
 40
1.0
  9
$DIMTP
 40
0.0
  9
$DIMTM
 40
0.0
  9
$DIMTXT
 40
3.5
  9
$DIMCEN
 40
2.5
  9
$DIMTSZ
 40
0.0
  9
$DIMTOL
 70
     0
  9
$DIMLIM
 70
     0
  9
$DIMTIH
 70
     1
  9
$DIMTOH
 70
     1
  9
$DIMSE1
 70
     0
  9
$DIMSE2
 70
     0
  9
$DIMTAD
 70
     1
  9
$DIMZIN
 70
     1
  9
$DIMBLK
  1

  9
$DIMASO
 70
     1
  9
$DIMSHO
 70
     1
  9
$DIMPOST
  1

  9
$DIMAPOST
  1

  9
$DIMALT
 70
     0
  9
$DIMALTD
 70
     3
  9
$DIMALTF
 40
0.0393700787
  9
$DIMLFAC
 40
1.0
  9
$DIMTOFL
 70
     1
  9
$DIMTVP
 40
0.0
  9
$DIMTIX
 70
     0
  9
$DIMSOXD
 70
     0
  9
$DIMSAH
 70
     0
  9
$DIMBLK1
  1

  9
$DIMBLK2
  1

  9
$DIMSTYLE
  2
ISO-25
  9
$DIMCLRD
 70
     0
  9
$DIMCLRE
 70
     0
  9
$DIMCLRT
 70
     0
  9
$DIMTFAC
 40
1.0
  9
$DIMGAP
 40
1.524
  9
$DIMJUST
 70
     0
  9
$DIMSD1
 70
     0
  9
$DIMSD2
 70
     0
  9
$DIMTOLJ
 70
     0
  9
$DIMTZIN
 70
     1
  9
$DIMALTZ
 70
     0
  9
$DIMALTTZ
 70
     0
  9
$DIMUPT
 70
     0
  9
$DIMDEC
 70
     2
  9
$DIMTDEC
 70
     2
  9
$DIMALTU
 70
     2
  9
$DIMALTTD
 70
     3
  9
$DIMTXSTY
  7
Standard
  9
$DIMAUNIT
 70
     0
  9
$DIMADEC
 70
     0
  9
$DIMALTRND
 40
0.0
  9
$DIMAZIN
 70
     0
  9
$DIMDSEP
 70
    44
  9
$DIMATFIT
 70
     3
  9
$DIMFRAC
 70
     0
  9
$DIMLDRBLK
  1

  9
$DIMLUNIT
 70
     2
  9
$DIMLWD
 70
    -2
  9
$DIMLWE
 70
    -2
  9
$DIMTMOVE
 70
     0
  9
$LUNITS
 70
     2
  9
$LUPREC
 70
     1
  9
$SKETCHINC
 40
1.0
  9
$FILLETRAD
 40
10.0
  9
$AUNITS
 70
     0
  9
$AUPREC
 70
     0
  9
$MENU
  1
.
  9
$ELEVATION
 40
0.0
  9
$PELEVATION
 40
0.0
  9
$THICKNESS
 40
0.0
  9
$LIMCHECK
 70
     0
  9
$CHAMFERA
 40
10.0
  9
$CHAMFERB
 40
10.0
  9
$CHAMFERC
 40
20.0
  9
$CHAMFERD
 40
0.0
  9
$SKPOLY
 70
     0
  9
$TDCREATE
 40
2454359.574025243
  9
$TDUCREATE
 40
2454359.199025243
  9
$TDUPDATE
 40
2454359.574025255
  9
$TDUUPDATE
 40
2454359.199025255
  9
$TDINDWG
 40
0.0000000116
  9
$TDUSRTIMER
 40
0.0000000116
  9
$USRTIMER
 70
     1
  9
$ANGBASE
 50
0.0
  9
$ANGDIR
 70
     0
  9
$PDMODE
 70
     0
  9
$PDSIZE
 40
-1.0
  9
$PLINEWID
 40
0.0
  9
$SPLFRAME
 70
     0
  9
$SPLINETYPE
 70
     6
  9
$SPLINESEGS
 70
     8
  9
$HANDSEED
  5
150
  9
$SURFTAB1
 70
     6
  9
$SURFTAB2
 70
     6
  9
$SURFTYPE
 70
     6
  9
$SURFU
 70
     6
  9
$SURFV
 70
     6
  9
$UCSBASE
  2

  9
$UCSNAME
  2

  9
$UCSORG
 10
0.0
 20
0.0
 30
0.0
  9
$UCSXDIR
 10
1.0
 20
0.0
 30
0.0
  9
$UCSYDIR
 10
0.0
 20
1.0
 30
0.0
  9
$UCSORTHOREF
  2

  9
$UCSORTHOVIEW
 70
     0
  9
$UCSORGTOP
 10
0.0
 20
0.0
 30
0.0
  9
$UCSORGBOTTOM
 10
0.0
 20
0.0
 30
0.0
  9
$UCSORGLEFT
 10
0.0
 20
0.0
 30
0.0
  9
$UCSORGRIGHT
 10
0.0
 20
0.0
 30
0.0
  9
$UCSORGFRONT
 10
0.0
 20
0.0
 30
0.0
  9
$UCSORGBACK
 10
0.0
 20
0.0
 30
0.0
  9
$PUCSBASE
  2

  9
$PUCSNAME
  2

  9
$PUCSORG
 10
0.0
 20
0.0
 30
0.0
  9
$PUCSXDIR
 10
1.0
 20
0.0
 30
0.0
  9
$PUCSYDIR
 10
0.0
 20
1.0
 30
0.0
  9
$PUCSORTHOREF
  2

  9
$PUCSORTHOVIEW
 70
     0
  9
$PUCSORGTOP
 10
0.0
 20
0.0
 30
0.0
  9
$PUCSORGBOTTOM
 10
0.0
 20
0.0
 30
0.0
  9
$PUCSORGLEFT
 10
0.0
 20
0.0
 30
0.0
  9
$PUCSORGRIGHT
 10
0.0
 20
0.0
 30
0.0
  9
$PUCSORGFRONT
 10
0.0
 20
0.0
 30
0.0
  9
$PUCSORGBACK
 10
0.0
 20
0.0
 30
0.0
  9
$USERI1
 70
     0
  9
$USERI2
 70
     0
  9
$USERI3
 70
     0
  9
$USERI4
 70
     0
  9
$USERI5
 70
     0
  9
$USERR1
 40
0.0
  9
$USERR2
 40
0.0
  9
$USERR3
 40
0.0
  9
$USERR4
 40
0.0
  9
$USERR5
 40
0.0
  9
$WORLDVIEW
 70
     1
  9
$SHADEDGE
 70
     3
  9
$SHADEDIF
 70
    70
  9
$TILEMODE
 70
     1
  9
$MAXACTVP
 70
    64
  9
$PINSBASE
 10
0.0
 20
0.0
 30
0.0
  9
$PLIMCHECK
 70
     0
  9
$PEXTMIN
 10
1.0000000000E+20
 20
1.0000000000E+20
 30
1.0000000000E+20
  9
$PEXTMAX
 10
-1.0000000000E+20
 20
-1.0000000000E+20
 30
-1.0000000000E+20
  9
$PLIMMIN
 10
0.0
 20
0.0
  9
$PLIMMAX
 10
420.0
 20
297.0
  9
$UNITMODE
 70
     0
  9
$VISRETAIN
 70
     1
  9
$PLINEGEN
 70
     0
  9
$PSLTSCALE
 70
     1
  9
$TREEDEPTH
 70
  3020
  9
$CMLSTYLE
  2
Standard
  9
$CMLJUST
 70
     0
  9
$CMLSCALE
 40
20.0
  9
$PROXYGRAPHICS
 70
     1
  9
$MEASUREMENT
 70
     1
  9
$CELWEIGHT
370
    -1
  9
$ENDCAPS
280
     0
  9
$JOINSTYLE
280
     0
  9
$LWDISPLAY
290
     1
  9
$INSUNITS
 70
     4
  9
$HYPERLINKBASE
  1

  9
$STYLESHEET
  1

  9
$XEDIT
290
     1
  9
$CEPSNTYPE
380
     0
  9
$PSTYLEMODE
290
     1
  9
$FINGERPRINTGUID
  2
{3B1986A9-285A-47A1-A7DC-14F07F9C480B}
  9
$VERSIONGUID
  2
{FAEB1C32-E019-11D5-929B-00C0DF256EC4}
  9
$EXTNAMES
290
     1
  9
$PSVPSCALE
 40
0.0
  9
$OLESTARTUP
290
     0
  0
ENDSEC
  0
SECTION
  2
CLASSES
  0
CLASS
  1
ACDBDICTIONARYWDFLT
  2
AcDbDictionaryWithDefault
  3
ObjectDBX Classes
 90
        0
280
     0
281
     0
  0
CLASS
  1
ACDBPLACEHOLDER
  2
AcDbPlaceHolder
  3
ObjectDBX Classes
 90
        0
280
     0
281
     0
  0
CLASS
  1
LAYOUT
  2
AcDbLayout
  3
ObjectDBX Classes
 90
        0
280
     0
281
     0
  0
ENDSEC
  0
SECTION
  2
TABLES
  0
TABLE
  2
VPORT
  5
8
330
0
100
AcDbSymbolTable
 70
     1
  0
VPORT
  5
29
330
8
100
AcDbSymbolTableRecord
100
AcDbViewportTableRecord
  2
*Active
 70
     0
 10
0.0
 20
0.0
 11
1.0
 21
1.0
 12
105.0
 22
148.5
 13
0.0
 23
0.0
 14
10.0
 24
10.0
 15
10.0
 25
10.0
 16
0.0
 26
0.0
 36
1.0
 17
0.0
 27
0.0
 37
0.0
 40
297.0
 41
1.9729729729
 42
50.0
 43
0.0
 44
0.0
 50
0.0
 51
0.0
 71
     0
 72
  2000
 73
     1
 74
     3
 75
     0
 76
     0
 77
     0
 78
     0
281
     0
 65
     1
110
0.0
120
0.0
130
0.0
111
1.0
121
0.0
131
0.0
112
0.0
122
1.0
132
0.0
 79
     0
146
0.0
  0
ENDTAB
  0
TABLE
  2
LTYPE
  5
5
330
0
100
AcDbSymbolTable
 70
     6
  0
LTYPE
  5
14
330
5
100
AcDbSymbolTableRecord
100
AcDbLinetypeTableRecord
  2
ByBlock
 70
     0
  3

 72
    65
 73
     0
 40
0.0
  0
LTYPE
  5
15
330
5
100
AcDbSymbolTableRecord
100
AcDbLinetypeTableRecord
  2
ByLayer
 70
     0
  3

 72
    65
 73
     0
 40
0.0
  0
LTYPE
  5
16
330
5
100
AcDbSymbolTableRecord
100
AcDbLinetypeTableRecord
  2
Continuous
 70
     0
  3
Solid line
 72
    65
 73
     0
 40
0.0
  0
LTYPE
  5
2A
330
5
100
AcDbSymbolTableRecord
100
AcDbLinetypeTableRecord
  2
HIDDEN
 70
     0
  3
Hidden __ __ __ __ __ __ __ __ __ __ __ __ __ __
 72
    65
 73
     2
 40
1.905
 49
1.27
 74
     0
 49
-0.635
 74
     0
  0
LTYPE
  5
2B
330
5
100
AcDbSymbolTableRecord
100
AcDbLinetypeTableRecord
  2
PHANTOM
 70
     0
  3
Phantom ______  __  __  ______  __  __  ______
 72
    65
 73
     6
 40
12.7
 49
6.35
 74
     0
 49
-1.27
 74
     0
 49
1.27
 74
     0
 49
-1.27
 74
     0
 49
1.27
 74
     0
 49
-1.27
 74
     0
  0
LTYPE
  5
2C
330
5
100
AcDbSymbolTableRecord
100
AcDbLinetypeTableRecord
  2
CENTER
 70
     0
  3
Center ____ _ ____ _ ____ _ ____ _ ____ _ ____
 72
    65
 73
     4
 40
10.16
 49
6.35
 74
     0
 49
-1.27
 74
     0
 49
1.27
 74
     0
 49
-1.27
 74
     0
  0
LTYPE
  5
2D
330
5
100
AcDbSymbolTableRecord
100
AcDbLinetypeTableRecord
  2
CENTERX2
 70
     0
  3
Center (2x) ________  __  ________  __  _____
 72
    65
 73
     4
 40
20.32
 49
12.7
 74
     0
 49
-2.54
 74
     0
 49
2.54
 74
     0
 49
-2.54
 74
     0
  0
LTYPE
  5
2E
330
5
100
AcDbSymbolTableRecord
100
AcDbLinetypeTableRecord
  2
DOT2
 70
     0
  3
Dot (.5x) ........................................
 72
    65
 73
     2
 40
0.635
 49
0.0
 74
     0
 49
-0.635
 74
     0
  0
ENDTAB
  0
TABLE
  2
LAYER
  5
2
330
0
100
AcDbSymbolTable
 70
     4
  0
LAYER
  5
10
330
2
100
AcDbSymbolTableRecord
100
AcDbLayerTableRecord
  2
0
 70
     0
 62
     7
  6
Continuous
370
    -3
390
F
  0
LAYER
  5
2F
330
2
100
AcDbSymbolTableRecord
100
AcDbLayerTableRecord
  2
SLD-0
 70
     0
 62
     7
  6
Continuous
370
     0
390
F
  0
LAYER
  5
30
330
2
100
AcDbSymbolTableRecord
100
AcDbLayerTableRecord
  2
SLD-DEFPOINTS
 70
     0
 62
     7
  6
Continuous
370
     0
390
F
  0
LAYER
  5
8F
330
2
100
AcDbSymbolTableRecord
100
AcDbLayerTableRecord
  2
Defpoints
 70
     0
 62
     7
  6
Continuous
290
     0
370
    -3
390
F
  0
ENDTAB
  0
TABLE
  2
STYLE
  5
3
330
0
100
AcDbSymbolTable
 70
     4
  0
STYLE
  5
11
330
3
100
AcDbSymbolTableRecord
100
AcDbTextStyleTableRecord
  2
Standard
 70
     0
 40
0.0
 41
1.0
 50
0.0
 71
     0
 42
2.5
  3
txt
  4
bigfont
  0
STYLE
  5
34
330
3
100
AcDbSymbolTableRecord
100
AcDbTextStyleTableRecord
  2
SLDTEXTSTYLE0
 70
     0
 40
0.0
 41
0.7
 50
0.0
 71
     0
 42
0.2
  3
TXT
  4
bigfont
  0
STYLE
  5
9D
330
3
100
AcDbSymbolTableRecord
100
AcDbTextStyleTableRecord
  2
SLDTEXTSTYLE1
 70
     0
 40
0.0
 41
0.75
 50
0.0
 71
     0
 42
0.2
  3
TXT
  4
bigfont
  0
STYLE
  5
AB
330
3
100
AcDbSymbolTableRecord
100
AcDbTextStyleTableRecord
  2
SLDTEXTSTYLE2
 70
     0
 40
0.0
 41
0.96
 50
0.0
 71
     0
 42
0.2
  3
TXT
  4
bigfont
  0
ENDTAB
  0
TABLE
  2
VIEW
  5
6
330
0
100
AcDbSymbolTable
 70
     0
  0
ENDTAB
  0
TABLE
  2
UCS
  5
7
330
0
100
AcDbSymbolTable
 70
     0
  0
ENDTAB
  0
TABLE
  2
APPID
  5
9
330
0
100
AcDbSymbolTable
 70
     1
  0
APPID
  5
12
330
9
100
AcDbSymbolTableRecord
100
AcDbRegAppTableRecord
  2
ACAD
 70
     0
  0
ENDTAB
  0
TABLE
  2
DIMSTYLE
  5
A
330
0
100
AcDbSymbolTable
 70
     6
100
AcDbDimStyleTable
  0
DIMSTYLE
105
27
330
A
100
AcDbSymbolTableRecord
100
AcDbDimStyleTableRecord
  2
ISO-25
 70
     0
 41
2.5
 42
0.625
 43
3.75
 44
1.25
 73
     0
 74
     0
 77
     1
 78
     8
140
2.5
141
2.5
143
0.0393700787
147
0.625
171
     3
172
     1
271
     2
272
     2
274
     3
278
    44
283
     0
284
     8
340
11
  0
DIMSTYLE
105
9E
102
{ACAD_REACTORS
330
8E
330
AD
330
129
102
}
330
A
100
AcDbSymbolTableRecord
100
AcDbDimStyleTableRecord
  2
SLDDIMSTYLE0
 70
     0
 41
3.0
 44
0.0
 73
     0
 74
     0
 77
     3
 78
    12
140
3.5
147
0.875
173
     1
271
     1
272
     2
284
    12
340
9D
341
9F
343
9F
344
9F
  0
DIMSTYLE
105
D4
102
{ACAD_REACTORS
330
C5
102
}
330
A
100
AcDbSymbolTableRecord
100
AcDbDimStyleTableRecord
  2
SLDDIMSTYLE1
 70
     0
 41
3.0
 44
0.0
 73
     0
 74
     0
 77
     3
 78
    12
140
3.5
147
0.875
173
     1
271
     2
272
     2
284
    12
340
9D
341
9F
343
9F
344
9F
  0
DIMSTYLE
105
F0
102
{ACAD_REACTORS
330
E1
102
}
330
A
100
AcDbSymbolTableRecord
100
AcDbDimStyleTableRecord
  2
SLDDIMSTYLE2
 70
     0
 41
3.0
 44
0.0
 73
     0
 74
     0
 77
     3
 78
    12
140
3.5
147
0.875
173
     1
271
     0
272
     3
284
    12
340
9D
341
9F
343
9F
344
9F
  0
DIMSTYLE
105
10D
102
{ACAD_REACTORS
330
FD
102
}
330
A
100
AcDbSymbolTableRecord
100
AcDbDimStyleTableRecord
  2
SLDDIMSTYLE3
 70
     0
 41
3.0
 44
0.0
 73
     0
 74
     0
 77
     3
 78
    12
140
3.5
147
0.875
173
     1
271
     0
272
     2
284
    12
340
9D
341
37
343
37
344
37
  0
DIMSTYLE
105
120
102
{ACAD_REACTORS
330
116
102
}
330
A
100
AcDbSymbolTableRecord
100
AcDbDimStyleTableRecord
  2
SLDDIMSTYLE4
 70
     0
 41
3.0
 44
0.0
 78
    12
140
3.5
147
0.875
172
     1
173
     1
271
     0
272
     2
284
    12
340
9D
341
9F
343
9F
344
9F
  0
ENDTAB
  0
TABLE
  2
BLOCK_RECORD
  5
1
330
0
100
AcDbSymbolTable
 70
    15
  0
BLOCK_RECORD
  5
1F
330
1
100
AcDbSymbolTableRecord
100
AcDbBlockTableRecord
  2
*Model_Space
340
22
  0
BLOCK_RECORD
  5
1B
330
1
100
AcDbSymbolTableRecord
100
AcDbBlockTableRecord
  2
*Paper_Space
340
1E
  0
BLOCK_RECORD
  5
23
330
1
100
AcDbSymbolTableRecord
100
AcDbBlockTableRecord
  2
*Paper_Space0
340
26
  0
BLOCK_RECORD
  5
31
330
1
100
AcDbSymbolTableRecord
100
AcDbBlockTableRecord
  2
注記
340
0
  0
BLOCK_RECORD
  5
37
330
1
100
AcDbSymbolTableRecord
100
AcDbBlockTableRecord
  2
_OPEN30
340
0
102
{BLKREFS
331
104
331
103
331
10E
331
10F
331
14C
102
}
  0
BLOCK_RECORD
  5
3D
330
1
100
AcDbSymbolTableRecord
100
AcDbBlockTableRecord
  2
SW_CENTERMARK0
340
0
102
{BLKREFS
331
14D
102
}
  0
BLOCK_RECORD
  5
48
330
1
100
AcDbSymbolTableRecord
100
AcDbBlockTableRecord
  2
SW_CENTERMARK1
340
0
102
{BLKREFS
331
14E
102
}
  0
BLOCK_RECORD
  5
53
330
1
100
AcDbSymbolTableRecord
100
AcDbBlockTableRecord
  2
SW_CENTERMARK2
340
0
102
{BLKREFS
331
14F
102
}
  0
BLOCK_RECORD
  5
90
330
1
100
AcDbSymbolTableRecord
100
AcDbBlockTableRecord
  2
*D6
340
0
  0
BLOCK_RECORD
  5
9F
330
1
100
AcDbSymbolTableRecord
100
AcDbBlockTableRecord
  2
_None
340
0
102
{BLKREFS
331
95
331
94
331
B3
331
B2
331
CC
331
CB
331
E8
331
E7
331
11B
331
12F
331
12E
102
}
  0
BLOCK_RECORD
  5
AE
330
1
100
AcDbSymbolTableRecord
100
AcDbBlockTableRecord
  2
*D8
340
0
  0
BLOCK_RECORD
  5
C6
330
1
100
AcDbSymbolTableRecord
100
AcDbBlockTableRecord
  2
*D9
340
0
  0
BLOCK_RECORD
  5
E2
330
1
100
AcDbSymbolTableRecord
100
AcDbBlockTableRecord
  2
*D10
340
0
  0
BLOCK_RECORD
  5
FE
330
1
100
AcDbSymbolTableRecord
100
AcDbBlockTableRecord
  2
*D11
340
0
  0
BLOCK_RECORD
  5
117
330
1
100
AcDbSymbolTableRecord
100
AcDbBlockTableRecord
  2
*D12
340
0
  0
BLOCK_RECORD
  5
12A
330
1
100
AcDbSymbolTableRecord
100
AcDbBlockTableRecord
  2
*D13
340
0
  0
BLOCK_RECORD
  5
145
330
1
100
AcDbSymbolTableRecord
100
AcDbBlockTableRecord
  2
SW_NOTE_0
340
0
102
{BLKREFS
331
14A
102
}
  0
ENDTAB
  0
ENDSEC
  0
SECTION
  2
BLOCKS
  0
BLOCK
  5
20
330
1F
100
AcDbEntity
  8
0
100
AcDbBlockBegin
  2
*Model_Space
 70
     0
 71
     0
 10
0.0
 20
0.0
 30
0.0
  3
*Model_Space
  1

  0
ENDBLK
  5
21
330
1F
100
AcDbEntity
  8
0
100
AcDbBlockEnd
  0
BLOCK
  5
1C
330
1B
100
AcDbEntity
 67
     1
  8
0
100
AcDbBlockBegin
  2
*Paper_Space
 70
     0
 71
     0
 10
0.0
 20
0.0
 30
0.0
  3
*Paper_Space
  1

  0
ENDBLK
  5
1D
330
1B
100
AcDbEntity
 67
     1
  8
0
100
AcDbBlockEnd
  0
BLOCK
  5
24
330
23
100
AcDbEntity
  8
0
100
AcDbBlockBegin
  2
*Paper_Space0
 70
     0
 71
     0
 10
0.0
 20
0.0
 30
0.0
  3
*Paper_Space0
  1

  0
ENDBLK
  5
25
330
23
100
AcDbEntity
  8
0
100
AcDbBlockEnd
  0
BLOCK
  5
32
330
31
100
AcDbEntity
  8
0
100
AcDbBlockBegin
  2
注記
 70
     0
 71
     0
 10
0.0
 20
0.0
 30
0.0
  3
注記
  1

  0
MTEXT
  5
35
330
31
100
AcDbEntity
  8
0
  6
Continuous
 62
     7
370
     0
100
AcDbMText
 10
0.2636785918
 20
9.0739778448
 30
0.0
 40
3.5
 41
0.0
 71
     1
 72
     1
  1
１．特記ナキ角部ハ、バリ　カエリノ無キコト。
  7
SLDTEXTSTYLE0
 73
     1
 44
1.0
  0
MTEXT
  5
36
330
31
100
AcDbEntity
  8
0
  6
Continuous
 62
     7
370
     0
100
AcDbMText
 10
0.2636785918
 20
3.5759549983
 30
0.0
 40
3.5
 41
0.0
 71
     1
 72
     1
  1
２．特記ナキ隅部ハ、Ｒ０．４ＭＡＸトスル。
  7
SLDTEXTSTYLE0
 73
     1
 44
1.0
  0
ENDBLK
  5
33
330
31
100
AcDbEntity
  8
0
100
AcDbBlockEnd
  0
BLOCK
  5
38
330
37
100
AcDbEntity
  8
0
100
AcDbBlockBegin
  2
_OPEN30
 70
     0
 71
     0
 10
0.0
 20
0.0
 30
0.0
  3
_OPEN30
  1

  0
LINE
  5
3A
330
37
100
AcDbEntity
  8
SLD-0
  6
Continuous
100
AcDbLine
 10
-1.0
 20
0.267949
 30
0.0
 11
0.0
 21
0.0
 31
0.0
  0
LINE
  5
3B
330
37
100
AcDbEntity
  8
SLD-0
  6
Continuous
100
AcDbLine
 10
0.0
 20
0.0
 30
0.0
 11
-1.0
 21
-0.267949
 31
0.0
  0
LINE
  5
3C
330
37
100
AcDbEntity
  8
SLD-0
  6
Continuous
100
AcDbLine
 10
0.0
 20
0.0
 30
0.0
 11
-1.0
 21
0.0
 31
0.0
  0
ENDBLK
  5
39
330
37
100
AcDbEntity
  8
0
100
AcDbBlockEnd
  0
BLOCK
  5
3E
330
3D
100
AcDbEntity
  8
0
100
AcDbBlockBegin
  2
SW_CENTERMARK0
 70
     0
 71
     0
 10
0.0
 20
0.0
 30
0.0
  3
SW_CENTERMARK0
  1

  0
LINE
  5
40
330
3D
100
AcDbEntity
  8
SLD-0
  6
Continuous
 62
     7
100
AcDbLine
 10
105.3041566265
 20
128.9004819277
 30
0.0
 11
105.3041566265
 21
131.4004819277
 31
0.0
  0
LINE
  5
41
330
3D
100
AcDbEntity
  8
SLD-0
  6
Continuous
 62
     7
100
AcDbLine
 10
105.3041566265
 20
128.9004819277
 30
0.0
 11
102.8041566265
 21
128.9004819277
 31
0.0
  0
LINE
  5
42
330
3D
100
AcDbEntity
  8
SLD-0
  6
Continuous
 62
     7
100
AcDbLine
 10
105.3041566265
 20
128.9004819277
 30
0.0
 11
105.3041566265
 21
126.4004819277
 31
0.0
  0
LINE
  5
43
330
3D
100
AcDbEntity
  8
SLD-0
  6
Continuous
 62
     7
100
AcDbLine
 10
105.3041566265
 20
128.9004819277
 30
0.0
 11
107.8041566265
 21
128.9004819277
 31
0.0
  0
LINE
  5
44
330
3D
100
AcDbEntity
  8
SLD-0
  6
Continuous
 62
     7
100
AcDbLine
 10
105.3041566265
 20
133.9004819277
 30
0.0
 11
105.3041566265
 21
134.0254819277
 31
0.0
  0
LINE
  5
45
330
3D
100
AcDbEntity
  8
SLD-0
  6
Continuous
 62
     7
100
AcDbLine
 10
100.3041566265
 20
128.9004819277
 30
0.0
 11
100.1791566265
 21
128.9004819277
 31
0.0
  0
LINE
  5
46
330
3D
100
AcDbEntity
  8
SLD-0
  6
Continuous
 62
     7
100
AcDbLine
 10
105.3041566265
 20
123.9004819277
 30
0.0
 11
105.3041566265
 21
123.7754819277
 31
0.0
  0
LINE
  5
47
330
3D
100
AcDbEntity
  8
SLD-0
  6
Continuous
 62
     7
100
AcDbLine
 10
110.3041566265
 20
128.9004819277
 30
0.0
 11
110.4291566265
 21
128.9004819277
 31
0.0
  0
ENDBLK
  5
3F
330
3D
100
AcDbEntity
  8
0
100
AcDbBlockEnd
  0
BLOCK
  5
49
330
48
100
AcDbEntity
  8
0
100
AcDbBlockBegin
  2
SW_CENTERMARK1
 70
     0
 71
     0
 10
0.0
 20
0.0
 30
0.0
  3
SW_CENTERMARK1
  1

  0
LINE
  5
4B
330
48
100
AcDbEntity
  8
SLD-0
  6
Continuous
 62
     7
100
AcDbLine
 10
105.3041566265
 20
128.9004819277
 30
0.0
 11
105.3041566265
 21
131.4004819277
 31
0.0
  0
LINE
  5
4C
330
48
100
AcDbEntity
  8
SLD-0
  6
Continuous
 62
     7
100
AcDbLine
 10
105.3041566265
 20
128.9004819277
 30
0.0
 11
102.8041566265
 21
128.9004819277
 31
0.0
  0
LINE
  5
4D
330
48
100
AcDbEntity
  8
SLD-0
  6
Continuous
 62
     7
100
AcDbLine
 10
105.3041566265
 20
128.9004819277
 30
0.0
 11
105.3041566265
 21
126.4004819277
 31
0.0
  0
LINE
  5
4E
330
48
100
AcDbEntity
  8
SLD-0
  6
Continuous
 62
     7
100
AcDbLine
 10
105.3041566265
 20
128.9004819277
 30
0.0
 11
107.8041566265
 21
128.9004819277
 31
0.0
  0
LINE
  5
4F
330
48
100
AcDbEntity
  8
SLD-0
  6
Continuous
 62
     7
100
AcDbLine
 10
105.3041566265
 20
133.9004819277
 30
0.0
 11
105.3041566265
 21
134.0254819277
 31
0.0
  0
LINE
  5
50
330
48
100
AcDbEntity
  8
SLD-0
  6
Continuous
 62
     7
100
AcDbLine
 10
100.3041566265
 20
128.9004819277
 30
0.0
 11
100.1791566265
 21
128.9004819277
 31
0.0
  0
LINE
  5
51
330
48
100
AcDbEntity
  8
SLD-0
  6
Continuous
 62
     7
100
AcDbLine
 10
105.3041566265
 20
123.9004819277
 30
0.0
 11
105.3041566265
 21
123.7754819277
 31
0.0
  0
LINE
  5
52
330
48
100
AcDbEntity
  8
SLD-0
  6
Continuous
 62
     7
100
AcDbLine
 10
110.3041566265
 20
128.9004819277
 30
0.0
 11
110.4291566265
 21
128.9004819277
 31
0.0
  0
ENDBLK
  5
4A
330
48
100
AcDbEntity
  8
0
100
AcDbBlockEnd
  0
BLOCK
  5
54
330
53
100
AcDbEntity
  8
0
100
AcDbBlockBegin
  2
SW_CENTERMARK2
 70
     0
 71
     0
 10
0.0
 20
0.0
 30
0.0
  3
SW_CENTERMARK2
  1

  0
LINE
  5
56
330
53
100
AcDbEntity
  8
SLD-0
  6
Continuous
 62
     7
100
AcDbLine
 10
105.3041566265
 20
200.8429746087
 30
0.0
 11
105.3041566265
 21
203.3429746087
 31
0.0
  0
LINE
  5
57
330
53
100
AcDbEntity
  8
SLD-0
  6
Continuous
 62
     7
100
AcDbLine
 10
105.3041566265
 20
200.8429746087
 30
0.0
 11
102.8041566265
 21
200.8429746087
 31
0.0
  0
LINE
  5
58
330
53
100
AcDbEntity
  8
SLD-0
  6
Continuous
 62
     7
100
AcDbLine
 10
105.3041566265
 20
200.8429746087
 30
0.0
 11
105.3041566265
 21
198.3429746087
 31
0.0
  0
LINE
  5
59
330
53
100
AcDbEntity
  8
SLD-0
  6
Continuous
 62
     7
100
AcDbLine
 10
105.3041566265
 20
200.8429746087
 30
0.0
 11
107.8041566265
 21
200.8429746087
 31
0.0
  0
LINE
  5
5A
330
53
100
AcDbEntity
  8
SLD-0
  6
Continuous
 62
     7
100
AcDbLine
 10
105.3041566265
 20
205.8429746087
 30
0.0
 11
105.3041566265
 21
212.3429746087
 31
0.0
  0
LINE
  5
5B
330
53
100
AcDbEntity
  8
SLD-0
  6
Continuous
 62
     7
100
AcDbLine
 10
100.3041566265
 20
200.8429746087
 30
0.0
 11
93.8041566265
 21
200.8429746087
 31
0.0
  0
LINE
  5
5C
330
53
100
AcDbEntity
  8
SLD-0
  6
Continuous
 62
     7
100
AcDbLine
 10
105.3041566265
 20
195.8429746087
 30
0.0
 11
105.3041566265
 21
189.3429746087
 31
0.0
  0
LINE
  5
5D
330
53
100
AcDbEntity
  8
SLD-0
  6
Continuous
 62
     7
100
AcDbLine
 10
110.3041566265
 20
200.8429746087
 30
0.0
 11
116.8041566265
 21
200.8429746087
 31
0.0
  0
ENDBLK
  5
55
330
53
100
AcDbEntity
  8
0
100
AcDbBlockEnd
  0
BLOCK
  5
9B
330
90
100
AcDbEntity
  8
0
100
AcDbBlockBegin
  2
*D6
 70
     1
 71
     0
 10
0.0
 20
0.0
 30
0.0
  3
*D6
  1

  0
LINE
  5
A2
330
90
100
AcDbEntity
  8
SLD-0
 62
     7
100
AcDbLine
 10
104.3041566265
 20
122.6504819277
 30
0.0
 11
83.7921384748
 21
122.6504819277
 31
0.0
  0
LINE
  5
A3
330
90
100
AcDbEntity
  8
SLD-0
 62
     7
100
AcDbLine
 10
104.3041566265
 20
137.1504819277
 30
0.0
 11
83.7921384748
 21
137.1504819277
 31
0.0
  0
LINE
  5
A4
330
90
100
AcDbEntity
  8
SLD-0
 62
     7
100
AcDbLine
 10
84.7921384748
 20
122.6504819277
 30
0.0
 11
84.7921384748
 21
137.1504819277
 31
0.0
  0
LINE
  5
A5
330
90
100
AcDbEntity
  8
SLD-0
 62
     7
100
AcDbLine
 10
85.5959854748
 20
125.6504819277
 30
0.0
 11
84.7921384748
 21
122.6504819277
 31
0.0
  0
LINE
  5
A6
330
90
100
AcDbEntity
  8
SLD-0
 62
     7
100
AcDbLine
 10
84.7921384748
 20
122.6504819277
 30
0.0
 11
83.9882914748
 21
125.6504819277
 31
0.0
  0
LINE
  5
A7
330
90
100
AcDbEntity
  8
SLD-0
 62
     7
100
AcDbLine
 10
84.7921384748
 20
122.6504819277
 30
0.0
 11
84.7921384748
 21
125.6504819277
 31
0.0
  0
LINE
  5
A8
330
90
100
AcDbEntity
  8
SLD-0
 62
     7
100
AcDbLine
 10
83.9882914748
 20
134.1504819277
 30
0.0
 11
84.7921384748
 21
137.1504819277
 31
0.0
  0
LINE
  5
A9
330
90
100
AcDbEntity
  8
SLD-0
 62
     7
100
AcDbLine
 10
84.7921384748
 20
137.1504819277
 30
0.0
 11
85.5959854748
 21
134.1504819277
 31
0.0
  0
LINE
  5
AA
330
90
100
AcDbEntity
  8
SLD-0
 62
     7
100
AcDbLine
 10
84.7921384748
 20
137.1504819277
 30
0.0
 11
84.7921384748
 21
134.1504819277
 31
0.0
  0
MTEXT
  5
AC
330
90
100
AcDbEntity
  8
SLD-0
 62
     7
100
AcDbMText
 10
80.2654446625
 20
125.8275818085
 30
0.1
 40
3.5
 41
0.0
 71
     1
 72
     1
  1
14.5
  7
SLDTEXTSTYLE2
 11
6.123031769111886E-17
 21
1.0
 31
0.0
 73
     1
 44
1.0
  0
ENDBLK
  5
9C
330
90
100
AcDbEntity
  8
0
100
AcDbBlockEnd
  0
BLOCK
  5
A0
330
9F
100
AcDbEntity
  8
0
100
AcDbBlockBegin
  2
_None
 70
     0
 71
     0
 10
0.0
 20
0.0
 30
0.0
  3
_None
  1

  0
ENDBLK
  5
A1
330
9F
100
AcDbEntity
  8
0
100
AcDbBlockEnd
  0
BLOCK
  5
B9
330
AE
100
AcDbEntity
  8
0
100
AcDbBlockBegin
  2
*D8
 70
     1
 71
     0
 10
0.0
 20
0.0
 30
0.0
  3
*D8
  1

  0
LINE
  5
BB
330
AE
100
AcDbEntity
  8
SLD-0
100
AcDbLine
 10
100.3041566265
 20
145.1504819277
 30
0.0
 11
73.5851356819
 21
145.1504819277
 31
0.0
  0
LINE
  5
BC
330
AE
100
AcDbEntity
  8
SLD-0
100
AcDbLine
 10
98.0792068275
 20
122.6504819277
 30
0.0
 11
73.5851356819
 21
122.6504819277
 31
0.0
  0
LINE
  5
BD
330
AE
100
AcDbEntity
  8
SLD-0
100
AcDbLine
 10
74.5851356819
 20
145.1504819277
 30
0.0
 11
74.5851356819
 21
122.6504819277
 31
0.0
  0
LINE
  5
BE
330
AE
100
AcDbEntity
  8
SLD-0
100
AcDbLine
 10
73.7812886819
 20
142.1504819277
 30
0.0
 11
74.5851356819
 21
145.1504819277
 31
0.0
  0
LINE
  5
BF
330
AE
100
AcDbEntity
  8
SLD-0
100
AcDbLine
 10
74.5851356819
 20
145.1504819277
 30
0.0
 11
75.3889826819
 21
142.1504819277
 31
0.0
  0
LINE
  5
C0
330
AE
100
AcDbEntity
  8
SLD-0
100
AcDbLine
 10
74.5851356819
 20
145.1504819277
 30
0.0
 11
74.5851356819
 21
142.1504819277
 31
0.0
  0
LINE
  5
C1
330
AE
100
AcDbEntity
  8
SLD-0
100
AcDbLine
 10
75.3889826819
 20
125.6504819277
 30
0.0
 11
74.5851356819
 21
122.6504819277
 31
0.0
  0
LINE
  5
C2
330
AE
100
AcDbEntity
  8
SLD-0
100
AcDbLine
 10
74.5851356819
 20
122.6504819277
 30
0.0
 11
73.7812886819
 21
125.6504819277
 31
0.0
  0
LINE
  5
C3
330
AE
100
AcDbEntity
  8
SLD-0
100
AcDbLine
 10
74.5851356819
 20
122.6504819277
 30
0.0
 11
74.5851356819
 21
125.6504819277
 31
0.0
  0
MTEXT
  5
C4
330
AE
100
AcDbEntity
  8
SLD-0
100
AcDbMText
 10
70.0584418695
 20
129.8275818085
 30
0.1
 40
3.5
 41
0.0
 71
     1
 72
     1
  1
22.5
  7
SLDTEXTSTYLE2
 11
6.123031769111886E-17
 21
1.0
 31
0.0
 73
     1
 44
1.0
  0
ENDBLK
  5
BA
330
AE
100
AcDbEntity
  8
0
100
AcDbBlockEnd
  0
BLOCK
  5
D2
330
C6
100
AcDbEntity
  8
0
100
AcDbBlockBegin
  2
*D9
 70
     1
 71
     0
 10
0.0
 20
0.0
 30
0.0
  3
*D9
  1

  0
LINE
  5
D5
330
C6
100
AcDbEntity
  8
SLD-0
 62
     7
100
AcDbLine
 10
113.3041566265
 20
128.9004819277
 30
0.0
 11
133.9905718464
 21
128.9004819277
 31
0.0
  0
LINE
  5
D6
330
C6
100
AcDbEntity
  8
SLD-0
 62
     7
100
AcDbLine
 10
112.5291064255
 20
122.6504819277
 30
0.0
 11
133.9905718464
 21
122.6504819277
 31
0.0
  0
LINE
  5
D7
330
C6
100
AcDbEntity
  8
SLD-0
 62
     7
100
AcDbLine
 10
132.9905718464
 20
128.9004819277
 30
0.0
 11
132.9905718464
 21
133.9004819277
 31
0.0
  0
LINE
  5
D8
330
C6
100
AcDbEntity
  8
SLD-0
 62
     7
100
AcDbLine
 10
132.9905718464
 20
128.9004819277
 30
0.0
 11
132.9905718464
 21
122.6504819277
 31
0.0
  0
LINE
  5
D9
330
C6
100
AcDbEntity
  8
SLD-0
 62
     7
100
AcDbLine
 10
132.9905718464
 20
122.6504819277
 30
0.0
 11
132.9905718464
 21
106.4254526232
 31
0.0
  0
LINE
  5
DA
330
C6
100
AcDbEntity
  8
SLD-0
 62
     7
100
AcDbLine
 10
133.7944188464
 20
131.9004819277
 30
0.0
 11
132.9905718464
 21
128.9004819277
 31
0.0
  0
LINE
  5
DB
330
C6
100
AcDbEntity
  8
SLD-0
 62
     7
100
AcDbLine
 10
132.9905718464
 20
128.9004819277
 30
0.0
 11
132.1867248464
 21
131.9004819277
 31
0.0
  0
LINE
  5
DC
330
C6
100
AcDbEntity
  8
SLD-0
 62
     7
100
AcDbLine
 10
132.9905718464
 20
128.9004819277
 30
0.0
 11
132.9905718464
 21
131.9004819277
 31
0.0
  0
LINE
  5
DD
330
C6
100
AcDbEntity
  8
SLD-0
 62
     7
100
AcDbLine
 10
132.1867248464
 20
119.6504819277
 30
0.0
 11
132.9905718464
 21
122.6504819277
 31
0.0
  0
LINE
  5
DE
330
C6
100
AcDbEntity
  8
SLD-0
 62
     7
100
AcDbLine
 10
132.9905718464
 20
122.6504819277
 30
0.0
 11
133.7944188464
 21
119.6504819277
 31
0.0
  0
LINE
  5
DF
330
C6
100
AcDbEntity
  8
SLD-0
 62
     7
100
AcDbLine
 10
132.9905718464
 20
122.6504819277
 30
0.0
 11
132.9905718464
 21
119.6504819277
 31
0.0
  0
MTEXT
  5
E0
330
C6
100
AcDbEntity
  8
SLD-0
 62
     7
100
AcDbMText
 10
128.4638780341
 20
108.0129526232
 30
0.1
 40
3.5
 41
0.0
 71
     1
 72
     1
  1
6.25
  7
SLDTEXTSTYLE2
 11
6.123031769111886E-17
 21
1.0
 31
0.0
 73
     1
 44
1.0
  0
ENDBLK
  5
D3
330
C6
100
AcDbEntity
  8
0
100
AcDbBlockEnd
  0
BLOCK
  5
EE
330
E2
100
AcDbEntity
  8
0
100
AcDbBlockBegin
  2
*D10
 70
     1
 71
     0
 10
0.0
 20
0.0
 30
0.0
  3
*D10
  1

  0
LINE
  5
F1
330
E2
100
AcDbEntity
  8
SLD-0
 62
     7
100
AcDbLine
 10
114.3041566265
 20
121.6504819277
 30
0.0
 11
114.3041566265
 21
109.0648468252
 31
0.0
  0
LINE
  5
F2
330
E2
100
AcDbEntity
  8
SLD-0
 62
     7
100
AcDbLine
 10
96.3041566265
 20
121.6504819277
 30
0.0
 11
96.3041566265
 21
109.0648468252
 31
0.0
  0
LINE
  5
F3
330
E2
100
AcDbEntity
  8
SLD-0
 62
     7
100
AcDbLine
 10
114.3041566265
 20
110.0648468252
 30
0.0
 11
96.3041566265
 21
110.0648468252
 31
0.0
  0
LINE
  5
F4
330
E2
100
AcDbEntity
  8
SLD-0
 62
     7
100
AcDbLine
 10
96.3041566265
 20
110.0648468252
 30
0.0
 11
80.1679433918
 21
110.0648468252
 31
0.0
  0
LINE
  5
F5
330
E2
100
AcDbEntity
  8
SLD-0
 62
     7
100
AcDbLine
 10
111.3041566265
 20
110.8686938252
 30
0.0
 11
114.3041566265
 21
110.0648468252
 31
0.0
  0
LINE
  5
F6
330
E2
100
AcDbEntity
  8
SLD-0
 62
     7
100
AcDbLine
 10
114.3041566265
 20
110.0648468252
 30
0.0
 11
111.3041566265
 21
109.2609998252
 31
0.0
  0
LINE
  5
F7
330
E2
100
AcDbEntity
  8
SLD-0
 62
     7
100
AcDbLine
 10
114.3041566265
 20
110.0648468252
 30
0.0
 11
111.3041566265
 21
110.0648468252
 31
0.0
  0
LINE
  5
F8
330
E2
100
AcDbEntity
  8
SLD-0
 62
     7
100
AcDbLine
 10
99.3041566265
 20
109.2609998252
 30
0.0
 11
96.3041566265
 21
110.0648468252
 31
0.0
  0
LINE
  5
F9
330
E2
100
AcDbEntity
  8
SLD-0
 62
     7
100
AcDbLine
 10
96.3041566265
 20
110.0648468252
 30
0.0
 11
99.3041566265
 21
110.8686938252
 31
0.0
  0
LINE
  5
FA
330
E2
100
AcDbEntity
  8
SLD-0
 62
     7
100
AcDbLine
 10
96.3041566265
 20
110.0648468252
 30
0.0
 11
99.3041566265
 21
110.0648468252
 31
0.0
  0
MTEXT
  5
FB
330
E2
100
AcDbEntity
  8
SLD-0
 62
     7
100
AcDbMText
 10
80.0054433918
 20
114.5915406375
 30
0.1
 40
3.5
 41
0.0
 71
     1
 72
     1
  1
%%c
  7
SLDTEXTSTYLE2
 73
     1
 44
1.0
  0
MTEXT
  5
FC
330
E2
100
AcDbEntity
  8
SLD-0
 62
     7
100
AcDbMText
 10
85.6225320688
 20
114.5915406375
 30
0.1
 40
3.5
 41
0.0
 71
     1
 72
     1
  1
18
  7
SLDTEXTSTYLE2
 73
     1
 44
1.0
  0
ENDBLK
  5
EF
330
E2
100
AcDbEntity
  8
0
100
AcDbBlockEnd
  0
BLOCK
  5
10B
330
FE
100
AcDbEntity
  8
0
100
AcDbBlockBegin
  2
*D11
 70
     1
 71
     0
 10
0.0
 20
0.0
 30
0.0
  3
*D11
  1

  0
INSERT
  5
10E
330
FE
100
AcDbEntity
  8
SLD-0
 62
     7
100
AcDbBlockReference
  2
_OPEN30
 10
101.3041566265
 20
160.0340134978
 30
0.1
 41
3.0
 42
3.0
 50
180.0
  0
INSERT
  5
10F
330
FE
100
AcDbEntity
  8
SLD-0
 62
     7
100
AcDbBlockReference
  2
_OPEN30
 10
109.3041566265
 20
160.0340134978
 30
0.1
 41
3.0
 42
3.0
 50
360.0
  0
LINE
  5
110
330
FE
100
AcDbEntity
  8
SLD-0
 62
     7
100
AcDbLine
 10
101.3041566265
 20
138.1504819277
 30
0.0
 11
101.3041566265
 21
161.0340134978
 31
0.0
  0
LINE
  5
111
330
FE
100
AcDbEntity
  8
SLD-0
 62
     7
100
AcDbLine
 10
109.3041566265
 20
138.1504819277
 30
0.0
 11
109.3041566265
 21
161.0340134978
 31
0.0
  0
LINE
  5
112
330
FE
100
AcDbEntity
  8
SLD-0
 62
     7
100
AcDbLine
 10
101.3041566265
 20
160.0340134978
 30
0.0
 11
109.3041566265
 21
160.0340134978
 31
0.0
  0
LINE
  5
113
330
FE
100
AcDbEntity
  8
SLD-0
 62
     7
100
AcDbLine
 10
109.3041566265
 20
160.0340134978
 30
0.0
 11
129.6260257793
 21
160.0340134978
 31
0.0
  0
MTEXT
  5
114
330
FE
100
AcDbEntity
  8
SLD-0
 62
     7
100
AcDbMText
 10
120.6746503993
 20
164.8081142172
 30
0.0
 40
3.5
 41
0.0
 71
     1
 72
     1
  1
%%c
  7
SLDTEXTSTYLE2
 73
     1
 44
1.0
  0
MTEXT
  5
115
330
FE
100
AcDbEntity
  8
SLD-0
 62
     7
100
AcDbMText
 10
125.3083065142
 20
164.8081142172
 30
0.0
 40
3.5
 41
0.0
 71
     1
 72
     1
  1
8
  7
SLDTEXTSTYLE2
 73
     1
 44
1.0
  0
ENDBLK
  5
10C
330
FE
100
AcDbEntity
  8
0
100
AcDbBlockEnd
  0
BLOCK
  5
11E
330
117
100
AcDbEntity
  8
0
100
AcDbBlockBegin
  2
*D12
 70
     1
 71
     0
 10
0.0
 20
0.0
 30
0.0
  3
*D12
  1

  0
LINE
  5
121
330
117
100
AcDbEntity
  8
SLD-0
 62
     7
100
AcDbLine
 10
107.0757791575
 20
131.321505184
 30
0.0
 11
114.2185190172
 21
141.0824666818
 31
0.0
  0
LINE
  5
122
330
117
100
AcDbEntity
  8
SLD-0
 62
     7
100
AcDbLine
 10
114.2185190172
 20
141.0824666818
 30
0.0
 11
135.2726194939
 21
141.0824666818
 31
0.0
  0
LINE
  5
123
330
117
100
AcDbEntity
  8
SLD-0
 62
     7
100
AcDbLine
 10
109.496112449
 20
133.2678239547
 30
0.0
 11
107.0757791575
 21
131.321505184
 31
0.0
  0
LINE
  5
124
330
117
100
AcDbEntity
  8
SLD-0
 62
     7
100
AcDbLine
 10
107.0757791575
 20
131.321505184
 30
0.0
 11
108.198690928
 21
134.2172329259
 31
0.0
  0
LINE
  5
125
330
117
100
AcDbEntity
  8
SLD-0
 62
     7
100
AcDbLine
 10
107.0757791575
 20
131.321505184
 30
0.0
 11
108.8474016885
 21
133.7425284403
 31
0.0
  0
MTEXT
  5
126
330
117
100
AcDbEntity
  8
SLD-0
 62
     7
100
AcDbMText
 10
117.3935190172
 20
145.6091604942
 30
0.1
 40
3.5
 41
0.0
 71
     1
 72
     1
  1
M
  7
SLDTEXTSTYLE2
 73
     1
 44
1.0
  0
MTEXT
  5
127
330
117
100
AcDbEntity
  8
SLD-0
 62
     7
100
AcDbMText
 10
119.4299690768
 20
145.6091604942
 30
0.1
 40
3.5
 41
0.0
 71
     1
 72
     1
  1
6
  7
SLDTEXTSTYLE2
 73
     1
 44
1.0
  0
MTEXT
  5
128
330
117
100
AcDbEntity
  8
SLD-0
 62
     7
100
AcDbMText
 10
121.4664191363
 20
145.6091604942
 30
0.1
 40
3.5
 41
0.0
 71
     1
 72
     1
  1
xP0.75
  7
SLDTEXTSTYLE2
 73
     1
 44
1.0
  0
ENDBLK
  5
11F
330
117
100
AcDbEntity
  8
0
100
AcDbBlockEnd
  0
BLOCK
  5
135
330
12A
100
AcDbEntity
  8
0
100
AcDbBlockBegin
  2
*D13
 70
     1
 71
     0
 10
0.0
 20
0.0
 30
0.0
  3
*D13
  1

  0
LINE
  5
137
330
12A
100
AcDbEntity
  8
SLD-0
100
AcDbLine
 10
112.5291064255
 20
194.3429746087
 30
0.0
 11
131.0958057086
 21
194.3429746087
 31
0.0
  0
LINE
  5
138
330
12A
100
AcDbEntity
  8
SLD-0
100
AcDbLine
 10
106.3041566265
 20
209.8429746087
 30
0.0
 11
131.0958057086
 21
209.8429746087
 31
0.0
  0
LINE
  5
139
330
12A
100
AcDbEntity
  8
SLD-0
100
AcDbLine
 10
130.0958057086
 20
194.3429746087
 30
0.0
 11
130.0958057086
 21
209.8429746087
 31
0.0
  0
LINE
  5
13A
330
12A
100
AcDbEntity
  8
SLD-0
100
AcDbLine
 10
130.8996527086
 20
197.3429746087
 30
0.0
 11
130.0958057086
 21
194.3429746087
 31
0.0
  0
LINE
  5
13B
330
12A
100
AcDbEntity
  8
SLD-0
100
AcDbLine
 10
130.0958057086
 20
194.3429746087
 30
0.0
 11
129.2919587086
 21
197.3429746087
 31
0.0
  0
LINE
  5
13C
330
12A
100
AcDbEntity
  8
SLD-0
100
AcDbLine
 10
130.0958057086
 20
194.3429746087
 30
0.0
 11
130.0958057086
 21
197.3429746087
 31
0.0
  0
LINE
  5
13D
330
12A
100
AcDbEntity
  8
SLD-0
100
AcDbLine
 10
129.2919587086
 20
206.8429746087
 30
0.0
 11
130.0958057086
 21
209.8429746087
 31
0.0
  0
LINE
  5
13E
330
12A
100
AcDbEntity
  8
SLD-0
100
AcDbLine
 10
130.0958057086
 20
209.8429746087
 30
0.0
 11
130.8996527086
 21
206.8429746087
 31
0.0
  0
LINE
  5
13F
330
12A
100
AcDbEntity
  8
SLD-0
100
AcDbLine
 10
130.0958057086
 20
209.8429746087
 30
0.0
 11
130.0958057086
 21
206.8429746087
 31
0.0
  0
MTEXT
  5
140
330
12A
100
AcDbEntity
  8
SLD-0
100
AcDbMText
 10
125.5691118963
 20
198.0200744895
 30
0.1
 40
3.5
 41
0.0
 71
     1
 72
     1
  1
15.5
  7
SLDTEXTSTYLE2
 11
6.123031769111886E-17
 21
1.0
 31
0.0
 73
     1
 44
1.0
  0
ENDBLK
  5
136
330
12A
100
AcDbEntity
  8
0
100
AcDbBlockEnd
  0
BLOCK
  5
146
330
145
100
AcDbEntity
  8
0
100
AcDbBlockBegin
  2
SW_NOTE_0
 70
     0
 71
     0
 10
0.0
 20
0.0
 30
0.0
  3
SW_NOTE_0
  1

  0
MTEXT
  5
148
330
145
100
AcDbEntity
  8
0
  6
Continuous
 62
     7
370
     0
100
AcDbMText
 10
0.0
 20
4.9260606061
 30
0.0
 40
4.2333333333
 41
0.0
 71
     1
 72
     1
  1
φ8　ローテーション
  7
SLDTEXTSTYLE0
 73
     1
 44
1.0
  0
MTEXT
  5
149
330
145
100
AcDbEntity
  8
0
  6
Continuous
 62
     7
370
     0
100
AcDbMText
 10
3.7903990597
 20
-0.7183837702
 30
0.0
 40
4.2333333333
 41
0.0
 71
     1
 72
     1
  1
ブラケット　Ｍ6Ａ
  7
SLDTEXTSTYLE0
 73
     1
 44
1.0
  0
ENDBLK
  5
147
330
145
100
AcDbEntity
  8
0
100
AcDbBlockEnd
  0
ENDSEC
  0
SECTION
  2
ENTITIES
  0
LINE
  5
5E
330
1F
100
AcDbEntity
  8
SLD-0
  6
Continuous
 62
     7
100
AcDbLine
 10
114.3041566265
 20
123.1504819277
 30
0.0
 11
114.3041566265
 21
137.1504819277
 31
0.0
  0
LINE
  5
5F
330
1F
100
AcDbEntity
  8
SLD-0
  6
Continuous
 62
     7
100
AcDbLine
 10
96.3041566265
 20
137.1504819277
 30
0.0
 11
96.3041566265
 21
123.1504819277
 31
0.0
  0
LINE
  5
60
330
1F
100
AcDbEntity
  8
SLD-0
  6
Continuous
 62
     7
100
AcDbLine
 10
96.3041566265
 20
123.1504819277
 30
0.0
 11
96.8041566265
 21
122.6504819277
 31
0.0
  0
LINE
  5
61
330
1F
100
AcDbEntity
  8
SLD-0
  6
Continuous
 62
     7
100
AcDbLine
 10
113.8041566265
 20
122.6504819277
 30
0.0
 11
114.3041566265
 21
123.1504819277
 31
0.0
  0
LINE
  5
62
330
1F
100
AcDbEntity
  8
SLD-0
  6
Continuous
 62
     7
100
AcDbLine
 10
109.3041566265
 20
144.6504819277
 30
0.0
 11
108.8041566265
 21
145.1504819277
 31
0.0
  0
LINE
  5
63
330
1F
100
AcDbEntity
  8
SLD-0
  6
Continuous
 62
     7
100
AcDbLine
 10
101.8041566265
 20
145.1504819277
 30
0.0
 11
101.3041566265
 21
144.6504819277
 31
0.0
  0
LINE
  5
64
330
1F
100
AcDbEntity
  8
SLD-0
  6
Continuous
 62
     7
100
AcDbLine
 10
109.3041568165
 20
137.1504815105
 30
0.0
 11
109.3041566265
 21
144.6504819277
 31
0.0
  0
LINE
  5
65
330
1F
100
AcDbEntity
  8
SLD-0
  6
Continuous
 62
     7
100
AcDbLine
 10
101.3041566265
 20
144.6504819277
 30
0.0
 11
101.3041564365
 21
137.1504815105
 31
0.0
  0
LINE
  5
66
330
1F
100
AcDbEntity
  8
SLD-0
  6
Continuous
 62
     7
100
AcDbLine
 10
99.0792068275
 20
123.1504819277
 30
0.0
 11
99.0792068275
 21
137.1504819277
 31
0.0
  0
LINE
  5
67
330
1F
100
AcDbEntity
  8
SLD-0
  6
Continuous
 62
     7
100
AcDbLine
 10
111.5291064255
 20
123.1504819277
 30
0.0
 11
114.3041566265
 21
123.1504819277
 31
0.0
  0
LINE
  5
68
330
1F
100
AcDbEntity
  8
SLD-0
  6
Continuous
 62
     7
100
AcDbLine
 10
96.3041566265
 20
123.1504819277
 30
0.0
 11
99.0792068275
 21
123.1504819277
 31
0.0
  0
LINE
  5
69
330
1F
100
AcDbEntity
  8
SLD-0
  6
Continuous
 62
     7
100
AcDbLine
 10
111.5291064255
 20
123.1504819277
 30
0.0
 11
111.5291064255
 21
137.1504819277
 31
0.0
  0
LINE
  5
6A
330
1F
100
AcDbEntity
  8
SLD-0
  6
Continuous
 62
     7
100
AcDbLine
 10
111.5291064255
 20
137.1504819277
 30
0.0
 11
114.3041566265
 21
137.1504819277
 31
0.0
  0
LINE
  5
6B
330
1F
100
AcDbEntity
  8
SLD-0
  6
Continuous
 62
     7
100
AcDbLine
 10
96.3041566265
 20
137.1504819277
 30
0.0
 11
99.0792068275
 21
137.1504819277
 31
0.0
  0
LINE
  5
6C
330
1F
100
AcDbEntity
  8
SLD-0
  6
Continuous
 62
     7
100
AcDbLine
 10
99.0792068275
 20
123.1504819277
 30
0.0
 11
99.8269310515
 21
122.6504819277
 31
0.0
  0
LINE
  5
6D
330
1F
100
AcDbEntity
  8
SLD-0
  6
Continuous
 62
     7
100
AcDbLine
 10
99.8269310515
 20
122.6504819277
 30
0.0
 11
96.8041566265
 21
122.6504819277
 31
0.0
  0
LINE
  5
6E
330
1F
100
AcDbEntity
  8
SLD-0
  6
Continuous
 62
     7
100
AcDbLine
 10
113.8041566265
 20
122.6504819277
 30
0.0
 11
110.7813822016
 21
122.6504819277
 31
0.0
  0
LINE
  5
6F
330
1F
100
AcDbEntity
  8
SLD-0
  6
Continuous
 62
     7
100
AcDbLine
 10
110.7813822016
 20
122.6504819277
 30
0.0
 11
111.5291064255
 21
123.1504819277
 31
0.0
  0
LINE
  5
70
330
1F
100
AcDbEntity
  8
SLD-0
  6
Continuous
 62
     7
100
AcDbLine
 10
110.7813822016
 20
122.6504819277
 30
0.0
 11
99.8269310515
 21
122.6504819277
 31
0.0
  0
LINE
  5
71
330
1F
100
AcDbEntity
  8
SLD-0
  6
Continuous
 62
     7
100
AcDbLine
 10
111.5291064255
 20
137.1504819277
 30
0.0
 11
99.0792068275
 21
137.1504819277
 31
0.0
  0
LINE
  5
72
330
1F
100
AcDbEntity
  8
SLD-0
  6
Continuous
 62
     7
100
AcDbLine
 10
101.8041566265
 20
145.1504819277
 30
0.0
 11
108.8041566265
 21
145.1504819277
 31
0.0
  0
LINE
  5
73
330
1F
100
AcDbEntity
  8
SLD-0
  6
Continuous
 62
     7
100
AcDbLine
 10
109.3041566265
 20
144.6504819277
 30
0.0
 11
101.3041566265
 21
144.6504819277
 31
0.0
  0
LINE
  5
74
330
1F
100
AcDbEntity
  8
SLD-0
 62
     7
100
AcDbLine
 10
101.5541566265
 20
144.9004819277
 30
0.0
 11
86.5841371583
 21
159.5959143434
 31
0.0
  0
LINE
  5
75
330
1F
100
AcDbEntity
  8
SLD-0
 62
     7
100
AcDbLine
 10
86.5841371583
 20
159.5959143434
 30
0.0
 11
97.5575752894
 21
148.80009727
 31
0.0
  0
LINE
  5
76
330
1F
100
AcDbEntity
  8
SLD-0
  6
CENTERX2
 62
     7
100
AcDbLine
 10
105.3041566265
 20
137.1504819277
 30
0.0
 11
105.3041566265
 21
121.1504819277
 31
0.0
  0
LINE
  5
77
330
1F
100
AcDbEntity
  8
SLD-0
  6
CENTERX2
 62
     7
100
AcDbLine
 10
105.3041566265
 20
146.6504819277
 30
0.0
 11
105.3041566265
 21
137.1504819277
 31
0.0
  0
LINE
  5
78
330
1F
100
AcDbEntity
  8
SLD-0
  6
Continuous
 62
     7
100
AcDbLine
 10
111.5291064255
 20
194.3429746087
 30
0.0
 11
99.0792068275
 21
194.3429746087
 31
0.0
  0
LINE
  5
79
330
1F
100
AcDbEntity
  8
SLD-0
  6
HIDDEN
 62
     7
100
AcDbLine
 10
107.9291565911
 20
194.3429744745
 30
0.0
 11
107.9291565911
 21
209.4540837164
 31
0.0
  0
LINE
  5
7A
330
1F
100
AcDbEntity
  8
SLD-0
  6
HIDDEN
 62
     7
100
AcDbLine
 10
102.6791566619
 20
209.4544934983
 30
0.0
 11
102.6791566619
 21
194.3429744745
 31
0.0
  0
LINE
  5
7B
330
1F
100
AcDbEntity
  8
SLD-0
 62
     7
100
AcDbLine
 10
102.3041566004
 20
209.3320674206
 30
0.0
 11
102.3041566004
 21
209.3282555173
 31
0.0
  0
LINE
  5
7C
330
1F
100
AcDbEntity
  8
SLD-0
 62
     7
100
AcDbLine
 10
108.3041566526
 20
209.3282555173
 30
0.0
 11
108.3041566526
 21
209.3318280707
 31
0.0
  0
LINE
  5
7D
330
1F
100
AcDbEntity
  8
SLD-0
  6
HIDDEN
 62
     7
100
AcDbLine
 10
102.3041566004
 20
209.3282555173
 30
0.0
 11
102.3041566004
 21
194.3429744745
 31
0.0
  0
LINE
  5
7E
330
1F
100
AcDbEntity
  8
SLD-0
  6
HIDDEN
 62
     7
100
AcDbLine
 10
108.3041566526
 20
194.3429744745
 30
0.0
 11
108.3041566526
 21
209.3282555173
 31
0.0
  0
LINE
  5
7F
330
1F
100
AcDbEntity
  8
SLD-0
  6
CENTERX2
 62
     7
100
AcDbLine
 10
105.3041566265
 20
211.8429746087
 30
0.0
 11
105.3041566265
 21
192.3429746087
 31
0.0
  0
LINE
  5
80
330
1F
100
AcDbEntity
  8
0
  6
Continuous
 62
     7
370
     0
100
AcDbLine
 10
20.2604743903
 20
285.0
 30
0.0
 11
196.7604743903
 21
285.0
 31
0.0
  0
LINE
  5
81
330
1F
100
AcDbEntity
  8
0
  6
Continuous
 62
     7
370
     0
100
AcDbLine
 10
20.2604743903
 20
285.0
 30
0.0
 11
20.2604743903
 21
10.0
 31
0.0
  0
LINE
  5
82
330
1F
100
AcDbEntity
  8
0
  6
Continuous
 62
     7
370
     0
100
AcDbLine
 10
20.2604743903
 20
10.0
 30
0.0
 11
196.7604743903
 21
10.0
 31
0.0
  0
LINE
  5
83
330
1F
100
AcDbEntity
  8
0
  6
Continuous
 62
     7
370
     0
100
AcDbLine
 10
196.7604743903
 20
285.0
 30
0.0
 11
196.7604743903
 21
10.0
 31
0.0
  0
LINE
  5
84
330
1F
100
AcDbEntity
  8
0
  6
Continuous
 62
     7
370
     0
100
AcDbLine
 10
127.0104743903
 20
50.75
 30
0.0
 11
196.7604743903
 21
50.75
 31
0.0
  0
LINE
  5
85
330
1F
100
AcDbEntity
  8
0
  6
Continuous
 62
     7
370
     0
100
AcDbLine
 10
127.0104743903
 20
50.75
 30
0.0
 11
127.0104743903
 21
10.0
 31
0.0
  0
LINE
  5
86
330
1F
100
AcDbEntity
  8
0
  6
Continuous
 62
     7
370
     0
100
AcDbLine
 10
127.0104743903
 20
22.75
 30
0.0
 11
196.7604743903
 21
22.75
 31
0.0
  0
LINE
  5
87
330
1F
100
AcDbEntity
  8
0
  6
Continuous
 62
     7
370
     0
100
AcDbLine
 10
127.0104743903
 20
36.75
 30
0.0
 11
196.7604743903
 21
36.75
 31
0.0
  0
CIRCLE
  5
88
330
1F
100
AcDbEntity
  8
SLD-0
  6
Continuous
 62
     7
100
AcDbCircle
 10
105.3041566265
 20
128.9004819277
 30
0.0
 40
2.625
  0
CIRCLE
  5
89
330
1F
100
AcDbEntity
  8
SLD-0
 62
     7
100
AcDbCircle
 10
105.3041566265
 20
128.9004819277
 30
0.0
 40
3.000000026099997
  0
CIRCLE
  5
8A
330
1F
100
AcDbEntity
  8
SLD-0
  6
Continuous
 62
     7
100
AcDbCircle
 10
105.3041566265
 20
200.8429746087
 30
0.0
 40
3.5
  0
CIRCLE
  5
8B
330
1F
100
AcDbEntity
  8
SLD-0
  6
Continuous
 62
     7
100
AcDbCircle
 10
105.3041566265
 20
200.8429746087
 30
0.0
 40
4.0
  0
ARC
  5
8C
330
1F
100
AcDbEntity
  8
SLD-0
  6
Continuous
 62
     7
100
AcDbCircle
 10
105.3041566265
 20
200.8429746087
 30
0.0
 40
9.000000000003897
100
AcDbArc
 50
313.7617426927
 51
226.2382573073
  0
ARC
  5
8D
330
1F
100
AcDbEntity
  8
SLD-0
  6
HIDDEN
 62
     7
100
AcDbCircle
 10
105.3041566265
 20
200.8429746087
 30
0.0
 40
8.499999999999995
100
AcDbArc
 50
310.1191668984
 51
229.8808331016
  0
DIMENSION
  5
8E
330
1F
100
AcDbEntity
  8
SLD-0
 62
     7
100
AcDbDimension
  2
*D6
 10
84.7921384748
 20
122.6504819277
 30
0.0
 11
84.7921384748
 21
129.9004819277
 31
0.0
 70
   160
 71
     1
 42
14.5
  3
SLDDIMSTYLE0
100
AcDbAlignedDimension
 13
105.3041566265
 23
137.1504819277
 33
0.0
 14
105.3041566265
 24
122.6504819277
 34
0.0
 50
90.0
100
AcDbRotatedDimension
1001
ACAD
1000
DSTYLE
1002
{
1070
    77
1070
     3
1070
   143
1040
0.0393700787
1070
    41
1040
3.0
1070
    44
1040
1.0
1070
    42
1040
1.0
1070
   147
1040
1.524
1070
    73
1070
     0
1070
    74
1070
     0
1070
   140
1040
3.5
1070
   284
1070
    12
1070
    78
1070
    12
1002
}
  0
DIMENSION
  5
AD
330
1F
100
AcDbEntity
  8
SLD-0
100
AcDbDimension
  2
*D8
 10
74.5851356819
 20
145.1504819277
 30
0.0
 11
74.5851356819
 21
133.9004819277
 31
0.0
 70
   160
 71
     1
 42
22.5
  3
SLDDIMSTYLE0
100
AcDbAlignedDimension
 13
99.0792068275
 23
122.6504819277
 33
0.0
 14
101.3041566265
 24
145.1504819277
 34
0.0
 50
90.0
100
AcDbRotatedDimension
1001
ACAD
1000
DSTYLE
1002
{
1070
    77
1070
     3
1070
   143
1040
0.0393700787
1070
    41
1040
3.0
1070
    44
1040
1.0
1070
    42
1040
1.0
1070
   147
1040
1.524
1070
    73
1070
     0
1070
    74
1070
     0
1070
   140
1040
3.5
1070
   284
1070
    12
1070
    78
1070
    12
1002
}
  0
DIMENSION
  5
C5
330
1F
100
AcDbEntity
  8
SLD-0
 62
     7
100
AcDbDimension
  2
*D9
 10
132.9905718464
 20
128.9004819277
 30
0.0
 11
132.9905718464
 21
112.0858527424
 31
0.0
 70
   160
 71
     1
 42
6.25
  3
SLDDIMSTYLE1
100
AcDbAlignedDimension
 13
111.5291064255
 23
122.6504819277
 33
0.0
 14
105.3041566265
 24
128.9004819277
 34
0.0
 50
90.0
100
AcDbRotatedDimension
1001
ACAD
1000
DSTYLE
1002
{
1070
    77
1070
     3
1070
   143
1040
0.0393700787
1070
    41
1040
3.0
1070
    44
1040
1.0
1070
    42
1040
1.0
1070
   147
1040
1.524
1070
    73
1070
     0
1070
    74
1070
     0
1070
   140
1040
3.5
1070
   284
1070
    12
1070
    78
1070
    12
1002
}
  0
DIMENSION
  5
E1
330
1F
100
AcDbEntity
  8
SLD-0
 62
     7
100
AcDbDimension
  2
*D10
 10
114.3041566265
 20
110.0648468252
 30
0.0
 11
85.7254377899
 21
110.0648468252
 31
0.0
 70
   160
  1
%%c<>
 71
     1
 42
18.0
  3
SLDDIMSTYLE2
100
AcDbAlignedDimension
 13
96.3041566265
 23
122.6504819277
 33
0.0
 14
114.3041566265
 24
122.6504819277
 34
0.0
100
AcDbRotatedDimension
1001
ACAD
1000
DSTYLE
1002
{
1070
    77
1070
     3
1070
   143
1040
0.0393700787
1070
    41
1040
3.0
1070
    44
1040
1.0
1070
    42
1040
1.0
1070
   147
1040
1.524
1070
    73
1070
     0
1070
    74
1070
     0
1070
   140
1040
3.5
1070
   284
1070
    12
1070
    78
1070
    12
1002
}
  0
DIMENSION
  5
FD
330
1F
100
AcDbEntity
  8
SLD-0
 62
     7
100
AcDbDimension
  2
*D11
 10
109.3041566265
 20
160.0340134978
 30
0.0
 11
124.3565880893
 21
160.0340134978
 31
0.0
 70
   160
  1
%%c<>
 71
     1
 42
8.0
  3
SLDDIMSTYLE3
100
AcDbAlignedDimension
 13
101.3041566265
 23
137.1504819277
 33
0.0
 14
109.3041566265
 24
137.1504819277
 34
0.0
100
AcDbRotatedDimension
1001
ACAD
1000
DSTYLE
1002
{
1070
    77
1070
     3
1070
   143
1040
0.0393700787
1070
    41
1040
3.0
1070
    44
1040
1.0
1070
    42
1040
1.0
1070
   147
1040
1.524
1070
    73
1070
     0
1070
    74
1070
     0
1070
   140
1040
3.5
1070
   284
1070
    12
1070
    78
1070
    12
1002
}
  0
DIMENSION
  5
116
330
1F
100
AcDbEntity
  8
SLD-0
 62
     7
100
AcDbDimension
  2
*D12
 10
3.7959728569
 20
4.6465661595
 30
0.0
 11
125.5393192555
 21
-4.6465669982
 31
0.0
 70
   163
  1
M<>xP0.75<>
 71
     1
 42
5.9999989171
  3
SLDDIMSTYLE4
100
AcDbDiametricDimension
 15
0.0
 25
0.0
 35
0.0
 40
0.0
1001
ACAD
1000
DSTYLE
1002
{
1070
    77
1070
     0
1070
   143
1040
0.0393700787
1070
    41
1040
3.0
1070
    44
1040
1.0
1070
    42
1040
1.0
1070
   147
1040
1.524
1070
    73
1070
     1
1070
    74
1070
     1
1070
   140
1040
3.5
1070
   284
1070
    12
1070
    78
1070
    12
1002
}
  0
DIMENSION
  5
129
330
1F
100
AcDbEntity
  8
SLD-0
100
AcDbDimension
  2
*D13
 10
130.0958057086
 20
194.3429746087
 30
0.0
 11
130.0958057086
 21
202.0929746087
 31
0.0
 70
   160
 71
     1
 42
15.5
  3
SLDDIMSTYLE0
100
AcDbAlignedDimension
 13
105.3041566265
 23
209.8429746087
 33
0.0
 14
111.5291064255
 24
194.3429746087
 34
0.0
 50
90.0
100
AcDbRotatedDimension
1001
ACAD
1000
DSTYLE
1002
{
1070
    77
1070
     3
1070
   143
1040
0.0393700787
1070
    41
1040
3.0
1070
    44
1040
1.0
1070
    42
1040
1.0
1070
   147
1040
1.524
1070
    73
1070
     0
1070
    74
1070
     0
1070
   140
1040
3.5
1070
   284
1070
    12
1070
    78
1070
    12
1002
}
  0
MTEXT
  5
141
330
1F
100
AcDbEntity
  8
SLD-0
 62
     7
100
AcDbMText
 10
90.8907674402
 20
161.7097924759
 30
0.0
 40
3.5
 41
0.0
 71
     1
 72
     1
  1
2-
  7
SLDTEXTSTYLE1
 11
0.7128525225051896
 21
-0.7013139676050864
 31
0.0
 73
     1
 44
1.0
  0
MTEXT
  5
142
330
1F
100
AcDbEntity
  8
SLD-0
 62
     7
100
AcDbMText
 10
93.7941445642
 20
158.8534107337
 30
0.0
 40
3.5
 41
0.0
 71
     1
 72
     1
  1
C
  7
SLDTEXTSTYLE1
 11
0.7128525225051896
 21
-0.7013139676050864
 31
0.0
 73
     1
 44
1.0
  0
MTEXT
  5
143
330
1F
100
AcDbEntity
  8
SLD-0
 62
     7
100
AcDbMText
 10
95.2458331262
 20
157.4252198627
 30
0.0
 40
3.5
 41
0.0
 71
     1
 72
     1
  1
0.5
  7
SLDTEXTSTYLE1
 11
0.7128525225051896
 21
-0.7013139676050864
 31
0.0
 73
     1
 44
1.0
  0
MTEXT
  5
144
330
1F
100
AcDbEntity
  8
0
  6
Continuous
 62
     7
370
     0
100
AcDbMText
 10
146.1206767411
 20
31.31376682
 30
0.0
 40
4.2333333333
 41
0.0
 71
     1
 72
     1
  1
N01864-203
  7
SLDTEXTSTYLE0
 73
     1
 44
1.0
  0
INSERT
  5
14A
330
1F
100
AcDbEntity
  8
0
  6
Continuous
 62
     7
370
     0
100
AcDbBlockReference
  2
SW_NOTE_0
 10
141.6506933345
 20
43.8440470855
 30
0.0
  0
MTEXT
  5
14B
330
1F
100
AcDbEntity
  8
0
  6
Continuous
 62
     7
370
     0
100
AcDbMText
 10
154.0479324575
 20
17.9990607909
 30
0.0
 40
4.2333333333
 41
0.0
 71
     1
 72
     1
  1
131165
  7
SLDTEXTSTYLE0
 73
     1
 44
1.0
  0
INSERT
  5
14C
330
1F
100
AcDbEntity
  8
0
  6
Continuous
 62
     7
370
     0
100
AcDbBlockReference
  2
_OPEN30
 10
101.5541566265
 20
144.9004819277
 30
0.0
 41
3.0
 42
3.0
 43
3.0
 50
-44.4696783991
  0
INSERT
  5
14D
330
1F
100
AcDbEntity
  8
0
  6
Continuous
 62
     7
370
     0
100
AcDbBlockReference
  2
SW_CENTERMARK0
 10
0.0
 20
0.0
 30
0.0
  0
INSERT
  5
14E
330
1F
100
AcDbEntity
  8
0
  6
Continuous
 62
     7
370
     0
100
AcDbBlockReference
  2
SW_CENTERMARK1
 10
0.0
 20
0.0
 30
0.0
  0
INSERT
  5
14F
330
1F
100
AcDbEntity
  8
0
  6
Continuous
 62
     7
370
     0
100
AcDbBlockReference
  2
SW_CENTERMARK2
 10
0.0
 20
0.0
 30
0.0
  0
ENDSEC
  0
SECTION
  2
OBJECTS
  0
DICTIONARY
  5
C
330
0
100
AcDbDictionary
281
     1
  3
ACAD_GROUP
350
D
  3
ACAD_LAYOUT
350
1A
  3
ACAD_MLINESTYLE
350
17
  3
ACAD_PLOTSETTINGS
350
19
  3
ACAD_PLOTSTYLENAME
350
E
  0
DICTIONARY
  5
D
102
{ACAD_REACTORS
330
C
102
}
330
C
100
AcDbDictionary
281
     1
  0
DICTIONARY
  5
1A
102
{ACAD_REACTORS
330
C
102
}
330
C
100
AcDbDictionary
281
     1
  3
Layout1
350
1E
  3
Layout2
350
26
  3
Model
350
22
  0
DICTIONARY
  5
17
102
{ACAD_REACTORS
330
C
102
}
330
C
100
AcDbDictionary
281
     1
  3
Standard
350
18
  0
DICTIONARY
  5
19
102
{ACAD_REACTORS
330
C
102
}
330
C
100
AcDbDictionary
281
     1
  0
ACDBDICTIONARYWDFLT
  5
E
102
{ACAD_REACTORS
330
C
102
}
330
C
100
AcDbDictionary
281
     1
  3
Normal
350
F
100
AcDbDictionaryWithDefault
340
F
  0
LAYOUT
  5
1E
102
{ACAD_REACTORS
330
1A
102
}
330
1A
100
AcDbPlotSettings
  1

  2

  4

  6

 40
0.0
 41
0.0
 42
0.0
 43
0.0
 44
0.0
 45
0.0
 46
0.0
 47
0.0
 48
0.0
 49
0.0
140
0.0
141
0.0
142
1.0
143
1.0
 70
   688
 72
     0
 73
     0
 74
     5
  7

 75
    16
147
1.0
148
0.0
149
0.0
100
AcDbLayout
  1
Layout1
 70
     1
 71
     1
 10
0.0
 20
0.0
 11
0.0
 21
0.0
 12
0.0
 22
0.0
 32
0.0
 14
0.0
 24
0.0
 34
0.0
 15
0.0
 25
0.0
 35
0.0
146
0.0
 13
0.0
 23
0.0
 33
0.0
 16
1.0
 26
0.0
 36
0.0
 17
0.0
 27
1.0
 37
0.0
 76
     0
330
1B
  0
LAYOUT
  5
26
102
{ACAD_REACTORS
330
1A
102
}
330
1A
100
AcDbPlotSettings
  1

  2

  4

  6

 40
0.0
 41
0.0
 42
0.0
 43
0.0
 44
0.0
 45
0.0
 46
0.0
 47
0.0
 48
0.0
 49
0.0
140
0.0
141
0.0
142
1.0
143
1.0
 70
   688
 72
     0
 73
     0
 74
     5
  7

 75
    16
147
1.0
148
0.0
149
0.0
100
AcDbLayout
  1
Layout2
 70
     1
 71
     2
 10
0.0
 20
0.0
 11
0.0
 21
0.0
 12
0.0
 22
0.0
 32
0.0
 14
0.0
 24
0.0
 34
0.0
 15
0.0
 25
0.0
 35
0.0
146
0.0
 13
0.0
 23
0.0
 33
0.0
 16
1.0
 26
0.0
 36
0.0
 17
0.0
 27
1.0
 37
0.0
 76
     0
330
23
  0
LAYOUT
  5
22
102
{ACAD_REACTORS
330
1A
102
}
330
1A
100
AcDbPlotSettings
  1

  2

  4

  6

 40
0.0
 41
0.0
 42
0.0
 43
0.0
 44
0.0
 45
0.0
 46
0.0
 47
0.0
 48
0.0
 49
0.0
140
0.0
141
0.0
142
1.0
143
1.0
 70
  1712
 72
     0
 73
     0
 74
     0
  7

 75
     0
147
1.0
148
0.0
149
0.0
100
AcDbLayout
  1
Model
 70
     1
 71
     0
 10
0.0
 20
0.0
 11
0.0
 21
0.0
 12
0.0
 22
0.0
 32
0.0
 14
0.0
 24
0.0
 34
0.0
 15
210.0
 25
297.0
 35
0.0
146
0.0
 13
0.0
 23
0.0
 33
0.0
 16
1.0
 26
0.0
 36
0.0
 17
0.0
 27
1.0
 37
0.0
 76
     0
330
1F
  0
MLINESTYLE
  5
18
102
{ACAD_REACTORS
330
17
102
}
330
17
100
AcDbMlineStyle
  2
Standard
 70
     0
  3

 62
   256
 51
90.0
 52
90.0
 71
     2
 49
0.5
 62
   256
  6
BYLAYER
 49
-0.5
 62
   256
  6
BYLAYER
  0
ACDBPLACEHOLDER
  5
F
102
{ACAD_REACTORS
330
E
102
}
330
E
  0
ENDSEC
  0
EOF
