  0
SECTION
  2
HEADER
  9
$ACADVER
  1
AC1015
  9
$ACADMAINTVER
 70
     6
  9
$DWGCODEPAGE
  3
DOS932
  9
$INSBASE
 10
0.0
 20
0.0
 30
0.0
  9
$EXTMIN
 10
0.0
 20
0.0
 30
0.0
  9
$EXTMAX
 10
210.0
 20
297.0
 30
0.0
  9
$LIMMIN
 10
0.0
 20
0.0
  9
$LIMMAX
 10
0.0
 20
0.0
  9
$ORTHOMODE
 70
     0
  9
$REGENMODE
 70
     1
  9
$FILLMODE
 70
     1
  9
$QTEXTMODE
 70
     0
  9
$MIRRTEXT
 70
     1
  9
$LTSCALE
 40
1.0
  9
$ATTMODE
 70
     1
  9
$TEXTSIZE
 40
3.5
  9
$TRACEWID
 40
1.0
  9
$TEXTSTYLE
  7
Standard
  9
$CLAYER
  8
0
  9
$CELTYPE
  6
ByLayer
  9
$CECOLOR
 62
   256
  9
$CELTSCALE
 40
1.0
  9
$DISPSILH
 70
     0
  9
$DIMSCALE
 40
1.0
  9
$DIMASZ
 40
3.0
  9
$DIMEXO
 40
1.0
  9
$DIMDLI
 40
3.75
  9
$DIMRND
 40
0.0
  9
$DIMDLE
 40
0.0
  9
$DIMEXE
 40
1.0
  9
$DIMTP
 40
0.0
  9
$DIMTM
 40
0.0
  9
$DIMTXT
 40
3.5
  9
$DIMCEN
 40
2.5
  9
$DIMTSZ
 40
0.0
  9
$DIMTOL
 70
     0
  9
$DIMLIM
 70
     0
  9
$DIMTIH
 70
     1
  9
$DIMTOH
 70
     1
  9
$DIMSE1
 70
     0
  9
$DIMSE2
 70
     0
  9
$DIMTAD
 70
     1
  9
$DIMZIN
 70
     1
  9
$DIMBLK
  1

  9
$DIMASO
 70
     1
  9
$DIMSHO
 70
     1
  9
$DIMPOST
  1

  9
$DIMAPOST
  1

  9
$DIMALT
 70
     0
  9
$DIMALTD
 70
     3
  9
$DIMALTF
 40
0.0393700787
  9
$DIMLFAC
 40
1.0
  9
$DIMTOFL
 70
     1
  9
$DIMTVP
 40
0.0
  9
$DIMTIX
 70
     0
  9
$DIMSOXD
 70
     0
  9
$DIMSAH
 70
     0
  9
$DIMBLK1
  1

  9
$DIMBLK2
  1

  9
$DIMSTYLE
  2
ISO-25
  9
$DIMCLRD
 70
     0
  9
$DIMCLRE
 70
     0
  9
$DIMCLRT
 70
     0
  9
$DIMTFAC
 40
1.0
  9
$DIMGAP
 40
1.524
  9
$DIMJUST
 70
     0
  9
$DIMSD1
 70
     0
  9
$DIMSD2
 70
     0
  9
$DIMTOLJ
 70
     0
  9
$DIMTZIN
 70
     1
  9
$DIMALTZ
 70
     0
  9
$DIMALTTZ
 70
     0
  9
$DIMUPT
 70
     0
  9
$DIMDEC
 70
     2
  9
$DIMTDEC
 70
     2
  9
$DIMALTU
 70
     2
  9
$DIMALTTD
 70
     3
  9
$DIMTXSTY
  7
Standard
  9
$DIMAUNIT
 70
     0
  9
$DIMADEC
 70
     0
  9
$DIMALTRND
 40
0.0
  9
$DIMAZIN
 70
     0
  9
$DIMDSEP
 70
    44
  9
$DIMATFIT
 70
     3
  9
$DIMFRAC
 70
     0
  9
$DIMLDRBLK
  1

  9
$DIMLUNIT
 70
     2
  9
$DIMLWD
 70
    -2
  9
$DIMLWE
 70
    -2
  9
$DIMTMOVE
 70
     0
  9
$LUNITS
 70
     2
  9
$LUPREC
 70
     1
  9
$SKETCHINC
 40
1.0
  9
$FILLETRAD
 40
10.0
  9
$AUNITS
 70
     0
  9
$AUPREC
 70
     0
  9
$MENU
  1
.
  9
$ELEVATION
 40
0.0
  9
$PELEVATION
 40
0.0
  9
$THICKNESS
 40
0.0
  9
$LIMCHECK
 70
     0
  9
$CHAMFERA
 40
10.0
  9
$CHAMFERB
 40
10.0
  9
$CHAMFERC
 40
20.0
  9
$CHAMFERD
 40
0.0
  9
$SKPOLY
 70
     0
  9
$TDCREATE
 40
2454359.577819734
  9
$TDUCREATE
 40
2454359.202819734
  9
$TDUPDATE
 40
2454359.577819746
  9
$TDUUPDATE
 40
2454359.202819746
  9
$TDINDWG
 40
0.0000000116
  9
$TDUSRTIMER
 40
0.0000000116
  9
$USRTIMER
 70
     1
  9
$ANGBASE
 50
0.0
  9
$ANGDIR
 70
     0
  9
$PDMODE
 70
     0
  9
$PDSIZE
 40
-1.0
  9
$PLINEWID
 40
0.0
  9
$SPLFRAME
 70
     0
  9
$SPLINETYPE
 70
     6
  9
$SPLINESEGS
 70
     8
  9
$HANDSEED
  5
235
  9
$SURFTAB1
 70
     6
  9
$SURFTAB2
 70
     6
  9
$SURFTYPE
 70
     6
  9
$SURFU
 70
     6
  9
$SURFV
 70
     6
  9
$UCSBASE
  2

  9
$UCSNAME
  2

  9
$UCSORG
 10
0.0
 20
0.0
 30
0.0
  9
$UCSXDIR
 10
1.0
 20
0.0
 30
0.0
  9
$UCSYDIR
 10
0.0
 20
1.0
 30
0.0
  9
$UCSORTHOREF
  2

  9
$UCSORTHOVIEW
 70
     0
  9
$UCSORGTOP
 10
0.0
 20
0.0
 30
0.0
  9
$UCSORGBOTTOM
 10
0.0
 20
0.0
 30
0.0
  9
$UCSORGLEFT
 10
0.0
 20
0.0
 30
0.0
  9
$UCSORGRIGHT
 10
0.0
 20
0.0
 30
0.0
  9
$UCSORGFRONT
 10
0.0
 20
0.0
 30
0.0
  9
$UCSORGBACK
 10
0.0
 20
0.0
 30
0.0
  9
$PUCSBASE
  2

  9
$PUCSNAME
  2

  9
$PUCSORG
 10
0.0
 20
0.0
 30
0.0
  9
$PUCSXDIR
 10
1.0
 20
0.0
 30
0.0
  9
$PUCSYDIR
 10
0.0
 20
1.0
 30
0.0
  9
$PUCSORTHOREF
  2

  9
$PUCSORTHOVIEW
 70
     0
  9
$PUCSORGTOP
 10
0.0
 20
0.0
 30
0.0
  9
$PUCSORGBOTTOM
 10
0.0
 20
0.0
 30
0.0
  9
$PUCSORGLEFT
 10
0.0
 20
0.0
 30
0.0
  9
$PUCSORGRIGHT
 10
0.0
 20
0.0
 30
0.0
  9
$PUCSORGFRONT
 10
0.0
 20
0.0
 30
0.0
  9
$PUCSORGBACK
 10
0.0
 20
0.0
 30
0.0
  9
$USERI1
 70
     0
  9
$USERI2
 70
     0
  9
$USERI3
 70
     0
  9
$USERI4
 70
     0
  9
$USERI5
 70
     0
  9
$USERR1
 40
0.0
  9
$USERR2
 40
0.0
  9
$USERR3
 40
0.0
  9
$USERR4
 40
0.0
  9
$USERR5
 40
0.0
  9
$WORLDVIEW
 70
     1
  9
$SHADEDGE
 70
     3
  9
$SHADEDIF
 70
    70
  9
$TILEMODE
 70
     1
  9
$MAXACTVP
 70
    64
  9
$PINSBASE
 10
0.0
 20
0.0
 30
0.0
  9
$PLIMCHECK
 70
     0
  9
$PEXTMIN
 10
1.0000000000E+20
 20
1.0000000000E+20
 30
1.0000000000E+20
  9
$PEXTMAX
 10
-1.0000000000E+20
 20
-1.0000000000E+20
 30
-1.0000000000E+20
  9
$PLIMMIN
 10
0.0
 20
0.0
  9
$PLIMMAX
 10
420.0
 20
297.0
  9
$UNITMODE
 70
     0
  9
$VISRETAIN
 70
     1
  9
$PLINEGEN
 70
     0
  9
$PSLTSCALE
 70
     1
  9
$TREEDEPTH
 70
  3020
  9
$CMLSTYLE
  2
Standard
  9
$CMLJUST
 70
     0
  9
$CMLSCALE
 40
20.0
  9
$PROXYGRAPHICS
 70
     1
  9
$MEASUREMENT
 70
     1
  9
$CELWEIGHT
370
    -1
  9
$ENDCAPS
280
     0
  9
$JOINSTYLE
280
     0
  9
$LWDISPLAY
290
     1
  9
$INSUNITS
 70
     4
  9
$HYPERLINKBASE
  1

  9
$STYLESHEET
  1

  9
$XEDIT
290
     1
  9
$CEPSNTYPE
380
     0
  9
$PSTYLEMODE
290
     1
  9
$FINGERPRINTGUID
  2
{CB32FB4A-C5A5-4670-A698-E87375E88857}
  9
$VERSIONGUID
  2
{FAEB1C32-E019-11D5-929B-00C0DF256EC4}
  9
$EXTNAMES
290
     1
  9
$PSVPSCALE
 40
0.0
  9
$OLESTARTUP
290
     0
  0
ENDSEC
  0
SECTION
  2
CLASSES
  0
CLASS
  1
ACDBDICTIONARYWDFLT
  2
AcDbDictionaryWithDefault
  3
ObjectDBX Classes
 90
        0
280
     0
281
     0
  0
CLASS
  1
ACDBPLACEHOLDER
  2
AcDbPlaceHolder
  3
ObjectDBX Classes
 90
        0
280
     0
281
     0
  0
CLASS
  1
LAYOUT
  2
AcDbLayout
  3
ObjectDBX Classes
 90
        0
280
     0
281
     0
  0
ENDSEC
  0
SECTION
  2
TABLES
  0
TABLE
  2
VPORT
  5
8
330
0
100
AcDbSymbolTable
 70
     1
  0
VPORT
  5
29
330
8
100
AcDbSymbolTableRecord
100
AcDbViewportTableRecord
  2
*Active
 70
     0
 10
0.0
 20
0.0
 11
1.0
 21
1.0
 12
105.0
 22
148.5
 13
0.0
 23
0.0
 14
10.0
 24
10.0
 15
10.0
 25
10.0
 16
0.0
 26
0.0
 36
1.0
 17
0.0
 27
0.0
 37
0.0
 40
297.0
 41
1.9729729729
 42
50.0
 43
0.0
 44
0.0
 50
0.0
 51
0.0
 71
     0
 72
  2000
 73
     1
 74
     3
 75
     0
 76
     0
 77
     0
 78
     0
281
     0
 65
     1
110
0.0
120
0.0
130
0.0
111
1.0
121
0.0
131
0.0
112
0.0
122
1.0
132
0.0
 79
     0
146
0.0
  0
ENDTAB
  0
TABLE
  2
LTYPE
  5
5
330
0
100
AcDbSymbolTable
 70
     6
  0
LTYPE
  5
14
330
5
100
AcDbSymbolTableRecord
100
AcDbLinetypeTableRecord
  2
ByBlock
 70
     0
  3

 72
    65
 73
     0
 40
0.0
  0
LTYPE
  5
15
330
5
100
AcDbSymbolTableRecord
100
AcDbLinetypeTableRecord
  2
ByLayer
 70
     0
  3

 72
    65
 73
     0
 40
0.0
  0
LTYPE
  5
16
330
5
100
AcDbSymbolTableRecord
100
AcDbLinetypeTableRecord
  2
Continuous
 70
     0
  3
Solid line
 72
    65
 73
     0
 40
0.0
  0
LTYPE
  5
2A
330
5
100
AcDbSymbolTableRecord
100
AcDbLinetypeTableRecord
  2
HIDDEN
 70
     0
  3
Hidden __ __ __ __ __ __ __ __ __ __ __ __ __ __
 72
    65
 73
     2
 40
1.905
 49
1.27
 74
     0
 49
-0.635
 74
     0
  0
LTYPE
  5
2B
330
5
100
AcDbSymbolTableRecord
100
AcDbLinetypeTableRecord
  2
PHANTOM
 70
     0
  3
Phantom ______  __  __  ______  __  __  ______
 72
    65
 73
     6
 40
12.7
 49
6.35
 74
     0
 49
-1.27
 74
     0
 49
1.27
 74
     0
 49
-1.27
 74
     0
 49
1.27
 74
     0
 49
-1.27
 74
     0
  0
LTYPE
  5
2C
330
5
100
AcDbSymbolTableRecord
100
AcDbLinetypeTableRecord
  2
CENTER
 70
     0
  3
Center ____ _ ____ _ ____ _ ____ _ ____ _ ____
 72
    65
 73
     4
 40
10.16
 49
6.35
 74
     0
 49
-1.27
 74
     0
 49
1.27
 74
     0
 49
-1.27
 74
     0
  0
LTYPE
  5
2D
330
5
100
AcDbSymbolTableRecord
100
AcDbLinetypeTableRecord
  2
CENTERX2
 70
     0
  3
Center (2x) ________  __  ________  __  _____
 72
    65
 73
     4
 40
20.32
 49
12.7
 74
     0
 49
-2.54
 74
     0
 49
2.54
 74
     0
 49
-2.54
 74
     0
  0
LTYPE
  5
2E
330
5
100
AcDbSymbolTableRecord
100
AcDbLinetypeTableRecord
  2
DOT2
 70
     0
  3
Dot (.5x) ........................................
 72
    65
 73
     2
 40
0.635
 49
0.0
 74
     0
 49
-0.635
 74
     0
  0
ENDTAB
  0
TABLE
  2
LAYER
  5
2
330
0
100
AcDbSymbolTable
 70
     4
  0
LAYER
  5
10
330
2
100
AcDbSymbolTableRecord
100
AcDbLayerTableRecord
  2
0
 70
     0
 62
     7
  6
Continuous
370
    -3
390
F
  0
LAYER
  5
2F
330
2
100
AcDbSymbolTableRecord
100
AcDbLayerTableRecord
  2
SLD-0
 70
     0
 62
     7
  6
Continuous
370
     0
390
F
  0
LAYER
  5
30
330
2
100
AcDbSymbolTableRecord
100
AcDbLayerTableRecord
  2
SLD-DEFPOINTS
 70
     0
 62
     7
  6
Continuous
370
     0
390
F
  0
LAYER
  5
EE
330
2
100
AcDbSymbolTableRecord
100
AcDbLayerTableRecord
  2
Defpoints
 70
     0
 62
     7
  6
Continuous
290
     0
370
    -3
390
F
  0
ENDTAB
  0
TABLE
  2
STYLE
  5
3
330
0
100
AcDbSymbolTable
 70
     4
  0
STYLE
  5
11
330
3
100
AcDbSymbolTableRecord
100
AcDbTextStyleTableRecord
  2
Standard
 70
     0
 40
0.0
 41
1.0
 50
0.0
 71
     0
 42
2.5
  3
txt
  4
bigfont
  0
STYLE
  5
34
330
3
100
AcDbSymbolTableRecord
100
AcDbTextStyleTableRecord
  2
SLDTEXTSTYLE0
 70
     0
 40
0.0
 41
0.7
 50
0.0
 71
     0
 42
0.2
  3
TXT
  4
bigfont
  0
STYLE
  5
FB
330
3
100
AcDbSymbolTableRecord
100
AcDbTextStyleTableRecord
  2
SLDTEXTSTYLE1
 70
     0
 40
0.0
 41
0.75
 50
0.0
 71
     0
 42
0.2
  3
TXT
  4
bigfont
  0
STYLE
  5
101
330
3
100
AcDbSymbolTableRecord
100
AcDbTextStyleTableRecord
  2
SLDTEXTSTYLE2
 70
     0
 40
0.0
 41
0.96
 50
0.0
 71
     0
 42
0.2
  3
TXT
  4
bigfont
  0
ENDTAB
  0
TABLE
  2
VIEW
  5
6
330
0
100
AcDbSymbolTable
 70
     0
  0
ENDTAB
  0
TABLE
  2
UCS
  5
7
330
0
100
AcDbSymbolTable
 70
     0
  0
ENDTAB
  0
TABLE
  2
APPID
  5
9
330
0
100
AcDbSymbolTable
 70
     1
  0
APPID
  5
12
330
9
100
AcDbSymbolTableRecord
100
AcDbRegAppTableRecord
  2
ACAD
 70
     0
  0
ENDTAB
  0
TABLE
  2
DIMSTYLE
  5
A
330
0
100
AcDbSymbolTable
 70
     8
100
AcDbDimStyleTable
  0
DIMSTYLE
105
27
330
A
100
AcDbSymbolTableRecord
100
AcDbDimStyleTableRecord
  2
ISO-25
 70
     0
 41
2.5
 42
0.625
 43
3.75
 44
1.25
 73
     0
 74
     0
 77
     1
 78
     8
140
2.5
141
2.5
143
0.0393700787
147
0.625
171
     3
172
     1
271
     2
272
     2
274
     3
278
    44
283
     0
284
     8
340
11
  0
DIMSTYLE
105
FC
102
{ACAD_REACTORS
330
ED
102
}
330
A
100
AcDbSymbolTableRecord
100
AcDbDimStyleTableRecord
  2
SLDDIMSTYLE0
 70
     0
 41
3.0
 44
0.0
 78
    12
140
3.5
147
0.875
172
     1
173
     1
271
     0
272
     2
284
    12
340
FB
341
5B
343
5B
344
5B
  0
DIMSTYLE
105
112
102
{ACAD_REACTORS
330
105
330
152
330
16D
330
184
330
1C6
330
1DD
330
20B
102
}
330
A
100
AcDbSymbolTableRecord
100
AcDbDimStyleTableRecord
  2
SLDDIMSTYLE1
 70
     0
 41
3.0
 44
0.0
 73
     0
 74
     0
 77
     3
 78
    12
140
3.5
147
0.875
173
     1
271
     0
272
     2
284
    12
340
FB
341
113
343
113
344
113
  0
DIMSTYLE
105
12E
102
{ACAD_REACTORS
330
120
102
}
330
A
100
AcDbSymbolTableRecord
100
AcDbDimStyleTableRecord
  2
SLDDIMSTYLE2
 70
     0
 41
3.0
 44
0.0
 73
     0
 74
     0
 77
     3
 78
    12
140
3.5
147
0.875
173
     1
271
     0
272
     2
284
    12
340
FB
341
5B
343
5B
344
5B
  0
DIMSTYLE
105
145
102
{ACAD_REACTORS
330
137
102
}
330
A
100
AcDbSymbolTableRecord
100
AcDbDimStyleTableRecord
  2
SLDDIMSTYLE3
 70
     0
 41
3.0
 44
0.0
 73
     0
 74
     0
 77
     3
 78
    12
140
3.5
147
0.875
173
     1
271
     1
272
     2
284
    12
340
FB
341
113
343
113
344
113
  0
DIMSTYLE
105
1A9
102
{ACAD_REACTORS
330
19C
102
}
330
A
100
AcDbSymbolTableRecord
100
AcDbDimStyleTableRecord
  2
SLDDIMSTYLE4
 70
     0
  3
<>
 41
3.0
 44
0.0
 78
    12
140
3.5
147
0.875
172
     1
173
     1
271
     0
272
     2
284
    12
340
FB
341
5B
343
5B
344
5B
  0
DIMSTYLE
105
1B9
102
{ACAD_REACTORS
330
1AF
102
}
330
A
100
AcDbSymbolTableRecord
100
AcDbDimStyleTableRecord
  2
SLDDIMSTYLE5
 70
     0
 41
3.0
 44
0.0
 78
    12
140
3.5
147
0.875
172
     1
173
     1
271
     0
272
     2
284
    12
340
FB
341
113
343
113
344
113
  0
DIMSTYLE
105
201
102
{ACAD_REACTORS
330
1F4
102
}
330
A
100
AcDbSymbolTableRecord
100
AcDbDimStyleTableRecord
  2
SLDDIMSTYLE6
 70
     0
 41
3.0
 44
0.0
 78
    12
140
3.5
147
0.875
172
     1
173
     1
271
     1
272
     2
284
    12
340
FB
341
5B
343
5B
344
5B
  0
ENDTAB
  0
TABLE
  2
BLOCK_RECORD
  5
1
330
0
100
AcDbSymbolTable
 70
    23
  0
BLOCK_RECORD
  5
1F
330
1
100
AcDbSymbolTableRecord
100
AcDbBlockTableRecord
  2
*Model_Space
340
22
  0
BLOCK_RECORD
  5
1B
330
1
100
AcDbSymbolTableRecord
100
AcDbBlockTableRecord
  2
*Paper_Space
340
1E
  0
BLOCK_RECORD
  5
23
330
1
100
AcDbSymbolTableRecord
100
AcDbBlockTableRecord
  2
*Paper_Space0
340
26
  0
BLOCK_RECORD
  5
31
330
1
100
AcDbSymbolTableRecord
100
AcDbBlockTableRecord
  2
注記
340
0
  0
BLOCK_RECORD
  5
37
330
1
100
AcDbSymbolTableRecord
100
AcDbBlockTableRecord
  2
SW_CENTERMARK0
340
0
102
{BLKREFS
331
22F
102
}
  0
BLOCK_RECORD
  5
3E
330
1
100
AcDbSymbolTableRecord
100
AcDbBlockTableRecord
  2
SW_CENTERMARK1
340
0
102
{BLKREFS
331
230
102
}
  0
BLOCK_RECORD
  5
49
330
1
100
AcDbSymbolTableRecord
100
AcDbBlockTableRecord
  2
SW_CENTERMARK2
340
0
102
{BLKREFS
331
231
102
}
  0
BLOCK_RECORD
  5
50
330
1
100
AcDbSymbolTableRecord
100
AcDbBlockTableRecord
  2
SW_CENTERMARK3
340
0
102
{BLKREFS
331
232
102
}
  0
BLOCK_RECORD
  5
5B
330
1
100
AcDbSymbolTableRecord
100
AcDbBlockTableRecord
  2
_OPEN30
340
0
102
{BLKREFS
331
F5
331
F4
331
FD
331
127
331
126
331
12F
331
130
331
1A3
331
1A2
331
1AA
331
1FB
331
1FA
331
202
331
233
102
}
  0
BLOCK_RECORD
  5
61
330
1
100
AcDbSymbolTableRecord
100
AcDbBlockTableRecord
  2
SW_CENTERMARK4
340
0
102
{BLKREFS
331
234
102
}
  0
BLOCK_RECORD
  5
EF
330
1
100
AcDbSymbolTableRecord
100
AcDbBlockTableRecord
  2
*D8
340
0
  0
BLOCK_RECORD
  5
106
330
1
100
AcDbSymbolTableRecord
100
AcDbBlockTableRecord
  2
*D9
340
0
  0
BLOCK_RECORD
  5
113
330
1
100
AcDbSymbolTableRecord
100
AcDbBlockTableRecord
  2
_None
340
0
102
{BLKREFS
331
10B
331
10A
331
13D
331
13C
331
159
331
158
331
173
331
172
331
18A
331
189
331
1B4
331
1CC
331
1CB
331
1E3
331
1E2
331
211
331
210
102
}
  0
BLOCK_RECORD
  5
121
330
1
100
AcDbSymbolTableRecord
100
AcDbBlockTableRecord
  2
*D11
340
0
  0
BLOCK_RECORD
  5
138
330
1
100
AcDbSymbolTableRecord
100
AcDbBlockTableRecord
  2
*D12
340
0
  0
BLOCK_RECORD
  5
153
330
1
100
AcDbSymbolTableRecord
100
AcDbBlockTableRecord
  2
*D13
340
0
  0
BLOCK_RECORD
  5
16E
330
1
100
AcDbSymbolTableRecord
100
AcDbBlockTableRecord
  2
*D14
340
0
  0
BLOCK_RECORD
  5
185
330
1
100
AcDbSymbolTableRecord
100
AcDbBlockTableRecord
  2
*D15
340
0
  0
BLOCK_RECORD
  5
19D
330
1
100
AcDbSymbolTableRecord
100
AcDbBlockTableRecord
  2
*D16
340
0
  0
BLOCK_RECORD
  5
1B0
330
1
100
AcDbSymbolTableRecord
100
AcDbBlockTableRecord
  2
*D17
340
0
  0
BLOCK_RECORD
  5
1C7
330
1
100
AcDbSymbolTableRecord
100
AcDbBlockTableRecord
  2
*D18
340
0
  0
BLOCK_RECORD
  5
1DE
330
1
100
AcDbSymbolTableRecord
100
AcDbBlockTableRecord
  2
*D19
340
0
  0
BLOCK_RECORD
  5
1F5
330
1
100
AcDbSymbolTableRecord
100
AcDbBlockTableRecord
  2
*D20
340
0
  0
BLOCK_RECORD
  5
20C
330
1
100
AcDbSymbolTableRecord
100
AcDbBlockTableRecord
  2
*D21
340
0
  0
BLOCK_RECORD
  5
227
330
1
100
AcDbSymbolTableRecord
100
AcDbBlockTableRecord
  2
SW_NOTE_0
340
0
102
{BLKREFS
331
22C
102
}
  0
ENDTAB
  0
ENDSEC
  0
SECTION
  2
BLOCKS
  0
BLOCK
  5
20
330
1F
100
AcDbEntity
  8
0
100
AcDbBlockBegin
  2
*Model_Space
 70
     0
 71
     0
 10
0.0
 20
0.0
 30
0.0
  3
*Model_Space
  1

  0
ENDBLK
  5
21
330
1F
100
AcDbEntity
  8
0
100
AcDbBlockEnd
  0
BLOCK
  5
1C
330
1B
100
AcDbEntity
 67
     1
  8
0
100
AcDbBlockBegin
  2
*Paper_Space
 70
     0
 71
     0
 10
0.0
 20
0.0
 30
0.0
  3
*Paper_Space
  1

  0
ENDBLK
  5
1D
330
1B
100
AcDbEntity
 67
     1
  8
0
100
AcDbBlockEnd
  0
BLOCK
  5
24
330
23
100
AcDbEntity
  8
0
100
AcDbBlockBegin
  2
*Paper_Space0
 70
     0
 71
     0
 10
0.0
 20
0.0
 30
0.0
  3
*Paper_Space0
  1

  0
ENDBLK
  5
25
330
23
100
AcDbEntity
  8
0
100
AcDbBlockEnd
  0
BLOCK
  5
32
330
31
100
AcDbEntity
  8
0
100
AcDbBlockBegin
  2
注記
 70
     0
 71
     0
 10
0.0
 20
0.0
 30
0.0
  3
注記
  1

  0
MTEXT
  5
35
330
31
100
AcDbEntity
  8
0
  6
Continuous
 62
     7
370
     0
100
AcDbMText
 10
0.2636785918
 20
9.0739778448
 30
0.0
 40
3.5
 41
0.0
 71
     1
 72
     1
  1
１．特記ナキ角部ハ、バリ　カエリノ無キコト。
  7
SLDTEXTSTYLE0
 73
     1
 44
1.0
  0
MTEXT
  5
36
330
31
100
AcDbEntity
  8
0
  6
Continuous
 62
     7
370
     0
100
AcDbMText
 10
0.2636785918
 20
3.5759549983
 30
0.0
 40
3.5
 41
0.0
 71
     1
 72
     1
  1
２．特記ナキ隅部ハ、Ｒ０．４ＭＡＸトスル。
  7
SLDTEXTSTYLE0
 73
     1
 44
1.0
  0
ENDBLK
  5
33
330
31
100
AcDbEntity
  8
0
100
AcDbBlockEnd
  0
BLOCK
  5
38
330
37
100
AcDbEntity
  8
0
100
AcDbBlockBegin
  2
SW_CENTERMARK0
 70
     0
 71
     0
 10
0.0
 20
0.0
 30
0.0
  3
SW_CENTERMARK0
  1

  0
LINE
  5
3A
330
37
100
AcDbEntity
  8
SLD-0
  6
Continuous
 62
     7
100
AcDbLine
 10
139.2826192357
 20
127.4597223646
 30
0.0
 11
139.2826192431
 21
129.9597213716
 31
0.0
  0
LINE
  5
3B
330
37
100
AcDbEntity
  8
SLD-0
  6
Continuous
 62
     7
100
AcDbLine
 10
139.2826192357
 20
127.4597223646
 30
0.0
 11
136.7826192431
 21
127.4597213716
 31
0.0
  0
LINE
  5
3C
330
37
100
AcDbEntity
  8
SLD-0
  6
Continuous
 62
     7
100
AcDbLine
 10
139.2826192357
 20
127.4597223646
 30
0.0
 11
139.2826192431
 21
124.9597213716
 31
0.0
  0
LINE
  5
3D
330
37
100
AcDbEntity
  8
SLD-0
  6
Continuous
 62
     7
100
AcDbLine
 10
139.2826192357
 20
127.4597223646
 30
0.0
 11
141.7826192431
 21
127.4597213716
 31
0.0
  0
ENDBLK
  5
39
330
37
100
AcDbEntity
  8
0
100
AcDbBlockEnd
  0
BLOCK
  5
3F
330
3E
100
AcDbEntity
  8
0
100
AcDbBlockBegin
  2
SW_CENTERMARK1
 70
     0
 71
     0
 10
0.0
 20
0.0
 30
0.0
  3
SW_CENTERMARK1
  1

  0
LINE
  5
41
330
3E
100
AcDbEntity
  8
SLD-0
  6
Continuous
 62
     7
100
AcDbLine
 10
139.2826192357
 20
127.4597223646
 30
0.0
 11
139.2826192431
 21
129.9597213716
 31
0.0
  0
LINE
  5
42
330
3E
100
AcDbEntity
  8
SLD-0
  6
Continuous
 62
     7
100
AcDbLine
 10
139.2826192357
 20
127.4597223646
 30
0.0
 11
136.7826192431
 21
127.4597213716
 31
0.0
  0
LINE
  5
43
330
3E
100
AcDbEntity
  8
SLD-0
  6
Continuous
 62
     7
100
AcDbLine
 10
139.2826192357
 20
127.4597223646
 30
0.0
 11
139.2826192431
 21
124.9597213716
 31
0.0
  0
LINE
  5
44
330
3E
100
AcDbEntity
  8
SLD-0
  6
Continuous
 62
     7
100
AcDbLine
 10
139.2826192357
 20
127.4597223646
 30
0.0
 11
141.7826192431
 21
127.4597213716
 31
0.0
  0
LINE
  5
45
330
3E
100
AcDbEntity
  8
SLD-0
  6
Continuous
 62
     7
100
AcDbLine
 10
139.2826192431
 20
132.4597213716
 30
0.0
 11
139.2826192431
 21
139.9597213716
 31
0.0
  0
LINE
  5
46
330
3E
100
AcDbEntity
  8
SLD-0
  6
Continuous
 62
     7
100
AcDbLine
 10
134.2826192431
 20
127.4597213716
 30
0.0
 11
126.7826192431
 21
127.4597213716
 31
0.0
  0
LINE
  5
47
330
3E
100
AcDbEntity
  8
SLD-0
  6
Continuous
 62
     7
100
AcDbLine
 10
139.2826192431
 20
122.4597213716
 30
0.0
 11
139.2826192431
 21
114.9597213716
 31
0.0
  0
LINE
  5
48
330
3E
100
AcDbEntity
  8
SLD-0
  6
Continuous
 62
     7
100
AcDbLine
 10
144.2826192431
 20
127.4597213716
 30
0.0
 11
151.7826192431
 21
127.4597213716
 31
0.0
  0
ENDBLK
  5
40
330
3E
100
AcDbEntity
  8
0
100
AcDbBlockEnd
  0
BLOCK
  5
4A
330
49
100
AcDbEntity
  8
0
100
AcDbBlockBegin
  2
SW_CENTERMARK2
 70
     0
 71
     0
 10
0.0
 20
0.0
 30
0.0
  3
SW_CENTERMARK2
  1

  0
LINE
  5
4C
330
49
100
AcDbEntity
  8
SLD-0
  6
Continuous
 62
     7
100
AcDbLine
 10
55.0665118854
 20
127.4597213716
 30
0.0
 11
55.0665118854
 21
129.9597213716
 31
0.0
  0
LINE
  5
4D
330
49
100
AcDbEntity
  8
SLD-0
  6
Continuous
 62
     7
100
AcDbLine
 10
55.0665118854
 20
127.4597213716
 30
0.0
 11
52.5665118854
 21
127.4597213716
 31
0.0
  0
LINE
  5
4E
330
49
100
AcDbEntity
  8
SLD-0
  6
Continuous
 62
     7
100
AcDbLine
 10
55.0665118854
 20
127.4597213716
 30
0.0
 11
55.0665118854
 21
124.9597213716
 31
0.0
  0
LINE
  5
4F
330
49
100
AcDbEntity
  8
SLD-0
  6
Continuous
 62
     7
100
AcDbLine
 10
55.0665118854
 20
127.4597213716
 30
0.0
 11
57.5665118854
 21
127.4597213716
 31
0.0
  0
ENDBLK
  5
4B
330
49
100
AcDbEntity
  8
0
100
AcDbBlockEnd
  0
BLOCK
  5
51
330
50
100
AcDbEntity
  8
0
100
AcDbBlockBegin
  2
SW_CENTERMARK3
 70
     0
 71
     0
 10
0.0
 20
0.0
 30
0.0
  3
SW_CENTERMARK3
  1

  0
LINE
  5
53
330
50
100
AcDbEntity
  8
SLD-0
  6
Continuous
 62
     7
100
AcDbLine
 10
55.0665118854
 20
127.4597213716
 30
0.0
 11
55.0665118854
 21
129.9597213716
 31
0.0
  0
LINE
  5
54
330
50
100
AcDbEntity
  8
SLD-0
  6
Continuous
 62
     7
100
AcDbLine
 10
55.0665118854
 20
127.4597213716
 30
0.0
 11
52.5665118854
 21
127.4597213716
 31
0.0
  0
LINE
  5
55
330
50
100
AcDbEntity
  8
SLD-0
  6
Continuous
 62
     7
100
AcDbLine
 10
55.0665118854
 20
127.4597213716
 30
0.0
 11
55.0665118854
 21
124.9597213716
 31
0.0
  0
LINE
  5
56
330
50
100
AcDbEntity
  8
SLD-0
  6
Continuous
 62
     7
100
AcDbLine
 10
55.0665118854
 20
127.4597213716
 30
0.0
 11
57.5665118854
 21
127.4597213716
 31
0.0
  0
LINE
  5
57
330
50
100
AcDbEntity
  8
SLD-0
  6
Continuous
 62
     7
100
AcDbLine
 10
55.0665118854
 20
132.4597213716
 30
0.0
 11
55.0665118854
 21
144.9597213716
 31
0.0
  0
LINE
  5
58
330
50
100
AcDbEntity
  8
SLD-0
  6
Continuous
 62
     7
100
AcDbLine
 10
50.0665118854
 20
127.4597213716
 30
0.0
 11
37.5665118854
 21
127.4597213716
 31
0.0
  0
LINE
  5
59
330
50
100
AcDbEntity
  8
SLD-0
  6
Continuous
 62
     7
100
AcDbLine
 10
55.0665118854
 20
122.4597213716
 30
0.0
 11
55.0665118854
 21
109.9597213716
 31
0.0
  0
LINE
  5
5A
330
50
100
AcDbEntity
  8
SLD-0
  6
Continuous
 62
     7
100
AcDbLine
 10
60.0665118854
 20
127.4597213716
 30
0.0
 11
72.5665118854
 21
127.4597213716
 31
0.0
  0
ENDBLK
  5
52
330
50
100
AcDbEntity
  8
0
100
AcDbBlockEnd
  0
BLOCK
  5
5C
330
5B
100
AcDbEntity
  8
0
100
AcDbBlockBegin
  2
_OPEN30
 70
     0
 71
     0
 10
0.0
 20
0.0
 30
0.0
  3
_OPEN30
  1

  0
LINE
  5
5E
330
5B
100
AcDbEntity
  8
SLD-0
  6
Continuous
100
AcDbLine
 10
-1.0
 20
0.267949
 30
0.0
 11
0.0
 21
0.0
 31
0.0
  0
LINE
  5
5F
330
5B
100
AcDbEntity
  8
SLD-0
  6
Continuous
100
AcDbLine
 10
0.0
 20
0.0
 30
0.0
 11
-1.0
 21
-0.267949
 31
0.0
  0
LINE
  5
60
330
5B
100
AcDbEntity
  8
SLD-0
  6
Continuous
100
AcDbLine
 10
0.0
 20
0.0
 30
0.0
 11
-1.0
 21
0.0
 31
0.0
  0
ENDBLK
  5
5D
330
5B
100
AcDbEntity
  8
0
100
AcDbBlockEnd
  0
BLOCK
  5
62
330
61
100
AcDbEntity
  8
0
100
AcDbBlockBegin
  2
SW_CENTERMARK4
 70
     0
 71
     0
 10
0.0
 20
0.0
 30
0.0
  3
SW_CENTERMARK4
  1

  0
LINE
  5
64
330
61
100
AcDbEntity
  8
SLD-0
  6
Continuous
 62
     7
100
AcDbLine
 10
155.2826192431
 20
190.5071096243
 30
0.0
 11
155.2826192431
 21
193.0071096243
 31
0.0
  0
LINE
  5
65
330
61
100
AcDbEntity
  8
SLD-0
  6
Continuous
 62
     7
100
AcDbLine
 10
155.2826192431
 20
190.5071096243
 30
0.0
 11
152.7826192431
 21
190.5071096243
 31
0.0
  0
LINE
  5
66
330
61
100
AcDbEntity
  8
SLD-0
  6
Continuous
 62
     7
100
AcDbLine
 10
155.2826192431
 20
190.5071096243
 30
0.0
 11
155.2826192431
 21
188.0071096243
 31
0.0
  0
LINE
  5
67
330
61
100
AcDbEntity
  8
SLD-0
  6
Continuous
 62
     7
100
AcDbLine
 10
155.2826192431
 20
190.5071096243
 30
0.0
 11
157.7826192431
 21
190.5071096243
 31
0.0
  0
LINE
  5
68
330
61
100
AcDbEntity
  8
SLD-0
  6
Continuous
 62
     7
100
AcDbLine
 10
155.2826192431
 20
195.5071096243
 30
0.0
 11
155.2826192431
 21
198.5071096243
 31
0.0
  0
LINE
  5
69
330
61
100
AcDbEntity
  8
SLD-0
  6
Continuous
 62
     7
100
AcDbLine
 10
150.2826192431
 20
190.5071096243
 30
0.0
 11
147.2826192431
 21
190.5071096243
 31
0.0
  0
LINE
  5
6A
330
61
100
AcDbEntity
  8
SLD-0
  6
Continuous
 62
     7
100
AcDbLine
 10
155.2826192431
 20
185.5071096243
 30
0.0
 11
155.2826192431
 21
182.5071096243
 31
0.0
  0
LINE
  5
6B
330
61
100
AcDbEntity
  8
SLD-0
  6
Continuous
 62
     7
100
AcDbLine
 10
160.2826192431
 20
190.5071096243
 30
0.0
 11
163.2826192431
 21
190.5071096243
 31
0.0
  0
ENDBLK
  5
63
330
61
100
AcDbEntity
  8
0
100
AcDbBlockEnd
  0
BLOCK
  5
F9
330
EF
100
AcDbEntity
  8
0
100
AcDbBlockBegin
  2
*D8
 70
     1
 71
     0
 10
0.0
 20
0.0
 30
0.0
  3
*D8
  1

  0
INSERT
  5
FD
330
EF
100
AcDbEntity
  8
SLD-0
 62
     7
100
AcDbBlockReference
  2
_OPEN30
 10
145.6447619941
 20
135.1748454547
 30
0.1
 41
3.0
 42
3.0
 50
230.4898967272
  0
LINE
  5
FE
330
EF
100
AcDbEntity
  8
SLD-0
 62
     7
100
AcDbLine
 10
145.6447619941
 20
135.1748454547
 30
0.0
 11
157.4773239318
 21
149.5237349942
 31
0.0
  0
LINE
  5
FF
330
EF
100
AcDbEntity
  8
SLD-0
 62
     7
100
AcDbLine
 10
132.9204764921
 20
119.7445972886
 30
0.0
 11
145.6447619941
 21
135.1748454547
 31
0.0
  0
LINE
  5
100
330
EF
100
AcDbEntity
  8
SLD-0
 62
     7
100
AcDbLine
 10
157.4773239318
 20
149.5237349942
 30
0.0
 11
178.6889634432
 21
149.5237349942
 31
0.0
  0
MTEXT
  5
102
330
EF
100
AcDbEntity
  8
SLD-0
 62
     7
100
AcDbMText
 10
160.6523239318
 20
154.2978357137
 30
0.0
 40
3.5
 41
0.0
 71
     1
 72
     1
  1
%%c
  7
SLDTEXTSTYLE2
 73
     1
 44
1.0
  0
MTEXT
  5
103
330
EF
100
AcDbEntity
  8
SLD-0
 62
     7
100
AcDbMText
 10
165.2870450968
 20
154.2978357137
 30
0.0
 40
3.5
 41
0.0
 71
     1
 72
     1
  1
20
  7
SLDTEXTSTYLE2
 73
     1
 44
1.0
  0
MTEXT
  5
104
330
EF
100
AcDbEntity
  8
SLD-0
 62
     7
100
AcDbMText
 10
170.292622443
 20
154.2978357137
 30
0.0
 40
3.5
 41
0.0
 71
     1
 72
     1
  1
　 
  7
SLDTEXTSTYLE2
 73
     1
 44
1.0
  0
ENDBLK
  5
FA
330
EF
100
AcDbEntity
  8
0
100
AcDbBlockEnd
  0
BLOCK
  5
110
330
106
100
AcDbEntity
  8
0
100
AcDbBlockBegin
  2
*D9
 70
     1
 71
     0
 10
0.0
 20
0.0
 30
0.0
  3
*D9
  1

  0
LINE
  5
116
330
106
100
AcDbEntity
  8
SLD-0
100
AcDbLine
 10
139.2826192431
 20
113.9597213716
 30
0.0
 11
139.2826192431
 21
99.9947394541
 31
0.0
  0
LINE
  5
117
330
106
100
AcDbEntity
  8
SLD-0
100
AcDbLine
 10
102.2826192431
 20
116.4597213716
 30
0.0
 11
102.2826192431
 21
99.9947394541
 31
0.0
  0
LINE
  5
118
330
106
100
AcDbEntity
  8
SLD-0
100
AcDbLine
 10
139.2826192431
 20
100.9947394541
 30
0.0
 11
102.2826192431
 21
100.9947394541
 31
0.0
  0
LINE
  5
119
330
106
100
AcDbEntity
  8
SLD-0
100
AcDbLine
 10
136.2826192431
 20
101.7985864541
 30
0.0
 11
139.2826192431
 21
100.9947394541
 31
0.0
  0
LINE
  5
11A
330
106
100
AcDbEntity
  8
SLD-0
100
AcDbLine
 10
139.2826192431
 20
100.9947394541
 30
0.0
 11
136.2826192431
 21
100.1908924541
 31
0.0
  0
LINE
  5
11B
330
106
100
AcDbEntity
  8
SLD-0
100
AcDbLine
 10
139.2826192431
 20
100.9947394541
 30
0.0
 11
136.2826192431
 21
100.9947394541
 31
0.0
  0
LINE
  5
11C
330
106
100
AcDbEntity
  8
SLD-0
100
AcDbLine
 10
105.2826192431
 20
100.1908924541
 30
0.0
 11
102.2826192431
 21
100.9947394541
 31
0.0
  0
LINE
  5
11D
330
106
100
AcDbEntity
  8
SLD-0
100
AcDbLine
 10
102.2826192431
 20
100.9947394541
 30
0.0
 11
105.2826192431
 21
101.7985864541
 31
0.0
  0
LINE
  5
11E
330
106
100
AcDbEntity
  8
SLD-0
100
AcDbLine
 10
102.2826192431
 20
100.9947394541
 30
0.0
 11
105.2826192431
 21
100.9947394541
 31
0.0
  0
MTEXT
  5
11F
330
106
100
AcDbEntity
  8
SLD-0
100
AcDbMText
 10
118.7461691835
 20
105.5214332664
 30
0.1
 40
3.5
 41
0.0
 71
     1
 72
     1
  1
37
  7
SLDTEXTSTYLE2
 73
     1
 44
1.0
  0
ENDBLK
  5
111
330
106
100
AcDbEntity
  8
0
100
AcDbBlockEnd
  0
BLOCK
  5
114
330
113
100
AcDbEntity
  8
0
100
AcDbBlockBegin
  2
_None
 70
     0
 71
     0
 10
0.0
 20
0.0
 30
0.0
  3
_None
  1

  0
ENDBLK
  5
115
330
113
100
AcDbEntity
  8
0
100
AcDbBlockEnd
  0
BLOCK
  5
12C
330
121
100
AcDbEntity
  8
0
100
AcDbBlockBegin
  2
*D11
 70
     1
 71
     0
 10
0.0
 20
0.0
 30
0.0
  3
*D11
  1

  0
INSERT
  5
12F
330
121
100
AcDbEntity
  8
SLD-0
 62
     7
100
AcDbBlockReference
  2
_OPEN30
 10
89.8197554585
 20
137.4597213716
 30
0.1
 41
3.0
 42
3.0
 50
90.0
  0
INSERT
  5
130
330
121
100
AcDbEntity
  8
SLD-0
 62
     7
100
AcDbBlockReference
  2
_OPEN30
 10
89.8197554585
 20
117.4597213716
 30
0.1
 41
3.0
 42
3.0
 50
270.0
  0
LINE
  5
131
330
121
100
AcDbEntity
  8
SLD-0
 62
     7
100
AcDbLine
 10
121.2826192431
 20
137.4597213716
 30
0.0
 11
88.8197554585
 21
137.4597213716
 31
0.0
  0
LINE
  5
132
330
121
100
AcDbEntity
  8
SLD-0
 62
     7
100
AcDbLine
 10
121.2826192431
 20
117.4597213716
 30
0.0
 11
88.8197554585
 21
117.4597213716
 31
0.0
  0
LINE
  5
133
330
121
100
AcDbEntity
  8
SLD-0
 62
     7
100
AcDbLine
 10
89.8197554585
 20
137.4597213716
 30
0.0
 11
89.8197554585
 21
158.3713824584
 31
0.0
  0
LINE
  5
134
330
121
100
AcDbEntity
  8
SLD-0
 62
     7
100
AcDbLine
 10
89.8197554585
 20
137.4597213716
 30
0.0
 11
89.8197554585
 21
117.4597213716
 31
0.0
  0
MTEXT
  5
135
330
121
100
AcDbEntity
  8
SLD-0
 62
     7
100
AcDbMText
 10
85.0456547391
 20
147.1435839472
 30
0.0
 40
3.5
 41
0.0
 71
     1
 72
     1
  1
%%c
  7
SLDTEXTSTYLE2
 11
-7.044197039909883E-15
 21
1.0
 31
0.0
 73
     1
 44
1.0
  0
MTEXT
  5
136
330
121
100
AcDbEntity
  8
SLD-0
 62
     7
100
AcDbMText
 10
85.0456547391
 20
151.7783051122
 30
0.0
 40
3.5
 41
0.0
 71
     1
 72
     1
  1
20
  7
SLDTEXTSTYLE2
 11
-7.044197039909883E-15
 21
1.0
 31
0.0
 73
     1
 44
1.0
  0
ENDBLK
  5
12D
330
121
100
AcDbEntity
  8
0
100
AcDbBlockEnd
  0
BLOCK
  5
143
330
138
100
AcDbEntity
  8
0
100
AcDbBlockBegin
  2
*D12
 70
     1
 71
     0
 10
0.0
 20
0.0
 30
0.0
  3
*D12
  1

  0
LINE
  5
146
330
138
100
AcDbEntity
  8
SLD-0
 62
     7
100
AcDbLine
 10
162.2826192431
 20
114.9597213716
 30
0.0
 11
180.6205734038
 21
114.9597213716
 31
0.0
  0
LINE
  5
147
330
138
100
AcDbEntity
  8
SLD-0
 62
     7
100
AcDbLine
 10
152.7826192431
 20
127.4597213716
 30
0.0
 11
180.6205734038
 21
127.4597213716
 31
0.0
  0
LINE
  5
148
330
138
100
AcDbEntity
  8
SLD-0
 62
     7
100
AcDbLine
 10
179.6205734038
 20
114.9597213716
 30
0.0
 11
179.6205734038
 21
109.9597213716
 31
0.0
  0
LINE
  5
149
330
138
100
AcDbEntity
  8
SLD-0
 62
     7
100
AcDbLine
 10
179.6205734038
 20
114.9597213716
 30
0.0
 11
179.6205734038
 21
127.4597213716
 31
0.0
  0
LINE
  5
14A
330
138
100
AcDbEntity
  8
SLD-0
 62
     7
100
AcDbLine
 10
179.6205734038
 20
127.4597213716
 30
0.0
 11
179.6205734038
 21
132.4597213716
 31
0.0
  0
LINE
  5
14B
330
138
100
AcDbEntity
  8
SLD-0
 62
     7
100
AcDbLine
 10
178.8167264038
 20
111.9597213716
 30
0.0
 11
179.6205734038
 21
114.9597213716
 31
0.0
  0
LINE
  5
14C
330
138
100
AcDbEntity
  8
SLD-0
 62
     7
100
AcDbLine
 10
179.6205734038
 20
114.9597213716
 30
0.0
 11
180.4244204038
 21
111.9597213716
 31
0.0
  0
LINE
  5
14D
330
138
100
AcDbEntity
  8
SLD-0
 62
     7
100
AcDbLine
 10
179.6205734038
 20
114.9597213716
 30
0.0
 11
179.6205734038
 21
111.9597213716
 31
0.0
  0
LINE
  5
14E
330
138
100
AcDbEntity
  8
SLD-0
 62
     7
100
AcDbLine
 10
180.4244204038
 20
130.4597213716
 30
0.0
 11
179.6205734038
 21
127.4597213716
 31
0.0
  0
LINE
  5
14F
330
138
100
AcDbEntity
  8
SLD-0
 62
     7
100
AcDbLine
 10
179.6205734038
 20
127.4597213716
 30
0.0
 11
178.8167264038
 21
130.4597213716
 31
0.0
  0
LINE
  5
150
330
138
100
AcDbEntity
  8
SLD-0
 62
     7
100
AcDbLine
 10
179.6205734038
 20
127.4597213716
 30
0.0
 11
179.6205734038
 21
130.4597213716
 31
0.0
  0
MTEXT
  5
151
330
138
100
AcDbEntity
  8
SLD-0
 62
     7
100
AcDbMText
 10
175.0938795914
 20
117.1368212525
 30
0.1
 40
3.5
 41
0.0
 71
     1
 72
     1
  1
12.5
  7
SLDTEXTSTYLE2
 11
6.123031769111886E-17
 21
1.0
 31
0.0
 73
     1
 44
1.0
  0
ENDBLK
  5
144
330
138
100
AcDbEntity
  8
0
100
AcDbBlockEnd
  0
BLOCK
  5
15F
330
153
100
AcDbEntity
  8
0
100
AcDbBlockBegin
  2
*D13
 70
     1
 71
     0
 10
0.0
 20
0.0
 30
0.0
  3
*D13
  1

  0
LINE
  5
161
330
153
100
AcDbEntity
  8
SLD-0
 62
     7
100
AcDbLine
 10
163.2826192431
 20
127.9597213716
 30
0.0
 11
171.9073687744
 21
127.9597213716
 31
0.0
  0
LINE
  5
162
330
153
100
AcDbEntity
  8
SLD-0
 62
     7
100
AcDbLine
 10
163.2826192431
 20
126.9597213716
 30
0.0
 11
171.9073687744
 21
126.9597213716
 31
0.0
  0
LINE
  5
163
330
153
100
AcDbEntity
  8
SLD-0
 62
     7
100
AcDbLine
 10
170.9073687744
 20
127.9597213716
 30
0.0
 11
170.9073687744
 21
138.8888016346
 31
0.0
  0
LINE
  5
164
330
153
100
AcDbEntity
  8
SLD-0
 62
     7
100
AcDbLine
 10
170.9073687744
 20
127.9597213716
 30
0.0
 11
170.9073687744
 21
126.9597213716
 31
0.0
  0
LINE
  5
165
330
153
100
AcDbEntity
  8
SLD-0
 62
     7
100
AcDbLine
 10
170.9073687744
 20
126.9597213716
 30
0.0
 11
170.9073687744
 21
121.9597213716
 31
0.0
  0
LINE
  5
166
330
153
100
AcDbEntity
  8
SLD-0
 62
     7
100
AcDbLine
 10
171.7112157744
 20
130.9597213716
 30
0.0
 11
170.9073687744
 21
127.9597213716
 31
0.0
  0
LINE
  5
167
330
153
100
AcDbEntity
  8
SLD-0
 62
     7
100
AcDbLine
 10
170.9073687744
 20
127.9597213716
 30
0.0
 11
170.1035217744
 21
130.9597213716
 31
0.0
  0
LINE
  5
168
330
153
100
AcDbEntity
  8
SLD-0
 62
     7
100
AcDbLine
 10
170.9073687744
 20
127.9597213716
 30
0.0
 11
170.9073687744
 21
130.9597213716
 31
0.0
  0
LINE
  5
169
330
153
100
AcDbEntity
  8
SLD-0
 62
     7
100
AcDbLine
 10
170.1035217744
 20
123.9597213716
 30
0.0
 11
170.9073687744
 21
126.9597213716
 31
0.0
  0
LINE
  5
16A
330
153
100
AcDbEntity
  8
SLD-0
 62
     7
100
AcDbLine
 10
170.9073687744
 20
126.9597213716
 30
0.0
 11
171.7112157744
 21
123.9597213716
 31
0.0
  0
LINE
  5
16B
330
153
100
AcDbEntity
  8
SLD-0
 62
     7
100
AcDbLine
 10
170.9073687744
 20
126.9597213716
 30
0.0
 11
170.9073687744
 21
123.9597213716
 31
0.0
  0
MTEXT
  5
16C
330
153
100
AcDbEntity
  8
SLD-0
 62
     7
100
AcDbMText
 10
166.380674962
 20
135.264851575
 30
0.1
 40
3.5
 41
0.0
 71
     1
 72
     1
  1
1
  7
SLDTEXTSTYLE2
 11
6.123031769111886E-17
 21
1.0
 31
0.0
 73
     1
 44
1.0
  0
ENDBLK
  5
160
330
153
100
AcDbEntity
  8
0
100
AcDbBlockEnd
  0
BLOCK
  5
178
330
16E
100
AcDbEntity
  8
0
100
AcDbBlockBegin
  2
*D14
 70
     1
 71
     0
 10
0.0
 20
0.0
 30
0.0
  3
*D14
  1

  0
LINE
  5
17A
330
16E
100
AcDbEntity
  8
SLD-0
 62
     7
100
AcDbLine
 10
42.5665118854
 20
136.7512833475
 30
0.0
 11
42.5665118854
 21
150.1637148788
 31
0.0
  0
LINE
  5
17B
330
16E
100
AcDbEntity
  8
SLD-0
 62
     7
100
AcDbLine
 10
67.5665118854
 20
136.7512833475
 30
0.0
 11
67.5665118854
 21
150.1637148788
 31
0.0
  0
LINE
  5
17C
330
16E
100
AcDbEntity
  8
SLD-0
 62
     7
100
AcDbLine
 10
42.5665118854
 20
149.1637148788
 30
0.0
 11
67.5665118854
 21
149.1637148788
 31
0.0
  0
LINE
  5
17D
330
16E
100
AcDbEntity
  8
SLD-0
 62
     7
100
AcDbLine
 10
45.5665118854
 20
148.3598678788
 30
0.0
 11
42.5665118854
 21
149.1637148788
 31
0.0
  0
LINE
  5
17E
330
16E
100
AcDbEntity
  8
SLD-0
 62
     7
100
AcDbLine
 10
42.5665118854
 20
149.1637148788
 30
0.0
 11
45.5665118854
 21
149.9675618788
 31
0.0
  0
LINE
  5
17F
330
16E
100
AcDbEntity
  8
SLD-0
 62
     7
100
AcDbLine
 10
42.5665118854
 20
149.1637148788
 30
0.0
 11
45.5665118854
 21
149.1637148788
 31
0.0
  0
LINE
  5
180
330
16E
100
AcDbEntity
  8
SLD-0
 62
     7
100
AcDbLine
 10
64.5665118854
 20
149.9675618788
 30
0.0
 11
67.5665118854
 21
149.1637148788
 31
0.0
  0
LINE
  5
181
330
16E
100
AcDbEntity
  8
SLD-0
 62
     7
100
AcDbLine
 10
67.5665118854
 20
149.1637148788
 30
0.0
 11
64.5665118854
 21
148.3598678788
 31
0.0
  0
LINE
  5
182
330
16E
100
AcDbEntity
  8
SLD-0
 62
     7
100
AcDbLine
 10
67.5665118854
 20
149.1637148788
 30
0.0
 11
64.5665118854
 21
149.1637148788
 31
0.0
  0
MTEXT
  5
183
330
16E
100
AcDbEntity
  8
SLD-0
 62
     7
100
AcDbMText
 10
53.0300618258
 20
153.6904086912
 30
0.1
 40
3.5
 41
0.0
 71
     1
 72
     1
  1
25
  7
SLDTEXTSTYLE2
 73
     1
 44
1.0
  0
ENDBLK
  5
179
330
16E
100
AcDbEntity
  8
0
100
AcDbBlockEnd
  0
BLOCK
  5
190
330
185
100
AcDbEntity
  8
0
100
AcDbBlockBegin
  2
*D15
 70
     1
 71
     0
 10
0.0
 20
0.0
 30
0.0
  3
*D15
  1

  0
LINE
  5
192
330
185
100
AcDbEntity
  8
SLD-0
 62
     7
100
AcDbLine
 10
45.7749499096
 20
139.9597213716
 30
0.0
 11
33.8122230744
 21
139.9597213716
 31
0.0
  0
LINE
  5
193
330
185
100
AcDbEntity
  8
SLD-0
 62
     7
100
AcDbLine
 10
45.7749499096
 20
114.9597213716
 30
0.0
 11
33.8122230744
 21
114.9597213716
 31
0.0
  0
LINE
  5
194
330
185
100
AcDbEntity
  8
SLD-0
 62
     7
100
AcDbLine
 10
34.8122230744
 20
139.9597213716
 30
0.0
 11
34.8122230744
 21
114.9597213716
 31
0.0
  0
LINE
  5
195
330
185
100
AcDbEntity
  8
SLD-0
 62
     7
100
AcDbLine
 10
34.0083760744
 20
136.9597213716
 30
0.0
 11
34.8122230744
 21
139.9597213716
 31
0.0
  0
LINE
  5
196
330
185
100
AcDbEntity
  8
SLD-0
 62
     7
100
AcDbLine
 10
34.8122230744
 20
139.9597213716
 30
0.0
 11
35.6160700744
 21
136.9597213716
 31
0.0
  0
LINE
  5
197
330
185
100
AcDbEntity
  8
SLD-0
 62
     7
100
AcDbLine
 10
34.8122230744
 20
139.9597213716
 30
0.0
 11
34.8122230744
 21
136.9597213716
 31
0.0
  0
LINE
  5
198
330
185
100
AcDbEntity
  8
SLD-0
 62
     7
100
AcDbLine
 10
35.6160700744
 20
117.9597213716
 30
0.0
 11
34.8122230744
 21
114.9597213716
 31
0.0
  0
LINE
  5
199
330
185
100
AcDbEntity
  8
SLD-0
 62
     7
100
AcDbLine
 10
34.8122230744
 20
114.9597213716
 30
0.0
 11
34.0083760744
 21
117.9597213716
 31
0.0
  0
LINE
  5
19A
330
185
100
AcDbEntity
  8
SLD-0
 62
     7
100
AcDbLine
 10
34.8122230744
 20
114.9597213716
 30
0.0
 11
34.8122230744
 21
117.9597213716
 31
0.0
  0
MTEXT
  5
19B
330
185
100
AcDbEntity
  8
SLD-0
 62
     7
100
AcDbMText
 10
30.285529262
 20
125.423271312
 30
0.1
 40
3.5
 41
0.0
 71
     1
 72
     1
  1
25
  7
SLDTEXTSTYLE2
 11
6.123031769111886E-17
 21
1.0
 31
0.0
 73
     1
 44
1.0
  0
ENDBLK
  5
191
330
185
100
AcDbEntity
  8
0
100
AcDbBlockEnd
  0
BLOCK
  5
1A7
330
19D
100
AcDbEntity
  8
0
100
AcDbBlockBegin
  2
*D16
 70
     1
 71
     0
 10
0.0
 20
0.0
 30
0.0
  3
*D16
  1

  0
INSERT
  5
1AA
330
19D
100
AcDbEntity
  8
SLD-0
 62
     7
100
AcDbBlockReference
  2
_OPEN30
 10
54.3113667501
 20
124.556317193
 30
0.1
 41
3.0
 42
3.0
 50
75.4209770448
  0
LINE
  5
1AB
330
19D
100
AcDbEntity
  8
SLD-0
 62
     7
100
AcDbLine
 10
54.3113667501
 20
124.556317193
 30
0.0
 11
48.6016591874
 21
102.6034659869
 31
0.0
  0
LINE
  5
1AC
330
19D
100
AcDbEntity
  8
SLD-0
 62
     7
100
AcDbLine
 10
55.8216570208
 20
130.3631255503
 30
0.0
 11
54.3113667501
 21
124.556317193
 31
0.0
  0
LINE
  5
1AD
330
19D
100
AcDbEntity
  8
SLD-0
 62
     7
100
AcDbLine
 10
48.6016591874
 20
102.6034659869
 30
0.0
 11
27.6863121807
 21
102.6034659869
 31
0.0
  0
MTEXT
  5
1AE
330
19D
100
AcDbEntity
  8
SLD-0
 62
     7
100
AcDbMText
 10
29.2738121807
 20
107.3775667063
 30
0.0
 40
3.5
 41
0.0
 71
     1
 72
     1
  1
M6深12
  7
SLDTEXTSTYLE2
 73
     1
 44
1.0
  0
ENDBLK
  5
1A8
330
19D
100
AcDbEntity
  8
0
100
AcDbBlockEnd
  0
BLOCK
  5
1B7
330
1B0
100
AcDbEntity
  8
0
100
AcDbBlockBegin
  2
*D17
 70
     1
 71
     0
 10
0.0
 20
0.0
 30
0.0
  3
*D17
  1

  0
ARC
  5
1BA
330
1B0
100
AcDbEntity
  8
SLD-0
 62
     7
100
AcDbCircle
 10
55.0665118854
 20
127.4597213716
 30
0.0
 40
15.00000000000001
100
AcDbArc
 50
333.465118631
 51
29.7432349276
  0
ARC
  5
1BB
330
1B0
100
AcDbEntity
  8
SLD-0
 62
     7
100
AcDbCircle
 10
55.0665118854
 20
127.4597213716
 30
0.0
 40
15.0
100
AcDbArc
 50
60.2567650724
 51
161.0932682995
  0
LINE
  5
1BC
330
1B0
100
AcDbEntity
  8
SLD-0
 62
     7
100
AcDbLine
 10
68.9024802314
 20
121.6661059262
 30
0.0
 11
82.0217834482
 21
116.1725838359
 31
0.0
  0
LINE
  5
1BD
330
1B0
100
AcDbEntity
  8
SLD-0
 62
     7
100
AcDbLine
 10
68.9024802314
 20
121.6661059262
 30
0.0
 11
41.2305435395
 21
133.2533368171
 31
0.0
  0
LINE
  5
1BE
330
1B0
100
AcDbEntity
  8
SLD-0
 62
     7
100
AcDbLine
 10
43.6872585157
 20
131.3531469515
 30
0.0
 11
41.2305435395
 21
133.2533368171
 31
0.0
  0
LINE
  5
1BF
330
1B0
100
AcDbEntity
  8
SLD-0
 62
     7
100
AcDbLine
 10
41.2305435395
 20
133.2533368171
 30
0.0
 11
44.3082159017
 21
132.8360805045
 31
0.0
  0
LINE
  5
1C0
330
1B0
100
AcDbEntity
  8
SLD-0
 62
     7
100
AcDbLine
 10
41.2305435395
 20
133.2533368171
 30
0.0
 11
43.9977372087
 21
132.094613728
 31
0.0
  0
LINE
  5
1C1
330
1B0
100
AcDbEntity
  8
SLD-0
 62
     7
100
AcDbLine
 10
66.4457652552
 20
123.5662957918
 30
0.0
 11
68.9024802314
 21
121.6661059262
 31
0.0
  0
LINE
  5
1C2
330
1B0
100
AcDbEntity
  8
SLD-0
 62
     7
100
AcDbLine
 10
68.9024802314
 20
121.6661059262
 30
0.0
 11
65.8248078692
 21
122.0833622388
 31
0.0
  0
LINE
  5
1C3
330
1B0
100
AcDbEntity
  8
SLD-0
 62
     7
100
AcDbLine
 10
68.9024802314
 20
121.6661059262
 30
0.0
 11
66.1352865622
 21
122.8248290153
 31
0.0
  0
MTEXT
  5
1C4
330
1B0
100
AcDbEntity
  8
SLD-0
 62
     7
100
AcDbMText
 10
73.3649713825
 20
124.6969594507
 30
0.1
 40
3.5
 41
0.0
 71
     1
 72
     1
  1
%%c
  7
SLDTEXTSTYLE2
 11
0.9223978897245683
 21
-0.3862410297102876
 31
0.0
 73
     1
 44
1.0
  0
MTEXT
  5
1C5
330
1B0
100
AcDbEntity
  8
SLD-0
 62
     7
100
AcDbMText
 10
78.5461621245
 20
122.5274093362
 30
0.1
 40
3.5
 41
0.0
 71
     1
 72
     1
  1
30
  7
SLDTEXTSTYLE2
 11
0.9223978897245683
 21
-0.3862410297102876
 31
0.0
 73
     1
 44
1.0
  0
ENDBLK
  5
1B8
330
1B0
100
AcDbEntity
  8
0
100
AcDbBlockEnd
  0
BLOCK
  5
1D1
330
1C7
100
AcDbEntity
  8
0
100
AcDbBlockBegin
  2
*D18
 70
     1
 71
     0
 10
0.0
 20
0.0
 30
0.0
  3
*D18
  1

  0
LINE
  5
1D3
330
1C7
100
AcDbEntity
  8
SLD-0
100
AcDbLine
 10
102.2826192431
 20
201.5071096243
 30
0.0
 11
102.2826192431
 21
213.1337260661
 31
0.0
  0
LINE
  5
1D4
330
1C7
100
AcDbEntity
  8
SLD-0
100
AcDbLine
 10
122.2826192431
 20
204.0071096243
 30
0.0
 11
122.2826192431
 21
213.1337260661
 31
0.0
  0
LINE
  5
1D5
330
1C7
100
AcDbEntity
  8
SLD-0
100
AcDbLine
 10
102.2826192431
 20
212.1337260661
 30
0.0
 11
122.2826192431
 21
212.1337260661
 31
0.0
  0
LINE
  5
1D6
330
1C7
100
AcDbEntity
  8
SLD-0
100
AcDbLine
 10
105.2826192431
 20
211.3298790661
 30
0.0
 11
102.2826192431
 21
212.1337260661
 31
0.0
  0
LINE
  5
1D7
330
1C7
100
AcDbEntity
  8
SLD-0
100
AcDbLine
 10
102.2826192431
 20
212.1337260661
 30
0.0
 11
105.2826192431
 21
212.9375730661
 31
0.0
  0
LINE
  5
1D8
330
1C7
100
AcDbEntity
  8
SLD-0
100
AcDbLine
 10
102.2826192431
 20
212.1337260661
 30
0.0
 11
105.2826192431
 21
212.1337260661
 31
0.0
  0
LINE
  5
1D9
330
1C7
100
AcDbEntity
  8
SLD-0
100
AcDbLine
 10
119.2826192431
 20
212.9375730661
 30
0.0
 11
122.2826192431
 21
212.1337260661
 31
0.0
  0
LINE
  5
1DA
330
1C7
100
AcDbEntity
  8
SLD-0
100
AcDbLine
 10
122.2826192431
 20
212.1337260661
 30
0.0
 11
119.2826192431
 21
211.3298790661
 31
0.0
  0
LINE
  5
1DB
330
1C7
100
AcDbEntity
  8
SLD-0
100
AcDbLine
 10
122.2826192431
 20
212.1337260661
 30
0.0
 11
119.2826192431
 21
212.1337260661
 31
0.0
  0
MTEXT
  5
1DC
330
1C7
100
AcDbEntity
  8
SLD-0
100
AcDbMText
 10
110.2461691835
 20
216.6604198785
 30
0.1
 40
3.5
 41
0.0
 71
     1
 72
     1
  1
20
  7
SLDTEXTSTYLE2
 73
     1
 44
1.0
  0
ENDBLK
  5
1D2
330
1C7
100
AcDbEntity
  8
0
100
AcDbBlockEnd
  0
BLOCK
  5
1E8
330
1DE
100
AcDbEntity
  8
0
100
AcDbBlockBegin
  2
*D19
 70
     1
 71
     0
 10
0.0
 20
0.0
 30
0.0
  3
*D19
  1

  0
LINE
  5
1EA
330
1DE
100
AcDbEntity
  8
SLD-0
100
AcDbLine
 10
155.2826192431
 20
199.5071096243
 30
0.0
 11
155.2826192431
 21
222.0020981655
 31
0.0
  0
LINE
  5
1EB
330
1DE
100
AcDbEntity
  8
SLD-0
100
AcDbLine
 10
102.2826192431
 20
201.5071096243
 30
0.0
 11
102.2826192431
 21
222.0020981655
 31
0.0
  0
LINE
  5
1EC
330
1DE
100
AcDbEntity
  8
SLD-0
100
AcDbLine
 10
155.2826192431
 20
221.0020981655
 30
0.0
 11
102.2826192431
 21
221.0020981655
 31
0.0
  0
LINE
  5
1ED
330
1DE
100
AcDbEntity
  8
SLD-0
100
AcDbLine
 10
152.2826192431
 20
221.8059451655
 30
0.0
 11
155.2826192431
 21
221.0020981655
 31
0.0
  0
LINE
  5
1EE
330
1DE
100
AcDbEntity
  8
SLD-0
100
AcDbLine
 10
155.2826192431
 20
221.0020981655
 30
0.0
 11
152.2826192431
 21
220.1982511655
 31
0.0
  0
LINE
  5
1EF
330
1DE
100
AcDbEntity
  8
SLD-0
100
AcDbLine
 10
155.2826192431
 20
221.0020981655
 30
0.0
 11
152.2826192431
 21
221.0020981655
 31
0.0
  0
LINE
  5
1F0
330
1DE
100
AcDbEntity
  8
SLD-0
100
AcDbLine
 10
105.2826192431
 20
220.1982511655
 30
0.0
 11
102.2826192431
 21
221.0020981655
 31
0.0
  0
LINE
  5
1F1
330
1DE
100
AcDbEntity
  8
SLD-0
100
AcDbLine
 10
102.2826192431
 20
221.0020981655
 30
0.0
 11
105.2826192431
 21
221.8059451655
 31
0.0
  0
LINE
  5
1F2
330
1DE
100
AcDbEntity
  8
SLD-0
100
AcDbLine
 10
102.2826192431
 20
221.0020981655
 30
0.0
 11
105.2826192431
 21
221.0020981655
 31
0.0
  0
MTEXT
  5
1F3
330
1DE
100
AcDbEntity
  8
SLD-0
100
AcDbMText
 10
126.7461691835
 20
225.5287919778
 30
0.1
 40
3.5
 41
0.0
 71
     1
 72
     1
  1
53
  7
SLDTEXTSTYLE2
 73
     1
 44
1.0
  0
ENDBLK
  5
1E9
330
1DE
100
AcDbEntity
  8
0
100
AcDbBlockEnd
  0
BLOCK
  5
1FF
330
1F5
100
AcDbEntity
  8
0
100
AcDbBlockBegin
  2
*D20
 70
     1
 71
     0
 10
0.0
 20
0.0
 30
0.0
  3
*D20
  1

  0
INSERT
  5
202
330
1F5
100
AcDbEntity
  8
SLD-0
 62
     7
100
AcDbBlockReference
  2
_OPEN30
 10
154.3433336875
 20
187.3958007929
 30
0.1
 41
3.0
 42
3.0
 50
73.2012482772
  0
LINE
  5
203
330
1F5
100
AcDbEntity
  8
SLD-0
 62
     7
100
AcDbLine
 10
154.3433336875
 20
187.3958007929
 30
0.0
 11
147.3421617848
 21
164.2049747
 31
0.0
  0
LINE
  5
204
330
1F5
100
AcDbEntity
  8
SLD-0
 62
     7
100
AcDbLine
 10
156.2219047988
 20
193.6184184558
 30
0.0
 11
154.3433336875
 21
187.3958007929
 31
0.0
  0
LINE
  5
205
330
1F5
100
AcDbEntity
  8
SLD-0
 62
     7
100
AcDbLine
 10
147.3421617848
 20
164.2049747
 30
0.0
 11
95.8105767014
 21
164.2049747
 31
0.0
  0
MTEXT
  5
206
330
1F5
100
AcDbEntity
  8
SLD-0
 62
     7
100
AcDbMText
 10
97.3980767014
 20
168.9790754195
 30
0.0
 40
3.5
 41
0.0
 71
     1
 72
     1
  1
%%c
  7
SLDTEXTSTYLE2
 73
     1
 44
1.0
  0
MTEXT
  5
207
330
1F5
100
AcDbEntity
  8
SLD-0
 62
     7
100
AcDbMText
 10
102.0327978663
 20
168.9790754195
 30
0.0
 40
3.5
 41
0.0
 71
     1
 72
     1
  1
6.5
  7
SLDTEXTSTYLE2
 73
     1
 44
1.0
  0
MTEXT
  5
208
330
1F5
100
AcDbEntity
  8
SLD-0
 62
     7
100
AcDbMText
 10
108.4099544227
 20
168.9790754195
 30
0.0
 40
3.5
 41
0.0
 71
     1
 72
     1
  1
,
  7
SLDTEXTSTYLE2
 73
     1
 44
1.0
  0
MTEXT
  5
209
330
1F5
100
AcDbEntity
  8
SLD-0
 62
     7
100
AcDbMText
 10
109.7759266399
 20
168.9790754195
 30
0.0
 40
3.5
 41
0.0
 71
     1
 72
     1
  1
%%c
  7
SLDTEXTSTYLE2
 73
     1
 44
1.0
  0
MTEXT
  5
20A
330
1F5
100
AcDbEntity
  8
SLD-0
 62
     7
100
AcDbMText
 10
114.4124546103
 20
168.9790754195
 30
0.0
 40
3.5
 41
0.0
 71
     1
 72
     1
  1
11ｻﾞｸﾞﾘ深6.5
  7
SLDTEXTSTYLE2
 73
     1
 44
1.0
  0
ENDBLK
  5
200
330
1F5
100
AcDbEntity
  8
0
100
AcDbBlockEnd
  0
BLOCK
  5
216
330
20C
100
AcDbEntity
  8
0
100
AcDbBlockBegin
  2
*D21
 70
     1
 71
     0
 10
0.0
 20
0.0
 30
0.0
  3
*D21
  1

  0
LINE
  5
218
330
20C
100
AcDbEntity
  8
SLD-0
 62
     7
100
AcDbLine
 10
102.2826192431
 20
200.5071096243
 30
0.0
 11
102.2826192431
 21
231.4590266577
 31
0.0
  0
LINE
  5
219
330
20C
100
AcDbEntity
  8
SLD-0
 62
     7
100
AcDbLine
 10
162.2826192431
 20
204.0071096243
 30
0.0
 11
162.2826192431
 21
231.4590266577
 31
0.0
  0
LINE
  5
21A
330
20C
100
AcDbEntity
  8
SLD-0
 62
     7
100
AcDbLine
 10
102.2826192431
 20
230.4590266577
 30
0.0
 11
162.2826192431
 21
230.4590266577
 31
0.0
  0
LINE
  5
21B
330
20C
100
AcDbEntity
  8
SLD-0
 62
     7
100
AcDbLine
 10
105.2826192431
 20
229.6551796577
 30
0.0
 11
102.2826192431
 21
230.4590266577
 31
0.0
  0
LINE
  5
21C
330
20C
100
AcDbEntity
  8
SLD-0
 62
     7
100
AcDbLine
 10
102.2826192431
 20
230.4590266577
 30
0.0
 11
105.2826192431
 21
231.2628736577
 31
0.0
  0
LINE
  5
21D
330
20C
100
AcDbEntity
  8
SLD-0
 62
     7
100
AcDbLine
 10
102.2826192431
 20
230.4590266577
 30
0.0
 11
105.2826192431
 21
230.4590266577
 31
0.0
  0
LINE
  5
21E
330
20C
100
AcDbEntity
  8
SLD-0
 62
     7
100
AcDbLine
 10
159.2826192431
 20
231.2628736577
 30
0.0
 11
162.2826192431
 21
230.4590266577
 31
0.0
  0
LINE
  5
21F
330
20C
100
AcDbEntity
  8
SLD-0
 62
     7
100
AcDbLine
 10
162.2826192431
 20
230.4590266577
 30
0.0
 11
159.2826192431
 21
229.6551796577
 31
0.0
  0
LINE
  5
220
330
20C
100
AcDbEntity
  8
SLD-0
 62
     7
100
AcDbLine
 10
162.2826192431
 20
230.4590266577
 30
0.0
 11
159.2826192431
 21
230.4590266577
 31
0.0
  0
MTEXT
  5
221
330
20C
100
AcDbEntity
  8
SLD-0
 62
     7
100
AcDbMText
 10
130.2461691835
 20
234.9857204701
 30
0.1
 40
3.5
 41
0.0
 71
     1
 72
     1
  1
60
  7
SLDTEXTSTYLE2
 73
     1
 44
1.0
  0
ENDBLK
  5
217
330
20C
100
AcDbEntity
  8
0
100
AcDbBlockEnd
  0
BLOCK
  5
228
330
227
100
AcDbEntity
  8
0
100
AcDbBlockBegin
  2
SW_NOTE_0
 70
     0
 71
     0
 10
0.0
 20
0.0
 30
0.0
  3
SW_NOTE_0
  1

  0
MTEXT
  5
22A
330
227
100
AcDbEntity
  8
0
  6
Continuous
 62
     7
370
     0
100
AcDbMText
 10
0.0
 20
4.9260606061
 30
0.0
 40
4.2333333333
 41
0.0
 71
     1
 72
     1
  1
φ20　ローテーション
  7
SLDTEXTSTYLE0
 73
     1
 44
1.0
  0
MTEXT
  5
22B
330
227
100
AcDbEntity
  8
0
  6
Continuous
 62
     7
370
     0
100
AcDbMText
 10
6.3548963517
 20
-0.7183837702
 30
0.0
 40
4.2333333333
 41
0.0
 71
     1
 72
     1
  1
ブラケット　20Ａ
  7
SLDTEXTSTYLE0
 73
     1
 44
1.0
  0
ENDBLK
  5
229
330
227
100
AcDbEntity
  8
0
100
AcDbBlockEnd
  0
ENDSEC
  0
SECTION
  2
ENTITIES
  0
LINE
  5
6C
330
1F
100
AcDbEntity
  8
SLD-0
100
AcDbLine
 10
156.6970872716
 20
112.2594713296
 30
0.0
 11
155.2975696008
 21
114.9597213716
 31
0.0
  0
LINE
  5
6D
330
1F
100
AcDbEntity
  8
SLD-0
100
AcDbLine
 10
155.2975696008
 20
114.9597213716
 30
0.0
 11
157.4971944381
 21
112.8593284143
 31
0.0
  0
LINE
  5
6E
330
1F
100
AcDbEntity
  8
SLD-0
100
AcDbLine
 10
157.4971944381
 20
112.8593284143
 30
0.0
 11
156.6970872716
 21
112.2594713296
 31
0.0
  0
LINE
  5
6F
330
1F
100
AcDbEntity
  8
SLD-0
  6
Continuous
 62
     7
100
AcDbLine
 10
122.2826192431
 20
137.4597211481
 30
0.0
 11
103.2826192431
 21
137.4597213716
 31
0.0
  0
LINE
  5
70
330
1F
100
AcDbEntity
  8
SLD-0
  6
Continuous
 62
     7
100
AcDbLine
 10
103.2826192431
 20
117.4597213716
 30
0.0
 11
122.2826192431
 21
117.4597215952
 31
0.0
  0
LINE
  5
71
330
1F
100
AcDbEntity
  8
SLD-0
  6
Continuous
 62
     7
100
AcDbLine
 10
103.2826192431
 20
137.4597213716
 30
0.0
 11
102.2826192431
 21
136.4597213716
 31
0.0
  0
LINE
  5
72
330
1F
100
AcDbEntity
  8
SLD-0
  6
Continuous
 62
     7
100
AcDbLine
 10
102.2826192431
 20
118.4597213716
 30
0.0
 11
103.2826192431
 21
117.4597213716
 31
0.0
  0
LINE
  5
73
330
1F
100
AcDbEntity
  8
SLD-0
  6
Continuous
 62
     7
100
AcDbLine
 10
133.6924483789
 20
135.7512833475
 30
0.0
 11
122.2826192431
 21
135.7512833475
 31
0.0
  0
LINE
  5
74
330
1F
100
AcDbEntity
  8
SLD-0
  6
Continuous
 62
     7
100
AcDbLine
 10
122.2826192431
 20
139.9597213716
 30
0.0
 11
122.2826192431
 21
135.7512833475
 31
0.0
  0
LINE
  5
75
330
1F
100
AcDbEntity
  8
SLD-0
  6
Continuous
 62
     7
100
AcDbLine
 10
161.2826192384
 20
139.9597213716
 30
0.0
 11
122.2826192431
 21
139.9597213716
 31
0.0
  0
LINE
  5
76
330
1F
100
AcDbEntity
  8
SLD-0
  6
Continuous
 62
     7
100
AcDbLine
 10
161.2826192384
 20
135.7512833406
 30
0.0
 11
161.2826192384
 21
139.9597213716
 31
0.0
  0
LINE
  5
77
330
1F
100
AcDbEntity
  8
SLD-0
  6
Continuous
 62
     7
100
AcDbLine
 10
161.2826192384
 20
135.7512833406
 30
0.0
 11
144.8727891822
 21
135.7512833406
 31
0.0
  0
LINE
  5
78
330
1F
100
AcDbEntity
  8
SLD-0
  6
Continuous
 62
     7
100
AcDbLine
 10
122.2826192431
 20
119.1681593958
 30
0.0
 11
122.2826192431
 21
114.9597213716
 31
0.0
  0
LINE
  5
79
330
1F
100
AcDbEntity
  8
SLD-0
  6
Continuous
 62
     7
100
AcDbLine
 10
133.6924492994
 20
119.1681593958
 30
0.0
 11
122.2826192431
 21
119.1681593958
 31
0.0
  0
LINE
  5
7A
330
1F
100
AcDbEntity
  8
SLD-0
  6
Continuous
 62
     7
100
AcDbLine
 10
161.2826192431
 20
119.1681594027
 30
0.0
 11
144.8727882618
 21
119.1681594027
 31
0.0
  0
LINE
  5
7B
330
1F
100
AcDbEntity
  8
SLD-0
  6
Continuous
 62
     7
100
AcDbLine
 10
161.2826192431
 20
114.9597213716
 30
0.0
 11
161.2826192431
 21
119.1681594027
 31
0.0
  0
LINE
  5
7C
330
1F
100
AcDbEntity
  8
SLD-0
  6
Continuous
 62
     7
100
AcDbLine
 10
161.2826192431
 20
114.9597213716
 30
0.0
 11
122.2826192431
 21
114.9597213716
 31
0.0
  0
LINE
  5
7D
330
1F
100
AcDbEntity
  8
SLD-0
  6
Continuous
 62
     7
100
AcDbLine
 10
149.2701108994
 20
126.959720692
 30
0.0
 11
162.282618349
 21
126.959720692
 31
0.0
  0
LINE
  5
7E
330
1F
100
AcDbEntity
  8
SLD-0
  6
Continuous
 62
     7
100
AcDbLine
 10
162.282618349
 20
126.959720692
 30
0.0
 11
162.2826192431
 21
121.1549612721
 31
0.0
  0
LINE
  5
7F
330
1F
100
AcDbEntity
  8
SLD-0
  6
Continuous
 62
     7
100
AcDbLine
 10
161.2826192431
 20
119.1681594027
 30
0.0
 11
162.2826192431
 21
121.1549612721
 31
0.0
  0
LINE
  5
80
330
1F
100
AcDbEntity
  8
SLD-0
  6
Continuous
 62
     7
100
AcDbLine
 10
162.2826192384
 20
139.9597213716
 30
0.0
 11
162.2826192384
 21
133.7644814712
 31
0.0
  0
LINE
  5
81
330
1F
100
AcDbEntity
  8
SLD-0
  6
Continuous
 62
     7
100
AcDbLine
 10
162.2826192384
 20
133.7644814712
 30
0.0
 11
161.2826192384
 21
135.7512833406
 31
0.0
  0
LINE
  5
82
330
1F
100
AcDbEntity
  8
SLD-0
  6
Continuous
 62
     7
100
AcDbLine
 10
161.2826192384
 20
139.9597213716
 30
0.0
 11
162.2826192384
 21
139.9597213716
 31
0.0
  0
LINE
  5
83
330
1F
100
AcDbEntity
  8
SLD-0
  6
Continuous
 62
     7
100
AcDbLine
 10
162.2826192431
 20
121.1549612721
 30
0.0
 11
162.2826192431
 21
114.9597213716
 31
0.0
  0
LINE
  5
84
330
1F
100
AcDbEntity
  8
SLD-0
  6
Continuous
 62
     7
100
AcDbLine
 10
162.2826192431
 20
114.9597213716
 30
0.0
 11
161.2826192431
 21
114.9597213716
 31
0.0
  0
LINE
  5
85
330
1F
100
AcDbEntity
  8
SLD-0
  6
Continuous
 62
     7
100
AcDbLine
 10
122.2826192431
 20
135.7512833475
 30
0.0
 11
122.2826192431
 21
119.1681593958
 31
0.0
  0
LINE
  5
86
330
1F
100
AcDbEntity
  8
SLD-0
  6
Continuous
 62
     7
100
AcDbLine
 10
162.2826183443
 20
127.9597206909
 30
0.0
 11
149.2701109986
 21
127.9597206909
 31
0.0
  0
LINE
  5
87
330
1F
100
AcDbEntity
  8
SLD-0
  6
Continuous
 62
     7
100
AcDbLine
 10
162.2826192384
 20
133.7644814712
 30
0.0
 11
162.2826183443
 21
127.9597206909
 31
0.0
  0
LINE
  5
88
330
1F
100
AcDbEntity
  8
SLD-0
  6
Continuous
 62
     7
100
AcDbLine
 10
103.2826192431
 20
127.4597213716
 30
0.0
 11
103.2826192431
 21
117.4597213716
 31
0.0
  0
LINE
  5
89
330
1F
100
AcDbEntity
  8
SLD-0
  6
Continuous
 62
     7
100
AcDbLine
 10
103.2826192431
 20
137.4597213716
 30
0.0
 11
103.2826192431
 21
127.4597213716
 31
0.0
  0
LINE
  5
8A
330
1F
100
AcDbEntity
  8
SLD-0
  6
Continuous
 62
     7
100
AcDbLine
 10
102.2826192431
 20
127.4597213716
 30
0.0
 11
102.2826192431
 21
136.4597213716
 31
0.0
  0
LINE
  5
8B
330
1F
100
AcDbEntity
  8
SLD-0
  6
Continuous
 62
     7
100
AcDbLine
 10
102.2826192431
 20
118.4597213716
 30
0.0
 11
102.2826192431
 21
127.4597213716
 31
0.0
  0
LINE
  5
8C
330
1F
100
AcDbEntity
  8
SLD-0
  6
HIDDEN
 62
     7
100
AcDbLine
 10
155.2826192431
 20
133.4597213716
 30
0.0
 11
160.7826192431
 21
133.4597213716
 31
0.0
  0
LINE
  5
8D
330
1F
100
AcDbEntity
  8
SLD-0
  6
HIDDEN
 62
     7
100
AcDbLine
 10
149.7826192431
 20
133.4597213716
 30
0.0
 11
155.2826192431
 21
133.4597213716
 31
0.0
  0
LINE
  5
8E
330
1F
100
AcDbEntity
  8
SLD-0
  6
HIDDEN
 62
     7
100
AcDbLine
 10
119.2826192431
 20
127.4597213716
 30
0.0
 11
119.2826192431
 21
129.9597213716
 31
0.0
  0
LINE
  5
8F
330
1F
100
AcDbEntity
  8
SLD-0
  6
HIDDEN
 62
     7
100
AcDbLine
 10
119.2826192431
 20
124.9597213716
 30
0.0
 11
119.2826192431
 21
127.4597213716
 31
0.0
  0
LINE
  5
90
330
1F
100
AcDbEntity
  8
SLD-0
  6
HIDDEN
 62
     7
100
AcDbLine
 10
149.7826190941
 20
139.9597215579
 30
0.0
 11
149.7826192431
 21
133.4597213716
 31
0.0
  0
LINE
  5
91
330
1F
100
AcDbEntity
  8
SLD-0
  6
HIDDEN
 62
     7
100
AcDbLine
 10
160.7826192431
 20
133.4597213716
 30
0.0
 11
160.7826190345
 21
139.9597215579
 31
0.0
  0
LINE
  5
92
330
1F
100
AcDbEntity
  8
SLD-0
  6
HIDDEN
 62
     7
100
AcDbLine
 10
152.0326199286
 20
133.4597214238
 30
0.0
 11
152.0326199286
 21
127.9597213954
 31
0.0
  0
LINE
  5
93
330
1F
100
AcDbEntity
  8
SLD-0
  6
HIDDEN
 62
     7
100
AcDbLine
 10
158.5326182
 20
127.9597213954
 30
0.0
 11
158.5326182
 21
133.4597214238
 31
0.0
  0
LINE
  5
94
330
1F
100
AcDbEntity
  8
SLD-0
  6
HIDDEN
 62
     7
100
AcDbLine
 10
152.7826195858
 20
126.9597213479
 30
0.0
 11
152.7826195858
 21
114.9597211854
 31
0.0
  0
LINE
  5
95
330
1F
100
AcDbEntity
  8
SLD-0
  6
HIDDEN
 62
     7
100
AcDbLine
 10
157.7826204054
 20
114.9597211854
 30
0.0
 11
157.7826204054
 21
126.9597213479
 31
0.0
  0
LINE
  5
96
330
1F
100
AcDbEntity
  8
SLD-0
  6
HIDDEN
 62
     7
100
AcDbLine
 10
102.2826196901
 20
124.9597213716
 30
0.0
 11
119.2826192431
 21
124.9597213716
 31
0.0
  0
LINE
  5
97
330
1F
100
AcDbEntity
  8
SLD-0
  6
HIDDEN
 62
     7
100
AcDbLine
 10
119.2826192431
 20
129.9597213716
 30
0.0
 11
102.2826196901
 21
129.9597213716
 31
0.0
  0
LINE
  5
98
330
1F
100
AcDbEntity
  8
SLD-0
  6
HIDDEN
 62
     7
100
AcDbLine
 10
119.2826192431
 20
124.9597213716
 30
0.0
 11
120.7847708181
 21
127.4597213716
 31
0.0
  0
LINE
  5
99
330
1F
100
AcDbEntity
  8
SLD-0
  6
HIDDEN
 62
     7
100
AcDbLine
 10
120.7847708181
 20
127.4597213716
 30
0.0
 11
119.2826192431
 21
129.9597213716
 31
0.0
  0
LINE
  5
9A
330
1F
100
AcDbEntity
  8
SLD-0
100
AcDbLine
 10
157.0971408548
 20
112.559399872
 30
0.0
 11
164.6745717521
 21
102.4523978546
 31
0.0
  0
LINE
  5
9B
330
1F
100
AcDbEntity
  8
SLD-0
100
AcDbLine
 10
164.6745717521
 20
102.4523978546
 30
0.0
 11
169.2474718713
 21
102.4523978546
 31
0.0
  0
LINE
  5
9C
330
1F
100
AcDbEntity
  8
SLD-0
  6
HIDDEN
 62
     7
100
AcDbLine
 10
114.2826188631
 20
130.4597213977
 30
0.0
 11
102.2826196901
 21
130.4597213977
 31
0.0
  0
LINE
  5
9D
330
1F
100
AcDbEntity
  8
SLD-0
  6
HIDDEN
 62
     7
100
AcDbLine
 10
102.2826196901
 20
124.4597213456
 30
0.0
 11
114.2826188631
 21
124.4597213456
 31
0.0
  0
LINE
  5
9E
330
1F
100
AcDbEntity
  8
SLD-0
  6
HIDDEN
 62
     7
100
AcDbLine
 10
114.2826188631
 20
130.4597213977
 30
0.0
 11
114.2826188631
 21
130.4245625735
 31
0.0
  0
LINE
  5
9F
330
1F
100
AcDbEntity
  8
SLD-0
  6
HIDDEN
 62
     7
100
AcDbLine
 10
114.2826188631
 20
130.4245625735
 30
0.0
 11
114.2826188631
 21
124.4597213456
 31
0.0
  0
LINE
  5
A0
330
1F
100
AcDbEntity
  8
SLD-0
  6
HIDDEN
 62
     7
100
AcDbLine
 10
158.2826176934
 20
114.9597211854
 30
0.0
 11
158.2826176934
 21
126.9597213479
 31
0.0
  0
LINE
  5
A1
330
1F
100
AcDbEntity
  8
SLD-0
  6
HIDDEN
 62
     7
100
AcDbLine
 10
152.2826185726
 20
126.9597213479
 30
0.0
 11
152.2826185726
 21
114.9597211854
 31
0.0
  0
LINE
  5
A2
330
1F
100
AcDbEntity
  8
SLD-0
  6
CENTERX2
 62
     7
100
AcDbLine
 10
163.2826192431
 20
127.4597213716
 30
0.0
 11
122.2826192431
 21
127.4597213716
 31
0.0
  0
LINE
  5
A3
330
1F
100
AcDbEntity
  8
SLD-0
  6
CENTERX2
 62
     7
100
AcDbLine
 10
100.2826192431
 20
127.4597213716
 30
0.0
 11
122.2826192431
 21
127.4597213716
 31
0.0
  0
LINE
  5
A4
330
1F
100
AcDbEntity
  8
SLD-0
  6
CENTERX2
 62
     7
100
AcDbLine
 10
155.2826192431
 20
112.9597213716
 30
0.0
 11
155.2826192431
 21
141.9597213716
 31
0.0
  0
LINE
  5
A5
330
1F
100
AcDbEntity
  8
SLD-0
  6
Continuous
 62
     7
100
AcDbLine
 10
63.3580738613
 20
114.9597213716
 30
0.0
 11
46.7749499096
 21
114.9597213716
 31
0.0
  0
LINE
  5
A6
330
1F
100
AcDbEntity
  8
SLD-0
  6
Continuous
 62
     7
100
AcDbLine
 10
42.5665118854
 20
119.1681593958
 30
0.0
 11
42.5665118854
 21
135.7512833475
 31
0.0
  0
LINE
  5
A7
330
1F
100
AcDbEntity
  8
SLD-0
  6
Continuous
 62
     7
100
AcDbLine
 10
46.7749499096
 20
139.9597213716
 30
0.0
 11
63.3580738613
 21
139.9597213716
 31
0.0
  0
LINE
  5
A8
330
1F
100
AcDbEntity
  8
SLD-0
  6
Continuous
 62
     7
100
AcDbLine
 10
67.5665118854
 20
135.7512833475
 30
0.0
 11
67.5665118854
 21
119.1681593958
 31
0.0
  0
LINE
  5
A9
330
1F
100
AcDbEntity
  8
SLD-0
  6
Continuous
 62
     7
100
AcDbLine
 10
122.2826192431
 20
200.5071094008
 30
0.0
 11
103.2826192431
 21
200.5071096243
 31
0.0
  0
LINE
  5
AA
330
1F
100
AcDbEntity
  8
SLD-0
  6
Continuous
 62
     7
100
AcDbLine
 10
103.2826192431
 20
180.5071096243
 30
0.0
 11
122.2826192431
 21
180.5071098478
 31
0.0
  0
LINE
  5
AB
330
1F
100
AcDbEntity
  8
SLD-0
  6
Continuous
 62
     7
100
AcDbLine
 10
103.2826192431
 20
200.5071096243
 30
0.0
 11
102.2826192431
 21
199.5071096243
 31
0.0
  0
LINE
  5
AC
330
1F
100
AcDbEntity
  8
SLD-0
  6
Continuous
 62
     7
100
AcDbLine
 10
102.2826192431
 20
181.5071096243
 30
0.0
 11
103.2826192431
 21
180.5071096243
 31
0.0
  0
LINE
  5
AD
330
1F
100
AcDbEntity
  8
SLD-0
  6
Continuous
 62
     7
100
AcDbLine
 10
122.2826192431
 20
203.0071096243
 30
0.0
 11
122.2826192431
 21
198.7986716002
 31
0.0
  0
LINE
  5
AE
330
1F
100
AcDbEntity
  8
SLD-0
  6
Continuous
 62
     7
100
AcDbLine
 10
133.6924495451
 20
203.0071098106
 30
0.0
 11
122.2826192431
 21
203.0071096243
 31
0.0
  0
LINE
  5
AF
330
1F
100
AcDbEntity
  8
SLD-0
  6
Continuous
 62
     7
100
AcDbLine
 10
161.2826192431
 20
203.0071096243
 30
0.0
 11
144.8727889262
 21
203.0071098106
 31
0.0
  0
LINE
  5
B0
330
1F
100
AcDbEntity
  8
SLD-0
  6
Continuous
 62
     7
100
AcDbLine
 10
161.2826192431
 20
198.7986716002
 30
0.0
 11
161.2826192431
 21
203.0071096243
 31
0.0
  0
LINE
  5
B1
330
1F
100
AcDbEntity
  8
SLD-0
  6
Continuous
 62
     7
100
AcDbLine
 10
161.2826192431
 20
198.7986716002
 30
0.0
 11
122.2826192431
 21
198.7986716002
 31
0.0
  0
LINE
  5
B2
330
1F
100
AcDbEntity
  8
SLD-0
  6
Continuous
 62
     7
100
AcDbLine
 10
162.2826192431
 20
196.8118697308
 30
0.0
 11
161.2826192431
 21
198.7986716002
 31
0.0
  0
LINE
  5
B3
330
1F
100
AcDbEntity
  8
SLD-0
  6
Continuous
 62
     7
100
AcDbLine
 10
161.2826192431
 20
203.0071096243
 30
0.0
 11
162.2826192431
 21
203.0071096243
 31
0.0
  0
LINE
  5
B4
330
1F
100
AcDbEntity
  8
SLD-0
  6
Continuous
 62
     7
100
AcDbLine
 10
162.2826192431
 20
203.0071096243
 30
0.0
 11
162.2826192431
 21
196.8118697308
 31
0.0
  0
LINE
  5
B5
330
1F
100
AcDbEntity
  8
SLD-0
  6
Continuous
 62
     7
100
AcDbLine
 10
161.2826192431
 20
182.2155476484
 30
0.0
 11
162.2826192431
 21
184.2023495179
 31
0.0
  0
LINE
  5
B6
330
1F
100
AcDbEntity
  8
SLD-0
  6
Continuous
 62
     7
100
AcDbLine
 10
161.2826192431
 20
182.2155476484
 30
0.0
 11
122.2826192431
 21
182.2155476484
 31
0.0
  0
LINE
  5
B7
330
1F
100
AcDbEntity
  8
SLD-0
  6
Continuous
 62
     7
100
AcDbLine
 10
122.2826192431
 20
198.7986716002
 30
0.0
 11
122.2826192431
 21
182.2155476484
 31
0.0
  0
LINE
  5
B8
330
1F
100
AcDbEntity
  8
SLD-0
  6
Continuous
 62
     7
100
AcDbLine
 10
162.2826192431
 20
196.8118697308
 30
0.0
 11
162.2826192431
 21
184.2023495179
 31
0.0
  0
LINE
  5
B9
330
1F
100
AcDbEntity
  8
SLD-0
  6
Continuous
 62
     7
100
AcDbLine
 10
162.2826192431
 20
178.0071096243
 30
0.0
 11
161.2826192431
 21
178.0071096243
 31
0.0
  0
LINE
  5
BA
330
1F
100
AcDbEntity
  8
SLD-0
  6
Continuous
 62
     7
100
AcDbLine
 10
161.2826192431
 20
178.0071096243
 30
0.0
 11
161.2826192431
 21
182.2155476484
 31
0.0
  0
LINE
  5
BB
330
1F
100
AcDbEntity
  8
SLD-0
  6
Continuous
 62
     7
100
AcDbLine
 10
162.2826192431
 20
184.2023495179
 30
0.0
 11
162.2826192431
 21
178.0071096243
 31
0.0
  0
LINE
  5
BC
330
1F
100
AcDbEntity
  8
SLD-0
  6
Continuous
 62
     7
100
AcDbLine
 10
133.6924495452
 20
178.007109438
 30
0.0
 11
122.2826192431
 21
178.0071096243
 31
0.0
  0
LINE
  5
BD
330
1F
100
AcDbEntity
  8
SLD-0
  6
Continuous
 62
     7
100
AcDbLine
 10
161.2826192431
 20
178.0071096243
 30
0.0
 11
144.8727889262
 21
178.007109438
 31
0.0
  0
LINE
  5
BE
330
1F
100
AcDbEntity
  8
SLD-0
  6
Continuous
 62
     7
100
AcDbLine
 10
122.2826192431
 20
182.2155476484
 30
0.0
 11
122.2826192431
 21
178.0071096243
 31
0.0
  0
LINE
  5
BF
330
1F
100
AcDbEntity
  8
SLD-0
  6
Continuous
 62
     7
100
AcDbLine
 10
103.2826192431
 20
200.5071096243
 30
0.0
 11
103.2826192431
 21
180.5071096243
 31
0.0
  0
LINE
  5
C0
330
1F
100
AcDbEntity
  8
SLD-0
  6
Continuous
 62
     7
100
AcDbLine
 10
102.2826192431
 20
181.5071096243
 30
0.0
 11
102.2826192431
 21
199.5071096243
 31
0.0
  0
LINE
  5
C1
330
1F
100
AcDbEntity
  8
SLD-0
  6
HIDDEN
 62
     7
100
AcDbLine
 10
149.2701122813
 20
203.0071098106
 30
0.0
 11
149.2701122813
 21
178.0071094381
 31
0.0
  0
LINE
  5
C2
330
1F
100
AcDbEntity
  8
SLD-0
  6
HIDDEN
 62
     7
100
AcDbLine
 10
119.2826192431
 20
188.0071096243
 30
0.0
 11
119.2826192431
 21
193.0071096243
 31
0.0
  0
LINE
  5
C3
330
1F
100
AcDbEntity
  8
SLD-0
  6
HIDDEN
 62
     7
100
AcDbLine
 10
129.2826194592
 20
203.0071098106
 30
0.0
 11
129.2826194592
 21
178.0071094381
 31
0.0
  0
LINE
  5
C4
330
1F
100
AcDbEntity
  8
SLD-0
  6
HIDDEN
 62
     7
100
AcDbLine
 10
102.2826196901
 20
188.0071096243
 30
0.0
 11
119.2826192431
 21
188.0071096243
 31
0.0
  0
LINE
  5
C5
330
1F
100
AcDbEntity
  8
SLD-0
  6
HIDDEN
 62
     7
100
AcDbLine
 10
119.2826192431
 20
193.0071096243
 30
0.0
 11
102.2826196901
 21
193.0071096243
 31
0.0
  0
LINE
  5
C6
330
1F
100
AcDbEntity
  8
SLD-0
  6
HIDDEN
 62
     7
100
AcDbLine
 10
119.2826192431
 20
188.0071096243
 30
0.0
 11
120.7847708181
 21
190.5071096243
 31
0.0
  0
LINE
  5
C7
330
1F
100
AcDbEntity
  8
SLD-0
  6
HIDDEN
 62
     7
100
AcDbLine
 10
120.7847708181
 20
190.5071096243
 30
0.0
 11
119.2826192431
 21
193.0071096243
 31
0.0
  0
LINE
  5
C8
330
1F
100
AcDbEntity
  8
SLD-0
 62
     7
100
AcDbLine
 10
102.7826192431
 20
200.0071096243
 30
0.0
 11
82.6651189888
 21
207.0890151922
 31
0.0
  0
LINE
  5
C9
330
1F
100
AcDbEntity
  8
SLD-0
 62
     7
100
AcDbLine
 10
82.6651189888
 20
207.0890151922
 30
0.0
 11
93.3406348432
 21
203.3215386787
 31
0.0
  0
LINE
  5
CA
330
1F
100
AcDbEntity
  8
SLD-0
  6
HIDDEN
 62
     7
100
AcDbLine
 10
114.2826188631
 20
193.5071096504
 30
0.0
 11
102.2826196901
 21
193.5071096504
 31
0.0
  0
LINE
  5
CB
330
1F
100
AcDbEntity
  8
SLD-0
  6
HIDDEN
 62
     7
100
AcDbLine
 10
102.2826196901
 20
187.5071095982
 30
0.0
 11
114.2826188631
 21
187.5071095982
 31
0.0
  0
LINE
  5
CC
330
1F
100
AcDbEntity
  8
SLD-0
  6
HIDDEN
 62
     7
100
AcDbLine
 10
114.2826188631
 20
190.5071096243
 30
0.0
 11
114.2826188631
 21
190.0491617834
 31
0.0
  0
LINE
  5
CD
330
1F
100
AcDbEntity
  8
SLD-0
  6
HIDDEN
 62
     7
100
AcDbLine
 10
114.2826188631
 20
190.0491617834
 30
0.0
 11
114.2826188631
 21
187.5071095982
 31
0.0
  0
LINE
  5
CE
330
1F
100
AcDbEntity
  8
SLD-0
  6
HIDDEN
 62
     7
100
AcDbLine
 10
114.2826188631
 20
193.5071096504
 30
0.0
 11
114.2826188631
 21
190.5071096243
 31
0.0
  0
LINE
  5
CF
330
1F
100
AcDbEntity
  8
SLD-0
  6
CENTERX2
 62
     7
100
AcDbLine
 10
163.2826192431
 20
190.5071096243
 30
0.0
 11
122.2826192431
 21
190.5071096243
 31
0.0
  0
LINE
  5
D0
330
1F
100
AcDbEntity
  8
SLD-0
  6
CENTERX2
 62
     7
100
AcDbLine
 10
100.2826192431
 20
190.5071096243
 30
0.0
 11
122.2826192431
 21
190.5071096243
 31
0.0
  0
LINE
  5
D1
330
1F
100
AcDbEntity
  8
SLD-0
  6
CENTERX2
 62
     7
100
AcDbLine
 10
139.2826192431
 20
205.0071096243
 30
0.0
 11
139.2826192431
 21
176.0071096243
 31
0.0
  0
LINE
  5
D2
330
1F
100
AcDbEntity
  8
0
  6
Continuous
 62
     7
370
     0
100
AcDbLine
 10
20.2604743903
 20
285.0
 30
0.0
 11
196.7604743903
 21
285.0
 31
0.0
  0
LINE
  5
D3
330
1F
100
AcDbEntity
  8
0
  6
Continuous
 62
     7
370
     0
100
AcDbLine
 10
20.2604743903
 20
285.0
 30
0.0
 11
20.2604743903
 21
10.0
 31
0.0
  0
LINE
  5
D4
330
1F
100
AcDbEntity
  8
0
  6
Continuous
 62
     7
370
     0
100
AcDbLine
 10
20.2604743903
 20
10.0
 30
0.0
 11
196.7604743903
 21
10.0
 31
0.0
  0
LINE
  5
D5
330
1F
100
AcDbEntity
  8
0
  6
Continuous
 62
     7
370
     0
100
AcDbLine
 10
196.7604743903
 20
285.0
 30
0.0
 11
196.7604743903
 21
10.0
 31
0.0
  0
LINE
  5
D6
330
1F
100
AcDbEntity
  8
0
  6
Continuous
 62
     7
370
     0
100
AcDbLine
 10
127.0104743903
 20
50.75
 30
0.0
 11
196.7604743903
 21
50.75
 31
0.0
  0
LINE
  5
D7
330
1F
100
AcDbEntity
  8
0
  6
Continuous
 62
     7
370
     0
100
AcDbLine
 10
127.0104743903
 20
50.75
 30
0.0
 11
127.0104743903
 21
10.0
 31
0.0
  0
LINE
  5
D8
330
1F
100
AcDbEntity
  8
0
  6
Continuous
 62
     7
370
     0
100
AcDbLine
 10
127.0104743903
 20
22.75
 30
0.0
 11
196.7604743903
 21
22.75
 31
0.0
  0
LINE
  5
D9
330
1F
100
AcDbEntity
  8
0
  6
Continuous
 62
     7
370
     0
100
AcDbLine
 10
127.0104743903
 20
36.75
 30
0.0
 11
196.7604743903
 21
36.75
 31
0.0
  0
ARC
  5
DA
330
1F
100
AcDbEntity
  8
SLD-0
  6
Continuous
 62
     7
100
AcDbCircle
 10
139.2826187755
 20
127.4597216819
 30
0.0
 40
9.999999995803693
100
AcDbArc
 50
56.0121532027
 51
123.9878467266
  0
ARC
  5
DB
330
1F
100
AcDbEntity
  8
SLD-0
  6
Continuous
 62
     7
100
AcDbCircle
 10
139.2826187755
 20
127.4597216819
 30
0.0
 40
9.999999995803732
100
AcDbArc
 50
236.0121596341
 51
303.9878404366
  0
ARC
  5
DC
330
1F
100
AcDbEntity
  8
SLD-0
  6
Continuous
 62
     7
100
AcDbCircle
 10
139.2826187755
 20
127.4597216819
 30
0.0
 40
9.999999995803707
100
AcDbArc
 50
303.9878404366
 51
357.1340103372
  0
ARC
  5
DD
330
1F
100
AcDbEntity
  8
SLD-0
  6
Continuous
 62
     7
100
AcDbCircle
 10
139.2826187755
 20
127.4597216819
 30
0.0
 40
9.999999995803732
100
AcDbArc
 50
123.9878467266
 51
236.0121596341
  0
ARC
  5
DE
330
1F
100
AcDbEntity
  8
SLD-0
  6
Continuous
 62
     7
100
AcDbCircle
 10
139.2826187755
 20
127.4597216819
 30
0.0
 40
9.999999995803693
100
AcDbArc
 50
2.8659782981
 51
56.0121532027
  0
CIRCLE
  5
DF
330
1F
100
AcDbEntity
  8
SLD-0
  6
Continuous
 62
     7
100
AcDbCircle
 10
55.0665118854
 20
127.4597213716
 30
0.0
 40
8.999999999999993
  0
CIRCLE
  5
E0
330
1F
100
AcDbEntity
  8
SLD-0
  6
Continuous
 62
     7
100
AcDbCircle
 10
55.0665118854
 20
127.4597213716
 30
0.0
 40
9.999999999999993
  0
CIRCLE
  5
E1
330
1F
100
AcDbEntity
  8
SLD-0
  6
Continuous
 62
     7
100
AcDbCircle
 10
55.0665118854
 20
127.4597213716
 30
0.0
 40
2.5
  0
ARC
  5
E2
330
1F
100
AcDbEntity
  8
SLD-0
  6
Continuous
 62
     7
100
AcDbCircle
 10
55.0665118854
 20
127.4597213716
 30
0.0
 40
15.00000000002786
100
AcDbArc
 50
33.5573097619
 51
56.4426902382
  0
ARC
  5
E3
330
1F
100
AcDbEntity
  8
SLD-0
  6
Continuous
 62
     7
100
AcDbCircle
 10
55.0665118854
 20
127.4597213716
 30
0.0
 40
15.00000000000636
100
AcDbArc
 50
303.557309762
 51
326.4426902384
  0
ARC
  5
E4
330
1F
100
AcDbEntity
  8
SLD-0
  6
Continuous
 62
     7
100
AcDbCircle
 10
55.0665118854
 20
127.4597213716
 30
0.0
 40
15.00000000000635
100
AcDbArc
 50
123.5573097616
 51
146.442690238
  0
ARC
  5
E5
330
1F
100
AcDbEntity
  8
SLD-0
  6
Continuous
 62
     7
100
AcDbCircle
 10
55.0665118854
 20
127.4597213716
 30
0.0
 40
14.99999999995108
100
AcDbArc
 50
213.5573097616
 51
236.4426902384
  0
CIRCLE
  5
E6
330
1F
100
AcDbEntity
  8
SLD-0
 62
     7
100
AcDbCircle
 10
55.0665118854
 20
127.4597213716
 30
0.0
 40
3.000000026099997
  0
ARC
  5
E7
330
1F
100
AcDbEntity
  8
SLD-0
  6
Continuous
 62
     7
100
AcDbCircle
 10
139.2826192357
 20
214.1887093584
 30
0.0
 40
12.50112657390791
100
AcDbArc
 50
243.4375317756
 51
296.5624682242
  0
CIRCLE
  5
E8
330
1F
100
AcDbEntity
  8
SLD-0
  6
Continuous
 62
     7
100
AcDbCircle
 10
155.2826192431
 20
190.5071096243
 30
0.0
 40
5.5
  0
ARC
  5
E9
330
1F
100
AcDbEntity
  8
SLD-0
  6
Continuous
 62
     7
100
AcDbCircle
 10
139.2826192357
 20
166.8255098902
 30
0.0
 40
12.5011265739
100
AcDbArc
 50
63.4375317758
 51
116.5624682242
  0
CIRCLE
  5
EA
330
1F
100
AcDbEntity
  8
SLD-0
  6
Continuous
 62
     7
100
AcDbCircle
 10
155.2826192431
 20
190.5071096243
 30
0.0
 40
3.25
  0
CIRCLE
  5
EB
330
1F
100
AcDbEntity
  8
SLD-0
  6
Continuous
 62
     7
100
AcDbCircle
 10
155.2826192431
 20
190.5071096243
 30
0.0
 40
2.5
  0
CIRCLE
  5
EC
330
1F
100
AcDbEntity
  8
SLD-0
 62
     7
100
AcDbCircle
 10
155.2826192431
 20
190.5071096243
 30
0.0
 40
2.999998450300012
  0
DIMENSION
  5
ED
330
1F
100
AcDbEntity
  8
SLD-0
 62
     7
100
AcDbDimension
  2
*D8
 10
132.9204764921
 20
119.7445972886
 30
0.0
 11
168.8768936875
 21
151.9637332028
 31
0.0
 70
   163
  1
<>　 
 71
     1
 42
20.0
  3
SLDDIMSTYLE0
100
AcDbDiametricDimension
 15
145.6447619941
 25
135.1748454547
 35
0.0
 40
0.0
1001
ACAD
1000
DSTYLE
1002
{
1070
    77
1070
     0
1070
   143
1040
0.0393700787
1070
    41
1040
3.0
1070
    44
1040
1.0
1070
    42
1040
1.0
1070
   147
1040
1.524
1070
    73
1070
     1
1070
    74
1070
     1
1070
   140
1040
3.5
1070
   284
1070
    12
1070
    78
1070
    12
1002
}
  0
DIMENSION
  5
105
330
1F
100
AcDbEntity
  8
SLD-0
100
AcDbDimension
  2
*D9
 10
139.2826192431
 20
100.9947394541
 30
0.0
 11
120.7826192431
 21
100.9947394541
 31
0.0
 70
   160
 71
     1
 42
37.0
  3
SLDDIMSTYLE1
100
AcDbAlignedDimension
 13
102.2826192431
 23
117.4597213716
 33
0.0
 14
139.2826192431
 24
114.9597213716
 34
0.0
100
AcDbRotatedDimension
1001
ACAD
1000
DSTYLE
1002
{
1070
    77
1070
     3
1070
   143
1040
0.0393700787
1070
    41
1040
3.0
1070
    44
1040
1.0
1070
    42
1040
1.0
1070
   147
1040
1.524
1070
    73
1070
     0
1070
    74
1070
     0
1070
   140
1040
3.5
1070
   284
1070
    12
1070
    78
1070
    12
1002
}
  0
DIMENSION
  5
120
330
1F
100
AcDbEntity
  8
SLD-0
 62
     7
100
AcDbDimension
  2
*D11
 10
89.8197554585
 20
117.4597213716
 30
0.0
 11
89.8197554585
 21
151.9637332028
 31
0.0
 70
   160
  1
%%c<>
 71
     1
 42
20.0
  3
SLDDIMSTYLE2
100
AcDbAlignedDimension
 13
122.2826192431
 23
137.4597213716
 33
0.0
 14
122.2826192431
 24
117.4597213716
 34
0.0
 50
90.0
100
AcDbRotatedDimension
1001
ACAD
1000
DSTYLE
1002
{
1070
    77
1070
     3
1070
   143
1040
0.0393700787
1070
    41
1040
3.0
1070
    44
1040
1.0
1070
    42
1040
1.0
1070
   147
1040
1.524
1070
    73
1070
     0
1070
    74
1070
     0
1070
   140
1040
3.5
1070
   284
1070
    12
1070
    78
1070
    12
1002
}
  0
DIMENSION
  5
137
330
1F
100
AcDbEntity
  8
SLD-0
 62
     7
100
AcDbDimension
  2
*D12
 10
179.6205734038
 20
114.9597213716
 30
0.0
 11
179.6205734038
 21
121.2097213716
 31
0.0
 70
   160
 71
     1
 42
12.5
  3
SLDDIMSTYLE3
100
AcDbAlignedDimension
 13
151.7826192431
 23
127.4597213716
 33
0.0
 14
161.2826192431
 24
114.9597213716
 34
0.0
 50
90.0
100
AcDbRotatedDimension
1001
ACAD
1000
DSTYLE
1002
{
1070
    77
1070
     3
1070
   143
1040
0.0393700787
1070
    41
1040
3.0
1070
    44
1040
1.0
1070
    42
1040
1.0
1070
   147
1040
1.524
1070
    73
1070
     0
1070
    74
1070
     0
1070
   140
1040
3.5
1070
   284
1070
    12
1070
    78
1070
    12
1002
}
  0
DIMENSION
  5
152
330
1F
100
AcDbEntity
  8
SLD-0
 62
     7
100
AcDbDimension
  2
*D13
 10
170.9073687744
 20
127.9597213716
 30
0.0
 11
170.9073687744
 21
136.2830766048
 31
0.0
 70
   160
 71
     1
 42
1.0
  3
SLDDIMSTYLE1
100
AcDbAlignedDimension
 13
162.2826192431
 23
126.9597213716
 33
0.0
 14
162.2826192431
 24
127.9597213716
 34
0.0
 50
90.0
100
AcDbRotatedDimension
1001
ACAD
1000
DSTYLE
1002
{
1070
    77
1070
     3
1070
   143
1040
0.0393700787
1070
    41
1040
3.0
1070
    44
1040
1.0
1070
    42
1040
1.0
1070
   147
1040
1.524
1070
    73
1070
     0
1070
    74
1070
     0
1070
   140
1040
3.5
1070
   284
1070
    12
1070
    78
1070
    12
1002
}
  0
DIMENSION
  5
16D
330
1F
100
AcDbEntity
  8
SLD-0
 62
     7
100
AcDbDimension
  2
*D14
 10
42.5665118854
 20
149.1637148788
 30
0.0
 11
55.0665118854
 21
149.1637148788
 31
0.0
 70
   160
 71
     1
 42
25.0
  3
SLDDIMSTYLE1
100
AcDbAlignedDimension
 13
67.5665118854
 23
135.7512833475
 33
0.0
 14
42.5665118854
 24
135.7512833475
 34
0.0
100
AcDbRotatedDimension
1001
ACAD
1000
DSTYLE
1002
{
1070
    77
1070
     3
1070
   143
1040
0.0393700787
1070
    41
1040
3.0
1070
    44
1040
1.0
1070
    42
1040
1.0
1070
   147
1040
1.524
1070
    73
1070
     0
1070
    74
1070
     0
1070
   140
1040
3.5
1070
   284
1070
    12
1070
    78
1070
    12
1002
}
  0
DIMENSION
  5
184
330
1F
100
AcDbEntity
  8
SLD-0
 62
     7
100
AcDbDimension
  2
*D15
 10
34.8122230744
 20
139.9597213716
 30
0.0
 11
34.8122230744
 21
127.4597213716
 31
0.0
 70
   160
 71
     1
 42
25.0
  3
SLDDIMSTYLE1
100
AcDbAlignedDimension
 13
46.7749499096
 23
114.9597213716
 33
0.0
 14
46.7749499096
 24
139.9597213716
 34
0.0
 50
90.0
100
AcDbRotatedDimension
1001
ACAD
1000
DSTYLE
1002
{
1070
    77
1070
     3
1070
   143
1040
0.0393700787
1070
    41
1040
3.0
1070
    44
1040
1.0
1070
    42
1040
1.0
1070
   147
1040
1.524
1070
    73
1070
     0
1070
    74
1070
     0
1070
   140
1040
3.5
1070
   284
1070
    12
1070
    78
1070
    12
1002
}
  0
DIMENSION
  5
19C
330
1F
100
AcDbEntity
  8
SLD-0
 62
     7
100
AcDbDimension
  2
*D16
 10
55.8216570208
 20
130.3631255503
 30
0.0
 11
37.350235684
 21
105.0434641955
 31
0.0
 70
   163
  1
M6深12
 71
     1
 42
6.0000000001
  3
SLDDIMSTYLE4
100
AcDbDiametricDimension
 15
54.3113667501
 25
124.556317193
 35
0.0
 40
0.0
1001
ACAD
1000
DSTYLE
1002
{
1070
    77
1070
     0
1070
   143
1040
0.0393700787
1070
    41
1040
3.0
1070
    44
1040
1.0
1070
    42
1040
1.0
1070
   147
1040
1.524
1070
    73
1070
     1
1070
    74
1070
     1
1070
   140
1040
3.5
1070
   284
1070
    12
1070
    78
1070
    12
1002
}
  0
DIMENSION
  5
1AF
330
1F
100
AcDbEntity
  8
SLD-0
 62
     7
100
AcDbDimension
  2
*D17
 10
11.8980099509
 20
27.5397329755
 30
0.0
 11
76.9756457703
 21
-5.5079480236
 31
0.0
 70
   163
  1
<>
 71
     1
 42
29.9999922192
  3
SLDDIMSTYLE5
100
AcDbDiametricDimension
 15
0.0
 25
0.0
 35
0.0
 40
0.0
1001
ACAD
1000
DSTYLE
1002
{
1070
    77
1070
     0
1070
   143
1040
0.0393700787
1070
    41
1040
3.0
1070
    44
1040
1.0
1070
    42
1040
1.0
1070
   147
1040
1.524
1070
    73
1070
     1
1070
    74
1070
     1
1070
   140
1040
3.5
1070
   284
1070
    12
1070
    78
1070
    12
1002
}
  0
DIMENSION
  5
1C6
330
1F
100
AcDbEntity
  8
SLD-0
100
AcDbDimension
  2
*D18
 10
102.2826192431
 20
212.1337260661
 30
0.0
 11
112.2826192431
 21
212.1337260661
 31
0.0
 70
   160
 71
     1
 42
20.0
  3
SLDDIMSTYLE1
100
AcDbAlignedDimension
 13
122.2826192431
 23
203.0071096243
 33
0.0
 14
102.2826192431
 24
200.5071096243
 34
0.0
100
AcDbRotatedDimension
1001
ACAD
1000
DSTYLE
1002
{
1070
    77
1070
     3
1070
   143
1040
0.0393700787
1070
    41
1040
3.0
1070
    44
1040
1.0
1070
    42
1040
1.0
1070
   147
1040
1.524
1070
    73
1070
     0
1070
    74
1070
     0
1070
   140
1040
3.5
1070
   284
1070
    12
1070
    78
1070
    12
1002
}
  0
DIMENSION
  5
1DD
330
1F
100
AcDbEntity
  8
SLD-0
100
AcDbDimension
  2
*D19
 10
155.2826192431
 20
221.0020981655
 30
0.0
 11
128.7826192431
 21
221.0020981655
 31
0.0
 70
   160
 71
     1
 42
53.0
  3
SLDDIMSTYLE1
100
AcDbAlignedDimension
 13
102.2826192431
 23
200.5071096243
 33
0.0
 14
155.2826192431
 24
198.5071096243
 34
0.0
100
AcDbRotatedDimension
1001
ACAD
1000
DSTYLE
1002
{
1070
    77
1070
     3
1070
   143
1040
0.0393700787
1070
    41
1040
3.0
1070
    44
1040
1.0
1070
    42
1040
1.0
1070
   147
1040
1.524
1070
    73
1070
     0
1070
    74
1070
     0
1070
   140
1040
3.5
1070
   284
1070
    12
1070
    78
1070
    12
1002
}
  0
DIMENSION
  5
1F4
330
1F
100
AcDbEntity
  8
SLD-0
 62
     7
100
AcDbDimension
  2
*D20
 10
156.2219047988
 20
193.6184184558
 30
0.0
 11
120.7826192431
 21
166.6449729086
 31
0.0
 70
   163
  1
<>,%%c11ｻﾞｸﾞﾘ深6.5
 71
     1
 42
6.5
  3
SLDDIMSTYLE6
100
AcDbDiametricDimension
 15
154.3433336875
 25
187.3958007929
 35
0.0
 40
0.0
1001
ACAD
1000
DSTYLE
1002
{
1070
    77
1070
     0
1070
   143
1040
0.0393700787
1070
    41
1040
3.0
1070
    44
1040
1.0
1070
    42
1040
1.0
1070
   147
1040
1.524
1070
    73
1070
     1
1070
    74
1070
     1
1070
   140
1040
3.5
1070
   284
1070
    12
1070
    78
1070
    12
1002
}
  0
DIMENSION
  5
20B
330
1F
100
AcDbEntity
  8
SLD-0
 62
     7
100
AcDbDimension
  2
*D21
 10
102.2826192431
 20
230.4590266577
 30
0.0
 11
132.2826192431
 21
230.4590266577
 31
0.0
 70
   160
 71
     1
 42
60.0
  3
SLDDIMSTYLE1
100
AcDbAlignedDimension
 13
162.2826192431
 23
203.0071096243
 33
0.0
 14
102.2826192431
 24
199.5071096243
 34
0.0
100
AcDbRotatedDimension
1001
ACAD
1000
DSTYLE
1002
{
1070
    77
1070
     3
1070
   143
1040
0.0393700787
1070
    41
1040
3.0
1070
    44
1040
1.0
1070
    42
1040
1.0
1070
   147
1040
1.524
1070
    73
1070
     0
1070
    74
1070
     0
1070
   140
1040
3.5
1070
   284
1070
    12
1070
    78
1070
    12
1002
}
  0
MTEXT
  5
222
330
1F
100
AcDbEntity
  8
SLD-0
 62
     7
100
AcDbMText
 10
165.17704088
 20
106.9824970379
 30
0.0
 40
3.5
 41
0.0
 71
     1
 72
     1
  1
M6
  7
SLDTEXTSTYLE1
 73
     1
 44
1.0
  0
MTEXT
  5
223
330
1F
100
AcDbEntity
  8
SLD-0
 62
     7
100
AcDbMText
 10
85.6687439594
 20
210.8298415956
 30
0.0
 40
3.5
 41
0.0
 71
     1
 72
     1
  1
2-
  7
SLDTEXTSTYLE1
 11
0.9430001086179873
 21
-0.3327924205063332
 31
0.0
 73
     1
 44
1.0
  0
MTEXT
  5
224
330
1F
100
AcDbEntity
  8
SLD-0
 62
     7
100
AcDbMText
 10
89.5094892142
 20
209.4744113064
 30
0.0
 40
3.5
 41
0.0
 71
     1
 72
     1
  1
C
  7
SLDTEXTSTYLE1
 11
0.9430001086179873
 21
-0.3327924205063332
 31
0.0
 73
     1
 44
1.0
  0
MTEXT
  5
225
330
1F
100
AcDbEntity
  8
SLD-0
 62
     7
100
AcDbMText
 10
91.4298618416
 20
208.7966961618
 30
0.0
 40
3.5
 41
0.0
 71
     1
 72
     1
  1
1
  7
SLDTEXTSTYLE1
 11
0.9430001086179873
 21
-0.3327924205063332
 31
0.0
 73
     1
 44
1.0
  0
MTEXT
  5
226
330
1F
100
AcDbEntity
  8
0
  6
Continuous
 62
     7
370
     0
100
AcDbMText
 10
146.6334881605
 20
32.1055705861
 30
0.0
 40
4.2333333333
 41
0.0
 71
     1
 72
     1
  1
N01864-304
  7
SLDTEXTSTYLE0
 73
     1
 44
1.0
  0
INSERT
  5
22C
330
1F
100
AcDbEntity
  8
0
  6
Continuous
 62
     7
370
     0
100
AcDbBlockReference
  2
SW_NOTE_0
 10
139.7858919659
 20
44.1442849448
 30
0.0
  0
MTEXT
  5
22D
330
1F
100
AcDbEntity
  8
0
  6
Continuous
 62
     7
370
     0
100
AcDbMText
 10
154.0803512605
 20
17.2867317523
 30
0.0
 40
4.2333333333
 41
0.0
 71
     1
 72
     1
  1
131171
  7
SLDTEXTSTYLE0
 73
     1
 44
1.0
  0
HATCH
  5
22E
330
1F
100
AcDbEntity
  8
0
  6
Continuous
 62
     7
100
AcDbHatch
 10
0.0
 20
0.0
 30
0.0
210
0.0
220
0.0
230
1.0
  2
ANSI31
 70
     0
 71
     0
 91
        1
 92
        0
 93
        3
 72
     1
 10
157.4971944381026
 20
112.8593284142891
 11
156.697087271553
 21
112.2594713296132
 72
     1
 10
156.697087271553
 20
112.2594713296132
 11
155.2975696008
 21
114.9597213716
 72
     1
 10
155.2975696008
 20
114.9597213716
 11
157.4971944381026
 21
112.8593284142891
 97
        0
 75
     0
 76
     1
 52
0.0
 41
1.0
 77
     0
 78
     1
 53
45.00000209717174
 43
0.0
 44
0.0
 45
-2.245064112442359
 46
2.245063948092215
 79
     0
 98
        1
 10
0.0
 20
0.0
  0
INSERT
  5
22F
330
1F
100
AcDbEntity
  8
0
  6
Continuous
 62
     7
370
     0
100
AcDbBlockReference
  2
SW_CENTERMARK0
 10
0.0
 20
0.0
 30
0.0
  0
INSERT
  5
230
330
1F
100
AcDbEntity
  8
0
  6
Continuous
 62
     7
370
     0
100
AcDbBlockReference
  2
SW_CENTERMARK1
 10
0.0
 20
0.0
 30
0.0
  0
INSERT
  5
231
330
1F
100
AcDbEntity
  8
0
  6
Continuous
 62
     7
370
     0
100
AcDbBlockReference
  2
SW_CENTERMARK2
 10
0.0
 20
0.0
 30
0.0
  0
INSERT
  5
232
330
1F
100
AcDbEntity
  8
0
  6
Continuous
 62
     7
370
     0
100
AcDbBlockReference
  2
SW_CENTERMARK3
 10
0.0
 20
0.0
 30
0.0
  0
INSERT
  5
233
330
1F
100
AcDbEntity
  8
0
  6
Continuous
 62
     7
370
     0
100
AcDbBlockReference
  2
_OPEN30
 10
102.7826192431
 20
200.0071096243
 30
0.0
 41
3.0
 42
3.0
 43
3.0
 50
-19.393450782
  0
INSERT
  5
234
330
1F
100
AcDbEntity
  8
0
  6
Continuous
 62
     7
370
     0
100
AcDbBlockReference
  2
SW_CENTERMARK4
 10
0.0
 20
0.0
 30
0.0
  0
ENDSEC
  0
SECTION
  2
OBJECTS
  0
DICTIONARY
  5
C
330
0
100
AcDbDictionary
281
     1
  3
ACAD_GROUP
350
D
  3
ACAD_LAYOUT
350
1A
  3
ACAD_MLINESTYLE
350
17
  3
ACAD_PLOTSETTINGS
350
19
  3
ACAD_PLOTSTYLENAME
350
E
  0
DICTIONARY
  5
D
102
{ACAD_REACTORS
330
C
102
}
330
C
100
AcDbDictionary
281
     1
  0
DICTIONARY
  5
1A
102
{ACAD_REACTORS
330
C
102
}
330
C
100
AcDbDictionary
281
     1
  3
Layout1
350
1E
  3
Layout2
350
26
  3
Model
350
22
  0
DICTIONARY
  5
17
102
{ACAD_REACTORS
330
C
102
}
330
C
100
AcDbDictionary
281
     1
  3
Standard
350
18
  0
DICTIONARY
  5
19
102
{ACAD_REACTORS
330
C
102
}
330
C
100
AcDbDictionary
281
     1
  0
ACDBDICTIONARYWDFLT
  5
E
102
{ACAD_REACTORS
330
C
102
}
330
C
100
AcDbDictionary
281
     1
  3
Normal
350
F
100
AcDbDictionaryWithDefault
340
F
  0
LAYOUT
  5
1E
102
{ACAD_REACTORS
330
1A
102
}
330
1A
100
AcDbPlotSettings
  1

  2

  4

  6

 40
0.0
 41
0.0
 42
0.0
 43
0.0
 44
0.0
 45
0.0
 46
0.0
 47
0.0
 48
0.0
 49
0.0
140
0.0
141
0.0
142
1.0
143
1.0
 70
   688
 72
     0
 73
     0
 74
     5
  7

 75
    16
147
1.0
148
0.0
149
0.0
100
AcDbLayout
  1
Layout1
 70
     1
 71
     1
 10
0.0
 20
0.0
 11
0.0
 21
0.0
 12
0.0
 22
0.0
 32
0.0
 14
0.0
 24
0.0
 34
0.0
 15
0.0
 25
0.0
 35
0.0
146
0.0
 13
0.0
 23
0.0
 33
0.0
 16
1.0
 26
0.0
 36
0.0
 17
0.0
 27
1.0
 37
0.0
 76
     0
330
1B
  0
LAYOUT
  5
26
102
{ACAD_REACTORS
330
1A
102
}
330
1A
100
AcDbPlotSettings
  1

  2

  4

  6

 40
0.0
 41
0.0
 42
0.0
 43
0.0
 44
0.0
 45
0.0
 46
0.0
 47
0.0
 48
0.0
 49
0.0
140
0.0
141
0.0
142
1.0
143
1.0
 70
   688
 72
     0
 73
     0
 74
     5
  7

 75
    16
147
1.0
148
0.0
149
0.0
100
AcDbLayout
  1
Layout2
 70
     1
 71
     2
 10
0.0
 20
0.0
 11
0.0
 21
0.0
 12
0.0
 22
0.0
 32
0.0
 14
0.0
 24
0.0
 34
0.0
 15
0.0
 25
0.0
 35
0.0
146
0.0
 13
0.0
 23
0.0
 33
0.0
 16
1.0
 26
0.0
 36
0.0
 17
0.0
 27
1.0
 37
0.0
 76
     0
330
23
  0
LAYOUT
  5
22
102
{ACAD_REACTORS
330
1A
102
}
330
1A
100
AcDbPlotSettings
  1

  2

  4

  6

 40
0.0
 41
0.0
 42
0.0
 43
0.0
 44
0.0
 45
0.0
 46
0.0
 47
0.0
 48
0.0
 49
0.0
140
0.0
141
0.0
142
1.0
143
1.0
 70
  1712
 72
     0
 73
     0
 74
     0
  7

 75
     0
147
1.0
148
0.0
149
0.0
100
AcDbLayout
  1
Model
 70
     1
 71
     0
 10
0.0
 20
0.0
 11
0.0
 21
0.0
 12
0.0
 22
0.0
 32
0.0
 14
0.0
 24
0.0
 34
0.0
 15
210.0
 25
297.0
 35
0.0
146
0.0
 13
0.0
 23
0.0
 33
0.0
 16
1.0
 26
0.0
 36
0.0
 17
0.0
 27
1.0
 37
0.0
 76
     0
330
1F
  0
MLINESTYLE
  5
18
102
{ACAD_REACTORS
330
17
102
}
330
17
100
AcDbMlineStyle
  2
Standard
 70
     0
  3

 62
   256
 51
90.0
 52
90.0
 71
     2
 49
0.5
 62
   256
  6
BYLAYER
 49
-0.5
 62
   256
  6
BYLAYER
  0
ACDBPLACEHOLDER
  5
F
102
{ACAD_REACTORS
330
E
102
}
330
E
  0
ENDSEC
  0
EOF
