  0
SECTION
  2
HEADER
  9
$ACADVER
  1
AC1015
  9
$ACADMAINTVER
 70
     6
  9
$DWGCODEPAGE
  3
DOS932
  9
$INSBASE
 10
0.0
 20
0.0
 30
0.0
  9
$EXTMIN
 10
0.0
 20
0.0
 30
0.0
  9
$EXTMAX
 10
210.0
 20
297.0
 30
0.0
  9
$LIMMIN
 10
0.0
 20
0.0
  9
$LIMMAX
 10
0.0
 20
0.0
  9
$ORTHOMODE
 70
     0
  9
$REGENMODE
 70
     1
  9
$FILLMODE
 70
     1
  9
$QTEXTMODE
 70
     0
  9
$MIRRTEXT
 70
     1
  9
$LTSCALE
 40
1.0
  9
$ATTMODE
 70
     1
  9
$TEXTSIZE
 40
3.5
  9
$TRACEWID
 40
1.0
  9
$TEXTSTYLE
  7
Standard
  9
$CLAYER
  8
0
  9
$CELTYPE
  6
ByLayer
  9
$CECOLOR
 62
   256
  9
$CELTSCALE
 40
1.0
  9
$DISPSILH
 70
     0
  9
$DIMSCALE
 40
1.0
  9
$DIMASZ
 40
3.0
  9
$DIMEXO
 40
1.0
  9
$DIMDLI
 40
3.75
  9
$DIMRND
 40
0.0
  9
$DIMDLE
 40
0.0
  9
$DIMEXE
 40
1.0
  9
$DIMTP
 40
0.0
  9
$DIMTM
 40
0.0
  9
$DIMTXT
 40
3.5
  9
$DIMCEN
 40
2.5
  9
$DIMTSZ
 40
0.0
  9
$DIMTOL
 70
     0
  9
$DIMLIM
 70
     0
  9
$DIMTIH
 70
     1
  9
$DIMTOH
 70
     1
  9
$DIMSE1
 70
     0
  9
$DIMSE2
 70
     0
  9
$DIMTAD
 70
     1
  9
$DIMZIN
 70
     1
  9
$DIMBLK
  1

  9
$DIMASO
 70
     1
  9
$DIMSHO
 70
     1
  9
$DIMPOST
  1

  9
$DIMAPOST
  1

  9
$DIMALT
 70
     0
  9
$DIMALTD
 70
     3
  9
$DIMALTF
 40
0.0393700787
  9
$DIMLFAC
 40
1.0
  9
$DIMTOFL
 70
     1
  9
$DIMTVP
 40
0.0
  9
$DIMTIX
 70
     0
  9
$DIMSOXD
 70
     0
  9
$DIMSAH
 70
     0
  9
$DIMBLK1
  1

  9
$DIMBLK2
  1

  9
$DIMSTYLE
  2
ISO-25
  9
$DIMCLRD
 70
     0
  9
$DIMCLRE
 70
     0
  9
$DIMCLRT
 70
     0
  9
$DIMTFAC
 40
1.0
  9
$DIMGAP
 40
1.524
  9
$DIMJUST
 70
     0
  9
$DIMSD1
 70
     0
  9
$DIMSD2
 70
     0
  9
$DIMTOLJ
 70
     0
  9
$DIMTZIN
 70
     1
  9
$DIMALTZ
 70
     0
  9
$DIMALTTZ
 70
     0
  9
$DIMUPT
 70
     0
  9
$DIMDEC
 70
     2
  9
$DIMTDEC
 70
     2
  9
$DIMALTU
 70
     2
  9
$DIMALTTD
 70
     3
  9
$DIMTXSTY
  7
Standard
  9
$DIMAUNIT
 70
     0
  9
$DIMADEC
 70
     0
  9
$DIMALTRND
 40
0.0
  9
$DIMAZIN
 70
     0
  9
$DIMDSEP
 70
    44
  9
$DIMATFIT
 70
     3
  9
$DIMFRAC
 70
     0
  9
$DIMLDRBLK
  1

  9
$DIMLUNIT
 70
     2
  9
$DIMLWD
 70
    -2
  9
$DIMLWE
 70
    -2
  9
$DIMTMOVE
 70
     0
  9
$LUNITS
 70
     2
  9
$LUPREC
 70
     1
  9
$SKETCHINC
 40
1.0
  9
$FILLETRAD
 40
10.0
  9
$AUNITS
 70
     0
  9
$AUPREC
 70
     0
  9
$MENU
  1
.
  9
$ELEVATION
 40
0.0
  9
$PELEVATION
 40
0.0
  9
$THICKNESS
 40
0.0
  9
$LIMCHECK
 70
     0
  9
$CHAMFERA
 40
10.0
  9
$CHAMFERB
 40
10.0
  9
$CHAMFERC
 40
20.0
  9
$CHAMFERD
 40
0.0
  9
$SKPOLY
 70
     0
  9
$TDCREATE
 40
2454359.582123472
  9
$TDUCREATE
 40
2454359.207123472
  9
$TDUPDATE
 40
2454359.582123484
  9
$TDUUPDATE
 40
2454359.207123484
  9
$TDINDWG
 40
0.0000000116
  9
$TDUSRTIMER
 40
0.0000000116
  9
$USRTIMER
 70
     1
  9
$ANGBASE
 50
0.0
  9
$ANGDIR
 70
     0
  9
$PDMODE
 70
     0
  9
$PDSIZE
 40
-1.0
  9
$PLINEWID
 40
0.0
  9
$SPLFRAME
 70
     0
  9
$SPLINETYPE
 70
     6
  9
$SPLINESEGS
 70
     8
  9
$HANDSEED
  5
26E
  9
$SURFTAB1
 70
     6
  9
$SURFTAB2
 70
     6
  9
$SURFTYPE
 70
     6
  9
$SURFU
 70
     6
  9
$SURFV
 70
     6
  9
$UCSBASE
  2

  9
$UCSNAME
  2

  9
$UCSORG
 10
0.0
 20
0.0
 30
0.0
  9
$UCSXDIR
 10
1.0
 20
0.0
 30
0.0
  9
$UCSYDIR
 10
0.0
 20
1.0
 30
0.0
  9
$UCSORTHOREF
  2

  9
$UCSORTHOVIEW
 70
     0
  9
$UCSORGTOP
 10
0.0
 20
0.0
 30
0.0
  9
$UCSORGBOTTOM
 10
0.0
 20
0.0
 30
0.0
  9
$UCSORGLEFT
 10
0.0
 20
0.0
 30
0.0
  9
$UCSORGRIGHT
 10
0.0
 20
0.0
 30
0.0
  9
$UCSORGFRONT
 10
0.0
 20
0.0
 30
0.0
  9
$UCSORGBACK
 10
0.0
 20
0.0
 30
0.0
  9
$PUCSBASE
  2

  9
$PUCSNAME
  2

  9
$PUCSORG
 10
0.0
 20
0.0
 30
0.0
  9
$PUCSXDIR
 10
1.0
 20
0.0
 30
0.0
  9
$PUCSYDIR
 10
0.0
 20
1.0
 30
0.0
  9
$PUCSORTHOREF
  2

  9
$PUCSORTHOVIEW
 70
     0
  9
$PUCSORGTOP
 10
0.0
 20
0.0
 30
0.0
  9
$PUCSORGBOTTOM
 10
0.0
 20
0.0
 30
0.0
  9
$PUCSORGLEFT
 10
0.0
 20
0.0
 30
0.0
  9
$PUCSORGRIGHT
 10
0.0
 20
0.0
 30
0.0
  9
$PUCSORGFRONT
 10
0.0
 20
0.0
 30
0.0
  9
$PUCSORGBACK
 10
0.0
 20
0.0
 30
0.0
  9
$USERI1
 70
     0
  9
$USERI2
 70
     0
  9
$USERI3
 70
     0
  9
$USERI4
 70
     0
  9
$USERI5
 70
     0
  9
$USERR1
 40
0.0
  9
$USERR2
 40
0.0
  9
$USERR3
 40
0.0
  9
$USERR4
 40
0.0
  9
$USERR5
 40
0.0
  9
$WORLDVIEW
 70
     1
  9
$SHADEDGE
 70
     3
  9
$SHADEDIF
 70
    70
  9
$TILEMODE
 70
     1
  9
$MAXACTVP
 70
    64
  9
$PINSBASE
 10
0.0
 20
0.0
 30
0.0
  9
$PLIMCHECK
 70
     0
  9
$PEXTMIN
 10
1.0000000000E+20
 20
1.0000000000E+20
 30
1.0000000000E+20
  9
$PEXTMAX
 10
-1.0000000000E+20
 20
-1.0000000000E+20
 30
-1.0000000000E+20
  9
$PLIMMIN
 10
0.0
 20
0.0
  9
$PLIMMAX
 10
420.0
 20
297.0
  9
$UNITMODE
 70
     0
  9
$VISRETAIN
 70
     1
  9
$PLINEGEN
 70
     0
  9
$PSLTSCALE
 70
     1
  9
$TREEDEPTH
 70
  3020
  9
$CMLSTYLE
  2
Standard
  9
$CMLJUST
 70
     0
  9
$CMLSCALE
 40
20.0
  9
$PROXYGRAPHICS
 70
     1
  9
$MEASUREMENT
 70
     1
  9
$CELWEIGHT
370
    -1
  9
$ENDCAPS
280
     0
  9
$JOINSTYLE
280
     0
  9
$LWDISPLAY
290
     1
  9
$INSUNITS
 70
     4
  9
$HYPERLINKBASE
  1

  9
$STYLESHEET
  1

  9
$XEDIT
290
     1
  9
$CEPSNTYPE
380
     0
  9
$PSTYLEMODE
290
     1
  9
$FINGERPRINTGUID
  2
{354E18FA-2955-4170-9623-C28C62DC0F7E}
  9
$VERSIONGUID
  2
{FAEB1C32-E019-11D5-929B-00C0DF256EC4}
  9
$EXTNAMES
290
     1
  9
$PSVPSCALE
 40
0.0
  9
$OLESTARTUP
290
     0
  0
ENDSEC
  0
SECTION
  2
CLASSES
  0
CLASS
  1
ACDBDICTIONARYWDFLT
  2
AcDbDictionaryWithDefault
  3
ObjectDBX Classes
 90
        0
280
     0
281
     0
  0
CLASS
  1
ACDBPLACEHOLDER
  2
AcDbPlaceHolder
  3
ObjectDBX Classes
 90
        0
280
     0
281
     0
  0
CLASS
  1
LAYOUT
  2
AcDbLayout
  3
ObjectDBX Classes
 90
        0
280
     0
281
     0
  0
ENDSEC
  0
SECTION
  2
TABLES
  0
TABLE
  2
VPORT
  5
8
330
0
100
AcDbSymbolTable
 70
     1
  0
VPORT
  5
29
330
8
100
AcDbSymbolTableRecord
100
AcDbViewportTableRecord
  2
*Active
 70
     0
 10
0.0
 20
0.0
 11
1.0
 21
1.0
 12
105.0
 22
148.5
 13
0.0
 23
0.0
 14
10.0
 24
10.0
 15
10.0
 25
10.0
 16
0.0
 26
0.0
 36
1.0
 17
0.0
 27
0.0
 37
0.0
 40
297.0
 41
1.9729729729
 42
50.0
 43
0.0
 44
0.0
 50
0.0
 51
0.0
 71
     0
 72
  2000
 73
     1
 74
     3
 75
     0
 76
     0
 77
     0
 78
     0
281
     0
 65
     1
110
0.0
120
0.0
130
0.0
111
1.0
121
0.0
131
0.0
112
0.0
122
1.0
132
0.0
 79
     0
146
0.0
  0
ENDTAB
  0
TABLE
  2
LTYPE
  5
5
330
0
100
AcDbSymbolTable
 70
     6
  0
LTYPE
  5
14
330
5
100
AcDbSymbolTableRecord
100
AcDbLinetypeTableRecord
  2
ByBlock
 70
     0
  3

 72
    65
 73
     0
 40
0.0
  0
LTYPE
  5
15
330
5
100
AcDbSymbolTableRecord
100
AcDbLinetypeTableRecord
  2
ByLayer
 70
     0
  3

 72
    65
 73
     0
 40
0.0
  0
LTYPE
  5
16
330
5
100
AcDbSymbolTableRecord
100
AcDbLinetypeTableRecord
  2
Continuous
 70
     0
  3
Solid line
 72
    65
 73
     0
 40
0.0
  0
LTYPE
  5
2A
330
5
100
AcDbSymbolTableRecord
100
AcDbLinetypeTableRecord
  2
HIDDEN
 70
     0
  3
Hidden __ __ __ __ __ __ __ __ __ __ __ __ __ __
 72
    65
 73
     2
 40
1.905
 49
1.27
 74
     0
 49
-0.635
 74
     0
  0
LTYPE
  5
2B
330
5
100
AcDbSymbolTableRecord
100
AcDbLinetypeTableRecord
  2
PHANTOM
 70
     0
  3
Phantom ______  __  __  ______  __  __  ______
 72
    65
 73
     6
 40
12.7
 49
6.35
 74
     0
 49
-1.27
 74
     0
 49
1.27
 74
     0
 49
-1.27
 74
     0
 49
1.27
 74
     0
 49
-1.27
 74
     0
  0
LTYPE
  5
2C
330
5
100
AcDbSymbolTableRecord
100
AcDbLinetypeTableRecord
  2
CENTER
 70
     0
  3
Center ____ _ ____ _ ____ _ ____ _ ____ _ ____
 72
    65
 73
     4
 40
10.16
 49
6.35
 74
     0
 49
-1.27
 74
     0
 49
1.27
 74
     0
 49
-1.27
 74
     0
  0
LTYPE
  5
2D
330
5
100
AcDbSymbolTableRecord
100
AcDbLinetypeTableRecord
  2
CENTERX2
 70
     0
  3
Center (2x) ________  __  ________  __  _____
 72
    65
 73
     4
 40
20.32
 49
12.7
 74
     0
 49
-2.54
 74
     0
 49
2.54
 74
     0
 49
-2.54
 74
     0
  0
LTYPE
  5
2E
330
5
100
AcDbSymbolTableRecord
100
AcDbLinetypeTableRecord
  2
DOT2
 70
     0
  3
Dot (.5x) ........................................
 72
    65
 73
     2
 40
0.635
 49
0.0
 74
     0
 49
-0.635
 74
     0
  0
ENDTAB
  0
TABLE
  2
LAYER
  5
2
330
0
100
AcDbSymbolTable
 70
     4
  0
LAYER
  5
10
330
2
100
AcDbSymbolTableRecord
100
AcDbLayerTableRecord
  2
0
 70
     0
 62
     7
  6
Continuous
370
    -3
390
F
  0
LAYER
  5
2F
330
2
100
AcDbSymbolTableRecord
100
AcDbLayerTableRecord
  2
SLD-0
 70
     0
 62
     7
  6
Continuous
370
     0
390
F
  0
LAYER
  5
30
330
2
100
AcDbSymbolTableRecord
100
AcDbLayerTableRecord
  2
SLD-DEFPOINTS
 70
     0
 62
     7
  6
Continuous
370
     0
390
F
  0
LAYER
  5
12E
330
2
100
AcDbSymbolTableRecord
100
AcDbLayerTableRecord
  2
Defpoints
 70
     0
 62
     7
  6
Continuous
290
     0
370
    -3
390
F
  0
ENDTAB
  0
TABLE
  2
STYLE
  5
3
330
0
100
AcDbSymbolTable
 70
     4
  0
STYLE
  5
11
330
3
100
AcDbSymbolTableRecord
100
AcDbTextStyleTableRecord
  2
Standard
 70
     0
 40
0.0
 41
1.0
 50
0.0
 71
     0
 42
2.5
  3
txt
  4
bigfont
  0
STYLE
  5
34
330
3
100
AcDbSymbolTableRecord
100
AcDbTextStyleTableRecord
  2
SLDTEXTSTYLE0
 70
     0
 40
0.0
 41
0.7
 50
0.0
 71
     0
 42
0.2
  3
TXT
  4
bigfont
  0
STYLE
  5
13B
330
3
100
AcDbSymbolTableRecord
100
AcDbTextStyleTableRecord
  2
SLDTEXTSTYLE1
 70
     0
 40
0.0
 41
0.75
 50
0.0
 71
     0
 42
0.2
  3
TXT
  4
bigfont
  0
STYLE
  5
149
330
3
100
AcDbSymbolTableRecord
100
AcDbTextStyleTableRecord
  2
SLDTEXTSTYLE2
 70
     0
 40
0.0
 41
0.96
 50
0.0
 71
     0
 42
0.2
  3
TXT
  4
bigfont
  0
ENDTAB
  0
TABLE
  2
VIEW
  5
6
330
0
100
AcDbSymbolTable
 70
     0
  0
ENDTAB
  0
TABLE
  2
UCS
  5
7
330
0
100
AcDbSymbolTable
 70
     0
  0
ENDTAB
  0
TABLE
  2
APPID
  5
9
330
0
100
AcDbSymbolTable
 70
     1
  0
APPID
  5
12
330
9
100
AcDbSymbolTableRecord
100
AcDbRegAppTableRecord
  2
ACAD
 70
     0
  0
ENDTAB
  0
TABLE
  2
DIMSTYLE
  5
A
330
0
100
AcDbSymbolTable
 70
     6
100
AcDbDimStyleTable
  0
DIMSTYLE
105
27
330
A
100
AcDbSymbolTableRecord
100
AcDbDimStyleTableRecord
  2
ISO-25
 70
     0
 41
2.5
 42
0.625
 43
3.75
 44
1.25
 73
     0
 74
     0
 77
     1
 78
     8
140
2.5
141
2.5
143
0.0393700787
147
0.625
171
     3
172
     1
271
     2
272
     2
274
     3
278
    44
283
     0
284
     8
340
11
  0
DIMSTYLE
105
13C
102
{ACAD_REACTORS
330
12D
330
17D
330
1AB
330
1C2
330
202
330
219
102
}
330
A
100
AcDbSymbolTableRecord
100
AcDbDimStyleTableRecord
  2
SLDDIMSTYLE0
 70
     0
 41
3.0
 44
0.0
 73
     0
 74
     0
 77
     3
 78
    12
140
3.5
147
0.875
173
     1
271
     0
272
     2
284
    12
340
13B
341
13D
343
13D
344
13D
  0
DIMSTYLE
105
159
102
{ACAD_REACTORS
330
14B
102
}
330
A
100
AcDbSymbolTableRecord
100
AcDbDimStyleTableRecord
  2
SLDDIMSTYLE1
 70
     0
 41
3.0
 44
0.0
 73
     0
 74
     0
 77
     3
 78
    12
140
3.5
147
0.875
173
     1
271
     0
272
     2
284
    12
340
13B
341
54
343
54
344
54
  0
DIMSTYLE
105
170
102
{ACAD_REACTORS
330
162
330
230
102
}
330
A
100
AcDbSymbolTableRecord
100
AcDbDimStyleTableRecord
  2
SLDDIMSTYLE2
 70
     0
 41
3.0
 44
0.0
 73
     0
 74
     0
 77
     3
 78
    12
140
3.5
147
0.875
173
     1
271
     1
272
     2
284
    12
340
13B
341
13D
343
13D
344
13D
  0
DIMSTYLE
105
1A2
102
{ACAD_REACTORS
330
198
330
1DA
330
1EC
102
}
330
A
100
AcDbSymbolTableRecord
100
AcDbDimStyleTableRecord
  2
SLDDIMSTYLE3
 70
     0
 41
3.0
 44
0.0
 78
    12
140
3.5
147
0.875
172
     1
173
     1
271
     0
272
     2
284
    12
340
13B
341
13D
343
13D
344
13D
  0
DIMSTYLE
105
251
102
{ACAD_REACTORS
330
247
102
}
330
A
100
AcDbSymbolTableRecord
100
AcDbDimStyleTableRecord
  2
SLDDIMSTYLE4
 70
     0
 41
3.0
 44
0.0
 78
    12
140
3.5
147
0.875
172
     1
173
     1
271
     1
272
     2
284
    12
340
13B
341
13D
343
13D
344
13D
  0
ENDTAB
  0
TABLE
  2
BLOCK_RECORD
  5
1
330
0
100
AcDbSymbolTable
 70
    22
  0
BLOCK_RECORD
  5
1F
330
1
100
AcDbSymbolTableRecord
100
AcDbBlockTableRecord
  2
*Model_Space
340
22
  0
BLOCK_RECORD
  5
1B
330
1
100
AcDbSymbolTableRecord
100
AcDbBlockTableRecord
  2
*Paper_Space
340
1E
  0
BLOCK_RECORD
  5
23
330
1
100
AcDbSymbolTableRecord
100
AcDbBlockTableRecord
  2
*Paper_Space0
340
26
  0
BLOCK_RECORD
  5
31
330
1
100
AcDbSymbolTableRecord
100
AcDbBlockTableRecord
  2
注記
340
0
  0
BLOCK_RECORD
  5
37
330
1
100
AcDbSymbolTableRecord
100
AcDbBlockTableRecord
  2
SW_CENTERMARK0
340
0
102
{BLKREFS
331
269
102
}
  0
BLOCK_RECORD
  5
42
330
1
100
AcDbSymbolTableRecord
100
AcDbBlockTableRecord
  2
SW_CENTERMARK1
340
0
102
{BLKREFS
331
26A
102
}
  0
BLOCK_RECORD
  5
49
330
1
100
AcDbSymbolTableRecord
100
AcDbBlockTableRecord
  2
SW_CENTERMARK2
340
0
102
{BLKREFS
331
26B
102
}
  0
BLOCK_RECORD
  5
54
330
1
100
AcDbSymbolTableRecord
100
AcDbBlockTableRecord
  2
_OPEN30
340
0
102
{BLKREFS
331
152
331
151
331
15A
331
15B
331
26C
102
}
  0
BLOCK_RECORD
  5
5A
330
1
100
AcDbSymbolTableRecord
100
AcDbBlockTableRecord
  2
SW_CENTERMARK3
340
0
102
{BLKREFS
331
26D
102
}
  0
BLOCK_RECORD
  5
12F
330
1
100
AcDbSymbolTableRecord
100
AcDbBlockTableRecord
  2
*D7
340
0
  0
BLOCK_RECORD
  5
13D
330
1
100
AcDbSymbolTableRecord
100
AcDbBlockTableRecord
  2
_None
340
0
102
{BLKREFS
331
134
331
133
331
168
331
167
331
184
331
183
331
19D
331
1B1
331
1B0
331
1C8
331
1C7
331
1DF
331
1F1
331
208
331
207
331
21F
331
21E
331
236
331
235
331
24C
102
}
  0
BLOCK_RECORD
  5
14C
330
1
100
AcDbSymbolTableRecord
100
AcDbBlockTableRecord
  2
*D9
340
0
  0
BLOCK_RECORD
  5
163
330
1
100
AcDbSymbolTableRecord
100
AcDbBlockTableRecord
  2
*D10
340
0
  0
BLOCK_RECORD
  5
17E
330
1
100
AcDbSymbolTableRecord
100
AcDbBlockTableRecord
  2
*D11
340
0
  0
BLOCK_RECORD
  5
199
330
1
100
AcDbSymbolTableRecord
100
AcDbBlockTableRecord
  2
*D12
340
0
  0
BLOCK_RECORD
  5
1AC
330
1
100
AcDbSymbolTableRecord
100
AcDbBlockTableRecord
  2
*D13
340
0
  0
BLOCK_RECORD
  5
1C3
330
1
100
AcDbSymbolTableRecord
100
AcDbBlockTableRecord
  2
*D14
340
0
  0
BLOCK_RECORD
  5
1DB
330
1
100
AcDbSymbolTableRecord
100
AcDbBlockTableRecord
  2
*D15
340
0
  0
BLOCK_RECORD
  5
1ED
330
1
100
AcDbSymbolTableRecord
100
AcDbBlockTableRecord
  2
*D16
340
0
  0
BLOCK_RECORD
  5
203
330
1
100
AcDbSymbolTableRecord
100
AcDbBlockTableRecord
  2
*D17
340
0
  0
BLOCK_RECORD
  5
21A
330
1
100
AcDbSymbolTableRecord
100
AcDbBlockTableRecord
  2
*D18
340
0
  0
BLOCK_RECORD
  5
231
330
1
100
AcDbSymbolTableRecord
100
AcDbBlockTableRecord
  2
*D19
340
0
  0
BLOCK_RECORD
  5
248
330
1
100
AcDbSymbolTableRecord
100
AcDbBlockTableRecord
  2
*D20
340
0
  0
BLOCK_RECORD
  5
261
330
1
100
AcDbSymbolTableRecord
100
AcDbBlockTableRecord
  2
SW_NOTE_0
340
0
102
{BLKREFS
331
266
102
}
  0
ENDTAB
  0
ENDSEC
  0
SECTION
  2
BLOCKS
  0
BLOCK
  5
20
330
1F
100
AcDbEntity
  8
0
100
AcDbBlockBegin
  2
*Model_Space
 70
     0
 71
     0
 10
0.0
 20
0.0
 30
0.0
  3
*Model_Space
  1

  0
ENDBLK
  5
21
330
1F
100
AcDbEntity
  8
0
100
AcDbBlockEnd
  0
BLOCK
  5
1C
330
1B
100
AcDbEntity
 67
     1
  8
0
100
AcDbBlockBegin
  2
*Paper_Space
 70
     0
 71
     0
 10
0.0
 20
0.0
 30
0.0
  3
*Paper_Space
  1

  0
ENDBLK
  5
1D
330
1B
100
AcDbEntity
 67
     1
  8
0
100
AcDbBlockEnd
  0
BLOCK
  5
24
330
23
100
AcDbEntity
  8
0
100
AcDbBlockBegin
  2
*Paper_Space0
 70
     0
 71
     0
 10
0.0
 20
0.0
 30
0.0
  3
*Paper_Space0
  1

  0
ENDBLK
  5
25
330
23
100
AcDbEntity
  8
0
100
AcDbBlockEnd
  0
BLOCK
  5
32
330
31
100
AcDbEntity
  8
0
100
AcDbBlockBegin
  2
注記
 70
     0
 71
     0
 10
0.0
 20
0.0
 30
0.0
  3
注記
  1

  0
MTEXT
  5
35
330
31
100
AcDbEntity
  8
0
  6
Continuous
 62
     7
370
     0
100
AcDbMText
 10
0.2636785918
 20
9.0739778448
 30
0.0
 40
3.5
 41
0.0
 71
     1
 72
     1
  1
１．特記ナキ角部ハ、バリ　カエリノ無キコト。
  7
SLDTEXTSTYLE0
 73
     1
 44
1.0
  0
MTEXT
  5
36
330
31
100
AcDbEntity
  8
0
  6
Continuous
 62
     7
370
     0
100
AcDbMText
 10
0.2636785918
 20
3.5759549983
 30
0.0
 40
3.5
 41
0.0
 71
     1
 72
     1
  1
２．特記ナキ隅部ハ、Ｒ０．４ＭＡＸトスル。
  7
SLDTEXTSTYLE0
 73
     1
 44
1.0
  0
ENDBLK
  5
33
330
31
100
AcDbEntity
  8
0
100
AcDbBlockEnd
  0
BLOCK
  5
38
330
37
100
AcDbEntity
  8
0
100
AcDbBlockBegin
  2
SW_CENTERMARK0
 70
     0
 71
     0
 10
0.0
 20
0.0
 30
0.0
  3
SW_CENTERMARK0
  1

  0
LINE
  5
3A
330
37
100
AcDbEntity
  8
SLD-0
  6
Continuous
 62
     7
100
AcDbLine
 10
135.2826192431
 20
127.4597213716
 30
0.0
 11
135.2826192431
 21
129.9597213716
 31
0.0
  0
LINE
  5
3B
330
37
100
AcDbEntity
  8
SLD-0
  6
Continuous
 62
     7
100
AcDbLine
 10
135.2826192431
 20
127.4597213716
 30
0.0
 11
132.7826192431
 21
127.4597213716
 31
0.0
  0
LINE
  5
3C
330
37
100
AcDbEntity
  8
SLD-0
  6
Continuous
 62
     7
100
AcDbLine
 10
135.2826192431
 20
127.4597213716
 30
0.0
 11
135.2826192431
 21
124.9597213716
 31
0.0
  0
LINE
  5
3D
330
37
100
AcDbEntity
  8
SLD-0
  6
Continuous
 62
     7
100
AcDbLine
 10
135.2826192431
 20
127.4597213716
 30
0.0
 11
137.7826192431
 21
127.4597213716
 31
0.0
  0
LINE
  5
3E
330
37
100
AcDbEntity
  8
SLD-0
  6
Continuous
 62
     7
100
AcDbLine
 10
135.2826192431
 20
132.4597213716
 30
0.0
 11
135.2826192431
 21
137.7097213716
 31
0.0
  0
LINE
  5
3F
330
37
100
AcDbEntity
  8
SLD-0
  6
Continuous
 62
     7
100
AcDbLine
 10
130.2826192431
 20
127.4597213716
 30
0.0
 11
125.0326192431
 21
127.4597213716
 31
0.0
  0
LINE
  5
40
330
37
100
AcDbEntity
  8
SLD-0
  6
Continuous
 62
     7
100
AcDbLine
 10
135.2826192431
 20
122.4597213716
 30
0.0
 11
135.2826192431
 21
117.2097213716
 31
0.0
  0
LINE
  5
41
330
37
100
AcDbEntity
  8
SLD-0
  6
Continuous
 62
     7
100
AcDbLine
 10
140.2826192431
 20
127.4597213716
 30
0.0
 11
145.5326192431
 21
127.4597213716
 31
0.0
  0
ENDBLK
  5
39
330
37
100
AcDbEntity
  8
0
100
AcDbBlockEnd
  0
BLOCK
  5
43
330
42
100
AcDbEntity
  8
0
100
AcDbBlockBegin
  2
SW_CENTERMARK1
 70
     0
 71
     0
 10
0.0
 20
0.0
 30
0.0
  3
SW_CENTERMARK1
  1

  0
LINE
  5
45
330
42
100
AcDbEntity
  8
SLD-0
  6
Continuous
 62
     7
100
AcDbLine
 10
55.0665118854
 20
127.4597213716
 30
0.0
 11
55.0665118854
 21
129.9597213716
 31
0.0
  0
LINE
  5
46
330
42
100
AcDbEntity
  8
SLD-0
  6
Continuous
 62
     7
100
AcDbLine
 10
55.0665118854
 20
127.4597213716
 30
0.0
 11
52.5665118854
 21
127.4597213716
 31
0.0
  0
LINE
  5
47
330
42
100
AcDbEntity
  8
SLD-0
  6
Continuous
 62
     7
100
AcDbLine
 10
55.0665118854
 20
127.4597213716
 30
0.0
 11
55.0665118854
 21
124.9597213716
 31
0.0
  0
LINE
  5
48
330
42
100
AcDbEntity
  8
SLD-0
  6
Continuous
 62
     7
100
AcDbLine
 10
55.0665118854
 20
127.4597213716
 30
0.0
 11
57.5665118854
 21
127.4597213716
 31
0.0
  0
ENDBLK
  5
44
330
42
100
AcDbEntity
  8
0
100
AcDbBlockEnd
  0
BLOCK
  5
4A
330
49
100
AcDbEntity
  8
0
100
AcDbBlockBegin
  2
SW_CENTERMARK2
 70
     0
 71
     0
 10
0.0
 20
0.0
 30
0.0
  3
SW_CENTERMARK2
  1

  0
LINE
  5
4C
330
49
100
AcDbEntity
  8
SLD-0
  6
Continuous
 62
     7
100
AcDbLine
 10
55.0665118854
 20
127.4597213716
 30
0.0
 11
55.0665118854
 21
129.9597213716
 31
0.0
  0
LINE
  5
4D
330
49
100
AcDbEntity
  8
SLD-0
  6
Continuous
 62
     7
100
AcDbLine
 10
55.0665118854
 20
127.4597213716
 30
0.0
 11
52.5665118854
 21
127.4597213716
 31
0.0
  0
LINE
  5
4E
330
49
100
AcDbEntity
  8
SLD-0
  6
Continuous
 62
     7
100
AcDbLine
 10
55.0665118854
 20
127.4597213716
 30
0.0
 11
55.0665118854
 21
124.9597213716
 31
0.0
  0
LINE
  5
4F
330
49
100
AcDbEntity
  8
SLD-0
  6
Continuous
 62
     7
100
AcDbLine
 10
55.0665118854
 20
127.4597213716
 30
0.0
 11
57.5665118854
 21
127.4597213716
 31
0.0
  0
LINE
  5
50
330
49
100
AcDbEntity
  8
SLD-0
  6
Continuous
 62
     7
100
AcDbLine
 10
55.0665118854
 20
132.4597213716
 30
0.0
 11
55.0665118854
 21
144.9597213716
 31
0.0
  0
LINE
  5
51
330
49
100
AcDbEntity
  8
SLD-0
  6
Continuous
 62
     7
100
AcDbLine
 10
50.0665118854
 20
127.4597213716
 30
0.0
 11
37.5665118854
 21
127.4597213716
 31
0.0
  0
LINE
  5
52
330
49
100
AcDbEntity
  8
SLD-0
  6
Continuous
 62
     7
100
AcDbLine
 10
55.0665118854
 20
122.4597213716
 30
0.0
 11
55.0665118854
 21
109.9597213716
 31
0.0
  0
LINE
  5
53
330
49
100
AcDbEntity
  8
SLD-0
  6
Continuous
 62
     7
100
AcDbLine
 10
60.0665118854
 20
127.4597213716
 30
0.0
 11
72.5665118854
 21
127.4597213716
 31
0.0
  0
ENDBLK
  5
4B
330
49
100
AcDbEntity
  8
0
100
AcDbBlockEnd
  0
BLOCK
  5
55
330
54
100
AcDbEntity
  8
0
100
AcDbBlockBegin
  2
_OPEN30
 70
     0
 71
     0
 10
0.0
 20
0.0
 30
0.0
  3
_OPEN30
  1

  0
LINE
  5
57
330
54
100
AcDbEntity
  8
SLD-0
  6
Continuous
100
AcDbLine
 10
-1.0
 20
0.267949
 30
0.0
 11
0.0
 21
0.0
 31
0.0
  0
LINE
  5
58
330
54
100
AcDbEntity
  8
SLD-0
  6
Continuous
100
AcDbLine
 10
0.0
 20
0.0
 30
0.0
 11
-1.0
 21
-0.267949
 31
0.0
  0
LINE
  5
59
330
54
100
AcDbEntity
  8
SLD-0
  6
Continuous
100
AcDbLine
 10
0.0
 20
0.0
 30
0.0
 11
-1.0
 21
0.0
 31
0.0
  0
ENDBLK
  5
56
330
54
100
AcDbEntity
  8
0
100
AcDbBlockEnd
  0
BLOCK
  5
5B
330
5A
100
AcDbEntity
  8
0
100
AcDbBlockBegin
  2
SW_CENTERMARK3
 70
     0
 71
     0
 10
0.0
 20
0.0
 30
0.0
  3
SW_CENTERMARK3
  1

  0
LINE
  5
5D
330
5A
100
AcDbEntity
  8
SLD-0
  6
Continuous
 62
     7
100
AcDbLine
 10
150.7826192431
 20
192.9431478461
 30
0.0
 11
150.7826192431
 21
195.4431478461
 31
0.0
  0
LINE
  5
5E
330
5A
100
AcDbEntity
  8
SLD-0
  6
Continuous
 62
     7
100
AcDbLine
 10
150.7826192431
 20
192.9431478461
 30
0.0
 11
148.2826192431
 21
192.9431478461
 31
0.0
  0
LINE
  5
5F
330
5A
100
AcDbEntity
  8
SLD-0
  6
Continuous
 62
     7
100
AcDbLine
 10
150.7826192431
 20
192.9431478461
 30
0.0
 11
150.7826192431
 21
190.4431478461
 31
0.0
  0
LINE
  5
60
330
5A
100
AcDbEntity
  8
SLD-0
  6
Continuous
 62
     7
100
AcDbLine
 10
150.7826192431
 20
192.9431478461
 30
0.0
 11
153.2826192431
 21
192.9431478461
 31
0.0
  0
LINE
  5
61
330
5A
100
AcDbEntity
  8
SLD-0
  6
Continuous
 62
     7
100
AcDbLine
 10
150.7826192431
 20
197.9431478461
 30
0.0
 11
150.7826192431
 21
200.9431478461
 31
0.0
  0
LINE
  5
62
330
5A
100
AcDbEntity
  8
SLD-0
  6
Continuous
 62
     7
100
AcDbLine
 10
145.7826192431
 20
192.9431478461
 30
0.0
 11
142.7826192431
 21
192.9431478461
 31
0.0
  0
LINE
  5
63
330
5A
100
AcDbEntity
  8
SLD-0
  6
Continuous
 62
     7
100
AcDbLine
 10
150.7826192431
 20
187.9431478461
 30
0.0
 11
150.7826192431
 21
184.9431478461
 31
0.0
  0
LINE
  5
64
330
5A
100
AcDbEntity
  8
SLD-0
  6
Continuous
 62
     7
100
AcDbLine
 10
155.7826192431
 20
192.9431478461
 30
0.0
 11
158.7826192431
 21
192.9431478461
 31
0.0
  0
ENDBLK
  5
5C
330
5A
100
AcDbEntity
  8
0
100
AcDbBlockEnd
  0
BLOCK
  5
139
330
12F
100
AcDbEntity
  8
0
100
AcDbBlockBegin
  2
*D7
 70
     1
 71
     0
 10
0.0
 20
0.0
 30
0.0
  3
*D7
  1

  0
LINE
  5
140
330
12F
100
AcDbEntity
  8
SLD-0
100
AcDbLine
 10
135.2826192431
 20
113.9597213716
 30
0.0
 11
135.2826192431
 21
99.9947394541
 31
0.0
  0
LINE
  5
141
330
12F
100
AcDbEntity
  8
SLD-0
100
AcDbLine
 10
102.2826192431
 20
116.4597213716
 30
0.0
 11
102.2826192431
 21
99.9947394541
 31
0.0
  0
LINE
  5
142
330
12F
100
AcDbEntity
  8
SLD-0
100
AcDbLine
 10
135.2826192431
 20
100.9947394541
 30
0.0
 11
102.2826192431
 21
100.9947394541
 31
0.0
  0
LINE
  5
143
330
12F
100
AcDbEntity
  8
SLD-0
100
AcDbLine
 10
132.2826192431
 20
101.7985864541
 30
0.0
 11
135.2826192431
 21
100.9947394541
 31
0.0
  0
LINE
  5
144
330
12F
100
AcDbEntity
  8
SLD-0
100
AcDbLine
 10
135.2826192431
 20
100.9947394541
 30
0.0
 11
132.2826192431
 21
100.1908924541
 31
0.0
  0
LINE
  5
145
330
12F
100
AcDbEntity
  8
SLD-0
100
AcDbLine
 10
135.2826192431
 20
100.9947394541
 30
0.0
 11
132.2826192431
 21
100.9947394541
 31
0.0
  0
LINE
  5
146
330
12F
100
AcDbEntity
  8
SLD-0
100
AcDbLine
 10
105.2826192431
 20
100.1908924541
 30
0.0
 11
102.2826192431
 21
100.9947394541
 31
0.0
  0
LINE
  5
147
330
12F
100
AcDbEntity
  8
SLD-0
100
AcDbLine
 10
102.2826192431
 20
100.9947394541
 30
0.0
 11
105.2826192431
 21
101.7985864541
 31
0.0
  0
LINE
  5
148
330
12F
100
AcDbEntity
  8
SLD-0
100
AcDbLine
 10
102.2826192431
 20
100.9947394541
 30
0.0
 11
105.2826192431
 21
100.9947394541
 31
0.0
  0
MTEXT
  5
14A
330
12F
100
AcDbEntity
  8
SLD-0
100
AcDbMText
 10
116.7461691835
 20
105.5214332664
 30
0.1
 40
3.5
 41
0.0
 71
     1
 72
     1
  1
33
  7
SLDTEXTSTYLE2
 73
     1
 44
1.0
  0
ENDBLK
  5
13A
330
12F
100
AcDbEntity
  8
0
100
AcDbBlockEnd
  0
BLOCK
  5
13E
330
13D
100
AcDbEntity
  8
0
100
AcDbBlockBegin
  2
_None
 70
     0
 71
     0
 10
0.0
 20
0.0
 30
0.0
  3
_None
  1

  0
ENDBLK
  5
13F
330
13D
100
AcDbEntity
  8
0
100
AcDbBlockEnd
  0
BLOCK
  5
157
330
14C
100
AcDbEntity
  8
0
100
AcDbBlockBegin
  2
*D9
 70
     1
 71
     0
 10
0.0
 20
0.0
 30
0.0
  3
*D9
  1

  0
INSERT
  5
15A
330
14C
100
AcDbEntity
  8
SLD-0
 62
     7
100
AcDbBlockReference
  2
_OPEN30
 10
89.8197554585
 20
137.4597213716
 30
0.1
 41
3.0
 42
3.0
 50
90.0
  0
INSERT
  5
15B
330
14C
100
AcDbEntity
  8
SLD-0
 62
     7
100
AcDbBlockReference
  2
_OPEN30
 10
89.8197554585
 20
117.4597213716
 30
0.1
 41
3.0
 42
3.0
 50
270.0
  0
LINE
  5
15C
330
14C
100
AcDbEntity
  8
SLD-0
 62
     7
100
AcDbLine
 10
121.2826192431
 20
137.4597213716
 30
0.0
 11
88.8197554585
 21
137.4597213716
 31
0.0
  0
LINE
  5
15D
330
14C
100
AcDbEntity
  8
SLD-0
 62
     7
100
AcDbLine
 10
121.2826192431
 20
117.4597213716
 30
0.0
 11
88.8197554585
 21
117.4597213716
 31
0.0
  0
LINE
  5
15E
330
14C
100
AcDbEntity
  8
SLD-0
 62
     7
100
AcDbLine
 10
89.8197554585
 20
137.4597213716
 30
0.0
 11
89.8197554585
 21
158.3711826356
 31
0.0
  0
LINE
  5
15F
330
14C
100
AcDbEntity
  8
SLD-0
 62
     7
100
AcDbLine
 10
89.8197554585
 20
137.4597213716
 30
0.0
 11
89.8197554585
 21
117.4597213716
 31
0.0
  0
MTEXT
  5
160
330
14C
100
AcDbEntity
  8
SLD-0
 62
     7
100
AcDbMText
 10
85.0456547391
 20
147.14378377
 30
0.0
 40
3.5
 41
0.0
 71
     1
 72
     1
  1
%%c
  7
SLDTEXTSTYLE2
 11
-7.044197039909883E-15
 21
1.0
 31
0.0
 73
     1
 44
1.0
  0
MTEXT
  5
161
330
14C
100
AcDbEntity
  8
SLD-0
 62
     7
100
AcDbMText
 10
85.0456547391
 20
151.779576428
 30
0.0
 40
3.5
 41
0.0
 71
     1
 72
     1
  1
20
  7
SLDTEXTSTYLE2
 11
-7.044197039909883E-15
 21
1.0
 31
0.0
 73
     1
 44
1.0
  0
ENDBLK
  5
158
330
14C
100
AcDbEntity
  8
0
100
AcDbBlockEnd
  0
BLOCK
  5
16E
330
163
100
AcDbEntity
  8
0
100
AcDbBlockBegin
  2
*D10
 70
     1
 71
     0
 10
0.0
 20
0.0
 30
0.0
  3
*D10
  1

  0
LINE
  5
171
330
163
100
AcDbEntity
  8
SLD-0
 62
     7
100
AcDbLine
 10
158.2826192431
 20
114.9597213716
 30
0.0
 11
176.6205734038
 21
114.9597213716
 31
0.0
  0
LINE
  5
172
330
163
100
AcDbEntity
  8
SLD-0
 62
     7
100
AcDbLine
 10
148.7826192431
 20
127.4597213716
 30
0.0
 11
176.6205734038
 21
127.4597213716
 31
0.0
  0
LINE
  5
173
330
163
100
AcDbEntity
  8
SLD-0
 62
     7
100
AcDbLine
 10
175.6205734038
 20
114.9597213716
 30
0.0
 11
175.6205734038
 21
109.9597213716
 31
0.0
  0
LINE
  5
174
330
163
100
AcDbEntity
  8
SLD-0
 62
     7
100
AcDbLine
 10
175.6205734038
 20
114.9597213716
 30
0.0
 11
175.6205734038
 21
127.4597213716
 31
0.0
  0
LINE
  5
175
330
163
100
AcDbEntity
  8
SLD-0
 62
     7
100
AcDbLine
 10
175.6205734038
 20
127.4597213716
 30
0.0
 11
175.6205734038
 21
132.4597213716
 31
0.0
  0
LINE
  5
176
330
163
100
AcDbEntity
  8
SLD-0
 62
     7
100
AcDbLine
 10
174.8167264038
 20
111.9597213716
 30
0.0
 11
175.6205734038
 21
114.9597213716
 31
0.0
  0
LINE
  5
177
330
163
100
AcDbEntity
  8
SLD-0
 62
     7
100
AcDbLine
 10
175.6205734038
 20
114.9597213716
 30
0.0
 11
176.4244204038
 21
111.9597213716
 31
0.0
  0
LINE
  5
178
330
163
100
AcDbEntity
  8
SLD-0
 62
     7
100
AcDbLine
 10
175.6205734038
 20
114.9597213716
 30
0.0
 11
175.6205734038
 21
111.9597213716
 31
0.0
  0
LINE
  5
179
330
163
100
AcDbEntity
  8
SLD-0
 62
     7
100
AcDbLine
 10
176.4244204038
 20
130.4597213716
 30
0.0
 11
175.6205734038
 21
127.4597213716
 31
0.0
  0
LINE
  5
17A
330
163
100
AcDbEntity
  8
SLD-0
 62
     7
100
AcDbLine
 10
175.6205734038
 20
127.4597213716
 30
0.0
 11
174.8167264038
 21
130.4597213716
 31
0.0
  0
LINE
  5
17B
330
163
100
AcDbEntity
  8
SLD-0
 62
     7
100
AcDbLine
 10
175.6205734038
 20
127.4597213716
 30
0.0
 11
175.6205734038
 21
130.4597213716
 31
0.0
  0
MTEXT
  5
17C
330
163
100
AcDbEntity
  8
SLD-0
 62
     7
100
AcDbMText
 10
171.0938795914
 20
117.1368212525
 30
0.1
 40
3.5
 41
0.0
 71
     1
 72
     1
  1
12.5
  7
SLDTEXTSTYLE2
 11
6.123031769111886E-17
 21
1.0
 31
0.0
 73
     1
 44
1.0
  0
ENDBLK
  5
16F
330
163
100
AcDbEntity
  8
0
100
AcDbBlockEnd
  0
BLOCK
  5
18A
330
17E
100
AcDbEntity
  8
0
100
AcDbBlockBegin
  2
*D11
 70
     1
 71
     0
 10
0.0
 20
0.0
 30
0.0
  3
*D11
  1

  0
LINE
  5
18C
330
17E
100
AcDbEntity
  8
SLD-0
 62
     7
100
AcDbLine
 10
159.2826192431
 20
127.9597213716
 30
0.0
 11
167.9073687744
 21
127.9597213716
 31
0.0
  0
LINE
  5
18D
330
17E
100
AcDbEntity
  8
SLD-0
 62
     7
100
AcDbLine
 10
159.2826192431
 20
126.9597213716
 30
0.0
 11
167.9073687744
 21
126.9597213716
 31
0.0
  0
LINE
  5
18E
330
17E
100
AcDbEntity
  8
SLD-0
 62
     7
100
AcDbLine
 10
166.9073687744
 20
127.9597213716
 30
0.0
 11
166.9073687744
 21
138.8888016346
 31
0.0
  0
LINE
  5
18F
330
17E
100
AcDbEntity
  8
SLD-0
 62
     7
100
AcDbLine
 10
166.9073687744
 20
127.9597213716
 30
0.0
 11
166.9073687744
 21
126.9597213716
 31
0.0
  0
LINE
  5
190
330
17E
100
AcDbEntity
  8
SLD-0
 62
     7
100
AcDbLine
 10
166.9073687744
 20
126.9597213716
 30
0.0
 11
166.9073687744
 21
121.9597213716
 31
0.0
  0
LINE
  5
191
330
17E
100
AcDbEntity
  8
SLD-0
 62
     7
100
AcDbLine
 10
167.7112157744
 20
130.9597213716
 30
0.0
 11
166.9073687744
 21
127.9597213716
 31
0.0
  0
LINE
  5
192
330
17E
100
AcDbEntity
  8
SLD-0
 62
     7
100
AcDbLine
 10
166.9073687744
 20
127.9597213716
 30
0.0
 11
166.1035217744
 21
130.9597213716
 31
0.0
  0
LINE
  5
193
330
17E
100
AcDbEntity
  8
SLD-0
 62
     7
100
AcDbLine
 10
166.9073687744
 20
127.9597213716
 30
0.0
 11
166.9073687744
 21
130.9597213716
 31
0.0
  0
LINE
  5
194
330
17E
100
AcDbEntity
  8
SLD-0
 62
     7
100
AcDbLine
 10
166.1035217744
 20
123.9597213716
 30
0.0
 11
166.9073687744
 21
126.9597213716
 31
0.0
  0
LINE
  5
195
330
17E
100
AcDbEntity
  8
SLD-0
 62
     7
100
AcDbLine
 10
166.9073687744
 20
126.9597213716
 30
0.0
 11
167.7112157744
 21
123.9597213716
 31
0.0
  0
LINE
  5
196
330
17E
100
AcDbEntity
  8
SLD-0
 62
     7
100
AcDbLine
 10
166.9073687744
 20
126.9597213716
 30
0.0
 11
166.9073687744
 21
123.9597213716
 31
0.0
  0
MTEXT
  5
197
330
17E
100
AcDbEntity
  8
SLD-0
 62
     7
100
AcDbMText
 10
162.380674962
 20
135.264851575
 30
0.1
 40
3.5
 41
0.0
 71
     1
 72
     1
  1
1
  7
SLDTEXTSTYLE2
 11
6.123031769111886E-17
 21
1.0
 31
0.0
 73
     1
 44
1.0
  0
ENDBLK
  5
18B
330
17E
100
AcDbEntity
  8
0
100
AcDbBlockEnd
  0
BLOCK
  5
1A0
330
199
100
AcDbEntity
  8
0
100
AcDbBlockBegin
  2
*D12
 70
     1
 71
     0
 10
0.0
 20
0.0
 30
0.0
  3
*D12
  1

  0
LINE
  5
1A3
330
199
100
AcDbEntity
  8
SLD-0
 62
     7
100
AcDbLine
 10
136.9520366466
 20
135.7941706956
 30
0.0
 11
140.0368112162
 21
151.1946914236
 31
0.0
  0
LINE
  5
1A4
330
199
100
AcDbEntity
  8
SLD-0
 62
     7
100
AcDbLine
 10
140.0368112162
 20
151.1946914236
 30
0.0
 11
159.0544616334
 21
151.1946914236
 31
0.0
  0
LINE
  5
1A5
330
199
100
AcDbEntity
  8
SLD-0
 62
     7
100
AcDbLine
 10
138.3294336226
 20
138.5778638486
 30
0.0
 11
136.9520366466
 21
135.7941706956
 31
0.0
  0
LINE
  5
1A6
330
199
100
AcDbEntity
  8
SLD-0
 62
     7
100
AcDbLine
 10
136.9520366466
 20
135.7941706956
 30
0.0
 11
136.7530519554
 21
138.8936182419
 31
0.0
  0
LINE
  5
1A7
330
199
100
AcDbEntity
  8
SLD-0
 62
     7
100
AcDbLine
 10
136.9520366466
 20
135.7941706956
 30
0.0
 11
137.541242789
 21
138.7357410452
 31
0.0
  0
MTEXT
  5
1A8
330
199
100
AcDbEntity
  8
SLD-0
 62
     7
100
AcDbMText
 10
143.2118112162
 20
155.7213852359
 30
0.1
 40
3.5
 41
0.0
 71
     1
 72
     1
  1
M
  7
SLDTEXTSTYLE2
 73
     1
 44
1.0
  0
MTEXT
  5
1A9
330
199
100
AcDbEntity
  8
SLD-0
 62
     7
100
AcDbMText
 10
145.2482612758
 20
155.7213852359
 30
0.1
 40
3.5
 41
0.0
 71
     1
 72
     1
  1
17
  7
SLDTEXTSTYLE2
 73
     1
 44
1.0
  0
MTEXT
  5
1AA
330
199
100
AcDbEntity
  8
SLD-0
 62
     7
100
AcDbMText
 10
149.321161395
 20
155.7213852359
 30
0.1
 40
3.5
 41
0.0
 71
     1
 72
     1
  1
 P=1
  7
SLDTEXTSTYLE2
 73
     1
 44
1.0
  0
ENDBLK
  5
1A1
330
199
100
AcDbEntity
  8
0
100
AcDbBlockEnd
  0
BLOCK
  5
1B6
330
1AC
100
AcDbEntity
  8
0
100
AcDbBlockBegin
  2
*D13
 70
     1
 71
     0
 10
0.0
 20
0.0
 30
0.0
  3
*D13
  1

  0
LINE
  5
1B8
330
1AC
100
AcDbEntity
  8
SLD-0
 62
     7
100
AcDbLine
 10
42.5665118854
 20
136.7512833475
 30
0.0
 11
42.5665118854
 21
150.1637148788
 31
0.0
  0
LINE
  5
1B9
330
1AC
100
AcDbEntity
  8
SLD-0
 62
     7
100
AcDbLine
 10
67.5665118854
 20
136.7512833475
 30
0.0
 11
67.5665118854
 21
150.1637148788
 31
0.0
  0
LINE
  5
1BA
330
1AC
100
AcDbEntity
  8
SLD-0
 62
     7
100
AcDbLine
 10
42.5665118854
 20
149.1637148788
 30
0.0
 11
67.5665118854
 21
149.1637148788
 31
0.0
  0
LINE
  5
1BB
330
1AC
100
AcDbEntity
  8
SLD-0
 62
     7
100
AcDbLine
 10
45.5665118854
 20
148.3598678788
 30
0.0
 11
42.5665118854
 21
149.1637148788
 31
0.0
  0
LINE
  5
1BC
330
1AC
100
AcDbEntity
  8
SLD-0
 62
     7
100
AcDbLine
 10
42.5665118854
 20
149.1637148788
 30
0.0
 11
45.5665118854
 21
149.9675618788
 31
0.0
  0
LINE
  5
1BD
330
1AC
100
AcDbEntity
  8
SLD-0
 62
     7
100
AcDbLine
 10
42.5665118854
 20
149.1637148788
 30
0.0
 11
45.5665118854
 21
149.1637148788
 31
0.0
  0
LINE
  5
1BE
330
1AC
100
AcDbEntity
  8
SLD-0
 62
     7
100
AcDbLine
 10
64.5665118854
 20
149.9675618788
 30
0.0
 11
67.5665118854
 21
149.1637148788
 31
0.0
  0
LINE
  5
1BF
330
1AC
100
AcDbEntity
  8
SLD-0
 62
     7
100
AcDbLine
 10
67.5665118854
 20
149.1637148788
 30
0.0
 11
64.5665118854
 21
148.3598678788
 31
0.0
  0
LINE
  5
1C0
330
1AC
100
AcDbEntity
  8
SLD-0
 62
     7
100
AcDbLine
 10
67.5665118854
 20
149.1637148788
 30
0.0
 11
64.5665118854
 21
149.1637148788
 31
0.0
  0
MTEXT
  5
1C1
330
1AC
100
AcDbEntity
  8
SLD-0
 62
     7
100
AcDbMText
 10
53.0300618258
 20
153.6904086912
 30
0.1
 40
3.5
 41
0.0
 71
     1
 72
     1
  1
25
  7
SLDTEXTSTYLE2
 73
     1
 44
1.0
  0
ENDBLK
  5
1B7
330
1AC
100
AcDbEntity
  8
0
100
AcDbBlockEnd
  0
BLOCK
  5
1CE
330
1C3
100
AcDbEntity
  8
0
100
AcDbBlockBegin
  2
*D14
 70
     1
 71
     0
 10
0.0
 20
0.0
 30
0.0
  3
*D14
  1

  0
LINE
  5
1D0
330
1C3
100
AcDbEntity
  8
SLD-0
 62
     7
100
AcDbLine
 10
45.7749499096
 20
139.9597213716
 30
0.0
 11
33.8122230744
 21
139.9597213716
 31
0.0
  0
LINE
  5
1D1
330
1C3
100
AcDbEntity
  8
SLD-0
 62
     7
100
AcDbLine
 10
45.7749499096
 20
114.9597213716
 30
0.0
 11
33.8122230744
 21
114.9597213716
 31
0.0
  0
LINE
  5
1D2
330
1C3
100
AcDbEntity
  8
SLD-0
 62
     7
100
AcDbLine
 10
34.8122230744
 20
139.9597213716
 30
0.0
 11
34.8122230744
 21
114.9597213716
 31
0.0
  0
LINE
  5
1D3
330
1C3
100
AcDbEntity
  8
SLD-0
 62
     7
100
AcDbLine
 10
34.0083760744
 20
136.9597213716
 30
0.0
 11
34.8122230744
 21
139.9597213716
 31
0.0
  0
LINE
  5
1D4
330
1C3
100
AcDbEntity
  8
SLD-0
 62
     7
100
AcDbLine
 10
34.8122230744
 20
139.9597213716
 30
0.0
 11
35.6160700744
 21
136.9597213716
 31
0.0
  0
LINE
  5
1D5
330
1C3
100
AcDbEntity
  8
SLD-0
 62
     7
100
AcDbLine
 10
34.8122230744
 20
139.9597213716
 30
0.0
 11
34.8122230744
 21
136.9597213716
 31
0.0
  0
LINE
  5
1D6
330
1C3
100
AcDbEntity
  8
SLD-0
 62
     7
100
AcDbLine
 10
35.6160700744
 20
117.9597213716
 30
0.0
 11
34.8122230744
 21
114.9597213716
 31
0.0
  0
LINE
  5
1D7
330
1C3
100
AcDbEntity
  8
SLD-0
 62
     7
100
AcDbLine
 10
34.8122230744
 20
114.9597213716
 30
0.0
 11
34.0083760744
 21
117.9597213716
 31
0.0
  0
LINE
  5
1D8
330
1C3
100
AcDbEntity
  8
SLD-0
 62
     7
100
AcDbLine
 10
34.8122230744
 20
114.9597213716
 30
0.0
 11
34.8122230744
 21
117.9597213716
 31
0.0
  0
MTEXT
  5
1D9
330
1C3
100
AcDbEntity
  8
SLD-0
 62
     7
100
AcDbMText
 10
30.285529262
 20
125.423271312
 30
0.1
 40
3.5
 41
0.0
 71
     1
 72
     1
  1
25
  7
SLDTEXTSTYLE2
 11
6.123031769111886E-17
 21
1.0
 31
0.0
 73
     1
 44
1.0
  0
ENDBLK
  5
1CF
330
1C3
100
AcDbEntity
  8
0
100
AcDbBlockEnd
  0
BLOCK
  5
1E2
330
1DB
100
AcDbEntity
  8
0
100
AcDbBlockBegin
  2
*D15
 70
     1
 71
     0
 10
0.0
 20
0.0
 30
0.0
  3
*D15
  1

  0
LINE
  5
1E4
330
1DB
100
AcDbEntity
  8
SLD-0
 62
     7
100
AcDbLine
 10
56.3082879451
 20
124.7287888903
 30
0.0
 11
66.7019187292
 21
101.8709606316
 31
0.0
  0
LINE
  5
1E5
330
1DB
100
AcDbEntity
  8
SLD-0
 62
     7
100
AcDbLine
 10
66.7019187292
 20
101.8709606316
 30
0.0
 11
83.6831190867
 21
101.8709606316
 31
0.0
  0
LINE
  5
1E6
330
1DB
100
AcDbEntity
  8
SLD-0
 62
     7
100
AcDbLine
 10
56.8183133773
 20
121.6651237555
 30
0.0
 11
56.3082879451
 21
124.7287888903
 31
0.0
  0
LINE
  5
1E7
330
1DB
100
AcDbEntity
  8
SLD-0
 62
     7
100
AcDbLine
 10
56.3082879451
 20
124.7287888903
 30
0.0
 11
58.2818146322
 21
122.3305890624
 31
0.0
  0
LINE
  5
1E8
330
1DB
100
AcDbEntity
  8
SLD-0
 62
     7
100
AcDbLine
 10
56.3082879451
 20
124.7287888903
 30
0.0
 11
57.5500640048
 21
121.997856409
 31
0.0
  0
MTEXT
  5
1E9
330
1DB
100
AcDbEntity
  8
SLD-0
 62
     7
100
AcDbMText
 10
69.8769187292
 20
106.3976544439
 30
0.1
 40
3.5
 41
0.0
 71
     1
 72
     1
  1
M
  7
SLDTEXTSTYLE2
 73
     1
 44
1.0
  0
MTEXT
  5
1EA
330
1DB
100
AcDbEntity
  8
SLD-0
 62
     7
100
AcDbMText
 10
71.9133687887
 20
106.3976544439
 30
0.1
 40
3.5
 41
0.0
 71
     1
 72
     1
  1
6
  7
SLDTEXTSTYLE2
 73
     1
 44
1.0
  0
MTEXT
  5
1EB
330
1DB
100
AcDbEntity
  8
SLD-0
 62
     7
100
AcDbMText
 10
73.9498188483
 20
106.3976544439
 30
0.1
 40
3.5
 41
0.0
 71
     1
 72
     1
  1
深12
  7
SLDTEXTSTYLE2
 73
     1
 44
1.0
  0
ENDBLK
  5
1E3
330
1DB
100
AcDbEntity
  8
0
100
AcDbBlockEnd
  0
BLOCK
  5
1F4
330
1ED
100
AcDbEntity
  8
0
100
AcDbBlockBegin
  2
*D16
 70
     1
 71
     0
 10
0.0
 20
0.0
 30
0.0
  3
*D16
  1

  0
ARC
  5
1F6
330
1ED
100
AcDbEntity
  8
SLD-0
 62
     7
100
AcDbCircle
 10
55.0665118854
 20
127.4597213716
 30
0.0
 40
15.00000000000001
100
AcDbArc
 50
8.8709850705
 51
29.7432349276
  0
ARC
  5
1F7
330
1ED
100
AcDbEntity
  8
SLD-0
 62
     7
100
AcDbCircle
 10
55.0665118854
 20
127.4597213716
 30
0.0
 40
15.0
100
AcDbArc
 50
60.2567650724
 51
196.4991347391
  0
LINE
  5
1F8
330
1ED
100
AcDbEntity
  8
SLD-0
 62
     7
100
AcDbLine
 10
69.7003894333
 20
130.753598709
 30
0.0
 11
81.8504083222
 21
133.4883948515
 31
0.0
  0
LINE
  5
1F9
330
1ED
100
AcDbEntity
  8
SLD-0
 62
     7
100
AcDbLine
 10
69.7003894333
 20
130.753598709
 30
0.0
 11
40.4326343376
 21
124.1658440343
 31
0.0
  0
LINE
  5
1FA
330
1ED
100
AcDbEntity
  8
SLD-0
 62
     7
100
AcDbLine
 10
43.5359280749
 20
124.0403929308
 30
0.0
 11
40.4326343376
 21
124.1658440343
 31
0.0
  0
LINE
  5
1FB
330
1ED
100
AcDbEntity
  8
SLD-0
 62
     7
100
AcDbLine
 10
40.4326343376
 20
124.1658440343
 30
0.0
 11
43.1828916194
 21
125.6088460728
 31
0.0
  0
LINE
  5
1FC
330
1ED
100
AcDbEntity
  8
SLD-0
 62
     7
100
AcDbLine
 10
40.4326343376
 20
124.1658440343
 30
0.0
 11
43.3594098472
 21
124.8246195018
 31
0.0
  0
LINE
  5
1FD
330
1ED
100
AcDbEntity
  8
SLD-0
 62
     7
100
AcDbLine
 10
66.597095696
 20
130.8790498125
 30
0.0
 11
69.7003894333
 21
130.753598709
 31
0.0
  0
LINE
  5
1FE
330
1ED
100
AcDbEntity
  8
SLD-0
 62
     7
100
AcDbLine
 10
69.7003894333
 20
130.753598709
 30
0.0
 11
66.9501321515
 21
129.3105966705
 31
0.0
  0
LINE
  5
1FF
330
1ED
100
AcDbEntity
  8
SLD-0
 62
     7
100
AcDbLine
 10
69.7003894333
 20
130.753598709
 30
0.0
 11
66.7736139237
 21
130.0948232415
 31
0.0
  0
MTEXT
  5
200
330
1ED
100
AcDbEntity
  8
SLD-0
 62
     7
100
AcDbMText
 10
69.8560626869
 20
135.4196912235
 30
0.1
 40
3.5
 41
0.0
 71
     1
 72
     1
  1
%%c
  7
SLDTEXTSTYLE2
 11
0.9755918365222853
 21
0.2195918225050161
 31
0.0
 73
     1
 44
1.0
  0
MTEXT
  5
201
330
1ED
100
AcDbEntity
  8
SLD-0
 62
     7
100
AcDbMText
 10
75.3360485452
 20
136.6531579632
 30
0.1
 40
3.5
 41
0.0
 71
     1
 72
     1
  1
30
  7
SLDTEXTSTYLE2
 11
0.9755918365222853
 21
0.2195918225050161
 31
0.0
 73
     1
 44
1.0
  0
ENDBLK
  5
1F5
330
1ED
100
AcDbEntity
  8
0
100
AcDbBlockEnd
  0
BLOCK
  5
20D
330
203
100
AcDbEntity
  8
0
100
AcDbBlockBegin
  2
*D17
 70
     1
 71
     0
 10
0.0
 20
0.0
 30
0.0
  3
*D17
  1

  0
LINE
  5
20F
330
203
100
AcDbEntity
  8
SLD-0
 62
     7
100
AcDbLine
 10
122.2826192431
 20
183.9431478461
 30
0.0
 11
122.2826192431
 21
214.6572306128
 31
0.0
  0
LINE
  5
210
330
203
100
AcDbEntity
  8
SLD-0
 62
     7
100
AcDbLine
 10
102.2826192431
 20
183.9431478461
 30
0.0
 11
102.2826192431
 21
214.6572306128
 31
0.0
  0
LINE
  5
211
330
203
100
AcDbEntity
  8
SLD-0
 62
     7
100
AcDbLine
 10
122.2826192431
 20
213.6572306128
 30
0.0
 11
102.2826192431
 21
213.6572306128
 31
0.0
  0
LINE
  5
212
330
203
100
AcDbEntity
  8
SLD-0
 62
     7
100
AcDbLine
 10
119.2826192431
 20
214.4610776128
 30
0.0
 11
122.2826192431
 21
213.6572306128
 31
0.0
  0
LINE
  5
213
330
203
100
AcDbEntity
  8
SLD-0
 62
     7
100
AcDbLine
 10
122.2826192431
 20
213.6572306128
 30
0.0
 11
119.2826192431
 21
212.8533836128
 31
0.0
  0
LINE
  5
214
330
203
100
AcDbEntity
  8
SLD-0
 62
     7
100
AcDbLine
 10
122.2826192431
 20
213.6572306128
 30
0.0
 11
119.2826192431
 21
213.6572306128
 31
0.0
  0
LINE
  5
215
330
203
100
AcDbEntity
  8
SLD-0
 62
     7
100
AcDbLine
 10
105.2826192431
 20
212.8533836128
 30
0.0
 11
102.2826192431
 21
213.6572306128
 31
0.0
  0
LINE
  5
216
330
203
100
AcDbEntity
  8
SLD-0
 62
     7
100
AcDbLine
 10
102.2826192431
 20
213.6572306128
 30
0.0
 11
105.2826192431
 21
214.4610776128
 31
0.0
  0
LINE
  5
217
330
203
100
AcDbEntity
  8
SLD-0
 62
     7
100
AcDbLine
 10
102.2826192431
 20
213.6572306128
 30
0.0
 11
105.2826192431
 21
213.6572306128
 31
0.0
  0
MTEXT
  5
218
330
203
100
AcDbEntity
  8
SLD-0
 62
     7
100
AcDbMText
 10
110.2461691835
 20
218.1839244251
 30
0.1
 40
3.5
 41
0.0
 71
     1
 72
     1
  1
20
  7
SLDTEXTSTYLE2
 73
     1
 44
1.0
  0
ENDBLK
  5
20E
330
203
100
AcDbEntity
  8
0
100
AcDbBlockEnd
  0
BLOCK
  5
224
330
21A
100
AcDbEntity
  8
0
100
AcDbBlockBegin
  2
*D18
 70
     1
 71
     0
 10
0.0
 20
0.0
 30
0.0
  3
*D18
  1

  0
LINE
  5
226
330
21A
100
AcDbEntity
  8
SLD-0
 62
     7
100
AcDbLine
 10
102.2826192431
 20
202.9431478461
 30
0.0
 11
102.2826192431
 21
229.0340942928
 31
0.0
  0
LINE
  5
227
330
21A
100
AcDbEntity
  8
SLD-0
 62
     7
100
AcDbLine
 10
158.2826192431
 20
206.4431478461
 30
0.0
 11
158.2826192431
 21
229.0340942928
 31
0.0
  0
LINE
  5
228
330
21A
100
AcDbEntity
  8
SLD-0
 62
     7
100
AcDbLine
 10
102.2826192431
 20
228.0340942928
 30
0.0
 11
158.2826192431
 21
228.0340942928
 31
0.0
  0
LINE
  5
229
330
21A
100
AcDbEntity
  8
SLD-0
 62
     7
100
AcDbLine
 10
105.2826192431
 20
227.2302472928
 30
0.0
 11
102.2826192431
 21
228.0340942928
 31
0.0
  0
LINE
  5
22A
330
21A
100
AcDbEntity
  8
SLD-0
 62
     7
100
AcDbLine
 10
102.2826192431
 20
228.0340942928
 30
0.0
 11
105.2826192431
 21
228.8379412928
 31
0.0
  0
LINE
  5
22B
330
21A
100
AcDbEntity
  8
SLD-0
 62
     7
100
AcDbLine
 10
102.2826192431
 20
228.0340942928
 30
0.0
 11
105.2826192431
 21
228.0340942928
 31
0.0
  0
LINE
  5
22C
330
21A
100
AcDbEntity
  8
SLD-0
 62
     7
100
AcDbLine
 10
155.2826192431
 20
228.8379412928
 30
0.0
 11
158.2826192431
 21
228.0340942928
 31
0.0
  0
LINE
  5
22D
330
21A
100
AcDbEntity
  8
SLD-0
 62
     7
100
AcDbLine
 10
158.2826192431
 20
228.0340942928
 30
0.0
 11
155.2826192431
 21
227.2302472928
 31
0.0
  0
LINE
  5
22E
330
21A
100
AcDbEntity
  8
SLD-0
 62
     7
100
AcDbLine
 10
158.2826192431
 20
228.0340942928
 30
0.0
 11
155.2826192431
 21
228.0340942928
 31
0.0
  0
MTEXT
  5
22F
330
21A
100
AcDbEntity
  8
SLD-0
 62
     7
100
AcDbMText
 10
128.2461691835
 20
232.5607881051
 30
0.1
 40
3.5
 41
0.0
 71
     1
 72
     1
  1
56
  7
SLDTEXTSTYLE2
 73
     1
 44
1.0
  0
ENDBLK
  5
225
330
21A
100
AcDbEntity
  8
0
100
AcDbBlockEnd
  0
BLOCK
  5
23B
330
231
100
AcDbEntity
  8
0
100
AcDbBlockBegin
  2
*D19
 70
     1
 71
     0
 10
0.0
 20
0.0
 30
0.0
  3
*D19
  1

  0
LINE
  5
23D
330
231
100
AcDbEntity
  8
SLD-0
 62
     7
100
AcDbLine
 10
150.7826192431
 20
201.9431478461
 30
0.0
 11
150.7826192431
 21
220.7429750722
 31
0.0
  0
LINE
  5
23E
330
231
100
AcDbEntity
  8
SLD-0
 62
     7
100
AcDbLine
 10
102.2826192431
 20
202.9431478461
 30
0.0
 11
102.2826192431
 21
220.7429750722
 31
0.0
  0
LINE
  5
23F
330
231
100
AcDbEntity
  8
SLD-0
 62
     7
100
AcDbLine
 10
150.7826192431
 20
219.7429750722
 30
0.0
 11
102.2826192431
 21
219.7429750722
 31
0.0
  0
LINE
  5
240
330
231
100
AcDbEntity
  8
SLD-0
 62
     7
100
AcDbLine
 10
147.7826192431
 20
220.5468220722
 30
0.0
 11
150.7826192431
 21
219.7429750722
 31
0.0
  0
LINE
  5
241
330
231
100
AcDbEntity
  8
SLD-0
 62
     7
100
AcDbLine
 10
150.7826192431
 20
219.7429750722
 30
0.0
 11
147.7826192431
 21
218.9391280722
 31
0.0
  0
LINE
  5
242
330
231
100
AcDbEntity
  8
SLD-0
 62
     7
100
AcDbLine
 10
150.7826192431
 20
219.7429750722
 30
0.0
 11
147.7826192431
 21
219.7429750722
 31
0.0
  0
LINE
  5
243
330
231
100
AcDbEntity
  8
SLD-0
 62
     7
100
AcDbLine
 10
105.2826192431
 20
218.9391280722
 30
0.0
 11
102.2826192431
 21
219.7429750722
 31
0.0
  0
LINE
  5
244
330
231
100
AcDbEntity
  8
SLD-0
 62
     7
100
AcDbLine
 10
102.2826192431
 20
219.7429750722
 30
0.0
 11
105.2826192431
 21
220.5468220722
 31
0.0
  0
LINE
  5
245
330
231
100
AcDbEntity
  8
SLD-0
 62
     7
100
AcDbLine
 10
102.2826192431
 20
219.7429750722
 30
0.0
 11
105.2826192431
 21
219.7429750722
 31
0.0
  0
MTEXT
  5
246
330
231
100
AcDbEntity
  8
SLD-0
 62
     7
100
AcDbMText
 10
122.4597191239
 20
224.2696688845
 30
0.1
 40
3.5
 41
0.0
 71
     1
 72
     1
  1
48.5
  7
SLDTEXTSTYLE2
 73
     1
 44
1.0
  0
ENDBLK
  5
23C
330
231
100
AcDbEntity
  8
0
100
AcDbBlockEnd
  0
BLOCK
  5
24F
330
248
100
AcDbEntity
  8
0
100
AcDbBlockBegin
  2
*D20
 70
     1
 71
     0
 10
0.0
 20
0.0
 30
0.0
  3
*D20
  1

  0
LINE
  5
252
330
248
100
AcDbEntity
  8
SLD-0
 62
     7
100
AcDbLine
 10
150.0040814098
 20
189.7877748345
 30
0.0
 11
144.2106449304
 21
166.3072805941
 31
0.0
  0
LINE
  5
253
330
248
100
AcDbEntity
  8
SLD-0
 62
     7
100
AcDbLine
 10
144.2106449304
 20
166.3072805941
 30
0.0
 11
99.1235451688
 21
166.3072805941
 31
0.0
  0
LINE
  5
254
330
248
100
AcDbEntity
  8
SLD-0
 62
     7
100
AcDbLine
 10
148.5049889085
 20
187.0676844551
 30
0.0
 11
150.0040814098
 21
189.7877748345
 31
0.0
  0
LINE
  5
255
330
248
100
AcDbEntity
  8
SLD-0
 62
     7
100
AcDbLine
 10
150.0040814098
 20
189.7877748345
 30
0.0
 11
150.0658732957
 21
186.6825611925
 31
0.0
  0
LINE
  5
256
330
248
100
AcDbEntity
  8
SLD-0
 62
     7
100
AcDbLine
 10
150.0040814098
 20
189.7877748345
 30
0.0
 11
149.2854311021
 21
186.8751228238
 31
0.0
  0
MTEXT
  5
257
330
248
100
AcDbEntity
  8
SLD-0
 62
     7
100
AcDbMText
 10
98.9610451688
 20
170.8339744064
 30
0.1
 40
3.5
 41
0.0
 71
     1
 72
     1
  1
%%c
  7
SLDTEXTSTYLE2
 73
     1
 44
1.0
  0
MTEXT
  5
258
330
248
100
AcDbEntity
  8
SLD-0
 62
     7
100
AcDbMText
 10
104.5781338458
 20
170.8339744064
 30
0.1
 40
3.5
 41
0.0
 71
     1
 72
     1
  1
6.5
  7
SLDTEXTSTYLE2
 73
     1
 44
1.0
  0
MTEXT
  5
259
330
248
100
AcDbEntity
  8
SLD-0
 62
     7
100
AcDbMText
 10
110.6874840245
 20
170.8339744064
 30
0.1
 40
3.5
 41
0.0
 71
     1
 72
     1
  1
,
  7
SLDTEXTSTYLE2
 73
     1
 44
1.0
  0
MTEXT
  5
25A
330
248
100
AcDbEntity
  8
SLD-0
 62
     7
100
AcDbMText
 10
110.974289522
 20
170.8339744064
 30
0.1
 40
3.5
 41
0.0
 71
     1
 72
     1
  1
%%c
  7
SLDTEXTSTYLE2
 73
     1
 44
1.0
  0
MTEXT
  5
25B
330
248
100
AcDbEntity
  8
SLD-0
 62
     7
100
AcDbMText
 10
116.5942200371
 20
170.8339744064
 30
0.1
 40
3.5
 41
0.0
 71
     1
 72
     1
  1
11ｻﾞｸﾞﾘ深6.5
  7
SLDTEXTSTYLE2
 73
     1
 44
1.0
  0
ENDBLK
  5
250
330
248
100
AcDbEntity
  8
0
100
AcDbBlockEnd
  0
BLOCK
  5
262
330
261
100
AcDbEntity
  8
0
100
AcDbBlockBegin
  2
SW_NOTE_0
 70
     0
 71
     0
 10
0.0
 20
0.0
 30
0.0
  3
SW_NOTE_0
  1

  0
MTEXT
  5
264
330
261
100
AcDbEntity
  8
0
  6
Continuous
 62
     7
370
     0
100
AcDbMText
 10
0.0
 20
4.9260606061
 30
0.0
 40
4.2333333333
 41
0.0
 71
     1
 72
     1
  1
M17　ローテーション
  7
SLDTEXTSTYLE0
 73
     1
 44
1.0
  0
MTEXT
  5
265
330
261
100
AcDbEntity
  8
0
  6
Continuous
 62
     7
370
     0
100
AcDbMText
 10
5.6326817721
 20
-0.7183837702
 30
0.0
 40
4.2333333333
 41
0.0
 71
     1
 72
     1
  1
ブラケット　20Ａ
  7
SLDTEXTSTYLE0
 73
     1
 44
1.0
  0
ENDBLK
  5
263
330
261
100
AcDbEntity
  8
0
100
AcDbBlockEnd
  0
ENDSEC
  0
SECTION
  2
ENTITIES
  0
LINE
  5
65
330
1F
100
AcDbEntity
  8
SLD-0
100
AcDbLine
 10
152.4413279006
 20
112.2014611332
 30
0.0
 11
151.1599222438
 21
114.9597213716
 31
0.0
  0
LINE
  5
66
330
1F
100
AcDbEntity
  8
SLD-0
100
AcDbLine
 10
151.1599222438
 20
114.9597213716
 30
0.0
 11
153.2666336181
 21
112.7661473051
 31
0.0
  0
LINE
  5
67
330
1F
100
AcDbEntity
  8
SLD-0
100
AcDbLine
 10
153.2666336181
 20
112.7661473051
 30
0.0
 11
152.4413279006
 21
112.2014611332
 31
0.0
  0
LINE
  5
68
330
1F
100
AcDbEntity
  8
SLD-0
  6
Continuous
 62
     7
100
AcDbLine
 10
103.2826192431
 20
137.4597213716
 30
0.0
 11
102.2826192431
 21
136.4597213716
 31
0.0
  0
LINE
  5
69
330
1F
100
AcDbEntity
  8
SLD-0
  6
Continuous
 62
     7
100
AcDbLine
 10
102.2826192431
 20
118.4597213716
 30
0.0
 11
103.2826192431
 21
117.4597213716
 31
0.0
  0
LINE
  5
6A
330
1F
100
AcDbEntity
  8
SLD-0
  6
Continuous
 62
     7
100
AcDbLine
 10
122.2826192431
 20
137.4597211481
 30
0.0
 11
103.2826192431
 21
137.4597213716
 31
0.0
  0
LINE
  5
6B
330
1F
100
AcDbEntity
  8
SLD-0
  6
Continuous
 62
     7
100
AcDbLine
 10
103.2826192431
 20
117.4597213716
 30
0.0
 11
122.2826192431
 21
117.4597215952
 31
0.0
  0
LINE
  5
6C
330
1F
100
AcDbEntity
  8
SLD-0
  6
Continuous
 62
     7
100
AcDbLine
 10
158.2826192431
 20
139.9597213716
 30
0.0
 11
158.2826192431
 21
133.7644814781
 31
0.0
  0
LINE
  5
6D
330
1F
100
AcDbEntity
  8
SLD-0
  6
Continuous
 62
     7
100
AcDbLine
 10
158.2826192431
 20
133.7644814781
 30
0.0
 11
157.2826192431
 21
135.7512833475
 31
0.0
  0
LINE
  5
6E
330
1F
100
AcDbEntity
  8
SLD-0
  6
Continuous
 62
     7
100
AcDbLine
 10
157.2826192431
 20
135.7512833475
 30
0.0
 11
157.2826192431
 21
139.9597213716
 31
0.0
  0
LINE
  5
6F
330
1F
100
AcDbEntity
  8
SLD-0
  6
Continuous
 62
     7
100
AcDbLine
 10
157.2826192431
 20
139.9597213716
 30
0.0
 11
158.2826192431
 21
139.9597213716
 31
0.0
  0
LINE
  5
70
330
1F
100
AcDbEntity
  8
SLD-0
  6
Continuous
 62
     7
100
AcDbLine
 10
157.2826192431
 20
139.9597213716
 30
0.0
 11
122.2826192431
 21
139.9597213716
 31
0.0
  0
LINE
  5
71
330
1F
100
AcDbEntity
  8
SLD-0
  6
Continuous
 62
     7
100
AcDbLine
 10
157.2826192431
 20
135.7512833475
 30
0.0
 11
122.2826192431
 21
135.7512833475
 31
0.0
  0
LINE
  5
72
330
1F
100
AcDbEntity
  8
SLD-0
  6
Continuous
 62
     7
100
AcDbLine
 10
122.2826192431
 20
139.9597213716
 30
0.0
 11
122.2826192431
 21
135.7512833475
 31
0.0
  0
LINE
  5
73
330
1F
100
AcDbEntity
  8
SLD-0
  6
Continuous
 62
     7
100
AcDbLine
 10
158.2826192431
 20
133.7644814781
 30
0.0
 11
158.2826176934
 21
127.9597213479
 31
0.0
  0
LINE
  5
74
330
1F
100
AcDbEntity
  8
SLD-0
  6
Continuous
 62
     7
100
AcDbLine
 10
158.2826176934
 20
127.9597213479
 30
0.0
 11
143.0164733922
 21
127.9597213479
 31
0.0
  0
LINE
  5
75
330
1F
100
AcDbEntity
  8
SLD-0
  6
Continuous
 62
     7
100
AcDbLine
 10
143.0164733922
 20
126.9597213479
 30
0.0
 11
158.2826176934
 21
126.9597213479
 31
0.0
  0
LINE
  5
76
330
1F
100
AcDbEntity
  8
SLD-0
  6
Continuous
 62
     7
100
AcDbLine
 10
158.2826176934
 20
126.9597213479
 30
0.0
 11
158.2826192431
 21
121.1549612652
 31
0.0
  0
LINE
  5
77
330
1F
100
AcDbEntity
  8
SLD-0
  6
Continuous
 62
     7
100
AcDbLine
 10
157.2826192431
 20
119.1681593958
 30
0.0
 11
158.2826192431
 21
121.1549612652
 31
0.0
  0
LINE
  5
78
330
1F
100
AcDbEntity
  8
SLD-0
  6
Continuous
 62
     7
100
AcDbLine
 10
157.2826192431
 20
119.1681593958
 30
0.0
 11
122.2826192431
 21
119.1681593958
 31
0.0
  0
LINE
  5
79
330
1F
100
AcDbEntity
  8
SLD-0
  6
Continuous
 62
     7
100
AcDbLine
 10
122.2826192431
 20
135.7512833475
 30
0.0
 11
122.2826192431
 21
119.1681593958
 31
0.0
  0
LINE
  5
7A
330
1F
100
AcDbEntity
  8
SLD-0
  6
Continuous
 62
     7
100
AcDbLine
 10
158.2826192431
 20
121.1549612652
 30
0.0
 11
158.2826192431
 21
114.9597213716
 31
0.0
  0
LINE
  5
7B
330
1F
100
AcDbEntity
  8
SLD-0
  6
Continuous
 62
     7
100
AcDbLine
 10
158.2826192431
 20
114.9597213716
 30
0.0
 11
157.2826192431
 21
114.9597213716
 31
0.0
  0
LINE
  5
7C
330
1F
100
AcDbEntity
  8
SLD-0
  6
Continuous
 62
     7
100
AcDbLine
 10
157.2826192431
 20
114.9597213716
 30
0.0
 11
157.2826192431
 21
119.1681593958
 31
0.0
  0
LINE
  5
7D
330
1F
100
AcDbEntity
  8
SLD-0
  6
Continuous
 62
     7
100
AcDbLine
 10
157.2826192431
 20
114.9597213716
 30
0.0
 11
122.2826192431
 21
114.9597213716
 31
0.0
  0
LINE
  5
7E
330
1F
100
AcDbEntity
  8
SLD-0
  6
Continuous
 62
     7
100
AcDbLine
 10
122.2826192431
 20
119.1681593958
 30
0.0
 11
122.2826192431
 21
114.9597213716
 31
0.0
  0
LINE
  5
7F
330
1F
100
AcDbEntity
  8
SLD-0
  6
Continuous
 62
     7
100
AcDbLine
 10
102.2826192431
 20
127.4597213716
 30
0.0
 11
102.2826192431
 21
136.4597213716
 31
0.0
  0
LINE
  5
80
330
1F
100
AcDbEntity
  8
SLD-0
  6
Continuous
 62
     7
100
AcDbLine
 10
102.2826192431
 20
118.4597213716
 30
0.0
 11
102.2826192431
 21
127.4597213716
 31
0.0
  0
LINE
  5
81
330
1F
100
AcDbEntity
  8
SLD-0
  6
Continuous
 62
     7
100
AcDbLine
 10
103.2826192431
 20
127.4597213716
 30
0.0
 11
103.2826192431
 21
117.4597213716
 31
0.0
  0
LINE
  5
82
330
1F
100
AcDbEntity
  8
SLD-0
  6
Continuous
 62
     7
100
AcDbLine
 10
103.2826192431
 20
137.4597213716
 30
0.0
 11
103.2826192431
 21
127.4597213716
 31
0.0
  0
LINE
  5
83
330
1F
100
AcDbEntity
  8
SLD-0
  6
HIDDEN
 62
     7
100
AcDbLine
 10
150.7826192431
 20
133.4597213716
 30
0.0
 11
156.2826192431
 21
133.4597213716
 31
0.0
  0
LINE
  5
84
330
1F
100
AcDbEntity
  8
SLD-0
  6
HIDDEN
 62
     7
100
AcDbLine
 10
145.2826192431
 20
133.4597213716
 30
0.0
 11
150.7826192431
 21
133.4597213716
 31
0.0
  0
LINE
  5
85
330
1F
100
AcDbEntity
  8
SLD-0
  6
HIDDEN
 62
     7
100
AcDbLine
 10
119.2826192431
 20
127.4597213716
 30
0.0
 11
119.2826192431
 21
129.9597213716
 31
0.0
  0
LINE
  5
86
330
1F
100
AcDbEntity
  8
SLD-0
  6
HIDDEN
 62
     7
100
AcDbLine
 10
119.2826192431
 20
124.9597213716
 30
0.0
 11
119.2826192431
 21
127.4597213716
 31
0.0
  0
LINE
  5
87
330
1F
100
AcDbEntity
  8
SLD-0
  6
HIDDEN
 62
     7
100
AcDbLine
 10
145.2826192431
 20
139.9597215579
 30
0.0
 11
145.2826192431
 21
133.4597213716
 31
0.0
  0
LINE
  5
88
330
1F
100
AcDbEntity
  8
SLD-0
  6
HIDDEN
 62
     7
100
AcDbLine
 10
156.2826192431
 20
133.4597213716
 30
0.0
 11
156.2826210909
 21
139.9597215579
 31
0.0
  0
LINE
  5
89
330
1F
100
AcDbEntity
  8
SLD-0
  6
HIDDEN
 62
     7
100
AcDbLine
 10
147.5326201223
 20
133.4597214238
 30
0.0
 11
147.5326201223
 21
127.9597213954
 31
0.0
  0
LINE
  5
8A
330
1F
100
AcDbEntity
  8
SLD-0
  6
HIDDEN
 62
     7
100
AcDbLine
 10
154.0326202564
 20
127.9597213954
 30
0.0
 11
154.0326202564
 21
133.4597214238
 31
0.0
  0
LINE
  5
8B
330
1F
100
AcDbEntity
  8
SLD-0
  6
HIDDEN
 62
     7
100
AcDbLine
 10
148.2826197796
 20
126.9597213479
 30
0.0
 11
148.2826197796
 21
114.9597211854
 31
0.0
  0
LINE
  5
8C
330
1F
100
AcDbEntity
  8
SLD-0
  6
HIDDEN
 62
     7
100
AcDbLine
 10
153.2826187365
 20
114.9597211854
 30
0.0
 11
153.2826187365
 21
126.9597213479
 31
0.0
  0
LINE
  5
8D
330
1F
100
AcDbEntity
  8
SLD-0
  6
HIDDEN
 62
     7
100
AcDbLine
 10
102.2826196901
 20
124.9597213716
 30
0.0
 11
119.2826192431
 21
124.9597213716
 31
0.0
  0
LINE
  5
8E
330
1F
100
AcDbEntity
  8
SLD-0
  6
HIDDEN
 62
     7
100
AcDbLine
 10
119.2826192431
 20
129.9597213716
 30
0.0
 11
102.2826196901
 21
129.9597213716
 31
0.0
  0
LINE
  5
8F
330
1F
100
AcDbEntity
  8
SLD-0
  6
HIDDEN
 62
     7
100
AcDbLine
 10
119.2826192431
 20
124.9597213716
 30
0.0
 11
120.7847708181
 21
127.4597213716
 31
0.0
  0
LINE
  5
90
330
1F
100
AcDbEntity
  8
SLD-0
  6
HIDDEN
 62
     7
100
AcDbLine
 10
120.7847708181
 20
127.4597213716
 30
0.0
 11
119.2826192431
 21
129.9597213716
 31
0.0
  0
LINE
  5
91
330
1F
100
AcDbEntity
  8
SLD-0
100
AcDbLine
 10
152.8539807594
 20
112.4838042192
 30
0.0
 11
159.5076213349
 21
102.7593096544
 31
0.0
  0
LINE
  5
92
330
1F
100
AcDbEntity
  8
SLD-0
100
AcDbLine
 10
159.5076213349
 20
102.7593096544
 30
0.0
 11
164.0805214541
 21
102.7593096544
 31
0.0
  0
LINE
  5
93
330
1F
100
AcDbEntity
  8
SLD-0
  6
HIDDEN
 62
     7
100
AcDbLine
 10
114.2826188631
 20
130.4597213977
 30
0.0
 11
102.2826196901
 21
130.4597213977
 31
0.0
  0
LINE
  5
94
330
1F
100
AcDbEntity
  8
SLD-0
  6
HIDDEN
 62
     7
100
AcDbLine
 10
102.2826196901
 20
124.4597213456
 30
0.0
 11
114.2826188631
 21
124.4597213456
 31
0.0
  0
LINE
  5
95
330
1F
100
AcDbEntity
  8
SLD-0
  6
HIDDEN
 62
     7
100
AcDbLine
 10
114.2826188631
 20
130.4597213977
 30
0.0
 11
114.2826188631
 21
130.4262138085
 31
0.0
  0
LINE
  5
96
330
1F
100
AcDbEntity
  8
SLD-0
  6
HIDDEN
 62
     7
100
AcDbLine
 10
114.2826188631
 20
130.4262138085
 30
0.0
 11
114.2826188631
 21
124.4597213456
 31
0.0
  0
LINE
  5
97
330
1F
100
AcDbEntity
  8
SLD-0
  6
HIDDEN
 62
     7
100
AcDbLine
 10
153.7826197498
 20
114.9597211854
 30
0.0
 11
153.7826197498
 21
126.9597213479
 31
0.0
  0
LINE
  5
98
330
1F
100
AcDbEntity
  8
SLD-0
  6
HIDDEN
 62
     7
100
AcDbLine
 10
147.7826187663
 20
126.9597213479
 30
0.0
 11
147.7826187663
 21
114.9597211854
 31
0.0
  0
LINE
  5
99
330
1F
100
AcDbEntity
  8
SLD-0
 62
     7
100
AcDbLine
 10
137.153448192
 20
135.7512834595
 30
0.0
 11
137.9084537081
 21
135.5439654664
 31
0.0
  0
LINE
  5
9A
330
1F
100
AcDbEntity
  8
SLD-0
 62
     7
100
AcDbLine
 10
137.9084537081
 20
135.5439654664
 30
0.0
 11
138.6411791943
 21
135.2680551001
 31
0.0
  0
LINE
  5
9B
330
1F
100
AcDbEntity
  8
SLD-0
 62
     7
100
AcDbLine
 10
138.6411791943
 20
135.2680551001
 30
0.0
 11
139.345409935
 21
134.9258941711
 31
0.0
  0
LINE
  5
9C
330
1F
100
AcDbEntity
  8
SLD-0
 62
     7
100
AcDbLine
 10
139.345409935
 20
134.9258941711
 30
0.0
 11
140.0151687019
 21
134.5203856119
 31
0.0
  0
LINE
  5
9D
330
1F
100
AcDbEntity
  8
SLD-0
 62
     7
100
AcDbLine
 10
140.0151687019
 20
134.5203856119
 30
0.0
 11
140.6447725646
 21
134.0549701938
 31
0.0
  0
LINE
  5
9E
330
1F
100
AcDbEntity
  8
SLD-0
 62
     7
100
AcDbLine
 10
140.6447725646
 20
134.0549701938
 30
0.0
 11
141.2288813196
 21
133.5335962587
 31
0.0
  0
LINE
  5
9F
330
1F
100
AcDbEntity
  8
SLD-0
 62
     7
100
AcDbLine
 10
141.2288813196
 20
133.5335962587
 30
0.0
 11
141.7625384681
 21
132.9606880547
 31
0.0
  0
LINE
  5
A0
330
1F
100
AcDbEntity
  8
SLD-0
 62
     7
100
AcDbLine
 10
141.7625384681
 20
132.9606880547
 30
0.0
 11
142.2412159197
 21
132.3411061541
 31
0.0
  0
LINE
  5
A1
330
1F
100
AcDbEntity
  8
SLD-0
 62
     7
100
AcDbLine
 10
142.2412159197
 20
132.3411061541
 30
0.0
 11
142.660853108
 21
131.680107873
 31
0.0
  0
LINE
  5
A2
330
1F
100
AcDbEntity
  8
SLD-0
 62
     7
100
AcDbLine
 10
142.660853108
 20
131.680107873
 30
0.0
 11
143.0178886555
 21
130.9833009374
 31
0.0
  0
LINE
  5
A3
330
1F
100
AcDbEntity
  8
SLD-0
 62
     7
100
AcDbLine
 10
143.0178886555
 20
130.9833009374
 30
0.0
 11
143.3092920385
 21
130.2565976159
 31
0.0
  0
LINE
  5
A4
330
1F
100
AcDbEntity
  8
SLD-0
 62
     7
100
AcDbLine
 10
143.3092920385
 20
130.2565976159
 30
0.0
 11
143.5325933896
 21
129.5061639623
 31
0.0
  0
LINE
  5
A5
330
1F
100
AcDbEntity
  8
SLD-0
 62
     7
100
AcDbLine
 10
143.5325933896
 20
129.5061639623
 30
0.0
 11
143.685896536
 21
128.7383670799
 31
0.0
  0
LINE
  5
A6
330
1F
100
AcDbEntity
  8
SLD-0
 62
     7
100
AcDbLine
 10
143.685896536
 20
128.7383670799
 30
0.0
 11
143.7679013513
 21
127.9597213954
 31
0.0
  0
LINE
  5
A7
330
1F
100
AcDbEntity
  8
SLD-0
 62
     7
100
AcDbLine
 10
133.4117908306
 20
119.1681592838
 30
0.0
 11
132.6747319005
 21
119.3696704806
 31
0.0
  0
LINE
  5
A8
330
1F
100
AcDbEntity
  8
SLD-0
 62
     7
100
AcDbLine
 10
132.6747319005
 20
119.3696704806
 30
0.0
 11
131.958747869
 21
119.6365586595
 31
0.0
  0
LINE
  5
A9
330
1F
100
AcDbEntity
  8
SLD-0
 62
     7
100
AcDbLine
 10
131.958747869
 20
119.6365586595
 30
0.0
 11
131.2696241118
 21
119.9666664117
 31
0.0
  0
LINE
  5
AA
330
1F
100
AcDbEntity
  8
SLD-0
 62
     7
100
AcDbLine
 10
131.2696241118
 20
119.9666664117
 30
0.0
 11
130.612929938
 21
120.3573268951
 31
0.0
  0
LINE
  5
AB
330
1F
100
AcDbEntity
  8
SLD-0
 62
     7
100
AcDbLine
 10
130.612929938
 20
120.3573268951
 30
0.0
 11
129.9939729549
 21
120.8053829261
 31
0.0
  0
LINE
  5
AC
330
1F
100
AcDbEntity
  8
SLD-0
 62
     7
100
AcDbLine
 10
129.9939729549
 20
120.8053829261
 30
0.0
 11
129.4177538991
 21
121.3072135226
 31
0.0
  0
LINE
  5
AD
330
1F
100
AcDbEntity
  8
SLD-0
 62
     7
100
AcDbLine
 10
129.4177538991
 20
121.3072135226
 30
0.0
 11
128.8889293835
 21
121.8587632404
 31
0.0
  0
LINE
  5
AE
330
1F
100
AcDbEntity
  8
SLD-0
 62
     7
100
AcDbLine
 10
128.8889293835
 20
121.8587632404
 30
0.0
 11
128.4117732473
 21
122.4555752353
 31
0.0
  0
LINE
  5
AF
330
1F
100
AcDbEntity
  8
SLD-0
 62
     7
100
AcDbLine
 10
128.4117732473
 20
122.4555752353
 30
0.0
 11
127.9901416317
 21
123.0928266534
 31
0.0
  0
LINE
  5
B0
330
1F
100
AcDbEntity
  8
SLD-0
 62
     7
100
AcDbLine
 10
127.9901416317
 20
123.0928266534
 30
0.0
 11
127.6274413146
 21
123.765367048
 31
0.0
  0
LINE
  5
B1
330
1F
100
AcDbEntity
  8
SLD-0
 62
     7
100
AcDbLine
 10
127.6274413146
 20
123.765367048
 30
0.0
 11
127.3266036339
 21
124.4677623847
 31
0.0
  0
LINE
  5
B2
330
1F
100
AcDbEntity
  8
SLD-0
 62
     7
100
AcDbLine
 10
127.3266036339
 20
124.4677623847
 30
0.0
 11
127.0900598072
 21
125.1943360196
 31
0.0
  0
LINE
  5
B3
330
1F
100
AcDbEntity
  8
SLD-0
 62
     7
100
AcDbLine
 10
127.0900598072
 20
125.1943360196
 30
0.0
 11
126.9197209083
 21
125.9392166623
 31
0.0
  0
LINE
  5
B4
330
1F
100
AcDbEntity
  8
SLD-0
 62
     7
100
AcDbLine
 10
126.9197209083
 20
125.9392166623
 30
0.0
 11
126.8169638976
 21
126.6963847094
 31
0.0
  0
LINE
  5
B5
330
1F
100
AcDbEntity
  8
SLD-0
 62
     7
100
AcDbLine
 10
126.8169638976
 20
126.6963847094
 30
0.0
 11
126.7826190494
 21
127.4597213716
 31
0.0
  0
LINE
  5
B6
330
1F
100
AcDbEntity
  8
SLD-0
 62
     7
100
AcDbLine
 10
126.7826190494
 20
127.4597213716
 30
0.0
 11
126.8169638976
 21
128.2230580338
 31
0.0
  0
LINE
  5
B7
330
1F
100
AcDbEntity
  8
SLD-0
 62
     7
100
AcDbLine
 10
126.8169638976
 20
128.2230580338
 30
0.0
 11
126.9197209083
 21
128.980226081
 31
0.0
  0
LINE
  5
B8
330
1F
100
AcDbEntity
  8
SLD-0
 62
     7
100
AcDbLine
 10
126.9197209083
 20
128.980226081
 30
0.0
 11
127.0900598072
 21
129.7251067237
 31
0.0
  0
LINE
  5
B9
330
1F
100
AcDbEntity
  8
SLD-0
 62
     7
100
AcDbLine
 10
127.0900598072
 20
129.7251067237
 30
0.0
 11
127.3266036339
 21
130.4516803586
 31
0.0
  0
LINE
  5
BA
330
1F
100
AcDbEntity
  8
SLD-0
 62
     7
100
AcDbLine
 10
127.3266036339
 20
130.4516803586
 30
0.0
 11
127.6274413146
 21
131.1540756953
 31
0.0
  0
LINE
  5
BB
330
1F
100
AcDbEntity
  8
SLD-0
 62
     7
100
AcDbLine
 10
127.6274413146
 20
131.1540756953
 30
0.0
 11
127.9901416317
 21
131.8266160899
 31
0.0
  0
LINE
  5
BC
330
1F
100
AcDbEntity
  8
SLD-0
 62
     7
100
AcDbLine
 10
127.9901416317
 20
131.8266160899
 30
0.0
 11
128.4117732473
 21
132.463867508
 31
0.0
  0
LINE
  5
BD
330
1F
100
AcDbEntity
  8
SLD-0
 62
     7
100
AcDbLine
 10
128.4117732473
 20
132.463867508
 30
0.0
 11
128.8889293835
 21
133.0606795029
 31
0.0
  0
LINE
  5
BE
330
1F
100
AcDbEntity
  8
SLD-0
 62
     7
100
AcDbLine
 10
128.8889293835
 20
133.0606795029
 30
0.0
 11
129.4177538991
 21
133.6122292207
 31
0.0
  0
LINE
  5
BF
330
1F
100
AcDbEntity
  8
SLD-0
 62
     7
100
AcDbLine
 10
129.4177538991
 20
133.6122292207
 30
0.0
 11
129.9939729549
 21
134.1140598172
 31
0.0
  0
LINE
  5
C0
330
1F
100
AcDbEntity
  8
SLD-0
 62
     7
100
AcDbLine
 10
129.9939729549
 20
134.1140598172
 30
0.0
 11
130.612929938
 21
134.5621158482
 31
0.0
  0
LINE
  5
C1
330
1F
100
AcDbEntity
  8
SLD-0
 62
     7
100
AcDbLine
 10
130.612929938
 20
134.5621158482
 30
0.0
 11
131.2696241118
 21
134.9527763316
 31
0.0
  0
LINE
  5
C2
330
1F
100
AcDbEntity
  8
SLD-0
 62
     7
100
AcDbLine
 10
131.2696241118
 20
134.9527763316
 30
0.0
 11
131.958747869
 21
135.2828840838
 31
0.0
  0
LINE
  5
C3
330
1F
100
AcDbEntity
  8
SLD-0
 62
     7
100
AcDbLine
 10
131.958747869
 20
135.2828840838
 30
0.0
 11
132.6747319005
 21
135.5497722627
 31
0.0
  0
LINE
  5
C4
330
1F
100
AcDbEntity
  8
SLD-0
 62
     7
100
AcDbLine
 10
132.6747319005
 20
135.5497722627
 30
0.0
 11
133.4117908306
 21
135.7512834595
 31
0.0
  0
LINE
  5
C5
330
1F
100
AcDbEntity
  8
SLD-0
 62
     7
100
AcDbLine
 10
143.7679013513
 20
126.9597213479
 30
0.0
 11
143.685896536
 21
126.1810756634
 31
0.0
  0
LINE
  5
C6
330
1F
100
AcDbEntity
  8
SLD-0
 62
     7
100
AcDbLine
 10
143.685896536
 20
126.1810756634
 30
0.0
 11
143.5325933896
 21
125.413278781
 31
0.0
  0
LINE
  5
C7
330
1F
100
AcDbEntity
  8
SLD-0
 62
     7
100
AcDbLine
 10
143.5325933896
 20
125.413278781
 30
0.0
 11
143.3092920385
 21
124.6628451274
 31
0.0
  0
LINE
  5
C8
330
1F
100
AcDbEntity
  8
SLD-0
 62
     7
100
AcDbLine
 10
143.3092920385
 20
124.6628451274
 30
0.0
 11
143.0178886555
 21
123.9361418058
 31
0.0
  0
LINE
  5
C9
330
1F
100
AcDbEntity
  8
SLD-0
 62
     7
100
AcDbLine
 10
143.0178886555
 20
123.9361418058
 30
0.0
 11
142.660853108
 21
123.2393348702
 31
0.0
  0
LINE
  5
CA
330
1F
100
AcDbEntity
  8
SLD-0
 62
     7
100
AcDbLine
 10
142.660853108
 20
123.2393348702
 30
0.0
 11
142.2412159197
 21
122.5783365891
 31
0.0
  0
LINE
  5
CB
330
1F
100
AcDbEntity
  8
SLD-0
 62
     7
100
AcDbLine
 10
142.2412159197
 20
122.5783365891
 30
0.0
 11
141.7625384681
 21
121.9587546886
 31
0.0
  0
LINE
  5
CC
330
1F
100
AcDbEntity
  8
SLD-0
 62
     7
100
AcDbLine
 10
141.7625384681
 20
121.9587546886
 30
0.0
 11
141.2288813196
 21
121.3858464846
 31
0.0
  0
LINE
  5
CD
330
1F
100
AcDbEntity
  8
SLD-0
 62
     7
100
AcDbLine
 10
141.2288813196
 20
121.3858464846
 30
0.0
 11
140.6447725646
 21
120.8644725495
 31
0.0
  0
LINE
  5
CE
330
1F
100
AcDbEntity
  8
SLD-0
 62
     7
100
AcDbLine
 10
140.6447725646
 20
120.8644725495
 30
0.0
 11
140.0151687019
 21
120.3990571314
 31
0.0
  0
LINE
  5
CF
330
1F
100
AcDbEntity
  8
SLD-0
 62
     7
100
AcDbLine
 10
140.0151687019
 20
120.3990571314
 30
0.0
 11
139.345409935
 21
119.9935485722
 31
0.0
  0
LINE
  5
D0
330
1F
100
AcDbEntity
  8
SLD-0
 62
     7
100
AcDbLine
 10
139.345409935
 20
119.9935485722
 30
0.0
 11
138.6411791943
 21
119.6513876432
 31
0.0
  0
LINE
  5
D1
330
1F
100
AcDbEntity
  8
SLD-0
 62
     7
100
AcDbLine
 10
138.6411791943
 20
119.6513876432
 30
0.0
 11
137.9084537081
 21
119.3754772769
 31
0.0
  0
LINE
  5
D2
330
1F
100
AcDbEntity
  8
SLD-0
 62
     7
100
AcDbLine
 10
137.9084537081
 20
119.3754772769
 30
0.0
 11
137.153448192
 21
119.1681592838
 31
0.0
  0
LINE
  5
D3
330
1F
100
AcDbEntity
  8
SLD-0
 62
     7
100
AcDbLine
 10
137.153448192
 20
135.7512834595
 30
0.0
 11
135.9846188031
 21
135.9306831957
 31
0.0
  0
LINE
  5
D4
330
1F
100
AcDbEntity
  8
SLD-0
 62
     7
100
AcDbLine
 10
135.9846188031
 20
135.9306831957
 30
0.0
 11
134.7615035526
 21
135.9437319563
 31
0.0
  0
LINE
  5
D5
330
1F
100
AcDbEntity
  8
SLD-0
 62
     7
100
AcDbLine
 10
134.7615035526
 20
135.9437319563
 30
0.0
 11
134.0842150427
 21
135.8748168797
 31
0.0
  0
LINE
  5
D6
330
1F
100
AcDbEntity
  8
SLD-0
 62
     7
100
AcDbLine
 10
134.0842150427
 20
135.8748168797
 30
0.0
 11
133.4117908306
 21
135.7512834595
 31
0.0
  0
LINE
  5
D7
330
1F
100
AcDbEntity
  8
SLD-0
 62
     7
100
AcDbLine
 10
133.4117908306
 20
119.1681592838
 30
0.0
 11
134.5806192882
 21
118.9887595476
 31
0.0
  0
LINE
  5
D8
330
1F
100
AcDbEntity
  8
SLD-0
 62
     7
100
AcDbLine
 10
134.5806192882
 20
118.9887595476
 30
0.0
 11
135.8037345387
 21
118.975710787
 31
0.0
  0
LINE
  5
D9
330
1F
100
AcDbEntity
  8
SLD-0
 62
     7
100
AcDbLine
 10
135.8037345387
 20
118.975710787
 30
0.0
 11
136.4810239799
 21
119.0446258635
 31
0.0
  0
LINE
  5
DA
330
1F
100
AcDbEntity
  8
SLD-0
 62
     7
100
AcDbLine
 10
136.4810239799
 20
119.0446258635
 30
0.0
 11
137.153448192
 21
119.1681592838
 31
0.0
  0
LINE
  5
DB
330
1F
100
AcDbEntity
  8
SLD-0
  6
CENTERX2
 62
     7
100
AcDbLine
 10
159.2826192431
 20
127.4597213716
 30
0.0
 11
122.2826192431
 21
127.4597213716
 31
0.0
  0
LINE
  5
DC
330
1F
100
AcDbEntity
  8
SLD-0
  6
CENTERX2
 62
     7
100
AcDbLine
 10
100.2826192431
 20
127.4597213716
 30
0.0
 11
122.2826192431
 21
127.4597213716
 31
0.0
  0
LINE
  5
DD
330
1F
100
AcDbEntity
  8
SLD-0
  6
CENTERX2
 62
     7
100
AcDbLine
 10
150.7826192431
 20
112.9597213716
 30
0.0
 11
150.7826192431
 21
141.9597213716
 31
0.0
  0
LINE
  5
DE
330
1F
100
AcDbEntity
  8
SLD-0
  6
Continuous
 62
     7
100
AcDbLine
 10
63.3580738613
 20
114.9597213716
 30
0.0
 11
46.7749499096
 21
114.9597213716
 31
0.0
  0
LINE
  5
DF
330
1F
100
AcDbEntity
  8
SLD-0
  6
Continuous
 62
     7
100
AcDbLine
 10
42.5665118854
 20
119.1681593958
 30
0.0
 11
42.5665118854
 21
135.7512833475
 31
0.0
  0
LINE
  5
E0
330
1F
100
AcDbEntity
  8
SLD-0
  6
Continuous
 62
     7
100
AcDbLine
 10
46.7749499095
 20
139.9597213716
 30
0.0
 11
63.3580738613
 21
139.9597213716
 31
0.0
  0
LINE
  5
E1
330
1F
100
AcDbEntity
  8
SLD-0
  6
Continuous
 62
     7
100
AcDbLine
 10
67.5665118854
 20
135.7512833475
 30
0.0
 11
67.5665118854
 21
119.1681593958
 31
0.0
  0
LINE
  5
E2
330
1F
100
AcDbEntity
  8
SLD-0
 62
     7
100
AcDbLine
 10
42.6925168496
 20
118.9597209097
 30
0.0
 11
42.7073043894
 21
118.9597209097
 31
0.0
  0
LINE
  5
E3
330
1F
100
AcDbEntity
  8
SLD-0
 62
     7
100
AcDbLine
 10
67.4257193815
 20
118.9597209097
 30
0.0
 11
67.4405069213
 21
118.9597209097
 31
0.0
  0
LINE
  5
E4
330
1F
100
AcDbEntity
  8
SLD-0
 62
     7
100
AcDbLine
 10
67.4405069213
 20
135.9597218336
 30
0.0
 11
67.4257193815
 21
135.9597218336
 31
0.0
  0
LINE
  5
E5
330
1F
100
AcDbEntity
  8
SLD-0
 62
     7
100
AcDbLine
 10
42.7073043894
 20
135.9597218336
 30
0.0
 11
42.6925168496
 21
135.9597218336
 31
0.0
  0
LINE
  5
E6
330
1F
100
AcDbEntity
  8
SLD-0
  6
Continuous
 62
     7
100
AcDbLine
 10
122.2826192431
 20
202.9431476226
 30
0.0
 11
103.2826192431
 21
202.9431478461
 31
0.0
  0
LINE
  5
E7
330
1F
100
AcDbEntity
  8
SLD-0
  6
Continuous
 62
     7
100
AcDbLine
 10
103.2826192431
 20
182.9431478461
 30
0.0
 11
122.2826192431
 21
182.9431480696
 31
0.0
  0
LINE
  5
E8
330
1F
100
AcDbEntity
  8
SLD-0
  6
Continuous
 62
     7
100
AcDbLine
 10
103.2826192431
 20
202.9431478461
 30
0.0
 11
102.2826192431
 21
201.9431478461
 31
0.0
  0
LINE
  5
E9
330
1F
100
AcDbEntity
  8
SLD-0
  6
Continuous
 62
     7
100
AcDbLine
 10
102.2826192431
 20
183.9431478461
 30
0.0
 11
103.2826192431
 21
182.9431478461
 31
0.0
  0
LINE
  5
EA
330
1F
100
AcDbEntity
  8
SLD-0
  6
Continuous
 62
     7
100
AcDbLine
 10
158.2826192431
 20
205.44314807
 30
0.0
 11
158.2826192431
 21
199.2479080645
 31
0.0
  0
LINE
  5
EB
330
1F
100
AcDbEntity
  8
SLD-0
  6
Continuous
 62
     7
100
AcDbLine
 10
158.2826192431
 20
199.2479080645
 30
0.0
 11
157.80334047
 21
200.2506415516
 31
0.0
  0
LINE
  5
EC
330
1F
100
AcDbEntity
  8
SLD-0
  6
Continuous
 62
     7
100
AcDbLine
 10
157.80334047
 20
200.2506415516
 30
0.0
 11
157.2826193921
 21
201.2347100459
 31
0.0
  0
LINE
  5
ED
330
1F
100
AcDbEntity
  8
SLD-0
  6
Continuous
 62
     7
100
AcDbLine
 10
157.2826193921
 20
201.2347100459
 30
0.0
 11
157.2826192431
 21
205.44314807
 31
0.0
  0
LINE
  5
EE
330
1F
100
AcDbEntity
  8
SLD-0
  6
Continuous
 62
     7
100
AcDbLine
 10
157.2826192431
 20
205.44314807
 30
0.0
 11
158.2826192431
 21
205.44314807
 31
0.0
  0
LINE
  5
EF
330
1F
100
AcDbEntity
  8
SLD-0
  6
Continuous
 62
     7
100
AcDbLine
 10
157.2826192431
 20
205.44314807
 30
0.0
 11
122.2826192431
 21
205.44314807
 31
0.0
  0
LINE
  5
F0
330
1F
100
AcDbEntity
  8
SLD-0
  6
Continuous
 62
     7
100
AcDbLine
 10
157.2826193921
 20
201.2347100459
 30
0.0
 11
122.2826192431
 21
201.2347100459
 31
0.0
  0
LINE
  5
F1
330
1F
100
AcDbEntity
  8
SLD-0
  6
Continuous
 62
     7
100
AcDbLine
 10
122.2826192431
 20
205.44314807
 30
0.0
 11
122.2826192431
 21
201.2347100459
 31
0.0
  0
LINE
  5
F2
330
1F
100
AcDbEntity
  8
SLD-0
  6
Continuous
 62
     7
100
AcDbLine
 10
157.2826193921
 20
184.6515858702
 30
0.0
 11
122.2826192431
 21
184.6515858702
 31
0.0
  0
LINE
  5
F3
330
1F
100
AcDbEntity
  8
SLD-0
  6
Continuous
 62
     7
100
AcDbLine
 10
158.2826192431
 20
199.2479080645
 30
0.0
 11
158.2826176934
 21
186.6383879601
 31
0.0
  0
LINE
  5
F4
330
1F
100
AcDbEntity
  8
SLD-0
  6
Continuous
 62
     7
100
AcDbLine
 10
122.2826192431
 20
201.2347100459
 30
0.0
 11
122.2826192431
 21
184.6515858702
 31
0.0
  0
LINE
  5
F5
330
1F
100
AcDbEntity
  8
SLD-0
  6
Continuous
 62
     7
100
AcDbLine
 10
158.2826192431
 20
180.4431478461
 30
0.0
 11
157.2826192431
 21
180.4431478461
 31
0.0
  0
LINE
  5
F6
330
1F
100
AcDbEntity
  8
SLD-0
  6
Continuous
 62
     7
100
AcDbLine
 10
157.2826192431
 20
180.4431478461
 30
0.0
 11
157.2826193921
 21
184.6515858702
 31
0.0
  0
LINE
  5
F7
330
1F
100
AcDbEntity
  8
SLD-0
  6
Continuous
 62
     7
100
AcDbLine
 10
158.2826176934
 20
186.6383879601
 30
0.0
 11
158.2826192431
 21
180.4431478461
 31
0.0
  0
LINE
  5
F8
330
1F
100
AcDbEntity
  8
SLD-0
  6
Continuous
 62
     7
100
AcDbLine
 10
157.2826192431
 20
180.4431478461
 30
0.0
 11
122.2826192431
 21
180.4431478461
 31
0.0
  0
LINE
  5
F9
330
1F
100
AcDbEntity
  8
SLD-0
  6
Continuous
 62
     7
100
AcDbLine
 10
122.2826192431
 20
184.6515858702
 30
0.0
 11
122.2826192431
 21
180.4431478461
 31
0.0
  0
LINE
  5
FA
330
1F
100
AcDbEntity
  8
SLD-0
  6
Continuous
 62
     7
100
AcDbLine
 10
103.2826192431
 20
202.9431478461
 30
0.0
 11
103.2826192431
 21
182.9431478461
 31
0.0
  0
LINE
  5
FB
330
1F
100
AcDbEntity
  8
SLD-0
  6
Continuous
 62
     7
100
AcDbLine
 10
102.2826192431
 20
183.9431478461
 30
0.0
 11
102.2826192431
 21
201.9431478461
 31
0.0
  0
LINE
  5
FC
330
1F
100
AcDbEntity
  8
SLD-0
  6
HIDDEN
 62
     7
100
AcDbLine
 10
143.0164730452
 20
205.4431480324
 30
0.0
 11
143.0164730452
 21
180.4431476598
 31
0.0
  0
LINE
  5
FD
330
1F
100
AcDbEntity
  8
SLD-0
  6
HIDDEN
 62
     7
100
AcDbLine
 10
119.2826192431
 20
190.4431478461
 30
0.0
 11
119.2826192431
 21
195.4431478461
 31
0.0
  0
LINE
  5
FE
330
1F
100
AcDbEntity
  8
SLD-0
  6
HIDDEN
 62
     7
100
AcDbLine
 10
127.5326191723
 20
205.4431480324
 30
0.0
 11
127.5326191723
 21
180.4431476598
 31
0.0
  0
LINE
  5
FF
330
1F
100
AcDbEntity
  8
SLD-0
  6
HIDDEN
 62
     7
100
AcDbLine
 10
102.2826196901
 20
190.4431478461
 30
0.0
 11
119.2826192431
 21
190.4431478461
 31
0.0
  0
LINE
  5
100
330
1F
100
AcDbEntity
  8
SLD-0
  6
HIDDEN
 62
     7
100
AcDbLine
 10
119.2826192431
 20
195.4431478461
 30
0.0
 11
102.2826196901
 21
195.4431478461
 31
0.0
  0
LINE
  5
101
330
1F
100
AcDbEntity
  8
SLD-0
  6
HIDDEN
 62
     7
100
AcDbLine
 10
119.2826192431
 20
190.4431478461
 30
0.0
 11
120.7847708181
 21
192.9431478461
 31
0.0
  0
LINE
  5
102
330
1F
100
AcDbEntity
  8
SLD-0
  6
HIDDEN
 62
     7
100
AcDbLine
 10
120.7847708181
 20
192.9431478461
 30
0.0
 11
119.2826192431
 21
195.4431478461
 31
0.0
  0
LINE
  5
103
330
1F
100
AcDbEntity
  8
SLD-0
 62
     7
100
AcDbLine
 10
102.7826192431
 20
202.4431478461
 30
0.0
 11
89.4469330118
 21
212.4579312736
 31
0.0
  0
LINE
  5
104
330
1F
100
AcDbEntity
  8
SLD-0
 62
     7
100
AcDbLine
 10
89.4469330118
 20
212.4579312736
 30
0.0
 11
98.4859157742
 21
205.6419714249
 31
0.0
  0
LINE
  5
105
330
1F
100
AcDbEntity
  8
SLD-0
  6
HIDDEN
 62
     7
100
AcDbLine
 10
114.2826188631
 20
195.9431478722
 30
0.0
 11
102.2826196901
 21
195.9431478722
 31
0.0
  0
LINE
  5
106
330
1F
100
AcDbEntity
  8
SLD-0
  6
HIDDEN
 62
     7
100
AcDbLine
 10
102.2826196901
 20
189.94314782
 30
0.0
 11
114.2826188631
 21
189.94314782
 31
0.0
  0
LINE
  5
107
330
1F
100
AcDbEntity
  8
SLD-0
  6
HIDDEN
 62
     7
100
AcDbLine
 10
114.2826188631
 20
192.9431478461
 30
0.0
 11
114.2826188631
 21
192.4960210422
 31
0.0
  0
LINE
  5
108
330
1F
100
AcDbEntity
  8
SLD-0
  6
HIDDEN
 62
     7
100
AcDbLine
 10
114.2826188631
 20
192.4960210422
 30
0.0
 11
114.2826188631
 21
189.94314782
 31
0.0
  0
LINE
  5
109
330
1F
100
AcDbEntity
  8
SLD-0
  6
HIDDEN
 62
     7
100
AcDbLine
 10
114.2826188631
 20
195.9431478722
 30
0.0
 11
114.2826188631
 21
192.9431478461
 31
0.0
  0
LINE
  5
10A
330
1F
100
AcDbEntity
  8
SLD-0
 62
     7
100
AcDbLine
 10
137.153448192
 20
180.4431476598
 30
0.0
 11
135.9846188031
 21
180.5640202915
 31
0.0
  0
LINE
  5
10B
330
1F
100
AcDbEntity
  8
SLD-0
 62
     7
100
AcDbLine
 10
135.9846188031
 20
180.5640202915
 30
0.0
 11
134.7615035526
 21
180.5729591256
 31
0.0
  0
LINE
  5
10C
330
1F
100
AcDbEntity
  8
SLD-0
 62
     7
100
AcDbLine
 10
134.7615035526
 20
180.5729591256
 30
0.0
 11
134.0842150427
 21
180.5259757643
 31
0.0
  0
LINE
  5
10D
330
1F
100
AcDbEntity
  8
SLD-0
 62
     7
100
AcDbLine
 10
134.0842150427
 20
180.5259757643
 30
0.0
 11
133.4117908306
 21
180.4431476598
 31
0.0
  0
LINE
  5
10E
330
1F
100
AcDbEntity
  8
SLD-0
 62
     7
100
AcDbLine
 10
133.4117908306
 20
205.4431480324
 30
0.0
 11
134.5806192882
 21
205.3222754007
 31
0.0
  0
LINE
  5
10F
330
1F
100
AcDbEntity
  8
SLD-0
 62
     7
100
AcDbLine
 10
134.5806192882
 20
205.3222754007
 30
0.0
 11
135.8037345387
 21
205.3133365666
 31
0.0
  0
LINE
  5
110
330
1F
100
AcDbEntity
  8
SLD-0
 62
     7
100
AcDbLine
 10
135.8037345387
 20
205.3133365666
 30
0.0
 11
136.4810239799
 21
205.3603199279
 31
0.0
  0
LINE
  5
111
330
1F
100
AcDbEntity
  8
SLD-0
 62
     7
100
AcDbLine
 10
136.4810239799
 20
205.3603199279
 30
0.0
 11
137.153448192
 21
205.4431480324
 31
0.0
  0
LINE
  5
112
330
1F
100
AcDbEntity
  8
SLD-0
  6
HIDDEN
 62
     7
100
AcDbLine
 10
126.7826190494
 20
205.4431480324
 30
0.0
 11
126.7826190494
 21
180.4431476598
 31
0.0
  0
LINE
  5
113
330
1F
100
AcDbEntity
  8
SLD-0
  6
HIDDEN
 62
     7
100
AcDbLine
 10
143.7679013513
 20
205.4431480324
 30
0.0
 11
143.7679013513
 21
180.4431476598
 31
0.0
  0
LINE
  5
114
330
1F
100
AcDbEntity
  8
SLD-0
  6
CENTERX2
 62
     7
100
AcDbLine
 10
159.2826192431
 20
192.9431478461
 30
0.0
 11
122.2826192431
 21
192.9431478461
 31
0.0
  0
LINE
  5
115
330
1F
100
AcDbEntity
  8
SLD-0
  6
CENTERX2
 62
     7
100
AcDbLine
 10
100.2826192431
 20
192.9431478461
 30
0.0
 11
122.2826192431
 21
192.9431478461
 31
0.0
  0
LINE
  5
116
330
1F
100
AcDbEntity
  8
SLD-0
  6
CENTERX2
 62
     7
100
AcDbLine
 10
135.2826192431
 20
207.4431478461
 30
0.0
 11
135.2826192431
 21
178.4431478461
 31
0.0
  0
LINE
  5
117
330
1F
100
AcDbEntity
  8
0
  6
Continuous
 62
     7
370
     0
100
AcDbLine
 10
20.2604743903
 20
285.0
 30
0.0
 11
196.7604743903
 21
285.0
 31
0.0
  0
LINE
  5
118
330
1F
100
AcDbEntity
  8
0
  6
Continuous
 62
     7
370
     0
100
AcDbLine
 10
20.2604743903
 20
285.0
 30
0.0
 11
20.2604743903
 21
10.0
 31
0.0
  0
LINE
  5
119
330
1F
100
AcDbEntity
  8
0
  6
Continuous
 62
     7
370
     0
100
AcDbLine
 10
20.2604743903
 20
10.0
 30
0.0
 11
196.7604743903
 21
10.0
 31
0.0
  0
LINE
  5
11A
330
1F
100
AcDbEntity
  8
0
  6
Continuous
 62
     7
370
     0
100
AcDbLine
 10
196.7604743903
 20
285.0
 30
0.0
 11
196.7604743903
 21
10.0
 31
0.0
  0
LINE
  5
11B
330
1F
100
AcDbEntity
  8
0
  6
Continuous
 62
     7
370
     0
100
AcDbLine
 10
127.0104743903
 20
50.75
 30
0.0
 11
196.7604743903
 21
50.75
 31
0.0
  0
LINE
  5
11C
330
1F
100
AcDbEntity
  8
0
  6
Continuous
 62
     7
370
     0
100
AcDbLine
 10
127.0104743903
 20
50.75
 30
0.0
 11
127.0104743903
 21
10.0
 31
0.0
  0
LINE
  5
11D
330
1F
100
AcDbEntity
  8
0
  6
Continuous
 62
     7
370
     0
100
AcDbLine
 10
127.0104743903
 20
22.75
 30
0.0
 11
196.7604743903
 21
22.75
 31
0.0
  0
LINE
  5
11E
330
1F
100
AcDbEntity
  8
0
  6
Continuous
 62
     7
370
     0
100
AcDbLine
 10
127.0104743903
 20
36.75
 30
0.0
 11
196.7604743903
 21
36.75
 31
0.0
  0
ARC
  5
11F
330
1F
100
AcDbEntity
  8
SLD-0
  6
Continuous
 62
     7
100
AcDbCircle
 10
135.2826192431
 20
127.4597213479
 30
0.0
 40
7.749999999985588
100
AcDbArc
 50
3.6990710632
 51
356.3009289368
  0
CIRCLE
  5
120
330
1F
100
AcDbEntity
  8
SLD-0
  6
Continuous
 62
     7
100
AcDbCircle
 10
55.0665118854
 20
127.4597213716
 30
0.0
 40
8.999999999999993
  0
CIRCLE
  5
121
330
1F
100
AcDbEntity
  8
SLD-0
  6
Continuous
 62
     7
100
AcDbCircle
 10
55.0665118854
 20
127.4597213716
 30
0.0
 40
9.999999999999993
  0
CIRCLE
  5
122
330
1F
100
AcDbEntity
  8
SLD-0
  6
Continuous
 62
     7
100
AcDbCircle
 10
55.0665118854
 20
127.4597213716
 30
0.0
 40
2.5
  0
ARC
  5
123
330
1F
100
AcDbEntity
  8
SLD-0
  6
Continuous
 62
     7
100
AcDbCircle
 10
55.0665118854
 20
127.4597213716
 30
0.0
 40
15.00000000000637
100
AcDbArc
 50
123.5573097619
 51
146.442690238
  0
ARC
  5
124
330
1F
100
AcDbEntity
  8
SLD-0
  6
Continuous
 62
     7
100
AcDbCircle
 10
55.0665118854
 20
127.4597213716
 30
0.0
 40
15.00000000001136
100
AcDbArc
 50
33.5573097619
 51
56.4426902381
  0
ARC
  5
125
330
1F
100
AcDbEntity
  8
SLD-0
  6
Continuous
 62
     7
100
AcDbCircle
 10
55.0665118854
 20
127.4597213716
 30
0.0
 40
15.00000000000636
100
AcDbArc
 50
303.557309762
 51
326.4426902384
  0
ARC
  5
126
330
1F
100
AcDbEntity
  8
SLD-0
  6
Continuous
 62
     7
100
AcDbCircle
 10
55.0665118854
 20
127.4597213716
 30
0.0
 40
14.99999999995108
100
AcDbArc
 50
213.5573097616
 51
236.4426902384
  0
CIRCLE
  5
127
330
1F
100
AcDbEntity
  8
SLD-0
 62
     7
100
AcDbCircle
 10
55.0665118854
 20
127.4597213716
 30
0.0
 40
3.000000026099997
  0
ARC
  5
128
330
1F
100
AcDbEntity
  8
SLD-0
  6
Continuous
 62
     7
100
AcDbCircle
 10
133.464636383
 20
197.8847268334
 30
0.0
 40
27.2472445281
100
AcDbArc
 50
330.9436897322
 51
335.6222076994
  0
CIRCLE
  5
129
330
1F
100
AcDbEntity
  8
SLD-0
  6
Continuous
 62
     7
100
AcDbCircle
 10
150.7826192431
 20
192.9431478461
 30
0.0
 40
5.5
  0
CIRCLE
  5
12A
330
1F
100
AcDbEntity
  8
SLD-0
  6
Continuous
 62
     7
100
AcDbCircle
 10
150.7826192431
 20
192.9431478461
 30
0.0
 40
3.25
  0
CIRCLE
  5
12B
330
1F
100
AcDbEntity
  8
SLD-0
  6
Continuous
 62
     7
100
AcDbCircle
 10
150.7826192431
 20
192.9431478461
 30
0.0
 40
2.5
  0
CIRCLE
  5
12C
330
1F
100
AcDbEntity
  8
SLD-0
 62
     7
100
AcDbCircle
 10
150.7826192431
 20
192.9431478461
 30
0.0
 40
3.000000506600003
  0
DIMENSION
  5
12D
330
1F
100
AcDbEntity
  8
SLD-0
100
AcDbDimension
  2
*D7
 10
135.2826192431
 20
100.9947394541
 30
0.0
 11
118.7826192431
 21
100.9947394541
 31
0.0
 70
   160
 71
     1
 42
33.0
  3
SLDDIMSTYLE0
100
AcDbAlignedDimension
 13
102.2826192431
 23
117.4597213716
 33
0.0
 14
135.2826192431
 24
114.9597213716
 34
0.0
100
AcDbRotatedDimension
1001
ACAD
1000
DSTYLE
1002
{
1070
    77
1070
     3
1070
   143
1040
0.0393700787
1070
    41
1040
3.0
1070
    44
1040
1.0
1070
    42
1040
1.0
1070
   147
1040
1.524
1070
    73
1070
     0
1070
    74
1070
     0
1070
   140
1040
3.5
1070
   284
1070
    12
1070
    78
1070
    12
1002
}
  0
DIMENSION
  5
14B
330
1F
100
AcDbEntity
  8
SLD-0
 62
     7
100
AcDbDimension
  2
*D9
 10
89.8197554585
 20
117.4597213716
 30
0.0
 11
89.8197554585
 21
151.9637332028
 31
0.0
 70
   160
  1
%%c<>
 71
     1
 42
20.0
  3
SLDDIMSTYLE1
100
AcDbAlignedDimension
 13
122.2826192431
 23
137.4597213716
 33
0.0
 14
122.2826192431
 24
117.4597213716
 34
0.0
 50
90.0
100
AcDbRotatedDimension
1001
ACAD
1000
DSTYLE
1002
{
1070
    77
1070
     3
1070
   143
1040
0.0393700787
1070
    41
1040
3.0
1070
    44
1040
1.0
1070
    42
1040
1.0
1070
   147
1040
1.524
1070
    73
1070
     0
1070
    74
1070
     0
1070
   140
1040
3.5
1070
   284
1070
    12
1070
    78
1070
    12
1002
}
  0
DIMENSION
  5
162
330
1F
100
AcDbEntity
  8
SLD-0
 62
     7
100
AcDbDimension
  2
*D10
 10
175.6205734038
 20
114.9597213716
 30
0.0
 11
175.6205734038
 21
121.2097213716
 31
0.0
 70
   160
 71
     1
 42
12.5
  3
SLDDIMSTYLE2
100
AcDbAlignedDimension
 13
147.7826192431
 23
127.4597213716
 33
0.0
 14
157.2826192431
 24
114.9597213716
 34
0.0
 50
90.0
100
AcDbRotatedDimension
1001
ACAD
1000
DSTYLE
1002
{
1070
    77
1070
     3
1070
   143
1040
0.0393700787
1070
    41
1040
3.0
1070
    44
1040
1.0
1070
    42
1040
1.0
1070
   147
1040
1.524
1070
    73
1070
     0
1070
    74
1070
     0
1070
   140
1040
3.5
1070
   284
1070
    12
1070
    78
1070
    12
1002
}
  0
DIMENSION
  5
17D
330
1F
100
AcDbEntity
  8
SLD-0
 62
     7
100
AcDbDimension
  2
*D11
 10
166.9073687744
 20
127.9597213716
 30
0.0
 11
166.9073687744
 21
136.2830766048
 31
0.0
 70
   160
 71
     1
 42
1.0
  3
SLDDIMSTYLE0
100
AcDbAlignedDimension
 13
158.2826192431
 23
126.9597213716
 33
0.0
 14
158.2826192431
 24
127.9597213716
 34
0.0
 50
90.0
100
AcDbRotatedDimension
1001
ACAD
1000
DSTYLE
1002
{
1070
    77
1070
     3
1070
   143
1040
0.0393700787
1070
    41
1040
3.0
1070
    44
1040
1.0
1070
    42
1040
1.0
1070
   147
1040
1.524
1070
    73
1070
     0
1070
    74
1070
     0
1070
   140
1040
3.5
1070
   284
1070
    12
1070
    78
1070
    12
1002
}
  0
DIMENSION
  5
198
330
1F
100
AcDbEntity
  8
SLD-0
 62
     7
100
AcDbDimension
  2
*D12
 10
12.3732384042
 20
11.6577393924
 30
0.0
 11
150.3393864248
 21
-4.1144968516
 31
0.0
 70
   163
  1
M<> P=1<>
 71
     1
 42
16.9999975397
  3
SLDDIMSTYLE3
100
AcDbDiametricDimension
 15
0.0
 25
0.0
 35
0.0
 40
0.0
1001
ACAD
1000
DSTYLE
1002
{
1070
    77
1070
     0
1070
   143
1040
0.0393700787
1070
    41
1040
3.0
1070
    44
1040
1.0
1070
    42
1040
1.0
1070
   147
1040
1.524
1070
    73
1070
     1
1070
    74
1070
     1
1070
   140
1040
3.5
1070
   284
1070
    12
1070
    78
1070
    12
1002
}
  0
DIMENSION
  5
1AB
330
1F
100
AcDbEntity
  8
SLD-0
 62
     7
100
AcDbDimension
  2
*D13
 10
42.5665118854
 20
149.1637148788
 30
0.0
 11
55.0665118854
 21
149.1637148788
 31
0.0
 70
   160
 71
     1
 42
25.0
  3
SLDDIMSTYLE0
100
AcDbAlignedDimension
 13
67.5665118854
 23
135.7512833475
 33
0.0
 14
42.5665118854
 24
135.7512833475
 34
0.0
100
AcDbRotatedDimension
1001
ACAD
1000
DSTYLE
1002
{
1070
    77
1070
     3
1070
   143
1040
0.0393700787
1070
    41
1040
3.0
1070
    44
1040
1.0
1070
    42
1040
1.0
1070
   147
1040
1.524
1070
    73
1070
     0
1070
    74
1070
     0
1070
   140
1040
3.5
1070
   284
1070
    12
1070
    78
1070
    12
1002
}
  0
DIMENSION
  5
1C2
330
1F
100
AcDbEntity
  8
SLD-0
 62
     7
100
AcDbDimension
  2
*D14
 10
34.8122230744
 20
139.9597213716
 30
0.0
 11
34.8122230744
 21
127.4597213716
 31
0.0
 70
   160
 71
     1
 42
25.0
  3
SLDDIMSTYLE0
100
AcDbAlignedDimension
 13
46.7749499096
 23
114.9597213716
 33
0.0
 14
46.7749499096
 24
139.9597213716
 34
0.0
 50
90.0
100
AcDbRotatedDimension
1001
ACAD
1000
DSTYLE
1002
{
1070
    77
1070
     3
1070
   143
1040
0.0393700787
1070
    41
1040
3.0
1070
    44
1040
1.0
1070
    42
1040
1.0
1070
   147
1040
1.524
1070
    73
1070
     0
1070
    74
1070
     0
1070
   140
1040
3.5
1070
   284
1070
    12
1070
    78
1070
    12
1002
}
  0
DIMENSION
  5
1DA
330
1F
100
AcDbEntity
  8
SLD-0
 62
     7
100
AcDbDimension
  2
*D15
 10
2.3796019902
 20
5.5079465951
 30
0.0
 11
75.9862689079
 21
-5.5079480236
 31
0.0
 70
   163
  1
M<>深12<>
 71
     1
 42
5.9999984439
  3
SLDDIMSTYLE3
100
AcDbDiametricDimension
 15
0.0
 25
0.0
 35
0.0
 40
0.0
1001
ACAD
1000
DSTYLE
1002
{
1070
    77
1070
     0
1070
   143
1040
0.0393700787
1070
    41
1040
3.0
1070
    44
1040
1.0
1070
    42
1040
1.0
1070
   147
1040
1.524
1070
    73
1070
     1
1070
    74
1070
     1
1070
   140
1040
3.5
1070
   284
1070
    12
1070
    78
1070
    12
1002
}
  0
DIMENSION
  5
1EC
330
1F
100
AcDbEntity
  8
SLD-0
 62
     7
100
AcDbDimension
  2
*D16
 10
11.8980099509
 20
27.5397329754
 30
0.0
 11
76.5199680267
 21
-5.5079480236
 31
0.0
 70
   163
  1
<>
 71
     1
 42
29.9999922192
  3
SLDDIMSTYLE3
100
AcDbDiametricDimension
 15
0.0
 25
0.0
 35
0.0
 40
0.0
1001
ACAD
1000
DSTYLE
1002
{
1070
    77
1070
     0
1070
   143
1040
0.0393700787
1070
    41
1040
3.0
1070
    44
1040
1.0
1070
    42
1040
1.0
1070
   147
1040
1.524
1070
    73
1070
     1
1070
    74
1070
     1
1070
   140
1040
3.5
1070
   284
1070
    12
1070
    78
1070
    12
1002
}
  0
DIMENSION
  5
202
330
1F
100
AcDbEntity
  8
SLD-0
 62
     7
100
AcDbDimension
  2
*D17
 10
122.2826192431
 20
213.6572306128
 30
0.0
 11
112.2826192431
 21
213.6572306128
 31
0.0
 70
   160
 71
     1
 42
20.0
  3
SLDDIMSTYLE0
100
AcDbAlignedDimension
 13
102.2826192431
 23
182.9431478461
 33
0.0
 14
122.2826192431
 24
182.9431478461
 34
0.0
100
AcDbRotatedDimension
1001
ACAD
1000
DSTYLE
1002
{
1070
    77
1070
     3
1070
   143
1040
0.0393700787
1070
    41
1040
3.0
1070
    44
1040
1.0
1070
    42
1040
1.0
1070
   147
1040
1.524
1070
    73
1070
     0
1070
    74
1070
     0
1070
   140
1040
3.5
1070
   284
1070
    12
1070
    78
1070
    12
1002
}
  0
DIMENSION
  5
219
330
1F
100
AcDbEntity
  8
SLD-0
 62
     7
100
AcDbDimension
  2
*D18
 10
102.2826192431
 20
228.0340942928
 30
0.0
 11
130.2826192431
 21
228.0340942928
 31
0.0
 70
   160
 71
     1
 42
56.0
  3
SLDDIMSTYLE0
100
AcDbAlignedDimension
 13
158.2826192431
 23
205.4431478461
 33
0.0
 14
102.2826192431
 24
201.9431478461
 34
0.0
100
AcDbRotatedDimension
1001
ACAD
1000
DSTYLE
1002
{
1070
    77
1070
     3
1070
   143
1040
0.0393700787
1070
    41
1040
3.0
1070
    44
1040
1.0
1070
    42
1040
1.0
1070
   147
1040
1.524
1070
    73
1070
     0
1070
    74
1070
     0
1070
   140
1040
3.5
1070
   284
1070
    12
1070
    78
1070
    12
1002
}
  0
DIMENSION
  5
230
330
1F
100
AcDbEntity
  8
SLD-0
 62
     7
100
AcDbDimension
  2
*D19
 10
150.7826192431
 20
219.7429750722
 30
0.0
 11
126.5326192431
 21
219.7429750722
 31
0.0
 70
   160
 71
     1
 42
48.5
  3
SLDDIMSTYLE2
100
AcDbAlignedDimension
 13
102.2826192431
 23
201.9431478461
 33
0.0
 14
150.7826192431
 24
200.9431478461
 34
0.0
100
AcDbRotatedDimension
1001
ACAD
1000
DSTYLE
1002
{
1070
    77
1070
     3
1070
   143
1040
0.0393700787
1070
    41
1040
3.0
1070
    44
1040
1.0
1070
    42
1040
1.0
1070
   147
1040
1.524
1070
    73
1070
     0
1070
    74
1070
     0
1070
   140
1040
3.5
1070
   284
1070
    12
1070
    78
1070
    12
1002
}
  0
DIMENSION
  5
247
330
1F
100
AcDbEntity
  8
SLD-0
 62
     7
100
AcDbDimension
  2
*D20
 10
4.0024405986
 20
5.1215683348
 30
0.0
 11
120.8733450496
 21
-4.7276019341
 31
0.0
 70
   163
  1
<>,%%c11ｻﾞｸﾞﾘ深6.5
 71
     1
 42
6.499999458
  3
SLDDIMSTYLE4
100
AcDbDiametricDimension
 15
0.0
 25
0.0
 35
0.0
 40
0.0
1001
ACAD
1000
DSTYLE
1002
{
1070
    77
1070
     0
1070
   143
1040
0.0393700787
1070
    41
1040
3.0
1070
    44
1040
1.0
1070
    42
1040
1.0
1070
   147
1040
1.524
1070
    73
1070
     1
1070
    74
1070
     1
1070
   140
1040
3.5
1070
   284
1070
    12
1070
    78
1070
    12
1002
}
  0
MTEXT
  5
25C
330
1F
100
AcDbEntity
  8
SLD-0
 62
     7
100
AcDbMText
 10
160.00900818
 20
107.2895062102
 30
0.0
 40
3.5
 41
0.0
 71
     1
 72
     1
  1
M6
  7
SLDTEXTSTYLE1
 73
     1
 44
1.0
  0
MTEXT
  5
25D
330
1F
100
AcDbEntity
  8
SLD-0
 62
     7
100
AcDbMText
 10
93.4401564572
 20
215.1168242122
 30
0.0
 40
3.5
 41
0.0
 71
     1
 72
     1
  1
2-
  7
SLDTEXTSTYLE1
 11
0.7984402667929675
 21
-0.6020740322946795
 31
0.0
 73
     1
 44
1.0
  0
MTEXT
  5
25E
330
1F
100
AcDbEntity
  8
SLD-0
 62
     7
100
AcDbMText
 10
96.6921239149
 20
212.6646368142
 30
0.0
 40
3.5
 41
0.0
 71
     1
 72
     1
  1
C
  7
SLDTEXTSTYLE1
 11
0.7984402667929675
 21
-0.6020740322946795
 31
0.0
 73
     1
 44
1.0
  0
MTEXT
  5
25F
330
1F
100
AcDbEntity
  8
SLD-0
 62
     7
100
AcDbMText
 10
98.3181076438
 20
211.4385431152
 30
0.0
 40
3.5
 41
0.0
 71
     1
 72
     1
  1
1
  7
SLDTEXTSTYLE1
 11
0.7984402667929675
 21
-0.6020740322946795
 31
0.0
 73
     1
 44
1.0
  0
MTEXT
  5
260
330
1F
100
AcDbEntity
  8
0
  6
Continuous
 62
     7
370
     0
100
AcDbMText
 10
149.9586426187
 20
29.8861652342
 30
0.0
 40
4.2333333333
 41
0.0
 71
     1
 72
     1
  1
N01864-307
  7
SLDTEXTSTYLE0
 73
     1
 44
1.0
  0
INSERT
  5
266
330
1F
100
AcDbEntity
  8
0
  6
Continuous
 62
     7
370
     0
100
AcDbBlockReference
  2
SW_NOTE_0
 10
139.907630827
 20
43.5967923779
 30
0.0
  0
MTEXT
  5
267
330
1F
100
AcDbEntity
  8
0
  6
Continuous
 62
     7
370
     0
100
AcDbMText
 10
155.5822663226
 20
16.2918259049
 30
0.0
 40
4.2333333333
 41
0.0
 71
     1
 72
     1
  1
131174
  7
SLDTEXTSTYLE0
 73
     1
 44
1.0
  0
HATCH
  5
268
330
1F
100
AcDbEntity
  8
0
  6
Continuous
 62
     7
100
AcDbHatch
 10
0.0
 20
0.0
 30
0.0
210
0.0
220
0.0
230
1.0
  2
ANSI31
 70
     0
 71
     0
 91
        1
 92
        0
 93
        3
 72
     1
 10
153.2666336181231
 20
112.7661473050826
 11
152.4413279006405
 21
112.201461133222
 72
     1
 10
152.4413279006405
 20
112.201461133222
 11
151.1599222438
 21
114.9597213716
 72
     1
 10
151.1599222438
 20
114.9597213716
 11
153.2666336181231
 21
112.7661473050826
 97
        0
 75
     0
 76
     1
 52
0.0
 41
1.0
 77
     0
 78
     1
 53
45.00000209717174
 43
0.0
 44
0.0
 45
-2.245064112442359
 46
2.245063948092215
 79
     0
 98
        1
 10
0.0
 20
0.0
  0
INSERT
  5
269
330
1F
100
AcDbEntity
  8
0
  6
Continuous
 62
     7
370
     0
100
AcDbBlockReference
  2
SW_CENTERMARK0
 10
0.0
 20
0.0
 30
0.0
  0
INSERT
  5
26A
330
1F
100
AcDbEntity
  8
0
  6
Continuous
 62
     7
370
     0
100
AcDbBlockReference
  2
SW_CENTERMARK1
 10
0.0
 20
0.0
 30
0.0
  0
INSERT
  5
26B
330
1F
100
AcDbEntity
  8
0
  6
Continuous
 62
     7
370
     0
100
AcDbBlockReference
  2
SW_CENTERMARK2
 10
0.0
 20
0.0
 30
0.0
  0
INSERT
  5
26C
330
1F
100
AcDbEntity
  8
0
  6
Continuous
 62
     7
370
     0
100
AcDbBlockReference
  2
_OPEN30
 10
102.7826192431
 20
202.4431478461
 30
0.0
 41
3.0
 42
3.0
 43
3.0
 50
-36.905678701
  0
INSERT
  5
26D
330
1F
100
AcDbEntity
  8
0
  6
Continuous
 62
     7
370
     0
100
AcDbBlockReference
  2
SW_CENTERMARK3
 10
0.0
 20
0.0
 30
0.0
  0
ENDSEC
  0
SECTION
  2
OBJECTS
  0
DICTIONARY
  5
C
330
0
100
AcDbDictionary
281
     1
  3
ACAD_GROUP
350
D
  3
ACAD_LAYOUT
350
1A
  3
ACAD_MLINESTYLE
350
17
  3
ACAD_PLOTSETTINGS
350
19
  3
ACAD_PLOTSTYLENAME
350
E
  0
DICTIONARY
  5
D
102
{ACAD_REACTORS
330
C
102
}
330
C
100
AcDbDictionary
281
     1
  0
DICTIONARY
  5
1A
102
{ACAD_REACTORS
330
C
102
}
330
C
100
AcDbDictionary
281
     1
  3
Layout1
350
1E
  3
Layout2
350
26
  3
Model
350
22
  0
DICTIONARY
  5
17
102
{ACAD_REACTORS
330
C
102
}
330
C
100
AcDbDictionary
281
     1
  3
Standard
350
18
  0
DICTIONARY
  5
19
102
{ACAD_REACTORS
330
C
102
}
330
C
100
AcDbDictionary
281
     1
  0
ACDBDICTIONARYWDFLT
  5
E
102
{ACAD_REACTORS
330
C
102
}
330
C
100
AcDbDictionary
281
     1
  3
Normal
350
F
100
AcDbDictionaryWithDefault
340
F
  0
LAYOUT
  5
1E
102
{ACAD_REACTORS
330
1A
102
}
330
1A
100
AcDbPlotSettings
  1

  2

  4

  6

 40
0.0
 41
0.0
 42
0.0
 43
0.0
 44
0.0
 45
0.0
 46
0.0
 47
0.0
 48
0.0
 49
0.0
140
0.0
141
0.0
142
1.0
143
1.0
 70
   688
 72
     0
 73
     0
 74
     5
  7

 75
    16
147
1.0
148
0.0
149
0.0
100
AcDbLayout
  1
Layout1
 70
     1
 71
     1
 10
0.0
 20
0.0
 11
0.0
 21
0.0
 12
0.0
 22
0.0
 32
0.0
 14
0.0
 24
0.0
 34
0.0
 15
0.0
 25
0.0
 35
0.0
146
0.0
 13
0.0
 23
0.0
 33
0.0
 16
1.0
 26
0.0
 36
0.0
 17
0.0
 27
1.0
 37
0.0
 76
     0
330
1B
  0
LAYOUT
  5
26
102
{ACAD_REACTORS
330
1A
102
}
330
1A
100
AcDbPlotSettings
  1

  2

  4

  6

 40
0.0
 41
0.0
 42
0.0
 43
0.0
 44
0.0
 45
0.0
 46
0.0
 47
0.0
 48
0.0
 49
0.0
140
0.0
141
0.0
142
1.0
143
1.0
 70
   688
 72
     0
 73
     0
 74
     5
  7

 75
    16
147
1.0
148
0.0
149
0.0
100
AcDbLayout
  1
Layout2
 70
     1
 71
     2
 10
0.0
 20
0.0
 11
0.0
 21
0.0
 12
0.0
 22
0.0
 32
0.0
 14
0.0
 24
0.0
 34
0.0
 15
0.0
 25
0.0
 35
0.0
146
0.0
 13
0.0
 23
0.0
 33
0.0
 16
1.0
 26
0.0
 36
0.0
 17
0.0
 27
1.0
 37
0.0
 76
     0
330
23
  0
LAYOUT
  5
22
102
{ACAD_REACTORS
330
1A
102
}
330
1A
100
AcDbPlotSettings
  1

  2

  4

  6

 40
0.0
 41
0.0
 42
0.0
 43
0.0
 44
0.0
 45
0.0
 46
0.0
 47
0.0
 48
0.0
 49
0.0
140
0.0
141
0.0
142
1.0
143
1.0
 70
  1712
 72
     0
 73
     0
 74
     0
  7

 75
     0
147
1.0
148
0.0
149
0.0
100
AcDbLayout
  1
Model
 70
     1
 71
     0
 10
0.0
 20
0.0
 11
0.0
 21
0.0
 12
0.0
 22
0.0
 32
0.0
 14
0.0
 24
0.0
 34
0.0
 15
210.0
 25
297.0
 35
0.0
146
0.0
 13
0.0
 23
0.0
 33
0.0
 16
1.0
 26
0.0
 36
0.0
 17
0.0
 27
1.0
 37
0.0
 76
     0
330
1F
  0
MLINESTYLE
  5
18
102
{ACAD_REACTORS
330
17
102
}
330
17
100
AcDbMlineStyle
  2
Standard
 70
     0
  3

 62
   256
 51
90.0
 52
90.0
 71
     2
 49
0.5
 62
   256
  6
BYLAYER
 49
-0.5
 62
   256
  6
BYLAYER
  0
ACDBPLACEHOLDER
  5
F
102
{ACAD_REACTORS
330
E
102
}
330
E
  0
ENDSEC
  0
EOF
