  0
SECTION
  2
HEADER
  9
$ACADVER
  1
AC1015
  9
$ACADMAINTVER
 70
     6
  9
$DWGCODEPAGE
  3
DOS932
  9
$INSBASE
 10
0.0
 20
0.0
 30
0.0
  9
$EXTMIN
 10
0.0
 20
0.0
 30
0.0
  9
$EXTMAX
 10
210.0
 20
297.0
 30
0.0
  9
$LIMMIN
 10
0.0
 20
0.0
  9
$LIMMAX
 10
0.0
 20
0.0
  9
$ORTHOMODE
 70
     0
  9
$REGENMODE
 70
     1
  9
$FILLMODE
 70
     1
  9
$QTEXTMODE
 70
     0
  9
$MIRRTEXT
 70
     1
  9
$LTSCALE
 40
1.0
  9
$ATTMODE
 70
     1
  9
$TEXTSIZE
 40
3.5
  9
$TRACEWID
 40
1.0
  9
$TEXTSTYLE
  7
Standard
  9
$CLAYER
  8
0
  9
$CELTYPE
  6
ByLayer
  9
$CECOLOR
 62
   256
  9
$CELTSCALE
 40
1.0
  9
$DISPSILH
 70
     0
  9
$DIMSCALE
 40
1.0
  9
$DIMASZ
 40
3.0
  9
$DIMEXO
 40
1.0
  9
$DIMDLI
 40
3.75
  9
$DIMRND
 40
0.0
  9
$DIMDLE
 40
0.0
  9
$DIMEXE
 40
1.0
  9
$DIMTP
 40
0.0
  9
$DIMTM
 40
0.0
  9
$DIMTXT
 40
3.5
  9
$DIMCEN
 40
2.5
  9
$DIMTSZ
 40
0.0
  9
$DIMTOL
 70
     0
  9
$DIMLIM
 70
     0
  9
$DIMTIH
 70
     1
  9
$DIMTOH
 70
     1
  9
$DIMSE1
 70
     0
  9
$DIMSE2
 70
     0
  9
$DIMTAD
 70
     1
  9
$DIMZIN
 70
     1
  9
$DIMBLK
  1

  9
$DIMASO
 70
     1
  9
$DIMSHO
 70
     1
  9
$DIMPOST
  1

  9
$DIMAPOST
  1

  9
$DIMALT
 70
     0
  9
$DIMALTD
 70
     3
  9
$DIMALTF
 40
0.0393700787
  9
$DIMLFAC
 40
1.0
  9
$DIMTOFL
 70
     1
  9
$DIMTVP
 40
0.0
  9
$DIMTIX
 70
     0
  9
$DIMSOXD
 70
     0
  9
$DIMSAH
 70
     0
  9
$DIMBLK1
  1

  9
$DIMBLK2
  1

  9
$DIMSTYLE
  2
ISO-25
  9
$DIMCLRD
 70
     0
  9
$DIMCLRE
 70
     0
  9
$DIMCLRT
 70
     0
  9
$DIMTFAC
 40
1.0
  9
$DIMGAP
 40
1.524
  9
$DIMJUST
 70
     0
  9
$DIMSD1
 70
     0
  9
$DIMSD2
 70
     0
  9
$DIMTOLJ
 70
     0
  9
$DIMTZIN
 70
     1
  9
$DIMALTZ
 70
     0
  9
$DIMALTTZ
 70
     0
  9
$DIMUPT
 70
     0
  9
$DIMDEC
 70
     2
  9
$DIMTDEC
 70
     2
  9
$DIMALTU
 70
     2
  9
$DIMALTTD
 70
     3
  9
$DIMTXSTY
  7
Standard
  9
$DIMAUNIT
 70
     0
  9
$DIMADEC
 70
     0
  9
$DIMALTRND
 40
0.0
  9
$DIMAZIN
 70
     0
  9
$DIMDSEP
 70
    44
  9
$DIMATFIT
 70
     3
  9
$DIMFRAC
 70
     0
  9
$DIMLDRBLK
  1

  9
$DIMLUNIT
 70
     2
  9
$DIMLWD
 70
    -2
  9
$DIMLWE
 70
    -2
  9
$DIMTMOVE
 70
     0
  9
$LUNITS
 70
     2
  9
$LUPREC
 70
     1
  9
$SKETCHINC
 40
1.0
  9
$FILLETRAD
 40
10.0
  9
$AUNITS
 70
     0
  9
$AUPREC
 70
     0
  9
$MENU
  1
.
  9
$ELEVATION
 40
0.0
  9
$PELEVATION
 40
0.0
  9
$THICKNESS
 40
0.0
  9
$LIMCHECK
 70
     0
  9
$CHAMFERA
 40
10.0
  9
$CHAMFERB
 40
10.0
  9
$CHAMFERC
 40
20.0
  9
$CHAMFERD
 40
0.0
  9
$SKPOLY
 70
     0
  9
$TDCREATE
 40
2454359.590828993
  9
$TDUCREATE
 40
2454359.215828993
  9
$TDUPDATE
 40
2454359.590829005
  9
$TDUUPDATE
 40
2454359.215829005
  9
$TDINDWG
 40
0.0000000116
  9
$TDUSRTIMER
 40
0.0000000116
  9
$USRTIMER
 70
     1
  9
$ANGBASE
 50
0.0
  9
$ANGDIR
 70
     0
  9
$PDMODE
 70
     0
  9
$PDSIZE
 40
-1.0
  9
$PLINEWID
 40
0.0
  9
$SPLFRAME
 70
     0
  9
$SPLINETYPE
 70
     6
  9
$SPLINESEGS
 70
     8
  9
$HANDSEED
  5
3BF
  9
$SURFTAB1
 70
     6
  9
$SURFTAB2
 70
     6
  9
$SURFTYPE
 70
     6
  9
$SURFU
 70
     6
  9
$SURFV
 70
     6
  9
$UCSBASE
  2

  9
$UCSNAME
  2

  9
$UCSORG
 10
0.0
 20
0.0
 30
0.0
  9
$UCSXDIR
 10
1.0
 20
0.0
 30
0.0
  9
$UCSYDIR
 10
0.0
 20
1.0
 30
0.0
  9
$UCSORTHOREF
  2

  9
$UCSORTHOVIEW
 70
     0
  9
$UCSORGTOP
 10
0.0
 20
0.0
 30
0.0
  9
$UCSORGBOTTOM
 10
0.0
 20
0.0
 30
0.0
  9
$UCSORGLEFT
 10
0.0
 20
0.0
 30
0.0
  9
$UCSORGRIGHT
 10
0.0
 20
0.0
 30
0.0
  9
$UCSORGFRONT
 10
0.0
 20
0.0
 30
0.0
  9
$UCSORGBACK
 10
0.0
 20
0.0
 30
0.0
  9
$PUCSBASE
  2

  9
$PUCSNAME
  2

  9
$PUCSORG
 10
0.0
 20
0.0
 30
0.0
  9
$PUCSXDIR
 10
1.0
 20
0.0
 30
0.0
  9
$PUCSYDIR
 10
0.0
 20
1.0
 30
0.0
  9
$PUCSORTHOREF
  2

  9
$PUCSORTHOVIEW
 70
     0
  9
$PUCSORGTOP
 10
0.0
 20
0.0
 30
0.0
  9
$PUCSORGBOTTOM
 10
0.0
 20
0.0
 30
0.0
  9
$PUCSORGLEFT
 10
0.0
 20
0.0
 30
0.0
  9
$PUCSORGRIGHT
 10
0.0
 20
0.0
 30
0.0
  9
$PUCSORGFRONT
 10
0.0
 20
0.0
 30
0.0
  9
$PUCSORGBACK
 10
0.0
 20
0.0
 30
0.0
  9
$USERI1
 70
     0
  9
$USERI2
 70
     0
  9
$USERI3
 70
     0
  9
$USERI4
 70
     0
  9
$USERI5
 70
     0
  9
$USERR1
 40
0.0
  9
$USERR2
 40
0.0
  9
$USERR3
 40
0.0
  9
$USERR4
 40
0.0
  9
$USERR5
 40
0.0
  9
$WORLDVIEW
 70
     1
  9
$SHADEDGE
 70
     3
  9
$SHADEDIF
 70
    70
  9
$TILEMODE
 70
     1
  9
$MAXACTVP
 70
    64
  9
$PINSBASE
 10
0.0
 20
0.0
 30
0.0
  9
$PLIMCHECK
 70
     0
  9
$PEXTMIN
 10
1.0000000000E+20
 20
1.0000000000E+20
 30
1.0000000000E+20
  9
$PEXTMAX
 10
-1.0000000000E+20
 20
-1.0000000000E+20
 30
-1.0000000000E+20
  9
$PLIMMIN
 10
0.0
 20
0.0
  9
$PLIMMAX
 10
420.0
 20
297.0
  9
$UNITMODE
 70
     0
  9
$VISRETAIN
 70
     1
  9
$PLINEGEN
 70
     0
  9
$PSLTSCALE
 70
     1
  9
$TREEDEPTH
 70
  3020
  9
$CMLSTYLE
  2
Standard
  9
$CMLJUST
 70
     0
  9
$CMLSCALE
 40
20.0
  9
$PROXYGRAPHICS
 70
     1
  9
$MEASUREMENT
 70
     1
  9
$CELWEIGHT
370
    -1
  9
$ENDCAPS
280
     0
  9
$JOINSTYLE
280
     0
  9
$LWDISPLAY
290
     1
  9
$INSUNITS
 70
     4
  9
$HYPERLINKBASE
  1

  9
$STYLESHEET
  1

  9
$XEDIT
290
     1
  9
$CEPSNTYPE
380
     0
  9
$PSTYLEMODE
290
     1
  9
$FINGERPRINTGUID
  2
{FE7E5846-F804-48F5-8AB8-5F5D196A5FA9}
  9
$VERSIONGUID
  2
{FAEB1C32-E019-11D5-929B-00C0DF256EC4}
  9
$EXTNAMES
290
     1
  9
$PSVPSCALE
 40
0.0
  9
$OLESTARTUP
290
     0
  0
ENDSEC
  0
SECTION
  2
CLASSES
  0
CLASS
  1
ACDBDICTIONARYWDFLT
  2
AcDbDictionaryWithDefault
  3
ObjectDBX Classes
 90
        0
280
     0
281
     0
  0
CLASS
  1
ACDBPLACEHOLDER
  2
AcDbPlaceHolder
  3
ObjectDBX Classes
 90
        0
280
     0
281
     0
  0
CLASS
  1
LAYOUT
  2
AcDbLayout
  3
ObjectDBX Classes
 90
        0
280
     0
281
     0
  0
ENDSEC
  0
SECTION
  2
TABLES
  0
TABLE
  2
VPORT
  5
8
330
0
100
AcDbSymbolTable
 70
     1
  0
VPORT
  5
29
330
8
100
AcDbSymbolTableRecord
100
AcDbViewportTableRecord
  2
*Active
 70
     0
 10
0.0
 20
0.0
 11
1.0
 21
1.0
 12
105.0
 22
148.5
 13
0.0
 23
0.0
 14
10.0
 24
10.0
 15
10.0
 25
10.0
 16
0.0
 26
0.0
 36
1.0
 17
0.0
 27
0.0
 37
0.0
 40
297.0
 41
1.9729729729
 42
50.0
 43
0.0
 44
0.0
 50
0.0
 51
0.0
 71
     0
 72
  2000
 73
     1
 74
     3
 75
     0
 76
     0
 77
     0
 78
     0
281
     0
 65
     1
110
0.0
120
0.0
130
0.0
111
1.0
121
0.0
131
0.0
112
0.0
122
1.0
132
0.0
 79
     0
146
0.0
  0
ENDTAB
  0
TABLE
  2
LTYPE
  5
5
330
0
100
AcDbSymbolTable
 70
     6
  0
LTYPE
  5
14
330
5
100
AcDbSymbolTableRecord
100
AcDbLinetypeTableRecord
  2
ByBlock
 70
     0
  3

 72
    65
 73
     0
 40
0.0
  0
LTYPE
  5
15
330
5
100
AcDbSymbolTableRecord
100
AcDbLinetypeTableRecord
  2
ByLayer
 70
     0
  3

 72
    65
 73
     0
 40
0.0
  0
LTYPE
  5
16
330
5
100
AcDbSymbolTableRecord
100
AcDbLinetypeTableRecord
  2
Continuous
 70
     0
  3
Solid line
 72
    65
 73
     0
 40
0.0
  0
LTYPE
  5
2A
330
5
100
AcDbSymbolTableRecord
100
AcDbLinetypeTableRecord
  2
HIDDEN
 70
     0
  3
Hidden __ __ __ __ __ __ __ __ __ __ __ __ __ __
 72
    65
 73
     2
 40
1.905
 49
1.27
 74
     0
 49
-0.635
 74
     0
  0
LTYPE
  5
2B
330
5
100
AcDbSymbolTableRecord
100
AcDbLinetypeTableRecord
  2
PHANTOM
 70
     0
  3
Phantom ______  __  __  ______  __  __  ______
 72
    65
 73
     6
 40
12.7
 49
6.35
 74
     0
 49
-1.27
 74
     0
 49
1.27
 74
     0
 49
-1.27
 74
     0
 49
1.27
 74
     0
 49
-1.27
 74
     0
  0
LTYPE
  5
2C
330
5
100
AcDbSymbolTableRecord
100
AcDbLinetypeTableRecord
  2
CENTER
 70
     0
  3
Center ____ _ ____ _ ____ _ ____ _ ____ _ ____
 72
    65
 73
     4
 40
10.16
 49
6.35
 74
     0
 49
-1.27
 74
     0
 49
1.27
 74
     0
 49
-1.27
 74
     0
  0
LTYPE
  5
2D
330
5
100
AcDbSymbolTableRecord
100
AcDbLinetypeTableRecord
  2
CENTERX2
 70
     0
  3
Center (2x) ________  __  ________  __  _____
 72
    65
 73
     4
 40
20.32
 49
12.7
 74
     0
 49
-2.54
 74
     0
 49
2.54
 74
     0
 49
-2.54
 74
     0
  0
LTYPE
  5
2E
330
5
100
AcDbSymbolTableRecord
100
AcDbLinetypeTableRecord
  2
DOT2
 70
     0
  3
Dot (.5x) ........................................
 72
    65
 73
     2
 40
0.635
 49
0.0
 74
     0
 49
-0.635
 74
     0
  0
ENDTAB
  0
TABLE
  2
LAYER
  5
2
330
0
100
AcDbSymbolTable
 70
     4
  0
LAYER
  5
10
330
2
100
AcDbSymbolTableRecord
100
AcDbLayerTableRecord
  2
0
 70
     0
 62
     7
  6
Continuous
370
    -3
390
F
  0
LAYER
  5
2F
330
2
100
AcDbSymbolTableRecord
100
AcDbLayerTableRecord
  2
SLD-0
 70
     0
 62
     7
  6
Continuous
370
     0
390
F
  0
LAYER
  5
30
330
2
100
AcDbSymbolTableRecord
100
AcDbLayerTableRecord
  2
SLD-DEFPOINTS
 70
     0
 62
     7
  6
Continuous
370
     0
390
F
  0
LAYER
  5
174
330
2
100
AcDbSymbolTableRecord
100
AcDbLayerTableRecord
  2
Defpoints
 70
     0
 62
     7
  6
Continuous
290
     0
370
    -3
390
F
  0
ENDTAB
  0
TABLE
  2
STYLE
  5
3
330
0
100
AcDbSymbolTable
 70
     4
  0
STYLE
  5
11
330
3
100
AcDbSymbolTableRecord
100
AcDbTextStyleTableRecord
  2
Standard
 70
     0
 40
0.0
 41
1.0
 50
0.0
 71
     0
 42
2.5
  3
txt
  4
bigfont
  0
STYLE
  5
34
330
3
100
AcDbSymbolTableRecord
100
AcDbTextStyleTableRecord
  2
SLDTEXTSTYLE0
 70
     0
 40
0.0
 41
0.7
 50
0.0
 71
     0
 42
0.2
  3
TXT
  4
bigfont
  0
STYLE
  5
3A
330
3
100
AcDbSymbolTableRecord
100
AcDbTextStyleTableRecord
  2
SLDTEXTSTYLE1
 70
     0
 40
0.0
 41
0.75
 50
0.0
 71
     0
 42
0.2
  3
TXT
  4
bigfont
  0
STYLE
  5
18F
330
3
100
AcDbSymbolTableRecord
100
AcDbTextStyleTableRecord
  2
SLDTEXTSTYLE2
 70
     0
 40
0.0
 41
0.96
 50
0.0
 71
     0
 42
0.2
  3
TXT
  4
bigfont
  0
ENDTAB
  0
TABLE
  2
VIEW
  5
6
330
0
100
AcDbSymbolTable
 70
     0
  0
ENDTAB
  0
TABLE
  2
UCS
  5
7
330
0
100
AcDbSymbolTable
 70
     0
  0
ENDTAB
  0
TABLE
  2
APPID
  5
9
330
0
100
AcDbSymbolTable
 70
     1
  0
APPID
  5
12
330
9
100
AcDbSymbolTableRecord
100
AcDbRegAppTableRecord
  2
ACAD
 70
     0
  0
ENDTAB
  0
TABLE
  2
DIMSTYLE
  5
A
330
0
100
AcDbSymbolTable
 70
     7
100
AcDbDimStyleTable
  0
DIMSTYLE
105
27
330
A
100
AcDbSymbolTableRecord
100
AcDbDimStyleTableRecord
  2
ISO-25
 70
     0
 41
2.5
 42
0.625
 43
3.75
 44
1.25
 73
     0
 74
     0
 77
     1
 78
     8
140
2.5
141
2.5
143
0.0393700787
147
0.625
171
     3
172
     1
271
     2
272
     2
274
     3
278
    44
283
     0
284
     8
340
11
  0
DIMSTYLE
105
182
102
{ACAD_REACTORS
330
173
330
1C4
330
220
330
2A1
330
2B8
330
2CF
330
2E7
330
31D
330
334
330
34B
330
362
330
37A
102
}
330
A
100
AcDbSymbolTableRecord
100
AcDbDimStyleTableRecord
  2
SLDDIMSTYLE0
 70
     0
 41
3.0
 44
0.0
 73
     0
 74
     0
 77
     3
 78
    12
140
3.5
147
0.875
173
     1
271
     0
272
     3
284
    12
340
3A
341
183
343
183
344
183
  0
DIMSTYLE
105
19F
102
{ACAD_REACTORS
330
191
330
287
330
303
102
}
330
A
100
AcDbSymbolTableRecord
100
AcDbDimStyleTableRecord
  2
SLDDIMSTYLE1
 70
     0
 41
3.0
 44
0.0
 73
     0
 74
     0
 77
     3
 78
    12
140
3.5
147
0.875
173
     1
271
     0
272
     2
284
    12
340
3A
341
183
343
183
344
183
  0
DIMSTYLE
105
1B9
102
{ACAD_REACTORS
330
1AC
330
1EF
330
207
330
253
330
26B
102
}
330
A
100
AcDbSymbolTableRecord
100
AcDbDimStyleTableRecord
  2
SLDDIMSTYLE2
 70
     0
 41
3.0
 44
0.0
 73
     0
 74
     0
 77
     3
 78
    12
140
3.5
147
0.875
173
     1
271
     1
272
     3
284
    12
340
3A
341
183
343
183
344
183
  0
DIMSTYLE
105
1E8
102
{ACAD_REACTORS
330
1DB
102
}
330
A
100
AcDbSymbolTableRecord
100
AcDbDimStyleTableRecord
  2
SLDDIMSTYLE3
 70
     0
 41
3.0
 44
0.0
 78
    12
140
3.5
147
0.875
172
     1
173
     1
271
     0
272
     2
284
    12
340
3A
341
57
343
57
344
57
  0
DIMSTYLE
105
249
102
{ACAD_REACTORS
330
23C
102
}
330
A
100
AcDbSymbolTableRecord
100
AcDbDimStyleTableRecord
  2
SLDDIMSTYLE4
 70
     0
 41
3.0
 44
0.0
 78
    12
140
3.5
147
0.875
172
     1
173
     1
271
     1
272
     3
284
    12
340
3A
341
57
343
57
344
57
  0
DIMSTYLE
105
39F
102
{ACAD_REACTORS
330
392
102
}
330
A
100
AcDbSymbolTableRecord
100
AcDbDimStyleTableRecord
  2
SLDDIMSTYLE5
 70
     0
 41
3.0
 44
0.0
 78
    12
140
3.5
147
0.875
172
     1
173
     1
271
     0
272
     3
284
    12
340
3A
341
183
343
183
344
183
  0
ENDTAB
  0
TABLE
  2
BLOCK_RECORD
  5
1
330
0
100
AcDbSymbolTable
 70
    37
  0
BLOCK_RECORD
  5
1F
330
1
100
AcDbSymbolTableRecord
100
AcDbBlockTableRecord
  2
*Model_Space
340
22
  0
BLOCK_RECORD
  5
1B
330
1
100
AcDbSymbolTableRecord
100
AcDbBlockTableRecord
  2
*Paper_Space
340
1E
  0
BLOCK_RECORD
  5
23
330
1
100
AcDbSymbolTableRecord
100
AcDbBlockTableRecord
  2
*Paper_Space0
340
26
  0
BLOCK_RECORD
  5
31
330
1
100
AcDbSymbolTableRecord
100
AcDbBlockTableRecord
  2
注記
340
0
  0
BLOCK_RECORD
  5
37
330
1
100
AcDbSymbolTableRecord
100
AcDbBlockTableRecord
  2
NOTE53
340
0
102
{BLKREFS
331
3B3
102
}
  0
BLOCK_RECORD
  5
3C
330
1
100
AcDbSymbolTableRecord
100
AcDbBlockTableRecord
  2
SW_CENTERMARK0
340
0
102
{BLKREFS
331
3B4
102
}
  0
BLOCK_RECORD
  5
47
330
1
100
AcDbSymbolTableRecord
100
AcDbBlockTableRecord
  2
Dim0
340
0
102
{BLKREFS
331
3B5
102
}
  0
BLOCK_RECORD
  5
4C
330
1
100
AcDbSymbolTableRecord
100
AcDbBlockTableRecord
  2
SW_CENTERMARK1
340
0
102
{BLKREFS
331
3B6
102
}
  0
BLOCK_RECORD
  5
57
330
1
100
AcDbSymbolTableRecord
100
AcDbBlockTableRecord
  2
_OPEN30
340
0
102
{BLKREFS
331
1E2
331
1E1
331
1E9
331
243
331
242
331
24A
331
3B7
331
3B8
102
}
  0
BLOCK_RECORD
  5
5D
330
1
100
AcDbSymbolTableRecord
100
AcDbBlockTableRecord
  2
NOTE55
340
0
102
{BLKREFS
331
3B9
102
}
  0
BLOCK_RECORD
  5
61
330
1
100
AcDbSymbolTableRecord
100
AcDbBlockTableRecord
  2
SW_CENTERMARK2
340
0
102
{BLKREFS
331
3BA
102
}
  0
BLOCK_RECORD
  5
68
330
1
100
AcDbSymbolTableRecord
100
AcDbBlockTableRecord
  2
SW_CENTERMARK3
340
0
102
{BLKREFS
331
3BB
102
}
  0
BLOCK_RECORD
  5
73
330
1
100
AcDbSymbolTableRecord
100
AcDbBlockTableRecord
  2
SW_CENTERMARK4
340
0
102
{BLKREFS
331
3BC
102
}
  0
BLOCK_RECORD
  5
7E
330
1
100
AcDbSymbolTableRecord
100
AcDbBlockTableRecord
  2
SW_CENTERMARK5
340
0
102
{BLKREFS
331
3BD
102
}
  0
BLOCK_RECORD
  5
89
330
1
100
AcDbSymbolTableRecord
100
AcDbBlockTableRecord
  2
SW_CENTERMARK6
340
0
102
{BLKREFS
331
3BE
102
}
  0
BLOCK_RECORD
  5
175
330
1
100
AcDbSymbolTableRecord
100
AcDbBlockTableRecord
  2
*D13
340
0
  0
BLOCK_RECORD
  5
183
330
1
100
AcDbSymbolTableRecord
100
AcDbBlockTableRecord
  2
_None
340
0
102
{BLKREFS
331
17A
331
179
331
197
331
196
331
1B2
331
1B1
331
1CA
331
1C9
331
1F5
331
1F4
331
20D
331
20C
331
227
331
226
331
259
331
258
331
272
331
271
331
28D
331
28C
331
2A7
331
2A6
331
2BE
331
2BD
331
2D5
331
2D4
331
2EE
331
2ED
331
309
331
308
331
323
331
322
331
33A
331
339
331
351
331
350
331
368
331
367
331
380
331
37F
331
399
331
398
102
}
  0
BLOCK_RECORD
  5
192
330
1
100
AcDbSymbolTableRecord
100
AcDbBlockTableRecord
  2
*D15
340
0
  0
BLOCK_RECORD
  5
1AD
330
1
100
AcDbSymbolTableRecord
100
AcDbBlockTableRecord
  2
*D16
340
0
  0
BLOCK_RECORD
  5
1C5
330
1
100
AcDbSymbolTableRecord
100
AcDbBlockTableRecord
  2
*D17
340
0
  0
BLOCK_RECORD
  5
1DC
330
1
100
AcDbSymbolTableRecord
100
AcDbBlockTableRecord
  2
*D18
340
0
  0
BLOCK_RECORD
  5
1F0
330
1
100
AcDbSymbolTableRecord
100
AcDbBlockTableRecord
  2
*D19
340
0
  0
BLOCK_RECORD
  5
208
330
1
100
AcDbSymbolTableRecord
100
AcDbBlockTableRecord
  2
*D20
340
0
  0
BLOCK_RECORD
  5
221
330
1
100
AcDbSymbolTableRecord
100
AcDbBlockTableRecord
  2
*D21
340
0
  0
BLOCK_RECORD
  5
23D
330
1
100
AcDbSymbolTableRecord
100
AcDbBlockTableRecord
  2
*D22
340
0
  0
BLOCK_RECORD
  5
254
330
1
100
AcDbSymbolTableRecord
100
AcDbBlockTableRecord
  2
*D23
340
0
  0
BLOCK_RECORD
  5
26C
330
1
100
AcDbSymbolTableRecord
100
AcDbBlockTableRecord
  2
*D24
340
0
  0
BLOCK_RECORD
  5
288
330
1
100
AcDbSymbolTableRecord
100
AcDbBlockTableRecord
  2
*D25
340
0
  0
BLOCK_RECORD
  5
2A2
330
1
100
AcDbSymbolTableRecord
100
AcDbBlockTableRecord
  2
*D26
340
0
  0
BLOCK_RECORD
  5
2B9
330
1
100
AcDbSymbolTableRecord
100
AcDbBlockTableRecord
  2
*D27
340
0
  0
BLOCK_RECORD
  5
2D0
330
1
100
AcDbSymbolTableRecord
100
AcDbBlockTableRecord
  2
*D28
340
0
  0
BLOCK_RECORD
  5
2E8
330
1
100
AcDbSymbolTableRecord
100
AcDbBlockTableRecord
  2
*D29
340
0
  0
BLOCK_RECORD
  5
304
330
1
100
AcDbSymbolTableRecord
100
AcDbBlockTableRecord
  2
*D30
340
0
  0
BLOCK_RECORD
  5
31E
330
1
100
AcDbSymbolTableRecord
100
AcDbBlockTableRecord
  2
*D31
340
0
  0
BLOCK_RECORD
  5
335
330
1
100
AcDbSymbolTableRecord
100
AcDbBlockTableRecord
  2
*D32
340
0
  0
BLOCK_RECORD
  5
34C
330
1
100
AcDbSymbolTableRecord
100
AcDbBlockTableRecord
  2
*D33
340
0
  0
BLOCK_RECORD
  5
363
330
1
100
AcDbSymbolTableRecord
100
AcDbBlockTableRecord
  2
*D34
340
0
  0
BLOCK_RECORD
  5
37B
330
1
100
AcDbSymbolTableRecord
100
AcDbBlockTableRecord
  2
*D35
340
0
  0
BLOCK_RECORD
  5
393
330
1
100
AcDbSymbolTableRecord
100
AcDbBlockTableRecord
  2
*D36
340
0
  0
ENDTAB
  0
ENDSEC
  0
SECTION
  2
BLOCKS
  0
BLOCK
  5
20
330
1F
100
AcDbEntity
  8
0
100
AcDbBlockBegin
  2
*Model_Space
 70
     0
 71
     0
 10
0.0
 20
0.0
 30
0.0
  3
*Model_Space
  1

  0
ENDBLK
  5
21
330
1F
100
AcDbEntity
  8
0
100
AcDbBlockEnd
  0
BLOCK
  5
1C
330
1B
100
AcDbEntity
 67
     1
  8
0
100
AcDbBlockBegin
  2
*Paper_Space
 70
     0
 71
     0
 10
0.0
 20
0.0
 30
0.0
  3
*Paper_Space
  1

  0
ENDBLK
  5
1D
330
1B
100
AcDbEntity
 67
     1
  8
0
100
AcDbBlockEnd
  0
BLOCK
  5
24
330
23
100
AcDbEntity
  8
0
100
AcDbBlockBegin
  2
*Paper_Space0
 70
     0
 71
     0
 10
0.0
 20
0.0
 30
0.0
  3
*Paper_Space0
  1

  0
ENDBLK
  5
25
330
23
100
AcDbEntity
  8
0
100
AcDbBlockEnd
  0
BLOCK
  5
32
330
31
100
AcDbEntity
  8
0
100
AcDbBlockBegin
  2
注記
 70
     0
 71
     0
 10
0.0
 20
0.0
 30
0.0
  3
注記
  1

  0
MTEXT
  5
35
330
31
100
AcDbEntity
  8
0
  6
Continuous
 62
     7
370
     0
100
AcDbMText
 10
0.2636785918
 20
9.0739778448
 30
0.0
 40
3.5
 41
0.0
 71
     1
 72
     1
  1
１．特記ナキ角部ハ、バリ　カエリノ無キコト。
  7
SLDTEXTSTYLE0
 73
     1
 44
1.0
  0
MTEXT
  5
36
330
31
100
AcDbEntity
  8
0
  6
Continuous
 62
     7
370
     0
100
AcDbMText
 10
0.2636785918
 20
3.5759549983
 30
0.0
 40
3.5
 41
0.0
 71
     1
 72
     1
  1
２．特記ナキ隅部ハ、Ｒ０．４ＭＡＸトスル。
  7
SLDTEXTSTYLE0
 73
     1
 44
1.0
  0
ENDBLK
  5
33
330
31
100
AcDbEntity
  8
0
100
AcDbBlockEnd
  0
BLOCK
  5
38
330
37
100
AcDbEntity
  8
0
100
AcDbBlockBegin
  2
NOTE53
 70
     0
 71
     0
 10
0.0
 20
0.0
 30
0.0
  3
NOTE53
  1

  0
MTEXT
  5
3B
330
37
100
AcDbEntity
  8
SLD-0
100
AcDbMText
 10
0.0004034493
 20
4.5290506798
 30
0.0
 40
3.5
 41
0.0
 71
     1
 72
     1
  1
M6
  7
SLDTEXTSTYLE1
 73
     1
 44
1.0
  0
ENDBLK
  5
39
330
37
100
AcDbEntity
  8
0
100
AcDbBlockEnd
  0
BLOCK
  5
3D
330
3C
100
AcDbEntity
  8
0
100
AcDbBlockBegin
  2
SW_CENTERMARK0
 70
     0
 71
     0
 10
0.0
 20
0.0
 30
0.0
  3
SW_CENTERMARK0
  1

  0
LINE
  5
3F
330
3C
100
AcDbEntity
  8
SLD-0
  6
Continuous
 62
     7
100
AcDbLine
 10
68.0252475903
 20
137.40445187
 30
0.0
 11
68.0252475903
 21
139.90445187
 31
0.0
  0
LINE
  5
40
330
3C
100
AcDbEntity
  8
SLD-0
  6
Continuous
 62
     7
100
AcDbLine
 10
68.0252475903
 20
137.40445187
 30
0.0
 11
65.5252475903
 21
137.40445187
 31
0.0
  0
LINE
  5
41
330
3C
100
AcDbEntity
  8
SLD-0
  6
Continuous
 62
     7
100
AcDbLine
 10
68.0252475903
 20
137.40445187
 30
0.0
 11
68.0252475903
 21
134.90445187
 31
0.0
  0
LINE
  5
42
330
3C
100
AcDbEntity
  8
SLD-0
  6
Continuous
 62
     7
100
AcDbLine
 10
68.0252475903
 20
137.40445187
 30
0.0
 11
70.5252475903
 21
137.40445187
 31
0.0
  0
LINE
  5
43
330
3C
100
AcDbEntity
  8
SLD-0
  6
Continuous
 62
     7
100
AcDbLine
 10
68.0252475903
 20
142.40445187
 30
0.0
 11
68.0252475903
 21
157.8976265722
 31
0.0
  0
LINE
  5
44
330
3C
100
AcDbEntity
  8
SLD-0
  6
Continuous
 62
     7
100
AcDbLine
 10
63.0252475903
 20
137.40445187
 30
0.0
 11
55.5252475903
 21
137.40445187
 31
0.0
  0
LINE
  5
45
330
3C
100
AcDbEntity
  8
SLD-0
  6
Continuous
 62
     7
100
AcDbLine
 10
68.0252475903
 20
132.40445187
 30
0.0
 11
68.0252475903
 21
124.90445187
 31
0.0
  0
LINE
  5
46
330
3C
100
AcDbEntity
  8
SLD-0
  6
Continuous
 62
     7
100
AcDbLine
 10
73.0252475903
 20
137.40445187
 30
0.0
 11
80.5252475903
 21
137.40445187
 31
0.0
  0
ENDBLK
  5
3E
330
3C
100
AcDbEntity
  8
0
100
AcDbBlockEnd
  0
BLOCK
  5
48
330
47
100
AcDbEntity
  8
0
100
AcDbBlockBegin
  2
Dim0
 70
     0
 71
     0
 10
0.0
 20
0.0
 30
0.0
  3
Dim0
  1

  0
POINT
  5
4A
330
47
100
AcDbEntity
  8
SLD-DEFPOINTS
100
AcDbPoint
 10
134.2473273402
 20
115.90445187
 30
0.0
  0
POINT
  5
4B
330
47
100
AcDbEntity
  8
SLD-DEFPOINTS
100
AcDbPoint
 10
134.2473273402
 20
115.90445187
 30
0.0
  0
ENDBLK
  5
49
330
47
100
AcDbEntity
  8
0
100
AcDbBlockEnd
  0
BLOCK
  5
4D
330
4C
100
AcDbEntity
  8
0
100
AcDbBlockBegin
  2
SW_CENTERMARK1
 70
     0
 71
     0
 10
0.0
 20
0.0
 30
0.0
  3
SW_CENTERMARK1
  1

  0
LINE
  5
4F
330
4C
100
AcDbEntity
  8
SLD-0
  6
Continuous
 62
     7
100
AcDbLine
 10
141.7473273402
 20
122.40445187
 30
0.0
 11
141.7473273402
 21
124.90445187
 31
0.0
  0
LINE
  5
50
330
4C
100
AcDbEntity
  8
SLD-0
  6
Continuous
 62
     7
100
AcDbLine
 10
141.7473273402
 20
122.40445187
 30
0.0
 11
139.2473273402
 21
122.40445187
 31
0.0
  0
LINE
  5
51
330
4C
100
AcDbEntity
  8
SLD-0
  6
Continuous
 62
     7
100
AcDbLine
 10
141.7473273402
 20
122.40445187
 30
0.0
 11
141.7473273402
 21
119.90445187
 31
0.0
  0
LINE
  5
52
330
4C
100
AcDbEntity
  8
SLD-0
  6
Continuous
 62
     7
100
AcDbLine
 10
141.7473273402
 20
122.40445187
 30
0.0
 11
144.2473273402
 21
122.40445187
 31
0.0
  0
LINE
  5
53
330
4C
100
AcDbEntity
  8
SLD-0
  6
Continuous
 62
     7
100
AcDbLine
 10
141.7473273402
 20
127.40445187
 30
0.0
 11
141.7473273402
 21
130.40445187
 31
0.0
  0
LINE
  5
54
330
4C
100
AcDbEntity
  8
SLD-0
  6
Continuous
 62
     7
100
AcDbLine
 10
136.7473273402
 20
122.40445187
 30
0.0
 11
133.7473273402
 21
122.40445187
 31
0.0
  0
LINE
  5
55
330
4C
100
AcDbEntity
  8
SLD-0
  6
Continuous
 62
     7
100
AcDbLine
 10
141.7473273402
 20
117.40445187
 30
0.0
 11
141.7473273402
 21
114.40445187
 31
0.0
  0
LINE
  5
56
330
4C
100
AcDbEntity
  8
SLD-0
  6
Continuous
 62
     7
100
AcDbLine
 10
146.7473273402
 20
122.40445187
 30
0.0
 11
149.7473273402
 21
122.40445187
 31
0.0
  0
ENDBLK
  5
4E
330
4C
100
AcDbEntity
  8
0
100
AcDbBlockEnd
  0
BLOCK
  5
58
330
57
100
AcDbEntity
  8
0
100
AcDbBlockBegin
  2
_OPEN30
 70
     0
 71
     0
 10
0.0
 20
0.0
 30
0.0
  3
_OPEN30
  1

  0
LINE
  5
5A
330
57
100
AcDbEntity
  8
SLD-0
  6
Continuous
100
AcDbLine
 10
-1.0
 20
0.267949
 30
0.0
 11
0.0
 21
0.0
 31
0.0
  0
LINE
  5
5B
330
57
100
AcDbEntity
  8
SLD-0
  6
Continuous
100
AcDbLine
 10
0.0
 20
0.0
 30
0.0
 11
-1.0
 21
-0.267949
 31
0.0
  0
LINE
  5
5C
330
57
100
AcDbEntity
  8
SLD-0
  6
Continuous
100
AcDbLine
 10
0.0
 20
0.0
 30
0.0
 11
-1.0
 21
0.0
 31
0.0
  0
ENDBLK
  5
59
330
57
100
AcDbEntity
  8
0
100
AcDbBlockEnd
  0
BLOCK
  5
5E
330
5D
100
AcDbEntity
  8
0
100
AcDbBlockBegin
  2
NOTE55
 70
     0
 71
     0
 10
0.0
 20
0.0
 30
0.0
  3
NOTE55
  1

  0
MTEXT
  5
60
330
5D
100
AcDbEntity
  8
SLD-0
100
AcDbMText
 10
0.0013805123
 20
4.5290519025
 30
0.0
 40
3.5
 41
0.0
 71
     1
 72
     1
  1
3-M4
  7
SLDTEXTSTYLE1
 73
     1
 44
1.0
  0
ENDBLK
  5
5F
330
5D
100
AcDbEntity
  8
0
100
AcDbBlockEnd
  0
BLOCK
  5
62
330
61
100
AcDbEntity
  8
0
100
AcDbBlockBegin
  2
SW_CENTERMARK2
 70
     0
 71
     0
 10
0.0
 20
0.0
 30
0.0
  3
SW_CENTERMARK2
  1

  0
LINE
  5
64
330
61
100
AcDbEntity
  8
SLD-0
  6
Continuous
 62
     7
100
AcDbLine
 10
68.0252475903
 20
206.888923665
 30
0.0
 11
68.0252475903
 21
209.388923665
 31
0.0
  0
LINE
  5
65
330
61
100
AcDbEntity
  8
SLD-0
  6
Continuous
 62
     7
100
AcDbLine
 10
68.0252475903
 20
206.888923665
 30
0.0
 11
65.5252475903
 21
206.888923665
 31
0.0
  0
LINE
  5
66
330
61
100
AcDbEntity
  8
SLD-0
  6
Continuous
 62
     7
100
AcDbLine
 10
68.0252475903
 20
206.888923665
 30
0.0
 11
68.0252475903
 21
204.388923665
 31
0.0
  0
LINE
  5
67
330
61
100
AcDbEntity
  8
SLD-0
  6
Continuous
 62
     7
100
AcDbLine
 10
68.0252475903
 20
206.888923665
 30
0.0
 11
70.5252475903
 21
206.888923665
 31
0.0
  0
ENDBLK
  5
63
330
61
100
AcDbEntity
  8
0
100
AcDbBlockEnd
  0
BLOCK
  5
69
330
68
100
AcDbEntity
  8
0
100
AcDbBlockBegin
  2
SW_CENTERMARK3
 70
     0
 71
     0
 10
0.0
 20
0.0
 30
0.0
  3
SW_CENTERMARK3
  1

  0
LINE
  5
6B
330
68
100
AcDbEntity
  8
SLD-0
  6
Continuous
 62
     7
100
AcDbLine
 10
49.0252475903
 20
206.888923665
 30
0.0
 11
49.0252475903
 21
209.388923665
 31
0.0
  0
LINE
  5
6C
330
68
100
AcDbEntity
  8
SLD-0
  6
Continuous
 62
     7
100
AcDbLine
 10
49.0252475903
 20
206.888923665
 30
0.0
 11
46.5252475903
 21
206.888923665
 31
0.0
  0
LINE
  5
6D
330
68
100
AcDbEntity
  8
SLD-0
  6
Continuous
 62
     7
100
AcDbLine
 10
49.0252475903
 20
206.888923665
 30
0.0
 11
49.0252475903
 21
204.388923665
 31
0.0
  0
LINE
  5
6E
330
68
100
AcDbEntity
  8
SLD-0
  6
Continuous
 62
     7
100
AcDbLine
 10
49.0252475903
 20
206.888923665
 30
0.0
 11
51.5252475903
 21
206.888923665
 31
0.0
  0
LINE
  5
6F
330
68
100
AcDbEntity
  8
SLD-0
  6
Continuous
 62
     7
100
AcDbLine
 10
49.0252475903
 20
209.388923665
 30
0.0
 11
49.0252475903
 21
211.038923665
 31
0.0
  0
LINE
  5
70
330
68
100
AcDbEntity
  8
SLD-0
  6
Continuous
 62
     7
100
AcDbLine
 10
46.5252475903
 20
206.888923665
 30
0.0
 11
44.8752475903
 21
206.888923665
 31
0.0
  0
LINE
  5
71
330
68
100
AcDbEntity
  8
SLD-0
  6
Continuous
 62
     7
100
AcDbLine
 10
49.0252475903
 20
204.388923665
 30
0.0
 11
49.0252475903
 21
202.738923665
 31
0.0
  0
LINE
  5
72
330
68
100
AcDbEntity
  8
SLD-0
  6
Continuous
 62
     7
100
AcDbLine
 10
51.5252475903
 20
206.888923665
 30
0.0
 11
53.1752475903
 21
206.888923665
 31
0.0
  0
ENDBLK
  5
6A
330
68
100
AcDbEntity
  8
0
100
AcDbBlockEnd
  0
BLOCK
  5
74
330
73
100
AcDbEntity
  8
0
100
AcDbBlockBegin
  2
SW_CENTERMARK4
 70
     0
 71
     0
 10
0.0
 20
0.0
 30
0.0
  3
SW_CENTERMARK4
  1

  0
LINE
  5
76
330
73
100
AcDbEntity
  8
SLD-0
  6
Continuous
 62
     7
100
AcDbLine
 10
87.0252475903
 20
206.888923665
 30
0.0
 11
87.0252475903
 21
209.388923665
 31
0.0
  0
LINE
  5
77
330
73
100
AcDbEntity
  8
SLD-0
  6
Continuous
 62
     7
100
AcDbLine
 10
87.0252475903
 20
206.888923665
 30
0.0
 11
84.5252475903
 21
206.888923665
 31
0.0
  0
LINE
  5
78
330
73
100
AcDbEntity
  8
SLD-0
  6
Continuous
 62
     7
100
AcDbLine
 10
87.0252475903
 20
206.888923665
 30
0.0
 11
87.0252475903
 21
204.388923665
 31
0.0
  0
LINE
  5
79
330
73
100
AcDbEntity
  8
SLD-0
  6
Continuous
 62
     7
100
AcDbLine
 10
87.0252475903
 20
206.888923665
 30
0.0
 11
89.5252475903
 21
206.888923665
 31
0.0
  0
LINE
  5
7A
330
73
100
AcDbEntity
  8
SLD-0
  6
Continuous
 62
     7
100
AcDbLine
 10
87.0252475903
 20
209.388923665
 30
0.0
 11
87.0252475903
 21
211.038923665
 31
0.0
  0
LINE
  5
7B
330
73
100
AcDbEntity
  8
SLD-0
  6
Continuous
 62
     7
100
AcDbLine
 10
84.5252475903
 20
206.888923665
 30
0.0
 11
82.8752475903
 21
206.888923665
 31
0.0
  0
LINE
  5
7C
330
73
100
AcDbEntity
  8
SLD-0
  6
Continuous
 62
     7
100
AcDbLine
 10
87.0252475903
 20
204.388923665
 30
0.0
 11
87.0252475903
 21
202.738923665
 31
0.0
  0
LINE
  5
7D
330
73
100
AcDbEntity
  8
SLD-0
  6
Continuous
 62
     7
100
AcDbLine
 10
89.5252475903
 20
206.888923665
 30
0.0
 11
91.1752475903
 21
206.888923665
 31
0.0
  0
ENDBLK
  5
75
330
73
100
AcDbEntity
  8
0
100
AcDbBlockEnd
  0
BLOCK
  5
7F
330
7E
100
AcDbEntity
  8
0
100
AcDbBlockBegin
  2
SW_CENTERMARK5
 70
     0
 71
     0
 10
0.0
 20
0.0
 30
0.0
  3
SW_CENTERMARK5
  1

  0
LINE
  5
81
330
7E
100
AcDbEntity
  8
SLD-0
  6
Continuous
 62
     7
100
AcDbLine
 10
52.0252475903
 20
216.888923665
 30
0.0
 11
52.0252475903
 21
219.388923665
 31
0.0
  0
LINE
  5
82
330
7E
100
AcDbEntity
  8
SLD-0
  6
Continuous
 62
     7
100
AcDbLine
 10
52.0252475903
 20
216.888923665
 30
0.0
 11
49.5252475903
 21
216.888923665
 31
0.0
  0
LINE
  5
83
330
7E
100
AcDbEntity
  8
SLD-0
  6
Continuous
 62
     7
100
AcDbLine
 10
52.0252475903
 20
216.888923665
 30
0.0
 11
52.0252475903
 21
214.388923665
 31
0.0
  0
LINE
  5
84
330
7E
100
AcDbEntity
  8
SLD-0
  6
Continuous
 62
     7
100
AcDbLine
 10
52.0252475903
 20
216.888923665
 30
0.0
 11
54.5252475903
 21
216.888923665
 31
0.0
  0
LINE
  5
85
330
7E
100
AcDbEntity
  8
SLD-0
  6
Continuous
 62
     7
100
AcDbLine
 10
52.0252475903
 20
221.888923665
 30
0.0
 11
52.0252475903
 21
222.388923665
 31
0.0
  0
LINE
  5
86
330
7E
100
AcDbEntity
  8
SLD-0
  6
Continuous
 62
     7
100
AcDbLine
 10
47.0252475903
 20
216.888923665
 30
0.0
 11
46.5252475903
 21
216.888923665
 31
0.0
  0
LINE
  5
87
330
7E
100
AcDbEntity
  8
SLD-0
  6
Continuous
 62
     7
100
AcDbLine
 10
52.0252475903
 20
211.888923665
 30
0.0
 11
52.0252475903
 21
211.388923665
 31
0.0
  0
LINE
  5
88
330
7E
100
AcDbEntity
  8
SLD-0
  6
Continuous
 62
     7
100
AcDbLine
 10
57.0252475903
 20
216.888923665
 30
0.0
 11
57.5252475903
 21
216.888923665
 31
0.0
  0
ENDBLK
  5
80
330
7E
100
AcDbEntity
  8
0
100
AcDbBlockEnd
  0
BLOCK
  5
8A
330
89
100
AcDbEntity
  8
0
100
AcDbBlockBegin
  2
SW_CENTERMARK6
 70
     0
 71
     0
 10
0.0
 20
0.0
 30
0.0
  3
SW_CENTERMARK6
  1

  0
LINE
  5
8C
330
89
100
AcDbEntity
  8
SLD-0
  6
Continuous
 62
     7
100
AcDbLine
 10
84.0252475903
 20
216.888923665
 30
0.0
 11
84.0252475903
 21
219.388923665
 31
0.0
  0
LINE
  5
8D
330
89
100
AcDbEntity
  8
SLD-0
  6
Continuous
 62
     7
100
AcDbLine
 10
84.0252475903
 20
216.888923665
 30
0.0
 11
81.5252475903
 21
216.888923665
 31
0.0
  0
LINE
  5
8E
330
89
100
AcDbEntity
  8
SLD-0
  6
Continuous
 62
     7
100
AcDbLine
 10
84.0252475903
 20
216.888923665
 30
0.0
 11
84.0252475903
 21
214.388923665
 31
0.0
  0
LINE
  5
8F
330
89
100
AcDbEntity
  8
SLD-0
  6
Continuous
 62
     7
100
AcDbLine
 10
84.0252475903
 20
216.888923665
 30
0.0
 11
86.5252475903
 21
216.888923665
 31
0.0
  0
LINE
  5
90
330
89
100
AcDbEntity
  8
SLD-0
  6
Continuous
 62
     7
100
AcDbLine
 10
84.0252475903
 20
221.888923665
 30
0.0
 11
84.0252475903
 21
222.388923665
 31
0.0
  0
LINE
  5
91
330
89
100
AcDbEntity
  8
SLD-0
  6
Continuous
 62
     7
100
AcDbLine
 10
79.0252475903
 20
216.888923665
 30
0.0
 11
78.5252475903
 21
216.888923665
 31
0.0
  0
LINE
  5
92
330
89
100
AcDbEntity
  8
SLD-0
  6
Continuous
 62
     7
100
AcDbLine
 10
84.0252475903
 20
211.888923665
 30
0.0
 11
84.0252475903
 21
211.388923665
 31
0.0
  0
LINE
  5
93
330
89
100
AcDbEntity
  8
SLD-0
  6
Continuous
 62
     7
100
AcDbLine
 10
89.0252475903
 20
216.888923665
 30
0.0
 11
89.5252475903
 21
216.888923665
 31
0.0
  0
ENDBLK
  5
8B
330
89
100
AcDbEntity
  8
0
100
AcDbBlockEnd
  0
BLOCK
  5
180
330
175
100
AcDbEntity
  8
0
100
AcDbBlockBegin
  2
*D13
 70
     1
 71
     0
 10
0.0
 20
0.0
 30
0.0
  3
*D13
  1

  0
LINE
  5
186
330
175
100
AcDbEntity
  8
SLD-0
 62
     7
100
AcDbLine
 10
69.0252475903
 20
155.90445187
 30
0.0
 11
112.0907597716
 21
155.90445187
 31
0.0
  0
LINE
  5
187
330
175
100
AcDbEntity
  8
SLD-0
 62
     7
100
AcDbLine
 10
69.0252475903
 20
115.90445187
 30
0.0
 11
112.0907597716
 21
115.90445187
 31
0.0
  0
LINE
  5
188
330
175
100
AcDbEntity
  8
SLD-0
 62
     7
100
AcDbLine
 10
111.0907597716
 20
155.90445187
 30
0.0
 11
111.0907597716
 21
115.90445187
 31
0.0
  0
LINE
  5
189
330
175
100
AcDbEntity
  8
SLD-0
 62
     7
100
AcDbLine
 10
110.2869127716
 20
152.90445187
 30
0.0
 11
111.0907597716
 21
155.90445187
 31
0.0
  0
LINE
  5
18A
330
175
100
AcDbEntity
  8
SLD-0
 62
     7
100
AcDbLine
 10
111.0907597716
 20
155.90445187
 30
0.0
 11
111.8946067716
 21
152.90445187
 31
0.0
  0
LINE
  5
18B
330
175
100
AcDbEntity
  8
SLD-0
 62
     7
100
AcDbLine
 10
111.0907597716
 20
155.90445187
 30
0.0
 11
111.0907597716
 21
152.90445187
 31
0.0
  0
LINE
  5
18C
330
175
100
AcDbEntity
  8
SLD-0
 62
     7
100
AcDbLine
 10
111.8946067716
 20
118.90445187
 30
0.0
 11
111.0907597716
 21
115.90445187
 31
0.0
  0
LINE
  5
18D
330
175
100
AcDbEntity
  8
SLD-0
 62
     7
100
AcDbLine
 10
111.0907597716
 20
115.90445187
 30
0.0
 11
110.2869127716
 21
118.90445187
 31
0.0
  0
LINE
  5
18E
330
175
100
AcDbEntity
  8
SLD-0
 62
     7
100
AcDbLine
 10
111.0907597716
 20
115.90445187
 30
0.0
 11
111.0907597716
 21
118.90445187
 31
0.0
  0
MTEXT
  5
190
330
175
100
AcDbEntity
  8
SLD-0
 62
     7
100
AcDbMText
 10
106.5640659592
 20
133.8680018104
 30
0.1
 40
3.5
 41
0.0
 71
     1
 72
     1
  1
40
  7
SLDTEXTSTYLE2
 11
6.123031769111886E-17
 21
1.0
 31
0.0
 73
     1
 44
1.0
  0
ENDBLK
  5
181
330
175
100
AcDbEntity
  8
0
100
AcDbBlockEnd
  0
BLOCK
  5
184
330
183
100
AcDbEntity
  8
0
100
AcDbBlockBegin
  2
_None
 70
     0
 71
     0
 10
0.0
 20
0.0
 30
0.0
  3
_None
  1

  0
ENDBLK
  5
185
330
183
100
AcDbEntity
  8
0
100
AcDbBlockEnd
  0
BLOCK
  5
19D
330
192
100
AcDbEntity
  8
0
100
AcDbBlockBegin
  2
*D15
 70
     1
 71
     0
 10
0.0
 20
0.0
 30
0.0
  3
*D15
  1

  0
LINE
  5
1A0
330
192
100
AcDbEntity
  8
SLD-0
100
AcDbLine
 10
44.0252475903
 20
155.90445187
 30
0.0
 11
37.7528839145
 21
155.90445187
 31
0.0
  0
LINE
  5
1A1
330
192
100
AcDbEntity
  8
SLD-0
100
AcDbLine
 10
44.0252475903
 20
150.90445187
 30
0.0
 11
37.7528839145
 21
150.90445187
 31
0.0
  0
LINE
  5
1A2
330
192
100
AcDbEntity
  8
SLD-0
100
AcDbLine
 10
38.7528839145
 20
155.90445187
 30
0.0
 11
38.7528839145
 21
160.90445187
 31
0.0
  0
LINE
  5
1A3
330
192
100
AcDbEntity
  8
SLD-0
100
AcDbLine
 10
38.7528839145
 20
155.90445187
 30
0.0
 11
38.7528839145
 21
150.90445187
 31
0.0
  0
LINE
  5
1A4
330
192
100
AcDbEntity
  8
SLD-0
100
AcDbLine
 10
38.7528839145
 20
150.90445187
 30
0.0
 11
38.7528839145
 21
145.90445187
 31
0.0
  0
LINE
  5
1A5
330
192
100
AcDbEntity
  8
SLD-0
100
AcDbLine
 10
39.5567309145
 20
158.90445187
 30
0.0
 11
38.7528839145
 21
155.90445187
 31
0.0
  0
LINE
  5
1A6
330
192
100
AcDbEntity
  8
SLD-0
100
AcDbLine
 10
38.7528839145
 20
155.90445187
 30
0.0
 11
37.9490369145
 21
158.90445187
 31
0.0
  0
LINE
  5
1A7
330
192
100
AcDbEntity
  8
SLD-0
100
AcDbLine
 10
38.7528839145
 20
155.90445187
 30
0.0
 11
38.7528839145
 21
158.90445187
 31
0.0
  0
LINE
  5
1A8
330
192
100
AcDbEntity
  8
SLD-0
100
AcDbLine
 10
37.9490369145
 20
147.90445187
 30
0.0
 11
38.7528839145
 21
150.90445187
 31
0.0
  0
LINE
  5
1A9
330
192
100
AcDbEntity
  8
SLD-0
100
AcDbLine
 10
38.7528839145
 20
150.90445187
 30
0.0
 11
39.5567309145
 21
147.90445187
 31
0.0
  0
LINE
  5
1AA
330
192
100
AcDbEntity
  8
SLD-0
100
AcDbLine
 10
38.7528839145
 20
150.90445187
 30
0.0
 11
38.7528839145
 21
147.90445187
 31
0.0
  0
MTEXT
  5
1AB
330
192
100
AcDbEntity
  8
SLD-0
100
AcDbMText
 10
34.2261901022
 20
152.3862268402
 30
0.1
 40
3.5
 41
0.0
 71
     1
 72
     1
  1
5
  7
SLDTEXTSTYLE2
 11
6.123031769111886E-17
 21
1.0
 31
0.0
 73
     1
 44
1.0
  0
ENDBLK
  5
19E
330
192
100
AcDbEntity
  8
0
100
AcDbBlockEnd
  0
BLOCK
  5
1B7
330
1AD
100
AcDbEntity
  8
0
100
AcDbBlockBegin
  2
*D16
 70
     1
 71
     0
 10
0.0
 20
0.0
 30
0.0
  3
*D16
  1

  0
LINE
  5
1BA
330
1AD
100
AcDbEntity
  8
SLD-0
 62
     7
100
AcDbLine
 10
80.5252475903
 20
114.90445187
 30
0.0
 11
80.5252475903
 21
96.5050193173
 31
0.0
  0
LINE
  5
1BB
330
1AD
100
AcDbEntity
  8
SLD-0
 62
     7
100
AcDbLine
 10
92.0252475903
 20
149.90445187
 30
0.0
 11
92.0252475903
 21
96.5050193173
 31
0.0
  0
LINE
  5
1BC
330
1AD
100
AcDbEntity
  8
SLD-0
 62
     7
100
AcDbLine
 10
80.5252475903
 20
97.5050193173
 30
0.0
 11
92.0252475903
 21
97.5050193173
 31
0.0
  0
LINE
  5
1BD
330
1AD
100
AcDbEntity
  8
SLD-0
 62
     7
100
AcDbLine
 10
83.5252475903
 20
96.7011723173
 30
0.0
 11
80.5252475903
 21
97.5050193173
 31
0.0
  0
LINE
  5
1BE
330
1AD
100
AcDbEntity
  8
SLD-0
 62
     7
100
AcDbLine
 10
80.5252475903
 20
97.5050193173
 30
0.0
 11
83.5252475903
 21
98.3088663173
 31
0.0
  0
LINE
  5
1BF
330
1AD
100
AcDbEntity
  8
SLD-0
 62
     7
100
AcDbLine
 10
80.5252475903
 20
97.5050193173
 30
0.0
 11
83.5252475903
 21
97.5050193173
 31
0.0
  0
LINE
  5
1C0
330
1AD
100
AcDbEntity
  8
SLD-0
 62
     7
100
AcDbLine
 10
89.0252475903
 20
98.3088663173
 30
0.0
 11
92.0252475903
 21
97.5050193173
 31
0.0
  0
LINE
  5
1C1
330
1AD
100
AcDbEntity
  8
SLD-0
 62
     7
100
AcDbLine
 10
92.0252475903
 20
97.5050193173
 30
0.0
 11
89.0252475903
 21
96.7011723173
 31
0.0
  0
LINE
  5
1C2
330
1AD
100
AcDbEntity
  8
SLD-0
 62
     7
100
AcDbLine
 10
92.0252475903
 20
97.5050193173
 30
0.0
 11
89.0252475903
 21
97.5050193173
 31
0.0
  0
MTEXT
  5
1C3
330
1AD
100
AcDbEntity
  8
SLD-0
 62
     7
100
AcDbMText
 10
82.2023474711
 20
102.0317131296
 30
0.1
 40
3.5
 41
0.0
 71
     1
 72
     1
  1
11.5
  7
SLDTEXTSTYLE2
 73
     1
 44
1.0
  0
ENDBLK
  5
1B8
330
1AD
100
AcDbEntity
  8
0
100
AcDbBlockEnd
  0
BLOCK
  5
1CF
330
1C5
100
AcDbEntity
  8
0
100
AcDbBlockBegin
  2
*D17
 70
     1
 71
     0
 10
0.0
 20
0.0
 30
0.0
  3
*D17
  1

  0
LINE
  5
1D1
330
1C5
100
AcDbEntity
  8
SLD-0
 62
     7
100
AcDbLine
 10
55.5252475903
 20
114.90445187
 30
0.0
 11
55.5252475903
 21
96.5050193173
 31
0.0
  0
LINE
  5
1D2
330
1C5
100
AcDbEntity
  8
SLD-0
 62
     7
100
AcDbLine
 10
80.5252475903
 20
114.90445187
 30
0.0
 11
80.5252475903
 21
96.5050193173
 31
0.0
  0
LINE
  5
1D3
330
1C5
100
AcDbEntity
  8
SLD-0
 62
     7
100
AcDbLine
 10
55.5252475903
 20
97.5050193173
 30
0.0
 11
80.5252475903
 21
97.5050193173
 31
0.0
  0
LINE
  5
1D4
330
1C5
100
AcDbEntity
  8
SLD-0
 62
     7
100
AcDbLine
 10
58.5252475903
 20
96.7011723173
 30
0.0
 11
55.5252475903
 21
97.5050193173
 31
0.0
  0
LINE
  5
1D5
330
1C5
100
AcDbEntity
  8
SLD-0
 62
     7
100
AcDbLine
 10
55.5252475903
 20
97.5050193173
 30
0.0
 11
58.5252475903
 21
98.3088663173
 31
0.0
  0
LINE
  5
1D6
330
1C5
100
AcDbEntity
  8
SLD-0
 62
     7
100
AcDbLine
 10
55.5252475903
 20
97.5050193173
 30
0.0
 11
58.5252475903
 21
97.5050193173
 31
0.0
  0
LINE
  5
1D7
330
1C5
100
AcDbEntity
  8
SLD-0
 62
     7
100
AcDbLine
 10
77.5252475903
 20
98.3088663173
 30
0.0
 11
80.5252475903
 21
97.5050193173
 31
0.0
  0
LINE
  5
1D8
330
1C5
100
AcDbEntity
  8
SLD-0
 62
     7
100
AcDbLine
 10
80.5252475903
 20
97.5050193173
 30
0.0
 11
77.5252475903
 21
96.7011723173
 31
0.0
  0
LINE
  5
1D9
330
1C5
100
AcDbEntity
  8
SLD-0
 62
     7
100
AcDbLine
 10
80.5252475903
 20
97.5050193173
 30
0.0
 11
77.5252475903
 21
97.5050193173
 31
0.0
  0
MTEXT
  5
1DA
330
1C5
100
AcDbEntity
  8
SLD-0
 62
     7
100
AcDbMText
 10
65.9887975307
 20
102.0317131296
 30
0.1
 40
3.5
 41
0.0
 71
     1
 72
     1
  1
25
  7
SLDTEXTSTYLE2
 73
     1
 44
1.0
  0
ENDBLK
  5
1D0
330
1C5
100
AcDbEntity
  8
0
100
AcDbBlockEnd
  0
BLOCK
  5
1E6
330
1DC
100
AcDbEntity
  8
0
100
AcDbBlockBegin
  2
*D18
 70
     1
 71
     0
 10
0.0
 20
0.0
 30
0.0
  3
*D18
  1

  0
INSERT
  5
1E9
330
1DC
100
AcDbEntity
  8
SLD-0
 62
     7
100
AcDbBlockReference
  2
_OPEN30
 10
71.2022748643
 20
146.886355566
 30
0.1
 41
3.0
 42
3.0
 50
251.4759476734
  0
LINE
  5
1EA
330
1DC
100
AcDbEntity
  8
SLD-0
 62
     7
100
AcDbLine
 10
71.2022748643
 20
146.886355566
 30
0.0
 11
77.3915962523
 21
165.3585134307
 31
0.0
  0
LINE
  5
1EB
330
1DC
100
AcDbEntity
  8
SLD-0
 62
     7
100
AcDbLine
 10
64.8482203164
 20
127.922548174
 30
0.0
 11
71.2022748643
 21
146.886355566
 31
0.0
  0
LINE
  5
1EC
330
1DC
100
AcDbEntity
  8
SLD-0
 62
     7
100
AcDbLine
 10
77.3915962523
 20
165.3585134307
 30
0.0
 11
91.7947339134
 21
165.3585134307
 31
0.0
  0
MTEXT
  5
1ED
330
1DC
100
AcDbEntity
  8
SLD-0
 62
     7
100
AcDbMText
 10
80.5665962523
 20
170.1326141502
 30
0.0
 40
3.5
 41
0.0
 71
     1
 72
     1
  1
%%c
  7
SLDTEXTSTYLE2
 73
     1
 44
1.0
  0
MTEXT
  5
1EE
330
1DC
100
AcDbEntity
  8
SLD-0
 62
     7
100
AcDbMText
 10
85.2022687994
 20
170.1326141502
 30
0.0
 40
3.5
 41
0.0
 71
     1
 72
     1
  1
20
  7
SLDTEXTSTYLE2
 73
     1
 44
1.0
  0
ENDBLK
  5
1E7
330
1DC
100
AcDbEntity
  8
0
100
AcDbBlockEnd
  0
BLOCK
  5
1FB
330
1F0
100
AcDbEntity
  8
0
100
AcDbBlockBegin
  2
*D19
 70
     1
 71
     0
 10
0.0
 20
0.0
 30
0.0
  3
*D19
  1

  0
LINE
  5
1FD
330
1F0
100
AcDbEntity
  8
SLD-0
 62
     7
100
AcDbLine
 10
92.0252475903
 20
155.90445187
 30
0.0
 11
101.9273736633
 21
155.90445187
 31
0.0
  0
LINE
  5
1FE
330
1F0
100
AcDbEntity
  8
SLD-0
 62
     7
100
AcDbLine
 10
81.5252475903
 20
137.40445187
 30
0.0
 11
101.9273736633
 21
137.40445187
 31
0.0
  0
LINE
  5
1FF
330
1F0
100
AcDbEntity
  8
SLD-0
 62
     7
100
AcDbLine
 10
100.9273736633
 20
155.90445187
 30
0.0
 11
100.9273736633
 21
137.40445187
 31
0.0
  0
LINE
  5
200
330
1F0
100
AcDbEntity
  8
SLD-0
 62
     7
100
AcDbLine
 10
100.1235266633
 20
152.90445187
 30
0.0
 11
100.9273736633
 21
155.90445187
 31
0.0
  0
LINE
  5
201
330
1F0
100
AcDbEntity
  8
SLD-0
 62
     7
100
AcDbLine
 10
100.9273736633
 20
155.90445187
 30
0.0
 11
101.7312206633
 21
152.90445187
 31
0.0
  0
LINE
  5
202
330
1F0
100
AcDbEntity
  8
SLD-0
 62
     7
100
AcDbLine
 10
100.9273736633
 20
155.90445187
 30
0.0
 11
100.9273736633
 21
152.90445187
 31
0.0
  0
LINE
  5
203
330
1F0
100
AcDbEntity
  8
SLD-0
 62
     7
100
AcDbLine
 10
101.7312206633
 20
140.40445187
 30
0.0
 11
100.9273736633
 21
137.40445187
 31
0.0
  0
LINE
  5
204
330
1F0
100
AcDbEntity
  8
SLD-0
 62
     7
100
AcDbLine
 10
100.9273736633
 20
137.40445187
 30
0.0
 11
100.1235266633
 21
140.40445187
 31
0.0
  0
LINE
  5
205
330
1F0
100
AcDbEntity
  8
SLD-0
 62
     7
100
AcDbLine
 10
100.9273736633
 20
137.40445187
 30
0.0
 11
100.9273736633
 21
140.40445187
 31
0.0
  0
MTEXT
  5
206
330
1F0
100
AcDbEntity
  8
SLD-0
 62
     7
100
AcDbMText
 10
96.400679851
 20
142.5815517508
 30
0.1
 40
3.5
 41
0.0
 71
     1
 72
     1
  1
18.5
  7
SLDTEXTSTYLE2
 11
6.123031769111886E-17
 21
1.0
 31
0.0
 73
     1
 44
1.0
  0
ENDBLK
  5
1FC
330
1F0
100
AcDbEntity
  8
0
100
AcDbBlockEnd
  0
BLOCK
  5
212
330
208
100
AcDbEntity
  8
0
100
AcDbBlockBegin
  2
*D20
 70
     1
 71
     0
 10
0.0
 20
0.0
 30
0.0
  3
*D20
  1

  0
LINE
  5
214
330
208
100
AcDbEntity
  8
SLD-0
 62
     7
100
AcDbLine
 10
68.0252475903
 20
136.40445187
 30
0.0
 11
68.0252475903
 21
102.0204617127
 31
0.0
  0
LINE
  5
215
330
208
100
AcDbEntity
  8
SLD-0
 62
     7
100
AcDbLine
 10
80.5252475903
 20
114.90445187
 30
0.0
 11
80.5252475903
 21
102.0204617127
 31
0.0
  0
LINE
  5
216
330
208
100
AcDbEntity
  8
SLD-0
 62
     7
100
AcDbLine
 10
68.0252475903
 20
103.0204617127
 30
0.0
 11
63.0252475903
 21
103.0204617127
 31
0.0
  0
LINE
  5
217
330
208
100
AcDbEntity
  8
SLD-0
 62
     7
100
AcDbLine
 10
68.0252475903
 20
103.0204617127
 30
0.0
 11
80.5252475903
 21
103.0204617127
 31
0.0
  0
LINE
  5
218
330
208
100
AcDbEntity
  8
SLD-0
 62
     7
100
AcDbLine
 10
80.5252475903
 20
103.0204617127
 30
0.0
 11
85.5252475903
 21
103.0204617127
 31
0.0
  0
LINE
  5
219
330
208
100
AcDbEntity
  8
SLD-0
 62
     7
100
AcDbLine
 10
65.0252475903
 20
103.8243087127
 30
0.0
 11
68.0252475903
 21
103.0204617127
 31
0.0
  0
LINE
  5
21A
330
208
100
AcDbEntity
  8
SLD-0
 62
     7
100
AcDbLine
 10
68.0252475903
 20
103.0204617127
 30
0.0
 11
65.0252475903
 21
102.2166147127
 31
0.0
  0
LINE
  5
21B
330
208
100
AcDbEntity
  8
SLD-0
 62
     7
100
AcDbLine
 10
68.0252475903
 20
103.0204617127
 30
0.0
 11
65.0252475903
 21
103.0204617127
 31
0.0
  0
LINE
  5
21C
330
208
100
AcDbEntity
  8
SLD-0
 62
     7
100
AcDbLine
 10
83.5252475903
 20
102.2166147127
 30
0.0
 11
80.5252475903
 21
103.0204617127
 31
0.0
  0
LINE
  5
21D
330
208
100
AcDbEntity
  8
SLD-0
 62
     7
100
AcDbLine
 10
80.5252475903
 20
103.0204617127
 30
0.0
 11
83.5252475903
 21
103.8243087127
 31
0.0
  0
LINE
  5
21E
330
208
100
AcDbEntity
  8
SLD-0
 62
     7
100
AcDbLine
 10
80.5252475903
 20
103.0204617127
 30
0.0
 11
83.5252475903
 21
103.0204617127
 31
0.0
  0
MTEXT
  5
21F
330
208
100
AcDbEntity
  8
SLD-0
 62
     7
100
AcDbMText
 10
70.2023474711
 20
107.5471555251
 30
0.1
 40
3.5
 41
0.0
 71
     1
 72
     1
  1
12.5
  7
SLDTEXTSTYLE2
 73
     1
 44
1.0
  0
ENDBLK
  5
213
330
208
100
AcDbEntity
  8
0
100
AcDbBlockEnd
  0
BLOCK
  5
22E
330
221
100
AcDbEntity
  8
0
100
AcDbBlockBegin
  2
*D21
 70
     1
 71
     0
 10
0.0
 20
0.0
 30
0.0
  3
*D21
  1

  0
LINE
  5
230
330
221
100
AcDbEntity
  8
SLD-0
 62
     7
100
AcDbLine
 10
67.5252475903
 20
114.90445187
 30
0.0
 11
67.5252475903
 21
107.22111895
 31
0.0
  0
LINE
  5
231
330
221
100
AcDbEntity
  8
SLD-0
 62
     7
100
AcDbLine
 10
68.5252475903
 20
114.90445187
 30
0.0
 11
68.5252475903
 21
107.22111895
 31
0.0
  0
LINE
  5
232
330
221
100
AcDbEntity
  8
SLD-0
 62
     7
100
AcDbLine
 10
67.5252475903
 20
108.22111895
 30
0.0
 11
59.269223121
 21
108.22111895
 31
0.0
  0
LINE
  5
233
330
221
100
AcDbEntity
  8
SLD-0
 62
     7
100
AcDbLine
 10
67.5252475903
 20
108.22111895
 30
0.0
 11
68.5252475903
 21
108.22111895
 31
0.0
  0
LINE
  5
234
330
221
100
AcDbEntity
  8
SLD-0
 62
     7
100
AcDbLine
 10
68.5252475903
 20
108.22111895
 30
0.0
 11
73.5252475903
 21
108.22111895
 31
0.0
  0
LINE
  5
235
330
221
100
AcDbEntity
  8
SLD-0
 62
     7
100
AcDbLine
 10
64.5252475903
 20
109.02496595
 30
0.0
 11
67.5252475903
 21
108.22111895
 31
0.0
  0
LINE
  5
236
330
221
100
AcDbEntity
  8
SLD-0
 62
     7
100
AcDbLine
 10
67.5252475903
 20
108.22111895
 30
0.0
 11
64.5252475903
 21
107.41727195
 31
0.0
  0
LINE
  5
237
330
221
100
AcDbEntity
  8
SLD-0
 62
     7
100
AcDbLine
 10
67.5252475903
 20
108.22111895
 30
0.0
 11
64.5252475903
 21
108.22111895
 31
0.0
  0
LINE
  5
238
330
221
100
AcDbEntity
  8
SLD-0
 62
     7
100
AcDbLine
 10
71.5252475903
 20
107.41727195
 30
0.0
 11
68.5252475903
 21
108.22111895
 31
0.0
  0
LINE
  5
239
330
221
100
AcDbEntity
  8
SLD-0
 62
     7
100
AcDbLine
 10
68.5252475903
 20
108.22111895
 30
0.0
 11
71.5252475903
 21
109.02496595
 31
0.0
  0
LINE
  5
23A
330
221
100
AcDbEntity
  8
SLD-0
 62
     7
100
AcDbLine
 10
68.5252475903
 20
108.22111895
 30
0.0
 11
71.5252475903
 21
108.22111895
 31
0.0
  0
MTEXT
  5
23B
330
221
100
AcDbEntity
  8
SLD-0
 62
     7
100
AcDbMText
 10
60.856723121
 20
112.7478127623
 30
0.1
 40
3.5
 41
0.0
 71
     1
 72
     1
  1
1
  7
SLDTEXTSTYLE2
 73
     1
 44
1.0
  0
ENDBLK
  5
22F
330
221
100
AcDbEntity
  8
0
100
AcDbBlockEnd
  0
BLOCK
  5
247
330
23D
100
AcDbEntity
  8
0
100
AcDbBlockBegin
  2
*D22
 70
     1
 71
     0
 10
0.0
 20
0.0
 30
0.0
  3
*D22
  1

  0
INSERT
  5
24A
330
23D
100
AcDbEntity
  8
SLD-0
 62
     7
100
AcDbBlockReference
  2
_OPEN30
 10
142.9467171369
 20
119.3838618422
 30
0.1
 41
3.0
 42
3.0
 50
111.6566096056
  0
LINE
  5
24B
330
23D
100
AcDbEntity
  8
SLD-0
 62
     7
100
AcDbLine
 10
142.9467171369
 20
119.3838618422
 30
0.0
 11
149.3610011697
 21
103.2298788424
 31
0.0
  0
LINE
  5
24C
330
23D
100
AcDbEntity
  8
SLD-0
 62
     7
100
AcDbLine
 10
140.5479375436
 20
125.4250418978
 30
0.0
 11
142.9467171369
 21
119.3838618422
 31
0.0
  0
LINE
  5
24D
330
23D
100
AcDbEntity
  8
SLD-0
 62
     7
100
AcDbLine
 10
149.3610011697
 20
103.2298788424
 30
0.0
 11
200.8915525076
 21
103.2298788424
 31
0.0
  0
MTEXT
  5
24E
330
23D
100
AcDbEntity
  8
SLD-0
 62
     7
100
AcDbMText
 10
152.5360011697
 20
108.0039795618
 30
0.0
 40
3.5
 41
0.0
 71
     1
 72
     1
  1
%%c
  7
SLDTEXTSTYLE2
 73
     1
 44
1.0
  0
MTEXT
  5
24F
330
23D
100
AcDbEntity
  8
SLD-0
 62
     7
100
AcDbMText
 10
157.1716737168
 20
108.0039795618
 30
0.0
 40
3.5
 41
0.0
 71
     1
 72
     1
  1
6.5
  7
SLDTEXTSTYLE2
 73
     1
 44
1.0
  0
MTEXT
  5
250
330
23D
100
AcDbEntity
  8
SLD-0
 62
     7
100
AcDbMText
 10
163.5487258476
 20
108.0039795618
 30
0.0
 40
3.5
 41
0.0
 71
     1
 72
     1
  1
,
  7
SLDTEXTSTYLE2
 73
     1
 44
1.0
  0
MTEXT
  5
251
330
23D
100
AcDbEntity
  8
SLD-0
 62
     7
100
AcDbMText
 10
164.9146980648
 20
108.0039795618
 30
0.0
 40
3.5
 41
0.0
 71
     1
 72
     1
  1
%%c
  7
SLDTEXTSTYLE2
 73
     1
 44
1.0
  0
MTEXT
  5
252
330
23D
100
AcDbEntity
  8
SLD-0
 62
     7
100
AcDbMText
 10
169.5512260352
 20
108.0039795618
 30
0.0
 40
3.5
 41
0.0
 71
     1
 72
     1
  1
11ｻﾞｸﾞﾘ深6.5
  7
SLDTEXTSTYLE2
 73
     1
 44
1.0
  0
ENDBLK
  5
248
330
23D
100
AcDbEntity
  8
0
100
AcDbBlockEnd
  0
BLOCK
  5
25F
330
254
100
AcDbEntity
  8
0
100
AcDbBlockBegin
  2
*D23
 70
     1
 71
     0
 10
0.0
 20
0.0
 30
0.0
  3
*D23
  1

  0
LINE
  5
261
330
254
100
AcDbEntity
  8
SLD-0
 62
     7
100
AcDbLine
 10
134.2473273402
 20
155.90445187
 30
0.0
 11
126.0267839561
 21
155.90445187
 31
0.0
  0
LINE
  5
262
330
254
100
AcDbEntity
  8
SLD-0
 62
     7
100
AcDbLine
 10
132.7473273402
 20
122.40445187
 30
0.0
 11
126.0267839561
 21
122.40445187
 31
0.0
  0
LINE
  5
263
330
254
100
AcDbEntity
  8
SLD-0
 62
     7
100
AcDbLine
 10
127.0267839561
 20
155.90445187
 30
0.0
 11
127.0267839561
 21
122.40445187
 31
0.0
  0
LINE
  5
264
330
254
100
AcDbEntity
  8
SLD-0
 62
     7
100
AcDbLine
 10
126.2229369561
 20
152.90445187
 30
0.0
 11
127.0267839561
 21
155.90445187
 31
0.0
  0
LINE
  5
265
330
254
100
AcDbEntity
  8
SLD-0
 62
     7
100
AcDbLine
 10
127.0267839561
 20
155.90445187
 30
0.0
 11
127.8306309561
 21
152.90445187
 31
0.0
  0
LINE
  5
266
330
254
100
AcDbEntity
  8
SLD-0
 62
     7
100
AcDbLine
 10
127.0267839561
 20
155.90445187
 30
0.0
 11
127.0267839561
 21
152.90445187
 31
0.0
  0
LINE
  5
267
330
254
100
AcDbEntity
  8
SLD-0
 62
     7
100
AcDbLine
 10
127.8306309561
 20
125.40445187
 30
0.0
 11
127.0267839561
 21
122.40445187
 31
0.0
  0
LINE
  5
268
330
254
100
AcDbEntity
  8
SLD-0
 62
     7
100
AcDbLine
 10
127.0267839561
 20
122.40445187
 30
0.0
 11
126.2229369561
 21
125.40445187
 31
0.0
  0
LINE
  5
269
330
254
100
AcDbEntity
  8
SLD-0
 62
     7
100
AcDbLine
 10
127.0267839561
 20
122.40445187
 30
0.0
 11
127.0267839561
 21
125.40445187
 31
0.0
  0
MTEXT
  5
26A
330
254
100
AcDbEntity
  8
SLD-0
 62
     7
100
AcDbMText
 10
122.5000901438
 20
135.0815517508
 30
0.1
 40
3.5
 41
0.0
 71
     1
 72
     1
  1
33.5
  7
SLDTEXTSTYLE2
 11
6.123031769111886E-17
 21
1.0
 31
0.0
 73
     1
 44
1.0
  0
ENDBLK
  5
260
330
254
100
AcDbEntity
  8
0
100
AcDbBlockEnd
  0
BLOCK
  5
279
330
26C
100
AcDbEntity
  8
0
100
AcDbBlockBegin
  2
*D24
 70
     1
 71
     0
 10
0.0
 20
0.0
 30
0.0
  3
*D24
  1

  0
LINE
  5
27B
330
26C
100
AcDbEntity
  8
SLD-0
 62
     7
100
AcDbLine
 10
134.2473273402
 20
114.90445187
 30
0.0
 11
134.2473273402
 21
104.6693114489
 31
0.0
  0
LINE
  5
27C
330
26C
100
AcDbEntity
  8
SLD-0
 62
     7
100
AcDbLine
 10
141.7473273402
 20
113.40445187
 30
0.0
 11
141.7473273402
 21
104.6693114489
 31
0.0
  0
LINE
  5
27D
330
26C
100
AcDbEntity
  8
SLD-0
 62
     7
100
AcDbLine
 10
134.2473273402
 20
105.6693114489
 30
0.0
 11
119.351357033
 21
105.6693114489
 31
0.0
  0
LINE
  5
27E
330
26C
100
AcDbEntity
  8
SLD-0
 62
     7
100
AcDbLine
 10
134.2473273402
 20
105.6693114489
 30
0.0
 11
141.7473273402
 21
105.6693114489
 31
0.0
  0
LINE
  5
27F
330
26C
100
AcDbEntity
  8
SLD-0
 62
     7
100
AcDbLine
 10
141.7473273402
 20
105.6693114489
 30
0.0
 11
146.7473273402
 21
105.6693114489
 31
0.0
  0
LINE
  5
280
330
26C
100
AcDbEntity
  8
SLD-0
 62
     7
100
AcDbLine
 10
131.2473273402
 20
106.4731584489
 30
0.0
 11
134.2473273402
 21
105.6693114489
 31
0.0
  0
LINE
  5
281
330
26C
100
AcDbEntity
  8
SLD-0
 62
     7
100
AcDbLine
 10
134.2473273402
 20
105.6693114489
 30
0.0
 11
131.2473273402
 21
104.8654644489
 31
0.0
  0
LINE
  5
282
330
26C
100
AcDbEntity
  8
SLD-0
 62
     7
100
AcDbLine
 10
134.2473273402
 20
105.6693114489
 30
0.0
 11
131.2473273402
 21
105.6693114489
 31
0.0
  0
LINE
  5
283
330
26C
100
AcDbEntity
  8
SLD-0
 62
     7
100
AcDbLine
 10
144.7473273402
 20
104.8654644489
 30
0.0
 11
141.7473273402
 21
105.6693114489
 31
0.0
  0
LINE
  5
284
330
26C
100
AcDbEntity
  8
SLD-0
 62
     7
100
AcDbLine
 10
141.7473273402
 20
105.6693114489
 30
0.0
 11
144.7473273402
 21
106.4731584489
 31
0.0
  0
LINE
  5
285
330
26C
100
AcDbEntity
  8
SLD-0
 62
     7
100
AcDbLine
 10
141.7473273402
 20
105.6693114489
 30
0.0
 11
144.7473273402
 21
105.6693114489
 31
0.0
  0
MTEXT
  5
286
330
26C
100
AcDbEntity
  8
SLD-0
 62
     7
100
AcDbMText
 10
120.938857033
 20
110.1960052613
 30
0.1
 40
3.5
 41
0.0
 71
     1
 72
     1
  1
7.5
  7
SLDTEXTSTYLE2
 73
     1
 44
1.0
  0
ENDBLK
  5
27A
330
26C
100
AcDbEntity
  8
0
100
AcDbBlockEnd
  0
BLOCK
  5
293
330
288
100
AcDbEntity
  8
0
100
AcDbBlockBegin
  2
*D25
 70
     1
 71
     0
 10
0.0
 20
0.0
 30
0.0
  3
*D25
  1

  0
LINE
  5
295
330
288
100
AcDbEntity
  8
SLD-0
 62
     7
100
AcDbLine
 10
135.2473273402
 20
155.90445187
 30
0.0
 11
174.3680050349
 21
155.90445187
 31
0.0
  0
LINE
  5
296
330
288
100
AcDbEntity
  8
SLD-0
 62
     7
100
AcDbLine
 10
135.2473273402
 20
150.90445187
 30
0.0
 11
174.3680050349
 21
150.90445187
 31
0.0
  0
LINE
  5
297
330
288
100
AcDbEntity
  8
SLD-0
 62
     7
100
AcDbLine
 10
173.3680050349
 20
155.90445187
 30
0.0
 11
173.3680050349
 21
160.90445187
 31
0.0
  0
LINE
  5
298
330
288
100
AcDbEntity
  8
SLD-0
 62
     7
100
AcDbLine
 10
173.3680050349
 20
155.90445187
 30
0.0
 11
173.3680050349
 21
150.90445187
 31
0.0
  0
LINE
  5
299
330
288
100
AcDbEntity
  8
SLD-0
 62
     7
100
AcDbLine
 10
173.3680050349
 20
150.90445187
 30
0.0
 11
173.3680050349
 21
145.90445187
 31
0.0
  0
LINE
  5
29A
330
288
100
AcDbEntity
  8
SLD-0
 62
     7
100
AcDbLine
 10
174.1718520349
 20
158.90445187
 30
0.0
 11
173.3680050349
 21
155.90445187
 31
0.0
  0
LINE
  5
29B
330
288
100
AcDbEntity
  8
SLD-0
 62
     7
100
AcDbLine
 10
173.3680050349
 20
155.90445187
 30
0.0
 11
172.5641580349
 21
158.90445187
 31
0.0
  0
LINE
  5
29C
330
288
100
AcDbEntity
  8
SLD-0
 62
     7
100
AcDbLine
 10
173.3680050349
 20
155.90445187
 30
0.0
 11
173.3680050349
 21
158.90445187
 31
0.0
  0
LINE
  5
29D
330
288
100
AcDbEntity
  8
SLD-0
 62
     7
100
AcDbLine
 10
172.5641580349
 20
147.90445187
 30
0.0
 11
173.3680050349
 21
150.90445187
 31
0.0
  0
LINE
  5
29E
330
288
100
AcDbEntity
  8
SLD-0
 62
     7
100
AcDbLine
 10
173.3680050349
 20
150.90445187
 30
0.0
 11
174.1718520349
 21
147.90445187
 31
0.0
  0
LINE
  5
29F
330
288
100
AcDbEntity
  8
SLD-0
 62
     7
100
AcDbLine
 10
173.3680050349
 20
150.90445187
 30
0.0
 11
173.3680050349
 21
147.90445187
 31
0.0
  0
MTEXT
  5
2A0
330
288
100
AcDbEntity
  8
SLD-0
 62
     7
100
AcDbMText
 10
168.8413112226
 20
152.3862268402
 30
0.1
 40
3.5
 41
0.0
 71
     1
 72
     1
  1
5
  7
SLDTEXTSTYLE2
 11
6.123031769111886E-17
 21
1.0
 31
0.0
 73
     1
 44
1.0
  0
ENDBLK
  5
294
330
288
100
AcDbEntity
  8
0
100
AcDbBlockEnd
  0
BLOCK
  5
2AC
330
2A2
100
AcDbEntity
  8
0
100
AcDbBlockBegin
  2
*D26
 70
     1
 71
     0
 10
0.0
 20
0.0
 30
0.0
  3
*D26
  1

  0
LINE
  5
2AE
330
2A2
100
AcDbEntity
  8
SLD-0
 62
     7
100
AcDbLine
 10
134.2473273402
 20
114.90445187
 30
0.0
 11
134.2473273402
 21
94.9063508037
 31
0.0
  0
LINE
  5
2AF
330
2A2
100
AcDbEntity
  8
SLD-0
 62
     7
100
AcDbLine
 10
149.2473273402
 20
114.90445187
 30
0.0
 11
149.2473273402
 21
94.9063508037
 31
0.0
  0
LINE
  5
2B0
330
2A2
100
AcDbEntity
  8
SLD-0
 62
     7
100
AcDbLine
 10
134.2473273402
 20
95.9063508037
 30
0.0
 11
149.2473273402
 21
95.9063508037
 31
0.0
  0
LINE
  5
2B1
330
2A2
100
AcDbEntity
  8
SLD-0
 62
     7
100
AcDbLine
 10
137.2473273402
 20
95.1025038037
 30
0.0
 11
134.2473273402
 21
95.9063508037
 31
0.0
  0
LINE
  5
2B2
330
2A2
100
AcDbEntity
  8
SLD-0
 62
     7
100
AcDbLine
 10
134.2473273402
 20
95.9063508037
 30
0.0
 11
137.2473273402
 21
96.7101978037
 31
0.0
  0
LINE
  5
2B3
330
2A2
100
AcDbEntity
  8
SLD-0
 62
     7
100
AcDbLine
 10
134.2473273402
 20
95.9063508037
 30
0.0
 11
137.2473273402
 21
95.9063508037
 31
0.0
  0
LINE
  5
2B4
330
2A2
100
AcDbEntity
  8
SLD-0
 62
     7
100
AcDbLine
 10
146.2473273402
 20
96.7101978037
 30
0.0
 11
149.2473273402
 21
95.9063508037
 31
0.0
  0
LINE
  5
2B5
330
2A2
100
AcDbEntity
  8
SLD-0
 62
     7
100
AcDbLine
 10
149.2473273402
 20
95.9063508037
 30
0.0
 11
146.2473273402
 21
95.1025038037
 31
0.0
  0
LINE
  5
2B6
330
2A2
100
AcDbEntity
  8
SLD-0
 62
     7
100
AcDbLine
 10
149.2473273402
 20
95.9063508037
 30
0.0
 11
146.2473273402
 21
95.9063508037
 31
0.0
  0
MTEXT
  5
2B7
330
2A2
100
AcDbEntity
  8
SLD-0
 62
     7
100
AcDbMText
 10
139.7108772806
 20
100.433044616
 30
0.1
 40
3.5
 41
0.0
 71
     1
 72
     1
  1
15
  7
SLDTEXTSTYLE2
 73
     1
 44
1.0
  0
ENDBLK
  5
2AD
330
2A2
100
AcDbEntity
  8
0
100
AcDbBlockEnd
  0
BLOCK
  5
2C3
330
2B9
100
AcDbEntity
  8
0
100
AcDbBlockBegin
  2
*D27
 70
     1
 71
     0
 10
0.0
 20
0.0
 30
0.0
  3
*D27
  1

  0
LINE
  5
2C5
330
2B9
100
AcDbEntity
  8
SLD-0
 62
     7
100
AcDbLine
 10
92.0252475903
 20
222.888923665
 30
0.0
 11
92.0252475903
 21
247.2596323249
 31
0.0
  0
LINE
  5
2C6
330
2B9
100
AcDbEntity
  8
SLD-0
 62
     7
100
AcDbLine
 10
44.0252475903
 20
222.888923665
 30
0.0
 11
44.0252475903
 21
247.2596323249
 31
0.0
  0
LINE
  5
2C7
330
2B9
100
AcDbEntity
  8
SLD-0
 62
     7
100
AcDbLine
 10
92.0252475903
 20
246.2596323249
 30
0.0
 11
44.0252475903
 21
246.2596323249
 31
0.0
  0
LINE
  5
2C8
330
2B9
100
AcDbEntity
  8
SLD-0
 62
     7
100
AcDbLine
 10
89.0252475903
 20
247.0634793249
 30
0.0
 11
92.0252475903
 21
246.2596323249
 31
0.0
  0
LINE
  5
2C9
330
2B9
100
AcDbEntity
  8
SLD-0
 62
     7
100
AcDbLine
 10
92.0252475903
 20
246.2596323249
 30
0.0
 11
89.0252475903
 21
245.4557853249
 31
0.0
  0
LINE
  5
2CA
330
2B9
100
AcDbEntity
  8
SLD-0
 62
     7
100
AcDbLine
 10
92.0252475903
 20
246.2596323249
 30
0.0
 11
89.0252475903
 21
246.2596323249
 31
0.0
  0
LINE
  5
2CB
330
2B9
100
AcDbEntity
  8
SLD-0
 62
     7
100
AcDbLine
 10
47.0252475903
 20
245.4557853249
 30
0.0
 11
44.0252475903
 21
246.2596323249
 31
0.0
  0
LINE
  5
2CC
330
2B9
100
AcDbEntity
  8
SLD-0
 62
     7
100
AcDbLine
 10
44.0252475903
 20
246.2596323249
 30
0.0
 11
47.0252475903
 21
247.0634793249
 31
0.0
  0
LINE
  5
2CD
330
2B9
100
AcDbEntity
  8
SLD-0
 62
     7
100
AcDbLine
 10
44.0252475903
 20
246.2596323249
 30
0.0
 11
47.0252475903
 21
246.2596323249
 31
0.0
  0
MTEXT
  5
2CE
330
2B9
100
AcDbEntity
  8
SLD-0
 62
     7
100
AcDbMText
 10
65.9887975307
 20
250.7863261372
 30
0.1
 40
3.5
 41
0.0
 71
     1
 72
     1
  1
48
  7
SLDTEXTSTYLE2
 73
     1
 44
1.0
  0
ENDBLK
  5
2C4
330
2B9
100
AcDbEntity
  8
0
100
AcDbBlockEnd
  0
BLOCK
  5
2DB
330
2D0
100
AcDbEntity
  8
0
100
AcDbBlockBegin
  2
*D28
 70
     1
 71
     0
 10
0.0
 20
0.0
 30
0.0
  3
*D28
  1

  0
LINE
  5
2DD
330
2D0
100
AcDbEntity
  8
SLD-0
 62
     7
100
AcDbLine
 10
93.0252475903
 20
221.888923665
 30
0.0
 11
126.6424413866
 21
221.888923665
 31
0.0
  0
LINE
  5
2DE
330
2D0
100
AcDbEntity
  8
SLD-0
 62
     7
100
AcDbLine
 10
93.0252475903
 20
196.888923665
 30
0.0
 11
126.6424413866
 21
196.888923665
 31
0.0
  0
LINE
  5
2DF
330
2D0
100
AcDbEntity
  8
SLD-0
 62
     7
100
AcDbLine
 10
125.6424413866
 20
221.888923665
 30
0.0
 11
125.6424413866
 21
196.888923665
 31
0.0
  0
LINE
  5
2E0
330
2D0
100
AcDbEntity
  8
SLD-0
 62
     7
100
AcDbLine
 10
124.8385943866
 20
218.888923665
 30
0.0
 11
125.6424413866
 21
221.888923665
 31
0.0
  0
LINE
  5
2E1
330
2D0
100
AcDbEntity
  8
SLD-0
 62
     7
100
AcDbLine
 10
125.6424413866
 20
221.888923665
 30
0.0
 11
126.4462883866
 21
218.888923665
 31
0.0
  0
LINE
  5
2E2
330
2D0
100
AcDbEntity
  8
SLD-0
 62
     7
100
AcDbLine
 10
125.6424413866
 20
221.888923665
 30
0.0
 11
125.6424413866
 21
218.888923665
 31
0.0
  0
LINE
  5
2E3
330
2D0
100
AcDbEntity
  8
SLD-0
 62
     7
100
AcDbLine
 10
126.4462883866
 20
199.888923665
 30
0.0
 11
125.6424413866
 21
196.888923665
 31
0.0
  0
LINE
  5
2E4
330
2D0
100
AcDbEntity
  8
SLD-0
 62
     7
100
AcDbLine
 10
125.6424413866
 20
196.888923665
 30
0.0
 11
124.8385943866
 21
199.888923665
 31
0.0
  0
LINE
  5
2E5
330
2D0
100
AcDbEntity
  8
SLD-0
 62
     7
100
AcDbLine
 10
125.6424413866
 20
196.888923665
 30
0.0
 11
125.6424413866
 21
199.888923665
 31
0.0
  0
MTEXT
  5
2E6
330
2D0
100
AcDbEntity
  8
SLD-0
 62
     7
100
AcDbMText
 10
121.1157475743
 20
207.3524736054
 30
0.1
 40
3.5
 41
0.0
 71
     1
 72
     1
  1
25
  7
SLDTEXTSTYLE2
 11
6.123031769111886E-17
 21
1.0
 31
0.0
 73
     1
 44
1.0
  0
ENDBLK
  5
2DC
330
2D0
100
AcDbEntity
  8
0
100
AcDbBlockEnd
  0
BLOCK
  5
2F5
330
2E8
100
AcDbEntity
  8
0
100
AcDbBlockBegin
  2
*D29
 70
     1
 71
     0
 10
0.0
 20
0.0
 30
0.0
  3
*D29
  1

  0
LINE
  5
2F7
330
2E8
100
AcDbEntity
  8
SLD-0
 62
     7
100
AcDbLine
 10
87.0252475903
 20
212.038923665
 30
0.0
 11
87.0252475903
 21
177.8326705633
 31
0.0
  0
LINE
  5
2F8
330
2E8
100
AcDbEntity
  8
SLD-0
 62
     7
100
AcDbLine
 10
92.0252475903
 20
195.888923665
 30
0.0
 11
92.0252475903
 21
177.8326705633
 31
0.0
  0
LINE
  5
2F9
330
2E8
100
AcDbEntity
  8
SLD-0
 62
     7
100
AcDbLine
 10
87.0252475903
 20
178.8326705633
 30
0.0
 11
82.0252475903
 21
178.8326705633
 31
0.0
  0
LINE
  5
2FA
330
2E8
100
AcDbEntity
  8
SLD-0
 62
     7
100
AcDbLine
 10
87.0252475903
 20
178.8326705633
 30
0.0
 11
92.0252475903
 21
178.8326705633
 31
0.0
  0
LINE
  5
2FB
330
2E8
100
AcDbEntity
  8
SLD-0
 62
     7
100
AcDbLine
 10
92.0252475903
 20
178.8326705633
 30
0.0
 11
104.3950234886
 21
178.8326705633
 31
0.0
  0
LINE
  5
2FC
330
2E8
100
AcDbEntity
  8
SLD-0
 62
     7
100
AcDbLine
 10
84.0252475903
 20
179.6365175633
 30
0.0
 11
87.0252475903
 21
178.8326705633
 31
0.0
  0
LINE
  5
2FD
330
2E8
100
AcDbEntity
  8
SLD-0
 62
     7
100
AcDbLine
 10
87.0252475903
 20
178.8326705633
 30
0.0
 11
84.0252475903
 21
178.0288235633
 31
0.0
  0
LINE
  5
2FE
330
2E8
100
AcDbEntity
  8
SLD-0
 62
     7
100
AcDbLine
 10
87.0252475903
 20
178.8326705633
 30
0.0
 11
84.0252475903
 21
178.8326705633
 31
0.0
  0
LINE
  5
2FF
330
2E8
100
AcDbEntity
  8
SLD-0
 62
     7
100
AcDbLine
 10
95.0252475903
 20
178.0288235633
 30
0.0
 11
92.0252475903
 21
178.8326705633
 31
0.0
  0
LINE
  5
300
330
2E8
100
AcDbEntity
  8
SLD-0
 62
     7
100
AcDbLine
 10
92.0252475903
 20
178.8326705633
 30
0.0
 11
95.0252475903
 21
179.6365175633
 31
0.0
  0
LINE
  5
301
330
2E8
100
AcDbEntity
  8
SLD-0
 62
     7
100
AcDbLine
 10
92.0252475903
 20
178.8326705633
 30
0.0
 11
95.0252475903
 21
178.8326705633
 31
0.0
  0
MTEXT
  5
302
330
2E8
100
AcDbEntity
  8
SLD-0
 62
     7
100
AcDbMText
 10
100.771073429
 20
183.3593643756
 30
0.1
 40
3.5
 41
0.0
 71
     1
 72
     1
  1
5
  7
SLDTEXTSTYLE2
 73
     1
 44
1.0
  0
ENDBLK
  5
2F6
330
2E8
100
AcDbEntity
  8
0
100
AcDbBlockEnd
  0
BLOCK
  5
30F
330
304
100
AcDbEntity
  8
0
100
AcDbBlockBegin
  2
*D30
 70
     1
 71
     0
 10
0.0
 20
0.0
 30
0.0
  3
*D30
  1

  0
LINE
  5
311
330
304
100
AcDbEntity
  8
SLD-0
 62
     7
100
AcDbLine
 10
92.1752475903
 20
206.888923665
 30
0.0
 11
106.9315024636
 21
206.888923665
 31
0.0
  0
LINE
  5
312
330
304
100
AcDbEntity
  8
SLD-0
 62
     7
100
AcDbLine
 10
93.0252475903
 20
196.888923665
 30
0.0
 11
106.9315024636
 21
196.888923665
 31
0.0
  0
LINE
  5
313
330
304
100
AcDbEntity
  8
SLD-0
 62
     7
100
AcDbLine
 10
105.9315024636
 20
206.888923665
 30
0.0
 11
105.9315024636
 21
211.888923665
 31
0.0
  0
LINE
  5
314
330
304
100
AcDbEntity
  8
SLD-0
 62
     7
100
AcDbLine
 10
105.9315024636
 20
206.888923665
 30
0.0
 11
105.9315024636
 21
196.888923665
 31
0.0
  0
LINE
  5
315
330
304
100
AcDbEntity
  8
SLD-0
 62
     7
100
AcDbLine
 10
105.9315024636
 20
196.888923665
 30
0.0
 11
105.9315024636
 21
191.888923665
 31
0.0
  0
LINE
  5
316
330
304
100
AcDbEntity
  8
SLD-0
 62
     7
100
AcDbLine
 10
106.7353494636
 20
209.888923665
 30
0.0
 11
105.9315024636
 21
206.888923665
 31
0.0
  0
LINE
  5
317
330
304
100
AcDbEntity
  8
SLD-0
 62
     7
100
AcDbLine
 10
105.9315024636
 20
206.888923665
 30
0.0
 11
105.1276554636
 21
209.888923665
 31
0.0
  0
LINE
  5
318
330
304
100
AcDbEntity
  8
SLD-0
 62
     7
100
AcDbLine
 10
105.9315024636
 20
206.888923665
 30
0.0
 11
105.9315024636
 21
209.888923665
 31
0.0
  0
LINE
  5
319
330
304
100
AcDbEntity
  8
SLD-0
 62
     7
100
AcDbLine
 10
105.1276554636
 20
193.888923665
 30
0.0
 11
105.9315024636
 21
196.888923665
 31
0.0
  0
LINE
  5
31A
330
304
100
AcDbEntity
  8
SLD-0
 62
     7
100
AcDbLine
 10
105.9315024636
 20
196.888923665
 30
0.0
 11
106.7353494636
 21
193.888923665
 31
0.0
  0
LINE
  5
31B
330
304
100
AcDbEntity
  8
SLD-0
 62
     7
100
AcDbLine
 10
105.9315024636
 20
196.888923665
 30
0.0
 11
105.9315024636
 21
193.888923665
 31
0.0
  0
MTEXT
  5
31C
330
304
100
AcDbEntity
  8
SLD-0
 62
     7
100
AcDbMText
 10
101.4048086512
 20
199.8524736054
 30
0.1
 40
3.5
 41
0.0
 71
     1
 72
     1
  1
10
  7
SLDTEXTSTYLE2
 11
6.123031769111886E-17
 21
1.0
 31
0.0
 73
     1
 44
1.0
  0
ENDBLK
  5
310
330
304
100
AcDbEntity
  8
0
100
AcDbBlockEnd
  0
BLOCK
  5
328
330
31E
100
AcDbEntity
  8
0
100
AcDbBlockBegin
  2
*D31
 70
     1
 71
     0
 10
0.0
 20
0.0
 30
0.0
  3
*D31
  1

  0
LINE
  5
32A
330
31E
100
AcDbEntity
  8
SLD-0
 62
     7
100
AcDbLine
 10
87.0252475903
 20
212.038923665
 30
0.0
 11
87.0252475903
 21
177.8326705633
 31
0.0
  0
LINE
  5
32B
330
31E
100
AcDbEntity
  8
SLD-0
 62
     7
100
AcDbLine
 10
68.0252475903
 20
205.888923665
 30
0.0
 11
68.0252475903
 21
177.8326705633
 31
0.0
  0
LINE
  5
32C
330
31E
100
AcDbEntity
  8
SLD-0
 62
     7
100
AcDbLine
 10
87.0252475903
 20
178.8326705633
 30
0.0
 11
68.0252475903
 21
178.8326705633
 31
0.0
  0
LINE
  5
32D
330
31E
100
AcDbEntity
  8
SLD-0
 62
     7
100
AcDbLine
 10
84.0252475903
 20
179.6365175633
 30
0.0
 11
87.0252475903
 21
178.8326705633
 31
0.0
  0
LINE
  5
32E
330
31E
100
AcDbEntity
  8
SLD-0
 62
     7
100
AcDbLine
 10
87.0252475903
 20
178.8326705633
 30
0.0
 11
84.0252475903
 21
178.0288235633
 31
0.0
  0
LINE
  5
32F
330
31E
100
AcDbEntity
  8
SLD-0
 62
     7
100
AcDbLine
 10
87.0252475903
 20
178.8326705633
 30
0.0
 11
84.0252475903
 21
178.8326705633
 31
0.0
  0
LINE
  5
330
330
31E
100
AcDbEntity
  8
SLD-0
 62
     7
100
AcDbLine
 10
71.0252475903
 20
178.0288235633
 30
0.0
 11
68.0252475903
 21
178.8326705633
 31
0.0
  0
LINE
  5
331
330
31E
100
AcDbEntity
  8
SLD-0
 62
     7
100
AcDbLine
 10
68.0252475903
 20
178.8326705633
 30
0.0
 11
71.0252475903
 21
179.6365175633
 31
0.0
  0
LINE
  5
332
330
31E
100
AcDbEntity
  8
SLD-0
 62
     7
100
AcDbLine
 10
68.0252475903
 20
178.8326705633
 30
0.0
 11
71.0252475903
 21
178.8326705633
 31
0.0
  0
MTEXT
  5
333
330
31E
100
AcDbEntity
  8
SLD-0
 62
     7
100
AcDbMText
 10
75.4887975307
 20
183.3593643756
 30
0.1
 40
3.5
 41
0.0
 71
     1
 72
     1
  1
19
  7
SLDTEXTSTYLE2
 73
     1
 44
1.0
  0
ENDBLK
  5
329
330
31E
100
AcDbEntity
  8
0
100
AcDbBlockEnd
  0
BLOCK
  5
33F
330
335
100
AcDbEntity
  8
0
100
AcDbBlockBegin
  2
*D32
 70
     1
 71
     0
 10
0.0
 20
0.0
 30
0.0
  3
*D32
  1

  0
LINE
  5
341
330
335
100
AcDbEntity
  8
SLD-0
 62
     7
100
AcDbLine
 10
84.0252475903
 20
223.388923665
 30
0.0
 11
84.0252475903
 21
235.9610111663
 31
0.0
  0
LINE
  5
342
330
335
100
AcDbEntity
  8
SLD-0
 62
     7
100
AcDbLine
 10
52.0252475903
 20
223.388923665
 30
0.0
 11
52.0252475903
 21
235.9610111663
 31
0.0
  0
LINE
  5
343
330
335
100
AcDbEntity
  8
SLD-0
 62
     7
100
AcDbLine
 10
84.0252475903
 20
234.9610111663
 30
0.0
 11
52.0252475903
 21
234.9610111663
 31
0.0
  0
LINE
  5
344
330
335
100
AcDbEntity
  8
SLD-0
 62
     7
100
AcDbLine
 10
81.0252475903
 20
235.7648581663
 30
0.0
 11
84.0252475903
 21
234.9610111663
 31
0.0
  0
LINE
  5
345
330
335
100
AcDbEntity
  8
SLD-0
 62
     7
100
AcDbLine
 10
84.0252475903
 20
234.9610111663
 30
0.0
 11
81.0252475903
 21
234.1571641663
 31
0.0
  0
LINE
  5
346
330
335
100
AcDbEntity
  8
SLD-0
 62
     7
100
AcDbLine
 10
84.0252475903
 20
234.9610111663
 30
0.0
 11
81.0252475903
 21
234.9610111663
 31
0.0
  0
LINE
  5
347
330
335
100
AcDbEntity
  8
SLD-0
 62
     7
100
AcDbLine
 10
55.0252475903
 20
234.1571641663
 30
0.0
 11
52.0252475903
 21
234.9610111663
 31
0.0
  0
LINE
  5
348
330
335
100
AcDbEntity
  8
SLD-0
 62
     7
100
AcDbLine
 10
52.0252475903
 20
234.9610111663
 30
0.0
 11
55.0252475903
 21
235.7648581663
 31
0.0
  0
LINE
  5
349
330
335
100
AcDbEntity
  8
SLD-0
 62
     7
100
AcDbLine
 10
52.0252475903
 20
234.9610111663
 30
0.0
 11
55.0252475903
 21
234.9610111663
 31
0.0
  0
MTEXT
  5
34A
330
335
100
AcDbEntity
  8
SLD-0
 62
     7
100
AcDbMText
 10
65.9887975307
 20
239.4877049786
 30
0.1
 40
3.5
 41
0.0
 71
     1
 72
     1
  1
32
  7
SLDTEXTSTYLE2
 73
     1
 44
1.0
  0
ENDBLK
  5
340
330
335
100
AcDbEntity
  8
0
100
AcDbBlockEnd
  0
BLOCK
  5
356
330
34C
100
AcDbEntity
  8
0
100
AcDbBlockBegin
  2
*D33
 70
     1
 71
     0
 10
0.0
 20
0.0
 30
0.0
  3
*D33
  1

  0
LINE
  5
358
330
34C
100
AcDbEntity
  8
SLD-0
 62
     7
100
AcDbLine
 10
49.0252475903
 20
201.738923665
 30
0.0
 11
49.0252475903
 21
177.8326705633
 31
0.0
  0
LINE
  5
359
330
34C
100
AcDbEntity
  8
SLD-0
 62
     7
100
AcDbLine
 10
68.0252475903
 20
201.738923665
 30
0.0
 11
68.0252475903
 21
177.8326705633
 31
0.0
  0
LINE
  5
35A
330
34C
100
AcDbEntity
  8
SLD-0
 62
     7
100
AcDbLine
 10
49.0252475903
 20
178.8326705633
 30
0.0
 11
68.0252475903
 21
178.8326705633
 31
0.0
  0
LINE
  5
35B
330
34C
100
AcDbEntity
  8
SLD-0
 62
     7
100
AcDbLine
 10
52.0252475903
 20
178.0288235633
 30
0.0
 11
49.0252475903
 21
178.8326705633
 31
0.0
  0
LINE
  5
35C
330
34C
100
AcDbEntity
  8
SLD-0
 62
     7
100
AcDbLine
 10
49.0252475903
 20
178.8326705633
 30
0.0
 11
52.0252475903
 21
179.6365175633
 31
0.0
  0
LINE
  5
35D
330
34C
100
AcDbEntity
  8
SLD-0
 62
     7
100
AcDbLine
 10
49.0252475903
 20
178.8326705633
 30
0.0
 11
52.0252475903
 21
178.8326705633
 31
0.0
  0
LINE
  5
35E
330
34C
100
AcDbEntity
  8
SLD-0
 62
     7
100
AcDbLine
 10
65.0252475903
 20
179.6365175633
 30
0.0
 11
68.0252475903
 21
178.8326705633
 31
0.0
  0
LINE
  5
35F
330
34C
100
AcDbEntity
  8
SLD-0
 62
     7
100
AcDbLine
 10
68.0252475903
 20
178.8326705633
 30
0.0
 11
65.0252475903
 21
178.0288235633
 31
0.0
  0
LINE
  5
360
330
34C
100
AcDbEntity
  8
SLD-0
 62
     7
100
AcDbLine
 10
68.0252475903
 20
178.8326705633
 30
0.0
 11
65.0252475903
 21
178.8326705633
 31
0.0
  0
MTEXT
  5
361
330
34C
100
AcDbEntity
  8
SLD-0
 62
     7
100
AcDbMText
 10
56.4887975307
 20
183.3593643756
 30
0.1
 40
3.5
 41
0.0
 71
     1
 72
     1
  1
19
  7
SLDTEXTSTYLE2
 73
     1
 44
1.0
  0
ENDBLK
  5
357
330
34C
100
AcDbEntity
  8
0
100
AcDbBlockEnd
  0
BLOCK
  5
36E
330
363
100
AcDbEntity
  8
0
100
AcDbBlockBegin
  2
*D34
 70
     1
 71
     0
 10
0.0
 20
0.0
 30
0.0
  3
*D34
  1

  0
LINE
  5
370
330
363
100
AcDbEntity
  8
SLD-0
 62
     7
100
AcDbLine
 10
90.5252475903
 20
216.888923665
 30
0.0
 11
115.4547222659
 21
216.888923665
 31
0.0
  0
LINE
  5
371
330
363
100
AcDbEntity
  8
SLD-0
 62
     7
100
AcDbLine
 10
92.0252475903
 20
196.888923665
 30
0.0
 11
115.4547222659
 21
196.888923665
 31
0.0
  0
LINE
  5
372
330
363
100
AcDbEntity
  8
SLD-0
 62
     7
100
AcDbLine
 10
114.4547222659
 20
216.888923665
 30
0.0
 11
114.4547222659
 21
196.888923665
 31
0.0
  0
LINE
  5
373
330
363
100
AcDbEntity
  8
SLD-0
 62
     7
100
AcDbLine
 10
113.6508752659
 20
213.888923665
 30
0.0
 11
114.4547222659
 21
216.888923665
 31
0.0
  0
LINE
  5
374
330
363
100
AcDbEntity
  8
SLD-0
 62
     7
100
AcDbLine
 10
114.4547222659
 20
216.888923665
 30
0.0
 11
115.2585692659
 21
213.888923665
 31
0.0
  0
LINE
  5
375
330
363
100
AcDbEntity
  8
SLD-0
 62
     7
100
AcDbLine
 10
114.4547222659
 20
216.888923665
 30
0.0
 11
114.4547222659
 21
213.888923665
 31
0.0
  0
LINE
  5
376
330
363
100
AcDbEntity
  8
SLD-0
 62
     7
100
AcDbLine
 10
115.2585692659
 20
199.888923665
 30
0.0
 11
114.4547222659
 21
196.888923665
 31
0.0
  0
LINE
  5
377
330
363
100
AcDbEntity
  8
SLD-0
 62
     7
100
AcDbLine
 10
114.4547222659
 20
196.888923665
 30
0.0
 11
113.6508752659
 21
199.888923665
 31
0.0
  0
LINE
  5
378
330
363
100
AcDbEntity
  8
SLD-0
 62
     7
100
AcDbLine
 10
114.4547222659
 20
196.888923665
 30
0.0
 11
114.4547222659
 21
199.888923665
 31
0.0
  0
MTEXT
  5
379
330
363
100
AcDbEntity
  8
SLD-0
 62
     7
100
AcDbMText
 10
109.9280284536
 20
204.8524736054
 30
0.1
 40
3.5
 41
0.0
 71
     1
 72
     1
  1
20
  7
SLDTEXTSTYLE2
 11
6.123031769111886E-17
 21
1.0
 31
0.0
 73
     1
 44
1.0
  0
ENDBLK
  5
36F
330
363
100
AcDbEntity
  8
0
100
AcDbBlockEnd
  0
BLOCK
  5
386
330
37B
100
AcDbEntity
  8
0
100
AcDbBlockBegin
  2
*D35
 70
     1
 71
     0
 10
0.0
 20
0.0
 30
0.0
  3
*D35
  1

  0
LINE
  5
388
330
37B
100
AcDbEntity
  8
SLD-0
 62
     7
100
AcDbLine
 10
92.0252475903
 20
221.888923665
 30
0.0
 11
92.0252475903
 21
235.9610111663
 31
0.0
  0
LINE
  5
389
330
37B
100
AcDbEntity
  8
SLD-0
 62
     7
100
AcDbLine
 10
84.0252475903
 20
223.388923665
 30
0.0
 11
84.0252475903
 21
235.9610111663
 31
0.0
  0
LINE
  5
38A
330
37B
100
AcDbEntity
  8
SLD-0
 62
     7
100
AcDbLine
 10
92.0252475903
 20
234.9610111663
 30
0.0
 11
84.0252475903
 21
234.9610111663
 31
0.0
  0
LINE
  5
38B
330
37B
100
AcDbEntity
  8
SLD-0
 62
     7
100
AcDbLine
 10
89.0252475903
 20
235.7648581663
 30
0.0
 11
92.0252475903
 21
234.9610111663
 31
0.0
  0
LINE
  5
38C
330
37B
100
AcDbEntity
  8
SLD-0
 62
     7
100
AcDbLine
 10
92.0252475903
 20
234.9610111663
 30
0.0
 11
89.0252475903
 21
234.1571641663
 31
0.0
  0
LINE
  5
38D
330
37B
100
AcDbEntity
  8
SLD-0
 62
     7
100
AcDbLine
 10
92.0252475903
 20
234.9610111663
 30
0.0
 11
89.0252475903
 21
234.9610111663
 31
0.0
  0
LINE
  5
38E
330
37B
100
AcDbEntity
  8
SLD-0
 62
     7
100
AcDbLine
 10
87.0252475903
 20
234.1571641663
 30
0.0
 11
84.0252475903
 21
234.9610111663
 31
0.0
  0
LINE
  5
38F
330
37B
100
AcDbEntity
  8
SLD-0
 62
     7
100
AcDbLine
 10
84.0252475903
 20
234.9610111663
 30
0.0
 11
87.0252475903
 21
235.7648581663
 31
0.0
  0
LINE
  5
390
330
37B
100
AcDbEntity
  8
SLD-0
 62
     7
100
AcDbLine
 10
84.0252475903
 20
234.9610111663
 30
0.0
 11
87.0252475903
 21
234.9610111663
 31
0.0
  0
MTEXT
  5
391
330
37B
100
AcDbEntity
  8
SLD-0
 62
     7
100
AcDbMText
 10
87.0070225605
 20
239.4877049786
 30
0.1
 40
3.5
 41
0.0
 71
     1
 72
     1
  1
8
  7
SLDTEXTSTYLE2
 73
     1
 44
1.0
  0
ENDBLK
  5
387
330
37B
100
AcDbEntity
  8
0
100
AcDbBlockEnd
  0
BLOCK
  5
39D
330
393
100
AcDbEntity
  8
0
100
AcDbBlockBegin
  2
*D36
 70
     1
 71
     0
 10
0.0
 20
0.0
 30
0.0
  3
*D36
  1

  0
LINE
  5
3A0
330
393
100
AcDbEntity
  8
SLD-0
 62
     7
100
AcDbLine
 10
50.4063664868
 20
219.4146362323
 30
0.0
 11
41.7470430257
 21
232.9245611067
 31
0.0
  0
LINE
  5
3A1
330
393
100
AcDbEntity
  8
SLD-0
 62
     7
100
AcDbLine
 10
41.7470430257
 20
232.9245611067
 30
0.0
 11
27.0081041699
 21
232.9245611067
 31
0.0
  0
LINE
  5
3A2
330
393
100
AcDbEntity
  8
SLD-0
 62
     7
100
AcDbLine
 10
49.4642475399
 20
222.3741263724
 30
0.0
 11
50.4063664868
 21
219.4146362323
 31
0.0
  0
LINE
  5
3A3
330
393
100
AcDbEntity
  8
SLD-0
 62
     7
100
AcDbLine
 10
50.4063664868
 20
219.4146362323
 30
0.0
 11
48.1107232265
 21
221.5065712268
 31
0.0
  0
LINE
  5
3A4
330
393
100
AcDbEntity
  8
SLD-0
 62
     7
100
AcDbLine
 10
50.4063664868
 20
219.4146362323
 30
0.0
 11
48.7874853832
 21
221.9403487996
 31
0.0
  0
MTEXT
  5
3A5
330
393
100
AcDbEntity
  8
SLD-0
 62
     7
100
AcDbMText
 10
28.5956041699
 20
237.451254919
 30
0.1
 40
3.5
 41
0.0
 71
     1
 72
     1
  1
2-
  7
SLDTEXTSTYLE2
 73
     1
 44
1.0
  0
MTEXT
  5
3A6
330
393
100
AcDbEntity
  8
SLD-0
 62
     7
100
AcDbMText
 10
30.9192151649
 20
237.451254919
 30
0.1
 40
3.5
 41
0.0
 71
     1
 72
     1
  1
%%c
  7
SLDTEXTSTYLE2
 73
     1
 44
1.0
  0
MTEXT
  5
3A7
330
393
100
AcDbEntity
  8
SLD-0
 62
     7
100
AcDbMText
 10
36.5355929661
 20
237.451254919
 30
0.1
 40
3.5
 41
0.0
 71
     1
 72
     1
  1
6
  7
SLDTEXTSTYLE2
 73
     1
 44
1.0
  0
ENDBLK
  5
39E
330
393
100
AcDbEntity
  8
0
100
AcDbBlockEnd
  0
ENDSEC
  0
SECTION
  2
ENTITIES
  0
LINE
  5
94
330
1F
100
AcDbEntity
  8
SLD-0
100
AcDbLine
 10
53.6445702209
 20
124.7735980627
 30
0.0
 11
55.5252475903
 21
122.3833987756
 31
0.0
  0
LINE
  5
95
330
1F
100
AcDbEntity
  8
SLD-0
100
AcDbLine
 10
55.5252475903
 20
122.3833987756
 30
0.0
 11
52.9710286883
 21
124.0344486842
 31
0.0
  0
LINE
  5
96
330
1F
100
AcDbEntity
  8
SLD-0
100
AcDbLine
 10
52.9710286883
 20
124.0344486842
 30
0.0
 11
53.6445702209
 21
124.7735980627
 31
0.0
  0
LINE
  5
97
330
1F
100
AcDbEntity
  8
SLD-0
100
AcDbLine
 10
45.7153303468
 20
203.3254869856
 30
0.0
 11
48.2126067809
 21
205.0614623344
 31
0.0
  0
LINE
  5
98
330
1F
100
AcDbEntity
  8
SLD-0
100
AcDbLine
 10
48.2126067809
 20
205.0614623344
 30
0.0
 11
46.4133372941
 21
202.6093959988
 31
0.0
  0
LINE
  5
99
330
1F
100
AcDbEntity
  8
SLD-0
100
AcDbLine
 10
46.4133372941
 20
202.6093959988
 30
0.0
 11
45.7153303468
 21
203.3254869856
 31
0.0
  0
LINE
  5
9A
330
1F
100
AcDbEntity
  8
SLD-0
  6
Continuous
 62
     7
100
AcDbLine
 10
68.5252476141
 20
115.9044527641
 30
0.0
 11
80.5252477766
 21
115.9044527641
 31
0.0
  0
LINE
  5
9B
330
1F
100
AcDbEntity
  8
SLD-0
  6
Continuous
 62
     7
100
AcDbLine
 10
68.5252476141
 20
115.9044527641
 30
0.0
 11
68.5252476141
 21
127.4169596923
 31
0.0
  0
LINE
  5
9C
330
1F
100
AcDbEntity
  8
SLD-0
  6
Continuous
 62
     7
100
AcDbLine
 10
67.5252475666
 20
127.4169596923
 30
0.0
 11
67.5252475666
 21
115.9044527641
 31
0.0
  0
LINE
  5
9D
330
1F
100
AcDbEntity
  8
SLD-0
  6
Continuous
 62
     7
100
AcDbLine
 10
55.5252474041
 20
115.9044527641
 30
0.0
 11
67.5252475666
 21
115.9044527641
 31
0.0
  0
LINE
  5
9E
330
1F
100
AcDbEntity
  8
SLD-0
  6
Continuous
 62
     7
100
AcDbLine
 10
45.0252475456
 20
150.9044519817
 30
0.0
 11
55.5252474041
 21
150.9044519817
 31
0.0
  0
LINE
  5
9F
330
1F
100
AcDbEntity
  8
SLD-0
  6
Continuous
 62
     7
100
AcDbLine
 10
45.0252475456
 20
155.90445187
 30
0.0
 11
45.0252475456
 21
150.9044519817
 31
0.0
  0
LINE
  5
A0
330
1F
100
AcDbEntity
  8
SLD-0
  6
Continuous
 62
     7
100
AcDbLine
 10
45.0252475456
 20
155.90445187
 30
0.0
 11
91.025247635
 21
155.90445187
 31
0.0
  0
LINE
  5
A1
330
1F
100
AcDbEntity
  8
SLD-0
  6
Continuous
 62
     7
100
AcDbLine
 10
91.025247635
 20
150.9044519817
 30
0.0
 11
91.025247635
 21
155.90445187
 31
0.0
  0
LINE
  5
A2
330
1F
100
AcDbEntity
  8
SLD-0
  6
Continuous
 62
     7
100
AcDbLine
 10
80.5252477766
 20
150.9044519817
 30
0.0
 11
91.025247635
 21
150.9044519817
 31
0.0
  0
LINE
  5
A3
330
1F
100
AcDbEntity
  8
SLD-0
  6
Continuous
 62
     7
100
AcDbLine
 10
80.5252477766
 20
150.9044519817
 30
0.0
 11
80.5252477766
 21
115.9044527641
 31
0.0
  0
LINE
  5
A4
330
1F
100
AcDbEntity
  8
SLD-0
  6
Continuous
 62
     7
100
AcDbLine
 10
55.5252474041
 20
150.9044519817
 30
0.0
 11
55.5252474041
 21
115.9044527641
 31
0.0
  0
LINE
  5
A5
330
1F
100
AcDbEntity
  8
SLD-0
  6
Continuous
 62
     7
100
AcDbLine
 10
44.0252473817
 20
150.9044519817
 30
0.0
 11
44.0252473817
 21
155.90445187
 31
0.0
  0
LINE
  5
A6
330
1F
100
AcDbEntity
  8
SLD-0
  6
Continuous
 62
     7
100
AcDbLine
 10
44.0252473817
 20
155.90445187
 30
0.0
 11
45.0252475456
 21
155.90445187
 31
0.0
  0
LINE
  5
A7
330
1F
100
AcDbEntity
  8
SLD-0
  6
Continuous
 62
     7
100
AcDbLine
 10
45.0252475456
 20
150.9044519817
 30
0.0
 11
44.0252473817
 21
150.9044519817
 31
0.0
  0
LINE
  5
A8
330
1F
100
AcDbEntity
  8
SLD-0
  6
Continuous
 62
     7
100
AcDbLine
 10
92.0252477989
 20
155.90445187
 30
0.0
 11
92.0252477989
 21
150.9044519817
 31
0.0
  0
LINE
  5
A9
330
1F
100
AcDbEntity
  8
SLD-0
  6
Continuous
 62
     7
100
AcDbLine
 10
91.025247635
 20
155.90445187
 30
0.0
 11
92.0252477989
 21
155.90445187
 31
0.0
  0
LINE
  5
AA
330
1F
100
AcDbEntity
  8
SLD-0
  6
Continuous
 62
     7
100
AcDbLine
 10
92.0252477989
 20
150.9044519817
 30
0.0
 11
91.025247635
 21
150.9044519817
 31
0.0
  0
LINE
  5
AB
330
1F
100
AcDbEntity
  8
SLD-0
  6
HIDDEN
 62
     7
100
AcDbLine
 10
74.0252476425
 20
116.9044510653
 30
0.0
 11
74.0252476425
 21
127.9044510057
 31
0.0
  0
LINE
  5
AC
330
1F
100
AcDbEntity
  8
SLD-0
  6
HIDDEN
 62
     7
100
AcDbLine
 10
80.5252477766
 20
116.9044510653
 30
0.0
 11
80.5252477766
 21
127.9044510057
 31
0.0
  0
LINE
  5
AD
330
1F
100
AcDbEntity
  8
SLD-0
  6
HIDDEN
 62
     7
100
AcDbLine
 10
74.0252476425
 20
119.1566200187
 30
0.0
 11
74.0252476425
 21
125.6522839149
 31
0.0
  0
LINE
  5
AE
330
1F
100
AcDbEntity
  8
SLD-0
  6
HIDDEN
 62
     7
100
AcDbLine
 10
68.5252476141
 20
119.1566200187
 30
0.0
 11
68.5252476141
 21
125.6522839149
 31
0.0
  0
LINE
  5
AF
330
1F
100
AcDbEntity
  8
SLD-0
  6
HIDDEN
 62
     7
100
AcDbLine
 10
67.5252475666
 20
119.9129917851
 30
0.0
 11
67.5252475666
 21
124.8959140113
 31
0.0
  0
LINE
  5
B0
330
1F
100
AcDbEntity
  8
SLD-0
  6
HIDDEN
 62
     7
100
AcDbLine
 10
55.5252474041
 20
119.9129917851
 30
0.0
 11
55.5252474041
 21
124.8959140113
 31
0.0
  0
LINE
  5
B1
330
1F
100
AcDbEntity
  8
SLD-0
  6
HIDDEN
 62
     7
100
AcDbLine
 10
68.0252475903
 20
147.40445187
 30
0.0
 11
66.3752475993
 21
147.4044514081
 31
0.0
  0
LINE
  5
B2
330
1F
100
AcDbEntity
  8
SLD-0
  6
HIDDEN
 62
     7
100
AcDbLine
 10
68.0252475903
 20
147.40445187
 30
0.0
 11
69.6752475814
 21
147.4044514081
 31
0.0
  0
LINE
  5
B3
330
1F
100
AcDbEntity
  8
SLD-0
  6
HIDDEN
 62
     7
100
AcDbLine
 10
66.3773653104
 20
155.90445187
 30
0.0
 11
69.6731298703
 21
155.90445187
 31
0.0
  0
LINE
  5
B4
330
1F
100
AcDbEntity
  8
SLD-0
  6
HIDDEN
 62
     7
100
AcDbLine
 10
85.3773648159
 20
155.90445187
 30
0.0
 11
88.6731291429
 21
155.90445187
 31
0.0
  0
LINE
  5
B5
330
1F
100
AcDbEntity
  8
SLD-0
  6
HIDDEN
 62
     7
100
AcDbLine
 10
85.3773648159
 20
150.9044519817
 30
0.0
 11
88.6731291429
 21
150.9044519817
 31
0.0
  0
LINE
  5
B6
330
1F
100
AcDbEntity
  8
SLD-0
  6
HIDDEN
 62
     7
100
AcDbLine
 10
47.3773660378
 20
155.90445187
 30
0.0
 11
50.6731303648
 21
155.90445187
 31
0.0
  0
LINE
  5
B7
330
1F
100
AcDbEntity
  8
SLD-0
  6
HIDDEN
 62
     7
100
AcDbLine
 10
47.3773660378
 20
150.9044519817
 30
0.0
 11
50.6731303648
 21
150.9044519817
 31
0.0
  0
LINE
  5
B8
330
1F
100
AcDbEntity
  8
SLD-0
  6
HIDDEN
 62
     7
100
AcDbLine
 10
79.5252476127
 20
115.9044527641
 30
0.0
 11
80.5252477766
 21
115.9044527641
 31
0.0
  0
LINE
  5
B9
330
1F
100
AcDbEntity
  8
SLD-0
  6
HIDDEN
 62
     7
100
AcDbLine
 10
80.5252477766
 20
150.9044519817
 30
0.0
 11
79.5252476127
 21
150.9044519817
 31
0.0
  0
LINE
  5
BA
330
1F
100
AcDbEntity
  8
SLD-0
  6
HIDDEN
 62
     7
100
AcDbLine
 10
80.5252477766
 20
115.9044527641
 30
0.0
 11
80.5252477766
 21
150.9044519817
 31
0.0
  0
LINE
  5
BB
330
1F
100
AcDbEntity
  8
SLD-0
  6
HIDDEN
 62
     7
100
AcDbLine
 10
55.5252474041
 20
115.9044527641
 30
0.0
 11
56.525247568
 21
115.9044527641
 31
0.0
  0
LINE
  5
BC
330
1F
100
AcDbEntity
  8
SLD-0
  6
HIDDEN
 62
     7
100
AcDbLine
 10
56.525247568
 20
150.9044519817
 30
0.0
 11
55.5252474041
 21
150.9044519817
 31
0.0
  0
LINE
  5
BD
330
1F
100
AcDbEntity
  8
SLD-0
  6
HIDDEN
 62
     7
100
AcDbLine
 10
55.5252474041
 20
150.9044519817
 30
0.0
 11
55.5252474041
 21
115.9044527641
 31
0.0
  0
LINE
  5
BE
330
1F
100
AcDbEntity
  8
SLD-0
  6
HIDDEN
 62
     7
100
AcDbLine
 10
56.525247568
 20
115.9044527641
 30
0.0
 11
56.525247568
 21
150.9044519817
 31
0.0
  0
LINE
  5
BF
330
1F
100
AcDbEntity
  8
SLD-0
  6
HIDDEN
 62
     7
100
AcDbLine
 10
79.5252476127
 20
150.9044519817
 30
0.0
 11
79.5252476127
 21
115.9044527641
 31
0.0
  0
LINE
  5
C0
330
1F
100
AcDbEntity
  8
SLD-0
  6
HIDDEN
 62
     7
100
AcDbLine
 10
68.5252476141
 20
127.4169596923
 30
0.0
 11
68.5252476141
 21
115.9044527641
 31
0.0
  0
LINE
  5
C1
330
1F
100
AcDbEntity
  8
SLD-0
  6
HIDDEN
 62
     7
100
AcDbLine
 10
79.5252476127
 20
115.9044527641
 30
0.0
 11
68.5252476141
 21
115.9044527641
 31
0.0
  0
LINE
  5
C2
330
1F
100
AcDbEntity
  8
SLD-0
  6
HIDDEN
 62
     7
100
AcDbLine
 10
67.5252475666
 20
115.9044527641
 30
0.0
 11
67.5252475666
 21
127.4169596923
 31
0.0
  0
LINE
  5
C3
330
1F
100
AcDbEntity
  8
SLD-0
  6
HIDDEN
 62
     7
100
AcDbLine
 10
67.5252475666
 20
115.9044527641
 30
0.0
 11
56.525247568
 21
115.9044527641
 31
0.0
  0
LINE
  5
C4
330
1F
100
AcDbEntity
  8
SLD-0
  6
HIDDEN
 62
     7
100
AcDbLine
 10
79.5252476127
 20
150.9044519817
 30
0.0
 11
56.525247568
 21
150.9044519817
 31
0.0
  0
LINE
  5
C5
330
1F
100
AcDbEntity
  8
SLD-0
  6
HIDDEN
 62
     7
100
AcDbLine
 10
49.0274498478
 20
155.90445187
 30
0.0
 11
55.0230456755
 21
155.90445187
 31
0.0
  0
LINE
  5
C6
330
1F
100
AcDbEntity
  8
SLD-0
  6
HIDDEN
 62
     7
100
AcDbLine
 10
49.0274498478
 20
150.9044519817
 30
0.0
 11
55.0230456755
 21
150.9044519817
 31
0.0
  0
LINE
  5
C7
330
1F
100
AcDbEntity
  8
SLD-0
  6
HIDDEN
 62
     7
100
AcDbLine
 10
81.0274495051
 20
155.90445187
 30
0.0
 11
87.0230453328
 21
155.90445187
 31
0.0
  0
LINE
  5
C8
330
1F
100
AcDbEntity
  8
SLD-0
  6
HIDDEN
 62
     7
100
AcDbLine
 10
81.0274495051
 20
150.9044519817
 30
0.0
 11
87.0230453328
 21
150.9044519817
 31
0.0
  0
LINE
  5
C9
330
1F
100
AcDbEntity
  8
SLD-0
  6
HIDDEN
 62
     7
100
AcDbLine
 10
92.0252477989
 20
150.9044519817
 30
0.0
 11
92.0252477989
 21
155.90445187
 31
0.0
  0
LINE
  5
CA
330
1F
100
AcDbEntity
  8
SLD-0
  6
HIDDEN
 62
     7
100
AcDbLine
 10
92.0252477989
 20
155.90445187
 30
0.0
 11
91.025247635
 21
155.90445187
 31
0.0
  0
LINE
  5
CB
330
1F
100
AcDbEntity
  8
SLD-0
  6
HIDDEN
 62
     7
100
AcDbLine
 10
91.025247635
 20
150.9044519817
 30
0.0
 11
92.0252477989
 21
150.9044519817
 31
0.0
  0
LINE
  5
CC
330
1F
100
AcDbEntity
  8
SLD-0
  6
HIDDEN
 62
     7
100
AcDbLine
 10
44.0252473817
 20
155.90445187
 30
0.0
 11
44.0252473817
 21
150.9044519817
 31
0.0
  0
LINE
  5
CD
330
1F
100
AcDbEntity
  8
SLD-0
  6
HIDDEN
 62
     7
100
AcDbLine
 10
45.0252475456
 20
155.90445187
 30
0.0
 11
44.0252473817
 21
155.90445187
 31
0.0
  0
LINE
  5
CE
330
1F
100
AcDbEntity
  8
SLD-0
  6
HIDDEN
 62
     7
100
AcDbLine
 10
44.0252473817
 20
150.9044519817
 30
0.0
 11
45.0252475456
 21
150.9044519817
 31
0.0
  0
LINE
  5
CF
330
1F
100
AcDbEntity
  8
SLD-0
  6
HIDDEN
 62
     7
100
AcDbLine
 10
45.0252475456
 20
150.9044519817
 30
0.0
 11
45.0252475456
 21
155.90445187
 31
0.0
  0
LINE
  5
D0
330
1F
100
AcDbEntity
  8
SLD-0
  6
HIDDEN
 62
     7
100
AcDbLine
 10
91.025247635
 20
155.90445187
 30
0.0
 11
91.025247635
 21
150.9044519817
 31
0.0
  0
LINE
  5
D1
330
1F
100
AcDbEntity
  8
SLD-0
  6
HIDDEN
 62
     7
100
AcDbLine
 10
91.025247635
 20
155.90445187
 30
0.0
 11
45.0252475456
 21
155.90445187
 31
0.0
  0
LINE
  5
D2
330
1F
100
AcDbEntity
  8
SLD-0
  6
HIDDEN
 62
     7
100
AcDbLine
 10
91.025247635
 20
150.9044519817
 30
0.0
 11
45.0252475456
 21
150.9044519817
 31
0.0
  0
LINE
  5
D3
330
1F
100
AcDbEntity
  8
SLD-0
  6
HIDDEN
 62
     7
100
AcDbLine
 10
80.5252477766
 20
127.9044510057
 30
0.0
 11
74.0252476425
 21
127.9044510057
 31
0.0
  0
LINE
  5
D4
330
1F
100
AcDbEntity
  8
SLD-0
  6
HIDDEN
 62
     7
100
AcDbLine
 10
74.0252476425
 20
116.9044510653
 30
0.0
 11
80.5252477766
 21
116.9044510653
 31
0.0
  0
LINE
  5
D5
330
1F
100
AcDbEntity
  8
SLD-0
  6
HIDDEN
 62
     7
100
AcDbLine
 10
74.0252476425
 20
125.6544520339
 30
0.0
 11
68.5252476141
 21
125.6544520339
 31
0.0
  0
LINE
  5
D6
330
1F
100
AcDbEntity
  8
SLD-0
  6
HIDDEN
 62
     7
100
AcDbLine
 10
68.5252476141
 20
119.1544518998
 30
0.0
 11
74.0252476425
 21
119.1544518998
 31
0.0
  0
LINE
  5
D7
330
1F
100
AcDbEntity
  8
SLD-0
  6
HIDDEN
 62
     7
100
AcDbLine
 10
67.5252475666
 20
124.9044523766
 30
0.0
 11
55.5252474041
 21
124.9044523766
 31
0.0
  0
LINE
  5
D8
330
1F
100
AcDbEntity
  8
SLD-0
  6
HIDDEN
 62
     7
100
AcDbLine
 10
55.5252474041
 20
119.9044534197
 30
0.0
 11
67.5252475666
 21
119.9044534197
 31
0.0
  0
LINE
  5
D9
330
1F
100
AcDbEntity
  8
SLD-0
  6
HIDDEN
 62
     7
100
AcDbLine
 10
66.3752475993
 20
147.4044514081
 30
0.0
 11
66.5712167283
 21
147.286701501
 31
0.0
  0
LINE
  5
DA
330
1F
100
AcDbEntity
  8
SLD-0
  6
HIDDEN
 62
     7
100
AcDbLine
 10
69.4897174143
 20
147.2929739585
 30
0.0
 11
69.6752475814
 21
147.4044514081
 31
0.0
  0
LINE
  5
DB
330
1F
100
AcDbEntity
  8
SLD-0
  6
HIDDEN
 62
     7
100
AcDbLine
 10
66.3752475993
 20
155.90445187
 30
0.0
 11
66.3752475993
 21
147.4044514081
 31
0.0
  0
LINE
  5
DC
330
1F
100
AcDbEntity
  8
SLD-0
  6
HIDDEN
 62
     7
100
AcDbLine
 10
69.6752475814
 20
147.4044514081
 30
0.0
 11
69.6752475814
 21
155.90445187
 31
0.0
  0
LINE
  5
DD
330
1F
100
AcDbEntity
  8
SLD-0
  6
HIDDEN
 62
     7
100
AcDbLine
 10
85.3752469883
 20
155.90445187
 30
0.0
 11
85.3752469883
 21
150.9044519817
 31
0.0
  0
LINE
  5
DE
330
1F
100
AcDbEntity
  8
SLD-0
  6
HIDDEN
 62
     7
100
AcDbLine
 10
88.6752469704
 20
150.9044519817
 30
0.0
 11
88.6752469704
 21
155.90445187
 31
0.0
  0
LINE
  5
DF
330
1F
100
AcDbEntity
  8
SLD-0
  6
HIDDEN
 62
     7
100
AcDbLine
 10
47.3752482102
 20
155.90445187
 30
0.0
 11
47.3752482102
 21
150.9044519817
 31
0.0
  0
LINE
  5
E0
330
1F
100
AcDbEntity
  8
SLD-0
  6
HIDDEN
 62
     7
100
AcDbLine
 10
50.6752481923
 20
150.9044519817
 30
0.0
 11
50.6752481923
 21
155.90445187
 31
0.0
  0
LINE
  5
E1
330
1F
100
AcDbEntity
  8
SLD-0
  6
HIDDEN
 62
     7
100
AcDbLine
 10
49.0252475903
 20
155.90445187
 30
0.0
 11
49.0252475903
 21
150.90445187
 31
0.0
  0
LINE
  5
E2
330
1F
100
AcDbEntity
  8
SLD-0
  6
HIDDEN
 62
     7
100
AcDbLine
 10
55.0252473221
 20
150.9044519817
 30
0.0
 11
55.0252473221
 21
155.90445187
 31
0.0
  0
LINE
  5
E3
330
1F
100
AcDbEntity
  8
SLD-0
  6
HIDDEN
 62
     7
100
AcDbLine
 10
81.0252478586
 20
155.90445187
 30
0.0
 11
81.0252478586
 21
150.9044519817
 31
0.0
  0
LINE
  5
E4
330
1F
100
AcDbEntity
  8
SLD-0
  6
HIDDEN
 62
     7
100
AcDbLine
 10
87.0252475903
 20
150.90445187
 30
0.0
 11
87.0252475903
 21
155.90445187
 31
0.0
  0
LINE
  5
E5
330
1F
100
AcDbEntity
  8
SLD-0
100
AcDbLine
 10
53.3077994546
 20
124.4040233734
 30
0.0
 11
47.8854337306
 21
129.3450929678
 31
0.0
  0
LINE
  5
E6
330
1F
100
AcDbEntity
  8
SLD-0
100
AcDbLine
 10
47.8854337306
 20
129.3450929678
 30
0.0
 11
43.3125336114
 21
129.3450929678
 31
0.0
  0
LINE
  5
E7
330
1F
100
AcDbEntity
  8
SLD-0
  6
HIDDEN
 62
     7
100
AcDbLine
 10
70.0252476853
 20
151.90445168
 30
0.0
 11
70.0252476853
 21
155.90445187
 31
0.0
  0
LINE
  5
E8
330
1F
100
AcDbEntity
  8
SLD-0
  6
HIDDEN
 62
     7
100
AcDbLine
 10
66.0252474953
 20
155.90445187
 30
0.0
 11
66.0252474953
 21
151.90445168
 31
0.0
  0
LINE
  5
E9
330
1F
100
AcDbEntity
  8
SLD-0
  6
HIDDEN
 62
     7
100
AcDbLine
 10
70.0252476853
 20
151.90445168
 30
0.0
 11
69.9911938754
 21
151.90445168
 31
0.0
  0
LINE
  5
EA
330
1F
100
AcDbEntity
  8
SLD-0
  6
HIDDEN
 62
     7
100
AcDbLine
 10
69.9911938754
 20
151.90445168
 30
0.0
 11
66.0252474953
 21
151.90445168
 31
0.0
  0
LINE
  5
EB
330
1F
100
AcDbEntity
  8
SLD-0
  6
HIDDEN
 62
     7
100
AcDbLine
 10
51.0252466665
 20
150.9044519817
 30
0.0
 11
51.0252466665
 21
155.90445187
 31
0.0
  0
LINE
  5
EC
330
1F
100
AcDbEntity
  8
SLD-0
  6
HIDDEN
 62
     7
100
AcDbLine
 10
47.0252478735
 20
155.90445187
 30
0.0
 11
47.0252478735
 21
150.9044519817
 31
0.0
  0
LINE
  5
ED
330
1F
100
AcDbEntity
  8
SLD-0
  6
HIDDEN
 62
     7
100
AcDbLine
 10
55.5252474041
 20
119.4044524064
 30
0.0
 11
67.5252475666
 21
119.4044524064
 31
0.0
  0
LINE
  5
EE
330
1F
100
AcDbEntity
  8
SLD-0
  6
HIDDEN
 62
     7
100
AcDbLine
 10
67.5252475666
 20
125.4044515273
 30
0.0
 11
55.5252474041
 21
125.4044515273
 31
0.0
  0
LINE
  5
EF
330
1F
100
AcDbEntity
  8
SLD-0
  6
CENTERX2
 62
     7
100
AcDbLine
 10
49.0252475903
 20
148.90445187
 30
0.0
 11
49.0252475903
 21
157.90445187
 31
0.0
  0
LINE
  5
F0
330
1F
100
AcDbEntity
  8
SLD-0
  6
CENTERX2
 62
     7
100
AcDbLine
 10
87.0252475903
 20
148.90445187
 30
0.0
 11
87.0252475903
 21
157.90445187
 31
0.0
  0
LINE
  5
F1
330
1F
100
AcDbEntity
  8
SLD-0
  6
CENTERX2
 62
     7
100
AcDbLine
 10
53.5252475903
 20
122.40445187
 30
0.0
 11
82.5252475903
 21
122.40445187
 31
0.0
  0
LINE
  5
F2
330
1F
100
AcDbEntity
  8
SLD-0
  6
CENTERX2
 62
     7
100
AcDbLine
 10
52.0252475903
 20
148.90445187
 30
0.0
 11
52.0252475903
 21
157.90445187
 31
0.0
  0
LINE
  5
F3
330
1F
100
AcDbEntity
  8
SLD-0
  6
CENTERX2
 62
     7
100
AcDbLine
 10
84.0252475903
 20
148.90445187
 30
0.0
 11
84.0252475903
 21
157.90445187
 31
0.0
  0
LINE
  5
F4
330
1F
100
AcDbEntity
  8
SLD-0
  6
Continuous
 62
     7
100
AcDbLine
 10
158.2473273626
 20
150.9044519817
 30
0.0
 11
158.2473273626
 21
155.90445187
 31
0.0
  0
LINE
  5
F5
330
1F
100
AcDbEntity
  8
SLD-0
  6
Continuous
 62
     7
100
AcDbLine
 10
158.2473273626
 20
155.90445187
 30
0.0
 11
159.2473275265
 21
155.90445187
 31
0.0
  0
LINE
  5
F6
330
1F
100
AcDbEntity
  8
SLD-0
  6
Continuous
 62
     7
100
AcDbLine
 10
159.2473275265
 20
155.90445187
 30
0.0
 11
159.2473275265
 21
150.9044519817
 31
0.0
  0
LINE
  5
F7
330
1F
100
AcDbEntity
  8
SLD-0
  6
Continuous
 62
     7
100
AcDbLine
 10
159.2473275265
 20
150.9044519817
 30
0.0
 11
158.2473273626
 21
150.9044519817
 31
0.0
  0
LINE
  5
F8
330
1F
100
AcDbEntity
  8
SLD-0
  6
Continuous
 62
     7
100
AcDbLine
 10
135.2473273179
 20
155.90445187
 30
0.0
 11
135.2473273179
 21
150.9044519817
 31
0.0
  0
LINE
  5
F9
330
1F
100
AcDbEntity
  8
SLD-0
  6
Continuous
 62
     7
100
AcDbLine
 10
135.2473273179
 20
155.90445187
 30
0.0
 11
158.2473273626
 21
155.90445187
 31
0.0
  0
LINE
  5
FA
330
1F
100
AcDbEntity
  8
SLD-0
  6
Continuous
 62
     7
100
AcDbLine
 10
135.2473273179
 20
150.9044519817
 30
0.0
 11
158.2473273626
 21
150.9044519817
 31
0.0
  0
LINE
  5
FB
330
1F
100
AcDbEntity
  8
SLD-0
  6
Continuous
 62
     7
100
AcDbLine
 10
134.247327154
 20
150.9044519817
 30
0.0
 11
134.247327154
 21
155.90445187
 31
0.0
  0
LINE
  5
FC
330
1F
100
AcDbEntity
  8
SLD-0
  6
Continuous
 62
     7
100
AcDbLine
 10
134.247327154
 20
155.90445187
 30
0.0
 11
135.2473273179
 21
155.90445187
 31
0.0
  0
LINE
  5
FD
330
1F
100
AcDbEntity
  8
SLD-0
  6
Continuous
 62
     7
100
AcDbLine
 10
135.2473273179
 20
150.9044519817
 30
0.0
 11
134.247327154
 21
150.9044519817
 31
0.0
  0
LINE
  5
FE
330
1F
100
AcDbEntity
  8
SLD-0
  6
Continuous
 62
     7
100
AcDbLine
 10
148.2473273533
 20
115.9044527641
 30
0.0
 11
148.2473273533
 21
150.9044519817
 31
0.0
  0
LINE
  5
FF
330
1F
100
AcDbEntity
  8
SLD-0
  6
Continuous
 62
     7
100
AcDbLine
 10
134.247327154
 20
115.9044527641
 30
0.0
 11
148.2473273533
 21
115.9044527641
 31
0.0
  0
LINE
  5
100
330
1F
100
AcDbEntity
  8
SLD-0
  6
Continuous
 62
     7
100
AcDbLine
 10
134.247327154
 20
150.9044519817
 30
0.0
 11
134.247327154
 21
115.9044527641
 31
0.0
  0
LINE
  5
101
330
1F
100
AcDbEntity
  8
SLD-0
  6
Continuous
 62
     7
100
AcDbLine
 10
149.2473272844
 20
150.9044519817
 30
0.0
 11
149.2473272844
 21
115.9044527641
 31
0.0
  0
LINE
  5
102
330
1F
100
AcDbEntity
  8
SLD-0
  6
Continuous
 62
     7
100
AcDbLine
 10
149.2473272844
 20
115.9044527641
 30
0.0
 11
148.2473273533
 21
115.9044527641
 31
0.0
  0
LINE
  5
103
330
1F
100
AcDbEntity
  8
SLD-0
  6
HIDDEN
 62
     7
100
AcDbLine
 10
142.5973273402
 20
155.90445187
 30
0.0
 11
145.8888617232
 21
155.90445187
 31
0.0
  0
LINE
  5
104
330
1F
100
AcDbEntity
  8
SLD-0
  6
HIDDEN
 62
     7
100
AcDbLine
 10
151.2473273402
 20
155.90445187
 30
0.0
 11
157.2385243377
 21
155.90445187
 31
0.0
  0
LINE
  5
105
330
1F
100
AcDbEntity
  8
SLD-0
  6
HIDDEN
 62
     7
100
AcDbLine
 10
134.2473273402
 20
127.4169596923
 30
0.0
 11
149.2473272844
 21
127.4169596923
 31
0.0
  0
LINE
  5
106
330
1F
100
AcDbEntity
  8
SLD-0
  6
HIDDEN
 62
     7
100
AcDbLine
 10
149.2473272844
 20
127.4169596923
 30
0.0
 11
149.2473272844
 21
147.3959568148
 31
0.0
  0
LINE
  5
107
330
1F
100
AcDbEntity
  8
SLD-0
  6
HIDDEN
 62
     7
100
AcDbLine
 10
134.2473273402
 20
127.4169596923
 30
0.0
 11
134.2473273402
 21
147.3959568148
 31
0.0
  0
LINE
  5
108
330
1F
100
AcDbEntity
  8
SLD-0
  6
HIDDEN
 62
     7
100
AcDbLine
 10
142.5973273402
 20
155.90445187
 30
0.0
 11
145.8888617232
 21
155.90445187
 31
0.0
  0
LINE
  5
109
330
1F
100
AcDbEntity
  8
SLD-0
  6
HIDDEN
 62
     7
100
AcDbLine
 10
149.2473272844
 20
127.4169596923
 30
0.0
 11
149.2473272844
 21
115.9044527641
 31
0.0
  0
LINE
  5
10A
330
1F
100
AcDbEntity
  8
SLD-0
  6
HIDDEN
 62
     7
100
AcDbLine
 10
149.2473272844
 20
115.9044527641
 30
0.0
 11
134.247327154
 21
115.9044527641
 31
0.0
  0
LINE
  5
10B
330
1F
100
AcDbEntity
  8
SLD-0
  6
HIDDEN
 62
     7
100
AcDbLine
 10
134.247327154
 20
115.9044527641
 30
0.0
 11
134.2473273402
 21
127.4169596923
 31
0.0
  0
LINE
  5
10C
330
1F
100
AcDbEntity
  8
SLD-0
  6
HIDDEN
 62
     7
100
AcDbLine
 10
149.2473272844
 20
115.9044527641
 30
0.0
 11
134.247327154
 21
115.9044527641
 31
0.0
  0
LINE
  5
10D
330
1F
100
AcDbEntity
  8
SLD-0
  6
HIDDEN
 62
     7
100
AcDbLine
 10
149.2473272844
 20
115.9044527641
 30
0.0
 11
149.2473272844
 21
127.4169596923
 31
0.0
  0
LINE
  5
10E
330
1F
100
AcDbEntity
  8
SLD-0
  6
HIDDEN
 62
     7
100
AcDbLine
 10
134.2473273402
 20
127.4169596923
 30
0.0
 11
134.247327154
 21
115.9044527641
 31
0.0
  0
LINE
  5
10F
330
1F
100
AcDbEntity
  8
SLD-0
  6
HIDDEN
 62
     7
100
AcDbLine
 10
151.2473273402
 20
155.90445187
 30
0.0
 11
157.2385243377
 21
155.90445187
 31
0.0
  0
LINE
  5
110
330
1F
100
AcDbEntity
  8
SLD-0
  6
HIDDEN
 62
     7
100
AcDbLine
 10
142.5973273402
 20
155.90445187
 30
0.0
 11
145.8888617232
 21
155.90445187
 31
0.0
  0
LINE
  5
111
330
1F
100
AcDbEntity
  8
SLD-0
  6
HIDDEN
 62
     7
100
AcDbLine
 10
159.2473275265
 20
155.90445187
 30
0.0
 11
158.2473273626
 21
155.90445187
 31
0.0
  0
LINE
  5
112
330
1F
100
AcDbEntity
  8
SLD-0
  6
HIDDEN
 62
     7
100
AcDbLine
 10
135.2473273179
 20
155.90445187
 30
0.0
 11
134.247327154
 21
155.90445187
 31
0.0
  0
LINE
  5
113
330
1F
100
AcDbEntity
  8
SLD-0
  6
HIDDEN
 62
     7
100
AcDbLine
 10
135.2473273179
 20
150.9044519817
 30
0.0
 11
135.2473273179
 21
155.90445187
 31
0.0
  0
LINE
  5
114
330
1F
100
AcDbEntity
  8
SLD-0
  6
HIDDEN
 62
     7
100
AcDbLine
 10
158.2473273626
 20
155.90445187
 30
0.0
 11
158.2473273626
 21
150.9044519817
 31
0.0
  0
LINE
  5
115
330
1F
100
AcDbEntity
  8
SLD-0
  6
HIDDEN
 62
     7
100
AcDbLine
 10
158.2473273626
 20
155.90445187
 30
0.0
 11
135.2473273179
 21
155.90445187
 31
0.0
  0
LINE
  5
116
330
1F
100
AcDbEntity
  8
SLD-0
  6
HIDDEN
 62
     7
100
AcDbLine
 10
158.2473273626
 20
150.9044519817
 30
0.0
 11
135.2473273179
 21
150.9044519817
 31
0.0
  0
LINE
  5
117
330
1F
100
AcDbEntity
  8
SLD-0
  6
HIDDEN
 62
     7
100
AcDbLine
 10
142.597327405
 20
147.4044514081
 30
0.0
 11
134.247327154
 21
147.4044514081
 31
0.0
  0
LINE
  5
118
330
1F
100
AcDbEntity
  8
SLD-0
  6
HIDDEN
 62
     7
100
AcDbLine
 10
149.2473272844
 20
147.4044514081
 30
0.0
 11
145.897327329
 21
147.4044514081
 31
0.0
  0
LINE
  5
119
330
1F
100
AcDbEntity
  8
SLD-0
  6
CENTERX2
 62
     7
100
AcDbLine
 10
144.2473273402
 20
148.90445187
 30
0.0
 11
144.2473273402
 21
157.90445187
 31
0.0
  0
LINE
  5
11A
330
1F
100
AcDbEntity
  8
SLD-0
  6
CENTERX2
 62
     7
100
AcDbLine
 10
132.2473273402
 20
137.40445187
 30
0.0
 11
151.2473273402
 21
137.40445187
 31
0.0
  0
LINE
  5
11B
330
1F
100
AcDbEntity
  8
SLD-0
  6
CENTERX2
 62
     7
100
AcDbLine
 10
154.2473273402
 20
148.90445187
 30
0.0
 11
154.2473273402
 21
157.90445187
 31
0.0
  0
LINE
  5
11C
330
1F
100
AcDbEntity
  8
SLD-0
  6
Continuous
 62
     7
100
AcDbLine
 10
91.025247635
 20
196.8889234788
 30
0.0
 11
92.0252477989
 21
197.8889236427
 31
0.0
  0
LINE
  5
11D
330
1F
100
AcDbEntity
  8
SLD-0
  6
Continuous
 62
     7
100
AcDbLine
 10
45.0252475456
 20
196.8889234788
 30
0.0
 11
91.025247635
 21
196.8889234788
 31
0.0
  0
LINE
  5
11E
330
1F
100
AcDbEntity
  8
SLD-0
  6
Continuous
 62
     7
100
AcDbLine
 10
44.0252473817
 20
197.8889236427
 30
0.0
 11
45.0252475456
 21
196.8889234788
 31
0.0
  0
LINE
  5
11F
330
1F
100
AcDbEntity
  8
SLD-0
  6
Continuous
 62
     7
100
AcDbLine
 10
44.0252473817
 20
220.8889236874
 30
0.0
 11
44.0252473817
 21
197.8889236427
 31
0.0
  0
LINE
  5
120
330
1F
100
AcDbEntity
  8
SLD-0
  6
Continuous
 62
     7
100
AcDbLine
 10
45.0252475456
 20
221.8889238513
 30
0.0
 11
44.0252473817
 21
220.8889236874
 31
0.0
  0
LINE
  5
121
330
1F
100
AcDbEntity
  8
SLD-0
  6
Continuous
 62
     7
100
AcDbLine
 10
91.025247635
 20
221.8889238513
 30
0.0
 11
45.0252475456
 21
221.8889238513
 31
0.0
  0
LINE
  5
122
330
1F
100
AcDbEntity
  8
SLD-0
  6
Continuous
 62
     7
100
AcDbLine
 10
92.0252477989
 20
220.8889236874
 30
0.0
 11
91.025247635
 21
221.8889238513
 31
0.0
  0
LINE
  5
123
330
1F
100
AcDbEntity
  8
SLD-0
  6
Continuous
 62
     7
100
AcDbLine
 10
92.0252477989
 20
197.8889236427
 30
0.0
 11
92.0252477989
 21
220.8889236874
 31
0.0
  0
LINE
  5
124
330
1F
100
AcDbEntity
  8
SLD-0
  6
Continuous
 62
     7
100
AcDbLine
 10
68.5252476141
 20
208.433585599
 30
0.0
 11
68.5252476141
 21
205.341227652
 31
0.0
  0
LINE
  5
125
330
1F
100
AcDbEntity
  8
SLD-0
  6
Continuous
 62
     7
100
AcDbLine
 10
67.5252475903
 20
205.343736635
 30
0.0
 11
67.5252475903
 21
208.4367231666
 31
0.0
  0
LINE
  5
126
330
1F
100
AcDbEntity
  8
SLD-0
  6
Continuous
 62
     7
100
AcDbLine
 10
68.0252475903
 20
208.5389236538
 30
0.0
 11
67.9589454775
 21
208.5302329589
 31
0.0
  0
LINE
  5
127
330
1F
100
AcDbEntity
  8
SLD-0
  6
HIDDEN
 62
     7
100
AcDbLine
 10
80.5252478004
 20
210.888923734
 30
0.0
 11
80.5252478004
 21
196.8889234788
 31
0.0
  0
LINE
  5
128
330
1F
100
AcDbEntity
  8
SLD-0
  6
HIDDEN
 62
     7
100
AcDbLine
 10
55.5252474041
 20
210.888923734
 30
0.0
 11
55.5252474041
 21
196.8889234788
 31
0.0
  0
LINE
  5
129
330
1F
100
AcDbEntity
  8
SLD-0
  6
HIDDEN
 62
     7
100
AcDbLine
 10
68.5252476141
 20
211.888923665
 30
0.0
 11
68.5252476141
 21
208.433585599
 31
0.0
  0
LINE
  5
12A
330
1F
100
AcDbEntity
  8
SLD-0
  6
HIDDEN
 62
     7
100
AcDbLine
 10
68.5252476141
 20
205.341227652
 30
0.0
 11
68.5252476141
 21
196.888923665
 31
0.0
  0
LINE
  5
12B
330
1F
100
AcDbEntity
  8
SLD-0
  6
HIDDEN
 62
     7
100
AcDbLine
 10
67.5252475903
 20
196.888923665
 30
0.0
 11
67.5252475903
 21
205.343736635
 31
0.0
  0
LINE
  5
12C
330
1F
100
AcDbEntity
  8
SLD-0
  6
HIDDEN
 62
     7
100
AcDbLine
 10
67.5252475903
 20
208.4367231666
 30
0.0
 11
67.5252475903
 21
211.888923665
 31
0.0
  0
LINE
  5
12D
330
1F
100
AcDbEntity
  8
SLD-0
  6
HIDDEN
 62
     7
100
AcDbLine
 10
67.7110680153
 20
205.2820998443
 30
0.0
 11
67.7967630508
 21
205.2592070042
 31
0.0
  0
LINE
  5
12E
330
1F
100
AcDbEntity
  8
SLD-0
  6
HIDDEN
 62
     7
100
AcDbLine
 10
67.7967630508
 20
205.2592070042
 30
0.0
 11
68.0252475903
 21
205.2389237298
 31
0.0
  0
LINE
  5
12F
330
1F
100
AcDbEntity
  8
SLD-0
  6
HIDDEN
 62
     7
100
AcDbLine
 10
78.0184692011
 20
211.8889236091
 30
0.0
 11
58.0320259795
 21
211.8889236091
 31
0.0
  0
LINE
  5
130
330
1F
100
AcDbEntity
  8
SLD-0
  6
HIDDEN
 62
     7
100
AcDbLine
 10
58.0320259795
 20
196.8889234788
 30
0.0
 11
78.0184692011
 21
196.8889234788
 31
0.0
  0
LINE
  5
131
330
1F
100
AcDbEntity
  8
SLD-0
  6
HIDDEN
 62
     7
100
AcDbLine
 10
74.0252476425
 20
198.8889238066
 30
0.0
 11
74.0252476425
 21
209.8889236888
 31
0.0
  0
LINE
  5
132
330
1F
100
AcDbEntity
  8
SLD-0
  6
HIDDEN
 62
     7
100
AcDbLine
 10
80.5252475903
 20
209.8889236888
 30
0.0
 11
80.5252477766
 21
198.8889238066
 31
0.0
  0
LINE
  5
133
330
1F
100
AcDbEntity
  8
SLD-0
  6
HIDDEN
 62
     7
100
AcDbLine
 10
68.5252475903
 20
207.638923665
 30
0.0
 11
68.5252475903
 21
201.1475933916
 31
0.0
  0
LINE
  5
134
330
1F
100
AcDbEntity
  8
SLD-0
  6
HIDDEN
 62
     7
100
AcDbLine
 10
74.0252475903
 20
207.638923665
 30
0.0
 11
74.0252475903
 21
201.1475933916
 31
0.0
  0
LINE
  5
135
330
1F
100
AcDbEntity
  8
SLD-0
  6
HIDDEN
 62
     7
100
AcDbLine
 10
67.5252475666
 20
206.888923665
 30
0.0
 11
67.5252475666
 21
201.8889238327
 31
0.0
  0
LINE
  5
136
330
1F
100
AcDbEntity
  8
SLD-0
  6
HIDDEN
 62
     7
100
AcDbLine
 10
55.5252475903
 20
206.888923665
 30
0.0
 11
55.5252474041
 21
201.8889238327
 31
0.0
  0
LINE
  5
137
330
1F
100
AcDbEntity
  8
SLD-0
  6
HIDDEN
 62
     7
100
AcDbLine
 10
68.5252476141
 20
211.888923665
 30
0.0
 11
68.5252476141
 21
196.888923665
 31
0.0
  0
LINE
  5
138
330
1F
100
AcDbEntity
  8
SLD-0
  6
HIDDEN
 62
     7
100
AcDbLine
 10
79.5252476365
 20
211.888923665
 30
0.0
 11
68.5252476141
 21
211.888923665
 31
0.0
  0
LINE
  5
139
330
1F
100
AcDbEntity
  8
SLD-0
  6
HIDDEN
 62
     7
100
AcDbLine
 10
79.5252476365
 20
211.888923665
 30
0.0
 11
80.5252478004
 21
210.888923734
 31
0.0
  0
LINE
  5
13A
330
1F
100
AcDbEntity
  8
SLD-0
  6
HIDDEN
 62
     7
100
AcDbLine
 10
80.5252478004
 20
196.8889234788
 30
0.0
 11
80.5252478004
 21
210.888923734
 31
0.0
  0
LINE
  5
13B
330
1F
100
AcDbEntity
  8
SLD-0
  6
HIDDEN
 62
     7
100
AcDbLine
 10
68.5252476141
 20
196.888923665
 30
0.0
 11
80.5252478004
 21
196.8889234788
 31
0.0
  0
LINE
  5
13C
330
1F
100
AcDbEntity
  8
SLD-0
  6
HIDDEN
 62
     7
100
AcDbLine
 10
67.5252475903
 20
211.888923665
 30
0.0
 11
67.5252475903
 21
196.888923665
 31
0.0
  0
LINE
  5
13D
330
1F
100
AcDbEntity
  8
SLD-0
  6
HIDDEN
 62
     7
100
AcDbLine
 10
67.5252475903
 20
211.888923665
 30
0.0
 11
56.525247568
 21
211.888923665
 31
0.0
  0
LINE
  5
13E
330
1F
100
AcDbEntity
  8
SLD-0
  6
HIDDEN
 62
     7
100
AcDbLine
 10
55.5252474041
 20
210.888923734
 30
0.0
 11
56.525247568
 21
211.888923665
 31
0.0
  0
LINE
  5
13F
330
1F
100
AcDbEntity
  8
SLD-0
  6
HIDDEN
 62
     7
100
AcDbLine
 10
55.5252474041
 20
196.8889234788
 30
0.0
 11
55.5252474041
 21
210.888923734
 31
0.0
  0
LINE
  5
140
330
1F
100
AcDbEntity
  8
SLD-0
  6
HIDDEN
 62
     7
100
AcDbLine
 10
55.5252474041
 20
196.8889234788
 30
0.0
 11
67.5252475903
 21
196.888923665
 31
0.0
  0
LINE
  5
141
330
1F
100
AcDbEntity
  8
SLD-0
  6
HIDDEN
 62
     7
100
AcDbLine
 10
58.0252478138
 20
211.8889236091
 30
0.0
 11
58.0252478138
 21
196.8889234788
 31
0.0
  0
LINE
  5
142
330
1F
100
AcDbEntity
  8
SLD-0
  6
HIDDEN
 62
     7
100
AcDbLine
 10
78.0252473668
 20
196.8889234788
 30
0.0
 11
78.0252473668
 21
211.8889236091
 31
0.0
  0
LINE
  5
143
330
1F
100
AcDbEntity
  8
SLD-0
  6
HIDDEN
 62
     7
100
AcDbLine
 10
80.5252475903
 20
209.8889236888
 30
0.0
 11
74.0252476425
 21
209.8889236888
 31
0.0
  0
LINE
  5
144
330
1F
100
AcDbEntity
  8
SLD-0
  6
HIDDEN
 62
     7
100
AcDbLine
 10
74.0252476425
 20
198.8889238066
 30
0.0
 11
80.5252477766
 21
198.8889238066
 31
0.0
  0
LINE
  5
145
330
1F
100
AcDbEntity
  8
SLD-0
  6
HIDDEN
 62
     7
100
AcDbLine
 10
74.0252475903
 20
207.638923665
 30
0.0
 11
68.5252475903
 21
207.638923665
 31
0.0
  0
LINE
  5
146
330
1F
100
AcDbEntity
  8
SLD-0
  6
HIDDEN
 62
     7
100
AcDbLine
 10
68.5252476141
 20
201.1389237097
 30
0.0
 11
74.0252476425
 21
201.1389237097
 31
0.0
  0
LINE
  5
147
330
1F
100
AcDbEntity
  8
SLD-0
  6
HIDDEN
 62
     7
100
AcDbLine
 10
67.5252475666
 20
206.888923665
 30
0.0
 11
55.5252475903
 21
206.888923665
 31
0.0
  0
LINE
  5
148
330
1F
100
AcDbEntity
  8
SLD-0
  6
HIDDEN
 62
     7
100
AcDbLine
 10
55.5252474041
 20
201.8889238327
 30
0.0
 11
67.5252475666
 21
201.8889238327
 31
0.0
  0
LINE
  5
149
330
1F
100
AcDbEntity
  8
SLD-0
 62
     7
100
AcDbLine
 10
91.5252475903
 20
221.388923665
 30
0.0
 11
96.0303650488
 21
224.8378859658
 31
0.0
  0
LINE
  5
14A
330
1F
100
AcDbEntity
  8
SLD-0
 62
     7
100
AcDbLine
 10
96.0303650488
 20
224.8378859658
 30
0.0
 11
104.9814910798
 21
231.7688210264
 31
0.0
  0
LINE
  5
14B
330
1F
100
AcDbEntity
  8
SLD-0
 62
     7
100
AcDbLine
 10
56.0252475903
 20
211.388923665
 30
0.0
 11
32.2923505718
 21
219.233658477
 31
0.0
  0
LINE
  5
14C
330
1F
100
AcDbEntity
  8
SLD-0
 62
     7
100
AcDbLine
 10
32.2923505718
 20
219.233658477
 30
0.0
 11
43.0395935283
 21
215.6759503845
 31
0.0
  0
LINE
  5
14D
330
1F
100
AcDbEntity
  8
SLD-0
100
AcDbLine
 10
46.0643338205
 20
202.9674414922
 30
0.0
 11
39.2377424315
 21
196.3132476758
 31
0.0
  0
LINE
  5
14E
330
1F
100
AcDbEntity
  8
SLD-0
100
AcDbLine
 10
39.2377424315
 20
196.3132476758
 30
0.0
 11
30.5919421931
 21
196.3132476758
 31
0.0
  0
LINE
  5
14F
330
1F
100
AcDbEntity
  8
SLD-0
  6
HIDDEN
 62
     7
100
AcDbLine
 10
55.5252474041
 20
201.388923285
 30
0.0
 11
67.5252475666
 21
201.388923285
 31
0.0
  0
LINE
  5
150
330
1F
100
AcDbEntity
  8
SLD-0
  6
HIDDEN
 62
     7
100
AcDbLine
 10
67.5252475666
 20
207.38892357
 30
0.0
 11
55.5252474041
 21
207.38892357
 31
0.0
  0
LINE
  5
151
330
1F
100
AcDbEntity
  8
SLD-0
  6
CENTERX2
 62
     7
100
AcDbLine
 10
68.0252475903
 20
194.888923665
 30
0.0
 11
68.0252475903
 21
213.888923665
 31
0.0
  0
LINE
  5
152
330
1F
100
AcDbEntity
  8
SLD-0
  6
CENTERX2
 62
     7
100
AcDbLine
 10
53.5252475903
 20
204.388923665
 30
0.0
 11
82.5252475903
 21
204.388923665
 31
0.0
  0
LINE
  5
153
330
1F
100
AcDbEntity
  8
0
  6
Continuous
 62
     7
370
     0
100
AcDbLine
 10
20.2604743903
 20
285.0
 30
0.0
 11
196.7604743903
 21
285.0
 31
0.0
  0
LINE
  5
154
330
1F
100
AcDbEntity
  8
0
  6
Continuous
 62
     7
370
     0
100
AcDbLine
 10
20.2604743903
 20
285.0
 30
0.0
 11
20.2604743903
 21
10.0
 31
0.0
  0
LINE
  5
155
330
1F
100
AcDbEntity
  8
0
  6
Continuous
 62
     7
370
     0
100
AcDbLine
 10
20.2604743903
 20
10.0
 30
0.0
 11
196.7604743903
 21
10.0
 31
0.0
  0
LINE
  5
156
330
1F
100
AcDbEntity
  8
0
  6
Continuous
 62
     7
370
     0
100
AcDbLine
 10
196.7604743903
 20
285.0
 30
0.0
 11
196.7604743903
 21
10.0
 31
0.0
  0
LINE
  5
157
330
1F
100
AcDbEntity
  8
0
  6
Continuous
 62
     7
370
     0
100
AcDbLine
 10
127.0104743903
 20
50.75
 30
0.0
 11
196.7604743903
 21
50.75
 31
0.0
  0
LINE
  5
158
330
1F
100
AcDbEntity
  8
0
  6
Continuous
 62
     7
370
     0
100
AcDbLine
 10
127.0104743903
 20
50.75
 30
0.0
 11
127.0104743903
 21
10.0
 31
0.0
  0
LINE
  5
159
330
1F
100
AcDbEntity
  8
0
  6
Continuous
 62
     7
370
     0
100
AcDbLine
 10
127.0104743903
 20
22.75
 30
0.0
 11
196.7604743903
 21
22.75
 31
0.0
  0
LINE
  5
15A
330
1F
100
AcDbEntity
  8
0
  6
Continuous
 62
     7
370
     0
100
AcDbLine
 10
127.0104743903
 20
36.75
 30
0.0
 11
196.7604743903
 21
36.75
 31
0.0
  0
ARC
  5
15B
330
1F
100
AcDbEntity
  8
SLD-0
  6
Continuous
 62
     7
100
AcDbCircle
 10
68.0252475902
 20
137.4044518688
 30
0.0
 40
9.999999999990459
100
AcDbArc
 50
272.8659841199
 51
267.1340158822
  0
ARC
  5
15C
330
1F
100
AcDbEntity
  8
SLD-0
  6
HIDDEN
 62
     7
100
AcDbCircle
 10
68.0252457945
 20
137.4044221682
 30
0.0
 40
10.00002970180012
100
AcDbArc
 50
89.9999897109
 51
98.3610630237
  0
ARC
  5
15D
330
1F
100
AcDbEntity
  8
SLD-0
  6
HIDDEN
 62
     7
100
AcDbCircle
 10
68.0252954863
 20
137.4050798315
 30
0.0
 40
9.999372038657354
100
AcDbArc
 50
81.5543223431
 51
90.0002744411
  0
ARC
  5
15E
330
1F
100
AcDbEntity
  8
SLD-0
  6
HIDDEN
 62
     7
100
AcDbCircle
 10
68.0252475902
 20
137.4044518688
 30
0.0
 40
9.999999999990459
100
AcDbArc
 50
272.8659841199
 51
267.1340158822
  0
CIRCLE
  5
15F
330
1F
100
AcDbEntity
  8
SLD-0
  6
Continuous
 62
     7
100
AcDbCircle
 10
141.7473273402
 20
122.40445187
 30
0.0
 40
5.500000000000028
  0
CIRCLE
  5
160
330
1F
100
AcDbEntity
  8
SLD-0
  6
Continuous
 62
     7
100
AcDbCircle
 10
141.7473273402
 20
122.40445187
 30
0.0
 40
3.250000000000028
  0
CIRCLE
  5
161
330
1F
100
AcDbEntity
  8
SLD-0
  6
Continuous
 62
     7
100
AcDbCircle
 10
141.7473273402
 20
122.40445187
 30
0.0
 40
2.5
  0
ARC
  5
162
330
1F
100
AcDbEntity
  8
SLD-0
  6
HIDDEN
 62
     7
100
AcDbCircle
 10
144.247327367
 20
159.8919228421
 30
0.0
 40
12.59600899850001
100
AcDbArc
 50
262.4729719906
 51
277.5270280094
  0
ARC
  5
163
330
1F
100
AcDbEntity
  8
SLD-0
  6
HIDDEN
 62
     7
100
AcDbCircle
 10
144.247327367
 20
159.9037435478
 30
0.0
 40
12.60772794237304
100
AcDbArc
 50
262.4800088712
 51
277.5199911288
  0
CIRCLE
  5
164
330
1F
100
AcDbEntity
  8
SLD-0
  6
HIDDEN
 62
     7
100
AcDbCircle
 10
141.7473273402
 20
122.40445187
 30
0.0
 40
5.500000000000028
  0
CIRCLE
  5
165
330
1F
100
AcDbEntity
  8
SLD-0
  6
HIDDEN
 62
     7
100
AcDbCircle
 10
141.7473273402
 20
122.40445187
 30
0.0
 40
3.250000000000028
  0
CIRCLE
  5
166
330
1F
100
AcDbEntity
  8
SLD-0
  6
HIDDEN
 62
     7
100
AcDbCircle
 10
141.7473273402
 20
122.40445187
 30
0.0
 40
2.5
  0
CIRCLE
  5
167
330
1F
100
AcDbEntity
  8
SLD-0
 62
     7
100
AcDbCircle
 10
141.7473273402
 20
122.40445187
 30
0.0
 40
2.999999657300009
  0
CIRCLE
  5
168
330
1F
100
AcDbEntity
  8
SLD-0
  6
Continuous
 62
     7
100
AcDbCircle
 10
68.0252475903
 20
206.888923665
 30
0.0
 40
1.650000000000006
  0
CIRCLE
  5
169
330
1F
100
AcDbEntity
  8
SLD-0
  6
Continuous
 62
     7
100
AcDbCircle
 10
49.0252475903
 20
206.888923665
 30
0.0
 40
1.649999999999999
  0
CIRCLE
  5
16A
330
1F
100
AcDbEntity
  8
SLD-0
  6
Continuous
 62
     7
100
AcDbCircle
 10
87.0252475903
 20
206.888923665
 30
0.0
 40
1.650000000000006
  0
CIRCLE
  5
16B
330
1F
100
AcDbEntity
  8
SLD-0
  6
Continuous
 62
     7
100
AcDbCircle
 10
52.0252475903
 20
216.888923665
 30
0.0
 40
3.000000000000007
  0
CIRCLE
  5
16C
330
1F
100
AcDbEntity
  8
SLD-0
  6
Continuous
 62
     7
100
AcDbCircle
 10
84.0252475903
 20
216.888923665
 30
0.0
 40
3.0
  0
ARC
  5
16D
330
1F
100
AcDbEntity
  8
SLD-0
  6
Continuous
 62
     7
100
AcDbCircle
 10
67.8191188407
 20
206.8687541791
 30
0.0
 40
1.682841387520029
100
AcDbArc
 50
294.8096562414
 51
82.9642560491
  0
ARC
  5
16E
330
1F
100
AcDbEntity
  8
SLD-0
  6
Continuous
 62
     7
100
AcDbCircle
 10
68.2620747573
 20
206.8996425309
 30
0.0
 40
1.708816190400004
100
AcDbArc
 50
117.6064011291
 51
251.1888814032
  0
ARC
  5
16F
330
1F
100
AcDbEntity
  8
SLD-0
  6
HIDDEN
 62
     7
100
AcDbCircle
 10
68.0297158992
 20
206.4900869391
 30
0.0
 40
1.251171188119216
100
AcDbArc
 50
269.7953790929
 51
293.331743579
  0
ARC
  5
170
330
1F
100
AcDbEntity
  8
SLD-0
  6
HIDDEN
 62
     7
100
AcDbCircle
 10
67.920997167
 20
207.6048008737
 30
0.0
 40
0.9262098134743367
100
AcDbArc
 50
87.6518421888
 51
119.1234190547
  0
CIRCLE
  5
171
330
1F
100
AcDbEntity
  8
SLD-0
 62
     7
100
AcDbCircle
 10
68.0252475903
 20
206.888923665
 30
0.0
 40
2.000000095000004
  0
CIRCLE
  5
172
330
1F
100
AcDbEntity
  8
SLD-0
 62
     7
100
AcDbCircle
 10
49.0252475903
 20
206.888923665
 30
0.0
 40
1.999999076100004
  0
DIMENSION
  5
173
330
1F
100
AcDbEntity
  8
SLD-0
 62
     7
100
AcDbDimension
  2
*D13
 10
111.0907597716
 20
155.90445187
 30
0.0
 11
111.0907597716
 21
135.90445187
 31
0.0
 70
   160
 71
     1
 42
40.0
  3
SLDDIMSTYLE0
100
AcDbAlignedDimension
 13
68.0252475903
 23
115.90445187
 33
0.0
 14
68.0252475903
 24
155.90445187
 34
0.0
 50
90.0
100
AcDbRotatedDimension
1001
ACAD
1000
DSTYLE
1002
{
1070
    77
1070
     3
1070
   143
1040
0.0393700787
1070
    41
1040
3.0
1070
    44
1040
1.0
1070
    42
1040
1.0
1070
   147
1040
1.524
1070
    73
1070
     0
1070
    74
1070
     0
1070
   140
1040
3.5
1070
   284
1070
    12
1070
    78
1070
    12
1002
}
  0
DIMENSION
  5
191
330
1F
100
AcDbEntity
  8
SLD-0
100
AcDbDimension
  2
*D15
 10
38.7528839145
 20
155.90445187
 30
0.0
 11
38.7528839145
 21
153.40445187
 31
0.0
 70
   160
 71
     1
 42
5.0
  3
SLDDIMSTYLE1
100
AcDbAlignedDimension
 13
45.0252475903
 23
150.90445187
 33
0.0
 14
45.0252475903
 24
155.90445187
 34
0.0
 50
90.0
100
AcDbRotatedDimension
1001
ACAD
1000
DSTYLE
1002
{
1070
    77
1070
     3
1070
   143
1040
0.0393700787
1070
    41
1040
3.0
1070
    44
1040
1.0
1070
    42
1040
1.0
1070
   147
1040
1.524
1070
    73
1070
     0
1070
    74
1070
     0
1070
   140
1040
3.5
1070
   284
1070
    12
1070
    78
1070
    12
1002
}
  0
DIMENSION
  5
1AC
330
1F
100
AcDbEntity
  8
SLD-0
 62
     7
100
AcDbDimension
  2
*D16
 10
80.5252475903
 20
97.5050193173
 30
0.0
 11
86.2752475903
 21
97.5050193173
 31
0.0
 70
   160
 71
     1
 42
11.5
  3
SLDDIMSTYLE2
100
AcDbAlignedDimension
 13
92.0252475903
 23
150.90445187
 33
0.0
 14
80.5252475903
 24
115.90445187
 34
0.0
100
AcDbRotatedDimension
1001
ACAD
1000
DSTYLE
1002
{
1070
    77
1070
     3
1070
   143
1040
0.0393700787
1070
    41
1040
3.0
1070
    44
1040
1.0
1070
    42
1040
1.0
1070
   147
1040
1.524
1070
    73
1070
     0
1070
    74
1070
     0
1070
   140
1040
3.5
1070
   284
1070
    12
1070
    78
1070
    12
1002
}
  0
DIMENSION
  5
1C4
330
1F
100
AcDbEntity
  8
SLD-0
 62
     7
100
AcDbDimension
  2
*D17
 10
55.5252475903
 20
97.5050193173
 30
0.0
 11
68.0252475903
 21
97.5050193173
 31
0.0
 70
   160
 71
     1
 42
25.0
  3
SLDDIMSTYLE0
100
AcDbAlignedDimension
 13
80.5252475903
 23
115.90445187
 33
0.0
 14
55.5252475903
 24
115.90445187
 34
0.0
100
AcDbRotatedDimension
1001
ACAD
1000
DSTYLE
1002
{
1070
    77
1070
     3
1070
   143
1040
0.0393700787
1070
    41
1040
3.0
1070
    44
1040
1.0
1070
    42
1040
1.0
1070
   147
1040
1.524
1070
    73
1070
     0
1070
    74
1070
     0
1070
   140
1040
3.5
1070
   284
1070
    12
1070
    78
1070
    12
1002
}
  0
DIMENSION
  5
1DB
330
1F
100
AcDbEntity
  8
SLD-0
 62
     7
100
AcDbDimension
  2
*D18
 10
64.8482203164
 20
127.922548174
 30
0.0
 11
85.3869150829
 21
167.7979460373
 31
0.0
 70
   163
  1
<>
 71
     1
 42
20.0000000001
  3
SLDDIMSTYLE3
100
AcDbDiametricDimension
 15
71.2022748643
 25
146.886355566
 35
0.0
 40
0.0
1001
ACAD
1000
DSTYLE
1002
{
1070
    77
1070
     0
1070
   143
1040
0.0393700787
1070
    41
1040
3.0
1070
    44
1040
1.0
1070
    42
1040
1.0
1070
   147
1040
1.524
1070
    73
1070
     1
1070
    74
1070
     1
1070
   140
1040
3.5
1070
   284
1070
    12
1070
    78
1070
    12
1002
}
  0
DIMENSION
  5
1EF
330
1F
100
AcDbEntity
  8
SLD-0
 62
     7
100
AcDbDimension
  2
*D19
 10
100.9273736633
 20
155.90445187
 30
0.0
 11
100.9273736633
 21
146.65445187
 31
0.0
 70
   160
 71
     1
 42
18.5
  3
SLDDIMSTYLE2
100
AcDbAlignedDimension
 13
80.5252475903
 23
137.40445187
 33
0.0
 14
91.0252475903
 24
155.90445187
 34
0.0
 50
90.0
100
AcDbRotatedDimension
1001
ACAD
1000
DSTYLE
1002
{
1070
    77
1070
     3
1070
   143
1040
0.0393700787
1070
    41
1040
3.0
1070
    44
1040
1.0
1070
    42
1040
1.0
1070
   147
1040
1.524
1070
    73
1070
     0
1070
    74
1070
     0
1070
   140
1040
3.5
1070
   284
1070
    12
1070
    78
1070
    12
1002
}
  0
DIMENSION
  5
207
330
1F
100
AcDbEntity
  8
SLD-0
 62
     7
100
AcDbDimension
  2
*D20
 10
68.0252475903
 20
103.0204617127
 30
0.0
 11
74.2752475903
 21
103.0204617127
 31
0.0
 70
   160
 71
     1
 42
12.5
  3
SLDDIMSTYLE2
100
AcDbAlignedDimension
 13
80.5252475903
 23
115.90445187
 33
0.0
 14
68.0252475903
 24
137.40445187
 34
0.0
100
AcDbRotatedDimension
1001
ACAD
1000
DSTYLE
1002
{
1070
    77
1070
     3
1070
   143
1040
0.0393700787
1070
    41
1040
3.0
1070
    44
1040
1.0
1070
    42
1040
1.0
1070
   147
1040
1.524
1070
    73
1070
     0
1070
    74
1070
     0
1070
   140
1040
3.5
1070
   284
1070
    12
1070
    78
1070
    12
1002
}
  0
DIMENSION
  5
220
330
1F
100
AcDbEntity
  8
SLD-0
 62
     7
100
AcDbDimension
  2
*D21
 10
67.5252475903
 20
108.22111895
 30
0.0
 11
61.8749481508
 21
108.22111895
 31
0.0
 70
   160
 71
     1
 42
1.0
  3
SLDDIMSTYLE0
100
AcDbAlignedDimension
 13
68.5252475903
 23
115.90445187
 33
0.0
 14
67.5252475903
 24
115.90445187
 34
0.0
100
AcDbRotatedDimension
1001
ACAD
1000
DSTYLE
1002
{
1070
    77
1070
     3
1070
   143
1040
0.0393700787
1070
    41
1040
3.0
1070
    44
1040
1.0
1070
    42
1040
1.0
1070
   147
1040
1.524
1070
    73
1070
     0
1070
    74
1070
     0
1070
   140
1040
3.5
1070
   284
1070
    12
1070
    78
1070
    12
1002
}
  0
DIMENSION
  5
23C
330
1F
100
AcDbEntity
  8
SLD-0
 62
     7
100
AcDbDimension
  2
*D22
 10
140.5479375436
 20
125.4250418978
 30
0.0
 11
175.9200268387
 21
105.6693114489
 31
0.0
 70
   163
  1
<>,%%c11ｻﾞｸﾞﾘ深6.5
 71
     1
 42
6.5
  3
SLDDIMSTYLE4
100
AcDbDiametricDimension
 15
142.9467171369
 25
119.3838618422
 35
0.0
 40
0.0
1001
ACAD
1000
DSTYLE
1002
{
1070
    77
1070
     0
1070
   143
1040
0.0393700787
1070
    41
1040
3.0
1070
    44
1040
1.0
1070
    42
1040
1.0
1070
   147
1040
1.524
1070
    73
1070
     1
1070
    74
1070
     1
1070
   140
1040
3.5
1070
   284
1070
    12
1070
    78
1070
    12
1002
}
  0
DIMENSION
  5
253
330
1F
100
AcDbEntity
  8
SLD-0
 62
     7
100
AcDbDimension
  2
*D23
 10
127.0267839561
 20
155.90445187
 30
0.0
 11
127.0267839561
 21
139.15445187
 31
0.0
 70
   160
 71
     1
 42
33.5
  3
SLDDIMSTYLE2
100
AcDbAlignedDimension
 13
133.7473273402
 23
122.40445187
 33
0.0
 14
135.2473273402
 24
155.90445187
 34
0.0
 50
90.0
100
AcDbRotatedDimension
1001
ACAD
1000
DSTYLE
1002
{
1070
    77
1070
     3
1070
   143
1040
0.0393700787
1070
    41
1040
3.0
1070
    44
1040
1.0
1070
    42
1040
1.0
1070
   147
1040
1.524
1070
    73
1070
     0
1070
    74
1070
     0
1070
   140
1040
3.5
1070
   284
1070
    12
1070
    78
1070
    12
1002
}
  0
DIMENSION
  5
26B
330
1F
100
AcDbEntity
  8
SLD-0
 62
     7
100
AcDbDimension
  2
*D24
 10
134.2473273402
 20
105.6693114489
 30
0.0
 11
123.9935321224
 21
105.6693114489
 31
0.0
 70
   160
 71
     1
 42
7.5
  3
SLDDIMSTYLE2
100
AcDbAlignedDimension
 13
141.7473273402
 23
114.40445187
 33
0.0
 14
134.2473273402
 24
115.90445187
 34
0.0
100
AcDbRotatedDimension
1001
ACAD
1000
DSTYLE
1002
{
1070
    77
1070
     3
1070
   143
1040
0.0393700787
1070
    41
1040
3.0
1070
    44
1040
1.0
1070
    42
1040
1.0
1070
   147
1040
1.524
1070
    73
1070
     0
1070
    74
1070
     0
1070
   140
1040
3.5
1070
   284
1070
    12
1070
    78
1070
    12
1002
}
  0
DIMENSION
  5
287
330
1F
100
AcDbEntity
  8
SLD-0
 62
     7
100
AcDbDimension
  2
*D25
 10
173.3680050349
 20
155.90445187
 30
0.0
 11
173.3680050349
 21
153.40445187
 31
0.0
 70
   160
 71
     1
 42
5.0
  3
SLDDIMSTYLE1
100
AcDbAlignedDimension
 13
134.2473273402
 23
150.90445187
 33
0.0
 14
134.2473273402
 24
155.90445187
 34
0.0
 50
90.0
100
AcDbRotatedDimension
1001
ACAD
1000
DSTYLE
1002
{
1070
    77
1070
     3
1070
   143
1040
0.0393700787
1070
    41
1040
3.0
1070
    44
1040
1.0
1070
    42
1040
1.0
1070
   147
1040
1.524
1070
    73
1070
     0
1070
    74
1070
     0
1070
   140
1040
3.5
1070
   284
1070
    12
1070
    78
1070
    12
1002
}
  0
DIMENSION
  5
2A1
330
1F
100
AcDbEntity
  8
SLD-0
 62
     7
100
AcDbDimension
  2
*D26
 10
134.2473273402
 20
95.9063508037
 30
0.0
 11
141.7473273402
 21
95.9063508037
 31
0.0
 70
   160
 71
     1
 42
15.0
  3
SLDDIMSTYLE0
100
AcDbAlignedDimension
 13
149.2473273402
 23
115.90445187
 33
0.0
 14
134.2473273402
 24
115.90445187
 34
0.0
100
AcDbRotatedDimension
1001
ACAD
1000
DSTYLE
1002
{
1070
    77
1070
     3
1070
   143
1040
0.0393700787
1070
    41
1040
3.0
1070
    44
1040
1.0
1070
    42
1040
1.0
1070
   147
1040
1.524
1070
    73
1070
     0
1070
    74
1070
     0
1070
   140
1040
3.5
1070
   284
1070
    12
1070
    78
1070
    12
1002
}
  0
DIMENSION
  5
2B8
330
1F
100
AcDbEntity
  8
SLD-0
 62
     7
100
AcDbDimension
  2
*D27
 10
92.0252475903
 20
246.2596323249
 30
0.0
 11
68.0252475903
 21
246.2596323249
 31
0.0
 70
   160
 71
     1
 42
48.0
  3
SLDDIMSTYLE0
100
AcDbAlignedDimension
 13
44.0252475903
 23
221.888923665
 33
0.0
 14
92.0252475903
 24
221.888923665
 34
0.0
100
AcDbRotatedDimension
1001
ACAD
1000
DSTYLE
1002
{
1070
    77
1070
     3
1070
   143
1040
0.0393700787
1070
    41
1040
3.0
1070
    44
1040
1.0
1070
    42
1040
1.0
1070
   147
1040
1.524
1070
    73
1070
     0
1070
    74
1070
     0
1070
   140
1040
3.5
1070
   284
1070
    12
1070
    78
1070
    12
1002
}
  0
DIMENSION
  5
2CF
330
1F
100
AcDbEntity
  8
SLD-0
 62
     7
100
AcDbDimension
  2
*D28
 10
125.6424413866
 20
221.888923665
 30
0.0
 11
125.6424413866
 21
209.388923665
 31
0.0
 70
   160
 71
     1
 42
25.0
  3
SLDDIMSTYLE0
100
AcDbAlignedDimension
 13
92.0252475903
 23
196.888923665
 33
0.0
 14
92.0252475903
 24
221.888923665
 34
0.0
 50
90.0
100
AcDbRotatedDimension
1001
ACAD
1000
DSTYLE
1002
{
1070
    77
1070
     3
1070
   143
1040
0.0393700787
1070
    41
1040
3.0
1070
    44
1040
1.0
1070
    42
1040
1.0
1070
   147
1040
1.524
1070
    73
1070
     0
1070
    74
1070
     0
1070
   140
1040
3.5
1070
   284
1070
    12
1070
    78
1070
    12
1002
}
  0
DIMENSION
  5
2E7
330
1F
100
AcDbEntity
  8
SLD-0
 62
     7
100
AcDbDimension
  2
*D29
 10
87.0252475903
 20
178.8326705633
 30
0.0
 11
101.7892984588
 21
178.8326705633
 31
0.0
 70
   160
 71
     1
 42
5.0
  3
SLDDIMSTYLE0
100
AcDbAlignedDimension
 13
92.0252475903
 23
196.888923665
 33
0.0
 14
87.0252475903
 24
206.888923665
 34
0.0
100
AcDbRotatedDimension
1001
ACAD
1000
DSTYLE
1002
{
1070
    77
1070
     3
1070
   143
1040
0.0393700787
1070
    41
1040
3.0
1070
    44
1040
1.0
1070
    42
1040
1.0
1070
   147
1040
1.524
1070
    73
1070
     0
1070
    74
1070
     0
1070
   140
1040
3.5
1070
   284
1070
    12
1070
    78
1070
    12
1002
}
  0
DIMENSION
  5
303
330
1F
100
AcDbEntity
  8
SLD-0
 62
     7
100
AcDbDimension
  2
*D30
 10
105.9315024636
 20
206.888923665
 30
0.0
 11
105.9315024636
 21
201.888923665
 31
0.0
 70
   160
 71
     1
 42
10.0
  3
SLDDIMSTYLE1
100
AcDbAlignedDimension
 13
92.0252475903
 23
196.888923665
 33
0.0
 14
87.0252475903
 24
206.888923665
 34
0.0
 50
90.0
100
AcDbRotatedDimension
1001
ACAD
1000
DSTYLE
1002
{
1070
    77
1070
     3
1070
   143
1040
0.0393700787
1070
    41
1040
3.0
1070
    44
1040
1.0
1070
    42
1040
1.0
1070
   147
1040
1.524
1070
    73
1070
     0
1070
    74
1070
     0
1070
   140
1040
3.5
1070
   284
1070
    12
1070
    78
1070
    12
1002
}
  0
DIMENSION
  5
31D
330
1F
100
AcDbEntity
  8
SLD-0
 62
     7
100
AcDbDimension
  2
*D31
 10
87.0252475903
 20
178.8326705633
 30
0.0
 11
77.5252475903
 21
178.8326705633
 31
0.0
 70
   160
 71
     1
 42
19.0
  3
SLDDIMSTYLE0
100
AcDbAlignedDimension
 13
68.0252475903
 23
206.888923665
 33
0.0
 14
87.0252475903
 24
206.888923665
 34
0.0
100
AcDbRotatedDimension
1001
ACAD
1000
DSTYLE
1002
{
1070
    77
1070
     3
1070
   143
1040
0.0393700787
1070
    41
1040
3.0
1070
    44
1040
1.0
1070
    42
1040
1.0
1070
   147
1040
1.524
1070
    73
1070
     0
1070
    74
1070
     0
1070
   140
1040
3.5
1070
   284
1070
    12
1070
    78
1070
    12
1002
}
  0
DIMENSION
  5
334
330
1F
100
AcDbEntity
  8
SLD-0
 62
     7
100
AcDbDimension
  2
*D32
 10
84.0252475903
 20
234.9610111663
 30
0.0
 11
68.0252475903
 21
234.9610111663
 31
0.0
 70
   160
 71
     1
 42
32.0
  3
SLDDIMSTYLE0
100
AcDbAlignedDimension
 13
52.0252475903
 23
216.888923665
 33
0.0
 14
84.0252475903
 24
216.888923665
 34
0.0
100
AcDbRotatedDimension
1001
ACAD
1000
DSTYLE
1002
{
1070
    77
1070
     3
1070
   143
1040
0.0393700787
1070
    41
1040
3.0
1070
    44
1040
1.0
1070
    42
1040
1.0
1070
   147
1040
1.524
1070
    73
1070
     0
1070
    74
1070
     0
1070
   140
1040
3.5
1070
   284
1070
    12
1070
    78
1070
    12
1002
}
  0
DIMENSION
  5
34B
330
1F
100
AcDbEntity
  8
SLD-0
 62
     7
100
AcDbDimension
  2
*D33
 10
49.0252475903
 20
178.8326705633
 30
0.0
 11
58.5252475903
 21
178.8326705633
 31
0.0
 70
   160
 71
     1
 42
19.0
  3
SLDDIMSTYLE0
100
AcDbAlignedDimension
 13
68.0252475903
 23
202.738923665
 33
0.0
 14
49.0252475903
 24
202.738923665
 34
0.0
100
AcDbRotatedDimension
1001
ACAD
1000
DSTYLE
1002
{
1070
    77
1070
     3
1070
   143
1040
0.0393700787
1070
    41
1040
3.0
1070
    44
1040
1.0
1070
    42
1040
1.0
1070
   147
1040
1.524
1070
    73
1070
     0
1070
    74
1070
     0
1070
   140
1040
3.5
1070
   284
1070
    12
1070
    78
1070
    12
1002
}
  0
DIMENSION
  5
362
330
1F
100
AcDbEntity
  8
SLD-0
 62
     7
100
AcDbDimension
  2
*D34
 10
114.4547222659
 20
216.888923665
 30
0.0
 11
114.4547222659
 21
206.888923665
 31
0.0
 70
   160
 71
     1
 42
20.0
  3
SLDDIMSTYLE0
100
AcDbAlignedDimension
 13
91.0252475903
 23
196.888923665
 33
0.0
 14
89.5252475903
 24
216.888923665
 34
0.0
 50
90.0
100
AcDbRotatedDimension
1001
ACAD
1000
DSTYLE
1002
{
1070
    77
1070
     3
1070
   143
1040
0.0393700787
1070
    41
1040
3.0
1070
    44
1040
1.0
1070
    42
1040
1.0
1070
   147
1040
1.524
1070
    73
1070
     0
1070
    74
1070
     0
1070
   140
1040
3.5
1070
   284
1070
    12
1070
    78
1070
    12
1002
}
  0
DIMENSION
  5
37A
330
1F
100
AcDbEntity
  8
SLD-0
 62
     7
100
AcDbDimension
  2
*D35
 10
92.0252475903
 20
234.9610111663
 30
0.0
 11
88.0252475903
 21
234.9610111663
 31
0.0
 70
   160
 71
     1
 42
8.0
  3
SLDDIMSTYLE0
100
AcDbAlignedDimension
 13
84.0252475903
 23
222.388923665
 33
0.0
 14
92.0252475903
 24
220.888923665
 34
0.0
100
AcDbRotatedDimension
1001
ACAD
1000
DSTYLE
1002
{
1070
    77
1070
     3
1070
   143
1040
0.0393700787
1070
    41
1040
3.0
1070
    44
1040
1.0
1070
    42
1040
1.0
1070
   147
1040
1.524
1070
    73
1070
     0
1070
    74
1070
     0
1070
   140
1040
3.5
1070
   284
1070
    12
1070
    78
1070
    12
1002
}
  0
DIMENSION
  5
392
330
1F
100
AcDbEntity
  8
SLD-0
 62
     7
100
AcDbDimension
  2
*D36
 10
1.3995229696
 20
5.8344946843
 30
0.0
 11
33.5838235978
 21
-5.8344952707
 31
0.0
 70
   163
  1
2-<>
 71
     1
 42
5.999999397
  3
SLDDIMSTYLE5
100
AcDbDiametricDimension
 15
0.0
 25
0.0
 35
0.0
 40
0.0
1001
ACAD
1000
DSTYLE
1002
{
1070
    77
1070
     0
1070
   143
1040
0.0393700787
1070
    41
1040
3.0
1070
    44
1040
1.0
1070
    42
1040
1.0
1070
   147
1040
1.524
1070
    73
1070
     1
1070
    74
1070
     1
1070
   140
1040
3.5
1070
   284
1070
    12
1070
    78
1070
    12
1002
}
  0
MTEXT
  5
3A8
330
1F
100
AcDbEntity
  8
SLD-0
 62
     7
100
AcDbMText
 10
94.513890884
 20
229.3893528998
 30
0.0
 40
3.5
 41
0.0
 71
     1
 72
     1
  1
4-
  7
SLDTEXTSTYLE1
 11
0.7906796200275336
 21
0.6122301352213195
 31
0.0
 73
     1
 44
1.0
  0
MTEXT
  5
3A9
330
1F
100
AcDbEntity
  8
SLD-0
 62
     7
100
AcDbMText
 10
97.7342500027
 20
231.8829050905
 30
0.0
 40
3.5
 41
0.0
 71
     1
 72
     1
  1
C
  7
SLDTEXTSTYLE1
 11
0.7906796200275336
 21
0.6122301352213195
 31
0.0
 73
     1
 44
1.0
  0
MTEXT
  5
3AA
330
1F
100
AcDbEntity
  8
SLD-0
 62
     7
100
AcDbMText
 10
99.3444295621
 20
233.1296811858
 30
0.0
 40
3.5
 41
0.0
 71
     1
 72
     1
  1
1
  7
SLDTEXTSTYLE1
 11
0.7906796200275336
 21
0.6122301352213195
 31
0.0
 73
     1
 44
1.0
  0
MTEXT
  5
3AB
330
1F
100
AcDbEntity
  8
SLD-0
 62
     7
100
AcDbMText
 10
35.2221474289
 20
223.0325840513
 30
0.0
 40
3.5
 41
0.0
 71
     1
 72
     1
  1
2-
  7
SLDTEXTSTYLE1
 11
0.9493359771510127
 21
-0.3142629511837687
 31
0.0
 73
     1
 44
1.0
  0
MTEXT
  5
3AC
330
1F
100
AcDbEntity
  8
SLD-0
 62
     7
100
AcDbMText
 10
39.0886980434
 20
221.7526224401
 30
0.0
 40
3.5
 41
0.0
 71
     1
 72
     1
  1
C
  7
SLDTEXTSTYLE1
 11
0.9493359771510127
 21
-0.3142629511837687
 31
0.0
 73
     1
 44
1.0
  0
MTEXT
  5
3AD
330
1F
100
AcDbEntity
  8
SLD-0
 62
     7
100
AcDbMText
 10
41.0219733507
 20
221.1126416345
 30
0.0
 40
3.5
 41
0.0
 71
     1
 72
     1
  1
1
  7
SLDTEXTSTYLE1
 11
0.9493359771510127
 21
-0.3142629511837687
 31
0.0
 73
     1
 44
1.0
  0
MTEXT
  5
3AE
330
1F
100
AcDbEntity
  8
0
  6
Continuous
 62
     7
370
     0
100
AcDbMText
 10
149.9512935523
 20
29.8861652342
 30
0.0
 40
4.2333333333
 41
0.0
 71
     1
 72
     1
  1
N01866-403
  7
SLDTEXTSTYLE0
 73
     1
 44
1.0
  0
MTEXT
  5
3AF
330
1F
100
AcDbEntity
  8
0
  6
Continuous
 62
     7
370
     0
100
AcDbMText
 10
132.8402000129
 20
43.4099788511
 30
0.0
 40
4.2333333333
 41
0.0
 71
     1
 72
     1
  1
φ20　ＭＣＤブラケット　ＴＶ
  7
SLDTEXTSTYLE0
 73
     1
 44
1.0
  0
MTEXT
  5
3B0
330
1F
100
AcDbEntity
  8
0
  6
Continuous
 62
     7
370
     0
100
AcDbMText
 10
155.5852055766
 20
16.2918259049
 30
0.0
 40
4.2333333333
 41
0.0
 71
     1
 72
     1
  1
131186
  7
SLDTEXTSTYLE0
 73
     1
 44
1.0
  0
HATCH
  5
3B1
330
1F
100
AcDbEntity
  8
0
  6
Continuous
 62
     7
100
AcDbHatch
 10
0.0
 20
0.0
 30
0.0
210
0.0
220
0.0
230
1.0
  2
ANSI31
 70
     0
 71
     0
 91
        1
 92
        0
 93
        3
 72
     1
 10
52.9710286882802
 20
124.0344486841627
 11
53.64457022089619
 21
124.7735980627333
 72
     1
 10
53.64457022089619
 20
124.7735980627333
 11
55.5252475903
 21
122.3833987756
 72
     1
 10
55.5252475903
 20
122.3833987756
 11
52.9710286882802
 21
124.0344486841627
 97
        0
 75
     0
 76
     1
 52
0.0
 41
1.0
 77
     0
 78
     1
 53
45.00000209717174
 43
0.0
 44
0.0
 45
-2.245064112442359
 46
2.245063948092215
 79
     0
 98
        1
 10
0.0
 20
0.0
  0
HATCH
  5
3B2
330
1F
100
AcDbEntity
  8
0
  6
Continuous
 62
     7
100
AcDbHatch
 10
0.0
 20
0.0
 30
0.0
210
0.0
220
0.0
230
1.0
  2
ANSI31
 70
     0
 71
     0
 91
        1
 92
        0
 93
        3
 72
     1
 10
46.41333729414869
 20
202.609395998828
 11
45.71533034676054
 21
203.3254869856431
 72
     1
 10
45.71533034676054
 20
203.3254869856431
 11
48.2126067809
 21
205.0614623344
 72
     1
 10
48.2126067809
 20
205.0614623344
 11
46.41333729414869
 21
202.609395998828
 97
        0
 75
     0
 76
     1
 52
0.0
 41
1.0
 77
     0
 78
     1
 53
45.00000209717174
 43
0.0
 44
0.0
 45
-2.245064112442359
 46
2.245063948092215
 79
     0
 98
        1
 10
0.0
 20
0.0
  0
INSERT
  5
3B3
330
1F
100
AcDbEntity
  8
0
  6
Continuous
 62
     7
370
     0
100
AcDbBlockReference
  2
NOTE53
 10
43.3125336114
 20
129.3450929678
 30
0.0
  0
INSERT
  5
3B4
330
1F
100
AcDbEntity
  8
0
  6
Continuous
 62
     7
370
     0
100
AcDbBlockReference
  2
SW_CENTERMARK0
 10
0.0
 20
0.0
 30
0.0
  0
INSERT
  5
3B5
330
1F
100
AcDbEntity
  8
0
  6
Continuous
 62
     7
370
     0
100
AcDbBlockReference
  2
Dim0
 10
0.0
 20
0.0
 30
0.0
  0
INSERT
  5
3B6
330
1F
100
AcDbEntity
  8
0
  6
Continuous
 62
     7
370
     0
100
AcDbBlockReference
  2
SW_CENTERMARK1
 10
0.0
 20
0.0
 30
0.0
  0
INSERT
  5
3B7
330
1F
100
AcDbEntity
  8
0
  6
Continuous
 62
     7
370
     0
100
AcDbBlockReference
  2
_OPEN30
 10
91.5252475903
 20
221.388923665
 30
0.0
 41
3.0
 42
3.0
 43
3.0
 50
-142.5635793327
  0
INSERT
  5
3B8
330
1F
100
AcDbEntity
  8
0
  6
Continuous
 62
     7
370
     0
100
AcDbBlockReference
  2
_OPEN30
 10
56.0252475903
 20
211.388923665
 30
0.0
 41
3.0
 42
3.0
 43
3.0
 50
-18.2909239112
  0
INSERT
  5
3B9
330
1F
100
AcDbEntity
  8
0
  6
Continuous
 62
     7
370
     0
100
AcDbBlockReference
  2
NOTE55
 10
30.5919421931
 20
196.3132476758
 30
0.0
  0
INSERT
  5
3BA
330
1F
100
AcDbEntity
  8
0
  6
Continuous
 62
     7
370
     0
100
AcDbBlockReference
  2
SW_CENTERMARK2
 10
0.0
 20
0.0
 30
0.0
  0
INSERT
  5
3BB
330
1F
100
AcDbEntity
  8
0
  6
Continuous
 62
     7
370
     0
100
AcDbBlockReference
  2
SW_CENTERMARK3
 10
0.0
 20
0.0
 30
0.0
  0
INSERT
  5
3BC
330
1F
100
AcDbEntity
  8
0
  6
Continuous
 62
     7
370
     0
100
AcDbBlockReference
  2
SW_CENTERMARK4
 10
0.0
 20
0.0
 30
0.0
  0
INSERT
  5
3BD
330
1F
100
AcDbEntity
  8
0
  6
Continuous
 62
     7
370
     0
100
AcDbBlockReference
  2
SW_CENTERMARK5
 10
0.0
 20
0.0
 30
0.0
  0
INSERT
  5
3BE
330
1F
100
AcDbEntity
  8
0
  6
Continuous
 62
     7
370
     0
100
AcDbBlockReference
  2
SW_CENTERMARK6
 10
0.0
 20
0.0
 30
0.0
  0
ENDSEC
  0
SECTION
  2
OBJECTS
  0
DICTIONARY
  5
C
330
0
100
AcDbDictionary
281
     1
  3
ACAD_GROUP
350
D
  3
ACAD_LAYOUT
350
1A
  3
ACAD_MLINESTYLE
350
17
  3
ACAD_PLOTSETTINGS
350
19
  3
ACAD_PLOTSTYLENAME
350
E
  0
DICTIONARY
  5
D
102
{ACAD_REACTORS
330
C
102
}
330
C
100
AcDbDictionary
281
     1
  0
DICTIONARY
  5
1A
102
{ACAD_REACTORS
330
C
102
}
330
C
100
AcDbDictionary
281
     1
  3
Layout1
350
1E
  3
Layout2
350
26
  3
Model
350
22
  0
DICTIONARY
  5
17
102
{ACAD_REACTORS
330
C
102
}
330
C
100
AcDbDictionary
281
     1
  3
Standard
350
18
  0
DICTIONARY
  5
19
102
{ACAD_REACTORS
330
C
102
}
330
C
100
AcDbDictionary
281
     1
  0
ACDBDICTIONARYWDFLT
  5
E
102
{ACAD_REACTORS
330
C
102
}
330
C
100
AcDbDictionary
281
     1
  3
Normal
350
F
100
AcDbDictionaryWithDefault
340
F
  0
LAYOUT
  5
1E
102
{ACAD_REACTORS
330
1A
102
}
330
1A
100
AcDbPlotSettings
  1

  2

  4

  6

 40
0.0
 41
0.0
 42
0.0
 43
0.0
 44
0.0
 45
0.0
 46
0.0
 47
0.0
 48
0.0
 49
0.0
140
0.0
141
0.0
142
1.0
143
1.0
 70
   688
 72
     0
 73
     0
 74
     5
  7

 75
    16
147
1.0
148
0.0
149
0.0
100
AcDbLayout
  1
Layout1
 70
     1
 71
     1
 10
0.0
 20
0.0
 11
0.0
 21
0.0
 12
0.0
 22
0.0
 32
0.0
 14
0.0
 24
0.0
 34
0.0
 15
0.0
 25
0.0
 35
0.0
146
0.0
 13
0.0
 23
0.0
 33
0.0
 16
1.0
 26
0.0
 36
0.0
 17
0.0
 27
1.0
 37
0.0
 76
     0
330
1B
  0
LAYOUT
  5
26
102
{ACAD_REACTORS
330
1A
102
}
330
1A
100
AcDbPlotSettings
  1

  2

  4

  6

 40
0.0
 41
0.0
 42
0.0
 43
0.0
 44
0.0
 45
0.0
 46
0.0
 47
0.0
 48
0.0
 49
0.0
140
0.0
141
0.0
142
1.0
143
1.0
 70
   688
 72
     0
 73
     0
 74
     5
  7

 75
    16
147
1.0
148
0.0
149
0.0
100
AcDbLayout
  1
Layout2
 70
     1
 71
     2
 10
0.0
 20
0.0
 11
0.0
 21
0.0
 12
0.0
 22
0.0
 32
0.0
 14
0.0
 24
0.0
 34
0.0
 15
0.0
 25
0.0
 35
0.0
146
0.0
 13
0.0
 23
0.0
 33
0.0
 16
1.0
 26
0.0
 36
0.0
 17
0.0
 27
1.0
 37
0.0
 76
     0
330
23
  0
LAYOUT
  5
22
102
{ACAD_REACTORS
330
1A
102
}
330
1A
100
AcDbPlotSettings
  1

  2

  4

  6

 40
0.0
 41
0.0
 42
0.0
 43
0.0
 44
0.0
 45
0.0
 46
0.0
 47
0.0
 48
0.0
 49
0.0
140
0.0
141
0.0
142
1.0
143
1.0
 70
  1712
 72
     0
 73
     0
 74
     0
  7

 75
     0
147
1.0
148
0.0
149
0.0
100
AcDbLayout
  1
Model
 70
     1
 71
     0
 10
0.0
 20
0.0
 11
0.0
 21
0.0
 12
0.0
 22
0.0
 32
0.0
 14
0.0
 24
0.0
 34
0.0
 15
210.0
 25
297.0
 35
0.0
146
0.0
 13
0.0
 23
0.0
 33
0.0
 16
1.0
 26
0.0
 36
0.0
 17
0.0
 27
1.0
 37
0.0
 76
     0
330
1F
  0
MLINESTYLE
  5
18
102
{ACAD_REACTORS
330
17
102
}
330
17
100
AcDbMlineStyle
  2
Standard
 70
     0
  3

 62
   256
 51
90.0
 52
90.0
 71
     2
 49
0.5
 62
   256
  6
BYLAYER
 49
-0.5
 62
   256
  6
BYLAYER
  0
ACDBPLACEHOLDER
  5
F
102
{ACAD_REACTORS
330
E
102
}
330
E
  0
ENDSEC
  0
EOF
