  0
SECTION
  2
HEADER
  9
$ACADVER
  1
AC1015
  9
$ACADMAINTVER
 70
     6
  9
$DWGCODEPAGE
  3
DOS932
  9
$INSBASE
 10
0.0
 20
0.0
 30
0.0
  9
$EXTMIN
 10
0.0
 20
0.0
 30
0.0
  9
$EXTMAX
 10
210.0
 20
297.0
 30
0.0
  9
$LIMMIN
 10
0.0
 20
0.0
  9
$LIMMAX
 10
0.0
 20
0.0
  9
$ORTHOMODE
 70
     0
  9
$REGENMODE
 70
     1
  9
$FILLMODE
 70
     1
  9
$QTEXTMODE
 70
     0
  9
$MIRRTEXT
 70
     1
  9
$LTSCALE
 40
1.0
  9
$ATTMODE
 70
     1
  9
$TEXTSIZE
 40
3.5
  9
$TRACEWID
 40
1.0
  9
$TEXTSTYLE
  7
Standard
  9
$CLAYER
  8
0
  9
$CELTYPE
  6
ByLayer
  9
$CECOLOR
 62
   256
  9
$CELTSCALE
 40
1.0
  9
$DISPSILH
 70
     0
  9
$DIMSCALE
 40
1.0
  9
$DIMASZ
 40
3.0
  9
$DIMEXO
 40
1.0
  9
$DIMDLI
 40
3.75
  9
$DIMRND
 40
0.0
  9
$DIMDLE
 40
0.0
  9
$DIMEXE
 40
1.0
  9
$DIMTP
 40
0.0
  9
$DIMTM
 40
0.0
  9
$DIMTXT
 40
3.5
  9
$DIMCEN
 40
2.5
  9
$DIMTSZ
 40
0.0
  9
$DIMTOL
 70
     0
  9
$DIMLIM
 70
     0
  9
$DIMTIH
 70
     1
  9
$DIMTOH
 70
     1
  9
$DIMSE1
 70
     0
  9
$DIMSE2
 70
     0
  9
$DIMTAD
 70
     1
  9
$DIMZIN
 70
     1
  9
$DIMBLK
  1

  9
$DIMASO
 70
     1
  9
$DIMSHO
 70
     1
  9
$DIMPOST
  1

  9
$DIMAPOST
  1

  9
$DIMALT
 70
     0
  9
$DIMALTD
 70
     3
  9
$DIMALTF
 40
0.0393700787
  9
$DIMLFAC
 40
1.0
  9
$DIMTOFL
 70
     1
  9
$DIMTVP
 40
0.0
  9
$DIMTIX
 70
     0
  9
$DIMSOXD
 70
     0
  9
$DIMSAH
 70
     0
  9
$DIMBLK1
  1

  9
$DIMBLK2
  1

  9
$DIMSTYLE
  2
ISO-25
  9
$DIMCLRD
 70
     0
  9
$DIMCLRE
 70
     0
  9
$DIMCLRT
 70
     0
  9
$DIMTFAC
 40
1.0
  9
$DIMGAP
 40
1.524
  9
$DIMJUST
 70
     0
  9
$DIMSD1
 70
     0
  9
$DIMSD2
 70
     0
  9
$DIMTOLJ
 70
     0
  9
$DIMTZIN
 70
     1
  9
$DIMALTZ
 70
     0
  9
$DIMALTTZ
 70
     0
  9
$DIMUPT
 70
     0
  9
$DIMDEC
 70
     2
  9
$DIMTDEC
 70
     2
  9
$DIMALTU
 70
     2
  9
$DIMALTTD
 70
     3
  9
$DIMTXSTY
  7
Standard
  9
$DIMAUNIT
 70
     0
  9
$DIMADEC
 70
     0
  9
$DIMALTRND
 40
0.0
  9
$DIMAZIN
 70
     0
  9
$DIMDSEP
 70
    44
  9
$DIMATFIT
 70
     3
  9
$DIMFRAC
 70
     0
  9
$DIMLDRBLK
  1

  9
$DIMLUNIT
 70
     2
  9
$DIMLWD
 70
    -2
  9
$DIMLWE
 70
    -2
  9
$DIMTMOVE
 70
     0
  9
$LUNITS
 70
     2
  9
$LUPREC
 70
     1
  9
$SKETCHINC
 40
1.0
  9
$FILLETRAD
 40
10.0
  9
$AUNITS
 70
     0
  9
$AUPREC
 70
     0
  9
$MENU
  1
.
  9
$ELEVATION
 40
0.0
  9
$PELEVATION
 40
0.0
  9
$THICKNESS
 40
0.0
  9
$LIMCHECK
 70
     0
  9
$CHAMFERA
 40
10.0
  9
$CHAMFERB
 40
10.0
  9
$CHAMFERC
 40
20.0
  9
$CHAMFERD
 40
0.0
  9
$SKPOLY
 70
     0
  9
$TDCREATE
 40
2454323.602673241
  9
$TDUCREATE
 40
2454323.227673241
  9
$TDUPDATE
 40
2454323.602673252
  9
$TDUUPDATE
 40
2454323.227673252
  9
$TDINDWG
 40
0.0000000116
  9
$TDUSRTIMER
 40
0.0000000116
  9
$USRTIMER
 70
     1
  9
$ANGBASE
 50
0.0
  9
$ANGDIR
 70
     0
  9
$PDMODE
 70
     0
  9
$PDSIZE
 40
-1.0
  9
$PLINEWID
 40
0.0
  9
$SPLFRAME
 70
     0
  9
$SPLINETYPE
 70
     6
  9
$SPLINESEGS
 70
     8
  9
$HANDSEED
  5
280
  9
$SURFTAB1
 70
     6
  9
$SURFTAB2
 70
     6
  9
$SURFTYPE
 70
     6
  9
$SURFU
 70
     6
  9
$SURFV
 70
     6
  9
$UCSBASE
  2

  9
$UCSNAME
  2

  9
$UCSORG
 10
0.0
 20
0.0
 30
0.0
  9
$UCSXDIR
 10
1.0
 20
0.0
 30
0.0
  9
$UCSYDIR
 10
0.0
 20
1.0
 30
0.0
  9
$UCSORTHOREF
  2

  9
$UCSORTHOVIEW
 70
     0
  9
$UCSORGTOP
 10
0.0
 20
0.0
 30
0.0
  9
$UCSORGBOTTOM
 10
0.0
 20
0.0
 30
0.0
  9
$UCSORGLEFT
 10
0.0
 20
0.0
 30
0.0
  9
$UCSORGRIGHT
 10
0.0
 20
0.0
 30
0.0
  9
$UCSORGFRONT
 10
0.0
 20
0.0
 30
0.0
  9
$UCSORGBACK
 10
0.0
 20
0.0
 30
0.0
  9
$PUCSBASE
  2

  9
$PUCSNAME
  2

  9
$PUCSORG
 10
0.0
 20
0.0
 30
0.0
  9
$PUCSXDIR
 10
1.0
 20
0.0
 30
0.0
  9
$PUCSYDIR
 10
0.0
 20
1.0
 30
0.0
  9
$PUCSORTHOREF
  2

  9
$PUCSORTHOVIEW
 70
     0
  9
$PUCSORGTOP
 10
0.0
 20
0.0
 30
0.0
  9
$PUCSORGBOTTOM
 10
0.0
 20
0.0
 30
0.0
  9
$PUCSORGLEFT
 10
0.0
 20
0.0
 30
0.0
  9
$PUCSORGRIGHT
 10
0.0
 20
0.0
 30
0.0
  9
$PUCSORGFRONT
 10
0.0
 20
0.0
 30
0.0
  9
$PUCSORGBACK
 10
0.0
 20
0.0
 30
0.0
  9
$USERI1
 70
     0
  9
$USERI2
 70
     0
  9
$USERI3
 70
     0
  9
$USERI4
 70
     0
  9
$USERI5
 70
     0
  9
$USERR1
 40
0.0
  9
$USERR2
 40
0.0
  9
$USERR3
 40
0.0
  9
$USERR4
 40
0.0
  9
$USERR5
 40
0.0
  9
$WORLDVIEW
 70
     1
  9
$SHADEDGE
 70
     3
  9
$SHADEDIF
 70
    70
  9
$TILEMODE
 70
     1
  9
$MAXACTVP
 70
    64
  9
$PINSBASE
 10
0.0
 20
0.0
 30
0.0
  9
$PLIMCHECK
 70
     0
  9
$PEXTMIN
 10
1.0000000000E+20
 20
1.0000000000E+20
 30
1.0000000000E+20
  9
$PEXTMAX
 10
-1.0000000000E+20
 20
-1.0000000000E+20
 30
-1.0000000000E+20
  9
$PLIMMIN
 10
0.0
 20
0.0
  9
$PLIMMAX
 10
420.0
 20
297.0
  9
$UNITMODE
 70
     0
  9
$VISRETAIN
 70
     1
  9
$PLINEGEN
 70
     0
  9
$PSLTSCALE
 70
     1
  9
$TREEDEPTH
 70
  3020
  9
$CMLSTYLE
  2
Standard
  9
$CMLJUST
 70
     0
  9
$CMLSCALE
 40
20.0
  9
$PROXYGRAPHICS
 70
     1
  9
$MEASUREMENT
 70
     1
  9
$CELWEIGHT
370
    -1
  9
$ENDCAPS
280
     0
  9
$JOINSTYLE
280
     0
  9
$LWDISPLAY
290
     1
  9
$INSUNITS
 70
     4
  9
$HYPERLINKBASE
  1

  9
$STYLESHEET
  1

  9
$XEDIT
290
     1
  9
$CEPSNTYPE
380
     0
  9
$PSTYLEMODE
290
     1
  9
$FINGERPRINTGUID
  2
{70B897BD-C839-4EA7-B4E5-5C6F4DA3150A}
  9
$VERSIONGUID
  2
{FAEB1C32-E019-11D5-929B-00C0DF256EC4}
  9
$EXTNAMES
290
     1
  9
$PSVPSCALE
 40
0.0
  9
$OLESTARTUP
290
     0
  0
ENDSEC
  0
SECTION
  2
CLASSES
  0
CLASS
  1
ACDBDICTIONARYWDFLT
  2
AcDbDictionaryWithDefault
  3
ObjectDBX Classes
 90
        0
280
     0
281
     0
  0
CLASS
  1
ACDBPLACEHOLDER
  2
AcDbPlaceHolder
  3
ObjectDBX Classes
 90
        0
280
     0
281
     0
  0
CLASS
  1
LAYOUT
  2
AcDbLayout
  3
ObjectDBX Classes
 90
        0
280
     0
281
     0
  0
ENDSEC
  0
SECTION
  2
TABLES
  0
TABLE
  2
VPORT
  5
8
330
0
100
AcDbSymbolTable
 70
     1
  0
VPORT
  5
29
330
8
100
AcDbSymbolTableRecord
100
AcDbViewportTableRecord
  2
*Active
 70
     0
 10
0.0
 20
0.0
 11
1.0
 21
1.0
 12
105.0
 22
148.5
 13
0.0
 23
0.0
 14
10.0
 24
10.0
 15
10.0
 25
10.0
 16
0.0
 26
0.0
 36
1.0
 17
0.0
 27
0.0
 37
0.0
 40
297.0
 41
1.9729729729
 42
50.0
 43
0.0
 44
0.0
 50
0.0
 51
0.0
 71
     0
 72
  2000
 73
     1
 74
     3
 75
     0
 76
     0
 77
     0
 78
     0
281
     0
 65
     1
110
0.0
120
0.0
130
0.0
111
1.0
121
0.0
131
0.0
112
0.0
122
1.0
132
0.0
 79
     0
146
0.0
  0
ENDTAB
  0
TABLE
  2
LTYPE
  5
5
330
0
100
AcDbSymbolTable
 70
     6
  0
LTYPE
  5
14
330
5
100
AcDbSymbolTableRecord
100
AcDbLinetypeTableRecord
  2
ByBlock
 70
     0
  3

 72
    65
 73
     0
 40
0.0
  0
LTYPE
  5
15
330
5
100
AcDbSymbolTableRecord
100
AcDbLinetypeTableRecord
  2
ByLayer
 70
     0
  3

 72
    65
 73
     0
 40
0.0
  0
LTYPE
  5
16
330
5
100
AcDbSymbolTableRecord
100
AcDbLinetypeTableRecord
  2
Continuous
 70
     0
  3
Solid line
 72
    65
 73
     0
 40
0.0
  0
LTYPE
  5
2A
330
5
100
AcDbSymbolTableRecord
100
AcDbLinetypeTableRecord
  2
HIDDEN
 70
     0
  3
Hidden __ __ __ __ __ __ __ __ __ __ __ __ __ __
 72
    65
 73
     2
 40
1.905
 49
1.27
 74
     0
 49
-0.635
 74
     0
  0
LTYPE
  5
2B
330
5
100
AcDbSymbolTableRecord
100
AcDbLinetypeTableRecord
  2
PHANTOM
 70
     0
  3
Phantom ______  __  __  ______  __  __  ______
 72
    65
 73
     6
 40
12.7
 49
6.35
 74
     0
 49
-1.27
 74
     0
 49
1.27
 74
     0
 49
-1.27
 74
     0
 49
1.27
 74
     0
 49
-1.27
 74
     0
  0
LTYPE
  5
2C
330
5
100
AcDbSymbolTableRecord
100
AcDbLinetypeTableRecord
  2
CENTER
 70
     0
  3
Center ____ _ ____ _ ____ _ ____ _ ____ _ ____
 72
    65
 73
     4
 40
10.16
 49
6.35
 74
     0
 49
-1.27
 74
     0
 49
1.27
 74
     0
 49
-1.27
 74
     0
  0
LTYPE
  5
2D
330
5
100
AcDbSymbolTableRecord
100
AcDbLinetypeTableRecord
  2
CENTERX2
 70
     0
  3
Center (2x) ________  __  ________  __  _____
 72
    65
 73
     4
 40
20.32
 49
12.7
 74
     0
 49
-2.54
 74
     0
 49
2.54
 74
     0
 49
-2.54
 74
     0
  0
LTYPE
  5
2E
330
5
100
AcDbSymbolTableRecord
100
AcDbLinetypeTableRecord
  2
DOT2
 70
     0
  3
Dot (.5x) ........................................
 72
    65
 73
     2
 40
0.635
 49
0.0
 74
     0
 49
-0.635
 74
     0
  0
ENDTAB
  0
TABLE
  2
LAYER
  5
2
330
0
100
AcDbSymbolTable
 70
     4
  0
LAYER
  5
10
330
2
100
AcDbSymbolTableRecord
100
AcDbLayerTableRecord
  2
0
 70
     0
 62
     7
  6
Continuous
370
    -3
390
F
  0
LAYER
  5
2F
330
2
100
AcDbSymbolTableRecord
100
AcDbLayerTableRecord
  2
SLD-0
 70
     0
 62
   179
  6
Continuous
370
     0
390
F
  0
LAYER
  5
30
330
2
100
AcDbSymbolTableRecord
100
AcDbLayerTableRecord
  2
SLD-DEFPOINTS
 70
     0
 62
   179
  6
Continuous
370
     0
390
F
  0
LAYER
  5
115
330
2
100
AcDbSymbolTableRecord
100
AcDbLayerTableRecord
  2
Defpoints
 70
     0
 62
     7
  6
Continuous
290
     0
370
    -3
390
F
  0
ENDTAB
  0
TABLE
  2
STYLE
  5
3
330
0
100
AcDbSymbolTable
 70
     4
  0
STYLE
  5
11
330
3
100
AcDbSymbolTableRecord
100
AcDbTextStyleTableRecord
  2
Standard
 70
     0
 40
0.0
 41
1.0
 50
0.0
 71
     0
 42
2.5
  3
txt
  4
bigfont
  0
STYLE
  5
34
330
3
100
AcDbSymbolTableRecord
100
AcDbTextStyleTableRecord
  2
SLDTEXTSTYLE0
 70
     0
 40
0.0
 41
0.7
 50
0.0
 71
     0
 42
0.2
  3
TXT
  4
bigfont
  0
STYLE
  5
40
330
3
100
AcDbSymbolTableRecord
100
AcDbTextStyleTableRecord
  2
SLDTEXTSTYLE1
 70
     0
 40
0.0
 41
0.5526315789
 50
0.0
 71
     0
 42
0.2
  3
TXT
  4
bigfont
  0
STYLE
  5
273
330
3
100
AcDbSymbolTableRecord
100
AcDbTextStyleTableRecord
  2
SLDTEXTSTYLE2
 70
     0
 40
0.0
 41
0.4857150373
 50
0.0
 71
     0
 42
0.2
  3
TXT
  4
bigfont
  0
ENDTAB
  0
TABLE
  2
VIEW
  5
6
330
0
100
AcDbSymbolTable
 70
     0
  0
ENDTAB
  0
TABLE
  2
UCS
  5
7
330
0
100
AcDbSymbolTable
 70
     0
  0
ENDTAB
  0
TABLE
  2
APPID
  5
9
330
0
100
AcDbSymbolTable
 70
     1
  0
APPID
  5
12
330
9
100
AcDbSymbolTableRecord
100
AcDbRegAppTableRecord
  2
ACAD
 70
     0
  0
ENDTAB
  0
TABLE
  2
DIMSTYLE
  5
A
330
0
100
AcDbSymbolTable
 70
     6
100
AcDbDimStyleTable
  0
DIMSTYLE
105
27
330
A
100
AcDbSymbolTableRecord
100
AcDbDimStyleTableRecord
  2
ISO-25
 70
     0
 41
2.5
 42
0.625
 43
3.75
 44
1.25
 73
     0
 74
     0
 77
     1
 78
     8
140
2.5
141
2.5
143
0.0393700787
147
0.625
171
     3
172
     1
271
     2
272
     2
274
     3
278
    44
283
     0
284
     8
340
11
  0
DIMSTYLE
105
122
102
{ACAD_REACTORS
330
114
330
130
330
199
330
1DA
330
1F1
330
241
102
}
330
A
100
AcDbSymbolTableRecord
100
AcDbDimStyleTableRecord
  2
SLDDIMSTYLE0
 70
     0
 41
3.0
 44
0.0
 73
     0
 74
     0
 77
     3
 78
    12
140
3.5
147
0.875
173
     1
271
     0
272
     2
284
    12
340
40
341
123
343
123
344
123
  0
DIMSTYLE
105
157
102
{ACAD_REACTORS
330
148
102
}
330
A
100
AcDbSymbolTableRecord
100
AcDbDimStyleTableRecord
  2
SLDDIMSTYLE1
 70
     0
 41
3.0
 44
0.0
 73
     0
 74
     0
 77
     3
 78
     8
140
3.5
147
0.875
173
     1
271
     1
272
     2
284
    12
340
40
341
123
343
123
344
123
  0
DIMSTYLE
105
172
102
{ACAD_REACTORS
330
164
330
17F
330
1B0
330
209
330
258
102
}
330
A
100
AcDbSymbolTableRecord
100
AcDbDimStyleTableRecord
  2
SLDDIMSTYLE2
 70
     0
 41
3.0
 44
0.0
 73
     0
 74
     0
 77
     3
 78
    12
140
3.5
147
0.875
173
     1
271
     1
272
     2
284
    12
340
40
341
123
343
123
344
123
  0
DIMSTYLE
105
1D1
102
{ACAD_REACTORS
330
1C7
102
}
330
A
100
AcDbSymbolTableRecord
100
AcDbDimStyleTableRecord
  2
SLDDIMSTYLE3
 70
     0
 41
3.0
 44
0.0
 78
    12
140
3.5
147
0.875
173
     1
271
     1
272
     2
284
    12
340
40
341
123
343
123
344
123
  0
DIMSTYLE
105
232
102
{ACAD_REACTORS
330
224
102
}
330
A
100
AcDbSymbolTableRecord
100
AcDbDimStyleTableRecord
  2
SLDDIMSTYLE4
 70
     0
 41
3.0
 44
0.0
 48
0.1
 71
     1
 73
     0
 74
     0
 77
     3
 78
    12
140
3.5
147
0.875
173
     1
271
     0
272
     1
340
40
341
123
343
123
344
123
  0
ENDTAB
  0
TABLE
  2
BLOCK_RECORD
  5
1
330
0
100
AcDbSymbolTable
 70
    22
  0
BLOCK_RECORD
  5
1F
330
1
100
AcDbSymbolTableRecord
100
AcDbBlockTableRecord
  2
*Model_Space
340
22
  0
BLOCK_RECORD
  5
1B
330
1
100
AcDbSymbolTableRecord
100
AcDbBlockTableRecord
  2
*Paper_Space
340
1E
  0
BLOCK_RECORD
  5
23
330
1
100
AcDbSymbolTableRecord
100
AcDbBlockTableRecord
  2
*Paper_Space0
340
26
  0
BLOCK_RECORD
  5
31
330
1
100
AcDbSymbolTableRecord
100
AcDbBlockTableRecord
  2
注記
340
0
  0
BLOCK_RECORD
  5
37
330
1
100
AcDbSymbolTableRecord
100
AcDbBlockTableRecord
  2
_OPEN30
340
0
102
{BLKREFS
331
27B
102
}
  0
BLOCK_RECORD
  5
3D
330
1
100
AcDbSymbolTableRecord
100
AcDbBlockTableRecord
  2
NOTE45
340
0
102
{BLKREFS
331
27C
102
}
  0
BLOCK_RECORD
  5
43
330
1
100
AcDbSymbolTableRecord
100
AcDbBlockTableRecord
  2
SW_CENTERMARK0
340
0
102
{BLKREFS
331
27D
102
}
  0
BLOCK_RECORD
  5
4E
330
1
100
AcDbSymbolTableRecord
100
AcDbBlockTableRecord
  2
SW_CENTERMARK1
340
0
102
{BLKREFS
331
27E
102
}
  0
BLOCK_RECORD
  5
59
330
1
100
AcDbSymbolTableRecord
100
AcDbBlockTableRecord
  2
SW_CENTERMARK2
340
0
102
{BLKREFS
331
27F
102
}
  0
BLOCK_RECORD
  5
116
330
1
100
AcDbSymbolTableRecord
100
AcDbBlockTableRecord
  2
*D7
340
0
  0
BLOCK_RECORD
  5
123
330
1
100
AcDbSymbolTableRecord
100
AcDbBlockTableRecord
  2
_None
340
0
102
{BLKREFS
331
11B
331
11A
331
136
331
135
331
14F
331
14E
331
16A
331
169
331
185
331
184
331
19F
331
19E
331
1B6
331
1B5
331
1CC
331
1E0
331
1DF
331
1F7
331
1F6
331
210
331
20F
331
22B
331
22A
331
247
331
246
331
25E
331
25D
102
}
  0
BLOCK_RECORD
  5
131
330
1
100
AcDbSymbolTableRecord
100
AcDbBlockTableRecord
  2
*D9
340
0
  0
BLOCK_RECORD
  5
149
330
1
100
AcDbSymbolTableRecord
100
AcDbBlockTableRecord
  2
*D10
340
0
  0
BLOCK_RECORD
  5
165
330
1
100
AcDbSymbolTableRecord
100
AcDbBlockTableRecord
  2
*D11
340
0
  0
BLOCK_RECORD
  5
180
330
1
100
AcDbSymbolTableRecord
100
AcDbBlockTableRecord
  2
*D12
340
0
  0
BLOCK_RECORD
  5
19A
330
1
100
AcDbSymbolTableRecord
100
AcDbBlockTableRecord
  2
*D13
340
0
  0
BLOCK_RECORD
  5
1B1
330
1
100
AcDbSymbolTableRecord
100
AcDbBlockTableRecord
  2
*D14
340
0
  0
BLOCK_RECORD
  5
1C8
330
1
100
AcDbSymbolTableRecord
100
AcDbBlockTableRecord
  2
*D15
340
0
  0
BLOCK_RECORD
  5
1DB
330
1
100
AcDbSymbolTableRecord
100
AcDbBlockTableRecord
  2
*D16
340
0
  0
BLOCK_RECORD
  5
1F2
330
1
100
AcDbSymbolTableRecord
100
AcDbBlockTableRecord
  2
*D17
340
0
  0
BLOCK_RECORD
  5
20A
330
1
100
AcDbSymbolTableRecord
100
AcDbBlockTableRecord
  2
*D18
340
0
  0
BLOCK_RECORD
  5
225
330
1
100
AcDbSymbolTableRecord
100
AcDbBlockTableRecord
  2
*D19
340
0
  0
BLOCK_RECORD
  5
242
330
1
100
AcDbSymbolTableRecord
100
AcDbBlockTableRecord
  2
*D20
340
0
  0
BLOCK_RECORD
  5
259
330
1
100
AcDbSymbolTableRecord
100
AcDbBlockTableRecord
  2
*D21
340
0
  0
ENDTAB
  0
ENDSEC
  0
SECTION
  2
BLOCKS
  0
BLOCK
  5
20
330
1F
100
AcDbEntity
  8
0
100
AcDbBlockBegin
  2
*Model_Space
 70
     0
 71
     0
 10
0.0
 20
0.0
 30
0.0
  3
*Model_Space
  1

  0
ENDBLK
  5
21
330
1F
100
AcDbEntity
  8
0
100
AcDbBlockEnd
  0
BLOCK
  5
1C
330
1B
100
AcDbEntity
 67
     1
  8
0
100
AcDbBlockBegin
  2
*Paper_Space
 70
     0
 71
     0
 10
0.0
 20
0.0
 30
0.0
  3
*Paper_Space
  1

  0
ENDBLK
  5
1D
330
1B
100
AcDbEntity
 67
     1
  8
0
100
AcDbBlockEnd
  0
BLOCK
  5
24
330
23
100
AcDbEntity
  8
0
100
AcDbBlockBegin
  2
*Paper_Space0
 70
     0
 71
     0
 10
0.0
 20
0.0
 30
0.0
  3
*Paper_Space0
  1

  0
ENDBLK
  5
25
330
23
100
AcDbEntity
  8
0
100
AcDbBlockEnd
  0
BLOCK
  5
32
330
31
100
AcDbEntity
  8
0
100
AcDbBlockBegin
  2
注記
 70
     0
 71
     0
 10
0.0
 20
0.0
 30
0.0
  3
注記
  1

  0
MTEXT
  5
35
330
31
100
AcDbEntity
  8
0
  6
Continuous
 62
     7
370
     0
100
AcDbMText
 10
0.2636785918
 20
9.0739778448
 30
0.0
 40
3.5
 41
0.0
 71
     1
 72
     1
  1
１．特記ナキ角部ハ、バリ　カエリノ無キコト。
  7
SLDTEXTSTYLE0
 73
     1
 44
1.0
  0
MTEXT
  5
36
330
31
100
AcDbEntity
  8
0
  6
Continuous
 62
     7
370
     0
100
AcDbMText
 10
0.2636785918
 20
3.5759549983
 30
0.0
 40
3.5
 41
0.0
 71
     1
 72
     1
  1
２．特記ナキ隅部ハ、Ｒ０．４ＭＡＸトスル。
  7
SLDTEXTSTYLE0
 73
     1
 44
1.0
  0
ENDBLK
  5
33
330
31
100
AcDbEntity
  8
0
100
AcDbBlockEnd
  0
BLOCK
  5
38
330
37
100
AcDbEntity
  8
0
100
AcDbBlockBegin
  2
_OPEN30
 70
     0
 71
     0
 10
0.0
 20
0.0
 30
0.0
  3
_OPEN30
  1

  0
LINE
  5
3A
330
37
100
AcDbEntity
  8
SLD-0
  6
Continuous
100
AcDbLine
 10
-1.0
 20
0.267949
 30
0.0
 11
0.0
 21
0.0
 31
0.0
  0
LINE
  5
3B
330
37
100
AcDbEntity
  8
SLD-0
  6
Continuous
100
AcDbLine
 10
0.0
 20
0.0
 30
0.0
 11
-1.0
 21
-0.267949
 31
0.0
  0
LINE
  5
3C
330
37
100
AcDbEntity
  8
SLD-0
  6
Continuous
100
AcDbLine
 10
0.0
 20
0.0
 30
0.0
 11
-1.0
 21
0.0
 31
0.0
  0
ENDBLK
  5
39
330
37
100
AcDbEntity
  8
0
100
AcDbBlockEnd
  0
BLOCK
  5
3E
330
3D
100
AcDbEntity
  8
0
100
AcDbBlockBegin
  2
NOTE45
 70
     0
 71
     0
 10
0.0
 20
0.0
 30
0.0
  3
NOTE45
  1

  0
MTEXT
  5
41
330
3D
100
AcDbEntity
  8
SLD-0
100
AcDbMText
 10
-9.9797799314
 20
3.9338041185
 30
0.0
 40
3.5
 41
0.0
 71
     1
 72
     1
  1
O
  7
SLDTEXTSTYLE1
 73
     1
 44
1.0
  0
MTEXT
  5
42
330
3D
100
AcDbEntity
  8
SLD-0
100
AcDbMText
 10
-6.1098494163
 20
3.9338041185
 30
0.0
 40
3.5
 41
0.0
 71
     1
 72
     1
  1
4.5
  7
SLDTEXTSTYLE1
 73
     1
 44
1.0
  0
ENDBLK
  5
3F
330
3D
100
AcDbEntity
  8
0
100
AcDbBlockEnd
  0
BLOCK
  5
44
330
43
100
AcDbEntity
  8
0
100
AcDbBlockBegin
  2
SW_CENTERMARK0
 70
     0
 71
     0
 10
0.0
 20
0.0
 30
0.0
  3
SW_CENTERMARK0
  1

  0
LINE
  5
46
330
43
100
AcDbEntity
  8
SLD-0
  6
Continuous
 62
   179
100
AcDbLine
 10
121.8188776854
 20
126.2751128798
 30
0.0
 11
121.8188776854
 21
128.7751128798
 31
0.0
  0
LINE
  5
47
330
43
100
AcDbEntity
  8
SLD-0
  6
Continuous
 62
   179
100
AcDbLine
 10
121.8188776854
 20
126.2751128798
 30
0.0
 11
119.3188776854
 21
126.2751128798
 31
0.0
  0
LINE
  5
48
330
43
100
AcDbEntity
  8
SLD-0
  6
Continuous
 62
   179
100
AcDbLine
 10
121.8188776854
 20
126.2751128798
 30
0.0
 11
121.8188776854
 21
123.7751128798
 31
0.0
  0
LINE
  5
49
330
43
100
AcDbEntity
  8
SLD-0
  6
Continuous
 62
   179
100
AcDbLine
 10
121.8188776854
 20
126.2751128798
 30
0.0
 11
124.3188776854
 21
126.2751128798
 31
0.0
  0
LINE
  5
4A
330
43
100
AcDbEntity
  8
SLD-0
  6
Continuous
 62
   179
100
AcDbLine
 10
121.8188776854
 20
131.2751128798
 30
0.0
 11
121.8188776854
 21
132.7751128798
 31
0.0
  0
LINE
  5
4B
330
43
100
AcDbEntity
  8
SLD-0
  6
Continuous
 62
   179
100
AcDbLine
 10
116.8188776854
 20
126.2751128798
 30
0.0
 11
115.3188776854
 21
126.2751128798
 31
0.0
  0
LINE
  5
4C
330
43
100
AcDbEntity
  8
SLD-0
  6
Continuous
 62
   179
100
AcDbLine
 10
121.8188776854
 20
121.2751128798
 30
0.0
 11
121.8188776854
 21
119.7751128798
 31
0.0
  0
LINE
  5
4D
330
43
100
AcDbEntity
  8
SLD-0
  6
Continuous
 62
   179
100
AcDbLine
 10
126.8188776854
 20
126.2751128798
 30
0.0
 11
128.3188776854
 21
126.2751128798
 31
0.0
  0
ENDBLK
  5
45
330
43
100
AcDbEntity
  8
0
100
AcDbBlockEnd
  0
BLOCK
  5
4F
330
4E
100
AcDbEntity
  8
0
100
AcDbBlockBegin
  2
SW_CENTERMARK1
 70
     0
 71
     0
 10
0.0
 20
0.0
 30
0.0
  3
SW_CENTERMARK1
  1

  0
LINE
  5
51
330
4E
100
AcDbEntity
  8
SLD-0
  6
Continuous
 62
   179
100
AcDbLine
 10
48.1558632551
 20
126.2751128798
 30
0.0
 11
48.1558632551
 21
128.7751128798
 31
0.0
  0
LINE
  5
52
330
4E
100
AcDbEntity
  8
SLD-0
  6
Continuous
 62
   179
100
AcDbLine
 10
48.1558632551
 20
126.2751128798
 30
0.0
 11
45.6558632551
 21
126.2751128798
 31
0.0
  0
LINE
  5
53
330
4E
100
AcDbEntity
  8
SLD-0
  6
Continuous
 62
   179
100
AcDbLine
 10
48.1558632551
 20
126.2751128798
 30
0.0
 11
48.1558632551
 21
123.7751128798
 31
0.0
  0
LINE
  5
54
330
4E
100
AcDbEntity
  8
SLD-0
  6
Continuous
 62
   179
100
AcDbLine
 10
48.1558632551
 20
126.2751128798
 30
0.0
 11
50.6558632551
 21
126.2751128798
 31
0.0
  0
LINE
  5
55
330
4E
100
AcDbEntity
  8
SLD-0
  6
Continuous
 62
   179
100
AcDbLine
 10
48.1558632551
 20
131.2751128798
 30
0.0
 11
48.1558632551
 21
132.7751128798
 31
0.0
  0
LINE
  5
56
330
4E
100
AcDbEntity
  8
SLD-0
  6
Continuous
 62
   179
100
AcDbLine
 10
43.1558632551
 20
126.2751128798
 30
0.0
 11
41.6558632551
 21
126.2751128798
 31
0.0
  0
LINE
  5
57
330
4E
100
AcDbEntity
  8
SLD-0
  6
Continuous
 62
   179
100
AcDbLine
 10
48.1558632551
 20
121.2751128798
 30
0.0
 11
48.1558632551
 21
119.7751128798
 31
0.0
  0
LINE
  5
58
330
4E
100
AcDbEntity
  8
SLD-0
  6
Continuous
 62
   179
100
AcDbLine
 10
53.1558632551
 20
126.2751128798
 30
0.0
 11
54.6558632551
 21
126.2751128798
 31
0.0
  0
ENDBLK
  5
50
330
4E
100
AcDbEntity
  8
0
100
AcDbBlockEnd
  0
BLOCK
  5
5A
330
59
100
AcDbEntity
  8
0
100
AcDbBlockBegin
  2
SW_CENTERMARK2
 70
     0
 71
     0
 10
0.0
 20
0.0
 30
0.0
  3
SW_CENTERMARK2
  1

  0
LINE
  5
5C
330
59
100
AcDbEntity
  8
SLD-0
  6
Continuous
 62
   179
100
AcDbLine
 10
112.8188776854
 20
189.4083570351
 30
0.0
 11
112.8188776854
 21
191.9083570351
 31
0.0
  0
LINE
  5
5D
330
59
100
AcDbEntity
  8
SLD-0
  6
Continuous
 62
   179
100
AcDbLine
 10
112.8188776854
 20
189.4083570351
 30
0.0
 11
110.3188776854
 21
189.4083570351
 31
0.0
  0
LINE
  5
5E
330
59
100
AcDbEntity
  8
SLD-0
  6
Continuous
 62
   179
100
AcDbLine
 10
112.8188776854
 20
189.4083570351
 30
0.0
 11
112.8188776854
 21
186.9083570351
 31
0.0
  0
LINE
  5
5F
330
59
100
AcDbEntity
  8
SLD-0
  6
Continuous
 62
   179
100
AcDbLine
 10
112.8188776854
 20
189.4083570351
 30
0.0
 11
115.3188776854
 21
189.4083570351
 31
0.0
  0
LINE
  5
60
330
59
100
AcDbEntity
  8
SLD-0
  6
Continuous
 62
   179
100
AcDbLine
 10
112.8188776854
 20
191.9083570351
 30
0.0
 11
112.8188776854
 21
194.1583570351
 31
0.0
  0
LINE
  5
61
330
59
100
AcDbEntity
  8
SLD-0
  6
Continuous
 62
   179
100
AcDbLine
 10
110.3188776854
 20
189.4083570351
 30
0.0
 11
108.0688776854
 21
189.4083570351
 31
0.0
  0
LINE
  5
62
330
59
100
AcDbEntity
  8
SLD-0
  6
Continuous
 62
   179
100
AcDbLine
 10
112.8188776854
 20
186.9083570351
 30
0.0
 11
112.8188776854
 21
184.6583570351
 31
0.0
  0
LINE
  5
63
330
59
100
AcDbEntity
  8
SLD-0
  6
Continuous
 62
   179
100
AcDbLine
 10
115.3188776854
 20
189.4083570351
 30
0.0
 11
117.5688776854
 21
189.4083570351
 31
0.0
  0
ENDBLK
  5
5B
330
59
100
AcDbEntity
  8
0
100
AcDbBlockEnd
  0
BLOCK
  5
120
330
116
100
AcDbEntity
  8
0
100
AcDbBlockBegin
  2
*D7
 70
     1
 71
     0
 10
0.0
 20
0.0
 30
0.0
  3
*D7
  1

  0
LINE
  5
126
330
116
100
AcDbEntity
  8
SLD-0
 62
     7
100
AcDbLine
 10
121.8188776854
 20
135.7751128798
 30
0.0
 11
121.8188776854
 21
142.2133635753
 31
0.0
  0
LINE
  5
127
330
116
100
AcDbEntity
  8
SLD-0
 62
     7
100
AcDbLine
 10
96.8188776854
 20
134.7751128798
 30
0.0
 11
96.8188776854
 21
142.2133635753
 31
0.0
  0
LINE
  5
128
330
116
100
AcDbEntity
  8
SLD-0
 62
     7
100
AcDbLine
 10
121.8188776854
 20
141.2133635753
 30
0.0
 11
96.8188776854
 21
141.2133635753
 31
0.0
  0
LINE
  5
129
330
116
100
AcDbEntity
  8
SLD-0
 62
     7
100
AcDbLine
 10
118.8188776854
 20
142.0172105753
 30
0.0
 11
121.8188776854
 21
141.2133635753
 31
0.0
  0
LINE
  5
12A
330
116
100
AcDbEntity
  8
SLD-0
 62
     7
100
AcDbLine
 10
121.8188776854
 20
141.2133635753
 30
0.0
 11
118.8188776854
 21
140.4095165753
 31
0.0
  0
LINE
  5
12B
330
116
100
AcDbEntity
  8
SLD-0
 62
     7
100
AcDbLine
 10
121.8188776854
 20
141.2133635753
 30
0.0
 11
118.8188776854
 21
141.2133635753
 31
0.0
  0
LINE
  5
12C
330
116
100
AcDbEntity
  8
SLD-0
 62
     7
100
AcDbLine
 10
99.8188776854
 20
140.4095165753
 30
0.0
 11
96.8188776854
 21
141.2133635753
 31
0.0
  0
LINE
  5
12D
330
116
100
AcDbEntity
  8
SLD-0
 62
     7
100
AcDbLine
 10
96.8188776854
 20
141.2133635753
 30
0.0
 11
99.8188776854
 21
142.0172105753
 31
0.0
  0
LINE
  5
12E
330
116
100
AcDbEntity
  8
SLD-0
 62
     7
100
AcDbLine
 10
96.8188776854
 20
141.2133635753
 30
0.0
 11
99.8188776854
 21
141.2133635753
 31
0.0
  0
MTEXT
  5
12F
330
116
100
AcDbEntity
  8
SLD-0
 62
     7
100
AcDbMText
 10
107.2834424622
 20
145.7400572712
 30
0.1
 40
3.5
 41
0.0
 71
     1
 72
     1
  1
25
  7
SLDTEXTSTYLE0
 73
     1
 44
1.0
  0
ENDBLK
  5
121
330
116
100
AcDbEntity
  8
0
100
AcDbBlockEnd
  0
BLOCK
  5
124
330
123
100
AcDbEntity
  8
0
100
AcDbBlockBegin
  2
_None
 70
     0
 71
     0
 10
0.0
 20
0.0
 30
0.0
  3
_None
  1

  0
ENDBLK
  5
125
330
123
100
AcDbEntity
  8
0
100
AcDbBlockEnd
  0
BLOCK
  5
13C
330
131
100
AcDbEntity
  8
0
100
AcDbBlockBegin
  2
*D9
 70
     1
 71
     0
 10
0.0
 20
0.0
 30
0.0
  3
*D9
  1

  0
LINE
  5
13E
330
131
100
AcDbEntity
  8
SLD-0
 62
     7
100
AcDbLine
 10
122.8188776854
 20
133.7751128798
 30
0.0
 11
149.341209141
 21
133.7751128798
 31
0.0
  0
LINE
  5
13F
330
131
100
AcDbEntity
  8
SLD-0
 62
     7
100
AcDbLine
 10
122.8188776854
 20
118.7751128798
 30
0.0
 11
149.341209141
 21
118.7751128798
 31
0.0
  0
LINE
  5
140
330
131
100
AcDbEntity
  8
SLD-0
 62
     7
100
AcDbLine
 10
148.341209141
 20
133.7751128798
 30
0.0
 11
148.341209141
 21
118.7751128798
 31
0.0
  0
LINE
  5
141
330
131
100
AcDbEntity
  8
SLD-0
 62
     7
100
AcDbLine
 10
147.537362141
 20
130.7751128798
 30
0.0
 11
148.341209141
 21
133.7751128798
 31
0.0
  0
LINE
  5
142
330
131
100
AcDbEntity
  8
SLD-0
 62
     7
100
AcDbLine
 10
148.341209141
 20
133.7751128798
 30
0.0
 11
149.145056141
 21
130.7751128798
 31
0.0
  0
LINE
  5
143
330
131
100
AcDbEntity
  8
SLD-0
 62
     7
100
AcDbLine
 10
148.341209141
 20
133.7751128798
 30
0.0
 11
148.341209141
 21
130.7751128798
 31
0.0
  0
LINE
  5
144
330
131
100
AcDbEntity
  8
SLD-0
 62
     7
100
AcDbLine
 10
149.145056141
 20
121.7751128798
 30
0.0
 11
148.341209141
 21
118.7751128798
 31
0.0
  0
LINE
  5
145
330
131
100
AcDbEntity
  8
SLD-0
 62
     7
100
AcDbLine
 10
148.341209141
 20
118.7751128798
 30
0.0
 11
147.537362141
 21
121.7751128798
 31
0.0
  0
LINE
  5
146
330
131
100
AcDbEntity
  8
SLD-0
 62
     7
100
AcDbLine
 10
148.341209141
 20
118.7751128798
 30
0.0
 11
148.341209141
 21
121.7751128798
 31
0.0
  0
MTEXT
  5
147
330
131
100
AcDbEntity
  8
SLD-0
 62
     7
100
AcDbMText
 10
143.814515445
 20
124.2396776567
 30
0.1
 40
3.5
 41
0.0
 71
     1
 72
     1
  1
15
  7
SLDTEXTSTYLE0
 11
6.123031769111886E-17
 21
1.0
 31
0.0
 73
     1
 44
1.0
  0
ENDBLK
  5
13D
330
131
100
AcDbEntity
  8
0
100
AcDbBlockEnd
  0
BLOCK
  5
155
330
149
100
AcDbEntity
  8
0
100
AcDbBlockBegin
  2
*D10
 70
     1
 71
     0
 10
0.0
 20
0.0
 30
0.0
  3
*D10
  1

  0
LINE
  5
158
330
149
100
AcDbEntity
  8
SLD-0
 62
     7
100
AcDbLine
 10
95.8188776854
 20
126.5751128798
 30
0.0
 11
83.6224694334
 21
126.5751128798
 31
0.0
  0
LINE
  5
159
330
149
100
AcDbEntity
  8
SLD-0
 62
     7
100
AcDbLine
 10
95.8188776854
 20
125.9751128798
 30
0.0
 11
83.6224694334
 21
125.9751128798
 31
0.0
  0
LINE
  5
15A
330
149
100
AcDbEntity
  8
SLD-0
 62
     7
100
AcDbLine
 10
84.6224694334
 20
126.5751128798
 30
0.0
 11
84.6224694334
 21
131.5751128798
 31
0.0
  0
LINE
  5
15B
330
149
100
AcDbEntity
  8
SLD-0
 62
     7
100
AcDbLine
 10
84.6224694334
 20
126.5751128798
 30
0.0
 11
84.6224694334
 21
125.9751128798
 31
0.0
  0
LINE
  5
15C
330
149
100
AcDbEntity
  8
SLD-0
 62
     7
100
AcDbLine
 10
84.6224694334
 20
125.9751128798
 30
0.0
 11
84.6224694334
 21
113.6999537348
 31
0.0
  0
LINE
  5
15D
330
149
100
AcDbEntity
  8
SLD-0
 62
     7
100
AcDbLine
 10
85.4263164334
 20
129.5751128798
 30
0.0
 11
84.6224694334
 21
126.5751128798
 31
0.0
  0
LINE
  5
15E
330
149
100
AcDbEntity
  8
SLD-0
 62
     7
100
AcDbLine
 10
84.6224694334
 20
126.5751128798
 30
0.0
 11
83.8186224334
 21
129.5751128798
 31
0.0
  0
LINE
  5
15F
330
149
100
AcDbEntity
  8
SLD-0
 62
     7
100
AcDbLine
 10
84.6224694334
 20
126.5751128798
 30
0.0
 11
84.6224694334
 21
129.5751128798
 31
0.0
  0
LINE
  5
160
330
149
100
AcDbEntity
  8
SLD-0
 62
     7
100
AcDbLine
 10
83.8186224334
 20
122.9751128798
 30
0.0
 11
84.6224694334
 21
125.9751128798
 31
0.0
  0
LINE
  5
161
330
149
100
AcDbEntity
  8
SLD-0
 62
     7
100
AcDbLine
 10
84.6224694334
 20
125.9751128798
 30
0.0
 11
85.4263164334
 21
122.9751128798
 31
0.0
  0
LINE
  5
162
330
149
100
AcDbEntity
  8
SLD-0
 62
     7
100
AcDbLine
 10
84.6224694334
 20
125.9751128798
 30
0.0
 11
84.6224694334
 21
122.9751128798
 31
0.0
  0
MTEXT
  5
163
330
149
100
AcDbEntity
  8
SLD-0
 62
     7
100
AcDbMText
 10
80.0957757375
 20
115.2874537348
 30
0.1
 40
3.5
 41
0.0
 71
     1
 72
     1
  1
0.6
  7
SLDTEXTSTYLE0
 11
6.123031769111886E-17
 21
1.0
 31
0.0
 73
     1
 44
1.0
  0
ENDBLK
  5
156
330
149
100
AcDbEntity
  8
0
100
AcDbBlockEnd
  0
BLOCK
  5
170
330
165
100
AcDbEntity
  8
0
100
AcDbBlockBegin
  2
*D11
 70
     1
 71
     0
 10
0.0
 20
0.0
 30
0.0
  3
*D11
  1

  0
LINE
  5
173
330
165
100
AcDbEntity
  8
SLD-0
100
AcDbLine
 10
97.3188776854
 20
133.7751128798
 30
0.0
 11
76.806142561
 21
133.7751128798
 31
0.0
  0
LINE
  5
174
330
165
100
AcDbEntity
  8
SLD-0
100
AcDbLine
 10
93.8188776854
 20
126.2751128798
 30
0.0
 11
76.806142561
 21
126.2751128798
 31
0.0
  0
LINE
  5
175
330
165
100
AcDbEntity
  8
SLD-0
100
AcDbLine
 10
77.806142561
 20
133.7751128798
 30
0.0
 11
77.806142561
 21
138.7751128798
 31
0.0
  0
LINE
  5
176
330
165
100
AcDbEntity
  8
SLD-0
100
AcDbLine
 10
77.806142561
 20
133.7751128798
 30
0.0
 11
77.806142561
 21
126.2751128798
 31
0.0
  0
LINE
  5
177
330
165
100
AcDbEntity
  8
SLD-0
100
AcDbLine
 10
77.806142561
 20
126.2751128798
 30
0.0
 11
77.806142561
 21
121.2751128798
 31
0.0
  0
LINE
  5
178
330
165
100
AcDbEntity
  8
SLD-0
100
AcDbLine
 10
78.609989561
 20
136.7751128798
 30
0.0
 11
77.806142561
 21
133.7751128798
 31
0.0
  0
LINE
  5
179
330
165
100
AcDbEntity
  8
SLD-0
100
AcDbLine
 10
77.806142561
 20
133.7751128798
 30
0.0
 11
77.002295561
 21
136.7751128798
 31
0.0
  0
LINE
  5
17A
330
165
100
AcDbEntity
  8
SLD-0
100
AcDbLine
 10
77.806142561
 20
133.7751128798
 30
0.0
 11
77.806142561
 21
136.7751128798
 31
0.0
  0
LINE
  5
17B
330
165
100
AcDbEntity
  8
SLD-0
100
AcDbLine
 10
77.002295561
 20
123.2751128798
 30
0.0
 11
77.806142561
 21
126.2751128798
 31
0.0
  0
LINE
  5
17C
330
165
100
AcDbEntity
  8
SLD-0
100
AcDbLine
 10
77.806142561
 20
126.2751128798
 30
0.0
 11
78.609989561
 21
123.2751128798
 31
0.0
  0
LINE
  5
17D
330
165
100
AcDbEntity
  8
SLD-0
100
AcDbLine
 10
77.806142561
 20
126.2751128798
 30
0.0
 11
77.806142561
 21
123.2751128798
 31
0.0
  0
MTEXT
  5
17E
330
165
100
AcDbEntity
  8
SLD-0
100
AcDbMText
 10
73.279448865
 20
126.970132904
 30
0.1
 40
3.5
 41
0.0
 71
     1
 72
     1
  1
7.5
  7
SLDTEXTSTYLE0
 11
6.123031769111886E-17
 21
1.0
 31
0.0
 73
     1
 44
1.0
  0
ENDBLK
  5
171
330
165
100
AcDbEntity
  8
0
100
AcDbBlockEnd
  0
BLOCK
  5
18B
330
180
100
AcDbEntity
  8
0
100
AcDbBlockBegin
  2
*D12
 70
     1
 71
     0
 10
0.0
 20
0.0
 30
0.0
  3
*D12
  1

  0
LINE
  5
18D
330
180
100
AcDbEntity
  8
SLD-0
100
AcDbLine
 10
129.3188776854
 20
126.2751128798
 30
0.0
 11
140.0247922974
 21
126.2751128798
 31
0.0
  0
LINE
  5
18E
330
180
100
AcDbEntity
  8
SLD-0
100
AcDbLine
 10
122.8188776854
 20
133.7751128798
 30
0.0
 11
140.0247922974
 21
133.7751128798
 31
0.0
  0
LINE
  5
18F
330
180
100
AcDbEntity
  8
SLD-0
100
AcDbLine
 10
139.0247922974
 20
126.2751128798
 30
0.0
 11
139.0247922974
 21
121.2751128798
 31
0.0
  0
LINE
  5
190
330
180
100
AcDbEntity
  8
SLD-0
100
AcDbLine
 10
139.0247922974
 20
126.2751128798
 30
0.0
 11
139.0247922974
 21
133.7751128798
 31
0.0
  0
LINE
  5
191
330
180
100
AcDbEntity
  8
SLD-0
100
AcDbLine
 10
139.0247922974
 20
133.7751128798
 30
0.0
 11
139.0247922974
 21
138.7751128798
 31
0.0
  0
LINE
  5
192
330
180
100
AcDbEntity
  8
SLD-0
100
AcDbLine
 10
138.2209452974
 20
123.2751128798
 30
0.0
 11
139.0247922974
 21
126.2751128798
 31
0.0
  0
LINE
  5
193
330
180
100
AcDbEntity
  8
SLD-0
100
AcDbLine
 10
139.0247922974
 20
126.2751128798
 30
0.0
 11
139.8286392974
 21
123.2751128798
 31
0.0
  0
LINE
  5
194
330
180
100
AcDbEntity
  8
SLD-0
100
AcDbLine
 10
139.0247922974
 20
126.2751128798
 30
0.0
 11
139.0247922974
 21
123.2751128798
 31
0.0
  0
LINE
  5
195
330
180
100
AcDbEntity
  8
SLD-0
100
AcDbLine
 10
139.8286392974
 20
136.7751128798
 30
0.0
 11
139.0247922974
 21
133.7751128798
 31
0.0
  0
LINE
  5
196
330
180
100
AcDbEntity
  8
SLD-0
100
AcDbLine
 10
139.0247922974
 20
133.7751128798
 30
0.0
 11
138.2209452974
 21
136.7751128798
 31
0.0
  0
LINE
  5
197
330
180
100
AcDbEntity
  8
SLD-0
100
AcDbLine
 10
139.0247922974
 20
133.7751128798
 30
0.0
 11
139.0247922974
 21
136.7751128798
 31
0.0
  0
MTEXT
  5
198
330
180
100
AcDbEntity
  8
SLD-0
100
AcDbMText
 10
134.4980986014
 20
126.970132904
 30
0.1
 40
3.5
 41
0.0
 71
     1
 72
     1
  1
7.5
  7
SLDTEXTSTYLE0
 11
6.123031769111886E-17
 21
1.0
 31
0.0
 73
     1
 44
1.0
  0
ENDBLK
  5
18C
330
180
100
AcDbEntity
  8
0
100
AcDbBlockEnd
  0
BLOCK
  5
1A4
330
19A
100
AcDbEntity
  8
0
100
AcDbBlockBegin
  2
*D13
 70
     1
 71
     0
 10
0.0
 20
0.0
 30
0.0
  3
*D13
  1

  0
LINE
  5
1A6
330
19A
100
AcDbEntity
  8
SLD-0
100
AcDbLine
 10
108.8188776854
 20
125.5751128798
 30
0.0
 11
108.8188776854
 21
110.0701348526
 31
0.0
  0
LINE
  5
1A7
330
19A
100
AcDbEntity
  8
SLD-0
100
AcDbLine
 10
96.8188776854
 20
125.5751128798
 30
0.0
 11
96.8188776854
 21
110.0701348526
 31
0.0
  0
LINE
  5
1A8
330
19A
100
AcDbEntity
  8
SLD-0
100
AcDbLine
 10
108.8188776854
 20
111.0701348526
 30
0.0
 11
96.8188776854
 21
111.0701348526
 31
0.0
  0
LINE
  5
1A9
330
19A
100
AcDbEntity
  8
SLD-0
100
AcDbLine
 10
105.8188776854
 20
111.8739818526
 30
0.0
 11
108.8188776854
 21
111.0701348526
 31
0.0
  0
LINE
  5
1AA
330
19A
100
AcDbEntity
  8
SLD-0
100
AcDbLine
 10
108.8188776854
 20
111.0701348526
 30
0.0
 11
105.8188776854
 21
110.2662878526
 31
0.0
  0
LINE
  5
1AB
330
19A
100
AcDbEntity
  8
SLD-0
100
AcDbLine
 10
108.8188776854
 20
111.0701348526
 30
0.0
 11
105.8188776854
 21
111.0701348526
 31
0.0
  0
LINE
  5
1AC
330
19A
100
AcDbEntity
  8
SLD-0
100
AcDbLine
 10
99.8188776854
 20
110.2662878526
 30
0.0
 11
96.8188776854
 21
111.0701348526
 31
0.0
  0
LINE
  5
1AD
330
19A
100
AcDbEntity
  8
SLD-0
100
AcDbLine
 10
96.8188776854
 20
111.0701348526
 30
0.0
 11
99.8188776854
 21
111.8739818526
 31
0.0
  0
LINE
  5
1AE
330
19A
100
AcDbEntity
  8
SLD-0
100
AcDbLine
 10
96.8188776854
 20
111.0701348526
 30
0.0
 11
99.8188776854
 21
111.0701348526
 31
0.0
  0
MTEXT
  5
1AF
330
19A
100
AcDbEntity
  8
SLD-0
100
AcDbMText
 10
100.7834424622
 20
115.5968285485
 30
0.1
 40
3.5
 41
0.0
 71
     1
 72
     1
  1
12
  7
SLDTEXTSTYLE0
 73
     1
 44
1.0
  0
ENDBLK
  5
1A5
330
19A
100
AcDbEntity
  8
0
100
AcDbBlockEnd
  0
BLOCK
  5
1BB
330
1B1
100
AcDbEntity
  8
0
100
AcDbBlockBegin
  2
*D14
 70
     1
 71
     0
 10
0.0
 20
0.0
 30
0.0
  3
*D14
  1

  0
LINE
  5
1BD
330
1B1
100
AcDbEntity
  8
SLD-0
 62
     7
100
AcDbLine
 10
129.3188776854
 20
127.2751128798
 30
0.0
 11
129.3188776854
 21
149.5106269202
 31
0.0
  0
LINE
  5
1BE
330
1B1
100
AcDbEntity
  8
SLD-0
 62
     7
100
AcDbLine
 10
96.8188776854
 20
133.2751128798
 30
0.0
 11
96.8188776854
 21
149.5106269202
 31
0.0
  0
LINE
  5
1BF
330
1B1
100
AcDbEntity
  8
SLD-0
 62
     7
100
AcDbLine
 10
129.3188776854
 20
148.5106269202
 30
0.0
 11
96.8188776854
 21
148.5106269202
 31
0.0
  0
LINE
  5
1C0
330
1B1
100
AcDbEntity
  8
SLD-0
 62
     7
100
AcDbLine
 10
126.3188776854
 20
149.3144739202
 30
0.0
 11
129.3188776854
 21
148.5106269202
 31
0.0
  0
LINE
  5
1C1
330
1B1
100
AcDbEntity
  8
SLD-0
 62
     7
100
AcDbLine
 10
129.3188776854
 20
148.5106269202
 30
0.0
 11
126.3188776854
 21
147.7067799202
 31
0.0
  0
LINE
  5
1C2
330
1B1
100
AcDbEntity
  8
SLD-0
 62
     7
100
AcDbLine
 10
129.3188776854
 20
148.5106269202
 30
0.0
 11
126.3188776854
 21
148.5106269202
 31
0.0
  0
LINE
  5
1C3
330
1B1
100
AcDbEntity
  8
SLD-0
 62
     7
100
AcDbLine
 10
99.8188776854
 20
147.7067799202
 30
0.0
 11
96.8188776854
 21
148.5106269202
 31
0.0
  0
LINE
  5
1C4
330
1B1
100
AcDbEntity
  8
SLD-0
 62
     7
100
AcDbLine
 10
96.8188776854
 20
148.5106269202
 30
0.0
 11
99.8188776854
 21
149.3144739202
 31
0.0
  0
LINE
  5
1C5
330
1B1
100
AcDbEntity
  8
SLD-0
 62
     7
100
AcDbLine
 10
96.8188776854
 20
148.5106269202
 30
0.0
 11
99.8188776854
 21
148.5106269202
 31
0.0
  0
MTEXT
  5
1C6
330
1B1
100
AcDbEntity
  8
SLD-0
 62
     7
100
AcDbMText
 10
108.9961800979
 20
153.0373206161
 30
0.1
 40
3.5
 41
0.0
 71
     1
 72
     1
  1
32.5
  7
SLDTEXTSTYLE0
 73
     1
 44
1.0
  0
ENDBLK
  5
1BC
330
1B1
100
AcDbEntity
  8
0
100
AcDbBlockEnd
  0
BLOCK
  5
1CF
330
1C8
100
AcDbEntity
  8
0
100
AcDbBlockBegin
  2
*D15
 70
     1
 71
     0
 10
0.0
 20
0.0
 30
0.0
  3
*D15
  1

  0
LINE
  5
1D2
330
1C8
100
AcDbEntity
  8
SLD-0
 62
     7
100
AcDbLine
 10
126.2641576701
 20
132.3157656474
 30
0.0
 11
126.8864420614
 21
133.1613825587
 31
0.0
  0
LINE
  5
1D3
330
1C8
100
AcDbEntity
  8
SLD-0
 62
     7
100
AcDbLine
 10
127.7897229542
 20
134.388843201
 30
0.0
 11
128.867237239
 21
135.8530681021
 31
0.0
  0
LINE
  5
1D4
330
1C8
100
AcDbEntity
  8
SLD-0
 62
     7
100
AcDbLine
 10
129.7705181318
 20
137.0805287445
 30
0.0
 11
132.8053997478
 21
141.2046032901
 31
0.0
  0
LINE
  5
1D5
330
1C8
100
AcDbEntity
  8
SLD-0
 62
     7
100
AcDbLine
 10
132.8053997478
 20
141.2046032901
 30
0.0
 11
139.603334971
 21
141.2046032901
 31
0.0
  0
LINE
  5
1D6
330
1C8
100
AcDbEntity
  8
SLD-0
 62
     7
100
AcDbLine
 10
128.6897044113
 20
134.2555834238
 30
0.0
 11
126.2641576701
 21
132.3157656474
 31
0.0
  0
LINE
  5
1D7
330
1C8
100
AcDbEntity
  8
SLD-0
 62
     7
100
AcDbLine
 10
126.2641576701
 20
132.3157656474
 30
0.0
 11
127.3948349166
 21
135.2084700851
 31
0.0
  0
LINE
  5
1D8
330
1C8
100
AcDbEntity
  8
SLD-0
 62
     7
100
AcDbLine
 10
126.2641576701
 20
132.3157656474
 30
0.0
 11
128.042269664
 21
134.7320267544
 31
0.0
  0
MTEXT
  5
1D9
330
1C8
100
AcDbEntity
  8
SLD-0
 62
     7
100
AcDbMText
 10
135.9803997478
 20
145.731296986
 30
0.1
 40
3.5
 41
0.0
 71
     1
 72
     1
  1
R
  7
SLDTEXTSTYLE0
 73
     1
 44
1.0
  0
ENDBLK
  5
1D0
330
1C8
100
AcDbEntity
  8
0
100
AcDbBlockEnd
  0
BLOCK
  5
1E5
330
1DB
100
AcDbEntity
  8
0
100
AcDbBlockBegin
  2
*D16
 70
     1
 71
     0
 10
0.0
 20
0.0
 30
0.0
  3
*D16
  1

  0
LINE
  5
1E7
330
1DB
100
AcDbEntity
  8
SLD-0
 62
     7
100
AcDbLine
 10
112.8188776854
 20
195.1583570351
 30
0.0
 11
112.8188776854
 21
205.2785825367
 31
0.0
  0
LINE
  5
1E8
330
1DB
100
AcDbEntity
  8
SLD-0
 62
     7
100
AcDbLine
 10
96.8188776854
 20
197.9083570351
 30
0.0
 11
96.8188776854
 21
205.2785825367
 31
0.0
  0
LINE
  5
1E9
330
1DB
100
AcDbEntity
  8
SLD-0
 62
     7
100
AcDbLine
 10
112.8188776854
 20
204.2785825367
 30
0.0
 11
96.8188776854
 21
204.2785825367
 31
0.0
  0
LINE
  5
1EA
330
1DB
100
AcDbEntity
  8
SLD-0
 62
     7
100
AcDbLine
 10
109.8188776854
 20
205.0824295367
 30
0.0
 11
112.8188776854
 21
204.2785825367
 31
0.0
  0
LINE
  5
1EB
330
1DB
100
AcDbEntity
  8
SLD-0
 62
     7
100
AcDbLine
 10
112.8188776854
 20
204.2785825367
 30
0.0
 11
109.8188776854
 21
203.4747355367
 31
0.0
  0
LINE
  5
1EC
330
1DB
100
AcDbEntity
  8
SLD-0
 62
     7
100
AcDbLine
 10
112.8188776854
 20
204.2785825367
 30
0.0
 11
109.8188776854
 21
204.2785825367
 31
0.0
  0
LINE
  5
1ED
330
1DB
100
AcDbEntity
  8
SLD-0
 62
     7
100
AcDbLine
 10
99.8188776854
 20
203.4747355367
 30
0.0
 11
96.8188776854
 21
204.2785825367
 31
0.0
  0
LINE
  5
1EE
330
1DB
100
AcDbEntity
  8
SLD-0
 62
     7
100
AcDbLine
 10
96.8188776854
 20
204.2785825367
 30
0.0
 11
99.8188776854
 21
205.0824295367
 31
0.0
  0
LINE
  5
1EF
330
1DB
100
AcDbEntity
  8
SLD-0
 62
     7
100
AcDbLine
 10
96.8188776854
 20
204.2785825367
 30
0.0
 11
99.8188776854
 21
204.2785825367
 31
0.0
  0
MTEXT
  5
1F0
330
1DB
100
AcDbEntity
  8
SLD-0
 62
     7
100
AcDbMText
 10
102.7834424622
 20
208.8052762327
 30
0.1
 40
3.5
 41
0.0
 71
     1
 72
     1
  1
16
  7
SLDTEXTSTYLE0
 73
     1
 44
1.0
  0
ENDBLK
  5
1E6
330
1DB
100
AcDbEntity
  8
0
100
AcDbBlockEnd
  0
BLOCK
  5
1FD
330
1F2
100
AcDbEntity
  8
0
100
AcDbBlockBegin
  2
*D17
 70
     1
 71
     0
 10
0.0
 20
0.0
 30
0.0
  3
*D17
  1

  0
LINE
  5
1FF
330
1F2
100
AcDbEntity
  8
SLD-0
 62
     7
100
AcDbLine
 10
126.8188776854
 20
196.9083570351
 30
0.0
 11
149.7135729363
 21
196.9083570351
 31
0.0
  0
LINE
  5
200
330
1F2
100
AcDbEntity
  8
SLD-0
 62
     7
100
AcDbLine
 10
126.8188776854
 20
181.9083570351
 30
0.0
 11
149.7135729363
 21
181.9083570351
 31
0.0
  0
LINE
  5
201
330
1F2
100
AcDbEntity
  8
SLD-0
 62
     7
100
AcDbLine
 10
148.7135729363
 20
196.9083570351
 30
0.0
 11
148.7135729363
 21
181.9083570351
 31
0.0
  0
LINE
  5
202
330
1F2
100
AcDbEntity
  8
SLD-0
 62
     7
100
AcDbLine
 10
147.9097259363
 20
193.9083570351
 30
0.0
 11
148.7135729363
 21
196.9083570351
 31
0.0
  0
LINE
  5
203
330
1F2
100
AcDbEntity
  8
SLD-0
 62
     7
100
AcDbLine
 10
148.7135729363
 20
196.9083570351
 30
0.0
 11
149.5174199363
 21
193.9083570351
 31
0.0
  0
LINE
  5
204
330
1F2
100
AcDbEntity
  8
SLD-0
 62
     7
100
AcDbLine
 10
148.7135729363
 20
196.9083570351
 30
0.0
 11
148.7135729363
 21
193.9083570351
 31
0.0
  0
LINE
  5
205
330
1F2
100
AcDbEntity
  8
SLD-0
 62
     7
100
AcDbLine
 10
149.5174199363
 20
184.9083570351
 30
0.0
 11
148.7135729363
 21
181.9083570351
 31
0.0
  0
LINE
  5
206
330
1F2
100
AcDbEntity
  8
SLD-0
 62
     7
100
AcDbLine
 10
148.7135729363
 20
181.9083570351
 30
0.0
 11
147.9097259363
 21
184.9083570351
 31
0.0
  0
LINE
  5
207
330
1F2
100
AcDbEntity
  8
SLD-0
 62
     7
100
AcDbLine
 10
148.7135729363
 20
181.9083570351
 30
0.0
 11
148.7135729363
 21
184.9083570351
 31
0.0
  0
MTEXT
  5
208
330
1F2
100
AcDbEntity
  8
SLD-0
 62
     7
100
AcDbMText
 10
144.1868792403
 20
187.3729218119
 30
0.1
 40
3.5
 41
0.0
 71
     1
 72
     1
  1
15
  7
SLDTEXTSTYLE0
 11
6.123031769111886E-17
 21
1.0
 31
0.0
 73
     1
 44
1.0
  0
ENDBLK
  5
1FE
330
1F2
100
AcDbEntity
  8
0
100
AcDbBlockEnd
  0
BLOCK
  5
216
330
20A
100
AcDbEntity
  8
0
100
AcDbBlockBegin
  2
*D18
 70
     1
 71
     0
 10
0.0
 20
0.0
 30
0.0
  3
*D18
  1

  0
LINE
  5
218
330
20A
100
AcDbEntity
  8
SLD-0
 62
     7
100
AcDbLine
 10
122.8188776854
 20
196.9083570351
 30
0.0
 11
140.1263580338
 21
196.9083570351
 31
0.0
  0
LINE
  5
219
330
20A
100
AcDbEntity
  8
SLD-0
 62
     7
100
AcDbLine
 10
130.3188776854
 20
194.4083570351
 30
0.0
 11
140.1263580338
 21
194.4083570351
 31
0.0
  0
LINE
  5
21A
330
20A
100
AcDbEntity
  8
SLD-0
 62
     7
100
AcDbLine
 10
139.1263580338
 20
196.9083570351
 30
0.0
 11
139.1263580338
 21
208.9210625126
 31
0.0
  0
LINE
  5
21B
330
20A
100
AcDbEntity
  8
SLD-0
 62
     7
100
AcDbLine
 10
139.1263580338
 20
196.9083570351
 30
0.0
 11
139.1263580338
 21
194.4083570351
 31
0.0
  0
LINE
  5
21C
330
20A
100
AcDbEntity
  8
SLD-0
 62
     7
100
AcDbLine
 10
139.1263580338
 20
194.4083570351
 30
0.0
 11
139.1263580338
 21
189.4083570351
 31
0.0
  0
LINE
  5
21D
330
20A
100
AcDbEntity
  8
SLD-0
 62
     7
100
AcDbLine
 10
139.9302050338
 20
199.9083570351
 30
0.0
 11
139.1263580338
 21
196.9083570351
 31
0.0
  0
LINE
  5
21E
330
20A
100
AcDbEntity
  8
SLD-0
 62
     7
100
AcDbLine
 10
139.1263580338
 20
196.9083570351
 30
0.0
 11
138.3225110338
 21
199.9083570351
 31
0.0
  0
LINE
  5
21F
330
20A
100
AcDbEntity
  8
SLD-0
 62
     7
100
AcDbLine
 10
139.1263580338
 20
196.9083570351
 30
0.0
 11
139.1263580338
 21
199.9083570351
 31
0.0
  0
LINE
  5
220
330
20A
100
AcDbEntity
  8
SLD-0
 62
     7
100
AcDbLine
 10
138.3225110338
 20
191.4083570351
 30
0.0
 11
139.1263580338
 21
194.4083570351
 31
0.0
  0
LINE
  5
221
330
20A
100
AcDbEntity
  8
SLD-0
 62
     7
100
AcDbLine
 10
139.1263580338
 20
194.4083570351
 30
0.0
 11
139.9302050338
 21
191.4083570351
 31
0.0
  0
LINE
  5
222
330
20A
100
AcDbEntity
  8
SLD-0
 62
     7
100
AcDbLine
 10
139.1263580338
 20
194.4083570351
 30
0.0
 11
139.1263580338
 21
191.4083570351
 31
0.0
  0
MTEXT
  5
223
330
20A
100
AcDbEntity
  8
SLD-0
 62
     7
100
AcDbMText
 10
134.5996643379
 20
201.2236025608
 30
0.1
 40
3.5
 41
0.0
 71
     1
 72
     1
  1
2.5
  7
SLDTEXTSTYLE0
 11
6.123031769111886E-17
 21
1.0
 31
0.0
 73
     1
 44
1.0
  0
ENDBLK
  5
217
330
20A
100
AcDbEntity
  8
0
100
AcDbBlockEnd
  0
BLOCK
  5
230
330
225
100
AcDbEntity
  8
0
100
AcDbBlockBegin
  2
*D19
 70
     1
 71
     0
 10
0.0
 20
0.0
 30
0.0
  3
*D19
  1

  0
LINE
  5
233
330
225
100
AcDbEntity
  8
SLD-0
 62
     7
100
AcDbLine
 10
130.3188776854
 20
184.4083570351
 30
0.0
 11
140.1263580338
 21
184.4083570351
 31
0.0
  0
LINE
  5
234
330
225
100
AcDbEntity
  8
SLD-0
 62
     7
100
AcDbLine
 10
130.3188776854
 20
194.4083570351
 30
0.0
 11
140.1263580338
 21
194.4083570351
 31
0.0
  0
LINE
  5
235
330
225
100
AcDbEntity
  8
SLD-0
 62
     7
100
AcDbLine
 10
139.1263580338
 20
184.4083570351
 30
0.0
 11
139.1263580338
 21
168.0764810622
 31
0.0
  0
LINE
  5
236
330
225
100
AcDbEntity
  8
SLD-0
 62
     7
100
AcDbLine
 10
139.1263580338
 20
184.4083570351
 30
0.0
 11
139.1263580338
 21
194.4083570351
 31
0.0
  0
LINE
  5
237
330
225
100
AcDbEntity
  8
SLD-0
 62
     7
100
AcDbLine
 10
139.9302050338
 20
187.4083570351
 30
0.0
 11
139.1263580338
 21
184.4083570351
 31
0.0
  0
LINE
  5
238
330
225
100
AcDbEntity
  8
SLD-0
 62
     7
100
AcDbLine
 10
139.1263580338
 20
184.4083570351
 30
0.0
 11
138.3225110338
 21
187.4083570351
 31
0.0
  0
LINE
  5
239
330
225
100
AcDbEntity
  8
SLD-0
 62
     7
100
AcDbLine
 10
139.1263580338
 20
184.4083570351
 30
0.0
 11
139.1263580338
 21
187.4083570351
 31
0.0
  0
LINE
  5
23A
330
225
100
AcDbEntity
  8
SLD-0
 62
     7
100
AcDbLine
 10
138.3225110338
 20
191.4083570351
 30
0.0
 11
139.1263580338
 21
194.4083570351
 31
0.0
  0
LINE
  5
23B
330
225
100
AcDbEntity
  8
SLD-0
 62
     7
100
AcDbLine
 10
139.1263580338
 20
194.4083570351
 30
0.0
 11
139.9302050338
 21
191.4083570351
 31
0.0
  0
LINE
  5
23C
330
225
100
AcDbEntity
  8
SLD-0
 62
     7
100
AcDbLine
 10
139.1263580338
 20
194.4083570351
 30
0.0
 11
139.1263580338
 21
191.4083570351
 31
0.0
  0
MTEXT
  5
23D
330
225
100
AcDbEntity
  8
SLD-0
 62
     7
100
AcDbMText
 10
134.5996643379
 20
169.6639810622
 30
0.1
 40
3.5
 41
0.0
 71
     1
 72
     1
  1
10
  7
SLDTEXTSTYLE0
 11
6.123031769111886E-17
 21
1.0
 31
0.0
 73
     1
 44
1.0
  0
MTEXT
  5
23E
330
225
100
AcDbEntity
  8
SLD-0
 62
     7
100
AcDbMText
 10
135.7961381636
 20
174.955381786
 30
0.1
 40
2.1
 41
0.0
 71
     1
 72
     1
  1
-
  7
SLDTEXTSTYLE0
 11
6.123031769111886E-17
 21
1.0
 31
0.0
 73
     1
 44
1.0
  0
MTEXT
  5
23F
330
225
100
AcDbEntity
  8
SLD-0
 62
     7
100
AcDbMText
 10
135.7961381636
 20
176.1759120635
 30
0.1
 40
2.1
 41
0.0
 71
     1
 72
     1
  1
0.1
  7
SLDTEXTSTYLE0
 11
6.123031769111886E-17
 21
1.0
 31
0.0
 73
     1
 44
1.0
  0
MTEXT
  5
240
330
225
100
AcDbEntity
  8
SLD-0
 62
     7
100
AcDbMText
 10
133.3550776087
 20
176.1759120635
 30
0.1
 40
2.1
 41
0.0
 71
     1
 72
     1
  1
0
  7
SLDTEXTSTYLE0
 11
6.123031769111886E-17
 21
1.0
 31
0.0
 73
     1
 44
1.0
  0
ENDBLK
  5
231
330
225
100
AcDbEntity
  8
0
100
AcDbBlockEnd
  0
BLOCK
  5
24C
330
242
100
AcDbEntity
  8
0
100
AcDbBlockBegin
  2
*D20
 70
     1
 71
     0
 10
0.0
 20
0.0
 30
0.0
  3
*D20
  1

  0
LINE
  5
24E
330
242
100
AcDbEntity
  8
SLD-0
100
AcDbLine
 10
117.8188776854
 20
198.0443642109
 30
0.0
 11
117.8188776854
 21
214.5539714645
 31
0.0
  0
LINE
  5
24F
330
242
100
AcDbEntity
  8
SLD-0
100
AcDbLine
 10
96.8188776854
 20
197.9083570351
 30
0.0
 11
96.8188776854
 21
214.5539714645
 31
0.0
  0
LINE
  5
250
330
242
100
AcDbEntity
  8
SLD-0
100
AcDbLine
 10
117.8188776854
 20
213.5539714645
 30
0.0
 11
96.8188776854
 21
213.5539714645
 31
0.0
  0
LINE
  5
251
330
242
100
AcDbEntity
  8
SLD-0
100
AcDbLine
 10
114.8188776854
 20
214.3578184645
 30
0.0
 11
117.8188776854
 21
213.5539714645
 31
0.0
  0
LINE
  5
252
330
242
100
AcDbEntity
  8
SLD-0
100
AcDbLine
 10
117.8188776854
 20
213.5539714645
 30
0.0
 11
114.8188776854
 21
212.7501244645
 31
0.0
  0
LINE
  5
253
330
242
100
AcDbEntity
  8
SLD-0
100
AcDbLine
 10
117.8188776854
 20
213.5539714645
 30
0.0
 11
114.8188776854
 21
213.5539714645
 31
0.0
  0
LINE
  5
254
330
242
100
AcDbEntity
  8
SLD-0
100
AcDbLine
 10
99.8188776854
 20
212.7501244645
 30
0.0
 11
96.8188776854
 21
213.5539714645
 31
0.0
  0
LINE
  5
255
330
242
100
AcDbEntity
  8
SLD-0
100
AcDbLine
 10
96.8188776854
 20
213.5539714645
 30
0.0
 11
99.8188776854
 21
214.3578184645
 31
0.0
  0
LINE
  5
256
330
242
100
AcDbEntity
  8
SLD-0
100
AcDbLine
 10
96.8188776854
 20
213.5539714645
 30
0.0
 11
99.8188776854
 21
213.5539714645
 31
0.0
  0
MTEXT
  5
257
330
242
100
AcDbEntity
  8
SLD-0
100
AcDbMText
 10
105.2834424622
 20
218.0806651605
 30
0.1
 40
3.5
 41
0.0
 71
     1
 72
     1
  1
21
  7
SLDTEXTSTYLE0
 73
     1
 44
1.0
  0
ENDBLK
  5
24D
330
242
100
AcDbEntity
  8
0
100
AcDbBlockEnd
  0
BLOCK
  5
264
330
259
100
AcDbEntity
  8
0
100
AcDbBlockBegin
  2
*D21
 70
     1
 71
     0
 10
0.0
 20
0.0
 30
0.0
  3
*D21
  1

  0
LINE
  5
266
330
259
100
AcDbEntity
  8
SLD-0
100
AcDbLine
 10
95.8188776854
 20
196.9083570351
 30
0.0
 11
88.3239065257
 21
196.9083570351
 31
0.0
  0
LINE
  5
267
330
259
100
AcDbEntity
  8
SLD-0
100
AcDbLine
 10
93.8188776854
 20
189.4083570351
 30
0.0
 11
88.3239065257
 21
189.4083570351
 31
0.0
  0
LINE
  5
268
330
259
100
AcDbEntity
  8
SLD-0
100
AcDbLine
 10
89.3239065257
 20
196.9083570351
 30
0.0
 11
89.3239065257
 21
201.9083570351
 31
0.0
  0
LINE
  5
269
330
259
100
AcDbEntity
  8
SLD-0
100
AcDbLine
 10
89.3239065257
 20
196.9083570351
 30
0.0
 11
89.3239065257
 21
189.4083570351
 31
0.0
  0
LINE
  5
26A
330
259
100
AcDbEntity
  8
SLD-0
100
AcDbLine
 10
89.3239065257
 20
189.4083570351
 30
0.0
 11
89.3239065257
 21
184.4083570351
 31
0.0
  0
LINE
  5
26B
330
259
100
AcDbEntity
  8
SLD-0
100
AcDbLine
 10
90.1277535257
 20
199.9083570351
 30
0.0
 11
89.3239065257
 21
196.9083570351
 31
0.0
  0
LINE
  5
26C
330
259
100
AcDbEntity
  8
SLD-0
100
AcDbLine
 10
89.3239065257
 20
196.9083570351
 30
0.0
 11
88.5200595257
 21
199.9083570351
 31
0.0
  0
LINE
  5
26D
330
259
100
AcDbEntity
  8
SLD-0
100
AcDbLine
 10
89.3239065257
 20
196.9083570351
 30
0.0
 11
89.3239065257
 21
199.9083570351
 31
0.0
  0
LINE
  5
26E
330
259
100
AcDbEntity
  8
SLD-0
100
AcDbLine
 10
88.5200595257
 20
186.4083570351
 30
0.0
 11
89.3239065257
 21
189.4083570351
 31
0.0
  0
LINE
  5
26F
330
259
100
AcDbEntity
  8
SLD-0
100
AcDbLine
 10
89.3239065257
 20
189.4083570351
 30
0.0
 11
90.1277535257
 21
186.4083570351
 31
0.0
  0
LINE
  5
270
330
259
100
AcDbEntity
  8
SLD-0
100
AcDbLine
 10
89.3239065257
 20
189.4083570351
 30
0.0
 11
89.3239065257
 21
186.4083570351
 31
0.0
  0
MTEXT
  5
271
330
259
100
AcDbEntity
  8
SLD-0
100
AcDbMText
 10
84.7972128297
 20
190.1033770592
 30
0.1
 40
3.5
 41
0.0
 71
     1
 72
     1
  1
7.5
  7
SLDTEXTSTYLE0
 11
6.123031769111886E-17
 21
1.0
 31
0.0
 73
     1
 44
1.0
  0
ENDBLK
  5
265
330
259
100
AcDbEntity
  8
0
100
AcDbBlockEnd
  0
ENDSEC
  0
SECTION
  2
ENTITIES
  0
LINE
  5
64
330
1F
100
AcDbEntity
  8
SLD-0
  6
Continuous
 62
   179
100
AcDbLine
 10
20.2604743903
 20
285.0
 30
0.0
 11
196.7604743903
 21
285.0
 31
0.0
  0
LINE
  5
65
330
1F
100
AcDbEntity
  8
SLD-0
  6
Continuous
 62
   179
100
AcDbLine
 10
20.2604743903
 20
285.0
 30
0.0
 11
20.2604743903
 21
10.0
 31
0.0
  0
LINE
  5
66
330
1F
100
AcDbEntity
  8
SLD-0
  6
Continuous
 62
   179
100
AcDbLine
 10
20.2604743903
 20
10.0
 30
0.0
 11
196.7604743903
 21
10.0
 31
0.0
  0
LINE
  5
67
330
1F
100
AcDbEntity
  8
SLD-0
  6
Continuous
 62
   179
100
AcDbLine
 10
196.7604743903
 20
285.0
 30
0.0
 11
196.7604743903
 21
10.0
 31
0.0
  0
LINE
  5
68
330
1F
100
AcDbEntity
  8
SLD-0
  6
Continuous
 62
   179
100
AcDbLine
 10
127.0104743903
 20
50.75
 30
0.0
 11
196.7604743903
 21
50.75
 31
0.0
  0
LINE
  5
69
330
1F
100
AcDbEntity
  8
SLD-0
  6
Continuous
 62
   179
100
AcDbLine
 10
127.0104743903
 20
50.75
 30
0.0
 11
127.0104743903
 21
10.0
 31
0.0
  0
LINE
  5
6A
330
1F
100
AcDbEntity
  8
SLD-0
  6
Continuous
 62
   179
100
AcDbLine
 10
127.0104743903
 20
22.75
 30
0.0
 11
196.7604743903
 21
22.75
 31
0.0
  0
LINE
  5
6B
330
1F
100
AcDbEntity
  8
SLD-0
  6
Continuous
 62
   179
100
AcDbLine
 10
127.0104743903
 20
36.75
 30
0.0
 11
196.7604743903
 21
36.75
 31
0.0
  0
LINE
  5
6C
330
1F
100
AcDbEntity
  8
SLD-0
100
AcDbLine
 10
113.5340672529
 20
115.7958257297
 30
0.0
 11
112.9226360815
 21
118.7751128798
 31
0.0
  0
LINE
  5
6D
330
1F
100
AcDbEntity
  8
SLD-0
100
AcDbLine
 10
112.9226360815
 20
118.7751128798
 30
0.0
 11
114.4672722112
 21
116.1551702799
 31
0.0
  0
LINE
  5
6E
330
1F
100
AcDbEntity
  8
SLD-0
100
AcDbLine
 10
114.4672722112
 20
116.1551702799
 30
0.0
 11
113.5340672529
 21
115.7958257297
 31
0.0
  0
LINE
  5
6F
330
1F
100
AcDbEntity
  8
SLD-0
100
AcDbLine
 10
114.4082020606
 20
136.2958384557
 30
0.0
 11
112.7064551432
 21
133.7751128798
 31
0.0
  0
LINE
  5
70
330
1F
100
AcDbEntity
  8
SLD-0
100
AcDbLine
 10
112.7064551432
 20
133.7751128798
 30
0.0
 11
113.4986831216
 21
136.7115009383
 31
0.0
  0
LINE
  5
71
330
1F
100
AcDbEntity
  8
SLD-0
  6
Continuous
 62
   179
100
AcDbLine
 10
97.613301057
 20
122.2751126898
 30
0.0
 11
96.8188773129
 21
121.4806889458
 31
0.0
  0
LINE
  5
72
330
1F
100
AcDbEntity
  8
SLD-0
  6
Continuous
 62
   179
100
AcDbLine
 10
99.8583658818
 20
122.2751126898
 30
0.0
 11
97.6569007865
 21
120.0736475945
 31
0.0
  0
LINE
  5
73
330
1F
100
AcDbEntity
  8
SLD-0
  6
Continuous
 62
   179
100
AcDbLine
 10
102.1034288439
 20
122.2751126898
 30
0.0
 11
98.9782184104
 21
119.1499022563
 31
0.0
  0
LINE
  5
74
330
1F
100
AcDbEntity
  8
SLD-0
  6
Continuous
 62
   179
100
AcDbLine
 10
104.3484936688
 20
122.2751126898
 30
0.0
 11
100.8484940264
 21
118.7751130475
 31
0.0
  0
LINE
  5
75
330
1F
100
AcDbEntity
  8
SLD-0
  6
Continuous
 62
   179
100
AcDbLine
 10
106.5935575623
 20
122.2751126898
 30
0.0
 11
103.0935569886
 21
118.7751130475
 31
0.0
  0
LINE
  5
76
330
1F
100
AcDbEntity
  8
SLD-0
  6
Continuous
 62
   179
100
AcDbLine
 10
110.2935577962
 20
125.9751128656
 30
0.0
 11
108.8188774172
 21
124.5004330104
 31
0.0
  0
LINE
  5
77
330
1F
100
AcDbEntity
  8
SLD-0
  6
Continuous
 62
   179
100
AcDbLine
 10
111.1688780818
 20
124.6053689666
 30
0.0
 11
105.3386218134
 21
118.7751130475
 31
0.0
  0
LINE
  5
78
330
1F
100
AcDbEntity
  8
SLD-0
  6
Continuous
 62
   179
100
AcDbLine
 10
111.1688780818
 20
122.3603049567
 30
0.0
 11
107.5836857069
 21
118.7751130475
 31
0.0
  0
LINE
  5
79
330
1F
100
AcDbEntity
  8
SLD-0
  6
Continuous
 62
   179
100
AcDbLine
 10
111.1688780818
 20
120.1152410632
 30
0.0
 11
109.8287496004
 21
118.7751130475
 31
0.0
  0
LINE
  5
7A
330
1F
100
AcDbEntity
  8
SLD-0
  6
Continuous
 62
   179
100
AcDbLine
 10
100.133044574
 20
133.7751127122
 30
0.0
 11
96.8188773129
 21
130.4609454511
 31
0.0
  0
LINE
  5
7B
330
1F
100
AcDbEntity
  8
SLD-0
  6
Continuous
 62
   179
100
AcDbLine
 10
102.3781093988
 20
133.7751127122
 30
0.0
 11
98.8781097564
 21
130.2751130698
 31
0.0
  0
LINE
  5
7C
330
1F
100
AcDbEntity
  8
SLD-0
  6
Continuous
 62
   179
100
AcDbLine
 10
104.6231742236
 20
133.7751127122
 30
0.0
 11
101.1231727186
 21
130.2751130698
 31
0.0
  0
LINE
  5
7D
330
1F
100
AcDbEntity
  8
SLD-0
  6
Continuous
 62
   179
100
AcDbLine
 10
106.8682371858
 20
133.7751127122
 30
0.0
 11
103.3682375434
 21
130.2751130698
 31
0.0
  0
LINE
  5
7E
330
1F
100
AcDbEntity
  8
SLD-0
  6
Continuous
 62
   179
100
AcDbLine
 10
109.1133010793
 20
133.7751127122
 30
0.0
 11
105.6133005056
 21
130.2751130698
 31
0.0
  0
LINE
  5
7F
330
1F
100
AcDbEntity
  8
SLD-0
  6
Continuous
 62
   179
100
AcDbLine
 10
110.5688772384
 20
132.9856249778
 30
0.0
 11
107.8583653304
 21
130.2751130698
 31
0.0
  0
LINE
  5
80
330
1F
100
AcDbEntity
  8
SLD-0
  6
Continuous
 62
   179
100
AcDbLine
 10
110.5688772384
 20
130.7405610843
 30
0.0
 11
108.8188774172
 21
128.9905610303
 31
0.0
  0
LINE
  5
81
330
1F
100
AcDbEntity
  8
SLD-0
  6
Continuous
 62
   179
100
AcDbLine
 10
110.5688772384
 20
128.4954969579
 30
0.0
 11
108.8188774172
 21
126.7454970494
 31
0.0
  0
LINE
  5
82
330
1F
100
AcDbEntity
  8
SLD-0
  6
Continuous
 62
   179
100
AcDbLine
 10
114.7836855832
 20
125.9751128656
 30
0.0
 11
114.4688775982
 21
125.660304997
 31
0.0
  0
LINE
  5
83
330
1F
100
AcDbEntity
  8
SLD-0
  6
Continuous
 62
   179
100
AcDbLine
 10
117.0287494767
 20
125.9751128656
 30
0.0
 11
114.4688775982
 21
123.4152410453
 31
0.0
  0
LINE
  5
84
330
1F
100
AcDbEntity
  8
SLD-0
  6
Continuous
 62
   179
100
AcDbLine
 10
116.3659653846
 20
123.0672644725
 30
0.0
 11
114.4688775982
 21
121.1701766862
 31
0.0
  0
LINE
  5
85
330
1F
100
AcDbEntity
  8
SLD-0
  6
Continuous
 62
   179
100
AcDbLine
 10
114.5565145868
 20
119.0127497813
 30
0.0
 11
114.4688775982
 21
118.9251127927
 31
0.0
  0
LINE
  5
86
330
1F
100
AcDbEntity
  8
SLD-0
  6
Continuous
 62
   179
100
AcDbLine
 10
115.8484936911
 20
133.7751127122
 30
0.0
 11
115.0688775103
 21
132.9954969971
 31
0.0
  0
LINE
  5
87
330
1F
100
AcDbEntity
  8
SLD-0
  6
Continuous
 62
   179
100
AcDbLine
 10
117.024104971
 20
132.7056600986
 30
0.0
 11
115.0688775103
 21
130.7504331036
 31
0.0
  0
LINE
  5
88
330
1F
100
AcDbEntity
  8
SLD-0
  6
Continuous
 62
   179
100
AcDbLine
 10
117.2719224575
 20
130.7084136916
 30
0.0
 11
115.0688775103
 21
128.5053689772
 31
0.0
  0
LINE
  5
89
330
1F
100
AcDbEntity
  8
SLD-0
  6
Continuous
 62
   179
100
AcDbLine
 10
117.3138892497
 20
128.5053168232
 30
0.0
 11
115.3836854953
 21
126.5751128941
 31
0.0
  0
LINE
  5
8A
330
1F
100
AcDbEntity
  8
SLD-0
  6
Continuous
 62
   179
100
AcDbLine
 10
117.0638716809
 20
125.9751128798
 30
0.0
 11
117.8301435504
 21
125.9751128798
 31
0.0
  0
LINE
  5
8B
330
1F
100
AcDbEntity
  8
SLD-0
  6
Continuous
 62
   179
100
AcDbLine
 10
117.8301435504
 20
126.5751128798
 30
0.0
 11
117.1523781028
 21
126.5751128798
 31
0.0
  0
LINE
  5
8C
330
1F
100
AcDbEntity
  8
SLD-0
  6
Continuous
 62
   179
100
AcDbLine
 10
121.8188776854
 20
133.7751128798
 30
0.0
 11
116.8069847435
 21
133.7751128799
 31
0.0
  0
LINE
  5
8D
330
1F
100
AcDbEntity
  8
SLD-0
  6
Continuous
 62
   179
100
AcDbLine
 10
114.4151257921
 20
118.7751128799
 30
0.0
 11
121.8188776854
 21
118.7751128798
 31
0.0
  0
LINE
  5
8E
330
1F
100
AcDbEntity
  8
SLD-0
  6
Continuous
 62
   179
100
AcDbLine
 10
111.1688776854
 20
118.7751128798
 30
0.0
 11
111.1688776854
 21
125.9751128798
 31
0.0
  0
LINE
  5
8F
330
1F
100
AcDbEntity
  8
SLD-0
  6
Continuous
 62
   179
100
AcDbLine
 10
114.4688776854
 20
125.9751128798
 30
0.0
 11
114.4688775982
 21
118.8645856729
 31
0.0
  0
LINE
  5
90
330
1F
100
AcDbEntity
  8
SLD-0
  6
Continuous
 62
   179
100
AcDbLine
 10
114.4688776854
 20
125.9751128798
 30
0.0
 11
111.1688776854
 21
125.9751128798
 31
0.0
  0
LINE
  5
91
330
1F
100
AcDbEntity
  8
SLD-0
  6
Continuous
 62
   179
100
AcDbLine
 10
114.4151257921
 20
118.7751128799
 30
0.0
 11
111.1688776854
 21
118.7751128798
 31
0.0
  0
LINE
  5
92
330
1F
100
AcDbEntity
  8
SLD-0
  6
Continuous
 62
   179
100
AcDbLine
 10
110.5688776854
 20
126.5751128798
 30
0.0
 11
110.5688776854
 21
133.7751128798
 31
0.0
  0
LINE
  5
93
330
1F
100
AcDbEntity
  8
SLD-0
  6
Continuous
 62
   179
100
AcDbLine
 10
115.0688776854
 20
133.7751128798
 30
0.0
 11
115.0688776854
 21
126.5751128798
 31
0.0
  0
LINE
  5
94
330
1F
100
AcDbEntity
  8
SLD-0
  6
Continuous
 62
   179
100
AcDbLine
 10
115.0688776854
 20
126.5751128798
 30
0.0
 11
110.5688776854
 21
126.5751128798
 31
0.0
  0
LINE
  5
95
330
1F
100
AcDbEntity
  8
SLD-0
  6
Continuous
 62
   179
100
AcDbLine
 10
115.0688776854
 20
133.7751128798
 30
0.0
 11
110.5688776854
 21
133.7751128798
 31
0.0
  0
LINE
  5
96
330
1F
100
AcDbEntity
  8
SLD-0
  6
Continuous
 62
   179
100
AcDbLine
 10
96.8188776854
 20
130.2751128798
 30
0.0
 11
108.8188774172
 21
130.2751130698
 31
0.0
  0
LINE
  5
97
330
1F
100
AcDbEntity
  8
SLD-0
  6
Continuous
 62
   179
100
AcDbLine
 10
96.8188776854
 20
130.2751128798
 30
0.0
 11
96.8188776854
 21
126.5751128798
 31
0.0
  0
LINE
  5
98
330
1F
100
AcDbEntity
  8
SLD-0
  6
Continuous
 62
   179
100
AcDbLine
 10
108.8188774172
 20
126.5751128941
 30
0.0
 11
96.8188776854
 21
126.5751128798
 31
0.0
  0
LINE
  5
99
330
1F
100
AcDbEntity
  8
SLD-0
  6
Continuous
 62
   179
100
AcDbLine
 10
108.8188774172
 20
122.2751126898
 30
0.0
 11
108.8188774172
 21
125.9751128656
 31
0.0
  0
LINE
  5
9A
330
1F
100
AcDbEntity
  8
SLD-0
  6
Continuous
 62
   179
100
AcDbLine
 10
108.8188774172
 20
122.2751126898
 30
0.0
 11
96.8188776854
 21
122.2751128798
 31
0.0
  0
LINE
  5
9B
330
1F
100
AcDbEntity
  8
SLD-0
  6
Continuous
 62
   179
100
AcDbLine
 10
96.8188776854
 20
122.2751128798
 30
0.0
 11
96.8188773129
 21
120.2751128277
 31
0.0
  0
LINE
  5
9C
330
1F
100
AcDbEntity
  8
SLD-0
  6
Continuous
 62
   179
100
AcDbLine
 10
98.3188784901
 20
118.7751130475
 30
0.0
 11
96.8188773129
 21
120.2751128277
 31
0.0
  0
LINE
  5
9D
330
1F
100
AcDbEntity
  8
SLD-0
  6
Continuous
 62
   179
100
AcDbLine
 10
111.1688776854
 20
125.9751128798
 30
0.0
 11
108.8188774172
 21
125.9751128656
 31
0.0
  0
LINE
  5
9E
330
1F
100
AcDbEntity
  8
SLD-0
  6
Continuous
 62
   179
100
AcDbLine
 10
98.3188784901
 20
118.7751130475
 30
0.0
 11
111.1688776854
 21
118.7751128798
 31
0.0
  0
LINE
  5
9F
330
1F
100
AcDbEntity
  8
SLD-0
  6
Continuous
 62
   179
100
AcDbLine
 10
115.0688776854
 20
126.5751128798
 30
0.0
 11
117.1523781028
 21
126.5751128798
 31
0.0
  0
LINE
  5
A0
330
1F
100
AcDbEntity
  8
SLD-0
  6
Continuous
 62
   179
100
AcDbLine
 10
116.8069847435
 20
133.7751128799
 30
0.0
 11
115.0688776854
 21
133.7751128798
 31
0.0
  0
LINE
  5
A1
330
1F
100
AcDbEntity
  8
SLD-0
  6
Continuous
 62
   179
100
AcDbLine
 10
117.0638716809
 20
125.9751128798
 30
0.0
 11
114.4688776854
 21
125.9751128798
 31
0.0
  0
LINE
  5
A2
330
1F
100
AcDbEntity
  8
SLD-0
  6
Continuous
 62
   179
100
AcDbLine
 10
96.8188776854
 20
125.9751128798
 30
0.0
 11
96.8188776854
 21
122.2751128798
 31
0.0
  0
LINE
  5
A3
330
1F
100
AcDbEntity
  8
SLD-0
  6
Continuous
 62
   179
100
AcDbLine
 10
96.8188776854
 20
125.9751128798
 30
0.0
 11
108.8188774172
 21
125.9751128656
 31
0.0
  0
LINE
  5
A4
330
1F
100
AcDbEntity
  8
SLD-0
  6
Continuous
 62
   179
100
AcDbLine
 10
108.8188774172
 20
126.5751128941
 30
0.0
 11
108.8188774172
 21
130.2751130698
 31
0.0
  0
LINE
  5
A5
330
1F
100
AcDbEntity
  8
SLD-0
  6
Continuous
 62
   179
100
AcDbLine
 10
96.8188773129
 20
132.275112932
 30
0.0
 11
96.8188776854
 21
130.2751128798
 31
0.0
  0
LINE
  5
A6
330
1F
100
AcDbEntity
  8
SLD-0
  6
Continuous
 62
   179
100
AcDbLine
 10
96.8188773129
 20
132.275112932
 30
0.0
 11
98.3188784901
 21
133.7751127122
 31
0.0
  0
LINE
  5
A7
330
1F
100
AcDbEntity
  8
SLD-0
  6
Continuous
 62
   179
100
AcDbLine
 10
108.8188774172
 20
126.5751128941
 30
0.0
 11
110.5688776854
 21
126.5751128798
 31
0.0
  0
LINE
  5
A8
330
1F
100
AcDbEntity
  8
SLD-0
  6
Continuous
 62
   179
100
AcDbLine
 10
110.5688776854
 20
133.7751128798
 30
0.0
 11
98.3188784901
 21
133.7751127122
 31
0.0
  0
LINE
  5
A9
330
1F
100
AcDbEntity
  8
SLD-0
  6
HIDDEN
 62
     8
100
AcDbLine
 10
117.8188774954
 20
118.7751130475
 30
0.0
 11
117.8188774954
 21
125.9751128656
 31
0.0
  0
LINE
  5
AA
330
1F
100
AcDbEntity
  8
SLD-0
  6
HIDDEN
 62
     8
100
AcDbLine
 10
117.8188774954
 20
126.5751128941
 30
0.0
 11
117.8188774954
 21
133.7751127122
 31
0.0
  0
LINE
  5
AB
330
1F
100
AcDbEntity
  8
SLD-0
  6
HIDDEN
 62
     8
100
AcDbLine
 10
114.4688775982
 20
118.7751130475
 30
0.0
 11
114.4688775982
 21
118.8645856729
 31
0.0
  0
LINE
  5
AC
330
1F
100
AcDbEntity
  8
SLD-0
 62
   179
100
AcDbLine
 10
97.5688776854
 20
119.5251128798
 30
0.0
 11
84.9038812678
 21
101.4087000893
 31
0.0
  0
LINE
  5
AD
330
1F
100
AcDbEntity
  8
SLD-0
 62
   179
100
AcDbLine
 10
84.9038812678
 20
101.4087000893
 30
0.0
 11
93.733683279
 21
114.0152719415
 31
0.0
  0
LINE
  5
AE
330
1F
100
AcDbEntity
  8
SLD-0
100
AcDbLine
 10
113.4986831216
 20
136.7115009383
 30
0.0
 11
114.4082020606
 21
136.2958384557
 31
0.0
  0
LINE
  5
AF
330
1F
100
AcDbEntity
  8
SLD-0
100
AcDbLine
 10
114.0006697321
 20
115.9754980048
 30
0.0
 11
116.7820427021
 21
108.7523717732
 31
0.0
  0
LINE
  5
B0
330
1F
100
AcDbEntity
  8
SLD-0
100
AcDbLine
 10
116.7820427021
 20
108.7523717732
 30
0.0
 11
121.3565674306
 21
108.7523717732
 31
0.0
  0
LINE
  5
B1
330
1F
100
AcDbEntity
  8
SLD-0
100
AcDbLine
 10
113.9534425911
 20
136.503669697
 30
0.0
 11
122.5338829916
 21
155.2786936068
 31
0.0
  0
LINE
  5
B2
330
1F
100
AcDbEntity
  8
SLD-0
100
AcDbLine
 10
122.5338829916
 20
155.2786936068
 30
0.0
 11
133.0137278649
 21
155.2786936068
 31
0.0
  0
LINE
  5
B3
330
1F
100
AcDbEntity
  8
SLD-0
 62
   179
100
AcDbLine
 10
114.8188774693
 20
125.9751128656
 30
0.0
 11
114.8188774693
 21
119.4744711084
 31
0.0
  0
LINE
  5
B4
330
1F
100
AcDbEntity
  8
SLD-0
 62
   179
100
AcDbLine
 10
110.818877745
 20
118.7751130475
 30
0.0
 11
110.818877745
 21
125.9751128656
 31
0.0
  0
LINE
  5
B5
330
1F
100
AcDbEntity
  8
SLD-0
  6
HIDDEN
 62
   179
100
AcDbLine
 10
114.8188774693
 20
118.7751130475
 30
0.0
 11
114.8188774693
 21
119.4744711084
 31
0.0
  0
LINE
  5
B6
330
1F
100
AcDbEntity
  8
SLD-0
  6
CENTERX2
 62
   179
100
AcDbLine
 10
110.8188776854
 20
126.2751128798
 30
0.0
 11
94.8188776854
 21
126.2751128798
 31
0.0
  0
LINE
  5
B7
330
1F
100
AcDbEntity
  8
SLD-0
  6
CENTERX2
 62
   179
100
AcDbLine
 10
112.8188776854
 20
116.7751128798
 30
0.0
 11
112.8188776854
 21
135.3812814806
 31
0.0
  0
LINE
  5
B8
330
1F
100
AcDbEntity
  8
SLD-0
  6
Continuous
 62
   179
100
AcDbLine
 10
55.6558630875
 20
132.275112932
 30
0.0
 11
40.6558634228
 21
132.275112932
 31
0.0
  0
LINE
  5
B9
330
1F
100
AcDbEntity
  8
SLD-0
  6
Continuous
 62
   179
100
AcDbLine
 10
40.6558634228
 20
132.275112932
 30
0.0
 11
40.6558634228
 21
133.7751127122
 31
0.0
  0
LINE
  5
BA
330
1F
100
AcDbEntity
  8
SLD-0
  6
Continuous
 62
   179
100
AcDbLine
 10
40.6558634228
 20
133.7751127122
 30
0.0
 11
55.6558630875
 21
133.7751127122
 31
0.0
  0
LINE
  5
BB
330
1F
100
AcDbEntity
  8
SLD-0
  6
Continuous
 62
   179
100
AcDbLine
 10
55.6558630875
 20
133.7751127122
 30
0.0
 11
55.6558630875
 21
132.275112932
 31
0.0
  0
LINE
  5
BC
330
1F
100
AcDbEntity
  8
SLD-0
  6
Continuous
 62
   179
100
AcDbLine
 10
52.1445973902
 20
126.5751128798
 30
0.0
 11
55.6558632551
 21
126.5751128798
 31
0.0
  0
LINE
  5
BD
330
1F
100
AcDbEntity
  8
SLD-0
  6
Continuous
 62
   179
100
AcDbLine
 10
40.6558632551
 20
126.5751128798
 30
0.0
 11
44.1671291201
 21
126.5751128798
 31
0.0
  0
LINE
  5
BE
330
1F
100
AcDbEntity
  8
SLD-0
  6
Continuous
 62
   179
100
AcDbLine
 10
40.6558634228
 20
132.275112932
 30
0.0
 11
40.6558632551
 21
126.5751128798
 31
0.0
  0
LINE
  5
BF
330
1F
100
AcDbEntity
  8
SLD-0
  6
Continuous
 62
   179
100
AcDbLine
 10
55.6558630875
 20
132.275112932
 30
0.0
 11
55.6558632551
 21
126.5751128798
 31
0.0
  0
LINE
  5
C0
330
1F
100
AcDbEntity
  8
SLD-0
  6
Continuous
 62
   179
100
AcDbLine
 10
55.6558632551
 20
125.9751128798
 30
0.0
 11
55.6558630875
 21
120.2751128277
 31
0.0
  0
LINE
  5
C1
330
1F
100
AcDbEntity
  8
SLD-0
  6
Continuous
 62
   179
100
AcDbLine
 10
40.6558634228
 20
120.2751128277
 30
0.0
 11
55.6558630875
 21
120.2751128277
 31
0.0
  0
LINE
  5
C2
330
1F
100
AcDbEntity
  8
SLD-0
  6
Continuous
 62
   179
100
AcDbLine
 10
52.1445973901
 20
125.9751128798
 30
0.0
 11
55.6558632551
 21
125.9751128798
 31
0.0
  0
LINE
  5
C3
330
1F
100
AcDbEntity
  8
SLD-0
  6
Continuous
 62
   179
100
AcDbLine
 10
40.6558632551
 20
125.9751128798
 30
0.0
 11
44.1671291201
 21
125.9751128798
 31
0.0
  0
LINE
  5
C4
330
1F
100
AcDbEntity
  8
SLD-0
  6
Continuous
 62
   179
100
AcDbLine
 10
40.6558632551
 20
125.9751128798
 30
0.0
 11
40.6558634228
 21
120.2751128277
 31
0.0
  0
LINE
  5
C5
330
1F
100
AcDbEntity
  8
SLD-0
  6
Continuous
 62
   179
100
AcDbLine
 10
55.6558630875
 20
118.7751130475
 30
0.0
 11
40.6558634228
 21
118.7751130475
 31
0.0
  0
LINE
  5
C6
330
1F
100
AcDbEntity
  8
SLD-0
  6
Continuous
 62
   179
100
AcDbLine
 10
55.6558630875
 20
120.2751128277
 30
0.0
 11
55.6558630875
 21
118.7751130475
 31
0.0
  0
LINE
  5
C7
330
1F
100
AcDbEntity
  8
SLD-0
  6
Continuous
 62
   179
100
AcDbLine
 10
40.6558634228
 20
118.7751130475
 30
0.0
 11
40.6558634228
 21
120.2751128277
 31
0.0
  0
LINE
  5
C8
330
1F
100
AcDbEntity
  8
SLD-0
  6
Continuous
 62
   179
100
AcDbLine
 10
44.1671291201
 20
126.5751128798
 30
0.0
 11
52.1445973902
 21
126.5751128798
 31
0.0
  0
LINE
  5
C9
330
1F
100
AcDbEntity
  8
SLD-0
  6
Continuous
 62
   179
100
AcDbLine
 10
52.1445973901
 20
125.9751128798
 30
0.0
 11
44.1671291201
 21
125.9751128798
 31
0.0
  0
LINE
  5
CA
330
1F
100
AcDbEntity
  8
SLD-0
  6
Continuous
 62
   179
100
AcDbLine
 10
40.6558632551
 20
125.9751128798
 30
0.0
 11
40.6558632551
 21
126.5751128798
 31
0.0
  0
LINE
  5
CB
330
1F
100
AcDbEntity
  8
SLD-0
  6
Continuous
 62
   179
100
AcDbLine
 10
55.6558632551
 20
125.9751128798
 30
0.0
 11
55.6558632551
 21
126.5751128798
 31
0.0
  0
LINE
  5
CC
330
1F
100
AcDbEntity
  8
SLD-0
  6
HIDDEN
 62
     8
100
AcDbLine
 10
43.1558632551
 20
133.7751128798
 30
0.0
 11
53.1558632551
 21
133.7751128798
 31
0.0
  0
LINE
  5
CD
330
1F
100
AcDbEntity
  8
SLD-0
  6
HIDDEN
 62
     8
100
AcDbLine
 10
43.1558633669
 20
126.5751128941
 30
0.0
 11
53.1558631434
 21
126.5751128941
 31
0.0
  0
LINE
  5
CE
330
1F
100
AcDbEntity
  8
SLD-0
  6
HIDDEN
 62
     8
100
AcDbLine
 10
43.1558632551
 20
118.7751128798
 30
0.0
 11
53.1558632551
 21
118.7751128798
 31
0.0
  0
LINE
  5
CF
330
1F
100
AcDbEntity
  8
SLD-0
  6
HIDDEN
 62
     8
100
AcDbLine
 10
53.1558631434
 20
125.9751128656
 30
0.0
 11
43.1558633669
 21
125.9751128656
 31
0.0
  0
LINE
  5
D0
330
1F
100
AcDbEntity
  8
SLD-0
  6
HIDDEN
 62
     8
100
AcDbLine
 10
43.1558632551
 20
133.7751128798
 30
0.0
 11
43.1558632551
 21
118.7751128798
 31
0.0
  0
LINE
  5
D1
330
1F
100
AcDbEntity
  8
SLD-0
  6
HIDDEN
 62
     8
100
AcDbLine
 10
53.1558632551
 20
118.7751128798
 30
0.0
 11
53.1558632551
 21
133.7751128798
 31
0.0
  0
LINE
  5
D2
330
1F
100
AcDbEntity
  8
SLD-0
  6
CENTERX2
 62
   179
100
AcDbLine
 10
57.6558632551
 20
126.2751128798
 30
0.0
 11
51.1558632551
 21
126.2751128798
 31
0.0
  0
LINE
  5
D3
330
1F
100
AcDbEntity
  8
SLD-0
  6
CENTERX2
 62
   179
100
AcDbLine
 10
45.1558632551
 20
126.2751128798
 30
0.0
 11
38.6558632551
 21
126.2751128798
 31
0.0
  0
LINE
  5
D4
330
1F
100
AcDbEntity
  8
SLD-0
  6
CENTERX2
 62
   179
100
AcDbLine
 10
48.1558632551
 20
116.7751128798
 30
0.0
 11
48.1558632551
 21
135.7751128798
 31
0.0
  0
LINE
  5
D5
330
1F
100
AcDbEntity
  8
SLD-0
  6
Continuous
 62
   179
100
AcDbLine
 10
180.4938882117
 20
118.7751128798
 30
0.0
 11
180.4938882117
 21
133.7751128798
 31
0.0
  0
LINE
  5
D6
330
1F
100
AcDbEntity
  8
SLD-0
  6
Continuous
 62
   179
100
AcDbLine
 10
177.9938882117
 20
118.7751128798
 30
0.0
 11
180.4938882117
 21
118.7751128798
 31
0.0
  0
LINE
  5
D7
330
1F
100
AcDbEntity
  8
SLD-0
  6
Continuous
 62
   179
100
AcDbLine
 10
177.9938882117
 20
133.7751128798
 30
0.0
 11
177.9938882117
 21
118.7751128798
 31
0.0
  0
LINE
  5
D8
330
1F
100
AcDbEntity
  8
SLD-0
  6
Continuous
 62
   179
100
AcDbLine
 10
177.9938882117
 20
133.7751128798
 30
0.0
 11
180.4938882117
 21
133.7751128798
 31
0.0
  0
LINE
  5
D9
330
1F
100
AcDbEntity
  8
SLD-0
  6
Continuous
 62
   179
100
AcDbLine
 10
165.4938882117
 20
118.7751128798
 30
0.0
 11
167.9938882117
 21
118.7751128798
 31
0.0
  0
LINE
  5
DA
330
1F
100
AcDbEntity
  8
SLD-0
  6
Continuous
 62
   179
100
AcDbLine
 10
165.4938882117
 20
118.7751128798
 30
0.0
 11
165.4938882117
 21
133.7751128798
 31
0.0
  0
LINE
  5
DB
330
1F
100
AcDbEntity
  8
SLD-0
  6
Continuous
 62
   179
100
AcDbLine
 10
165.4938882117
 20
133.7751128798
 30
0.0
 11
167.9938882117
 21
133.7751128798
 31
0.0
  0
LINE
  5
DC
330
1F
100
AcDbEntity
  8
SLD-0
  6
Continuous
 62
   179
100
AcDbLine
 10
167.9938882117
 20
118.7751128798
 30
0.0
 11
167.9938882117
 21
133.7751128798
 31
0.0
  0
LINE
  5
DD
330
1F
100
AcDbEntity
  8
SLD-0
  6
Continuous
 62
   179
100
AcDbLine
 10
177.9938881
 20
126.5751128941
 30
0.0
 11
167.9938883235
 21
126.5751128941
 31
0.0
  0
LINE
  5
DE
330
1F
100
AcDbEntity
  8
SLD-0
  6
Continuous
 62
   179
100
AcDbLine
 10
177.9938882117
 20
133.7751128798
 30
0.0
 11
167.9938882117
 21
133.7751128798
 31
0.0
  0
LINE
  5
DF
330
1F
100
AcDbEntity
  8
SLD-0
  6
Continuous
 62
   179
100
AcDbLine
 10
167.9938883235
 20
125.9751128656
 30
0.0
 11
177.9938881
 21
125.9751128656
 31
0.0
  0
LINE
  5
E0
330
1F
100
AcDbEntity
  8
SLD-0
  6
Continuous
 62
   179
100
AcDbLine
 10
177.9938882117
 20
118.7751128798
 30
0.0
 11
167.9938882117
 21
118.7751128798
 31
0.0
  0
LINE
  5
E1
330
1F
100
AcDbEntity
  8
SLD-0
  6
HIDDEN
 62
     8
100
AcDbLine
 10
180.4938880441
 20
125.9751128656
 30
0.0
 11
177.9938881
 21
125.9751128656
 31
0.0
  0
LINE
  5
E2
330
1F
100
AcDbEntity
  8
SLD-0
  6
HIDDEN
 62
     8
100
AcDbLine
 10
180.4938880441
 20
126.5751128941
 30
0.0
 11
177.9938881
 21
126.5751128941
 31
0.0
  0
LINE
  5
E3
330
1F
100
AcDbEntity
  8
SLD-0
  6
HIDDEN
 62
     8
100
AcDbLine
 10
167.9938883235
 20
126.5751128941
 30
0.0
 11
165.4938883794
 21
126.5751128941
 31
0.0
  0
LINE
  5
E4
330
1F
100
AcDbEntity
  8
SLD-0
  6
HIDDEN
 62
     8
100
AcDbLine
 10
167.9938883235
 20
125.9751128656
 30
0.0
 11
165.4938883794
 21
125.9751128656
 31
0.0
  0
LINE
  5
E5
330
1F
100
AcDbEntity
  8
SLD-0
  6
HIDDEN
 62
     8
100
AcDbLine
 10
175.2426317607
 20
126.5751128941
 30
0.0
 11
170.7451446628
 21
126.5751128941
 31
0.0
  0
LINE
  5
E6
330
1F
100
AcDbEntity
  8
SLD-0
  6
HIDDEN
 62
     8
100
AcDbLine
 10
171.3438882117
 20
125.9751128798
 30
0.0
 11
174.6438882028
 21
125.9751128656
 31
0.0
  0
LINE
  5
E7
330
1F
100
AcDbEntity
  8
SLD-0
  6
HIDDEN
 62
     8
100
AcDbLine
 10
176.9826221925
 20
126.5751128941
 30
0.0
 11
169.0051542309
 21
126.5751128941
 31
0.0
  0
LINE
  5
E8
330
1F
100
AcDbEntity
  8
SLD-0
  6
HIDDEN
 62
     8
100
AcDbLine
 10
169.0051542309
 20
125.9751128656
 30
0.0
 11
176.9826221925
 21
125.9751128656
 31
0.0
  0
LINE
  5
E9
330
1F
100
AcDbEntity
  8
SLD-0
  6
HIDDEN
 62
     8
100
AcDbLine
 10
169.0051542309
 20
125.9751128656
 30
0.0
 11
165.4938883794
 21
125.9751128656
 31
0.0
  0
LINE
  5
EA
330
1F
100
AcDbEntity
  8
SLD-0
  6
HIDDEN
 62
     8
100
AcDbLine
 10
180.4938880441
 20
125.9751128656
 30
0.0
 11
176.9826221925
 21
125.9751128656
 31
0.0
  0
LINE
  5
EB
330
1F
100
AcDbEntity
  8
SLD-0
  6
HIDDEN
 62
     8
100
AcDbLine
 10
180.4938880441
 20
126.5751128941
 30
0.0
 11
176.9826221925
 21
126.5751128941
 31
0.0
  0
LINE
  5
EC
330
1F
100
AcDbEntity
  8
SLD-0
  6
HIDDEN
 62
     8
100
AcDbLine
 10
169.0051542309
 20
126.5751128941
 30
0.0
 11
165.4938883794
 21
126.5751128941
 31
0.0
  0
LINE
  5
ED
330
1F
100
AcDbEntity
  8
SLD-0
  6
CENTERX2
 62
   179
100
AcDbLine
 10
163.4938882117
 20
126.2751128798
 30
0.0
 11
169.9938882117
 21
126.2751128798
 31
0.0
  0
LINE
  5
EE
330
1F
100
AcDbEntity
  8
SLD-0
  6
CENTERX2
 62
   179
100
AcDbLine
 10
175.9938882117
 20
126.2751128798
 30
0.0
 11
182.4938882117
 21
126.2751128798
 31
0.0
  0
LINE
  5
EF
330
1F
100
AcDbEntity
  8
SLD-0
  6
CENTERX2
 62
   179
100
AcDbLine
 10
172.9938882117
 20
116.7751128798
 30
0.0
 11
172.9938882117
 21
135.7751128798
 31
0.0
  0
LINE
  5
F0
330
1F
100
AcDbEntity
  8
SLD-0
  6
Continuous
 62
   179
100
AcDbLine
 10
129.3188776854
 20
194.4083570351
 30
0.0
 11
129.3188776854
 21
196.9083570351
 31
0.0
  0
LINE
  5
F1
330
1F
100
AcDbEntity
  8
SLD-0
  6
Continuous
 62
   179
100
AcDbLine
 10
129.3188776854
 20
181.9083570351
 30
0.0
 11
129.3188776854
 21
184.4083570351
 31
0.0
  0
LINE
  5
F2
330
1F
100
AcDbEntity
  8
SLD-0
  6
Continuous
 62
   179
100
AcDbLine
 10
129.3188776854
 20
196.9083570351
 30
0.0
 11
121.8188776854
 21
196.9083570351
 31
0.0
  0
LINE
  5
F3
330
1F
100
AcDbEntity
  8
SLD-0
  6
Continuous
 62
   179
100
AcDbLine
 10
121.8188776854
 20
194.4083570351
 30
0.0
 11
129.3188776854
 21
194.4083570351
 31
0.0
  0
LINE
  5
F4
330
1F
100
AcDbEntity
  8
SLD-0
  6
Continuous
 62
   179
100
AcDbLine
 10
121.8188776854
 20
194.4083570351
 30
0.0
 11
117.8188774954
 21
194.4083569233
 31
0.0
  0
LINE
  5
F5
330
1F
100
AcDbEntity
  8
SLD-0
  6
Continuous
 62
   179
100
AcDbLine
 10
117.8188774954
 20
194.4083569233
 30
0.0
 11
117.8188774954
 21
184.4083571469
 31
0.0
  0
LINE
  5
F6
330
1F
100
AcDbEntity
  8
SLD-0
  6
Continuous
 62
   179
100
AcDbLine
 10
117.8188774954
 20
184.4083571469
 30
0.0
 11
121.8188776854
 21
184.4083570351
 31
0.0
  0
LINE
  5
F7
330
1F
100
AcDbEntity
  8
SLD-0
  6
Continuous
 62
   179
100
AcDbLine
 10
121.8188776854
 20
181.9083570351
 30
0.0
 11
98.3188784901
 21
181.9083572027
 31
0.0
  0
LINE
  5
F8
330
1F
100
AcDbEntity
  8
SLD-0
  6
Continuous
 62
   179
100
AcDbLine
 10
98.3188784901
 20
196.9083568675
 30
0.0
 11
98.3188784901
 21
181.9083572027
 31
0.0
  0
LINE
  5
F9
330
1F
100
AcDbEntity
  8
SLD-0
  6
Continuous
 62
   179
100
AcDbLine
 10
121.8188776854
 20
196.9083570351
 30
0.0
 11
98.3188784901
 21
196.9083568675
 31
0.0
  0
LINE
  5
FA
330
1F
100
AcDbEntity
  8
SLD-0
  6
Continuous
 62
   179
100
AcDbLine
 10
96.8188773129
 20
181.9083572027
 30
0.0
 11
96.8188773129
 21
196.9083568675
 31
0.0
  0
LINE
  5
FB
330
1F
100
AcDbEntity
  8
SLD-0
  6
Continuous
 62
   179
100
AcDbLine
 10
98.3188784901
 20
181.9083572027
 30
0.0
 11
96.8188773129
 21
181.9083572027
 31
0.0
  0
LINE
  5
FC
330
1F
100
AcDbEntity
  8
SLD-0
  6
Continuous
 62
   179
100
AcDbLine
 10
96.8188773129
 20
196.9083568675
 30
0.0
 11
98.3188784901
 21
196.9083568675
 31
0.0
  0
LINE
  5
FD
330
1F
100
AcDbEntity
  8
SLD-0
  6
Continuous
 62
   179
100
AcDbLine
 10
129.3188776854
 20
181.9083570351
 30
0.0
 11
121.8188776854
 21
181.9083570351
 31
0.0
  0
LINE
  5
FE
330
1F
100
AcDbEntity
  8
SLD-0
  6
Continuous
 62
   179
100
AcDbLine
 10
129.3188776854
 20
184.4083570351
 30
0.0
 11
121.8188776854
 21
184.4083570351
 31
0.0
  0
LINE
  5
FF
330
1F
100
AcDbEntity
  8
SLD-0
  6
HIDDEN
 62
     8
100
AcDbLine
 10
117.8301437046
 20
196.9083568675
 30
0.0
 11
117.8301437046
 21
194.4083569233
 31
0.0
  0
LINE
  5
100
330
1F
100
AcDbEntity
  8
SLD-0
  6
HIDDEN
 62
     8
100
AcDbLine
 10
117.8301437046
 20
196.9083568675
 30
0.0
 11
117.8301437046
 21
194.4083569233
 31
0.0
  0
LINE
  5
101
330
1F
100
AcDbEntity
  8
SLD-0
  6
HIDDEN
 62
     8
100
AcDbLine
 10
108.8188776854
 20
185.4196229001
 30
0.0
 11
108.8188776854
 21
193.3970911701
 31
0.0
  0
LINE
  5
102
330
1F
100
AcDbEntity
  8
SLD-0
  6
HIDDEN
 62
     8
100
AcDbLine
 10
117.8301437046
 20
184.4083571469
 30
0.0
 11
117.8301437046
 21
181.9083572027
 31
0.0
  0
LINE
  5
103
330
1F
100
AcDbEntity
  8
SLD-0
  6
HIDDEN
 62
     8
100
AcDbLine
 10
117.8301437046
 20
184.4083571469
 30
0.0
 11
117.8301437046
 21
181.9083572027
 31
0.0
  0
LINE
  5
104
330
1F
100
AcDbEntity
  8
SLD-0
  6
HIDDEN
 62
     8
100
AcDbLine
 10
108.8188776854
 20
193.3970911701
 30
0.0
 11
96.8188773129
 21
193.3970910159
 31
0.0
  0
LINE
  5
105
330
1F
100
AcDbEntity
  8
SLD-0
  6
HIDDEN
 62
     8
100
AcDbLine
 10
96.8188773129
 20
185.4196230543
 30
0.0
 11
108.8188776854
 21
185.4196229001
 31
0.0
  0
LINE
  5
106
330
1F
100
AcDbEntity
  8
SLD-0
  6
HIDDEN
 62
     8
100
AcDbLine
 10
125.8188778754
 20
194.4083569233
 30
0.0
 11
125.8188778754
 21
196.9083568675
 31
0.0
  0
LINE
  5
107
330
1F
100
AcDbEntity
  8
SLD-0
  6
HIDDEN
 62
     8
100
AcDbLine
 10
125.8188778754
 20
181.9083572027
 30
0.0
 11
125.8188778754
 21
184.4083571469
 31
0.0
  0
LINE
  5
108
330
1F
100
AcDbEntity
  8
SLD-0
  6
CENTERX2
 62
   179
100
AcDbLine
 10
121.8188776854
 20
179.9083570351
 30
0.0
 11
121.8188776854
 21
186.4083570351
 31
0.0
  0
LINE
  5
109
330
1F
100
AcDbEntity
  8
SLD-0
  6
CENTERX2
 62
   179
100
AcDbLine
 10
121.8188776854
 20
192.4083570351
 30
0.0
 11
121.8188776854
 21
198.9083570351
 31
0.0
  0
LINE
  5
10A
330
1F
100
AcDbEntity
  8
SLD-0
  6
CENTERX2
 62
   179
100
AcDbLine
 10
110.8188776854
 20
189.4083570351
 30
0.0
 11
94.8188776854
 21
189.4083570351
 31
0.0
  0
ARC
  5
10B
330
1F
100
AcDbEntity
  8
SLD-0
  6
Continuous
 62
   179
100
AcDbCircle
 10
97.1259191674
 20
129.2227020965
 30
0.0
 40
20.2007125159
100
AcDbArc
 50
352.4689102058
 51
13.0239849208
  0
ARC
  5
10C
330
1F
100
AcDbEntity
  8
SLD-0
  6
Continuous
 62
   179
100
AcDbCircle
 10
121.8188776854
 20
126.2751128798
 30
0.0
 40
7.500000000000014
100
AcDbArc
 50
270.0
 51
90.0
  0
ARC
  5
10D
330
1F
100
AcDbEntity
  8
SLD-0
  6
Continuous
 62
   179
100
AcDbCircle
 10
97.1259191674
 20
129.2227020965
 30
0.0
 40
20.20071251590001
100
AcDbArc
 50
328.8561069967
 51
350.7486353959
  0
ARC
  5
10E
330
1F
100
AcDbEntity
  8
SLD-0
  6
Continuous
 62
   179
100
AcDbCircle
 10
121.8188776854
 20
126.2751128798
 30
0.0
 40
3.999999999999998
100
AcDbArc
 50
184.3012223047
 51
175.6987776953
  0
ARC
  5
10F
330
1F
100
AcDbEntity
  8
SLD-0
  6
Continuous
 62
   179
100
AcDbCircle
 10
48.1558632551
 20
126.2751128798
 30
0.0
 40
4.000000000063989
100
AcDbArc
 50
4.3012223046
 51
175.6987776831
  0
ARC
  5
110
330
1F
100
AcDbEntity
  8
SLD-0
  6
Continuous
 62
   179
100
AcDbCircle
 10
48.1558632551
 20
126.2751128798
 30
0.0
 40
3.999999999999998
100
AcDbArc
 50
184.3012223047
 51
355.6987776953
  0
CIRCLE
  5
111
330
1F
100
AcDbEntity
  8
SLD-0
  6
Continuous
 62
   179
100
AcDbCircle
 10
112.8188776854
 20
189.4083570351
 30
0.0
 40
2.25
  0
CIRCLE
  5
112
330
1F
100
AcDbEntity
  8
SLD-0
  6
Continuous
 62
   179
100
AcDbCircle
 10
112.8188776854
 20
189.4083570351
 30
0.0
 40
1.650000000000006
  0
CIRCLE
  5
113
330
1F
100
AcDbEntity
  8
SLD-0
 62
   179
100
AcDbCircle
 10
112.8188776854
 20
189.4083570351
 30
0.0
 40
1.999999783900009
  0
DIMENSION
  5
114
330
1F
100
AcDbEntity
  8
SLD-0
 62
     7
100
AcDbDimension
  2
*D7
 10
121.8188776854
 20
141.2133635753
 30
0.0
 11
109.3188776854
 21
141.2133635753
 31
0.0
 70
   160
 71
     1
 42
25.0
  3
SLDDIMSTYLE0
100
AcDbAlignedDimension
 13
96.8188776854
 23
133.7751128798
 33
0.0
 14
121.8188776854
 24
126.2751128798
 34
0.0
100
AcDbRotatedDimension
1001
ACAD
1000
DSTYLE
1002
{
1070
    77
1070
     3
1070
   143
1040
0.0393700787
1070
    41
1040
3.0
1070
    44
1040
1.0
1070
    42
1040
1.0
1070
   147
1040
1.524
1070
    73
1070
     0
1070
    74
1070
     0
1070
   140
1040
3.5
1070
   284
1070
    12
1070
    78
1070
    12
1002
}
  0
DIMENSION
  5
130
330
1F
100
AcDbEntity
  8
SLD-0
 62
     7
100
AcDbDimension
  2
*D9
 10
148.341209141
 20
133.7751128798
 30
0.0
 11
148.341209141
 21
126.2751128798
 31
0.0
 70
   160
 71
     1
 42
15.0
  3
SLDDIMSTYLE0
100
AcDbAlignedDimension
 13
121.8188776854
 23
118.7751128798
 33
0.0
 14
121.8188776854
 24
133.7751128798
 34
0.0
 50
90.0
100
AcDbRotatedDimension
1001
ACAD
1000
DSTYLE
1002
{
1070
    77
1070
     3
1070
   143
1040
0.0393700787
1070
    41
1040
3.0
1070
    44
1040
1.0
1070
    42
1040
1.0
1070
   147
1040
1.524
1070
    73
1070
     0
1070
    74
1070
     0
1070
   140
1040
3.5
1070
   284
1070
    12
1070
    78
1070
    12
1002
}
  0
DIMENSION
  5
148
330
1F
100
AcDbEntity
  8
SLD-0
 62
     7
100
AcDbDimension
  2
*D10
 10
84.6224694334
 20
126.5751128798
 30
0.0
 11
84.6224694334
 21
118.3424337107
 31
0.0
 70
   160
 71
     1
 42
0.6
  3
SLDDIMSTYLE1
100
AcDbAlignedDimension
 13
96.8188776854
 23
125.9751128798
 33
0.0
 14
96.8188776854
 24
126.5751128798
 34
0.0
 50
90.0
100
AcDbRotatedDimension
1001
ACAD
1000
DSTYLE
1002
{
1070
    77
1070
     3
1070
   143
1040
0.0393700787
1070
    41
1040
3.0
1070
    44
1040
1.0
1070
    42
1040
1.0
1070
   147
1040
1.524
1070
    73
1070
     0
1070
    74
1070
     0
1070
   140
1040
3.5
1070
   284
1070
    12
1070
    78
1070
     8
1002
}
  0
DIMENSION
  5
164
330
1F
100
AcDbEntity
  8
SLD-0
100
AcDbDimension
  2
*D11
 10
77.806142561
 20
133.7751128798
 30
0.0
 11
77.806142561
 21
130.0251128798
 31
0.0
 70
   160
 71
     1
 42
7.5
  3
SLDDIMSTYLE2
100
AcDbAlignedDimension
 13
94.8188776854
 23
126.2751128798
 33
0.0
 14
98.3188776854
 24
133.7751128798
 34
0.0
 50
90.0
100
AcDbRotatedDimension
1001
ACAD
1000
DSTYLE
1002
{
1070
    77
1070
     3
1070
   143
1040
0.0393700787
1070
    41
1040
3.0
1070
    44
1040
1.0
1070
    42
1040
1.0
1070
   147
1040
1.524
1070
    73
1070
     0
1070
    74
1070
     0
1070
   140
1040
3.5
1070
   284
1070
    12
1070
    78
1070
    12
1002
}
  0
DIMENSION
  5
17F
330
1F
100
AcDbEntity
  8
SLD-0
100
AcDbDimension
  2
*D12
 10
139.0247922974
 20
126.2751128798
 30
0.0
 11
139.0247922974
 21
130.0251128798
 31
0.0
 70
   160
 71
     1
 42
7.5
  3
SLDDIMSTYLE2
100
AcDbAlignedDimension
 13
121.8188776854
 23
133.7751128798
 33
0.0
 14
128.3188776854
 24
126.2751128798
 34
0.0
 50
90.0
100
AcDbRotatedDimension
1001
ACAD
1000
DSTYLE
1002
{
1070
    77
1070
     3
1070
   143
1040
0.0393700787
1070
    41
1040
3.0
1070
    44
1040
1.0
1070
    42
1040
1.0
1070
   147
1040
1.524
1070
    73
1070
     0
1070
    74
1070
     0
1070
   140
1040
3.5
1070
   284
1070
    12
1070
    78
1070
    12
1002
}
  0
DIMENSION
  5
199
330
1F
100
AcDbEntity
  8
SLD-0
100
AcDbDimension
  2
*D13
 10
108.8188776854
 20
111.0701348526
 30
0.0
 11
102.8188776854
 21
111.0701348526
 31
0.0
 70
   160
 71
     1
 42
12.0
  3
SLDDIMSTYLE0
100
AcDbAlignedDimension
 13
96.8188776854
 23
126.5751128798
 33
0.0
 14
108.8188776854
 24
126.5751128798
 34
0.0
100
AcDbRotatedDimension
1001
ACAD
1000
DSTYLE
1002
{
1070
    77
1070
     3
1070
   143
1040
0.0393700787
1070
    41
1040
3.0
1070
    44
1040
1.0
1070
    42
1040
1.0
1070
   147
1040
1.524
1070
    73
1070
     0
1070
    74
1070
     0
1070
   140
1040
3.5
1070
   284
1070
    12
1070
    78
1070
    12
1002
}
  0
DIMENSION
  5
1B0
330
1F
100
AcDbEntity
  8
SLD-0
 62
     7
100
AcDbDimension
  2
*D14
 10
129.3188776854
 20
148.5106269202
 30
0.0
 11
113.0688776854
 21
148.5106269202
 31
0.0
 70
   160
 71
     1
 42
32.5
  3
SLDDIMSTYLE2
100
AcDbAlignedDimension
 13
96.8188776854
 23
132.2751128798
 33
0.0
 14
129.3188776854
 24
126.2751128798
 34
0.0
100
AcDbRotatedDimension
1001
ACAD
1000
DSTYLE
1002
{
1070
    77
1070
     3
1070
   143
1040
0.0393700787
1070
    41
1040
3.0
1070
    44
1040
1.0
1070
    42
1040
1.0
1070
   147
1040
1.524
1070
    73
1070
     0
1070
    74
1070
     0
1070
   140
1040
3.5
1070
   284
1070
    12
1070
    78
1070
    12
1002
}
  0
DIMENSION
  5
1C7
330
1F
100
AcDbEntity
  8
SLD-0
 62
     7
100
AcDbDimension
  2
*D15
 10
121.8188776854
 20
126.2751128798
 30
0.0
 11
136.9981173594
 21
143.2400385132
 31
0.0
 70
   164
  1
<>
 71
     1
 42
175.457240071
  3
SLDDIMSTYLE3
100
AcDbRadialDimension
 15
0.0
 25
0.0
 35
0.0
 40
0.0
1001
ACAD
1000
DSTYLE
1002
{
1070
    77
1070
     0
1070
   143
1040
0.0393700787
1070
    41
1040
3.0
1070
    44
1040
1.0
1070
    42
1040
1.0
1070
   147
1040
1.524
1070
    73
1070
     1
1070
    74
1070
     1
1070
   140
1040
3.5
1070
   284
1070
    12
1070
    78
1070
    12
1002
}
  0
DIMENSION
  5
1DA
330
1F
100
AcDbEntity
  8
SLD-0
 62
     7
100
AcDbDimension
  2
*D16
 10
112.8188776854
 20
204.2785825367
 30
0.0
 11
104.8188776854
 21
204.2785825367
 31
0.0
 70
   160
 71
     1
 42
16.0
  3
SLDDIMSTYLE0
100
AcDbAlignedDimension
 13
96.8188776854
 23
196.9083570351
 33
0.0
 14
112.8188776854
 24
189.4083570351
 34
0.0
100
AcDbRotatedDimension
1001
ACAD
1000
DSTYLE
1002
{
1070
    77
1070
     3
1070
   143
1040
0.0393700787
1070
    41
1040
3.0
1070
    44
1040
1.0
1070
    42
1040
1.0
1070
   147
1040
1.524
1070
    73
1070
     0
1070
    74
1070
     0
1070
   140
1040
3.5
1070
   284
1070
    12
1070
    78
1070
    12
1002
}
  0
DIMENSION
  5
1F1
330
1F
100
AcDbEntity
  8
SLD-0
 62
     7
100
AcDbDimension
  2
*D17
 10
148.7135729363
 20
196.9083570351
 30
0.0
 11
148.7135729363
 21
189.4083570351
 31
0.0
 70
   160
 71
     1
 42
15.0
  3
SLDDIMSTYLE0
100
AcDbAlignedDimension
 13
125.8188776854
 23
181.9083570351
 33
0.0
 14
125.8188776854
 24
196.9083570351
 34
0.0
 50
90.0
100
AcDbRotatedDimension
1001
ACAD
1000
DSTYLE
1002
{
1070
    77
1070
     3
1070
   143
1040
0.0393700787
1070
    41
1040
3.0
1070
    44
1040
1.0
1070
    42
1040
1.0
1070
   147
1040
1.524
1070
    73
1070
     0
1070
    74
1070
     0
1070
   140
1040
3.5
1070
   284
1070
    12
1070
    78
1070
    12
1002
}
  0
DIMENSION
  5
209
330
1F
100
AcDbEntity
  8
SLD-0
 62
     7
100
AcDbDimension
  2
*D18
 10
139.1263580338
 20
196.9083570351
 30
0.0
 11
139.1263580338
 21
204.2785825367
 31
0.0
 70
   160
 71
     1
 42
2.5
  3
SLDDIMSTYLE2
100
AcDbAlignedDimension
 13
129.3188776854
 23
194.4083570351
 33
0.0
 14
121.8188776854
 24
196.9083570351
 34
0.0
 50
90.0
100
AcDbRotatedDimension
1001
ACAD
1000
DSTYLE
1002
{
1070
    77
1070
     3
1070
   143
1040
0.0393700787
1070
    41
1040
3.0
1070
    44
1040
1.0
1070
    42
1040
1.0
1070
   147
1040
1.524
1070
    73
1070
     0
1070
    74
1070
     0
1070
   140
1040
3.5
1070
   284
1070
    12
1070
    78
1070
    12
1002
}
  0
DIMENSION
  5
224
330
1F
100
AcDbEntity
  8
SLD-0
 62
     7
100
AcDbDimension
  2
*D19
 10
139.1263580338
 20
184.4083570351
 30
0.0
 11
139.1263580338
 21
174.7525691201
 31
0.0
 70
   160
 71
     1
 42
10.0
  3
SLDDIMSTYLE4
100
AcDbAlignedDimension
 13
129.3188776854
 23
194.4083570351
 33
0.0
 14
129.3188776854
 24
184.4083570351
 34
0.0
 50
90.0
100
AcDbRotatedDimension
1001
ACAD
1000
DSTYLE
1002
{
1070
    77
1070
     3
1070
   143
1040
0.0393700787
1070
    41
1040
3.0
1070
    44
1040
1.0
1070
    42
1040
1.0
1070
   147
1040
1.524
1070
    73
1070
     0
1070
    74
1070
     0
1070
   140
1040
3.5
1070
   284
1070
     0
1070
    78
1070
    12
1002
}
  0
DIMENSION
  5
241
330
1F
100
AcDbEntity
  8
SLD-0
100
AcDbDimension
  2
*D20
 10
117.8188776854
 20
213.5539714645
 30
0.0
 11
107.3188776854
 21
213.5539714645
 31
0.0
 70
   160
 71
     1
 42
21.0
  3
SLDDIMSTYLE0
100
AcDbAlignedDimension
 13
96.8188776854
 23
196.9083570351
 33
0.0
 14
117.8188776854
 24
194.4083570351
 34
0.0
100
AcDbRotatedDimension
1001
ACAD
1000
DSTYLE
1002
{
1070
    77
1070
     3
1070
   143
1040
0.0393700787
1070
    41
1040
3.0
1070
    44
1040
1.0
1070
    42
1040
1.0
1070
   147
1040
1.524
1070
    73
1070
     0
1070
    74
1070
     0
1070
   140
1040
3.5
1070
   284
1070
    12
1070
    78
1070
    12
1002
}
  0
DIMENSION
  5
258
330
1F
100
AcDbEntity
  8
SLD-0
100
AcDbDimension
  2
*D21
 10
89.3239065257
 20
196.9083570351
 30
0.0
 11
89.3239065257
 21
193.1583570351
 31
0.0
 70
   160
 71
     1
 42
7.5
  3
SLDDIMSTYLE2
100
AcDbAlignedDimension
 13
94.8188776854
 23
189.4083570351
 33
0.0
 14
96.8188776854
 24
196.9083570351
 34
0.0
 50
90.0
100
AcDbRotatedDimension
1001
ACAD
1000
DSTYLE
1002
{
1070
    77
1070
     3
1070
   143
1040
0.0393700787
1070
    41
1040
3.0
1070
    44
1040
1.0
1070
    42
1040
1.0
1070
   147
1040
1.524
1070
    73
1070
     0
1070
    74
1070
     0
1070
   140
1040
3.5
1070
   284
1070
    12
1070
    78
1070
    12
1002
}
  0
MTEXT
  5
272
330
1F
100
AcDbEntity
  8
SLD-0
 62
     7
100
AcDbMText
 10
147.3142806906
 20
29.7138882404
 30
0.0
 40
4.2333333333
 41
0.0
 71
     1
 72
     1
  1
N01868-104-1
  7
SLDTEXTSTYLE1
 73
     1
 44
1.0
  0
MTEXT
  5
274
330
1F
100
AcDbEntity
  8
SLD-0
 62
     7
100
AcDbMText
 10
139.9516115546
 20
43.2377018572
 30
0.0
 40
4.2333333333
 41
0.0
 71
     1
 72
     1
  1
8 Suction Rotate #A
  7
SLDTEXTSTYLE2
 73
     1
 44
1.0
  0
MTEXT
  5
275
330
1F
100
AcDbEntity
  8
SLD-0
 62
     7
100
AcDbMText
 10
82.5954154398
 20
104.9637451014
 30
0.0
 40
3.5
 41
0.0
 71
     1
 72
     1
  1
2-
  7
SLDTEXTSTYLE1
 11
0.5736891448125855
 21
0.8190731134179685
 31
0.0
 73
     1
 44
1.0
  0
MTEXT
  5
276
330
1F
100
AcDbEntity
  8
SLD-0
 62
     7
100
AcDbMText
 10
84.9308296247
 20
108.2980856323
 30
0.0
 40
3.5
 41
0.0
 71
     1
 72
     1
  1
C
  7
SLDTEXTSTYLE1
 11
0.5736891448125855
 21
0.8190731134179685
 31
0.0
 73
     1
 44
1.0
  0
MTEXT
  5
277
330
1F
100
AcDbEntity
  8
SLD-0
 62
     7
100
AcDbMText
 10
86.0985367171
 20
109.9652558978
 30
0.0
 40
3.5
 41
0.0
 71
     1
 72
     1
  1
1.5
  7
SLDTEXTSTYLE1
 11
0.5736891448125855
 21
0.8190731134179685
 31
0.0
 73
     1
 44
1.0
  0
MTEXT
  5
278
330
1F
100
AcDbEntity
  8
SLD-0
 62
     7
100
AcDbMText
 10
117.2851633904
 20
112.6858041953
 30
0.0
 40
3.5
 41
0.0
 71
     1
 72
     1
  1
M4
  7
SLDTEXTSTYLE1
 73
     1
 44
1.0
  0
HATCH
  5
279
330
1F
100
AcDbEntity
  8
0
  6
Continuous
 62
   179
100
AcDbHatch
 10
0.0
 20
0.0
 30
0.0
210
0.0
220
0.0
230
1.0
  2
ANSI31
 70
     0
 71
     0
 91
        1
 92
        0
 93
        3
 72
     1
 10
114.4672722112165
 20
116.1551702798993
 11
113.5340672528857
 21
115.7958257297156
 72
     1
 10
113.5340672528857
 20
115.7958257297156
 11
112.9226360815
 21
118.7751128798
 72
     1
 10
112.9226360815
 20
118.7751128798
 11
114.4672722112165
 21
116.1551702798993
 97
        0
 75
     0
 76
     1
 52
0.0
 41
1.0
 77
     0
 78
     1
 53
45.00000209717174
 43
0.0
 44
0.0
 45
-2.245064112442359
 46
2.245063948092215
 79
     0
 98
        1
 10
0.0
 20
0.0
  0
HATCH
  5
27A
330
1F
100
AcDbEntity
  8
0
  6
Continuous
 62
   179
100
AcDbHatch
 10
0.0
 20
0.0
 30
0.0
210
0.0
220
0.0
230
1.0
  2
ANSI31
 70
     0
 71
     0
 91
        1
 92
        0
 93
        3
 72
     1
 10
113.4986831215632
 20
136.7115009383336
 11
114.4082020606356
 21
136.2958384557004
 72
     1
 10
114.4082020606356
 20
136.2958384557004
 11
112.7064551432
 21
133.7751128798
 72
     1
 10
112.7064551432
 20
133.7751128798
 11
113.4986831215632
 21
136.7115009383336
 97
        0
 75
     0
 76
     1
 52
0.0
 41
1.0
 77
     0
 78
     1
 53
45.00000209717174
 43
0.0
 44
0.0
 45
-2.245064112442359
 46
2.245063948092215
 79
     0
 98
        1
 10
0.0
 20
0.0
  0
INSERT
  5
27B
330
1F
100
AcDbEntity
  8
0
  6
Continuous
 62
     7
370
     0
100
AcDbBlockReference
  2
_OPEN30
 10
97.5688776854
 20
119.5251128798
 30
0.0
 41
3.0
 42
3.0
 43
3.0
 50
55.0430015092
  0
INSERT
  5
27C
330
1F
100
AcDbEntity
  8
0
  6
Continuous
 62
     7
370
     0
100
AcDbBlockReference
  2
NOTE45
 10
133.0137278649
 20
155.2786936068
 30
0.0
  0
INSERT
  5
27D
330
1F
100
AcDbEntity
  8
0
  6
Continuous
 62
     7
370
     0
100
AcDbBlockReference
  2
SW_CENTERMARK0
 10
0.0
 20
0.0
 30
0.0
  0
INSERT
  5
27E
330
1F
100
AcDbEntity
  8
0
  6
Continuous
 62
     7
370
     0
100
AcDbBlockReference
  2
SW_CENTERMARK1
 10
0.0
 20
0.0
 30
0.0
  0
INSERT
  5
27F
330
1F
100
AcDbEntity
  8
0
  6
Continuous
 62
     7
370
     0
100
AcDbBlockReference
  2
SW_CENTERMARK2
 10
0.0
 20
0.0
 30
0.0
  0
ENDSEC
  0
SECTION
  2
OBJECTS
  0
DICTIONARY
  5
C
330
0
100
AcDbDictionary
281
     1
  3
ACAD_GROUP
350
D
  3
ACAD_LAYOUT
350
1A
  3
ACAD_MLINESTYLE
350
17
  3
ACAD_PLOTSETTINGS
350
19
  3
ACAD_PLOTSTYLENAME
350
E
  0
DICTIONARY
  5
D
102
{ACAD_REACTORS
330
C
102
}
330
C
100
AcDbDictionary
281
     1
  0
DICTIONARY
  5
1A
102
{ACAD_REACTORS
330
C
102
}
330
C
100
AcDbDictionary
281
     1
  3
Layout1
350
1E
  3
Layout2
350
26
  3
Model
350
22
  0
DICTIONARY
  5
17
102
{ACAD_REACTORS
330
C
102
}
330
C
100
AcDbDictionary
281
     1
  3
Standard
350
18
  0
DICTIONARY
  5
19
102
{ACAD_REACTORS
330
C
102
}
330
C
100
AcDbDictionary
281
     1
  0
ACDBDICTIONARYWDFLT
  5
E
102
{ACAD_REACTORS
330
C
102
}
330
C
100
AcDbDictionary
281
     1
  3
Normal
350
F
100
AcDbDictionaryWithDefault
340
F
  0
LAYOUT
  5
1E
102
{ACAD_REACTORS
330
1A
102
}
330
1A
100
AcDbPlotSettings
  1

  2

  4

  6

 40
0.0
 41
0.0
 42
0.0
 43
0.0
 44
0.0
 45
0.0
 46
0.0
 47
0.0
 48
0.0
 49
0.0
140
0.0
141
0.0
142
1.0
143
1.0
 70
   688
 72
     0
 73
     0
 74
     5
  7

 75
    16
147
1.0
148
0.0
149
0.0
100
AcDbLayout
  1
Layout1
 70
     1
 71
     1
 10
0.0
 20
0.0
 11
0.0
 21
0.0
 12
0.0
 22
0.0
 32
0.0
 14
0.0
 24
0.0
 34
0.0
 15
0.0
 25
0.0
 35
0.0
146
0.0
 13
0.0
 23
0.0
 33
0.0
 16
1.0
 26
0.0
 36
0.0
 17
0.0
 27
1.0
 37
0.0
 76
     0
330
1B
  0
LAYOUT
  5
26
102
{ACAD_REACTORS
330
1A
102
}
330
1A
100
AcDbPlotSettings
  1

  2

  4

  6

 40
0.0
 41
0.0
 42
0.0
 43
0.0
 44
0.0
 45
0.0
 46
0.0
 47
0.0
 48
0.0
 49
0.0
140
0.0
141
0.0
142
1.0
143
1.0
 70
   688
 72
     0
 73
     0
 74
     5
  7

 75
    16
147
1.0
148
0.0
149
0.0
100
AcDbLayout
  1
Layout2
 70
     1
 71
     2
 10
0.0
 20
0.0
 11
0.0
 21
0.0
 12
0.0
 22
0.0
 32
0.0
 14
0.0
 24
0.0
 34
0.0
 15
0.0
 25
0.0
 35
0.0
146
0.0
 13
0.0
 23
0.0
 33
0.0
 16
1.0
 26
0.0
 36
0.0
 17
0.0
 27
1.0
 37
0.0
 76
     0
330
23
  0
LAYOUT
  5
22
102
{ACAD_REACTORS
330
1A
102
}
330
1A
100
AcDbPlotSettings
  1

  2

  4

  6

 40
0.0
 41
0.0
 42
0.0
 43
0.0
 44
0.0
 45
0.0
 46
0.0
 47
0.0
 48
0.0
 49
0.0
140
0.0
141
0.0
142
1.0
143
1.0
 70
  1712
 72
     0
 73
     0
 74
     0
  7

 75
     0
147
1.0
148
0.0
149
0.0
100
AcDbLayout
  1
Model
 70
     1
 71
     0
 10
0.0
 20
0.0
 11
0.0
 21
0.0
 12
0.0
 22
0.0
 32
0.0
 14
0.0
 24
0.0
 34
0.0
 15
210.0
 25
297.0
 35
0.0
146
0.0
 13
0.0
 23
0.0
 33
0.0
 16
1.0
 26
0.0
 36
0.0
 17
0.0
 27
1.0
 37
0.0
 76
     0
330
1F
  0
MLINESTYLE
  5
18
102
{ACAD_REACTORS
330
17
102
}
330
17
100
AcDbMlineStyle
  2
Standard
 70
     0
  3

 62
   256
 51
90.0
 52
90.0
 71
     2
 49
0.5
 62
   256
  6
BYLAYER
 49
-0.5
 62
   256
  6
BYLAYER
  0
ACDBPLACEHOLDER
  5
F
102
{ACAD_REACTORS
330
E
102
}
330
E
  0
ENDSEC
  0
EOF
