  0
SECTION
  2
HEADER
  9
$ACADVER
  1
AC1015
  9
$ACADMAINTVER
 70
     6
  9
$DWGCODEPAGE
  3
DOS932
  9
$INSBASE
 10
0.0
 20
0.0
 30
0.0
  9
$EXTMIN
 10
0.0
 20
0.0
 30
0.0
  9
$EXTMAX
 10
210.0
 20
297.0
 30
0.0
  9
$LIMMIN
 10
0.0
 20
0.0
  9
$LIMMAX
 10
0.0
 20
0.0
  9
$ORTHOMODE
 70
     0
  9
$REGENMODE
 70
     1
  9
$FILLMODE
 70
     1
  9
$QTEXTMODE
 70
     0
  9
$MIRRTEXT
 70
     1
  9
$LTSCALE
 40
1.0
  9
$ATTMODE
 70
     1
  9
$TEXTSIZE
 40
3.5
  9
$TRACEWID
 40
1.0
  9
$TEXTSTYLE
  7
Standard
  9
$CLAYER
  8
0
  9
$CELTYPE
  6
ByLayer
  9
$CECOLOR
 62
   256
  9
$CELTSCALE
 40
1.0
  9
$DISPSILH
 70
     0
  9
$DIMSCALE
 40
1.0
  9
$DIMASZ
 40
3.0
  9
$DIMEXO
 40
1.0
  9
$DIMDLI
 40
3.75
  9
$DIMRND
 40
0.0
  9
$DIMDLE
 40
0.0
  9
$DIMEXE
 40
1.0
  9
$DIMTP
 40
0.0
  9
$DIMTM
 40
0.0
  9
$DIMTXT
 40
3.5
  9
$DIMCEN
 40
2.5
  9
$DIMTSZ
 40
0.0
  9
$DIMTOL
 70
     0
  9
$DIMLIM
 70
     0
  9
$DIMTIH
 70
     1
  9
$DIMTOH
 70
     1
  9
$DIMSE1
 70
     0
  9
$DIMSE2
 70
     0
  9
$DIMTAD
 70
     1
  9
$DIMZIN
 70
     0
  9
$DIMBLK
  1

  9
$DIMASO
 70
     1
  9
$DIMSHO
 70
     1
  9
$DIMPOST
  1

  9
$DIMAPOST
  1

  9
$DIMALT
 70
     0
  9
$DIMALTD
 70
     3
  9
$DIMALTF
 40
0.0393700787
  9
$DIMLFAC
 40
1.0
  9
$DIMTOFL
 70
     1
  9
$DIMTVP
 40
0.0
  9
$DIMTIX
 70
     0
  9
$DIMSOXD
 70
     0
  9
$DIMSAH
 70
     0
  9
$DIMBLK1
  1

  9
$DIMBLK2
  1

  9
$DIMSTYLE
  2
ISO-25
  9
$DIMCLRD
 70
     0
  9
$DIMCLRE
 70
     0
  9
$DIMCLRT
 70
     0
  9
$DIMTFAC
 40
1.0
  9
$DIMGAP
 40
1.524
  9
$DIMJUST
 70
     0
  9
$DIMSD1
 70
     0
  9
$DIMSD2
 70
     0
  9
$DIMTOLJ
 70
     0
  9
$DIMTZIN
 70
     0
  9
$DIMALTZ
 70
     0
  9
$DIMALTTZ
 70
     0
  9
$DIMUPT
 70
     0
  9
$DIMDEC
 70
     2
  9
$DIMTDEC
 70
     2
  9
$DIMALTU
 70
     2
  9
$DIMALTTD
 70
     3
  9
$DIMTXSTY
  7
Standard
  9
$DIMAUNIT
 70
     0
  9
$DIMADEC
 70
     0
  9
$DIMALTRND
 40
0.0
  9
$DIMAZIN
 70
     0
  9
$DIMDSEP
 70
    44
  9
$DIMATFIT
 70
     3
  9
$DIMFRAC
 70
     0
  9
$DIMLDRBLK
  1

  9
$DIMLUNIT
 70
     2
  9
$DIMLWD
 70
    -2
  9
$DIMLWE
 70
    -2
  9
$DIMTMOVE
 70
     0
  9
$LUNITS
 70
     2
  9
$LUPREC
 70
     1
  9
$SKETCHINC
 40
1.0
  9
$FILLETRAD
 40
10.0
  9
$AUNITS
 70
     0
  9
$AUPREC
 70
     0
  9
$MENU
  1
.
  9
$ELEVATION
 40
0.0
  9
$PELEVATION
 40
0.0
  9
$THICKNESS
 40
0.0
  9
$LIMCHECK
 70
     0
  9
$CHAMFERA
 40
10.0
  9
$CHAMFERB
 40
10.0
  9
$CHAMFERC
 40
20.0
  9
$CHAMFERD
 40
0.0
  9
$SKPOLY
 70
     0
  9
$TDCREATE
 40
2454349.496454525
  9
$TDUCREATE
 40
2454349.121454525
  9
$TDUPDATE
 40
2454349.496454537
  9
$TDUUPDATE
 40
2454349.121454537
  9
$TDINDWG
 40
0.0000000116
  9
$TDUSRTIMER
 40
0.0000000116
  9
$USRTIMER
 70
     1
  9
$ANGBASE
 50
0.0
  9
$ANGDIR
 70
     0
  9
$PDMODE
 70
     0
  9
$PDSIZE
 40
-1.0
  9
$PLINEWID
 40
0.0
  9
$SPLFRAME
 70
     0
  9
$SPLINETYPE
 70
     6
  9
$SPLINESEGS
 70
     8
  9
$HANDSEED
  5
212
  9
$SURFTAB1
 70
     6
  9
$SURFTAB2
 70
     6
  9
$SURFTYPE
 70
     6
  9
$SURFU
 70
     6
  9
$SURFV
 70
     6
  9
$UCSBASE
  2

  9
$UCSNAME
  2

  9
$UCSORG
 10
0.0
 20
0.0
 30
0.0
  9
$UCSXDIR
 10
1.0
 20
0.0
 30
0.0
  9
$UCSYDIR
 10
0.0
 20
1.0
 30
0.0
  9
$UCSORTHOREF
  2

  9
$UCSORTHOVIEW
 70
     0
  9
$UCSORGTOP
 10
0.0
 20
0.0
 30
0.0
  9
$UCSORGBOTTOM
 10
0.0
 20
0.0
 30
0.0
  9
$UCSORGLEFT
 10
0.0
 20
0.0
 30
0.0
  9
$UCSORGRIGHT
 10
0.0
 20
0.0
 30
0.0
  9
$UCSORGFRONT
 10
0.0
 20
0.0
 30
0.0
  9
$UCSORGBACK
 10
0.0
 20
0.0
 30
0.0
  9
$PUCSBASE
  2

  9
$PUCSNAME
  2

  9
$PUCSORG
 10
0.0
 20
0.0
 30
0.0
  9
$PUCSXDIR
 10
1.0
 20
0.0
 30
0.0
  9
$PUCSYDIR
 10
0.0
 20
1.0
 30
0.0
  9
$PUCSORTHOREF
  2

  9
$PUCSORTHOVIEW
 70
     0
  9
$PUCSORGTOP
 10
0.0
 20
0.0
 30
0.0
  9
$PUCSORGBOTTOM
 10
0.0
 20
0.0
 30
0.0
  9
$PUCSORGLEFT
 10
0.0
 20
0.0
 30
0.0
  9
$PUCSORGRIGHT
 10
0.0
 20
0.0
 30
0.0
  9
$PUCSORGFRONT
 10
0.0
 20
0.0
 30
0.0
  9
$PUCSORGBACK
 10
0.0
 20
0.0
 30
0.0
  9
$USERI1
 70
     0
  9
$USERI2
 70
     0
  9
$USERI3
 70
     0
  9
$USERI4
 70
     0
  9
$USERI5
 70
     0
  9
$USERR1
 40
0.0
  9
$USERR2
 40
0.0
  9
$USERR3
 40
0.0
  9
$USERR4
 40
0.0
  9
$USERR5
 40
0.0
  9
$WORLDVIEW
 70
     1
  9
$SHADEDGE
 70
     3
  9
$SHADEDIF
 70
    70
  9
$TILEMODE
 70
     1
  9
$MAXACTVP
 70
    64
  9
$PINSBASE
 10
0.0
 20
0.0
 30
0.0
  9
$PLIMCHECK
 70
     0
  9
$PEXTMIN
 10
1.0000000000E+20
 20
1.0000000000E+20
 30
1.0000000000E+20
  9
$PEXTMAX
 10
-1.0000000000E+20
 20
-1.0000000000E+20
 30
-1.0000000000E+20
  9
$PLIMMIN
 10
0.0
 20
0.0
  9
$PLIMMAX
 10
420.0
 20
297.0
  9
$UNITMODE
 70
     0
  9
$VISRETAIN
 70
     1
  9
$PLINEGEN
 70
     0
  9
$PSLTSCALE
 70
     1
  9
$TREEDEPTH
 70
  3020
  9
$CMLSTYLE
  2
Standard
  9
$CMLJUST
 70
     0
  9
$CMLSCALE
 40
20.0
  9
$PROXYGRAPHICS
 70
     1
  9
$MEASUREMENT
 70
     1
  9
$CELWEIGHT
370
    -1
  9
$ENDCAPS
280
     0
  9
$JOINSTYLE
280
     0
  9
$LWDISPLAY
290
     1
  9
$INSUNITS
 70
     4
  9
$HYPERLINKBASE
  1

  9
$STYLESHEET
  1

  9
$XEDIT
290
     1
  9
$CEPSNTYPE
380
     0
  9
$PSTYLEMODE
290
     1
  9
$FINGERPRINTGUID
  2
{6C02C662-5125-4142-B045-818A3F33E3AC}
  9
$VERSIONGUID
  2
{FAEB1C32-E019-11D5-929B-00C0DF256EC4}
  9
$EXTNAMES
290
     1
  9
$PSVPSCALE
 40
0.0
  9
$OLESTARTUP
290
     0
  0
ENDSEC
  0
SECTION
  2
CLASSES
  0
CLASS
  1
ACDBDICTIONARYWDFLT
  2
AcDbDictionaryWithDefault
  3
ObjectDBX Classes
 90
        0
280
     0
281
     0
  0
CLASS
  1
ACDBPLACEHOLDER
  2
AcDbPlaceHolder
  3
ObjectDBX Classes
 90
        0
280
     0
281
     0
  0
CLASS
  1
LAYOUT
  2
AcDbLayout
  3
ObjectDBX Classes
 90
        0
280
     0
281
     0
  0
ENDSEC
  0
SECTION
  2
TABLES
  0
TABLE
  2
VPORT
  5
8
330
0
100
AcDbSymbolTable
 70
     1
  0
VPORT
  5
29
330
8
100
AcDbSymbolTableRecord
100
AcDbViewportTableRecord
  2
*Active
 70
     0
 10
0.0
 20
0.0
 11
1.0
 21
1.0
 12
105.0
 22
148.5
 13
0.0
 23
0.0
 14
10.0
 24
10.0
 15
10.0
 25
10.0
 16
0.0
 26
0.0
 36
1.0
 17
0.0
 27
0.0
 37
0.0
 40
297.0
 41
1.9729729729
 42
50.0
 43
0.0
 44
0.0
 50
0.0
 51
0.0
 71
     0
 72
  2000
 73
     1
 74
     3
 75
     0
 76
     0
 77
     0
 78
     0
281
     0
 65
     1
110
0.0
120
0.0
130
0.0
111
1.0
121
0.0
131
0.0
112
0.0
122
1.0
132
0.0
 79
     0
146
0.0
  0
ENDTAB
  0
TABLE
  2
LTYPE
  5
5
330
0
100
AcDbSymbolTable
 70
     6
  0
LTYPE
  5
14
330
5
100
AcDbSymbolTableRecord
100
AcDbLinetypeTableRecord
  2
ByBlock
 70
     0
  3

 72
    65
 73
     0
 40
0.0
  0
LTYPE
  5
15
330
5
100
AcDbSymbolTableRecord
100
AcDbLinetypeTableRecord
  2
ByLayer
 70
     0
  3

 72
    65
 73
     0
 40
0.0
  0
LTYPE
  5
16
330
5
100
AcDbSymbolTableRecord
100
AcDbLinetypeTableRecord
  2
Continuous
 70
     0
  3
Solid line
 72
    65
 73
     0
 40
0.0
  0
LTYPE
  5
2A
330
5
100
AcDbSymbolTableRecord
100
AcDbLinetypeTableRecord
  2
HIDDEN
 70
     0
  3
Hidden __ __ __ __ __ __ __ __ __ __ __ __ __ __
 72
    65
 73
     2
 40
1.905
 49
1.27
 74
     0
 49
-0.635
 74
     0
  0
LTYPE
  5
2B
330
5
100
AcDbSymbolTableRecord
100
AcDbLinetypeTableRecord
  2
PHANTOM
 70
     0
  3
Phantom ______  __  __  ______  __  __  ______
 72
    65
 73
     6
 40
12.7
 49
6.35
 74
     0
 49
-1.27
 74
     0
 49
1.27
 74
     0
 49
-1.27
 74
     0
 49
1.27
 74
     0
 49
-1.27
 74
     0
  0
LTYPE
  5
2C
330
5
100
AcDbSymbolTableRecord
100
AcDbLinetypeTableRecord
  2
CENTER
 70
     0
  3
Center ____ _ ____ _ ____ _ ____ _ ____ _ ____
 72
    65
 73
     4
 40
10.16
 49
6.35
 74
     0
 49
-1.27
 74
     0
 49
1.27
 74
     0
 49
-1.27
 74
     0
  0
LTYPE
  5
2D
330
5
100
AcDbSymbolTableRecord
100
AcDbLinetypeTableRecord
  2
CENTERX2
 70
     0
  3
Center (2x) ________  __  ________  __  _____
 72
    65
 73
     4
 40
20.32
 49
12.7
 74
     0
 49
-2.54
 74
     0
 49
2.54
 74
     0
 49
-2.54
 74
     0
  0
LTYPE
  5
2E
330
5
100
AcDbSymbolTableRecord
100
AcDbLinetypeTableRecord
  2
DOT2
 70
     0
  3
Dot (.5x) ........................................
 72
    65
 73
     2
 40
0.635
 49
0.0
 74
     0
 49
-0.635
 74
     0
  0
ENDTAB
  0
TABLE
  2
LAYER
  5
2
330
0
100
AcDbSymbolTable
 70
     2
  0
LAYER
  5
10
330
2
100
AcDbSymbolTableRecord
100
AcDbLayerTableRecord
  2
0
 70
     0
 62
     7
  6
Continuous
370
    -3
390
F
  0
LAYER
  5
EA
330
2
100
AcDbSymbolTableRecord
100
AcDbLayerTableRecord
  2
Defpoints
 70
     0
 62
     7
  6
Continuous
290
     0
370
    -3
390
F
  0
ENDTAB
  0
TABLE
  2
STYLE
  5
3
330
0
100
AcDbSymbolTable
 70
     3
  0
STYLE
  5
11
330
3
100
AcDbSymbolTableRecord
100
AcDbTextStyleTableRecord
  2
Standard
 70
     0
 40
0.0
 41
1.0
 50
0.0
 71
     0
 42
2.5
  3
txt
  4
bigfont
  0
STYLE
  5
37
330
3
100
AcDbSymbolTableRecord
100
AcDbTextStyleTableRecord
  2
SLDTEXTSTYLE0
 70
     0
 40
0.0
 41
0.7
 50
0.0
 71
     0
 42
0.2
  3
TXT
  4
bigfont
  0
STYLE
  5
5B
330
3
100
AcDbSymbolTableRecord
100
AcDbTextStyleTableRecord
  2
SLDTEXTSTYLE1
 70
     0
 40
0.0
 41
0.6416666667
 50
0.0
 71
     0
 42
0.2
  3
TXT
  4
bigfont
  0
ENDTAB
  0
TABLE
  2
VIEW
  5
6
330
0
100
AcDbSymbolTable
 70
     0
  0
ENDTAB
  0
TABLE
  2
UCS
  5
7
330
0
100
AcDbSymbolTable
 70
     0
  0
ENDTAB
  0
TABLE
  2
APPID
  5
9
330
0
100
AcDbSymbolTable
 70
     1
  0
APPID
  5
12
330
9
100
AcDbSymbolTableRecord
100
AcDbRegAppTableRecord
  2
ACAD
 70
     0
  0
ENDTAB
  0
TABLE
  2
DIMSTYLE
  5
A
330
0
100
AcDbSymbolTable
 70
     2
100
AcDbDimStyleTable
  0
DIMSTYLE
105
27
330
A
100
AcDbSymbolTableRecord
100
AcDbDimStyleTableRecord
  2
ISO-25
 70
     0
 41
2.5
 42
0.625
 43
3.75
 44
1.25
 73
     0
 74
     0
 77
     1
 78
     8
140
2.5
141
2.5
143
0.0393700787
147
0.625
171
     3
172
     1
271
     2
272
     2
274
     3
278
    44
283
     0
284
     8
340
11
  0
DIMSTYLE
105
F8
102
{ACAD_REACTORS
330
E9
330
105
330
16B
330
17F
102
}
330
A
100
AcDbSymbolTableRecord
100
AcDbDimStyleTableRecord
  2
SLDDIMSTYLE0
 70
     0
 41
3.0
 44
0.0
 73
     0
 74
     0
 77
     3
 78
    12
140
3.5
147
0.875
173
     1
271
     1
272
     3
284
    12
340
37
341
F9
343
F9
344
F9
  0
ENDTAB
  0
TABLE
  2
BLOCK_RECORD
  5
1
330
0
100
AcDbSymbolTable
 70
     7
  0
BLOCK_RECORD
  5
1F
330
1
100
AcDbSymbolTableRecord
100
AcDbBlockTableRecord
  2
*Model_Space
340
22
  0
BLOCK_RECORD
  5
1B
330
1
100
AcDbSymbolTableRecord
100
AcDbBlockTableRecord
  2
*Paper_Space
340
1E
  0
BLOCK_RECORD
  5
23
330
1
100
AcDbSymbolTableRecord
100
AcDbBlockTableRecord
  2
*Paper_Space0
340
26
  0
BLOCK_RECORD
  5
3B
330
1
100
AcDbSymbolTableRecord
100
AcDbBlockTableRecord
  2
SW_TABLEANNOTATION_0
340
0
102
{BLKREFS
331
66
102
}
  0
BLOCK_RECORD
  5
EB
330
1
100
AcDbSymbolTableRecord
100
AcDbBlockTableRecord
  2
*D2
340
0
  0
BLOCK_RECORD
  5
F9
330
1
100
AcDbSymbolTableRecord
100
AcDbBlockTableRecord
  2
_Open30
340
0
102
{BLKREFS
331
F0
331
EF
331
FF
331
100
331
10B
331
10A
331
113
331
114
331
171
331
170
331
179
331
17A
331
185
331
184
331
18C
331
18D
102
}
  0
BLOCK_RECORD
  5
106
330
1
100
AcDbSymbolTableRecord
100
AcDbBlockTableRecord
  2
*D4
340
0
  0
BLOCK_RECORD
  5
16C
330
1
100
AcDbSymbolTableRecord
100
AcDbBlockTableRecord
  2
*D5
340
0
  0
BLOCK_RECORD
  5
180
330
1
100
AcDbSymbolTableRecord
100
AcDbBlockTableRecord
  2
*D6
340
0
  0
ENDTAB
  0
ENDSEC
  0
SECTION
  2
BLOCKS
  0
BLOCK
  5
20
330
1F
100
AcDbEntity
  8
0
100
AcDbBlockBegin
  2
*Model_Space
 70
     0
 71
     0
 10
0.0
 20
0.0
 30
0.0
  3
*Model_Space
  1

  0
ENDBLK
  5
21
330
1F
100
AcDbEntity
  8
0
100
AcDbBlockEnd
  0
BLOCK
  5
1C
330
1B
100
AcDbEntity
 67
     1
  8
0
100
AcDbBlockBegin
  2
*Paper_Space
 70
     0
 71
     0
 10
0.0
 20
0.0
 30
0.0
  3
*Paper_Space
  1

  0
ENDBLK
  5
1D
330
1B
100
AcDbEntity
 67
     1
  8
0
100
AcDbBlockEnd
  0
BLOCK
  5
24
330
23
100
AcDbEntity
  8
0
100
AcDbBlockBegin
  2
*Paper_Space0
 70
     0
 71
     0
 10
0.0
 20
0.0
 30
0.0
  3
*Paper_Space0
  1

  0
ENDBLK
  5
25
330
23
100
AcDbEntity
  8
0
100
AcDbBlockEnd
  0
BLOCK
  5
3C
330
3B
100
AcDbEntity
  8
0
100
AcDbBlockBegin
  2
SW_TABLEANNOTATION_0
 70
     0
 71
     0
 10
0.0
 20
0.0
 30
0.0
  3
SW_TABLEANNOTATION_0
  1

  0
LINE
  5
3E
330
3B
100
AcDbEntity
  8
0
  6
Continuous
 62
     7
370
     0
100
AcDbLine
 10
0.0
 20
0.0
 30
0.0
 11
0.0
 21
-30.48
 31
0.0
  0
LINE
  5
3F
330
3B
100
AcDbEntity
  8
0
  6
Continuous
 62
     7
370
     0
100
AcDbLine
 10
0.0
 20
-30.48
 30
0.0
 11
139.8255754861
 21
-30.48
 31
0.0
  0
LINE
  5
40
330
3B
100
AcDbEntity
  8
0
  6
Continuous
 62
     7
370
     0
100
AcDbLine
 10
139.8255754861
 20
-30.48
 30
0.0
 11
139.8255754861
 21
0.0
 31
0.0
  0
LINE
  5
41
330
3B
100
AcDbEntity
  8
0
  6
Continuous
 62
     7
370
     0
100
AcDbLine
 10
139.8255754861
 20
0.0
 30
0.0
 11
0.0
 21
0.0
 31
0.0
  0
LINE
  5
42
330
3B
100
AcDbEntity
  8
0
  6
Continuous
 62
     7
370
     0
100
AcDbLine
 10
25.6617970927
 20
0.0
 30
0.0
 11
25.6617970927
 21
-5.08
 31
0.0
  0
LINE
  5
43
330
3B
100
AcDbEntity
  8
0
  6
Continuous
 62
     7
370
     0
100
AcDbLine
 10
72.4862490658
 20
0.0
 30
0.0
 11
72.4862490658
 21
-5.08
 31
0.0
  0
LINE
  5
44
330
3B
100
AcDbEntity
  8
0
  6
Continuous
 62
     7
370
     0
100
AcDbLine
 10
119.5451310417
 20
0.0
 30
0.0
 11
119.5451310417
 21
-5.08
 31
0.0
  0
LINE
  5
45
330
3B
100
AcDbEntity
  8
0
  6
Continuous
 62
     7
370
     0
100
AcDbLine
 10
25.6617970927
 20
-5.08
 30
0.0
 11
25.6617970927
 21
-30.48
 31
0.0
  0
LINE
  5
46
330
3B
100
AcDbEntity
  8
0
  6
Continuous
 62
     7
370
     0
100
AcDbLine
 10
72.4862490658
 20
-5.08
 30
0.0
 11
72.4862490658
 21
-30.48
 31
0.0
  0
LINE
  5
47
330
3B
100
AcDbEntity
  8
0
  6
Continuous
 62
     7
370
     0
100
AcDbLine
 10
119.5451310417
 20
-5.08
 30
0.0
 11
119.5451310417
 21
-30.48
 31
0.0
  0
LINE
  5
48
330
3B
100
AcDbEntity
  8
0
  6
Continuous
 62
     7
370
     0
100
AcDbLine
 10
0.0
 20
-10.16
 30
0.0
 11
139.8255754861
 21
-10.16
 31
0.0
  0
LINE
  5
49
330
3B
100
AcDbEntity
  8
0
  6
Continuous
 62
     7
370
     0
100
AcDbLine
 10
0.0
 20
-15.24
 30
0.0
 11
139.8255754861
 21
-15.24
 31
0.0
  0
LINE
  5
4A
330
3B
100
AcDbEntity
  8
0
  6
Continuous
 62
     7
370
     0
100
AcDbLine
 10
0.0
 20
-20.32
 30
0.0
 11
139.8255754861
 21
-20.32
 31
0.0
  0
LINE
  5
4B
330
3B
100
AcDbEntity
  8
0
  6
Continuous
 62
     7
370
     0
100
AcDbLine
 10
0.0
 20
-25.4
 30
0.0
 11
139.8255754861
 21
-25.4
 31
0.0
  0
LINE
  5
4C
330
3B
100
AcDbEntity
  8
0
  6
Continuous
 62
     7
370
     0
100
AcDbLine
 10
0.0
 20
-5.08
 30
0.0
 11
139.8255754861
 21
-5.08
 31
0.0
  0
MTEXT
  5
4D
330
3B
100
AcDbEntity
  8
0
  6
Continuous
 62
     7
370
     0
100
AcDbMText
 10
4.6836765564
 20
-0.9665682
 30
0.0
 40
3.5
 41
0.0
 71
     1
 72
     1
  1
部品番号
  7
SLDTEXTSTYLE0
 73
     1
 44
1.0
  0
MTEXT
  5
4E
330
3B
100
AcDbEntity
  8
0
  6
Continuous
 62
     7
370
     0
100
AcDbMText
 10
38.8899958247
 20
-0.9665682
 30
0.0
 40
3.5
 41
0.0
 71
     1
 72
     1
  1
ファイル名
  7
SLDTEXTSTYLE0
 73
     1
 44
1.0
  0
MTEXT
  5
4F
330
3B
100
AcDbEntity
  8
0
  6
Continuous
 62
     7
370
     0
100
AcDbMText
 10
91.9420790588
 20
-0.9665682
 30
0.0
 40
3.5
 41
0.0
 71
     1
 72
     1
  1
品名
  7
SLDTEXTSTYLE0
 73
     1
 44
1.0
  0
MTEXT
  5
50
330
3B
100
AcDbEntity
  8
0
  6
Continuous
 62
     7
370
     0
100
AcDbMText
 10
125.6117422689
 20
-0.9665682
 30
0.0
 40
3.5
 41
0.0
 71
     1
 72
     1
  1
個数
  7
SLDTEXTSTYLE0
 73
     1
 44
1.0
  0
MTEXT
  5
51
330
3B
100
AcDbEntity
  8
0
  6
Continuous
 62
     7
370
     0
100
AcDbMText
 10
11.8124957976
 20
-6.0465682
 30
0.0
 40
3.5
 41
0.0
 71
     1
 72
     1
  1
1
  7
SLDTEXTSTYLE0
 73
     1
 44
1.0
  0
MTEXT
  5
52
330
3B
100
AcDbEntity
  8
0
  6
Continuous
 62
     7
370
     0
100
AcDbMText
 10
36.8531886974
 20
-6.0465682
 30
0.0
 40
3.5
 41
0.0
 71
     1
 72
     1
  1
N01914-103-0
  7
SLDTEXTSTYLE0
 73
     1
 44
1.0
  0
MTEXT
  5
53
330
3B
100
AcDbEntity
  8
0
  6
Continuous
 62
     7
370
     0
100
AcDbMText
 10
89.9052737941
 20
-6.0465682
 30
0.0
 40
3.5
 41
0.0
 71
     1
 72
     1
  1
Nut M6
  7
SLDTEXTSTYLE0
 73
     1
 44
1.0
  0
MTEXT
  5
54
330
3B
100
AcDbEntity
  8
0
  6
Continuous
 62
     7
370
     0
100
AcDbMText
 10
128.6669505151
 20
-6.0465682
 30
0.0
 40
3.5
 41
0.0
 71
     1
 72
     1
  1
2
  7
SLDTEXTSTYLE0
 73
     1
 44
1.0
  0
MTEXT
  5
55
330
3B
100
AcDbEntity
  8
0
  6
Continuous
 62
     7
370
     0
100
AcDbMText
 10
11.8124957976
 20
-11.1265682
 30
0.0
 40
3.5
 41
0.0
 71
     1
 72
     1
  1
2
  7
SLDTEXTSTYLE0
 73
     1
 44
1.0
  0
MTEXT
  5
56
330
3B
100
AcDbEntity
  8
0
  6
Continuous
 62
     7
370
     0
100
AcDbMText
 10
32.7795790994
 20
-11.1265682
 30
0.0
 40
3.5
 41
0.0
 71
     1
 72
     1
  1
キャップ　ボルト
  7
SLDTEXTSTYLE0
 73
     1
 44
1.0
  0
MTEXT
  5
57
330
3B
100
AcDbEntity
  8
0
  6
Continuous
 62
     7
370
     0
100
AcDbMText
 10
90.9236764265
 20
-11.1265682
 30
0.0
 40
3.5
 41
0.0
 71
     1
 72
     1
  1
M6x15
  7
SLDTEXTSTYLE0
 73
     1
 44
1.0
  0
MTEXT
  5
58
330
3B
100
AcDbEntity
  8
0
  6
Continuous
 62
     7
370
     0
100
AcDbMText
 10
128.6669505151
 20
-11.1265682
 30
0.0
 40
3.5
 41
0.0
 71
     1
 72
     1
  1
2
  7
SLDTEXTSTYLE0
 73
     1
 44
1.0
  0
MTEXT
  5
59
330
3B
100
AcDbEntity
  8
0
  6
Continuous
 62
     7
370
     0
100
AcDbMText
 10
11.8124957976
 20
-16.2065682
 30
0.0
 40
3.5
 41
0.0
 71
     1
 72
     1
  1
3
  7
SLDTEXTSTYLE0
 73
     1
 44
1.0
  0
MTEXT
  5
5A
330
3B
100
AcDbEntity
  8
0
  6
Continuous
 62
     7
370
     0
100
AcDbMText
 10
36.8531886974
 20
-16.2065682
 30
0.0
 40
3.5
 41
0.0
 71
     1
 72
     1
  1
N01911-101-0
  7
SLDTEXTSTYLE0
 73
     1
 44
1.0
  0
MTEXT
  5
5C
330
3B
100
AcDbEntity
  8
0
  6
Continuous
 62
     7
370
     0
100
AcDbMText
 10
81.7580494759
 20
-16.2065682
 30
0.0
 40
3.5
 41
0.0
 71
     1
 72
     1
  1
25 Connecter A
  7
SLDTEXTSTYLE1
 73
     1
 44
1.0
  0
MTEXT
  5
5D
330
3B
100
AcDbEntity
  8
0
  6
Continuous
 62
     7
370
     0
100
AcDbMText
 10
128.6669505151
 20
-16.2065682
 30
0.0
 40
3.5
 41
0.0
 71
     1
 72
     1
  1
2
  7
SLDTEXTSTYLE0
 73
     1
 44
1.0
  0
MTEXT
  5
5E
330
3B
100
AcDbEntity
  8
0
  6
Continuous
 62
     7
370
     0
100
AcDbMText
 10
11.8124957976
 20
-21.2865682
 30
0.0
 40
3.5
 41
0.0
 71
     1
 72
     1
  1
4
  7
SLDTEXTSTYLE0
 73
     1
 44
1.0
  0
MTEXT
  5
5F
330
3B
100
AcDbEntity
  8
0
  6
Continuous
 62
     7
370
     0
100
AcDbMText
 10
36.8531886974
 20
-21.2865682
 30
0.0
 40
3.5
 41
0.0
 71
     1
 72
     1
  1
N01911-102-0
  7
SLDTEXTSTYLE0
 73
     1
 44
1.0
  0
MTEXT
  5
60
330
3B
100
AcDbEntity
  8
0
  6
Continuous
 62
     7
370
     0
100
AcDbMText
 10
81.7580494759
 20
-21.2865682
 30
0.0
 40
3.5
 41
0.0
 71
     1
 72
     1
  1
25 Connecter B
  7
SLDTEXTSTYLE1
 73
     1
 44
1.0
  0
MTEXT
  5
61
330
3B
100
AcDbEntity
  8
0
  6
Continuous
 62
     7
370
     0
100
AcDbMText
 10
128.6669505151
 20
-21.2865682
 30
0.0
 40
3.5
 41
0.0
 71
     1
 72
     1
  1
1
  7
SLDTEXTSTYLE0
 73
     1
 44
1.0
  0
MTEXT
  5
62
330
3B
100
AcDbEntity
  8
0
  6
Continuous
 62
     7
370
     0
100
AcDbMText
 10
11.8124957976
 20
-26.3665682
 30
0.0
 40
3.5
 41
0.0
 71
     1
 72
     1
  1
5
  7
SLDTEXTSTYLE0
 73
     1
 44
1.0
  0
MTEXT
  5
63
330
3B
100
AcDbEntity
  8
0
  6
Continuous
 62
     7
370
     0
100
AcDbMText
 10
32.7795790994
 20
-26.3665682
 30
0.0
 40
3.5
 41
0.0
 71
     1
 72
     1
  1
キャップ　ボルト
  7
SLDTEXTSTYLE0
 73
     1
 44
1.0
  0
MTEXT
  5
64
330
3B
100
AcDbEntity
  8
0
  6
Continuous
 62
     7
370
     0
100
AcDbMText
 10
90.9236764265
 20
-26.3665682
 30
0.0
 40
3.5
 41
0.0
 71
     1
 72
     1
  1
M4x25
  7
SLDTEXTSTYLE0
 73
     1
 44
1.0
  0
MTEXT
  5
65
330
3B
100
AcDbEntity
  8
0
  6
Continuous
 62
     7
370
     0
100
AcDbMText
 10
128.6669505151
 20
-26.3665682
 30
0.0
 40
3.5
 41
0.0
 71
     1
 72
     1
  1
8
  7
SLDTEXTSTYLE0
 73
     1
 44
1.0
  0
ENDBLK
  5
3D
330
3B
100
AcDbEntity
  8
0
100
AcDbBlockEnd
  0
BLOCK
  5
F6
330
EB
100
AcDbEntity
  8
0
100
AcDbBlockBegin
  2
*D2
 70
     1
 71
     0
 10
0.0
 20
0.0
 30
0.0
  3
*D2
  1

  0
INSERT
  5
FF
330
EB
100
AcDbEntity
  8
0
  6
Continuous
 62
     7
370
     0
100
AcDbBlockReference
  2
_Open30
 10
159.9142113494
 20
125.9469326425
 30
0.1
 41
3.0
 42
3.0
 50
270.0
  0
INSERT
  5
100
330
EB
100
AcDbEntity
  8
0
  6
Continuous
 62
     7
370
     0
100
AcDbBlockReference
  2
_Open30
 10
159.9142113494
 20
188.9469326425
 30
0.1
 41
3.0
 42
3.0
 50
90.0
  0
LINE
  5
101
330
EB
100
AcDbEntity
  8
0
  6
Continuous
 62
     7
370
     0
100
AcDbLine
 10
143.7660103627
 20
125.9469326425
 30
0.0
 11
160.9142113494
 21
125.9469326425
 31
0.0
  0
LINE
  5
102
330
EB
100
AcDbEntity
  8
0
  6
Continuous
 62
     7
370
     0
100
AcDbLine
 10
143.7660103627
 20
188.9469326425
 30
0.0
 11
160.9142113494
 21
188.9469326425
 31
0.0
  0
LINE
  5
103
330
EB
100
AcDbEntity
  8
0
  6
Continuous
 62
     7
370
     0
100
AcDbLine
 10
159.9142113494
 20
125.9469326425
 30
0.0
 11
159.9142113494
 21
188.9469326425
 31
0.0
  0
MTEXT
  5
104
330
EB
100
AcDbEntity
  8
0
  6
Continuous
 62
     7
370
     0
100
AcDbMText
 10
155.8414843095
 20
155.411113057
 30
0.0
 40
3.5
 41
0.0
 71
     1
 72
     1
  1
63
  7
SLDTEXTSTYLE0
 11
6.123031769111886E-17
 21
1.0
 31
0.0
 73
     1
 44
1.0
  0
ENDBLK
  5
F7
330
EB
100
AcDbEntity
  8
0
100
AcDbBlockEnd
  0
BLOCK
  5
FA
330
F9
100
AcDbEntity
  8
0
100
AcDbBlockBegin
  2
_Open30
 70
     0
 71
     0
 10
0.0
 20
0.0
 30
0.0
  3
_Open30
  1

  0
LINE
  5
FC
330
F9
100
AcDbEntity
  8
0
  6
ByBlock
 62
     0
370
    -2
100
AcDbLine
 10
-1.0
 20
0.267949
 30
0.0
 11
0.0
 21
0.0
 31
0.0
  0
LINE
  5
FD
330
F9
100
AcDbEntity
  8
0
  6
ByBlock
 62
     0
370
    -2
100
AcDbLine
 10
0.0
 20
0.0
 30
0.0
 11
-1.0
 21
-0.267949
 31
0.0
  0
LINE
  5
FE
330
F9
100
AcDbEntity
  8
0
  6
ByBlock
 62
     0
370
    -2
100
AcDbLine
 10
0.0
 20
0.0
 30
0.0
 11
-1.0
 21
0.0
 31
0.0
  0
ENDBLK
  5
FB
330
F9
100
AcDbEntity
  8
0
100
AcDbBlockEnd
  0
BLOCK
  5
111
330
106
100
AcDbEntity
  8
0
100
AcDbBlockBegin
  2
*D4
 70
     1
 71
     0
 10
0.0
 20
0.0
 30
0.0
  3
*D4
  1

  0
INSERT
  5
113
330
106
100
AcDbEntity
  8
0
  6
Continuous
 62
     7
370
     0
100
AcDbBlockReference
  2
_Open30
 10
169.3932331727
 20
116.8469326425
 30
0.1
 41
3.0
 42
3.0
 50
270.0
  0
INSERT
  5
114
330
106
100
AcDbEntity
  8
0
  6
Continuous
 62
     7
370
     0
100
AcDbBlockReference
  2
_Open30
 10
169.3932331727
 20
198.0469326425
 30
0.1
 41
3.0
 42
3.0
 50
90.0
  0
LINE
  5
115
330
106
100
AcDbEntity
  8
0
  6
Continuous
 62
     7
370
     0
100
AcDbLine
 10
127.6660103627
 20
116.8469326425
 30
0.0
 11
170.3932331727
 21
116.8469326425
 31
0.0
  0
LINE
  5
116
330
106
100
AcDbEntity
  8
0
  6
Continuous
 62
     7
370
     0
100
AcDbLine
 10
127.6660103627
 20
198.0469326425
 30
0.0
 11
170.3932331727
 21
198.0469326425
 31
0.0
  0
LINE
  5
117
330
106
100
AcDbEntity
  8
0
  6
Continuous
 62
     7
370
     0
100
AcDbLine
 10
169.3932331727
 20
116.8469326425
 30
0.0
 11
169.3932331727
 21
198.0469326425
 31
0.0
  0
MTEXT
  5
118
330
106
100
AcDbEntity
  8
0
  6
Continuous
 62
     7
370
     0
100
AcDbMText
 10
165.3205061328
 20
153.3737238342
 30
0.0
 40
3.5
 41
0.0
 71
     1
 72
     1
  1
81.2
  7
SLDTEXTSTYLE0
 11
6.123031769111886E-17
 21
1.0
 31
0.0
 73
     1
 44
1.0
  0
ENDBLK
  5
112
330
106
100
AcDbEntity
  8
0
100
AcDbBlockEnd
  0
BLOCK
  5
177
330
16C
100
AcDbEntity
  8
0
100
AcDbBlockBegin
  2
*D5
 70
     1
 71
     0
 10
0.0
 20
0.0
 30
0.0
  3
*D5
  1

  0
INSERT
  5
179
330
16C
100
AcDbEntity
  8
0
  6
Continuous
 62
     7
370
     0
100
AcDbBlockReference
  2
_Open30
 10
85.0047957985
 20
274.3226632124
 30
0.1
 41
3.0
 42
3.0
 50
90.0
  0
INSERT
  5
17A
330
16C
100
AcDbEntity
  8
0
  6
Continuous
 62
     7
370
     0
100
AcDbBlockReference
  2
_Open30
 10
85.0047957985
 20
233.3226632124
 30
0.1
 41
3.0
 42
3.0
 50
270.0
  0
LINE
  5
17B
330
16C
100
AcDbEntity
  8
0
  6
Continuous
 62
     7
370
     0
100
AcDbLine
 10
100.7660103627
 20
274.3226632124
 30
0.0
 11
84.0047957985
 21
274.3226632124
 31
0.0
  0
LINE
  5
17C
330
16C
100
AcDbEntity
  8
0
  6
Continuous
 62
     7
370
     0
100
AcDbLine
 10
100.7660103627
 20
233.3226632124
 30
0.0
 11
84.0047957985
 21
233.3226632124
 31
0.0
  0
LINE
  5
17D
330
16C
100
AcDbEntity
  8
0
  6
Continuous
 62
     7
370
     0
100
AcDbLine
 10
85.0047957985
 20
274.3226632124
 30
0.0
 11
85.0047957985
 21
233.3226632124
 31
0.0
  0
MTEXT
  5
17E
330
16C
100
AcDbEntity
  8
0
  6
Continuous
 62
     7
370
     0
100
AcDbMText
 10
80.9320687586
 20
251.7868436269
 30
0.0
 40
3.5
 41
0.0
 71
     1
 72
     1
  1
41
  7
SLDTEXTSTYLE0
 11
-7.932375459610008E-15
 21
1.0
 31
0.0
 73
     1
 44
1.0
  0
ENDBLK
  5
178
330
16C
100
AcDbEntity
  8
0
100
AcDbBlockEnd
  0
BLOCK
  5
18A
330
180
100
AcDbEntity
  8
0
100
AcDbBlockBegin
  2
*D6
 70
     1
 71
     0
 10
0.0
 20
0.0
 30
0.0
  3
*D6
  1

  0
INSERT
  5
18C
330
180
100
AcDbEntity
  8
0
  6
Continuous
 62
     7
370
     0
100
AcDbBlockReference
  2
_Open30
 10
101.7660103627
 20
217.0016617353
 30
0.1
 41
3.0
 42
3.0
 50
180.0
  0
INSERT
  5
18D
330
180
100
AcDbEntity
  8
0
  6
Continuous
 62
     7
370
     0
100
AcDbBlockReference
  2
_Open30
 10
142.7660103627
 20
217.0016617353
 30
0.1
 41
3.0
 42
3.0
 50
0.0
  0
LINE
  5
18E
330
180
100
AcDbEntity
  8
0
  6
Continuous
 62
     7
370
     0
100
AcDbLine
 10
101.7660103627
 20
232.3226632124
 30
0.0
 11
101.7660103627
 21
216.0016617353
 31
0.0
  0
LINE
  5
18F
330
180
100
AcDbEntity
  8
0
  6
Continuous
 62
     7
370
     0
100
AcDbLine
 10
142.7660103627
 20
232.3226632124
 30
0.0
 11
142.7660103627
 21
216.0016617353
 31
0.0
  0
LINE
  5
190
330
180
100
AcDbEntity
  8
0
  6
Continuous
 62
     7
370
     0
100
AcDbLine
 10
101.7660103627
 20
217.0016617353
 30
0.0
 11
142.7660103627
 21
217.0016617353
 31
0.0
  0
MTEXT
  5
191
330
180
100
AcDbEntity
  8
0
  6
Continuous
 62
     7
370
     0
100
AcDbMText
 10
120.2301907772
 20
221.0743887752
 30
0.0
 40
3.5
 41
0.0
 71
     1
 72
     1
  1
41
  7
SLDTEXTSTYLE0
 73
     1
 44
1.0
  0
ENDBLK
  5
18B
330
180
100
AcDbEntity
  8
0
100
AcDbBlockEnd
  0
ENDSEC
  0
SECTION
  2
ENTITIES
  0
LINE
  5
2F
330
1F
100
AcDbEntity
  8
0
  6
Continuous
 62
     7
370
     0
100
AcDbLine
 10
20.2604743903
 20
285.0
 30
0.0
 11
196.7604743903
 21
285.0
 31
0.0
  0
LINE
  5
30
330
1F
100
AcDbEntity
  8
0
  6
Continuous
 62
     7
370
     0
100
AcDbLine
 10
20.2604743903
 20
285.0
 30
0.0
 11
20.2604743903
 21
10.0
 31
0.0
  0
LINE
  5
31
330
1F
100
AcDbEntity
  8
0
  6
Continuous
 62
     7
370
     0
100
AcDbLine
 10
20.2604743903
 20
10.0
 30
0.0
 11
196.7604743903
 21
10.0
 31
0.0
  0
LINE
  5
32
330
1F
100
AcDbEntity
  8
0
  6
Continuous
 62
     7
370
     0
100
AcDbLine
 10
196.7604743903
 20
285.0
 30
0.0
 11
196.7604743903
 21
10.0
 31
0.0
  0
LINE
  5
33
330
1F
100
AcDbEntity
  8
0
  6
Continuous
 62
     7
370
     0
100
AcDbLine
 10
127.0104743903
 20
50.75
 30
0.0
 11
196.7604743903
 21
50.75
 31
0.0
  0
LINE
  5
34
330
1F
100
AcDbEntity
  8
0
  6
Continuous
 62
     7
370
     0
100
AcDbLine
 10
127.0104743903
 20
50.75
 30
0.0
 11
127.0104743903
 21
10.0
 31
0.0
  0
LINE
  5
35
330
1F
100
AcDbEntity
  8
0
  6
Continuous
 62
     7
370
     0
100
AcDbLine
 10
127.0104743903
 20
22.75
 30
0.0
 11
196.7604743903
 21
22.75
 31
0.0
  0
LINE
  5
36
330
1F
100
AcDbEntity
  8
0
  6
Continuous
 62
     7
370
     0
100
AcDbLine
 10
127.0104743903
 20
36.75
 30
0.0
 11
196.7604743903
 21
36.75
 31
0.0
  0
MTEXT
  5
38
330
1F
100
AcDbEntity
  8
0
  6
Continuous
 62
     7
370
     0
100
AcDbMText
 10
144.7081327904
 20
29.8861654089
 30
0.0
 40
4.2333333333
 41
0.0
 71
     1
 72
     1
  1
N01911-101_set
  7
SLDTEXTSTYLE0
 73
     1
 44
1.0
  0
MTEXT
  5
39
330
1F
100
AcDbEntity
  8
0
  6
Continuous
 62
     7
370
     0
100
AcDbMText
 10
141.6924732386
 20
43.4099790257
 30
0.0
 40
4.2333333333
 41
0.0
 71
     1
 72
     1
  1
25　コネクタセットA
  7
SLDTEXTSTYLE0
 73
     1
 44
1.0
  0
MTEXT
  5
3A
330
1F
100
AcDbEntity
  8
0
  6
Continuous
 62
     7
370
     0
100
AcDbMText
 10
155.5048510649
 20
16.2918260795
 30
0.0
 40
4.2333333333
 41
0.0
 71
     1
 72
     1
  1
131224
  7
SLDTEXTSTYLE0
 73
     1
 44
1.0
  0
INSERT
  5
66
330
1F
100
AcDbEntity
  8
0
  6
Continuous
 62
     7
370
     0
100
AcDbBlockReference
  2
SW_TABLEANNOTATION_0
 10
48.9930566383
 20
81.23
 30
0.0
  0
LINE
  5
67
330
1F
100
AcDbEntity
  8
0
  6
Continuous
 62
     7
370
    30
100
AcDbLine
 10
129.7660103627
 20
139.3469326425
 30
0.0
 11
124.7660103068
 21
139.3469317246
 31
0.0
  0
LINE
  5
68
330
1F
100
AcDbEntity
  8
0
  6
Continuous
 62
     7
370
    30
100
AcDbLine
 10
119.7660104186
 20
139.3469317246
 30
0.0
 11
114.7660103627
 21
139.3469326425
 31
0.0
  0
LINE
  5
69
330
1F
100
AcDbEntity
  8
0
  6
Continuous
 62
     7
370
    30
100
AcDbLine
 10
114.7660103627
 20
190.5469326425
 30
0.0
 11
114.7660105303
 21
188.9469331491
 31
0.0
  0
LINE
  5
6A
330
1F
100
AcDbEntity
  8
0
  6
Continuous
 62
     7
370
    30
100
AcDbLine
 10
129.7660101951
 20
188.9469331491
 30
0.0
 11
129.7660103627
 21
190.5469326425
 31
0.0
  0
LINE
  5
6B
330
1F
100
AcDbEntity
  8
0
  6
Continuous
 62
     7
370
    30
100
AcDbLine
 10
116.1660103627
 20
192.0469326425
 30
0.0
 11
116.1660104804
 21
190.5469341564
 31
0.0
  0
LINE
  5
6C
330
1F
100
AcDbEntity
  8
0
  6
Continuous
 62
     7
370
    30
100
AcDbLine
 10
128.366010245
 20
190.5469341564
 30
0.0
 11
128.3660103627
 21
192.0469326425
 31
0.0
  0
LINE
  5
6D
330
1F
100
AcDbEntity
  8
0
  6
Continuous
 62
     7
370
    30
100
AcDbLine
 10
127.2660103627
 20
197.4469326425
 30
0.0
 11
126.6660103627
 21
198.0469326425
 31
0.0
  0
LINE
  5
6E
330
1F
100
AcDbEntity
  8
0
  6
Continuous
 62
     7
370
    30
100
AcDbLine
 10
117.8660103627
 20
198.0469326425
 30
0.0
 11
117.2660103627
 21
197.4469326425
 31
0.0
  0
LINE
  5
6F
330
1F
100
AcDbEntity
  8
0
  6
Continuous
 62
     7
370
    30
100
AcDbLine
 10
127.2660102509
 20
192.046933471
 30
0.0
 11
127.2660103627
 21
197.4469326425
 31
0.0
  0
LINE
  5
70
330
1F
100
AcDbEntity
  8
0
  6
Continuous
 62
     7
370
    30
100
AcDbLine
 10
117.2660103627
 20
197.4469326425
 30
0.0
 11
117.2660104745
 21
192.046933471
 31
0.0
  0
LINE
  5
71
330
1F
100
AcDbEntity
  8
0
  6
Continuous
 62
     7
370
    30
100
AcDbLine
 10
119.7660104186
 20
183.9469323296
 30
0.0
 11
119.7660104186
 21
181.8728583294
 31
0.0
  0
LINE
  5
72
330
1F
100
AcDbEntity
  8
0
  6
Continuous
 62
     7
370
    30
100
AcDbLine
 10
119.7660104186
 20
177.1854689706
 30
0.0
 11
119.7660103627
 21
177.0469326425
 31
0.0
  0
LINE
  5
73
330
1F
100
AcDbEntity
  8
0
  6
Continuous
 62
     7
370
    30
100
AcDbLine
 10
124.7660103627
 20
177.0469326425
 30
0.0
 11
124.7660103068
 21
177.1854689706
 31
0.0
  0
LINE
  5
74
330
1F
100
AcDbEntity
  8
0
  6
Continuous
 62
     7
370
    30
100
AcDbLine
 10
124.7660103068
 20
181.8728583294
 30
0.0
 11
124.7660103068
 21
183.9469323296
 31
0.0
  0
LINE
  5
75
330
1F
100
AcDbEntity
  8
0
  6
Continuous
 62
     7
370
    30
100
AcDbLine
 10
129.7660103627
 20
124.3469326425
 30
0.0
 11
129.7660101951
 21
125.9469321358
 31
0.0
  0
LINE
  5
76
330
1F
100
AcDbEntity
  8
0
  6
Continuous
 62
     7
370
    30
100
AcDbLine
 10
114.7660105303
 20
125.9469321358
 30
0.0
 11
114.7660103627
 21
124.3469326425
 31
0.0
  0
LINE
  5
77
330
1F
100
AcDbEntity
  8
0
  6
Continuous
 62
     7
370
    30
100
AcDbLine
 10
128.3660103627
 20
122.8469326425
 30
0.0
 11
128.366010245
 21
124.3469311285
 31
0.0
  0
LINE
  5
78
330
1F
100
AcDbEntity
  8
0
  6
Continuous
 62
     7
370
    30
100
AcDbLine
 10
116.1660104804
 20
124.3469311285
 30
0.0
 11
116.1660103627
 21
122.8469326425
 31
0.0
  0
LINE
  5
79
330
1F
100
AcDbEntity
  8
0
  6
Continuous
 62
     7
370
    30
100
AcDbLine
 10
117.2660104745
 20
122.846931814
 30
0.0
 11
117.2660103627
 21
117.4469326425
 31
0.0
  0
LINE
  5
7A
330
1F
100
AcDbEntity
  8
0
  6
Continuous
 62
     7
370
    30
100
AcDbLine
 10
127.2660103627
 20
117.4469326425
 30
0.0
 11
127.2660102509
 21
122.846931814
 31
0.0
  0
LINE
  5
7B
330
1F
100
AcDbEntity
  8
0
  6
Continuous
 62
     7
370
    30
100
AcDbLine
 10
117.2660103627
 20
117.4469326425
 30
0.0
 11
117.8660103627
 21
116.8469326425
 31
0.0
  0
LINE
  5
7C
330
1F
100
AcDbEntity
  8
0
  6
Continuous
 62
     7
370
    30
100
AcDbLine
 10
126.6660103627
 20
116.8469326425
 30
0.0
 11
127.2660103627
 21
117.4469326425
 31
0.0
  0
LINE
  5
7D
330
1F
100
AcDbEntity
  8
0
  6
Continuous
 62
     7
370
    30
100
AcDbLine
 10
124.7660103068
 20
130.9469329554
 30
0.0
 11
124.7660103068
 21
132.9469332832
 31
0.0
  0
LINE
  5
7E
330
1F
100
AcDbEntity
  8
0
  6
Continuous
 62
     7
370
    30
100
AcDbLine
 10
119.7660104186
 20
132.9469332832
 30
0.0
 11
119.7660104186
 21
130.9469329554
 31
0.0
  0
LINE
  5
7F
330
1F
100
AcDbEntity
  8
0
  6
Continuous
 62
     7
370
    30
100
AcDbLine
 10
109.2660100945
 20
188.9469331491
 30
0.0
 11
109.2660103627
 21
190.5469326425
 31
0.0
  0
LINE
  5
80
330
1F
100
AcDbEntity
  8
0
  6
Continuous
 62
     7
370
    30
100
AcDbLine
 10
102.2660103627
 20
190.5469326425
 30
0.0
 11
102.2660108097
 21
188.9469331491
 31
0.0
  0
LINE
  5
81
330
1F
100
AcDbEntity
  8
0
  6
Continuous
 62
     7
370
    30
100
AcDbLine
 10
109.2660103627
 20
190.5469326425
 30
0.0
 11
108.8660103627
 21
190.9469326425
 31
0.0
  0
LINE
  5
82
330
1F
100
AcDbEntity
  8
0
  6
Continuous
 62
     7
370
    30
100
AcDbLine
 10
102.6660103627
 20
190.9469326425
 30
0.0
 11
102.2660103627
 21
190.5469326425
 31
0.0
  0
LINE
  5
83
330
1F
100
AcDbEntity
  8
0
  6
Continuous
 62
     7
370
    30
100
AcDbLine
 10
104.116010461
 20
171.9469322253
 30
0.0
 11
104.116010461
 21
170.9469329927
 31
0.0
  0
LINE
  5
84
330
1F
100
AcDbEntity
  8
0
  6
Continuous
 62
     7
370
    30
100
AcDbLine
 10
107.4160104432
 20
170.9469329927
 30
0.0
 11
107.4160104432
 21
171.9469322253
 31
0.0
  0
LINE
  5
85
330
1F
100
AcDbEntity
  8
0
  6
Continuous
 62
     7
370
    30
100
AcDbLine
 10
135.2660106309
 20
125.9469321358
 30
0.0
 11
135.2660103627
 21
124.3469326425
 31
0.0
  0
LINE
  5
86
330
1F
100
AcDbEntity
  8
0
  6
Continuous
 62
     7
370
    30
100
AcDbLine
 10
142.2660103627
 20
124.3469326425
 30
0.0
 11
142.2660099157
 21
125.9469321358
 31
0.0
  0
LINE
  5
87
330
1F
100
AcDbEntity
  8
0
  6
Continuous
 62
     7
370
    30
100
AcDbLine
 10
135.2660103627
 20
124.3469326425
 30
0.0
 11
135.6660103627
 21
123.9469326425
 31
0.0
  0
LINE
  5
88
330
1F
100
AcDbEntity
  8
0
  6
Continuous
 62
     7
370
    30
100
AcDbLine
 10
141.8660103627
 20
123.9469326425
 30
0.0
 11
142.2660103627
 21
124.3469326425
 31
0.0
  0
LINE
  5
89
330
1F
100
AcDbEntity
  8
0
  6
Continuous
 62
     7
370
    30
100
AcDbLine
 10
140.4160102643
 20
142.9469330597
 30
0.0
 11
140.4160102643
 21
143.9469322923
 31
0.0
  0
LINE
  5
8A
330
1F
100
AcDbEntity
  8
0
  6
Continuous
 62
     7
370
    30
100
AcDbLine
 10
137.1160102822
 20
143.9469322923
 30
0.0
 11
137.1160102822
 21
142.9469330597
 31
0.0
  0
LINE
  5
8B
330
1F
100
AcDbEntity
  8
0
  6
Continuous
 62
     7
370
    30
100
AcDbLine
 10
142.2660099157
 20
188.9469331491
 30
0.0
 11
142.2660103627
 21
190.5469326425
 31
0.0
  0
LINE
  5
8C
330
1F
100
AcDbEntity
  8
0
  6
Continuous
 62
     7
370
    30
100
AcDbLine
 10
135.2660103627
 20
190.5469326425
 30
0.0
 11
135.2660106309
 21
188.9469331491
 31
0.0
  0
LINE
  5
8D
330
1F
100
AcDbEntity
  8
0
  6
Continuous
 62
     7
370
    30
100
AcDbLine
 10
142.2660103627
 20
190.5469326425
 30
0.0
 11
141.8660103627
 21
190.9469326425
 31
0.0
  0
LINE
  5
8E
330
1F
100
AcDbEntity
  8
0
  6
Continuous
 62
     7
370
    30
100
AcDbLine
 10
135.6660103627
 20
190.9469326425
 30
0.0
 11
135.2660103627
 21
190.5469326425
 31
0.0
  0
LINE
  5
8F
330
1F
100
AcDbEntity
  8
0
  6
Continuous
 62
     7
370
    30
100
AcDbLine
 10
137.1160102822
 20
171.9469322253
 30
0.0
 11
137.1160102822
 21
170.9469329927
 31
0.0
  0
LINE
  5
90
330
1F
100
AcDbEntity
  8
0
  6
Continuous
 62
     7
370
    30
100
AcDbLine
 10
140.4160102643
 20
170.9469329927
 30
0.0
 11
140.4160102643
 21
171.9469322253
 31
0.0
  0
LINE
  5
91
330
1F
100
AcDbEntity
  8
0
  6
Continuous
 62
     7
370
    30
100
AcDbLine
 10
102.2660103627
 20
124.3469326425
 30
0.0
 11
102.6660103627
 21
123.9469326425
 31
0.0
  0
LINE
  5
92
330
1F
100
AcDbEntity
  8
0
  6
Continuous
 62
     7
370
    30
100
AcDbLine
 10
108.8660103627
 20
123.9469326425
 30
0.0
 11
109.2660103627
 21
124.3469326425
 31
0.0
  0
LINE
  5
93
330
1F
100
AcDbEntity
  8
0
  6
Continuous
 62
     7
370
    30
100
AcDbLine
 10
102.2660108097
 20
125.9469321358
 30
0.0
 11
102.2660103627
 21
124.3469326425
 31
0.0
  0
LINE
  5
94
330
1F
100
AcDbEntity
  8
0
  6
Continuous
 62
     7
370
    30
100
AcDbLine
 10
109.2660103627
 20
124.3469326425
 30
0.0
 11
109.2660100945
 21
125.9469321358
 31
0.0
  0
LINE
  5
95
330
1F
100
AcDbEntity
  8
0
  6
Continuous
 62
     7
370
    30
100
AcDbLine
 10
107.4160104432
 20
142.9469330597
 30
0.0
 11
107.4160104432
 21
143.9469322923
 31
0.0
  0
LINE
  5
96
330
1F
100
AcDbEntity
  8
0
  6
Continuous
 62
     7
370
    30
100
AcDbLine
 10
104.116010461
 20
143.9469322923
 30
0.0
 11
104.116010461
 21
142.9469330597
 31
0.0
  0
LINE
  5
97
330
1F
100
AcDbEntity
  8
0
  6
Continuous
 62
     7
370
    30
100
AcDbLine
 10
129.7660103627
 20
133.6669326425
 30
0.0
 11
114.7660103627
 21
133.6669326425
 31
0.0
  0
LINE
  5
98
330
1F
100
AcDbEntity
  8
0
  6
Continuous
 62
     7
370
    30
100
AcDbLine
 10
120.1391650644
 20
138.8547351945
 30
0.0
 11
114.7660103627
 21
138.8547359862
 31
0.0
  0
ARC
  5
99
330
1F
100
AcDbEntity
  8
0
  6
Continuous
 62
     7
370
    30
100
AcDbCircle
 10
122.2660103627
 20
140.2890332837
 30
0.0
 40
2.565283986603523
100
AcDbArc
 50
213.9948675954
 51
326.0051324046
  0
LINE
  5
9A
330
1F
100
AcDbEntity
  8
0
  6
Continuous
 62
     7
370
    30
100
AcDbLine
 10
129.7660103627
 20
138.8547359862
 30
0.0
 11
124.392855661
 21
138.8547351945
 31
0.0
  0
LINE
  5
9B
330
1F
100
AcDbEntity
  8
0
  6
Continuous
 62
     7
370
    30
100
AcDbLine
 10
114.7660103627
 20
138.8547359862
 30
0.0
 11
114.7660103627
 21
133.6669326425
 31
0.0
  0
LINE
  5
9C
330
1F
100
AcDbEntity
  8
0
  6
Continuous
 62
     7
370
    30
100
AcDbLine
 10
129.7660103627
 20
138.8547359862
 30
0.0
 11
129.7660103627
 21
133.6669326425
 31
0.0
  0
LINE
  5
9D
330
1F
100
AcDbEntity
  8
0
  6
Continuous
 62
     7
370
    30
100
AcDbLine
 10
114.7660105303
 20
133.4469324339
 30
0.0
 11
129.7660101951
 21
133.4469324339
 31
0.0
  0
LINE
  5
9E
330
1F
100
AcDbEntity
  8
0
  6
Continuous
 62
     7
370
    30
100
AcDbLine
 10
114.7660103627
 20
133.6669326425
 30
0.0
 11
114.7660105303
 21
133.4469324339
 31
0.0
  0
LINE
  5
9F
330
1F
100
AcDbEntity
  8
0
  6
Continuous
 62
     7
370
    30
100
AcDbLine
 10
129.7660103627
 20
133.6669326425
 30
0.0
 11
129.7660101951
 21
133.4469324339
 31
0.0
  0
LINE
  5
A0
330
1F
100
AcDbEntity
  8
0
  6
Continuous
 62
     7
370
    30
100
AcDbLine
 10
129.7660101951
 20
132.9469332832
 30
0.0
 11
114.7660105303
 21
132.9469332832
 31
0.0
  0
LINE
  5
A1
330
1F
100
AcDbEntity
  8
0
  6
Continuous
 62
     7
370
    30
100
AcDbLine
 10
114.7660105303
 20
132.9469332832
 30
0.0
 11
114.7660105303
 21
133.4469324339
 31
0.0
  0
LINE
  5
A2
330
1F
100
AcDbEntity
  8
0
  6
Continuous
 62
     7
370
    30
100
AcDbLine
 10
129.7660101951
 20
133.4469324339
 30
0.0
 11
129.7660101951
 21
132.9469332832
 31
0.0
  0
ARC
  5
A3
330
1F
100
AcDbEntity
  8
0
  6
Continuous
 62
     7
370
    30
100
AcDbCircle
 10
133.5795801942
 20
132.2774478019
 30
0.0
 40
11.2985227836619
100
AcDbArc
 50
141.2664275367
 51
144.3990161419
  0
ARC
  5
A4
330
1F
100
AcDbEntity
  8
0
  6
Continuous
 62
     7
370
    30
100
AcDbCircle
 10
110.8438967715
 20
132.1951562664
 30
0.0
 40
11.43468426040065
100
AcDbArc
 50
35.6196394796
 51
38.7149168418
  0
LINE
  5
A5
330
1F
100
AcDbEntity
  8
0
  6
Continuous
 62
     7
370
    30
100
AcDbLine
 10
129.7660103627
 20
139.3469326425
 30
0.0
 11
129.7660103627
 21
138.8547359862
 31
0.0
  0
LINE
  5
A6
330
1F
100
AcDbEntity
  8
0
  6
Continuous
 62
     7
370
    30
100
AcDbLine
 10
114.7660103627
 20
139.3469326425
 30
0.0
 11
114.7660103627
 21
138.8547359862
 31
0.0
  0
ARC
  5
A7
330
1F
100
AcDbEntity
  8
0
  6
Continuous
 62
     7
370
    30
100
AcDbCircle
 10
113.0681886229
 20
188.1015560485
 30
0.0
 40
15.99999999999999
100
AcDbArc
 50
311.0705073902
 51
334.5537637246
  0
ARC
  5
A8
330
1F
100
AcDbEntity
  8
0
  6
Continuous
 62
     7
370
    30
100
AcDbCircle
 10
122.2660103627
 20
177.5469326425
 30
0.0
 40
2.000000000000023
100
AcDbArc
 50
228.9294926098
 51
311.0705073902
  0
ARC
  5
A9
330
1F
100
AcDbEntity
  8
0
  6
Continuous
 62
     7
370
    30
100
AcDbCircle
 10
131.4638321025
 20
188.1015560485
 30
0.0
 40
16.0
100
AcDbArc
 50
205.4462362754
 51
228.9294926098
  0
LINE
  5
AA
330
1F
100
AcDbEntity
  8
0
  6
Continuous
 62
     7
370
    30
100
AcDbLine
 10
117.0160104335
 20
181.4469328511
 30
0.0
 11
117.0160103627
 21
181.2269326425
 31
0.0
  0
LINE
  5
AB
330
1F
100
AcDbEntity
  8
0
  6
Continuous
 62
     7
370
    30
100
AcDbLine
 10
117.5160105154
 20
181.9469320017
 30
0.0
 11
117.0160104335
 21
181.4469328511
 31
0.0
  0
LINE
  5
AC
330
1F
100
AcDbEntity
  8
0
  6
Continuous
 62
     7
370
    30
100
AcDbLine
 10
119.5660102927
 20
181.9469320017
 30
0.0
 11
117.5160105154
 21
181.9469320017
 31
0.0
  0
LINE
  5
AD
330
1F
100
AcDbEntity
  8
0
  6
Continuous
 62
     7
370
    30
100
AcDbLine
 10
122.2660103627
 20
180.9469318378
 30
0.0
 11
119.5660102927
 21
181.9469320017
 31
0.0
  0
LINE
  5
AE
330
1F
100
AcDbEntity
  8
0
  6
Continuous
 62
     7
370
    30
100
AcDbLine
 10
124.9660104327
 20
181.9469320017
 30
0.0
 11
122.2660103627
 21
180.9469318378
 31
0.0
  0
LINE
  5
AF
330
1F
100
AcDbEntity
  8
0
  6
Continuous
 62
     7
370
    30
100
AcDbLine
 10
127.01601021
 20
181.9469320017
 30
0.0
 11
124.9660104327
 21
181.9469320017
 31
0.0
  0
LINE
  5
B0
330
1F
100
AcDbEntity
  8
0
  6
Continuous
 62
     7
370
    30
100
AcDbLine
 10
127.5160102919
 20
181.4469328511
 30
0.0
 11
127.01601021
 21
181.9469320017
 31
0.0
  0
LINE
  5
B1
330
1F
100
AcDbEntity
  8
0
  6
Continuous
 62
     7
370
    30
100
AcDbLine
 10
127.5160103627
 20
181.2269326425
 30
0.0
 11
127.5160102919
 21
181.4469328511
 31
0.0
  0
LINE
  5
B2
330
1F
100
AcDbEntity
  8
0
  6
Continuous
 62
     7
370
    30
100
AcDbLine
 10
101.7660097965
 20
142.9469330597
 30
0.0
 11
109.7660101764
 21
142.9469330597
 31
0.0
  0
LINE
  5
B3
330
1F
100
AcDbEntity
  8
0
  6
Continuous
 62
     7
370
    30
100
AcDbLine
 10
109.7660101764
 20
142.9469330597
 30
0.0
 11
109.7660101764
 21
130.9469329554
 31
0.0
  0
LINE
  5
B4
330
1F
100
AcDbEntity
  8
0
  6
Continuous
 62
     7
370
    30
100
AcDbLine
 10
134.766010549
 20
130.9469329554
 30
0.0
 11
109.7660101764
 21
130.9469329554
 31
0.0
  0
LINE
  5
B5
330
1F
100
AcDbEntity
  8
0
  6
Continuous
 62
     7
370
    30
100
AcDbLine
 10
134.766010549
 20
142.9469330597
 30
0.0
 11
134.766010549
 21
130.9469329554
 31
0.0
  0
LINE
  5
B6
330
1F
100
AcDbEntity
  8
0
  6
Continuous
 62
     7
370
    30
100
AcDbLine
 10
134.766010549
 20
142.9469330597
 30
0.0
 11
142.7660109289
 21
142.9469330597
 31
0.0
  0
LINE
  5
B7
330
1F
100
AcDbEntity
  8
0
  6
Continuous
 62
     7
370
    30
100
AcDbLine
 10
142.7660109289
 20
125.9469321358
 30
0.0
 11
142.7660109289
 21
142.9469330597
 31
0.0
  0
LINE
  5
B8
330
1F
100
AcDbEntity
  8
0
  6
Continuous
 62
     7
370
    30
100
AcDbLine
 10
142.7660109289
 20
125.9469321358
 30
0.0
 11
101.7660097965
 21
125.9469321358
 31
0.0
  0
LINE
  5
B9
330
1F
100
AcDbEntity
  8
0
  6
Continuous
 62
     7
370
    30
100
AcDbLine
 10
101.7660097965
 20
125.9469321358
 30
0.0
 11
101.7660097965
 21
142.9469330597
 31
0.0
  0
LINE
  5
BA
330
1F
100
AcDbEntity
  8
0
  6
Continuous
 62
     7
370
    30
100
AcDbLine
 10
142.7660109289
 20
171.9469322253
 30
0.0
 11
134.766010549
 21
171.9469322253
 31
0.0
  0
LINE
  5
BB
330
1F
100
AcDbEntity
  8
0
  6
Continuous
 62
     7
370
    30
100
AcDbLine
 10
134.766010549
 20
171.9469322253
 30
0.0
 11
134.766010549
 21
183.9469323296
 31
0.0
  0
LINE
  5
BC
330
1F
100
AcDbEntity
  8
0
  6
Continuous
 62
     7
370
    30
100
AcDbLine
 10
109.7660101764
 20
183.9469323296
 30
0.0
 11
134.766010549
 21
183.9469323296
 31
0.0
  0
LINE
  5
BD
330
1F
100
AcDbEntity
  8
0
  6
Continuous
 62
     7
370
    30
100
AcDbLine
 10
109.7660101764
 20
171.9469322253
 30
0.0
 11
109.7660101764
 21
183.9469323296
 31
0.0
  0
LINE
  5
BE
330
1F
100
AcDbEntity
  8
0
  6
Continuous
 62
     7
370
    30
100
AcDbLine
 10
109.7660101764
 20
171.9469322253
 30
0.0
 11
101.7660097965
 21
171.9469322253
 31
0.0
  0
LINE
  5
BF
330
1F
100
AcDbEntity
  8
0
  6
Continuous
 62
     7
370
    30
100
AcDbLine
 10
142.7660109289
 20
188.9469331491
 30
0.0
 11
142.7660109289
 21
171.9469322253
 31
0.0
  0
LINE
  5
C0
330
1F
100
AcDbEntity
  8
0
  6
Continuous
 62
     7
370
    30
100
AcDbLine
 10
101.7660097965
 20
188.9469331491
 30
0.0
 11
142.7660109289
 21
188.9469331491
 31
0.0
  0
LINE
  5
C1
330
1F
100
AcDbEntity
  8
0
  6
Continuous
 62
     7
370
    30
100
AcDbLine
 10
101.7660097965
 20
188.9469331491
 30
0.0
 11
101.7660097965
 21
171.9469322253
 31
0.0
  0
LINE
  5
C2
330
1F
100
AcDbEntity
  8
0
  6
Continuous
 62
     7
370
    30
100
AcDbLine
 10
101.7660097965
 20
170.9469329927
 30
0.0
 11
109.7660101764
 21
170.9469329927
 31
0.0
  0
LINE
  5
C3
330
1F
100
AcDbEntity
  8
0
  6
Continuous
 62
     7
370
    30
100
AcDbLine
 10
109.7660101764
 20
170.9469329927
 30
0.0
 11
109.7660101764
 21
158.9469326555
 31
0.0
  0
LINE
  5
C4
330
1F
100
AcDbEntity
  8
0
  6
Continuous
 62
     7
370
    30
100
AcDbLine
 10
134.766010549
 20
158.9469326555
 30
0.0
 11
109.7660101764
 21
158.9469326555
 31
0.0
  0
LINE
  5
C5
330
1F
100
AcDbEntity
  8
0
  6
Continuous
 62
     7
370
    30
100
AcDbLine
 10
134.766010549
 20
170.9469329927
 30
0.0
 11
134.766010549
 21
158.9469326555
 31
0.0
  0
LINE
  5
C6
330
1F
100
AcDbEntity
  8
0
  6
Continuous
 62
     7
370
    30
100
AcDbLine
 10
134.766010549
 20
170.9469329927
 30
0.0
 11
142.7660109289
 21
170.9469329927
 31
0.0
  0
LINE
  5
C7
330
1F
100
AcDbEntity
  8
0
  6
Continuous
 62
     7
370
    30
100
AcDbLine
 10
142.7660109289
 20
143.9469322923
 30
0.0
 11
142.7660109289
 21
170.9469329927
 31
0.0
  0
LINE
  5
C8
330
1F
100
AcDbEntity
  8
0
  6
Continuous
 62
     7
370
    30
100
AcDbLine
 10
134.766010549
 20
143.9469322923
 30
0.0
 11
142.7660109289
 21
143.9469322923
 31
0.0
  0
LINE
  5
C9
330
1F
100
AcDbEntity
  8
0
  6
Continuous
 62
     7
370
    30
100
AcDbLine
 10
134.766010549
 20
155.9469326294
 30
0.0
 11
134.766010549
 21
143.9469322923
 31
0.0
  0
LINE
  5
CA
330
1F
100
AcDbEntity
  8
0
  6
Continuous
 62
     7
370
    30
100
AcDbLine
 10
109.7660101764
 20
155.9469326294
 30
0.0
 11
109.7660101764
 21
143.9469322923
 31
0.0
  0
LINE
  5
CB
330
1F
100
AcDbEntity
  8
0
  6
Continuous
 62
     7
370
    30
100
AcDbLine
 10
101.7660097965
 20
143.9469322923
 30
0.0
 11
109.7660101764
 21
143.9469322923
 31
0.0
  0
LINE
  5
CC
330
1F
100
AcDbEntity
  8
0
  6
Continuous
 62
     7
370
    30
100
AcDbLine
 10
101.7660097965
 20
143.9469322923
 30
0.0
 11
101.7660097965
 21
170.9469329927
 31
0.0
  0
LINE
  5
CD
330
1F
100
AcDbEntity
  8
0
  6
Continuous
 62
     7
370
    30
100
AcDbLine
 10
134.766010549
 20
155.9469326294
 30
0.0
 11
109.7660101764
 21
155.9469326294
 31
0.0
  0
LINE
  5
CE
330
1F
100
AcDbEntity
  8
0
  6
Continuous
 62
     7
370
    30
100
AcDbLine
 10
122.29900355
 20
190.5469326425
 30
0.0
 11
114.7660103627
 21
190.5469326425
 31
0.0
  0
LINE
  5
CF
330
1F
100
AcDbEntity
  8
0
  6
Continuous
 62
     7
370
    30
100
AcDbLine
 10
129.7660103627
 20
190.5469326425
 30
0.0
 11
122.29900355
 21
190.5469326425
 31
0.0
  0
LINE
  5
D0
330
1F
100
AcDbEntity
  8
0
  6
Continuous
 62
     7
370
    30
100
AcDbLine
 10
122.2928448217
 20
192.0469326425
 30
0.0
 11
116.1660103627
 21
192.0469326425
 31
0.0
  0
LINE
  5
D1
330
1F
100
AcDbEntity
  8
0
  6
Continuous
 62
     7
370
    30
100
AcDbLine
 10
128.3660103627
 20
192.0469326425
 30
0.0
 11
122.2928448217
 21
192.0469326425
 31
0.0
  0
LINE
  5
D2
330
1F
100
AcDbEntity
  8
0
  6
Continuous
 62
     7
370
    30
100
AcDbLine
 10
117.8660103627
 20
198.0469326425
 30
0.0
 11
126.6660103627
 21
198.0469326425
 31
0.0
  0
LINE
  5
D3
330
1F
100
AcDbEntity
  8
0
  6
Continuous
 62
     7
370
    30
100
AcDbLine
 10
127.2660103627
 20
197.4469326425
 30
0.0
 11
117.2660103627
 21
197.4469326425
 31
0.0
  0
LINE
  5
D4
330
1F
100
AcDbEntity
  8
0
  6
Continuous
 62
     7
370
    30
100
AcDbLine
 10
119.8968402139
 20
177.0469326425
 30
0.0
 11
119.7660103627
 21
177.0469326425
 31
0.0
  0
LINE
  5
D5
330
1F
100
AcDbEntity
  8
0
  6
Continuous
 62
     7
370
    30
100
AcDbLine
 10
124.7660103627
 20
177.0469326425
 30
0.0
 11
124.6351805115
 21
177.0469326425
 31
0.0
  0
LINE
  5
D6
330
1F
100
AcDbEntity
  8
0
  6
Continuous
 62
     7
370
    30
100
AcDbLine
 10
114.8904762516
 20
124.3469326425
 30
0.0
 11
129.7660103627
 21
124.3469326425
 31
0.0
  0
LINE
  5
D7
330
1F
100
AcDbEntity
  8
0
  6
Continuous
 62
     7
370
    30
100
AcDbLine
 10
114.7660103627
 20
124.3469326425
 30
0.0
 11
114.8904762516
 21
124.3469326425
 31
0.0
  0
LINE
  5
D8
330
1F
100
AcDbEntity
  8
0
  6
Continuous
 62
     7
370
    30
100
AcDbLine
 10
116.267242619
 20
122.8469326425
 30
0.0
 11
128.3660103627
 21
122.8469326425
 31
0.0
  0
LINE
  5
D9
330
1F
100
AcDbEntity
  8
0
  6
Continuous
 62
     7
370
    30
100
AcDbLine
 10
116.1660103627
 20
122.8469326425
 30
0.0
 11
116.267242619
 21
122.8469326425
 31
0.0
  0
LINE
  5
DA
330
1F
100
AcDbEntity
  8
0
  6
Continuous
 62
     7
370
    30
100
AcDbLine
 10
117.2660103627
 20
117.4469326425
 30
0.0
 11
127.2660103627
 21
117.4469326425
 31
0.0
  0
LINE
  5
DB
330
1F
100
AcDbEntity
  8
0
  6
Continuous
 62
     7
370
    30
100
AcDbLine
 10
126.6660103627
 20
116.8469326425
 30
0.0
 11
117.8660103627
 21
116.8469326425
 31
0.0
  0
LINE
  5
DC
330
1F
100
AcDbEntity
  8
0
  6
Continuous
 62
     7
370
    30
100
AcDbLine
 10
121.4535871326
 20
137.8469326425
 30
0.0
 11
123.0327843332
 21
137.8469326425
 31
0.0
  0
LINE
  5
DD
330
1F
100
AcDbEntity
  8
0
  6
Continuous
 62
     7
370
    30
100
AcDbLine
 10
109.2660103627
 20
190.5469326425
 30
0.0
 11
102.2660103627
 21
190.5469326425
 31
0.0
  0
LINE
  5
DE
330
1F
100
AcDbEntity
  8
0
  6
Continuous
 62
     7
370
    30
100
AcDbLine
 10
102.6660103627
 20
190.9469326425
 30
0.0
 11
108.8660103627
 21
190.9469326425
 31
0.0
  0
LINE
  5
DF
330
1F
100
AcDbEntity
  8
0
  6
Continuous
 62
     7
370
    30
100
AcDbLine
 10
135.532962288
 20
124.3469326425
 30
0.0
 11
142.2660103627
 21
124.3469326425
 31
0.0
  0
LINE
  5
E0
330
1F
100
AcDbEntity
  8
0
  6
Continuous
 62
     7
370
    30
100
AcDbLine
 10
135.2660103627
 20
124.3469326425
 30
0.0
 11
135.532962288
 21
124.3469326425
 31
0.0
  0
LINE
  5
E1
330
1F
100
AcDbEntity
  8
0
  6
Continuous
 62
     7
370
    30
100
AcDbLine
 10
135.9024534965
 20
123.9469326425
 30
0.0
 11
135.6660103627
 21
123.9469326425
 31
0.0
  0
LINE
  5
E2
330
1F
100
AcDbEntity
  8
0
  6
Continuous
 62
     7
370
    30
100
AcDbLine
 10
141.8660103627
 20
123.9469326425
 30
0.0
 11
135.9024534965
 21
123.9469326425
 31
0.0
  0
LINE
  5
E3
330
1F
100
AcDbEntity
  8
0
  6
Continuous
 62
     7
370
    30
100
AcDbLine
 10
142.2660103627
 20
190.5469326425
 30
0.0
 11
135.2660103627
 21
190.5469326425
 31
0.0
  0
LINE
  5
E4
330
1F
100
AcDbEntity
  8
0
  6
Continuous
 62
     7
370
    30
100
AcDbLine
 10
135.6660103627
 20
190.9469326425
 30
0.0
 11
141.8660103627
 21
190.9469326425
 31
0.0
  0
LINE
  5
E5
330
1F
100
AcDbEntity
  8
0
  6
Continuous
 62
     7
370
    30
100
AcDbLine
 10
102.9024534965
 20
123.9469326425
 30
0.0
 11
102.6660103627
 21
123.9469326425
 31
0.0
  0
LINE
  5
E6
330
1F
100
AcDbEntity
  8
0
  6
Continuous
 62
     7
370
    30
100
AcDbLine
 10
108.8660103627
 20
123.9469326425
 30
0.0
 11
102.9024534965
 21
123.9469326425
 31
0.0
  0
LINE
  5
E7
330
1F
100
AcDbEntity
  8
0
  6
Continuous
 62
     7
370
    30
100
AcDbLine
 10
102.532962288
 20
124.3469326425
 30
0.0
 11
109.2660103627
 21
124.3469326425
 31
0.0
  0
LINE
  5
E8
330
1F
100
AcDbEntity
  8
0
  6
Continuous
 62
     7
370
    30
100
AcDbLine
 10
102.2660103627
 20
124.3469326425
 30
0.0
 11
102.532962288
 21
124.3469326425
 31
0.0
  0
DIMENSION
  5
E9
330
1F
100
AcDbEntity
  8
0
  6
Continuous
 62
     7
370
     0
100
AcDbDimension
  2
*D2
 10
159.9142113494
 20
188.9469326425
 30
0.0
 11
159.9142113494
 21
157.4469326425
 31
0.0
 70
   160
 71
     1
 42
63.0
  3
SLDDIMSTYLE0
100
AcDbAlignedDimension
 13
142.7660103627
 23
125.9469326425
 33
0.0
 14
142.7660103627
 24
188.9469326425
 34
0.0
 50
90.0
100
AcDbRotatedDimension
1001
ACAD
1000
DSTYLE
1002
{
1070
    77
1070
     3
1070
   143
1040
0.0393700787
1070
    41
1040
3.0
1070
    44
1040
1.0
1070
    42
1040
1.0
1070
   147
1040
1.524
1070
    73
1070
     0
1070
    74
1070
     0
1070
   140
1040
3.5
1070
   284
1070
    12
1070
    78
1070
    12
1002
}
  0
DIMENSION
  5
105
330
1F
100
AcDbEntity
  8
0
  6
Continuous
 62
     7
370
     0
100
AcDbDimension
  2
*D4
 10
169.3932331727
 20
198.0469326425
 30
0.0
 11
169.3932331727
 21
157.4469326425
 31
0.0
 70
   160
 71
     1
 42
81.2
  3
SLDDIMSTYLE0
100
AcDbAlignedDimension
 13
126.6660103627
 23
116.8469326425
 33
0.0
 14
126.6660103627
 24
198.0469326425
 34
0.0
 50
90.0
100
AcDbRotatedDimension
1001
ACAD
1000
DSTYLE
1002
{
1070
    77
1070
     3
1070
   143
1040
0.0393700787
1070
    41
1040
3.0
1070
    44
1040
1.0
1070
    42
1040
1.0
1070
   147
1040
1.524
1070
    73
1070
     0
1070
    74
1070
     0
1070
   140
1040
3.5
1070
   284
1070
    12
1070
    78
1070
    12
1002
}
  0
LINE
  5
119
330
1F
100
AcDbEntity
  8
0
  6
Continuous
 62
     7
370
    30
100
AcDbLine
 10
122.2660103627
 20
256.3226631566
 30
0.0
 11
122.2660103627
 21
256.7021291426
 31
0.0
  0
ARC
  5
11A
330
1F
100
AcDbEntity
  8
0
  6
Continuous
 62
     7
370
    30
100
AcDbCircle
 10
122.2660103627
 20
253.8226632124
 30
0.0
 40
2.499999999999998
100
AcDbArc
 50
0.2520501977
 51
60.2520501977
  0
LINE
  5
11B
330
1F
100
AcDbEntity
  8
0
  6
Continuous
 62
     7
370
    30
100
AcDbLine
 10
101.7660097965
 20
233.3226626462
 30
0.0
 11
142.7660109289
 21
233.3226626462
 31
0.0
  0
CIRCLE
  5
11C
330
1F
100
AcDbEntity
  8
0
  6
Continuous
 62
     7
370
    30
100
AcDbCircle
 10
105.7660103627
 20
237.3226632124
 30
0.0
 40
3.75
  0
CIRCLE
  5
11D
330
1F
100
AcDbEntity
  8
0
  6
Continuous
 62
     7
370
    30
100
AcDbCircle
 10
138.7660103627
 20
237.3226632124
 30
0.0
 40
3.75
  0
LINE
  5
11E
330
1F
100
AcDbEntity
  8
0
  6
Continuous
 62
     7
370
    30
100
AcDbLine
 10
142.7660109289
 20
233.3226626462
 30
0.0
 11
142.7660109289
 21
274.3226637787
 31
0.0
  0
LINE
  5
11F
330
1F
100
AcDbEntity
  8
0
  6
Continuous
 62
     7
370
    30
100
AcDbLine
 10
142.7660109289
 20
274.3226637787
 30
0.0
 11
101.7660097965
 21
274.3226637787
 31
0.0
  0
CIRCLE
  5
120
330
1F
100
AcDbEntity
  8
0
  6
Continuous
 62
     7
370
    30
100
AcDbCircle
 10
138.7660103627
 20
270.3226632124
 30
0.0
 40
3.75
  0
LINE
  5
121
330
1F
100
AcDbEntity
  8
0
  6
Continuous
 62
     7
370
    30
100
AcDbLine
 10
101.7660097965
 20
274.3226637787
 30
0.0
 11
101.7660097965
 21
233.3226626462
 31
0.0
  0
CIRCLE
  5
122
330
1F
100
AcDbEntity
  8
0
  6
Continuous
 62
     7
370
    30
100
AcDbCircle
 10
105.7660103627
 20
270.3226632124
 30
0.0
 40
3.75
  0
CIRCLE
  5
123
330
1F
100
AcDbEntity
  8
0
  6
Continuous
 62
     7
370
    30
100
AcDbCircle
 10
122.2660103627
 20
253.8226632124
 30
0.0
 40
4.400000000000014
  0
CIRCLE
  5
124
330
1F
100
AcDbEntity
  8
0
  6
Continuous
 62
     7
370
    30
100
AcDbCircle
 10
122.2660103627
 20
253.8226632124
 30
0.0
 40
4.999999999999969
  0
LINE
  5
125
330
1F
100
AcDbEntity
  8
0
  6
Continuous
 62
     7
370
    30
100
AcDbLine
 10
122.2533112792
 20
256.7093867066
 30
0.0
 11
119.7596851085
 21
255.2550272041
 31
0.0
  0
LINE
  5
126
330
1F
100
AcDbEntity
  8
0
  6
Continuous
 62
     7
370
    30
100
AcDbLine
 10
119.7596851085
 20
255.2550272041
 30
0.0
 11
119.7723841574
 21
252.3683038263
 31
0.0
  0
LINE
  5
127
330
1F
100
AcDbEntity
  8
0
  6
Continuous
 62
     7
370
    30
100
AcDbLine
 10
119.7723841574
 20
252.3683038263
 30
0.0
 11
122.2787094462
 21
250.9359397183
 31
0.0
  0
LINE
  5
128
330
1F
100
AcDbEntity
  8
0
  6
Continuous
 62
     7
370
    30
100
AcDbLine
 10
122.2787094462
 20
250.9359397183
 30
0.0
 11
124.7723356169
 21
252.3902992208
 31
0.0
  0
LINE
  5
129
330
1F
100
AcDbEntity
  8
0
  6
Continuous
 62
     7
370
    30
100
AcDbLine
 10
124.7723356169
 20
252.3902992208
 30
0.0
 11
124.7596365679
 21
255.2770225986
 31
0.0
  0
LINE
  5
12A
330
1F
100
AcDbEntity
  8
0
  6
Continuous
 62
     7
370
    30
100
AcDbLine
 10
124.7596365679
 20
255.2770225986
 30
0.0
 11
122.2533112792
 21
256.7093867066
 31
0.0
  0
SPLINE
  5
12B
330
1F
100
AcDbEntity
  8
0
  6
Continuous
 62
     7
370
    30
100
AcDbSpline
210
0.0
220
0.0
230
1.0
 70
    12
 71
     3
 72
    13
 73
     9
 74
     0
 42
0.00000001
 43
0.00000001
 40
0.0
 40
0.0
 40
0.0
 40
0.0
 40
0.3710475798341286
 40
0.6480768147838726
 40
0.755292762911029
 40
0.8455480942523835
 40
0.9244082284921189
 40
1.0
 40
1.0
 40
1.0
 40
1.0
 10
122.2660103626944
 20
253.8226632124348
 30
0.0
 41
1.0
 10
122.6145631604466
 20
254.0259499271415
 30
0.0
 41
1.0
 10
123.2233502789403
 20
254.3810133036871
 30
0.0
 41
1.0
 10
123.927689503384
 20
254.7918055076823
 30
0.0
 41
1.0
 10
124.3412967553552
 20
255.0330339612223
 30
0.0
 41
1.0
 10
124.5557983889347
 20
255.1581379699125
 30
0.0
 41
1.0
 10
124.7070685900945
 20
255.2463632881473
 30
0.0
 41
1.0
 10
124.7423628631524
 20
255.2669480265644
 30
0.0
 41
1.0
 10
124.7596365679449
 20
255.2770225985513
 30
0.0
 41
1.0
  0
SPLINE
  5
12C
330
1F
100
AcDbEntity
  8
0
  6
Continuous
 62
     7
370
    30
100
AcDbSpline
210
0.0
220
0.0
230
1.0
 70
    12
 71
     3
 72
    13
 73
     9
 74
     0
 42
0.00000001
 43
0.00000001
 40
0.0
 40
0.0
 40
0.0
 40
0.0
 40
0.0755917815548707
 40
0.1544519133448036
 40
0.2447072673450975
 40
0.351923234069255
 40
0.6289524370241003
 40
1.0
 40
1.0
 40
1.0
 40
1.0
 10
122.2533112791673
 20
256.7093867065923
 30
0.0
 41
1.0
 10
122.2533992476341
 20
256.6893899044849
 30
0.0
 41
1.0
 10
122.2535789880467
 20
256.6485317016126
 30
0.0
 41
1.0
 10
122.2543493479156
 20
256.4734152390726
 30
0.0
 41
1.0
 10
122.2554417244254
 20
256.225099261008
 30
0.0
 41
1.0
 10
122.2575480662569
 20
255.7462906363567
 30
0.0
 41
1.0
 10
122.2611349972348
 20
254.9309188946895
 30
0.0
 41
1.0
 10
122.2642353167838
 20
254.2261621363551
 30
0.0
 41
1.0
 10
122.2660103626944
 20
253.8226632124348
 30
0.0
 41
1.0
  0
SPLINE
  5
12D
330
1F
100
AcDbEntity
  8
0
  6
Continuous
 62
     7
370
    30
100
AcDbSpline
210
0.0
220
0.0
230
1.0
 70
    12
 71
     3
 72
    13
 73
     9
 74
     0
 42
0.00000001
 43
0.00000001
 40
0.0
 40
0.0
 40
0.0
 40
0.0
 40
0.0755917798254455
 40
0.1544518808435177
 40
0.2447072317746442
 40
0.351923184708821
 40
0.6289524222898812
 40
1.0
 40
1.0
 40
1.0
 40
1.0
 10
124.7723356169111
 20
252.3902992208095
 30
0.0
 41
1.0
 10
124.7549739112591
 20
252.4002214618664
 30
0.0
 41
1.0
 10
124.719499841211
 20
252.4204949465887
 30
0.0
 41
1.0
 10
124.5674595151618
 20
252.5073858938407
 30
0.0
 41
1.0
 10
124.3518654349004
 20
252.6305979550521
 30
0.0
 41
1.0
 10
123.9361517624356
 20
252.8681779326377
 30
0.0
 41
1.0
 10
123.2282256622084
 20
253.2727575608059
 30
0.0
 41
1.0
 10
122.6163382113576
 20
253.6224509896608
 30
0.0
 41
1.0
 10
122.2660103626944
 20
253.8226632124348
 30
0.0
 41
1.0
  0
SPLINE
  5
12E
330
1F
100
AcDbEntity
  8
0
  6
Continuous
 62
     7
370
    30
100
AcDbSpline
210
0.0
220
0.0
230
1.0
 70
    12
 71
     3
 72
    13
 73
     9
 74
     0
 42
0.00000001
 43
0.00000001
 40
0.0
 40
0.0
 40
0.0
 40
0.0
 40
0.075591779825434
 40
0.1544518808434943
 40
0.2447072317746072
 40
0.3519231847087677
 40
0.6289524222897861
 40
0.9999999999999999
 40
0.9999999999999999
 40
0.9999999999999999
 40
0.9999999999999999
 10
119.7596851084775
 20
255.2550272040607
 30
0.0
 41
1.0
 10
119.7770468141294
 20
255.2451049630037
 30
0.0
 41
1.0
 10
119.8125208841776
 20
255.2248314782815
 30
0.0
 41
1.0
 10
119.9645612102268
 20
255.1379405310294
 30
0.0
 41
1.0
 10
120.1801552904881
 20
255.014728469818
 30
0.0
 41
1.0
 10
120.595868962953
 20
254.7771484922325
 30
0.0
 41
1.0
 10
121.3037950631804
 20
254.3725688640642
 30
0.0
 41
1.0
 10
121.9156825140312
 20
254.022875435209
 30
0.0
 41
1.0
 10
122.2660103626944
 20
253.8226632124348
 30
0.0
 41
1.0
  0
SPLINE
  5
12F
330
1F
100
AcDbEntity
  8
0
  6
Continuous
 62
     7
370
    30
100
AcDbSpline
210
0.0
220
0.0
230
1.0
 70
    12
 71
     3
 72
    13
 73
     9
 74
     0
 42
0.00000001
 43
0.00000001
 40
0.0
 40
0.0
 40
0.0
 40
0.0
 40
0.0755917715078822
 40
0.1544519057476186
 40
0.2447072370889742
 40
0.351923185216132
 40
0.6289524201658795
 40
1.0
 40
1.0
 40
1.0
 40
1.0
 10
119.7723841574437
 20
252.3683038263188
 30
0.0
 41
1.0
 10
119.7896578622362
 20
252.3783783983057
 30
0.0
 41
1.0
 10
119.8249521352941
 20
252.3989631367228
 30
0.0
 41
1.0
 10
119.9762223364539
 20
252.4871884549577
 30
0.0
 41
1.0
 10
120.1907239700334
 20
252.6122924636478
 30
0.0
 41
1.0
 10
120.6043312220045
 20
252.8535209171878
 30
0.0
 41
1.0
 10
121.3086704464482
 20
253.2643131211831
 30
0.0
 41
1.0
 10
121.9174575649421
 20
253.6193764977284
 30
0.0
 41
1.0
 10
122.2660103626944
 20
253.8226632124348
 30
0.0
 41
1.0
  0
SPLINE
  5
130
330
1F
100
AcDbEntity
  8
0
  6
Continuous
 62
     7
370
    30
100
AcDbSpline
210
0.0
220
0.0
230
1.0
 70
    12
 71
     3
 72
    13
 73
     9
 74
     0
 42
0.00000001
 43
0.00000001
 40
0.0
 40
0.0
 40
0.0
 40
0.0
 40
0.0755917815548831
 40
0.154451913344829
 40
0.2447072673451377
 40
0.3519232340693129
 40
0.6289524370242037
 40
1.0
 40
1.0
 40
1.0
 40
1.0
 10
122.2787094462213
 20
250.9359397182779
 30
0.0
 41
1.0
 10
122.2786214777545
 20
250.9559365203852
 30
0.0
 41
1.0
 10
122.2784417373419
 20
250.9967947232575
 30
0.0
 41
1.0
 10
122.277671377473
 20
251.1719111857976
 30
0.0
 41
1.0
 10
122.2765790009632
 20
251.4202271638621
 30
0.0
 41
1.0
 10
122.2744726591317
 20
251.8990357885133
 30
0.0
 41
1.0
 10
122.2708857281537
 20
252.7144075301804
 30
0.0
 41
1.0
 10
122.2677854086049
 20
253.4191642885147
 30
0.0
 41
1.0
 10
122.2660103626944
 20
253.8226632124348
 30
0.0
 41
1.0
  0
CIRCLE
  5
131
330
1F
100
AcDbEntity
  8
0
  6
Continuous
 62
     7
370
    30
100
AcDbCircle
 10
122.2660103627
 20
253.8226632124
 30
0.0
 40
6.100000000000001
  0
CIRCLE
  5
132
330
1F
100
AcDbEntity
  8
0
  6
Continuous
 62
     7
370
    30
100
AcDbCircle
 10
122.2660103627
 20
253.8226632124
 30
0.0
 40
7.499999999999981
  0
CIRCLE
  5
133
330
1F
100
AcDbEntity
  8
0
  6
Continuous
 62
     7
370
    30
100
AcDbCircle
 10
105.7660103627
 20
237.3226632124
 30
0.0
 40
3.09999999999998
  0
CIRCLE
  5
134
330
1F
100
AcDbEntity
  8
0
  6
Continuous
 62
     7
370
    30
100
AcDbCircle
 10
105.7660103627
 20
237.3226632124
 30
0.0
 40
3.5
  0
LINE
  5
135
330
1F
100
AcDbEntity
  8
0
  6
Continuous
 62
     7
370
    30
100
AcDbLine
 10
107.4980608933
 20
237.3226633018
 30
0.0
 11
106.6320361384
 21
238.8226635477
 31
0.0
  0
LINE
  5
136
330
1F
100
AcDbEntity
  8
0
  6
Continuous
 62
     7
370
    30
100
AcDbLine
 10
106.6320361384
 20
238.8226635477
 30
0.0
 11
104.8999847658
 21
238.8226635477
 31
0.0
  0
LINE
  5
137
330
1F
100
AcDbEntity
  8
0
  6
Continuous
 62
     7
370
    30
100
AcDbLine
 10
104.8999847658
 20
238.8226635477
 30
0.0
 11
104.0339590796
 21
237.3226633018
 31
0.0
  0
LINE
  5
138
330
1F
100
AcDbEntity
  8
0
  6
Continuous
 62
     7
370
    30
100
AcDbLine
 10
104.0339590796
 20
237.3226633018
 30
0.0
 11
104.8999847658
 21
235.8226639873
 31
0.0
  0
LINE
  5
139
330
1F
100
AcDbEntity
  8
0
  6
Continuous
 62
     7
370
    30
100
AcDbLine
 10
104.8999847658
 20
235.8226639873
 30
0.0
 11
106.6320361384
 21
235.8226639873
 31
0.0
  0
LINE
  5
13A
330
1F
100
AcDbEntity
  8
0
  6
Continuous
 62
     7
370
    30
100
AcDbLine
 10
106.6320361384
 20
235.8226639873
 30
0.0
 11
107.4980608933
 21
237.3226633018
 31
0.0
  0
SPLINE
  5
13B
330
1F
100
AcDbEntity
  8
0
  6
Continuous
 62
     7
370
    30
100
AcDbSpline
210
0.0
220
0.0
230
1.0
 70
    28
 71
     3
 72
    12
 73
     8
 74
     0
 42
0.00000001
 43
0.00000001
 40
0.0
 40
0.0
 40
0.0
 40
0.0
 40
0.1578339873321492
 40
0.3079186703368939
 40
0.4720447234601889
 40
0.7062202905689207
 40
1.0
 40
1.0
 40
1.0
 40
1.0
 10
104.0339590795732
 20
237.322663301842
 30
0.0
 41
1.0
 10
104.0538324879258
 20
237.322663301842
 30
0.0
 41
1.0
 10
104.0926035636518
 20
237.322663301842
 30
0.0
 41
1.0
 10
104.3097413836208
 20
237.322663301842
 30
0.0
 41
1.0
 10
104.658444833484
 20
237.322663301842
 30
0.0
 41
1.0
 10
105.158949693559
 20
237.322663301842
 30
0.0
 41
1.0
 10
105.5489792482505
 20
237.322663301842
 30
0.0
 41
1.0
 10
105.7660104521013
 20
237.322663301842
 30
0.0
 41
1.0
  0
SPLINE
  5
13C
330
1F
100
AcDbEntity
  8
0
  6
Continuous
 62
     7
370
    30
100
AcDbSpline
210
0.0
220
0.0
230
1.0
 70
    12
 71
     3
 72
    12
 73
     8
 74
     0
 42
0.00000001
 43
0.00000001
 40
0.0
 40
0.0
 40
0.0
 40
0.0
 40
0.1578339683216447
 40
0.3079187633911297
 40
0.4720447589665214
 40
0.7062198448652153
 40
1.0
 40
1.0
 40
1.0
 40
1.0
 10
104.8999847658372
 20
235.8226639872954
 30
0.0
 41
1.0
 10
104.9099218844223
 20
235.8398743364434
 30
0.0
 41
1.0
 10
104.9293082389499
 20
235.873450058346
 30
0.0
 41
1.0
 10
105.0378766230401
 20
236.0614977652044
 30
0.0
 41
1.0
 10
105.2122288381884
 20
236.3634827615342
 30
0.0
 41
1.0
 10
105.4624787421784
 20
236.796933849222
 30
0.0
 41
1.0
 10
105.6574942639886
 20
237.1347087840376
 30
0.0
 41
1.0
 10
105.7660104521013
 20
237.322663301842
 30
0.0
 41
1.0
  0
SPLINE
  5
13D
330
1F
100
AcDbEntity
  8
0
  6
Continuous
 62
     7
370
    30
100
AcDbSpline
210
0.0
220
0.0
230
1.0
 70
    12
 71
     3
 72
    12
 73
     8
 74
     0
 42
0.00000001
 43
0.00000001
 40
0.0
 40
0.0
 40
0.0
 40
0.0
 40
0.2535798850696449
 40
0.4629718485183121
 40
0.6367307242518983
 40
0.8157213239588211
 40
1.0
 40
1.0
 40
1.0
 40
1.0
 10
105.7660104521013
 20
237.322663301842
 30
0.0
 41
1.0
 10
105.8596023815779
 20
237.1605560881384
 30
0.0
 41
1.0
 10
106.0304772464526
 20
236.8645898825937
 30
0.0
 41
1.0
 10
106.2618855224677
 20
236.4637855961453
 30
0.0
 41
1.0
 10
106.450671798902
 20
236.1367932151589
 30
0.0
 41
1.0
 10
106.594122956212
 20
235.8883284907277
 30
0.0
 41
1.0
 10
106.6192763590822
 20
235.8447635453631
 30
0.0
 41
1.0
 10
106.6320361383653
 20
235.8226639872954
 30
0.0
 41
1.0
  0
SPLINE
  5
13E
330
1F
100
AcDbEntity
  8
0
  6
Continuous
 62
     7
370
    30
100
AcDbSpline
210
0.0
220
0.0
230
1.0
 70
    12
 71
     3
 72
    12
 73
     8
 74
     0
 42
0.00000001
 43
0.00000001
 40
0.0
 40
0.0
 40
0.0
 40
0.0
 40
0.1578341614049925
 40
0.3079187541028442
 40
0.4720450673094195
 40
0.7062198218215976
 40
1.0
 40
1.0
 40
1.0
 40
1.0
 10
104.8999847658372
 20
238.8226635477112
 30
0.0
 41
1.0
 10
104.9099218424716
 20
238.8054523398415
 30
0.0
 41
1.0
 10
104.9293080908569
 20
238.771874984745
 30
0.0
 41
1.0
 10
105.0378769230557
 20
238.5838291512256
 30
0.0
 41
1.0
 10
105.2122283611466
 20
238.2818428142663
 30
0.0
 41
1.0
 10
105.4624791007359
 20
237.8483928205338
 30
0.0
 41
1.0
 10
105.6574943459895
 20
237.510617923267
 30
0.0
 41
1.0
 10
105.7660104521013
 20
237.322663301842
 30
0.0
 41
1.0
  0
SPLINE
  5
13F
330
1F
100
AcDbEntity
  8
0
  6
Continuous
 62
     7
370
    30
100
AcDbSpline
210
0.0
220
0.0
230
1.0
 70
    28
 71
     3
 72
    12
 73
     8
 74
     0
 42
0.00000001
 43
0.00000001
 40
0.0
 40
0.0
 40
0.0
 40
0.0
 40
0.1578340510752371
 40
0.3079187946934233
 40
0.4720449141009301
 40
0.7062201719225747
 40
1.0
 40
1.0
 40
1.0
 40
1.0
 10
107.4980608933068
 20
237.322663301842
 30
0.0
 41
1.0
 10
107.4781874847799
 20
237.322663301842
 30
0.0
 41
1.0
 10
107.4394164087138
 20
237.322663301842
 30
0.0
 41
1.0
 10
107.2222785912744
 20
237.322663301842
 30
0.0
 41
1.0
 10
106.8735753863138
 20
237.322663301842
 30
0.0
 41
1.0
 10
106.373070950171
 20
237.322663301842
 30
0.0
 41
1.0
 10
105.9830416694953
 20
237.322663301842
 30
0.0
 41
1.0
 10
105.7660104521013
 20
237.322663301842
 30
0.0
 41
1.0
  0
SPLINE
  5
140
330
1F
100
AcDbEntity
  8
0
  6
Continuous
 62
     7
370
    30
100
AcDbSpline
210
0.0
220
0.0
230
1.0
 70
    12
 71
     3
 72
    12
 73
     8
 74
     0
 42
0.00000001
 43
0.00000001
 40
0.0
 40
0.0
 40
0.0
 40
0.0
 40
0.1578341614049925
 40
0.3079187541028442
 40
0.4720450673094195
 40
0.7062198218215976
 40
1.0
 40
1.0
 40
1.0
 40
1.0
 10
106.6320361383653
 20
238.8226635477112
 30
0.0
 41
1.0
 10
106.6220990617309
 20
238.8054523398415
 30
0.0
 41
1.0
 10
106.6027128133456
 20
238.771874984745
 30
0.0
 41
1.0
 10
106.4941439811468
 20
238.5838291512256
 30
0.0
 41
1.0
 10
106.3197925430559
 20
238.2818428142663
 30
0.0
 41
1.0
 10
106.0695418034666
 20
237.8483928205338
 30
0.0
 41
1.0
 10
105.874526558213
 20
237.510617923267
 30
0.0
 41
1.0
 10
105.7660104521013
 20
237.322663301842
 30
0.0
 41
1.0
  0
CIRCLE
  5
141
330
1F
100
AcDbEntity
  8
0
  6
Continuous
 62
     7
370
    30
100
AcDbCircle
 10
138.7660103627
 20
270.3226632124
 30
0.0
 40
3.099999999999994
  0
CIRCLE
  5
142
330
1F
100
AcDbEntity
  8
0
  6
Continuous
 62
     7
370
    30
100
AcDbCircle
 10
138.7660103627
 20
270.3226632124
 30
0.0
 40
3.5
  0
LINE
  5
143
330
1F
100
AcDbEntity
  8
0
  6
Continuous
 62
     7
370
    30
100
AcDbLine
 10
140.4980616458
 20
270.322663123
 30
0.0
 11
139.6320359596
 21
271.8226624376
 31
0.0
  0
LINE
  5
144
330
1F
100
AcDbEntity
  8
0
  6
Continuous
 62
     7
370
    30
100
AcDbLine
 10
139.6320359596
 20
271.8226624376
 30
0.0
 11
137.899984587
 21
271.8226624376
 31
0.0
  0
LINE
  5
145
330
1F
100
AcDbEntity
  8
0
  6
Continuous
 62
     7
370
    30
100
AcDbLine
 10
137.899984587
 20
271.8226624376
 30
0.0
 11
137.0339598321
 21
270.322663123
 31
0.0
  0
LINE
  5
146
330
1F
100
AcDbEntity
  8
0
  6
Continuous
 62
     7
370
    30
100
AcDbLine
 10
137.0339598321
 20
270.322663123
 30
0.0
 11
137.899984587
 21
268.8226628772
 31
0.0
  0
LINE
  5
147
330
1F
100
AcDbEntity
  8
0
  6
Continuous
 62
     7
370
    30
100
AcDbLine
 10
137.899984587
 20
268.8226628772
 30
0.0
 11
139.6320359596
 21
268.8226628772
 31
0.0
  0
LINE
  5
148
330
1F
100
AcDbEntity
  8
0
  6
Continuous
 62
     7
370
    30
100
AcDbLine
 10
139.6320359596
 20
268.8226628772
 30
0.0
 11
140.4980616458
 21
270.322663123
 31
0.0
  0
SPLINE
  5
149
330
1F
100
AcDbEntity
  8
0
  6
Continuous
 62
     7
370
    30
100
AcDbSpline
210
0.0
220
0.0
230
1.0
 70
    12
 71
     3
 72
    12
 73
     8
 74
     0
 42
0.00000001
 43
0.00000001
 40
0.0
 40
0.0
 40
0.0
 40
0.0
 40
0.1578339683216447
 40
0.3079187633911297
 40
0.4720447589665214
 40
0.7062198448652153
 40
1.0
 40
1.0
 40
1.0
 40
1.0
 10
139.6320359595514
 20
271.8226624375747
 30
0.0
 41
1.0
 10
139.6220988409663
 20
271.8054520884268
 30
0.0
 41
1.0
 10
139.6027124864387
 20
271.7718763665241
 30
0.0
 41
1.0
 10
139.4941441023484
 20
271.5838286596658
 30
0.0
 41
1.0
 10
139.3197918872001
 20
271.281843663336
 30
0.0
 41
1.0
 10
139.0695419832101
 20
270.8483925756481
 30
0.0
 41
1.0
 10
138.8745264614
 20
270.5106176408326
 30
0.0
 41
1.0
 10
138.7660102732873
 20
270.3226631230281
 30
0.0
 41
1.0
  0
SPLINE
  5
14A
330
1F
100
AcDbEntity
  8
0
  6
Continuous
 62
     7
370
    30
100
AcDbSpline
210
0.0
220
0.0
230
1.0
 70
    12
 71
     3
 72
    12
 73
     8
 74
     0
 42
0.00000001
 43
0.00000001
 40
0.0
 40
0.0
 40
0.0
 40
0.0
 40
0.1578339683216447
 40
0.3079187633911297
 40
0.4720447589665214
 40
0.7062198448652153
 40
1.0
 40
1.0
 40
1.0
 40
1.0
 10
137.8999845870233
 20
271.8226624375747
 30
0.0
 41
1.0
 10
137.9099217056083
 20
271.8054520884268
 30
0.0
 41
1.0
 10
137.929308060136
 20
271.7718763665241
 30
0.0
 41
1.0
 10
138.0378764442262
 20
271.5838286596658
 30
0.0
 41
1.0
 10
138.2122286593745
 20
271.281843663336
 30
0.0
 41
1.0
 10
138.4624785633645
 20
270.8483925756481
 30
0.0
 41
1.0
 10
138.6574940851747
 20
270.5106176408326
 30
0.0
 41
1.0
 10
138.7660102732873
 20
270.3226631230281
 30
0.0
 41
1.0
  0
SPLINE
  5
14B
330
1F
100
AcDbEntity
  8
0
  6
Continuous
 62
     7
370
    30
100
AcDbSpline
210
0.0
220
0.0
230
1.0
 70
    28
 71
     3
 72
    12
 73
     8
 74
     0
 42
0.00000001
 43
0.00000001
 40
0.0
 40
0.0
 40
0.0
 40
0.0
 40
0.1578339873321492
 40
0.3079186703368939
 40
0.4720447234601889
 40
0.7062202905689207
 40
1.0
 40
1.0
 40
1.0
 40
1.0
 10
140.4980616458154
 20
270.3226631230281
 30
0.0
 41
1.0
 10
140.4781882374628
 20
270.3226631230281
 30
0.0
 41
1.0
 10
140.4394171617367
 20
270.3226631230281
 30
0.0
 41
1.0
 10
140.2222793417678
 20
270.3226631230281
 30
0.0
 41
1.0
 10
139.8735758919046
 20
270.3226631230281
 30
0.0
 41
1.0
 10
139.3730710318296
 20
270.3226631230281
 30
0.0
 41
1.0
 10
138.9830414771381
 20
270.3226631230281
 30
0.0
 41
1.0
 10
138.7660102732873
 20
270.3226631230281
 30
0.0
 41
1.0
  0
SPLINE
  5
14C
330
1F
100
AcDbEntity
  8
0
  6
Continuous
 62
     7
370
    30
100
AcDbSpline
210
0.0
220
0.0
230
1.0
 70
    28
 71
     3
 72
    12
 73
     8
 74
     0
 42
0.00000001
 43
0.00000001
 40
0.0
 40
0.0
 40
0.0
 40
0.0
 40
0.1578340510752371
 40
0.3079187946934233
 40
0.4720449141009301
 40
0.7062201719225747
 40
1.0
 40
1.0
 40
1.0
 40
1.0
 10
137.0339598320818
 20
270.3226631230281
 30
0.0
 41
1.0
 10
137.0538332406087
 20
270.3226631230281
 30
0.0
 41
1.0
 10
137.0926043166748
 20
270.3226631230281
 30
0.0
 41
1.0
 10
137.3097421341142
 20
270.3226631230281
 30
0.0
 41
1.0
 10
137.6584453390748
 20
270.3226631230281
 30
0.0
 41
1.0
 10
138.1589497752176
 20
270.3226631230281
 30
0.0
 41
1.0
 10
138.5489790558933
 20
270.3226631230281
 30
0.0
 41
1.0
 10
138.7660102732873
 20
270.3226631230281
 30
0.0
 41
1.0
  0
SPLINE
  5
14D
330
1F
100
AcDbEntity
  8
0
  6
Continuous
 62
     7
370
    30
100
AcDbSpline
210
0.0
220
0.0
230
1.0
 70
    12
 71
     3
 72
    12
 73
     8
 74
     0
 42
0.00000001
 43
0.00000001
 40
0.0
 40
0.0
 40
0.0
 40
0.0
 40
0.1578341614049925
 40
0.3079187541028442
 40
0.4720450673094195
 40
0.7062198218215976
 40
1.0
 40
1.0
 40
1.0
 40
1.0
 10
137.8999845870233
 20
268.822662877159
 30
0.0
 41
1.0
 10
137.9099216636577
 20
268.8398740850287
 30
0.0
 41
1.0
 10
137.929307912043
 20
268.8734514401252
 30
0.0
 41
1.0
 10
138.0378767442418
 20
269.0614972736445
 30
0.0
 41
1.0
 10
138.2122281823327
 20
269.3634836106039
 30
0.0
 41
1.0
 10
138.462478921922
 20
269.7969336043364
 30
0.0
 41
1.0
 10
138.6574941671755
 20
270.1347085016032
 30
0.0
 41
1.0
 10
138.7660102732873
 20
270.3226631230281
 30
0.0
 41
1.0
  0
SPLINE
  5
14E
330
1F
100
AcDbEntity
  8
0
  6
Continuous
 62
     7
370
    30
100
AcDbSpline
210
0.0
220
0.0
230
1.0
 70
    12
 71
     3
 72
    12
 73
     8
 74
     0
 42
0.00000001
 43
0.00000001
 40
0.0
 40
0.0
 40
0.0
 40
0.0
 40
0.2535798507574053
 40
0.4629717858729609
 40
0.6367313382644703
 40
0.8157211458531833
 40
1.0
 40
1.0
 40
1.0
 40
1.0
 10
138.7660102732873
 20
270.3226631230281
 30
0.0
 41
1.0
 10
138.8596022830845
 20
270.1605559035111
 30
0.0
 41
1.0
 10
139.0304772946039
 20
269.8645896873527
 30
0.0
 41
1.0
 10
139.2618849221041
 20
269.463785025522
 30
0.0
 41
1.0
 10
139.4506739193455
 20
269.136792532395
 30
0.0
 41
1.0
 10
139.5941223655747
 20
268.8883297408937
 30
0.0
 41
1.0
 10
139.6192760191773
 20
268.8447632685468
 30
0.0
 41
1.0
 10
139.6320359595514
 20
268.822662877159
 30
0.0
 41
1.0
  0
CIRCLE
  5
14F
330
1F
100
AcDbEntity
  8
0
  6
Continuous
 62
     7
370
    30
100
AcDbCircle
 10
105.7660103627
 20
270.3226632124
 30
0.0
 40
3.09999999999998
  0
CIRCLE
  5
150
330
1F
100
AcDbEntity
  8
0
  6
Continuous
 62
     7
370
    30
100
AcDbCircle
 10
105.7660103627
 20
270.3226632124
 30
0.0
 40
3.5
  0
LINE
  5
151
330
1F
100
AcDbEntity
  8
0
  6
Continuous
 62
     7
370
    30
100
AcDbLine
 10
107.4980608933
 20
270.322663123
 30
0.0
 11
106.6320361384
 21
271.8226624376
 31
0.0
  0
LINE
  5
152
330
1F
100
AcDbEntity
  8
0
  6
Continuous
 62
     7
370
    30
100
AcDbLine
 10
106.6320361384
 20
271.8226624376
 30
0.0
 11
104.8999847658
 21
271.8226624376
 31
0.0
  0
LINE
  5
153
330
1F
100
AcDbEntity
  8
0
  6
Continuous
 62
     7
370
    30
100
AcDbLine
 10
104.8999847658
 20
271.8226624376
 30
0.0
 11
104.0339590796
 21
270.322663123
 31
0.0
  0
LINE
  5
154
330
1F
100
AcDbEntity
  8
0
  6
Continuous
 62
     7
370
    30
100
AcDbLine
 10
104.0339590796
 20
270.322663123
 30
0.0
 11
104.8999847658
 21
268.8226628772
 31
0.0
  0
LINE
  5
155
330
1F
100
AcDbEntity
  8
0
  6
Continuous
 62
     7
370
    30
100
AcDbLine
 10
104.8999847658
 20
268.8226628772
 30
0.0
 11
106.6320361384
 21
268.8226628772
 31
0.0
  0
LINE
  5
156
330
1F
100
AcDbEntity
  8
0
  6
Continuous
 62
     7
370
    30
100
AcDbLine
 10
106.6320361384
 20
268.8226628772
 30
0.0
 11
107.4980608933
 21
270.322663123
 31
0.0
  0
SPLINE
  5
157
330
1F
100
AcDbEntity
  8
0
  6
Continuous
 62
     7
370
    30
100
AcDbSpline
210
0.0
220
0.0
230
1.0
 70
    12
 71
     3
 72
    12
 73
     8
 74
     0
 42
0.00000001
 43
0.00000001
 40
0.0
 40
0.0
 40
0.0
 40
0.0
 40
0.1578339683216447
 40
0.3079187633911297
 40
0.4720447589665214
 40
0.7062198448652153
 40
1.0
 40
1.0
 40
1.0
 40
1.0
 10
104.8999847658372
 20
271.8226624375747
 30
0.0
 41
1.0
 10
104.9099218844223
 20
271.8054520884268
 30
0.0
 41
1.0
 10
104.9293082389499
 20
271.7718763665241
 30
0.0
 41
1.0
 10
105.0378766230401
 20
271.5838286596658
 30
0.0
 41
1.0
 10
105.2122288381884
 20
271.281843663336
 30
0.0
 41
1.0
 10
105.4624787421784
 20
270.8483925756481
 30
0.0
 41
1.0
 10
105.6574942639886
 20
270.5106176408326
 30
0.0
 41
1.0
 10
105.7660104521013
 20
270.3226631230281
 30
0.0
 41
1.0
  0
SPLINE
  5
158
330
1F
100
AcDbEntity
  8
0
  6
Continuous
 62
     7
370
    30
100
AcDbSpline
210
0.0
220
0.0
230
1.0
 70
    28
 71
     3
 72
    12
 73
     8
 74
     0
 42
0.00000001
 43
0.00000001
 40
0.0
 40
0.0
 40
0.0
 40
0.0
 40
0.1578339873321492
 40
0.3079186703368939
 40
0.4720447234601889
 40
0.7062202905689207
 40
1.0
 40
1.0
 40
1.0
 40
1.0
 10
104.0339590795732
 20
270.3226631230281
 30
0.0
 41
1.0
 10
104.0538324879258
 20
270.3226631230281
 30
0.0
 41
1.0
 10
104.0926035636518
 20
270.3226631230281
 30
0.0
 41
1.0
 10
104.3097413836208
 20
270.3226631230281
 30
0.0
 41
1.0
 10
104.658444833484
 20
270.3226631230281
 30
0.0
 41
1.0
 10
105.158949693559
 20
270.3226631230281
 30
0.0
 41
1.0
 10
105.5489792482505
 20
270.3226631230281
 30
0.0
 41
1.0
 10
105.7660104521013
 20
270.3226631230281
 30
0.0
 41
1.0
  0
SPLINE
  5
159
330
1F
100
AcDbEntity
  8
0
  6
Continuous
 62
     7
370
    30
100
AcDbSpline
210
0.0
220
0.0
230
1.0
 70
    12
 71
     3
 72
    12
 73
     8
 74
     0
 42
0.00000001
 43
0.00000001
 40
0.0
 40
0.0
 40
0.0
 40
0.0
 40
0.1578339683216447
 40
0.3079187633911297
 40
0.4720447589665214
 40
0.7062198448652153
 40
1.0
 40
1.0
 40
1.0
 40
1.0
 10
106.6320361383653
 20
271.8226624375747
 30
0.0
 41
1.0
 10
106.6220990197802
 20
271.8054520884268
 30
0.0
 41
1.0
 10
106.6027126652526
 20
271.7718763665241
 30
0.0
 41
1.0
 10
106.4941442811624
 20
271.5838286596658
 30
0.0
 41
1.0
 10
106.3197920660141
 20
271.281843663336
 30
0.0
 41
1.0
 10
106.0695421620241
 20
270.8483925756481
 30
0.0
 41
1.0
 10
105.8745266402139
 20
270.5106176408326
 30
0.0
 41
1.0
 10
105.7660104521013
 20
270.3226631230281
 30
0.0
 41
1.0
  0
SPLINE
  5
15A
330
1F
100
AcDbEntity
  8
0
  6
Continuous
 62
     7
370
    30
100
AcDbSpline
210
0.0
220
0.0
230
1.0
 70
    28
 71
     3
 72
    12
 73
     8
 74
     0
 42
0.00000001
 43
0.00000001
 40
0.0
 40
0.0
 40
0.0
 40
0.0
 40
0.1578340510752371
 40
0.3079187946934233
 40
0.4720449141009301
 40
0.7062201719225747
 40
1.0
 40
1.0
 40
1.0
 40
1.0
 10
107.4980608933068
 20
270.3226631230281
 30
0.0
 41
1.0
 10
107.4781874847799
 20
270.3226631230281
 30
0.0
 41
1.0
 10
107.4394164087138
 20
270.3226631230281
 30
0.0
 41
1.0
 10
107.2222785912744
 20
270.3226631230281
 30
0.0
 41
1.0
 10
106.8735753863138
 20
270.3226631230281
 30
0.0
 41
1.0
 10
106.373070950171
 20
270.3226631230281
 30
0.0
 41
1.0
 10
105.9830416694953
 20
270.3226631230281
 30
0.0
 41
1.0
 10
105.7660104521013
 20
270.3226631230281
 30
0.0
 41
1.0
  0
SPLINE
  5
15B
330
1F
100
AcDbEntity
  8
0
  6
Continuous
 62
     7
370
    30
100
AcDbSpline
210
0.0
220
0.0
230
1.0
 70
    12
 71
     3
 72
    12
 73
     8
 74
     0
 42
0.00000001
 43
0.00000001
 40
0.0
 40
0.0
 40
0.0
 40
0.0
 40
0.1578341614049925
 40
0.3079187541028442
 40
0.4720450673094195
 40
0.7062198218215976
 40
1.0
 40
1.0
 40
1.0
 40
1.0
 10
104.8999847658372
 20
268.822662877159
 30
0.0
 41
1.0
 10
104.9099218424716
 20
268.8398740850287
 30
0.0
 41
1.0
 10
104.9293080908569
 20
268.8734514401252
 30
0.0
 41
1.0
 10
105.0378769230557
 20
269.0614972736445
 30
0.0
 41
1.0
 10
105.2122283611466
 20
269.3634836106039
 30
0.0
 41
1.0
 10
105.4624791007359
 20
269.7969336043364
 30
0.0
 41
1.0
 10
105.6574943459895
 20
270.1347085016032
 30
0.0
 41
1.0
 10
105.7660104521013
 20
270.3226631230281
 30
0.0
 41
1.0
  0
SPLINE
  5
15C
330
1F
100
AcDbEntity
  8
0
  6
Continuous
 62
     7
370
    30
100
AcDbSpline
210
0.0
220
0.0
230
1.0
 70
    12
 71
     3
 72
    12
 73
     8
 74
     0
 42
0.00000001
 43
0.00000001
 40
0.0
 40
0.0
 40
0.0
 40
0.0
 40
0.2535798746315949
 40
0.4629718294611095
 40
0.6367310229931613
 40
0.815721128503586
 40
1.0
 40
1.0
 40
1.0
 40
1.0
 10
105.7660104521013
 20
270.3226631230281
 30
0.0
 41
1.0
 10
105.8596023610996
 20
270.1605558668318
 30
0.0
 41
1.0
 10
106.0304771885862
 20
269.8645895837065
 30
0.0
 41
1.0
 10
106.2618858129195
 20
269.4637855704204
 30
0.0
 41
1.0
 10
106.4506713151173
 20
269.1367918399371
 30
0.0
 41
1.0
 10
106.5941232335312
 20
268.888329990604
 30
0.0
 41
1.0
 10
106.6192764364743
 20
268.8447633412429
 30
0.0
 41
1.0
 10
106.6320361383653
 20
268.822662877159
 30
0.0
 41
1.0
  0
CIRCLE
  5
15D
330
1F
100
AcDbEntity
  8
0
  6
Continuous
 62
     7
370
    30
100
AcDbCircle
 10
138.7660103627
 20
237.3226632124
 30
0.0
 40
3.099999999999994
  0
CIRCLE
  5
15E
330
1F
100
AcDbEntity
  8
0
  6
Continuous
 62
     7
370
    30
100
AcDbCircle
 10
138.7660103627
 20
237.3226632124
 30
0.0
 40
3.5
  0
LINE
  5
15F
330
1F
100
AcDbEntity
  8
0
  6
Continuous
 62
     7
370
    30
100
AcDbLine
 10
140.4980616458
 20
237.3226633018
 30
0.0
 11
139.6320359596
 21
238.8226635477
 31
0.0
  0
LINE
  5
160
330
1F
100
AcDbEntity
  8
0
  6
Continuous
 62
     7
370
    30
100
AcDbLine
 10
139.6320359596
 20
238.8226635477
 30
0.0
 11
137.899984587
 21
238.8226635477
 31
0.0
  0
LINE
  5
161
330
1F
100
AcDbEntity
  8
0
  6
Continuous
 62
     7
370
    30
100
AcDbLine
 10
137.899984587
 20
238.8226635477
 30
0.0
 11
137.0339598321
 21
237.3226633018
 31
0.0
  0
LINE
  5
162
330
1F
100
AcDbEntity
  8
0
  6
Continuous
 62
     7
370
    30
100
AcDbLine
 10
137.0339598321
 20
237.3226633018
 30
0.0
 11
137.899984587
 21
235.8226639873
 31
0.0
  0
LINE
  5
163
330
1F
100
AcDbEntity
  8
0
  6
Continuous
 62
     7
370
    30
100
AcDbLine
 10
137.899984587
 20
235.8226639873
 30
0.0
 11
139.6320359596
 21
235.8226639873
 31
0.0
  0
LINE
  5
164
330
1F
100
AcDbEntity
  8
0
  6
Continuous
 62
     7
370
    30
100
AcDbLine
 10
139.6320359596
 20
235.8226639873
 30
0.0
 11
140.4980616458
 21
237.3226633018
 31
0.0
  0
SPLINE
  5
165
330
1F
100
AcDbEntity
  8
0
  6
Continuous
 62
     7
370
    30
100
AcDbSpline
210
0.0
220
0.0
230
1.0
 70
    12
 71
     3
 72
    12
 73
     8
 74
     0
 42
0.00000001
 43
0.00000001
 40
0.0
 40
0.0
 40
0.0
 40
0.0
 40
0.1578339683216447
 40
0.3079187633911297
 40
0.4720447589665214
 40
0.7062198448652153
 40
1.0
 40
1.0
 40
1.0
 40
1.0
 10
137.8999845870233
 20
235.8226639872954
 30
0.0
 41
1.0
 10
137.9099217056083
 20
235.8398743364434
 30
0.0
 41
1.0
 10
137.929308060136
 20
235.873450058346
 30
0.0
 41
1.0
 10
138.0378764442262
 20
236.0614977652044
 30
0.0
 41
1.0
 10
138.2122286593745
 20
236.3634827615342
 30
0.0
 41
1.0
 10
138.4624785633645
 20
236.796933849222
 30
0.0
 41
1.0
 10
138.6574940851747
 20
237.1347087840376
 30
0.0
 41
1.0
 10
138.7660102732873
 20
237.322663301842
 30
0.0
 41
1.0
  0
SPLINE
  5
166
330
1F
100
AcDbEntity
  8
0
  6
Continuous
 62
     7
370
    30
100
AcDbSpline
210
0.0
220
0.0
230
1.0
 70
    12
 71
     3
 72
    12
 73
     8
 74
     0
 42
0.00000001
 43
0.00000001
 40
0.0
 40
0.0
 40
0.0
 40
0.0
 40
0.2535798611950815
 40
0.4629718049294812
 40
0.6367310395230165
 40
0.8157213413086709
 40
1.0
 40
1.0
 40
1.0
 40
1.0
 10
138.7660102732873
 20
237.322663301842
 30
0.0
 41
1.0
 10
138.8596023035628
 20
237.1605561248177
 30
0.0
 41
1.0
 10
139.0304773524703
 20
236.8645899862401
 30
0.0
 41
1.0
 10
139.2618846316528
 20
236.4637850512456
 30
0.0
 41
1.0
 10
139.4506744031303
 20
236.1367939076189
 30
0.0
 41
1.0
 10
139.5941220882571
 20
235.8883282410186
 30
0.0
 41
1.0
 10
139.6192759417861
 20
235.8447634726671
 30
0.0
 41
1.0
 10
139.6320359595514
 20
235.8226639872954
 30
0.0
 41
1.0
  0
SPLINE
  5
167
330
1F
100
AcDbEntity
  8
0
  6
Continuous
 62
     7
370
    30
100
AcDbSpline
210
0.0
220
0.0
230
1.0
 70
    28
 71
     3
 72
    12
 73
     8
 74
     0
 42
0.00000001
 43
0.00000001
 40
0.0
 40
0.0
 40
0.0
 40
0.0
 40
0.1578339873321492
 40
0.3079186703368939
 40
0.4720447234601889
 40
0.7062202905689207
 40
1.0
 40
1.0
 40
1.0
 40
1.0
 10
140.4980616458154
 20
237.322663301842
 30
0.0
 41
1.0
 10
140.4781882374628
 20
237.322663301842
 30
0.0
 41
1.0
 10
140.4394171617367
 20
237.322663301842
 30
0.0
 41
1.0
 10
140.2222793417678
 20
237.322663301842
 30
0.0
 41
1.0
 10
139.8735758919046
 20
237.322663301842
 30
0.0
 41
1.0
 10
139.3730710318296
 20
237.322663301842
 30
0.0
 41
1.0
 10
138.9830414771381
 20
237.322663301842
 30
0.0
 41
1.0
 10
138.7660102732873
 20
237.322663301842
 30
0.0
 41
1.0
  0
SPLINE
  5
168
330
1F
100
AcDbEntity
  8
0
  6
Continuous
 62
     7
370
    30
100
AcDbSpline
210
0.0
220
0.0
230
1.0
 70
    12
 71
     3
 72
    12
 73
     8
 74
     0
 42
0.00000001
 43
0.00000001
 40
0.0
 40
0.0
 40
0.0
 40
0.0
 40
0.1578341614049925
 40
0.3079187541028442
 40
0.4720450673094195
 40
0.7062198218215976
 40
1.0
 40
1.0
 40
1.0
 40
1.0
 10
137.8999845870233
 20
238.8226635477112
 30
0.0
 41
1.0
 10
137.9099216636577
 20
238.8054523398415
 30
0.0
 41
1.0
 10
137.929307912043
 20
238.771874984745
 30
0.0
 41
1.0
 10
138.0378767442418
 20
238.5838291512256
 30
0.0
 41
1.0
 10
138.2122281823327
 20
238.2818428142663
 30
0.0
 41
1.0
 10
138.462478921922
 20
237.8483928205338
 30
0.0
 41
1.0
 10
138.6574941671755
 20
237.510617923267
 30
0.0
 41
1.0
 10
138.7660102732873
 20
237.322663301842
 30
0.0
 41
1.0
  0
SPLINE
  5
169
330
1F
100
AcDbEntity
  8
0
  6
Continuous
 62
     7
370
    30
100
AcDbSpline
210
0.0
220
0.0
230
1.0
 70
    28
 71
     3
 72
    12
 73
     8
 74
     0
 42
0.00000001
 43
0.00000001
 40
0.0
 40
0.0
 40
0.0
 40
0.0
 40
0.1578340510752371
 40
0.3079187946934233
 40
0.4720449141009301
 40
0.7062201719225747
 40
1.0
 40
1.0
 40
1.0
 40
1.0
 10
137.0339598320818
 20
237.322663301842
 30
0.0
 41
1.0
 10
137.0538332406087
 20
237.322663301842
 30
0.0
 41
1.0
 10
137.0926043166748
 20
237.322663301842
 30
0.0
 41
1.0
 10
137.3097421341142
 20
237.322663301842
 30
0.0
 41
1.0
 10
137.6584453390748
 20
237.322663301842
 30
0.0
 41
1.0
 10
138.1589497752176
 20
237.322663301842
 30
0.0
 41
1.0
 10
138.5489790558933
 20
237.322663301842
 30
0.0
 41
1.0
 10
138.7660102732873
 20
237.322663301842
 30
0.0
 41
1.0
  0
SPLINE
  5
16A
330
1F
100
AcDbEntity
  8
0
  6
Continuous
 62
     7
370
    30
100
AcDbSpline
210
0.0
220
0.0
230
1.0
 70
    12
 71
     3
 72
    12
 73
     8
 74
     0
 42
0.00000001
 43
0.00000001
 40
0.0
 40
0.0
 40
0.0
 40
0.0
 40
0.1578341614049925
 40
0.3079187541028442
 40
0.4720450673094195
 40
0.7062198218215976
 40
1.0
 40
1.0
 40
1.0
 40
1.0
 10
139.6320359595514
 20
238.8226635477112
 30
0.0
 41
1.0
 10
139.622098882917
 20
238.8054523398415
 30
0.0
 41
1.0
 10
139.6027126345316
 20
238.771874984745
 30
0.0
 41
1.0
 10
139.4941438023328
 20
238.5838291512256
 30
0.0
 41
1.0
 10
139.319792364242
 20
238.2818428142663
 30
0.0
 41
1.0
 10
139.0695416246527
 20
237.8483928205338
 30
0.0
 41
1.0
 10
138.8745263793991
 20
237.510617923267
 30
0.0
 41
1.0
 10
138.7660102732873
 20
237.322663301842
 30
0.0
 41
1.0
  0
DIMENSION
  5
16B
330
1F
100
AcDbEntity
  8
0
  6
Continuous
 62
     7
370
     0
100
AcDbDimension
  2
*D5
 10
85.0047957985
 20
233.3226632124
 30
0.0
 11
85.0047957985
 21
253.8226632124
 31
0.0
 70
   160
 71
     1
 42
41.0
  3
SLDDIMSTYLE0
100
AcDbAlignedDimension
 13
101.7660103627
 23
274.3226632124
 33
0.0
 14
101.7660103627
 24
233.3226632124
 34
0.0
 50
90.0
100
AcDbRotatedDimension
1001
ACAD
1000
DSTYLE
1002
{
1070
    77
1070
     3
1070
   143
1040
0.0393700787
1070
    41
1040
3.0
1070
    44
1040
1.0
1070
    42
1040
1.0
1070
   147
1040
1.524
1070
    73
1070
     0
1070
    74
1070
     0
1070
   140
1040
3.5
1070
   284
1070
    12
1070
    78
1070
    12
1002
}
  0
DIMENSION
  5
17F
330
1F
100
AcDbEntity
  8
0
  6
Continuous
 62
     7
370
     0
100
AcDbDimension
  2
*D6
 10
142.7660103627
 20
217.0016617353
 30
0.0
 11
122.2660103627
 21
217.0016617353
 31
0.0
 70
   160
 71
     1
 42
41.0
  3
SLDDIMSTYLE0
100
AcDbAlignedDimension
 13
101.7660103627
 23
233.3226632124
 33
0.0
 14
142.7660103627
 24
233.3226632124
 34
0.0
100
AcDbRotatedDimension
1001
ACAD
1000
DSTYLE
1002
{
1070
    77
1070
     3
1070
   143
1040
0.0393700787
1070
    41
1040
3.0
1070
    44
1040
1.0
1070
    42
1040
1.0
1070
   147
1040
1.524
1070
    73
1070
     0
1070
    74
1070
     0
1070
   140
1040
3.5
1070
   284
1070
    12
1070
    78
1070
    12
1002
}
  0
LINE
  5
192
330
1F
100
AcDbEntity
  8
0
  6
Continuous
 62
     7
370
    30
100
AcDbLine
 10
51.3526632124
 20
175.5469326425
 30
0.0
 11
56.3526632683
 21
175.5469335604
 31
0.0
  0
LINE
  5
193
330
1F
100
AcDbEntity
  8
0
  6
Continuous
 62
     7
370
    30
100
AcDbLine
 10
61.3526631566
 20
175.5469335604
 30
0.0
 11
66.3526632124
 21
175.5469326425
 31
0.0
  0
LINE
  5
194
330
1F
100
AcDbEntity
  8
0
  6
Continuous
 62
     7
370
    30
100
AcDbLine
 10
51.3526632124
 20
190.5469326425
 30
0.0
 11
51.3526633801
 21
188.9469331491
 31
0.0
  0
LINE
  5
195
330
1F
100
AcDbEntity
  8
0
  6
Continuous
 62
     7
370
    30
100
AcDbLine
 10
66.3526630448
 20
188.9469331491
 30
0.0
 11
66.3525906421
 21
190.5469326425
 31
0.0
  0
LINE
  5
196
330
1F
100
AcDbEntity
  8
0
  6
Continuous
 62
     7
370
    30
100
AcDbLine
 10
52.7526632124
 20
192.0469326425
 30
0.0
 11
52.7526633302
 21
190.5469341564
 31
0.0
  0
LINE
  5
197
330
1F
100
AcDbEntity
  8
0
  6
Continuous
 62
     7
370
    30
100
AcDbLine
 10
64.9526630947
 20
190.5469341564
 30
0.0
 11
64.9526041885
 21
192.0469326425
 31
0.0
  0
LINE
  5
198
330
1F
100
AcDbEntity
  8
0
  6
Continuous
 62
     7
370
    30
100
AcDbLine
 10
63.8526632124
 20
197.4469326425
 30
0.0
 11
63.2526632124
 21
198.0469326425
 31
0.0
  0
LINE
  5
199
330
1F
100
AcDbEntity
  8
0
  6
Continuous
 62
     7
370
    30
100
AcDbLine
 10
54.4527057871
 20
198.0469326425
 30
0.0
 11
53.8527115927
 21
197.4469326425
 31
0.0
  0
LINE
  5
19A
330
1F
100
AcDbEntity
  8
0
  6
Continuous
 62
     7
370
    30
100
AcDbLine
 10
63.8526631007
 20
192.046933471
 30
0.0
 11
63.8526632124
 21
197.4469326425
 31
0.0
  0
LINE
  5
19B
330
1F
100
AcDbEntity
  8
0
  6
Continuous
 62
     7
370
    30
100
AcDbLine
 10
53.8527115927
 20
197.4469326425
 30
0.0
 11
53.8526633242
 21
192.046933471
 31
0.0
  0
LINE
  5
19C
330
1F
100
AcDbEntity
  8
0
  6
Continuous
 62
     7
370
    30
100
AcDbLine
 10
56.3526632683
 20
183.9469323296
 30
0.0
 11
56.3526632683
 21
181.9469320017
 31
0.0
  0
LINE
  5
19D
330
1F
100
AcDbEntity
  8
0
  6
Continuous
 62
     7
370
    30
100
AcDbLine
 10
61.3526631566
 20
181.9469320017
 30
0.0
 11
61.3526631566
 21
183.9469323296
 31
0.0
  0
LINE
  5
19E
330
1F
100
AcDbEntity
  8
0
  6
Continuous
 62
     7
370
    30
100
AcDbLine
 10
66.3526632124
 20
124.3469326425
 30
0.0
 11
66.3526630448
 21
125.9469321358
 31
0.0
  0
LINE
  5
19F
330
1F
100
AcDbEntity
  8
0
  6
Continuous
 62
     7
370
    30
100
AcDbLine
 10
51.3526633801
 20
125.9469321358
 30
0.0
 11
51.3526632124
 21
124.3469326425
 31
0.0
  0
LINE
  5
1A0
330
1F
100
AcDbEntity
  8
0
  6
Continuous
 62
     7
370
    30
100
AcDbLine
 10
64.9526632124
 20
122.8469326425
 30
0.0
 11
64.9526630947
 21
124.3469311285
 31
0.0
  0
LINE
  5
1A1
330
1F
100
AcDbEntity
  8
0
  6
Continuous
 62
     7
370
    30
100
AcDbLine
 10
52.7526633302
 20
124.3469311285
 30
0.0
 11
52.7526632124
 21
122.8469326425
 31
0.0
  0
LINE
  5
1A2
330
1F
100
AcDbEntity
  8
0
  6
Continuous
 62
     7
370
    30
100
AcDbLine
 10
53.8526632124
 20
117.4469326425
 30
0.0
 11
54.4526632124
 21
116.8469326425
 31
0.0
  0
LINE
  5
1A3
330
1F
100
AcDbEntity
  8
0
  6
Continuous
 62
     7
370
    30
100
AcDbLine
 10
63.2526632124
 20
116.8469326425
 30
0.0
 11
63.8526632124
 21
117.4469326425
 31
0.0
  0
LINE
  5
1A4
330
1F
100
AcDbEntity
  8
0
  6
Continuous
 62
     7
370
    30
100
AcDbLine
 10
53.8526633242
 20
122.846931814
 30
0.0
 11
53.8526632124
 21
117.4469326425
 31
0.0
  0
LINE
  5
1A5
330
1F
100
AcDbEntity
  8
0
  6
Continuous
 62
     7
370
    30
100
AcDbLine
 10
63.8526632124
 20
117.4469326425
 30
0.0
 11
63.8526631007
 21
122.846931814
 31
0.0
  0
LINE
  5
1A6
330
1F
100
AcDbEntity
  8
0
  6
Continuous
 62
     7
370
    30
100
AcDbLine
 10
61.3526631566
 20
130.9469329554
 30
0.0
 11
61.3526631566
 21
133.0210069555
 31
0.0
  0
LINE
  5
1A7
330
1F
100
AcDbEntity
  8
0
  6
Continuous
 62
     7
370
    30
100
AcDbLine
 10
61.3526631566
 20
137.7083963144
 30
0.0
 11
61.3526632124
 21
137.8469326425
 31
0.0
  0
LINE
  5
1A8
330
1F
100
AcDbEntity
  8
0
  6
Continuous
 62
     7
370
    30
100
AcDbLine
 10
56.3526632124
 20
137.8469326425
 30
0.0
 11
56.3526632683
 21
137.7083963144
 31
0.0
  0
LINE
  5
1A9
330
1F
100
AcDbEntity
  8
0
  6
Continuous
 62
     7
370
    30
100
AcDbLine
 10
56.3526632683
 20
133.0210069555
 30
0.0
 11
56.3526632683
 21
130.9469329554
 31
0.0
  0
LINE
  5
1AA
330
1F
100
AcDbEntity
  8
0
  6
Continuous
 62
     7
370
    30
100
AcDbLine
 10
78.8526632124
 20
190.5469326425
 30
0.0
 11
78.4526632124
 21
190.9469326425
 31
0.0
  0
LINE
  5
1AB
330
1F
100
AcDbEntity
  8
0
  6
Continuous
 62
     7
370
    30
100
AcDbLine
 10
72.2526632124
 20
190.9469326425
 30
0.0
 11
71.8526632124
 21
190.5469326425
 31
0.0
  0
LINE
  5
1AC
330
1F
100
AcDbEntity
  8
0
  6
Continuous
 62
     7
370
    30
100
AcDbLine
 10
78.8526627654
 20
188.9469331491
 30
0.0
 11
78.8526632124
 21
190.5469326425
 31
0.0
  0
LINE
  5
1AD
330
1F
100
AcDbEntity
  8
0
  6
Continuous
 62
     7
370
    30
100
AcDbLine
 10
71.8526632124
 20
190.5469326425
 30
0.0
 11
71.8526634807
 21
188.9469331491
 31
0.0
  0
LINE
  5
1AE
330
1F
100
AcDbEntity
  8
0
  6
Continuous
 62
     7
370
    30
100
AcDbLine
 10
73.702663132
 20
171.9469322253
 30
0.0
 11
73.702663132
 21
170.9469329927
 31
0.0
  0
LINE
  5
1AF
330
1F
100
AcDbEntity
  8
0
  6
Continuous
 62
     7
370
    30
100
AcDbLine
 10
77.0026631141
 20
170.9469329927
 30
0.0
 11
77.0026631141
 21
171.9469322253
 31
0.0
  0
LINE
  5
1B0
330
1F
100
AcDbEntity
  8
0
  6
Continuous
 62
     7
370
    30
100
AcDbLine
 10
38.8526636595
 20
125.9469321358
 30
0.0
 11
38.8526632124
 21
124.3469326425
 31
0.0
  0
LINE
  5
1B1
330
1F
100
AcDbEntity
  8
0
  6
Continuous
 62
     7
370
    30
100
AcDbLine
 10
45.8526632124
 20
124.3469326425
 30
0.0
 11
45.8526629442
 21
125.9469321358
 31
0.0
  0
LINE
  5
1B2
330
1F
100
AcDbEntity
  8
0
  6
Continuous
 62
     7
370
    30
100
AcDbLine
 10
38.8526632124
 20
124.3469326425
 30
0.0
 11
39.2526632124
 21
123.9469326425
 31
0.0
  0
LINE
  5
1B3
330
1F
100
AcDbEntity
  8
0
  6
Continuous
 62
     7
370
    30
100
AcDbLine
 10
45.4526632124
 20
123.9469326425
 30
0.0
 11
45.8526632124
 21
124.3469326425
 31
0.0
  0
LINE
  5
1B4
330
1F
100
AcDbEntity
  8
0
  6
Continuous
 62
     7
370
    30
100
AcDbLine
 10
44.0026632929
 20
142.9469330597
 30
0.0
 11
44.0026632929
 21
143.9469322923
 31
0.0
  0
LINE
  5
1B5
330
1F
100
AcDbEntity
  8
0
  6
Continuous
 62
     7
370
    30
100
AcDbLine
 10
40.7026633108
 20
143.9469322923
 30
0.0
 11
40.7026633108
 21
142.9469330597
 31
0.0
  0
LINE
  5
1B6
330
1F
100
AcDbEntity
  8
0
  6
Continuous
 62
     7
370
    30
100
AcDbLine
 10
45.8526629442
 20
188.9469331491
 30
0.0
 11
45.8526632124
 21
190.5469326425
 31
0.0
  0
LINE
  5
1B7
330
1F
100
AcDbEntity
  8
0
  6
Continuous
 62
     7
370
    30
100
AcDbLine
 10
38.8526632124
 20
190.5469326425
 30
0.0
 11
38.8526636595
 21
188.9469331491
 31
0.0
  0
LINE
  5
1B8
330
1F
100
AcDbEntity
  8
0
  6
Continuous
 62
     7
370
    30
100
AcDbLine
 10
45.8526632124
 20
190.5469326425
 30
0.0
 11
45.4526632124
 21
190.9469326425
 31
0.0
  0
LINE
  5
1B9
330
1F
100
AcDbEntity
  8
0
  6
Continuous
 62
     7
370
    30
100
AcDbLine
 10
39.2526632124
 20
190.9469326425
 30
0.0
 11
38.8526632124
 21
190.5469326425
 31
0.0
  0
LINE
  5
1BA
330
1F
100
AcDbEntity
  8
0
  6
Continuous
 62
     7
370
    30
100
AcDbLine
 10
40.7026633108
 20
171.9469322253
 30
0.0
 11
40.7026633108
 21
170.9469329927
 31
0.0
  0
LINE
  5
1BB
330
1F
100
AcDbEntity
  8
0
  6
Continuous
 62
     7
370
    30
100
AcDbLine
 10
44.0026632929
 20
170.9469329927
 30
0.0
 11
44.0026632929
 21
171.9469322253
 31
0.0
  0
LINE
  5
1BC
330
1F
100
AcDbEntity
  8
0
  6
Continuous
 62
     7
370
    30
100
AcDbLine
 10
71.8526632124
 20
124.3469326425
 30
0.0
 11
72.2526632124
 21
123.9469326425
 31
0.0
  0
LINE
  5
1BD
330
1F
100
AcDbEntity
  8
0
  6
Continuous
 62
     7
370
    30
100
AcDbLine
 10
78.4526632124
 20
123.9469326425
 30
0.0
 11
78.8526632124
 21
124.3469326425
 31
0.0
  0
LINE
  5
1BE
330
1F
100
AcDbEntity
  8
0
  6
Continuous
 62
     7
370
    30
100
AcDbLine
 10
71.8526634807
 20
125.9469321358
 30
0.0
 11
71.8526632124
 21
124.3469326425
 31
0.0
  0
LINE
  5
1BF
330
1F
100
AcDbEntity
  8
0
  6
Continuous
 62
     7
370
    30
100
AcDbLine
 10
78.8526632124
 20
124.3469326425
 30
0.0
 11
78.8526627654
 21
125.9469321358
 31
0.0
  0
LINE
  5
1C0
330
1F
100
AcDbEntity
  8
0
  6
Continuous
 62
     7
370
    30
100
AcDbLine
 10
77.0026631141
 20
142.9469330597
 30
0.0
 11
77.0026631141
 21
143.9469322923
 31
0.0
  0
LINE
  5
1C1
330
1F
100
AcDbEntity
  8
0
  6
Continuous
 62
     7
370
    30
100
AcDbLine
 10
73.702663132
 20
143.9469322923
 30
0.0
 11
73.702663132
 21
142.9469330597
 31
0.0
  0
LINE
  5
1C2
330
1F
100
AcDbEntity
  8
0
  6
Continuous
 62
     7
370
    30
100
AcDbLine
 10
61.5526632825
 20
132.9469332832
 30
0.0
 11
58.8526632124
 21
133.9469334471
 31
0.0
  0
LINE
  5
1C3
330
1F
100
AcDbEntity
  8
0
  6
Continuous
 62
     7
370
    30
100
AcDbLine
 10
58.8526632124
 20
133.9469334471
 30
0.0
 11
56.1526631424
 21
132.9469332832
 31
0.0
  0
LINE
  5
1C4
330
1F
100
AcDbEntity
  8
0
  6
Continuous
 62
     7
370
    30
100
AcDbLine
 10
56.1526631424
 20
132.9469332832
 30
0.0
 11
54.1026633652
 21
132.9469332832
 31
0.0
  0
LINE
  5
1C5
330
1F
100
AcDbEntity
  8
0
  6
Continuous
 62
     7
370
    30
100
AcDbLine
 10
53.6026632832
 20
133.4469324339
 30
0.0
 11
54.1026633652
 21
132.9469332832
 31
0.0
  0
LINE
  5
1C6
330
1F
100
AcDbEntity
  8
0
  6
Continuous
 62
     7
370
    30
100
AcDbLine
 10
53.6026632832
 20
133.4469324339
 30
0.0
 11
53.6026632124
 21
133.6669326425
 31
0.0
  0
ARC
  5
1C7
330
1F
100
AcDbEntity
  8
0
  6
Continuous
 62
     7
370
    30
100
AcDbCircle
 10
68.0504849523
 20
126.7923092365
 30
0.0
 40
16.00000000000002
100
AcDbArc
 50
131.0705073902
 51
154.5537637246
  0
ARC
  5
1C8
330
1F
100
AcDbEntity
  8
0
  6
Continuous
 62
     7
370
    30
100
AcDbCircle
 10
58.8526632124
 20
137.3469326425
 30
0.0
 40
1.999999999999997
100
AcDbArc
 50
48.9294926098
 51
131.0705073902
  0
ARC
  5
1C9
330
1F
100
AcDbEntity
  8
0
  6
Continuous
 62
     7
370
    30
100
AcDbCircle
 10
49.6548414726
 20
126.7923092365
 30
0.0
 40
16.00000000000001
100
AcDbArc
 50
25.4462362754
 51
48.9294926098
  0
LINE
  5
1CA
330
1F
100
AcDbEntity
  8
0
  6
Continuous
 62
     7
370
    30
100
AcDbLine
 10
64.1026632124
 20
133.6669326425
 30
0.0
 11
64.1026631417
 21
133.4469324339
 31
0.0
  0
LINE
  5
1CB
330
1F
100
AcDbEntity
  8
0
  6
Continuous
 62
     7
370
    30
100
AcDbLine
 10
63.6026630597
 20
132.9469332832
 30
0.0
 11
64.1026631417
 21
133.4469324339
 31
0.0
  0
LINE
  5
1CC
330
1F
100
AcDbEntity
  8
0
  6
Continuous
 62
     7
370
    30
100
AcDbLine
 10
63.6026630597
 20
132.9469332832
 30
0.0
 11
61.5526632825
 21
132.9469332832
 31
0.0
  0
LINE
  5
1CD
330
1F
100
AcDbEntity
  8
0
  6
Continuous
 62
     7
370
    30
100
AcDbLine
 10
66.3526632124
 20
181.2269326425
 30
0.0
 11
51.3526632124
 21
181.2269326425
 31
0.0
  0
LINE
  5
1CE
330
1F
100
AcDbEntity
  8
0
  6
Continuous
 62
     7
370
    30
100
AcDbLine
 10
66.3526632124
 20
181.2269326425
 30
0.0
 11
66.3526632124
 21
176.0391292988
 31
0.0
  0
LINE
  5
1CF
330
1F
100
AcDbEntity
  8
0
  6
Continuous
 62
     7
370
    30
100
AcDbLine
 10
66.3526632124
 20
176.0391292988
 30
0.0
 11
60.9795085108
 21
176.0391300905
 31
0.0
  0
ARC
  5
1D0
330
1F
100
AcDbEntity
  8
0
  6
Continuous
 62
     7
370
    30
100
AcDbCircle
 10
58.8526632124
 20
174.6048320012
 30
0.0
 40
2.565283986603511
100
AcDbArc
 50
33.9948675954
 51
146.0051324046
  0
LINE
  5
1D1
330
1F
100
AcDbEntity
  8
0
  6
Continuous
 62
     7
370
    30
100
AcDbLine
 10
56.7258179141
 20
176.0391300905
 30
0.0
 11
51.3526632124
 21
176.0391292988
 31
0.0
  0
LINE
  5
1D2
330
1F
100
AcDbEntity
  8
0
  6
Continuous
 62
     7
370
    30
100
AcDbLine
 10
51.3526632124
 20
181.2269326425
 30
0.0
 11
51.3526632124
 21
176.0391292988
 31
0.0
  0
LINE
  5
1D3
330
1F
100
AcDbEntity
  8
0
  6
Continuous
 62
     7
370
    30
100
AcDbLine
 10
66.3526630448
 20
181.4469328511
 30
0.0
 11
51.3526633801
 21
181.4469328511
 31
0.0
  0
LINE
  5
1D4
330
1F
100
AcDbEntity
  8
0
  6
Continuous
 62
     7
370
    30
100
AcDbLine
 10
66.3526630448
 20
181.4469328511
 30
0.0
 11
66.3526632124
 21
181.2269326425
 31
0.0
  0
LINE
  5
1D5
330
1F
100
AcDbEntity
  8
0
  6
Continuous
 62
     7
370
    30
100
AcDbLine
 10
51.3526633801
 20
181.4469328511
 30
0.0
 11
51.3526632124
 21
181.2269326425
 31
0.0
  0
LINE
  5
1D6
330
1F
100
AcDbEntity
  8
0
  6
Continuous
 62
     7
370
    30
100
AcDbLine
 10
51.3526633801
 20
181.9469320017
 30
0.0
 11
66.3526630448
 21
181.9469320017
 31
0.0
  0
LINE
  5
1D7
330
1F
100
AcDbEntity
  8
0
  6
Continuous
 62
     7
370
    30
100
AcDbLine
 10
66.3526630448
 20
181.9469320017
 30
0.0
 11
66.3526630448
 21
181.4469328511
 31
0.0
  0
LINE
  5
1D8
330
1F
100
AcDbEntity
  8
0
  6
Continuous
 62
     7
370
    30
100
AcDbLine
 10
51.3526633801
 20
181.4469328511
 30
0.0
 11
51.3526633801
 21
181.9469320017
 31
0.0
  0
ARC
  5
1D9
330
1F
100
AcDbEntity
  8
0
  6
Continuous
 62
     7
370
    30
100
AcDbCircle
 10
70.2747768036
 20
182.6987090186
 30
0.0
 40
11.43468426040051
100
AcDbArc
 50
215.6196394796
 51
218.7149168418
  0
ARC
  5
1DA
330
1F
100
AcDbEntity
  8
0
  6
Continuous
 62
     7
370
    30
100
AcDbCircle
 10
47.539093381
 20
182.6164174831
 30
0.0
 40
11.29852278366206
100
AcDbArc
 50
321.2664275367
 51
324.3990161419
  0
LINE
  5
1DB
330
1F
100
AcDbEntity
  8
0
  6
Continuous
 62
     7
370
    30
100
AcDbLine
 10
51.3526632124
 20
176.0391292988
 30
0.0
 11
51.3526632124
 21
175.5469326425
 31
0.0
  0
LINE
  5
1DC
330
1F
100
AcDbEntity
  8
0
  6
Continuous
 62
     7
370
    30
100
AcDbLine
 10
66.3526632124
 20
176.0391292988
 30
0.0
 11
66.3526632124
 21
175.5469326425
 31
0.0
  0
LINE
  5
1DD
330
1F
100
AcDbEntity
  8
0
  6
Continuous
 62
     7
370
    30
100
AcDbLine
 10
38.3526626462
 20
142.9469330597
 30
0.0
 11
46.3526630262
 21
142.9469330597
 31
0.0
  0
LINE
  5
1DE
330
1F
100
AcDbEntity
  8
0
  6
Continuous
 62
     7
370
    30
100
AcDbLine
 10
46.3526630262
 20
142.9469330597
 30
0.0
 11
46.3526630262
 21
130.9469329554
 31
0.0
  0
LINE
  5
1DF
330
1F
100
AcDbEntity
  8
0
  6
Continuous
 62
     7
370
    30
100
AcDbLine
 10
71.3526633987
 20
130.9469329554
 30
0.0
 11
46.3526630262
 21
130.9469329554
 31
0.0
  0
LINE
  5
1E0
330
1F
100
AcDbEntity
  8
0
  6
Continuous
 62
     7
370
    30
100
AcDbLine
 10
71.3526633987
 20
142.9469330597
 30
0.0
 11
71.3526633987
 21
130.9469329554
 31
0.0
  0
LINE
  5
1E1
330
1F
100
AcDbEntity
  8
0
  6
Continuous
 62
     7
370
    30
100
AcDbLine
 10
71.3526633987
 20
142.9469330597
 30
0.0
 11
79.3526637787
 21
142.9469330597
 31
0.0
  0
LINE
  5
1E2
330
1F
100
AcDbEntity
  8
0
  6
Continuous
 62
     7
370
    30
100
AcDbLine
 10
79.3526637787
 20
125.9469321358
 30
0.0
 11
79.3526637787
 21
142.9469330597
 31
0.0
  0
LINE
  5
1E3
330
1F
100
AcDbEntity
  8
0
  6
Continuous
 62
     7
370
    30
100
AcDbLine
 10
79.3526637787
 20
125.9469321358
 30
0.0
 11
38.3526626462
 21
125.9469321358
 31
0.0
  0
LINE
  5
1E4
330
1F
100
AcDbEntity
  8
0
  6
Continuous
 62
     7
370
    30
100
AcDbLine
 10
38.3526626462
 20
125.9469321358
 30
0.0
 11
38.3526626462
 21
142.9469330597
 31
0.0
  0
LINE
  5
1E5
330
1F
100
AcDbEntity
  8
0
  6
Continuous
 62
     7
370
    30
100
AcDbLine
 10
79.3526637787
 20
171.9469322253
 30
0.0
 11
71.3526633987
 21
171.9469322253
 31
0.0
  0
LINE
  5
1E6
330
1F
100
AcDbEntity
  8
0
  6
Continuous
 62
     7
370
    30
100
AcDbLine
 10
71.3526633987
 20
171.9469322253
 30
0.0
 11
71.3526633987
 21
183.9469323296
 31
0.0
  0
LINE
  5
1E7
330
1F
100
AcDbEntity
  8
0
  6
Continuous
 62
     7
370
    30
100
AcDbLine
 10
46.3526630262
 20
183.9469323296
 30
0.0
 11
71.3526633987
 21
183.9469323296
 31
0.0
  0
LINE
  5
1E8
330
1F
100
AcDbEntity
  8
0
  6
Continuous
 62
     7
370
    30
100
AcDbLine
 10
46.3526630262
 20
171.9469322253
 30
0.0
 11
46.3526630262
 21
183.9469323296
 31
0.0
  0
LINE
  5
1E9
330
1F
100
AcDbEntity
  8
0
  6
Continuous
 62
     7
370
    30
100
AcDbLine
 10
46.3526630262
 20
171.9469322253
 30
0.0
 11
38.3526626462
 21
171.9469322253
 31
0.0
  0
LINE
  5
1EA
330
1F
100
AcDbEntity
  8
0
  6
Continuous
 62
     7
370
    30
100
AcDbLine
 10
38.3526626462
 20
188.9469331491
 30
0.0
 11
38.3526626462
 21
171.9469322253
 31
0.0
  0
LINE
  5
1EB
330
1F
100
AcDbEntity
  8
0
  6
Continuous
 62
     7
370
    30
100
AcDbLine
 10
38.3526626462
 20
188.9469331491
 30
0.0
 11
79.3526637787
 21
188.9469331491
 31
0.0
  0
LINE
  5
1EC
330
1F
100
AcDbEntity
  8
0
  6
Continuous
 62
     7
370
    30
100
AcDbLine
 10
79.3526637787
 20
188.9469331491
 30
0.0
 11
79.3526637787
 21
171.9469322253
 31
0.0
  0
LINE
  5
1ED
330
1F
100
AcDbEntity
  8
0
  6
Continuous
 62
     7
370
    30
100
AcDbLine
 10
38.3526626462
 20
170.9469329927
 30
0.0
 11
46.3526630262
 21
170.9469329927
 31
0.0
  0
LINE
  5
1EE
330
1F
100
AcDbEntity
  8
0
  6
Continuous
 62
     7
370
    30
100
AcDbLine
 10
46.3526630262
 20
170.9469329927
 30
0.0
 11
46.3526630262
 21
158.9469326555
 31
0.0
  0
LINE
  5
1EF
330
1F
100
AcDbEntity
  8
0
  6
Continuous
 62
     7
370
    30
100
AcDbLine
 10
71.3526633987
 20
158.9469326555
 30
0.0
 11
46.3526630262
 21
158.9469326555
 31
0.0
  0
LINE
  5
1F0
330
1F
100
AcDbEntity
  8
0
  6
Continuous
 62
     7
370
    30
100
AcDbLine
 10
71.3526633987
 20
170.9469329927
 30
0.0
 11
71.3526633987
 21
158.9469326555
 31
0.0
  0
LINE
  5
1F1
330
1F
100
AcDbEntity
  8
0
  6
Continuous
 62
     7
370
    30
100
AcDbLine
 10
71.3526633987
 20
170.9469329927
 30
0.0
 11
79.3526637787
 21
170.9469329927
 31
0.0
  0
LINE
  5
1F2
330
1F
100
AcDbEntity
  8
0
  6
Continuous
 62
     7
370
    30
100
AcDbLine
 10
79.3526637787
 20
143.9469322923
 30
0.0
 11
79.3526637787
 21
170.9469329927
 31
0.0
  0
LINE
  5
1F3
330
1F
100
AcDbEntity
  8
0
  6
Continuous
 62
     7
370
    30
100
AcDbLine
 10
71.3526633987
 20
143.9469322923
 30
0.0
 11
79.3526637787
 21
143.9469322923
 31
0.0
  0
LINE
  5
1F4
330
1F
100
AcDbEntity
  8
0
  6
Continuous
 62
     7
370
    30
100
AcDbLine
 10
71.3526633987
 20
155.9469326294
 30
0.0
 11
71.3526633987
 21
143.9469322923
 31
0.0
  0
LINE
  5
1F5
330
1F
100
AcDbEntity
  8
0
  6
Continuous
 62
     7
370
    30
100
AcDbLine
 10
71.3526633987
 20
155.9469326294
 30
0.0
 11
46.3526630262
 21
155.9469326294
 31
0.0
  0
LINE
  5
1F6
330
1F
100
AcDbEntity
  8
0
  6
Continuous
 62
     7
370
    30
100
AcDbLine
 10
46.3526630262
 20
155.9469326294
 30
0.0
 11
46.3526630262
 21
143.9469322923
 31
0.0
  0
LINE
  5
1F7
330
1F
100
AcDbEntity
  8
0
  6
Continuous
 62
     7
370
    30
100
AcDbLine
 10
38.3526626462
 20
143.9469322923
 30
0.0
 11
46.3526630262
 21
143.9469322923
 31
0.0
  0
LINE
  5
1F8
330
1F
100
AcDbEntity
  8
0
  6
Continuous
 62
     7
370
    30
100
AcDbLine
 10
38.3526626462
 20
143.9469322923
 30
0.0
 11
38.3526626462
 21
170.9469329927
 31
0.0
  0
LINE
  5
1F9
330
1F
100
AcDbEntity
  8
0
  6
Continuous
 62
     7
370
    30
100
AcDbLine
 10
66.3525906421
 20
190.5469326425
 30
0.0
 11
51.3526632124
 21
190.5469326425
 31
0.0
  0
LINE
  5
1FA
330
1F
100
AcDbEntity
  8
0
  6
Continuous
 62
     7
370
    30
100
AcDbLine
 10
64.9526041885
 20
192.0469326425
 30
0.0
 11
52.7526632124
 21
192.0469326425
 31
0.0
  0
LINE
  5
1FB
330
1F
100
AcDbEntity
  8
0
  6
Continuous
 62
     7
370
    30
100
AcDbLine
 10
54.4527057871
 20
198.0469326425
 30
0.0
 11
63.2526632124
 21
198.0469326425
 31
0.0
  0
LINE
  5
1FC
330
1F
100
AcDbEntity
  8
0
  6
Continuous
 62
     7
370
    30
100
AcDbLine
 10
63.8526632124
 20
197.4469326425
 30
0.0
 11
53.8527115927
 21
197.4469326425
 31
0.0
  0
LINE
  5
1FD
330
1F
100
AcDbEntity
  8
0
  6
Continuous
 62
     7
370
    30
100
AcDbLine
 10
59.6531058713
 20
177.0469326425
 30
0.0
 11
58.089064306
 21
177.0469326425
 31
0.0
  0
LINE
  5
1FE
330
1F
100
AcDbEntity
  8
0
  6
Continuous
 62
     7
370
    30
100
AcDbLine
 10
60.2133603046
 20
124.3469326425
 30
0.0
 11
66.3526632124
 21
124.3469326425
 31
0.0
  0
LINE
  5
1FF
330
1F
100
AcDbEntity
  8
0
  6
Continuous
 62
     7
370
    30
100
AcDbLine
 10
51.3526632124
 20
124.3469326425
 30
0.0
 11
60.2133603046
 21
124.3469326425
 31
0.0
  0
LINE
  5
200
330
1F
100
AcDbEntity
  8
0
  6
Continuous
 62
     7
370
    30
100
AcDbLine
 10
59.9593635141
 20
122.8469326425
 30
0.0
 11
64.9526632124
 21
122.8469326425
 31
0.0
  0
LINE
  5
201
330
1F
100
AcDbEntity
  8
0
  6
Continuous
 62
     7
370
    30
100
AcDbLine
 10
52.7526632124
 20
122.8469326425
 30
0.0
 11
59.9593635141
 21
122.8469326425
 31
0.0
  0
LINE
  5
202
330
1F
100
AcDbEntity
  8
0
  6
Continuous
 62
     7
370
    30
100
AcDbLine
 10
63.2526632124
 20
116.8469326425
 30
0.0
 11
54.4526632124
 21
116.8469326425
 31
0.0
  0
LINE
  5
203
330
1F
100
AcDbEntity
  8
0
  6
Continuous
 62
     7
370
    30
100
AcDbLine
 10
53.8526632124
 20
117.4469326425
 30
0.0
 11
63.8526632124
 21
117.4469326425
 31
0.0
  0
LINE
  5
204
330
1F
100
AcDbEntity
  8
0
  6
Continuous
 62
     7
370
    30
100
AcDbLine
 10
61.2218333612
 20
137.8469326425
 30
0.0
 11
61.3526632124
 21
137.8469326425
 31
0.0
  0
LINE
  5
205
330
1F
100
AcDbEntity
  8
0
  6
Continuous
 62
     7
370
    30
100
AcDbLine
 10
56.3526632124
 20
137.8469326425
 30
0.0
 11
56.4834930636
 21
137.8469326425
 31
0.0
  0
LINE
  5
206
330
1F
100
AcDbEntity
  8
0
  6
Continuous
 62
     7
370
    30
100
AcDbLine
 10
72.2526632124
 20
190.9469326425
 30
0.0
 11
78.4526632124
 21
190.9469326425
 31
0.0
  0
LINE
  5
207
330
1F
100
AcDbEntity
  8
0
  6
Continuous
 62
     7
370
    30
100
AcDbLine
 10
78.8526632124
 20
190.5469326425
 30
0.0
 11
71.8526632124
 21
190.5469326425
 31
0.0
  0
LINE
  5
208
330
1F
100
AcDbEntity
  8
0
  6
Continuous
 62
     7
370
    30
100
AcDbLine
 10
43.6933347407
 20
124.3469326425
 30
0.0
 11
45.8526632124
 21
124.3469326425
 31
0.0
  0
LINE
  5
209
330
1F
100
AcDbEntity
  8
0
  6
Continuous
 62
     7
370
    30
100
AcDbLine
 10
38.8526632124
 20
124.3469326425
 30
0.0
 11
43.6933347407
 21
124.3469326425
 31
0.0
  0
LINE
  5
20A
330
1F
100
AcDbEntity
  8
0
  6
Continuous
 62
     7
370
    30
100
AcDbLine
 10
43.5401151374
 20
123.9469326425
 30
0.0
 11
39.2526632124
 21
123.9469326425
 31
0.0
  0
LINE
  5
20B
330
1F
100
AcDbEntity
  8
0
  6
Continuous
 62
     7
370
    30
100
AcDbLine
 10
45.4526632124
 20
123.9469326425
 30
0.0
 11
43.5401151374
 21
123.9469326425
 31
0.0
  0
LINE
  5
20C
330
1F
100
AcDbEntity
  8
0
  6
Continuous
 62
     7
370
    30
100
AcDbLine
 10
45.8526632124
 20
190.5469326425
 30
0.0
 11
38.8526632124
 21
190.5469326425
 31
0.0
  0
LINE
  5
20D
330
1F
100
AcDbEntity
  8
0
  6
Continuous
 62
     7
370
    30
100
AcDbLine
 10
39.2526632124
 20
190.9469326425
 30
0.0
 11
45.4526632124
 21
190.9469326425
 31
0.0
  0
LINE
  5
20E
330
1F
100
AcDbEntity
  8
0
  6
Continuous
 62
     7
370
    30
100
AcDbLine
 10
76.5401151374
 20
123.9469326425
 30
0.0
 11
72.2526632124
 21
123.9469326425
 31
0.0
  0
LINE
  5
20F
330
1F
100
AcDbEntity
  8
0
  6
Continuous
 62
     7
370
    30
100
AcDbLine
 10
78.4526632124
 20
123.9469326425
 30
0.0
 11
76.5401151374
 21
123.9469326425
 31
0.0
  0
LINE
  5
210
330
1F
100
AcDbEntity
  8
0
  6
Continuous
 62
     7
370
    30
100
AcDbLine
 10
76.6933347407
 20
124.3469326425
 30
0.0
 11
78.8526632124
 21
124.3469326425
 31
0.0
  0
LINE
  5
211
330
1F
100
AcDbEntity
  8
0
  6
Continuous
 62
     7
370
    30
100
AcDbLine
 10
71.8526632124
 20
124.3469326425
 30
0.0
 11
76.6933347407
 21
124.3469326425
 31
0.0
  0
ENDSEC
  0
SECTION
  2
OBJECTS
  0
DICTIONARY
  5
C
330
0
100
AcDbDictionary
281
     1
  3
ACAD_GROUP
350
D
  3
ACAD_LAYOUT
350
1A
  3
ACAD_MLINESTYLE
350
17
  3
ACAD_PLOTSETTINGS
350
19
  3
ACAD_PLOTSTYLENAME
350
E
  0
DICTIONARY
  5
D
102
{ACAD_REACTORS
330
C
102
}
330
C
100
AcDbDictionary
281
     1
  0
DICTIONARY
  5
1A
102
{ACAD_REACTORS
330
C
102
}
330
C
100
AcDbDictionary
281
     1
  3
Layout1
350
1E
  3
Layout2
350
26
  3
Model
350
22
  0
DICTIONARY
  5
17
102
{ACAD_REACTORS
330
C
102
}
330
C
100
AcDbDictionary
281
     1
  3
Standard
350
18
  0
DICTIONARY
  5
19
102
{ACAD_REACTORS
330
C
102
}
330
C
100
AcDbDictionary
281
     1
  0
ACDBDICTIONARYWDFLT
  5
E
102
{ACAD_REACTORS
330
C
102
}
330
C
100
AcDbDictionary
281
     1
  3
Normal
350
F
100
AcDbDictionaryWithDefault
340
F
  0
LAYOUT
  5
1E
102
{ACAD_REACTORS
330
1A
102
}
330
1A
100
AcDbPlotSettings
  1

  2

  4

  6

 40
0.0
 41
0.0
 42
0.0
 43
0.0
 44
0.0
 45
0.0
 46
0.0
 47
0.0
 48
0.0
 49
0.0
140
0.0
141
0.0
142
1.0
143
1.0
 70
   688
 72
     0
 73
     0
 74
     5
  7

 75
    16
147
1.0
148
0.0
149
0.0
100
AcDbLayout
  1
Layout1
 70
     1
 71
     1
 10
0.0
 20
0.0
 11
0.0
 21
0.0
 12
0.0
 22
0.0
 32
0.0
 14
0.0
 24
0.0
 34
0.0
 15
0.0
 25
0.0
 35
0.0
146
0.0
 13
0.0
 23
0.0
 33
0.0
 16
1.0
 26
0.0
 36
0.0
 17
0.0
 27
1.0
 37
0.0
 76
     0
330
1B
  0
LAYOUT
  5
26
102
{ACAD_REACTORS
330
1A
102
}
330
1A
100
AcDbPlotSettings
  1

  2

  4

  6

 40
0.0
 41
0.0
 42
0.0
 43
0.0
 44
0.0
 45
0.0
 46
0.0
 47
0.0
 48
0.0
 49
0.0
140
0.0
141
0.0
142
1.0
143
1.0
 70
   688
 72
     0
 73
     0
 74
     5
  7

 75
    16
147
1.0
148
0.0
149
0.0
100
AcDbLayout
  1
Layout2
 70
     1
 71
     2
 10
0.0
 20
0.0
 11
0.0
 21
0.0
 12
0.0
 22
0.0
 32
0.0
 14
0.0
 24
0.0
 34
0.0
 15
0.0
 25
0.0
 35
0.0
146
0.0
 13
0.0
 23
0.0
 33
0.0
 16
1.0
 26
0.0
 36
0.0
 17
0.0
 27
1.0
 37
0.0
 76
     0
330
23
  0
LAYOUT
  5
22
102
{ACAD_REACTORS
330
1A
102
}
330
1A
100
AcDbPlotSettings
  1

  2

  4

  6

 40
0.0
 41
0.0
 42
0.0
 43
0.0
 44
0.0
 45
0.0
 46
0.0
 47
0.0
 48
0.0
 49
0.0
140
0.0
141
0.0
142
1.0
143
1.0
 70
  1712
 72
     0
 73
     0
 74
     0
  7

 75
     0
147
1.0
148
0.0
149
0.0
100
AcDbLayout
  1
Model
 70
     1
 71
     0
 10
0.0
 20
0.0
 11
0.0
 21
0.0
 12
0.0
 22
0.0
 32
0.0
 14
0.0
 24
0.0
 34
0.0
 15
210.0
 25
297.0
 35
0.0
146
0.0
 13
0.0
 23
0.0
 33
0.0
 16
1.0
 26
0.0
 36
0.0
 17
0.0
 27
1.0
 37
0.0
 76
     0
330
1F
  0
MLINESTYLE
  5
18
102
{ACAD_REACTORS
330
17
102
}
330
17
100
AcDbMlineStyle
  2
Standard
 70
     0
  3

 62
   256
 51
90.0
 52
90.0
 71
     2
 49
0.5
 62
   256
  6
BYLAYER
 49
-0.5
 62
   256
  6
BYLAYER
  0
ACDBPLACEHOLDER
  5
F
102
{ACAD_REACTORS
330
E
102
}
330
E
  0
ENDSEC
  0
EOF
