  0
SECTION
  2
HEADER
  9
$ACADVER
  1
AC1015
  9
$ACADMAINTVER
 70
     6
  9
$DWGCODEPAGE
  3
DOS932
  9
$INSBASE
 10
0.0
 20
0.0
 30
0.0
  9
$EXTMIN
 10
0.0
 20
0.0
 30
0.0
  9
$EXTMAX
 10
210.0
 20
297.0
 30
0.0
  9
$LIMMIN
 10
0.0
 20
0.0
  9
$LIMMAX
 10
0.0
 20
0.0
  9
$ORTHOMODE
 70
     0
  9
$REGENMODE
 70
     1
  9
$FILLMODE
 70
     1
  9
$QTEXTMODE
 70
     0
  9
$MIRRTEXT
 70
     1
  9
$LTSCALE
 40
1.0
  9
$ATTMODE
 70
     1
  9
$TEXTSIZE
 40
3.5
  9
$TRACEWID
 40
1.0
  9
$TEXTSTYLE
  7
Standard
  9
$CLAYER
  8
0
  9
$CELTYPE
  6
ByLayer
  9
$CECOLOR
 62
   256
  9
$CELTSCALE
 40
1.0
  9
$DISPSILH
 70
     0
  9
$DIMSCALE
 40
1.0
  9
$DIMASZ
 40
5.0
  9
$DIMEXO
 40
1.0
  9
$DIMDLI
 40
3.75
  9
$DIMRND
 40
0.0
  9
$DIMDLE
 40
0.0
  9
$DIMEXE
 40
1.0
  9
$DIMTP
 40
0.0
  9
$DIMTM
 40
0.0
  9
$DIMTXT
 40
7.0555555556
  9
$DIMCEN
 40
2.5
  9
$DIMTSZ
 40
0.0
  9
$DIMTOL
 70
     0
  9
$DIMLIM
 70
     0
  9
$DIMTIH
 70
     1
  9
$DIMTOH
 70
     1
  9
$DIMSE1
 70
     0
  9
$DIMSE2
 70
     0
  9
$DIMTAD
 70
     1
  9
$DIMZIN
 70
     0
  9
$DIMBLK
  1

  9
$DIMASO
 70
     1
  9
$DIMSHO
 70
     1
  9
$DIMPOST
  1

  9
$DIMAPOST
  1

  9
$DIMALT
 70
     0
  9
$DIMALTD
 70
     3
  9
$DIMALTF
 40
0.0393700787
  9
$DIMLFAC
 40
1.0
  9
$DIMTOFL
 70
     1
  9
$DIMTVP
 40
0.0
  9
$DIMTIX
 70
     0
  9
$DIMSOXD
 70
     0
  9
$DIMSAH
 70
     0
  9
$DIMBLK1
  1

  9
$DIMBLK2
  1

  9
$DIMSTYLE
  2
ISO-25
  9
$DIMCLRD
 70
     0
  9
$DIMCLRE
 70
     0
  9
$DIMCLRT
 70
     0
  9
$DIMTFAC
 40
1.0
  9
$DIMGAP
 40
1.524
  9
$DIMJUST
 70
     0
  9
$DIMSD1
 70
     0
  9
$DIMSD2
 70
     0
  9
$DIMTOLJ
 70
     0
  9
$DIMTZIN
 70
     0
  9
$DIMALTZ
 70
     0
  9
$DIMALTTZ
 70
     0
  9
$DIMUPT
 70
     0
  9
$DIMDEC
 70
     2
  9
$DIMTDEC
 70
     2
  9
$DIMALTU
 70
     2
  9
$DIMALTTD
 70
     3
  9
$DIMTXSTY
  7
Standard
  9
$DIMAUNIT
 70
     0
  9
$DIMADEC
 70
     0
  9
$DIMALTRND
 40
0.0
  9
$DIMAZIN
 70
     0
  9
$DIMDSEP
 70
    44
  9
$DIMATFIT
 70
     3
  9
$DIMFRAC
 70
     0
  9
$DIMLDRBLK
  1

  9
$DIMLUNIT
 70
     2
  9
$DIMLWD
 70
    -2
  9
$DIMLWE
 70
    -2
  9
$DIMTMOVE
 70
     0
  9
$LUNITS
 70
     2
  9
$LUPREC
 70
     1
  9
$SKETCHINC
 40
1.0
  9
$FILLETRAD
 40
10.0
  9
$AUNITS
 70
     0
  9
$AUPREC
 70
     0
  9
$MENU
  1
.
  9
$ELEVATION
 40
0.0
  9
$PELEVATION
 40
0.0
  9
$THICKNESS
 40
0.0
  9
$LIMCHECK
 70
     0
  9
$CHAMFERA
 40
10.0
  9
$CHAMFERB
 40
10.0
  9
$CHAMFERC
 40
20.0
  9
$CHAMFERD
 40
0.0
  9
$SKPOLY
 70
     0
  9
$TDCREATE
 40
2454723.630428773
  9
$TDUCREATE
 40
2454723.255428773
  9
$TDUPDATE
 40
2454723.630428785
  9
$TDUUPDATE
 40
2454723.255428785
  9
$TDINDWG
 40
0.0000000116
  9
$TDUSRTIMER
 40
0.0000000116
  9
$USRTIMER
 70
     1
  9
$ANGBASE
 50
0.0
  9
$ANGDIR
 70
     0
  9
$PDMODE
 70
     0
  9
$PDSIZE
 40
-1.0
  9
$PLINEWID
 40
0.0
  9
$SPLFRAME
 70
     0
  9
$SPLINETYPE
 70
     6
  9
$SPLINESEGS
 70
     8
  9
$HANDSEED
  5
2AA
  9
$SURFTAB1
 70
     6
  9
$SURFTAB2
 70
     6
  9
$SURFTYPE
 70
     6
  9
$SURFU
 70
     6
  9
$SURFV
 70
     6
  9
$UCSBASE
  2

  9
$UCSNAME
  2

  9
$UCSORG
 10
0.0
 20
0.0
 30
0.0
  9
$UCSXDIR
 10
1.0
 20
0.0
 30
0.0
  9
$UCSYDIR
 10
0.0
 20
1.0
 30
0.0
  9
$UCSORTHOREF
  2

  9
$UCSORTHOVIEW
 70
     0
  9
$UCSORGTOP
 10
0.0
 20
0.0
 30
0.0
  9
$UCSORGBOTTOM
 10
0.0
 20
0.0
 30
0.0
  9
$UCSORGLEFT
 10
0.0
 20
0.0
 30
0.0
  9
$UCSORGRIGHT
 10
0.0
 20
0.0
 30
0.0
  9
$UCSORGFRONT
 10
0.0
 20
0.0
 30
0.0
  9
$UCSORGBACK
 10
0.0
 20
0.0
 30
0.0
  9
$PUCSBASE
  2

  9
$PUCSNAME
  2

  9
$PUCSORG
 10
0.0
 20
0.0
 30
0.0
  9
$PUCSXDIR
 10
1.0
 20
0.0
 30
0.0
  9
$PUCSYDIR
 10
0.0
 20
1.0
 30
0.0
  9
$PUCSORTHOREF
  2

  9
$PUCSORTHOVIEW
 70
     0
  9
$PUCSORGTOP
 10
0.0
 20
0.0
 30
0.0
  9
$PUCSORGBOTTOM
 10
0.0
 20
0.0
 30
0.0
  9
$PUCSORGLEFT
 10
0.0
 20
0.0
 30
0.0
  9
$PUCSORGRIGHT
 10
0.0
 20
0.0
 30
0.0
  9
$PUCSORGFRONT
 10
0.0
 20
0.0
 30
0.0
  9
$PUCSORGBACK
 10
0.0
 20
0.0
 30
0.0
  9
$USERI1
 70
     0
  9
$USERI2
 70
     0
  9
$USERI3
 70
     0
  9
$USERI4
 70
     0
  9
$USERI5
 70
     0
  9
$USERR1
 40
0.0
  9
$USERR2
 40
0.0
  9
$USERR3
 40
0.0
  9
$USERR4
 40
0.0
  9
$USERR5
 40
0.0
  9
$WORLDVIEW
 70
     1
  9
$SHADEDGE
 70
     3
  9
$SHADEDIF
 70
    70
  9
$TILEMODE
 70
     1
  9
$MAXACTVP
 70
    64
  9
$PINSBASE
 10
0.0
 20
0.0
 30
0.0
  9
$PLIMCHECK
 70
     0
  9
$PEXTMIN
 10
1.0000000000E+20
 20
1.0000000000E+20
 30
1.0000000000E+20
  9
$PEXTMAX
 10
-1.0000000000E+20
 20
-1.0000000000E+20
 30
-1.0000000000E+20
  9
$PLIMMIN
 10
0.0
 20
0.0
  9
$PLIMMAX
 10
420.0
 20
297.0
  9
$UNITMODE
 70
     0
  9
$VISRETAIN
 70
     1
  9
$PLINEGEN
 70
     0
  9
$PSLTSCALE
 70
     1
  9
$TREEDEPTH
 70
  3020
  9
$CMLSTYLE
  2
Standard
  9
$CMLJUST
 70
     0
  9
$CMLSCALE
 40
20.0
  9
$PROXYGRAPHICS
 70
     1
  9
$MEASUREMENT
 70
     1
  9
$CELWEIGHT
370
    -1
  9
$ENDCAPS
280
     0
  9
$JOINSTYLE
280
     0
  9
$LWDISPLAY
290
     1
  9
$INSUNITS
 70
     4
  9
$HYPERLINKBASE
  1

  9
$STYLESHEET
  1

  9
$XEDIT
290
     1
  9
$CEPSNTYPE
380
     0
  9
$PSTYLEMODE
290
     1
  9
$FINGERPRINTGUID
  2
{D13358E8-F434-4897-9D88-BE6F79177896}
  9
$VERSIONGUID
  2
{FAEB1C32-E019-11D5-929B-00C0DF256EC4}
  9
$EXTNAMES
290
     1
  9
$PSVPSCALE
 40
0.0
  9
$OLESTARTUP
290
     0
  0
ENDSEC
  0
SECTION
  2
CLASSES
  0
CLASS
  1
ACDBDICTIONARYWDFLT
  2
AcDbDictionaryWithDefault
  3
ObjectDBX Classes
 90
        0
280
     0
281
     0
  0
CLASS
  1
ACDBPLACEHOLDER
  2
AcDbPlaceHolder
  3
ObjectDBX Classes
 90
        0
280
     0
281
     0
  0
CLASS
  1
LAYOUT
  2
AcDbLayout
  3
ObjectDBX Classes
 90
        0
280
     0
281
     0
  0
ENDSEC
  0
SECTION
  2
TABLES
  0
TABLE
  2
VPORT
  5
8
330
0
100
AcDbSymbolTable
 70
     1
  0
VPORT
  5
29
330
8
100
AcDbSymbolTableRecord
100
AcDbViewportTableRecord
  2
*Active
 70
     0
 10
0.0
 20
0.0
 11
1.0
 21
1.0
 12
105.0
 22
148.5
 13
0.0
 23
0.0
 14
10.0
 24
10.0
 15
10.0
 25
10.0
 16
0.0
 26
0.0
 36
1.0
 17
0.0
 27
0.0
 37
0.0
 40
297.0
 41
1.9729729729
 42
50.0
 43
0.0
 44
0.0
 50
0.0
 51
0.0
 71
     0
 72
  2000
 73
     1
 74
     3
 75
     0
 76
     0
 77
     0
 78
     0
281
     0
 65
     1
110
0.0
120
0.0
130
0.0
111
1.0
121
0.0
131
0.0
112
0.0
122
1.0
132
0.0
 79
     0
146
0.0
  0
ENDTAB
  0
TABLE
  2
LTYPE
  5
5
330
0
100
AcDbSymbolTable
 70
     6
  0
LTYPE
  5
14
330
5
100
AcDbSymbolTableRecord
100
AcDbLinetypeTableRecord
  2
ByBlock
 70
     0
  3

 72
    65
 73
     0
 40
0.0
  0
LTYPE
  5
15
330
5
100
AcDbSymbolTableRecord
100
AcDbLinetypeTableRecord
  2
ByLayer
 70
     0
  3

 72
    65
 73
     0
 40
0.0
  0
LTYPE
  5
16
330
5
100
AcDbSymbolTableRecord
100
AcDbLinetypeTableRecord
  2
Continuous
 70
     0
  3
Solid line
 72
    65
 73
     0
 40
0.0
  0
LTYPE
  5
2A
330
5
100
AcDbSymbolTableRecord
100
AcDbLinetypeTableRecord
  2
HIDDEN
 70
     0
  3
Hidden __ __ __ __ __ __ __ __ __ __ __ __ __ __
 72
    65
 73
     2
 40
1.905
 49
1.27
 74
     0
 49
-0.635
 74
     0
  0
LTYPE
  5
2B
330
5
100
AcDbSymbolTableRecord
100
AcDbLinetypeTableRecord
  2
PHANTOM
 70
     0
  3
Phantom ______  __  __  ______  __  __  ______
 72
    65
 73
     6
 40
12.7
 49
6.35
 74
     0
 49
-1.27
 74
     0
 49
1.27
 74
     0
 49
-1.27
 74
     0
 49
1.27
 74
     0
 49
-1.27
 74
     0
  0
LTYPE
  5
2C
330
5
100
AcDbSymbolTableRecord
100
AcDbLinetypeTableRecord
  2
CENTER
 70
     0
  3
Center ____ _ ____ _ ____ _ ____ _ ____ _ ____
 72
    65
 73
     4
 40
10.16
 49
6.35
 74
     0
 49
-1.27
 74
     0
 49
1.27
 74
     0
 49
-1.27
 74
     0
  0
LTYPE
  5
2D
330
5
100
AcDbSymbolTableRecord
100
AcDbLinetypeTableRecord
  2
CENTERX2
 70
     0
  3
Center (2x) ________  __  ________  __  _____
 72
    65
 73
     4
 40
20.32
 49
12.7
 74
     0
 49
-2.54
 74
     0
 49
2.54
 74
     0
 49
-2.54
 74
     0
  0
LTYPE
  5
2E
330
5
100
AcDbSymbolTableRecord
100
AcDbLinetypeTableRecord
  2
DOT2
 70
     0
  3
Dot (.5x) ........................................
 72
    65
 73
     2
 40
0.635
 49
0.0
 74
     0
 49
-0.635
 74
     0
  0
ENDTAB
  0
TABLE
  2
LAYER
  5
2
330
0
100
AcDbSymbolTable
 70
     5
  0
LAYER
  5
10
330
2
100
AcDbSymbolTableRecord
100
AcDbLayerTableRecord
  2
0
 70
     0
 62
     7
  6
Continuous
370
    -3
390
F
  0
LAYER
  5
2F
330
2
100
AcDbSymbolTableRecord
100
AcDbLayerTableRecord
  2
ﾚｲﾔｰ0
 70
     0
 62
     7
  6
PHANTOM
370
     0
390
F
  0
LAYER
  5
30
330
2
100
AcDbSymbolTableRecord
100
AcDbLayerTableRecord
  2
ﾚｲﾔｰ1
 70
     0
 62
     7
  6
HIDDEN
370
     0
390
F
  0
LAYER
  5
31
330
2
100
AcDbSymbolTableRecord
100
AcDbLayerTableRecord
  2
ﾚｲﾔｰ2
 70
     0
 62
    -7
  6
Continuous
370
     0
390
F
  0
LAYER
  5
63
330
2
100
AcDbSymbolTableRecord
100
AcDbLayerTableRecord
  2
Defpoints
 70
     0
 62
     7
  6
Continuous
290
     0
370
    -3
390
F
  0
ENDTAB
  0
TABLE
  2
STYLE
  5
3
330
0
100
AcDbSymbolTable
 70
     2
  0
STYLE
  5
11
330
3
100
AcDbSymbolTableRecord
100
AcDbTextStyleTableRecord
  2
Standard
 70
     0
 40
0.0
 41
1.0
 50
0.0
 71
     0
 42
2.5
  3
txt
  4
bigfont
  0
STYLE
  5
3A
330
3
100
AcDbSymbolTableRecord
100
AcDbTextStyleTableRecord
  2
SLDTEXTSTYLE0
 70
     0
 40
0.0
 41
0.7
 50
0.0
 71
     0
 42
0.2
  3
TXT
  4
bigfont
  0
ENDTAB
  0
TABLE
  2
VIEW
  5
6
330
0
100
AcDbSymbolTable
 70
     0
  0
ENDTAB
  0
TABLE
  2
UCS
  5
7
330
0
100
AcDbSymbolTable
 70
     0
  0
ENDTAB
  0
TABLE
  2
APPID
  5
9
330
0
100
AcDbSymbolTable
 70
     1
  0
APPID
  5
12
330
9
100
AcDbSymbolTableRecord
100
AcDbRegAppTableRecord
  2
ACAD
 70
     0
  0
ENDTAB
  0
TABLE
  2
DIMSTYLE
  5
A
330
0
100
AcDbSymbolTable
 70
     4
100
AcDbDimStyleTable
  0
DIMSTYLE
105
27
330
A
100
AcDbSymbolTableRecord
100
AcDbDimStyleTableRecord
  2
ISO-25
 70
     0
 41
2.5
 42
0.625
 43
3.75
 44
1.25
 73
     0
 74
     0
 77
     1
 78
     8
140
2.5
141
2.5
143
0.0393700787
147
0.625
171
     3
172
     1
271
     2
272
     2
274
     3
278
    44
283
     0
284
     8
340
11
  0
DIMSTYLE
105
71
102
{ACAD_REACTORS
330
62
330
7E
330
92
330
A6
330
1D3
330
1E6
330
1F9
330
20D
330
224
102
}
330
A
100
AcDbSymbolTableRecord
100
AcDbDimStyleTableRecord
  2
SLDDIMSTYLE0
 70
     0
 41
5.0
 44
0.0
 73
     0
 74
     0
 77
     3
 78
    12
140
7.0555555556
147
1.7638888889
173
     1
271
     1
272
     1
284
    12
340
3A
341
72
343
72
344
72
  0
DIMSTYLE
105
BB
330
A
100
AcDbSymbolTableRecord
100
AcDbDimStyleTableRecord
  2
SLDDIMSTYLE1
 70
     0
 41
1.6666666667
 44
0.0
140
5.0
147
1.25
173
     1
271
     0
272
     0
340
11
341
BC
343
BC
344
BC
  0
DIMSTYLE
105
242
102
{ACAD_REACTORS
330
237
102
}
330
A
100
AcDbSymbolTableRecord
100
AcDbDimStyleTableRecord
  2
SLDDIMSTYLE2
 70
     0
 41
5.0
 44
0.0
 78
    12
140
7.0555555556
147
1.7638888889
173
     1
271
     2
272
     1
284
    12
340
3A
341
72
343
72
344
72
  0
ENDTAB
  0
TABLE
  2
BLOCK_RECORD
  5
1
330
0
100
AcDbSymbolTable
 70
    21
  0
BLOCK_RECORD
  5
1F
330
1
100
AcDbSymbolTableRecord
100
AcDbBlockTableRecord
  2
*Model_Space
340
22
  0
BLOCK_RECORD
  5
1B
330
1
100
AcDbSymbolTableRecord
100
AcDbBlockTableRecord
  2
*Paper_Space
340
1E
  0
BLOCK_RECORD
  5
23
330
1
100
AcDbSymbolTableRecord
100
AcDbBlockTableRecord
  2
*Paper_Space0
340
26
  0
BLOCK_RECORD
  5
64
330
1
100
AcDbSymbolTableRecord
100
AcDbBlockTableRecord
  2
*D1
340
0
  0
BLOCK_RECORD
  5
72
330
1
100
AcDbSymbolTableRecord
100
AcDbBlockTableRecord
  2
_Open30
340
0
102
{BLKREFS
331
69
331
68
331
78
331
79
331
84
331
83
331
8C
331
8D
331
98
331
97
331
A0
331
A1
331
AC
331
AB
331
B4
331
B5
331
1D9
331
1D8
331
1E0
331
1E1
331
1EC
331
1EB
331
1F3
331
1F4
331
1FF
331
1FE
331
207
331
208
331
214
331
213
331
21C
331
21D
331
22A
331
229
331
231
331
232
331
23C
331
244
102
}
  0
BLOCK_RECORD
  5
7F
330
1
100
AcDbSymbolTableRecord
100
AcDbBlockTableRecord
  2
*D3
340
0
  0
BLOCK_RECORD
  5
93
330
1
100
AcDbSymbolTableRecord
100
AcDbBlockTableRecord
  2
*D4
340
0
  0
BLOCK_RECORD
  5
A7
330
1
100
AcDbSymbolTableRecord
100
AcDbBlockTableRecord
  2
*D5
340
0
  0
BLOCK_RECORD
  5
BC
330
1
100
AcDbSymbolTableRecord
100
AcDbBlockTableRecord
  2
_Dot
340
0
  0
BLOCK_RECORD
  5
1D4
330
1
100
AcDbSymbolTableRecord
100
AcDbBlockTableRecord
  2
*D7
340
0
  0
BLOCK_RECORD
  5
1E7
330
1
100
AcDbSymbolTableRecord
100
AcDbBlockTableRecord
  2
*D8
340
0
  0
BLOCK_RECORD
  5
1FA
330
1
100
AcDbSymbolTableRecord
100
AcDbBlockTableRecord
  2
*D9
340
0
  0
BLOCK_RECORD
  5
20E
330
1
100
AcDbSymbolTableRecord
100
AcDbBlockTableRecord
  2
*D10
340
0
  0
BLOCK_RECORD
  5
225
330
1
100
AcDbSymbolTableRecord
100
AcDbBlockTableRecord
  2
*D11
340
0
  0
BLOCK_RECORD
  5
238
330
1
100
AcDbSymbolTableRecord
100
AcDbBlockTableRecord
  2
*D12
340
0
  0
BLOCK_RECORD
  5
249
330
1
100
AcDbSymbolTableRecord
100
AcDbBlockTableRecord
  2
SW_CENTERMARKSYMBOL_0
340
0
102
{BLKREFS
331
254
102
}
  0
BLOCK_RECORD
  5
255
330
1
100
AcDbSymbolTableRecord
100
AcDbBlockTableRecord
  2
SW_CENTERMARKSYMBOL_1
340
0
102
{BLKREFS
331
260
102
}
  0
BLOCK_RECORD
  5
261
330
1
100
AcDbSymbolTableRecord
100
AcDbBlockTableRecord
  2
SW_CENTERMARKSYMBOL_2
340
0
102
{BLKREFS
331
26C
102
}
  0
BLOCK_RECORD
  5
26D
330
1
100
AcDbSymbolTableRecord
100
AcDbBlockTableRecord
  2
SW_CENTERMARKSYMBOL_3
340
0
102
{BLKREFS
331
278
102
}
  0
BLOCK_RECORD
  5
279
330
1
100
AcDbSymbolTableRecord
100
AcDbBlockTableRecord
  2
SW_CENTERMARKSYMBOL_4
340
0
102
{BLKREFS
331
284
102
}
  0
BLOCK_RECORD
  5
285
330
1
100
AcDbSymbolTableRecord
100
AcDbBlockTableRecord
  2
SW_CENTERMARKSYMBOL_5
340
0
102
{BLKREFS
331
290
102
}
  0
BLOCK_RECORD
  5
291
330
1
100
AcDbSymbolTableRecord
100
AcDbBlockTableRecord
  2
SW_CENTERMARKSYMBOL_6
340
0
102
{BLKREFS
331
29C
102
}
  0
BLOCK_RECORD
  5
29D
330
1
100
AcDbSymbolTableRecord
100
AcDbBlockTableRecord
  2
SW_CENTERMARKSYMBOL_7
340
0
102
{BLKREFS
331
2A8
102
}
  0
ENDTAB
  0
ENDSEC
  0
SECTION
  2
BLOCKS
  0
BLOCK
  5
20
330
1F
100
AcDbEntity
  8
0
100
AcDbBlockBegin
  2
*Model_Space
 70
     0
 71
     0
 10
0.0
 20
0.0
 30
0.0
  3
*Model_Space
  1

  0
ENDBLK
  5
21
330
1F
100
AcDbEntity
  8
0
100
AcDbBlockEnd
  0
BLOCK
  5
1C
330
1B
100
AcDbEntity
 67
     1
  8
0
100
AcDbBlockBegin
  2
*Paper_Space
 70
     0
 71
     0
 10
0.0
 20
0.0
 30
0.0
  3
*Paper_Space
  1

  0
ENDBLK
  5
1D
330
1B
100
AcDbEntity
 67
     1
  8
0
100
AcDbBlockEnd
  0
BLOCK
  5
24
330
23
100
AcDbEntity
  8
0
100
AcDbBlockBegin
  2
*Paper_Space0
 70
     0
 71
     0
 10
0.0
 20
0.0
 30
0.0
  3
*Paper_Space0
  1

  0
ENDBLK
  5
25
330
23
100
AcDbEntity
  8
0
100
AcDbBlockEnd
  0
BLOCK
  5
6F
330
64
100
AcDbEntity
  8
0
100
AcDbBlockBegin
  2
*D1
 70
     1
 71
     0
 10
0.0
 20
0.0
 30
0.0
  3
*D1
  1

  0
INSERT
  5
78
330
64
100
AcDbEntity
  8
ﾚｲﾔｰ0
100
AcDbBlockReference
  2
_Open30
 10
43.0732477789
 20
110.1667988459
 30
-3.2409983172
 41
5.0
 42
5.0
 50
270.0
  0
INSERT
  5
79
330
64
100
AcDbEntity
  8
ﾚｲﾔｰ0
100
AcDbBlockReference
  2
_Open30
 10
43.0732477789
 20
180.1667988459
 30
-3.2409983172
 41
5.0
 42
5.0
 50
90.0
  0
LINE
  5
7A
330
64
100
AcDbEntity
  8
ﾚｲﾔｰ0
100
AcDbLine
 10
56.8783286587
 20
110.1667988459
 30
0.0
 11
42.0732477789
 21
110.1667988459
 31
0.0
  0
LINE
  5
7B
330
64
100
AcDbEntity
  8
ﾚｲﾔｰ0
100
AcDbLine
 10
56.8783286587
 20
180.1667988459
 30
0.0
 11
42.0732477789
 21
180.1667988459
 31
0.0
  0
LINE
  5
7C
330
64
100
AcDbEntity
  8
ﾚｲﾔｰ0
100
AcDbLine
 10
43.0732477789
 20
110.1667988459
 30
0.0
 11
43.0732477789
 21
180.1667988459
 31
0.0
  0
MTEXT
  5
7D
330
64
100
AcDbEntity
  8
ﾚｲﾔｰ0
100
AcDbMText
 10
36.9156722541
 20
145.5329494228
 30
0.0
 40
5.2916666667
 41
0.0
 71
     1
 72
     1
  1
70
  7
SLDTEXTSTYLE0
 11
6.123031769111886E-17
 21
1.0
 31
0.0
 73
     1
 44
1.0
  0
ENDBLK
  5
70
330
64
100
AcDbEntity
  8
0
100
AcDbBlockEnd
  0
BLOCK
  5
73
330
72
100
AcDbEntity
  8
0
100
AcDbBlockBegin
  2
_Open30
 70
     0
 71
     0
 10
0.0
 20
0.0
 30
0.0
  3
_Open30
  1

  0
LINE
  5
75
330
72
100
AcDbEntity
  8
0
  6
ByBlock
 62
     0
370
    -2
100
AcDbLine
 10
-1.0
 20
0.267949
 30
0.0
 11
0.0
 21
0.0
 31
0.0
  0
LINE
  5
76
330
72
100
AcDbEntity
  8
0
  6
ByBlock
 62
     0
370
    -2
100
AcDbLine
 10
0.0
 20
0.0
 30
0.0
 11
-1.0
 21
-0.267949
 31
0.0
  0
LINE
  5
77
330
72
100
AcDbEntity
  8
0
  6
ByBlock
 62
     0
370
    -2
100
AcDbLine
 10
0.0
 20
0.0
 30
0.0
 11
-1.0
 21
0.0
 31
0.0
  0
ENDBLK
  5
74
330
72
100
AcDbEntity
  8
0
100
AcDbBlockEnd
  0
BLOCK
  5
8A
330
7F
100
AcDbEntity
  8
0
100
AcDbBlockBegin
  2
*D3
 70
     1
 71
     0
 10
0.0
 20
0.0
 30
0.0
  3
*D3
  1

  0
INSERT
  5
8C
330
7F
100
AcDbEntity
  8
ﾚｲﾔｰ0
100
AcDbBlockReference
  2
_Open30
 10
43.0732477789
 20
199.1667988459
 30
-3.2409983172
 41
5.0
 42
5.0
 50
90.0
  0
INSERT
  5
8D
330
7F
100
AcDbEntity
  8
ﾚｲﾔｰ0
100
AcDbBlockReference
  2
_Open30
 10
43.0732477789
 20
180.1667988459
 30
-3.2409983172
 41
5.0
 42
5.0
 50
270.0
  0
LINE
  5
8E
330
7F
100
AcDbEntity
  8
ﾚｲﾔｰ0
100
AcDbLine
 10
56.8783286587
 20
199.1667988459
 30
0.0
 11
42.0732477789
 21
199.1667988459
 31
0.0
  0
LINE
  5
8F
330
7F
100
AcDbEntity
  8
ﾚｲﾔｰ0
100
AcDbLine
 10
51.8783286587
 20
180.1667988459
 30
0.0
 11
42.0732477789
 21
180.1667988459
 31
0.0
  0
LINE
  5
90
330
7F
100
AcDbEntity
  8
ﾚｲﾔｰ0
100
AcDbLine
 10
43.0732477789
 20
199.1667988459
 30
0.0
 11
43.0732477789
 21
180.1667988459
 31
0.0
  0
MTEXT
  5
91
330
7F
100
AcDbEntity
  8
ﾚｲﾔｰ0
100
AcDbMText
 10
36.9156722541
 20
187.4520190608
 30
0.0
 40
5.2916666667
 41
0.0
 71
     1
 72
     1
  1
19
  7
SLDTEXTSTYLE0
 11
-7.044197039909883E-15
 21
1.0
 31
0.0
 73
     1
 44
1.0
  0
ENDBLK
  5
8B
330
7F
100
AcDbEntity
  8
0
100
AcDbBlockEnd
  0
BLOCK
  5
9E
330
93
100
AcDbEntity
  8
0
100
AcDbBlockBegin
  2
*D4
 70
     1
 71
     0
 10
0.0
 20
0.0
 30
0.0
  3
*D4
  1

  0
INSERT
  5
A0
330
93
100
AcDbEntity
  8
ﾚｲﾔｰ0
100
AcDbBlockReference
  2
_Open30
 10
31.1491129275
 20
199.1667988459
 30
-3.2409983172
 41
5.0
 42
5.0
 50
90.0
  0
INSERT
  5
A1
330
93
100
AcDbEntity
  8
ﾚｲﾔｰ0
100
AcDbBlockReference
  2
_Open30
 10
31.1491129275
 20
110.1667988459
 30
-3.2409983172
 41
5.0
 42
5.0
 50
270.0
  0
LINE
  5
A2
330
93
100
AcDbEntity
  8
ﾚｲﾔｰ0
100
AcDbLine
 10
56.8783286587
 20
199.1667988459
 30
0.0
 11
30.1491129275
 21
199.1667988459
 31
0.0
  0
LINE
  5
A3
330
93
100
AcDbEntity
  8
ﾚｲﾔｰ0
100
AcDbLine
 10
51.8783286587
 20
110.1667988459
 30
0.0
 11
30.1491129275
 21
110.1667988459
 31
0.0
  0
LINE
  5
A4
330
93
100
AcDbEntity
  8
ﾚｲﾔｰ0
100
AcDbLine
 10
31.1491129275
 20
199.1667988459
 30
0.0
 11
31.1491129275
 21
110.1667988459
 31
0.0
  0
MTEXT
  5
A5
330
93
100
AcDbEntity
  8
ﾚｲﾔｰ0
100
AcDbMText
 10
24.9915374027
 20
161.4497366317
 30
0.0
 40
5.2916666667
 41
0.0
 71
     1
 72
     1
  1
89
  7
SLDTEXTSTYLE0
 11
-7.044197039909883E-15
 21
1.0
 31
0.0
 73
     1
 44
1.0
  0
ENDBLK
  5
9F
330
93
100
AcDbEntity
  8
0
100
AcDbBlockEnd
  0
BLOCK
  5
B2
330
A7
100
AcDbEntity
  8
0
100
AcDbBlockBegin
  2
*D5
 70
     1
 71
     0
 10
0.0
 20
0.0
 30
0.0
  3
*D5
  1

  0
INSERT
  5
B4
330
A7
100
AcDbEntity
  8
ﾚｲﾔｰ0
100
AcDbBlockReference
  2
_Open30
 10
84.5330051756
 20
199.1667988459
 30
-3.2409983172
 41
5.0
 42
5.0
 50
90.0
  0
INSERT
  5
B5
330
A7
100
AcDbEntity
  8
ﾚｲﾔｰ0
100
AcDbBlockReference
  2
_Open30
 10
84.5330051756
 20
179.1667988459
 30
-3.2409983172
 41
5.0
 42
5.0
 50
270.0
  0
LINE
  5
B6
330
A7
100
AcDbEntity
  8
ﾚｲﾔｰ0
100
AcDbLine
 10
73.8783286587
 20
199.1667988459
 30
0.0
 11
85.5330051756
 21
199.1667988459
 31
0.0
  0
LINE
  5
B7
330
A7
100
AcDbEntity
  8
ﾚｲﾔｰ0
100
AcDbLine
 10
73.8783286587
 20
179.1667988459
 30
0.0
 11
85.5330051756
 21
179.1667988459
 31
0.0
  0
LINE
  5
B8
330
A7
100
AcDbEntity
  8
ﾚｲﾔｰ0
100
AcDbLine
 10
84.5330051756
 20
199.1667988459
 30
0.0
 11
84.5330051756
 21
179.1667988459
 31
0.0
  0
MTEXT
  5
B9
330
A7
100
AcDbEntity
  8
ﾚｲﾔｰ0
100
AcDbMText
 10
78.3754296509
 20
185.2712838912
 30
0.0
 40
5.2916666667
 41
0.0
 71
     1
 72
     1
  1
20
  7
SLDTEXTSTYLE0
 11
-7.044197039909883E-15
 21
1.0
 31
0.0
 73
     1
 44
1.0
  0
ENDBLK
  5
B3
330
A7
100
AcDbEntity
  8
0
100
AcDbBlockEnd
  0
BLOCK
  5
BD
330
BC
100
AcDbEntity
  8
0
100
AcDbBlockBegin
  2
_Dot
 70
     0
 71
     0
 10
0.0
 20
0.0
 30
0.0
  3
_Dot
  1

  0
LWPOLYLINE
  5
BF
330
BC
100
AcDbEntity
  8
0
  6
ByBlock
 62
     0
100
AcDbPolyline
 90
        2
 70
     1
 43
0.5
 10
-0.25
 20
0.0
 42
1.0
 10
0.25
 20
0.0
 42
1.0
  0
LINE
  5
C0
330
BC
100
AcDbEntity
  8
0
  6
ByBlock
 62
     0
370
    -2
100
AcDbLine
 10
-0.5
 20
0.0
 30
0.0
 11
-1.0
 21
0.0
 31
0.0
  0
ENDBLK
  5
BE
330
BC
100
AcDbEntity
  8
0
100
AcDbBlockEnd
  0
BLOCK
  5
1DE
330
1D4
100
AcDbEntity
  8
0
100
AcDbBlockBegin
  2
*D7
 70
     1
 71
     0
 10
0.0
 20
0.0
 30
0.0
  3
*D7
  1

  0
INSERT
  5
1E0
330
1D4
100
AcDbEntity
  8
ﾚｲﾔｰ0
100
AcDbBlockReference
  2
_Open30
 10
146.3615052036
 20
96.0033694292
 30
-14.9
 41
5.0
 42
5.0
 50
180.0
  0
INSERT
  5
1E1
330
1D4
100
AcDbEntity
  8
ﾚｲﾔｰ0
100
AcDbBlockReference
  2
_Open30
 10
178.3615052036
 20
96.0033694292
 30
-14.9
 41
5.0
 42
5.0
 50
0.0
  0
LINE
  5
1E2
330
1D4
100
AcDbEntity
  8
ﾚｲﾔｰ0
100
AcDbLine
 10
146.3615052036
 20
109.4167988459
 30
0.0
 11
146.3615052036
 21
95.0033694292
 31
0.0
  0
LINE
  5
1E3
330
1D4
100
AcDbEntity
  8
ﾚｲﾔｰ0
100
AcDbLine
 10
178.3615052036
 20
109.4167988459
 30
0.0
 11
178.3615052036
 21
95.0033694292
 31
0.0
  0
LINE
  5
1E4
330
1D4
100
AcDbEntity
  8
ﾚｲﾔｰ0
100
AcDbLine
 10
146.3615052036
 20
96.0033694292
 30
0.0
 11
178.3615052036
 21
96.0033694292
 31
0.0
  0
MTEXT
  5
1E5
330
1D4
100
AcDbEntity
  8
ﾚｲﾔｰ0
100
AcDbMText
 10
158.8065058339
 20
102.160944954
 30
0.0
 40
5.2916666667
 41
0.0
 71
     1
 72
     1
  1
32
  7
SLDTEXTSTYLE0
 73
     1
 44
1.0
  0
ENDBLK
  5
1DF
330
1D4
100
AcDbEntity
  8
0
100
AcDbBlockEnd
  0
BLOCK
  5
1F1
330
1E7
100
AcDbEntity
  8
0
100
AcDbBlockBegin
  2
*D8
 70
     1
 71
     0
 10
0.0
 20
0.0
 30
0.0
  3
*D8
  1

  0
INSERT
  5
1F3
330
1E7
100
AcDbEntity
  8
ﾚｲﾔｰ0
100
AcDbBlockReference
  2
_Open30
 10
141.3615052036
 20
85.138988835
 30
-14.9
 41
5.0
 42
5.0
 50
180.0
  0
INSERT
  5
1F4
330
1E7
100
AcDbEntity
  8
ﾚｲﾔｰ0
100
AcDbBlockReference
  2
_Open30
 10
183.3615052036
 20
85.138988835
 30
-14.9
 41
5.0
 42
5.0
 50
360.0
  0
LINE
  5
1F5
330
1E7
100
AcDbEntity
  8
ﾚｲﾔｰ0
100
AcDbLine
 10
141.3615052036
 20
111.1667988459
 30
0.0
 11
141.3615052036
 21
84.138988835
 31
0.0
  0
LINE
  5
1F6
330
1E7
100
AcDbEntity
  8
ﾚｲﾔｰ0
100
AcDbLine
 10
183.3615052036
 20
111.1667988459
 30
0.0
 11
183.3615052036
 21
84.138988835
 31
0.0
  0
LINE
  5
1F7
330
1E7
100
AcDbEntity
  8
ﾚｲﾔｰ0
100
AcDbLine
 10
141.3615052036
 20
85.138988835
 30
0.0
 11
183.3615052036
 21
85.138988835
 31
0.0
  0
MTEXT
  5
1F8
330
1E7
100
AcDbEntity
  8
ﾚｲﾔｰ0
100
AcDbMText
 10
158.8065058339
 20
91.2965643598
 30
0.0
 40
5.2916666667
 41
0.0
 71
     1
 72
     1
  1
42
  7
SLDTEXTSTYLE0
 73
     1
 44
1.0
  0
ENDBLK
  5
1F2
330
1E7
100
AcDbEntity
  8
0
100
AcDbBlockEnd
  0
BLOCK
  5
205
330
1FA
100
AcDbEntity
  8
0
100
AcDbBlockBegin
  2
*D9
 70
     1
 71
     0
 10
0.0
 20
0.0
 30
0.0
  3
*D9
  1

  0
INSERT
  5
207
330
1FA
100
AcDbEntity
  8
ﾚｲﾔｰ0
100
AcDbBlockReference
  2
_Open30
 10
132.6375283019
 20
160.1667988459
 30
-14.9
 41
5.0
 42
5.0
 50
90.0
  0
INSERT
  5
208
330
1FA
100
AcDbEntity
  8
ﾚｲﾔｰ0
100
AcDbBlockReference
  2
_Open30
 10
132.6375283019
 20
115.1667988459
 30
-14.9
 41
5.0
 42
5.0
 50
270.0
  0
LINE
  5
209
330
1FA
100
AcDbEntity
  8
ﾚｲﾔｰ0
100
AcDbLine
 10
140.6115052036
 20
160.1667988459
 30
0.0
 11
131.6375283019
 21
160.1667988459
 31
0.0
  0
LINE
  5
20A
330
1FA
100
AcDbEntity
  8
ﾚｲﾔｰ0
100
AcDbLine
 10
140.6115052036
 20
115.1667988459
 30
0.0
 11
131.6375283019
 21
115.1667988459
 31
0.0
  0
LINE
  5
20B
330
1FA
100
AcDbEntity
  8
ﾚｲﾔｰ0
100
AcDbLine
 10
132.6375283019
 20
160.1667988459
 30
0.0
 11
132.6375283019
 21
115.1667988459
 31
0.0
  0
MTEXT
  5
20C
330
1FA
100
AcDbEntity
  8
ﾚｲﾔｰ0
100
AcDbMText
 10
126.4799527772
 20
136.6480795483
 30
0.0
 40
5.2916666667
 41
0.0
 71
     1
 72
     1
  1
45
  7
SLDTEXTSTYLE0
 11
-7.044197039909883E-15
 21
1.0
 31
0.0
 73
     1
 44
1.0
  0
ENDBLK
  5
206
330
1FA
100
AcDbEntity
  8
0
100
AcDbBlockEnd
  0
BLOCK
  5
21A
330
20E
100
AcDbEntity
  8
0
100
AcDbBlockBegin
  2
*D10
 70
     1
 71
     0
 10
0.0
 20
0.0
 30
0.0
  3
*D10
  1

  0
INSERT
  5
21C
330
20E
100
AcDbEntity
  8
ﾚｲﾔｰ0
100
AcDbBlockReference
  2
_Open30
 10
132.6375283019
 20
115.1667988459
 30
-14.9
 41
5.0
 42
5.0
 50
270.0
  0
INSERT
  5
21D
330
20E
100
AcDbEntity
  8
ﾚｲﾔｰ0
100
AcDbBlockReference
  2
_Open30
 10
132.6375283019
 20
110.1667988459
 30
-14.9
 41
5.0
 42
5.0
 50
90.0
  0
LINE
  5
21E
330
20E
100
AcDbEntity
  8
ﾚｲﾔｰ0
100
AcDbLine
 10
140.6115052036
 20
115.1667988459
 30
0.0
 11
131.6375283019
 21
115.1667988459
 31
0.0
  0
LINE
  5
21F
330
20E
100
AcDbEntity
  8
ﾚｲﾔｰ0
100
AcDbLine
 10
142.3615052036
 20
110.1667988459
 30
0.0
 11
131.6375283019
 21
110.1667988459
 31
0.0
  0
LINE
  5
220
330
20E
100
AcDbEntity
  8
ﾚｲﾔｰ0
100
AcDbLine
 10
132.6375283019
 20
115.1667988459
 30
0.0
 11
132.6375283019
 21
125.1667988459
 31
0.0
  0
LINE
  5
221
330
20E
100
AcDbEntity
  8
ﾚｲﾔｰ0
100
AcDbLine
 10
132.6375283019
 20
115.1667988459
 30
0.0
 11
132.6375283019
 21
110.1667988459
 31
0.0
  0
LINE
  5
222
330
20E
100
AcDbEntity
  8
ﾚｲﾔｰ0
100
AcDbLine
 10
132.6375283019
 20
110.1667988459
 30
0.0
 11
132.6375283019
 21
98.5652593822
 31
0.0
  0
MTEXT
  5
223
330
20E
100
AcDbEntity
  8
ﾚｲﾔｰ0
100
AcDbMText
 10
126.4799527772
 20
100.1527593822
 30
0.0
 40
5.2916666667
 41
0.0
 71
     1
 72
     1
  1
5
  7
SLDTEXTSTYLE0
 11
-7.044197039909883E-15
 21
1.0
 31
0.0
 73
     1
 44
1.0
  0
ENDBLK
  5
21B
330
20E
100
AcDbEntity
  8
0
100
AcDbBlockEnd
  0
BLOCK
  5
22F
330
225
100
AcDbEntity
  8
0
100
AcDbBlockBegin
  2
*D11
 70
     1
 71
     0
 10
0.0
 20
0.0
 30
0.0
  3
*D11
  1

  0
INSERT
  5
231
330
225
100
AcDbEntity
  8
ﾚｲﾔｰ0
100
AcDbBlockReference
  2
_Open30
 10
182.3615052036
 20
208.8311600159
 30
-14.9
 41
5.0
 42
5.0
 50
360.0
  0
INSERT
  5
232
330
225
100
AcDbEntity
  8
ﾚｲﾔｰ0
100
AcDbBlockReference
  2
_Open30
 10
142.3615052036
 20
208.8311600159
 30
-14.9
 41
5.0
 42
5.0
 50
180.0
  0
LINE
  5
233
330
225
100
AcDbEntity
  8
ﾚｲﾔｰ0
100
AcDbLine
 10
182.3615052036
 20
200.1667988459
 30
0.0
 11
182.3615052036
 21
209.8311600159
 31
0.0
  0
LINE
  5
234
330
225
100
AcDbEntity
  8
ﾚｲﾔｰ0
100
AcDbLine
 10
142.3615052036
 20
200.1667988459
 30
0.0
 11
142.3615052036
 21
209.8311600159
 31
0.0
  0
LINE
  5
235
330
225
100
AcDbEntity
  8
ﾚｲﾔｰ0
100
AcDbLine
 10
182.3615052036
 20
208.8311600159
 30
0.0
 11
142.3615052036
 21
208.8311600159
 31
0.0
  0
MTEXT
  5
236
330
225
100
AcDbEntity
  8
ﾚｲﾔｰ0
100
AcDbMText
 10
158.8065058339
 20
214.9887355407
 30
0.0
 40
5.2916666667
 41
0.0
 71
     1
 72
     1
  1
40
  7
SLDTEXTSTYLE0
 73
     1
 44
1.0
  0
ENDBLK
  5
230
330
225
100
AcDbEntity
  8
0
100
AcDbBlockEnd
  0
BLOCK
  5
240
330
238
100
AcDbEntity
  8
0
100
AcDbBlockBegin
  2
*D12
 70
     1
 71
     0
 10
0.0
 20
0.0
 30
0.0
  3
*D12
  1

  0
INSERT
  5
244
330
238
100
AcDbEntity
  8
ﾚｲﾔｰ0
100
AcDbBlockReference
  2
_Open30
 10
144.7035360872
 20
161.6878637391
 30
-14.9
 41
5.0
 42
5.0
 50
317.465903304
  0
LINE
  5
245
330
238
100
AcDbEntity
  8
ﾚｲﾔｰ0
100
AcDbLine
 10
144.7035360872
 20
161.6878637391
 30
0.0
 11
135.1198732357
 21
170.4801705245
 31
0.0
  0
LINE
  5
246
330
238
100
AcDbEntity
  8
ﾚｲﾔｰ0
100
AcDbLine
 10
135.1198732357
 20
170.4801705245
 30
0.0
 11
104.2551137096
 21
170.4801705245
 31
0.0
  0
MTEXT
  5
247
330
238
100
AcDbEntity
  8
ﾚｲﾔｰ0
100
AcDbMText
 10
105.8426137096
 20
176.6377460492
 30
0.0
 40
5.2916666667
 41
0.0
 71
     1
 72
     1
  1
2-R
  7
SLDTEXTSTYLE0
 73
     1
 44
1.0
  0
MTEXT
  5
248
330
238
100
AcDbEntity
  8
ﾚｲﾔｰ0
100
AcDbMText
 10
116.4230847856
 20
176.6377460492
 30
0.0
 40
5.2916666667
 41
0.0
 71
     1
 72
     1
  1
2.25
  7
SLDTEXTSTYLE0
 73
     1
 44
1.0
  0
ENDBLK
  5
241
330
238
100
AcDbEntity
  8
0
100
AcDbBlockEnd
  0
BLOCK
  5
24A
330
249
100
AcDbEntity
  8
0
100
AcDbBlockBegin
  2
SW_CENTERMARKSYMBOL_0
 70
     0
 71
     0
 10
0.0
 20
0.0
 30
0.0
  3
SW_CENTERMARKSYMBOL_0
  1

  0
LINE
  5
24C
330
249
100
AcDbEntity
  8
ﾚｲﾔｰ0
100
AcDbLine
 10
0.0
 20
0.0
 30
0.0
 11
0.0
 21
2.5
 31
0.0
  0
LINE
  5
24D
330
249
100
AcDbEntity
  8
ﾚｲﾔｰ0
100
AcDbLine
 10
0.0
 20
0.0
 30
0.0
 11
-2.5
 21
0.0
 31
0.0
  0
LINE
  5
24E
330
249
100
AcDbEntity
  8
ﾚｲﾔｰ0
100
AcDbLine
 10
0.0
 20
0.0
 30
0.0
 11
0.0
 21
-2.5
 31
0.0
  0
LINE
  5
24F
330
249
100
AcDbEntity
  8
ﾚｲﾔｰ0
100
AcDbLine
 10
0.0
 20
0.0
 30
0.0
 11
2.5
 21
0.0
 31
0.0
  0
LINE
  5
250
330
249
100
AcDbEntity
  8
ﾚｲﾔｰ0
100
AcDbLine
 10
0.0
 20
2.5
 30
0.0
 11
0.0
 21
4.75
 31
0.0
  0
LINE
  5
251
330
249
100
AcDbEntity
  8
ﾚｲﾔｰ0
100
AcDbLine
 10
-2.5
 20
0.0
 30
0.0
 11
-4.75
 21
0.0
 31
0.0
  0
LINE
  5
252
330
249
100
AcDbEntity
  8
ﾚｲﾔｰ0
100
AcDbLine
 10
0.0
 20
-2.5
 30
0.0
 11
0.0
 21
-4.75
 31
0.0
  0
LINE
  5
253
330
249
100
AcDbEntity
  8
ﾚｲﾔｰ0
100
AcDbLine
 10
2.5
 20
0.0
 30
0.0
 11
4.75
 21
0.0
 31
0.0
  0
ENDBLK
  5
24B
330
249
100
AcDbEntity
  8
0
100
AcDbBlockEnd
  0
BLOCK
  5
256
330
255
100
AcDbEntity
  8
0
100
AcDbBlockBegin
  2
SW_CENTERMARKSYMBOL_1
 70
     0
 71
     0
 10
0.0
 20
0.0
 30
0.0
  3
SW_CENTERMARKSYMBOL_1
  1

  0
LINE
  5
258
330
255
100
AcDbEntity
  8
ﾚｲﾔｰ0
100
AcDbLine
 10
0.0
 20
0.0
 30
0.0
 11
0.0
 21
2.5
 31
0.0
  0
LINE
  5
259
330
255
100
AcDbEntity
  8
ﾚｲﾔｰ0
100
AcDbLine
 10
0.0
 20
0.0
 30
0.0
 11
-2.5
 21
0.0
 31
0.0
  0
LINE
  5
25A
330
255
100
AcDbEntity
  8
ﾚｲﾔｰ0
100
AcDbLine
 10
0.0
 20
0.0
 30
0.0
 11
0.0
 21
-2.5
 31
0.0
  0
LINE
  5
25B
330
255
100
AcDbEntity
  8
ﾚｲﾔｰ0
100
AcDbLine
 10
0.0
 20
0.0
 30
0.0
 11
2.5
 21
0.0
 31
0.0
  0
LINE
  5
25C
330
255
100
AcDbEntity
  8
ﾚｲﾔｰ0
100
AcDbLine
 10
0.0
 20
5.0
 30
0.0
 11
0.0
 21
5.8
 31
0.0
  0
LINE
  5
25D
330
255
100
AcDbEntity
  8
ﾚｲﾔｰ0
100
AcDbLine
 10
-5.0
 20
0.0
 30
0.0
 11
-5.8
 21
0.0
 31
0.0
  0
LINE
  5
25E
330
255
100
AcDbEntity
  8
ﾚｲﾔｰ0
100
AcDbLine
 10
0.0
 20
-5.0
 30
0.0
 11
0.0
 21
-5.8
 31
0.0
  0
LINE
  5
25F
330
255
100
AcDbEntity
  8
ﾚｲﾔｰ0
100
AcDbLine
 10
5.0
 20
0.0
 30
0.0
 11
5.8
 21
0.0
 31
0.0
  0
ENDBLK
  5
257
330
255
100
AcDbEntity
  8
0
100
AcDbBlockEnd
  0
BLOCK
  5
262
330
261
100
AcDbEntity
  8
0
100
AcDbBlockBegin
  2
SW_CENTERMARKSYMBOL_2
 70
     0
 71
     0
 10
0.0
 20
0.0
 30
0.0
  3
SW_CENTERMARKSYMBOL_2
  1

  0
LINE
  5
264
330
261
100
AcDbEntity
  8
ﾚｲﾔｰ0
100
AcDbLine
 10
0.0
 20
0.0
 30
0.0
 11
0.0
 21
2.5
 31
0.0
  0
LINE
  5
265
330
261
100
AcDbEntity
  8
ﾚｲﾔｰ0
100
AcDbLine
 10
0.0
 20
0.0
 30
0.0
 11
-2.5
 21
0.0
 31
0.0
  0
LINE
  5
266
330
261
100
AcDbEntity
  8
ﾚｲﾔｰ0
100
AcDbLine
 10
0.0
 20
0.0
 30
0.0
 11
0.0
 21
-2.5
 31
0.0
  0
LINE
  5
267
330
261
100
AcDbEntity
  8
ﾚｲﾔｰ0
100
AcDbLine
 10
0.0
 20
0.0
 30
0.0
 11
2.5
 21
0.0
 31
0.0
  0
LINE
  5
268
330
261
100
AcDbEntity
  8
ﾚｲﾔｰ0
100
AcDbLine
 10
0.0
 20
2.5
 30
0.0
 11
0.0
 21
4.75
 31
0.0
  0
LINE
  5
269
330
261
100
AcDbEntity
  8
ﾚｲﾔｰ0
100
AcDbLine
 10
-2.5
 20
0.0
 30
0.0
 11
-4.75
 21
0.0
 31
0.0
  0
LINE
  5
26A
330
261
100
AcDbEntity
  8
ﾚｲﾔｰ0
100
AcDbLine
 10
0.0
 20
-2.5
 30
0.0
 11
0.0
 21
-4.75
 31
0.0
  0
LINE
  5
26B
330
261
100
AcDbEntity
  8
ﾚｲﾔｰ0
100
AcDbLine
 10
2.5
 20
0.0
 30
0.0
 11
4.75
 21
0.0
 31
0.0
  0
ENDBLK
  5
263
330
261
100
AcDbEntity
  8
0
100
AcDbBlockEnd
  0
BLOCK
  5
26E
330
26D
100
AcDbEntity
  8
0
100
AcDbBlockBegin
  2
SW_CENTERMARKSYMBOL_3
 70
     0
 71
     0
 10
0.0
 20
0.0
 30
0.0
  3
SW_CENTERMARKSYMBOL_3
  1

  0
LINE
  5
270
330
26D
100
AcDbEntity
  8
ﾚｲﾔｰ0
100
AcDbLine
 10
0.0
 20
0.0
 30
0.0
 11
0.0
 21
2.5
 31
0.0
  0
LINE
  5
271
330
26D
100
AcDbEntity
  8
ﾚｲﾔｰ0
100
AcDbLine
 10
0.0
 20
0.0
 30
0.0
 11
-2.5
 21
0.0
 31
0.0
  0
LINE
  5
272
330
26D
100
AcDbEntity
  8
ﾚｲﾔｰ0
100
AcDbLine
 10
0.0
 20
0.0
 30
0.0
 11
0.0
 21
-2.5
 31
0.0
  0
LINE
  5
273
330
26D
100
AcDbEntity
  8
ﾚｲﾔｰ0
100
AcDbLine
 10
0.0
 20
0.0
 30
0.0
 11
2.5
 21
0.0
 31
0.0
  0
LINE
  5
274
330
26D
100
AcDbEntity
  8
ﾚｲﾔｰ0
100
AcDbLine
 10
0.0
 20
2.5
 30
0.0
 11
0.0
 21
4.75
 31
0.0
  0
LINE
  5
275
330
26D
100
AcDbEntity
  8
ﾚｲﾔｰ0
100
AcDbLine
 10
-2.5
 20
0.0
 30
0.0
 11
-4.75
 21
0.0
 31
0.0
  0
LINE
  5
276
330
26D
100
AcDbEntity
  8
ﾚｲﾔｰ0
100
AcDbLine
 10
0.0
 20
-2.5
 30
0.0
 11
0.0
 21
-4.75
 31
0.0
  0
LINE
  5
277
330
26D
100
AcDbEntity
  8
ﾚｲﾔｰ0
100
AcDbLine
 10
2.5
 20
0.0
 30
0.0
 11
4.75
 21
0.0
 31
0.0
  0
ENDBLK
  5
26F
330
26D
100
AcDbEntity
  8
0
100
AcDbBlockEnd
  0
BLOCK
  5
27A
330
279
100
AcDbEntity
  8
0
100
AcDbBlockBegin
  2
SW_CENTERMARKSYMBOL_4
 70
     0
 71
     0
 10
0.0
 20
0.0
 30
0.0
  3
SW_CENTERMARKSYMBOL_4
  1

  0
LINE
  5
27C
330
279
100
AcDbEntity
  8
ﾚｲﾔｰ0
100
AcDbLine
 10
0.0
 20
0.0
 30
0.0
 11
0.0
 21
2.5
 31
0.0
  0
LINE
  5
27D
330
279
100
AcDbEntity
  8
ﾚｲﾔｰ0
100
AcDbLine
 10
0.0
 20
0.0
 30
0.0
 11
-2.5
 21
0.0
 31
0.0
  0
LINE
  5
27E
330
279
100
AcDbEntity
  8
ﾚｲﾔｰ0
100
AcDbLine
 10
0.0
 20
0.0
 30
0.0
 11
0.0
 21
-2.5
 31
0.0
  0
LINE
  5
27F
330
279
100
AcDbEntity
  8
ﾚｲﾔｰ0
100
AcDbLine
 10
0.0
 20
0.0
 30
0.0
 11
2.5
 21
0.0
 31
0.0
  0
LINE
  5
280
330
279
100
AcDbEntity
  8
ﾚｲﾔｰ0
100
AcDbLine
 10
0.0
 20
5.0
 30
0.0
 11
0.0
 21
6.0
 31
0.0
  0
LINE
  5
281
330
279
100
AcDbEntity
  8
ﾚｲﾔｰ0
100
AcDbLine
 10
-5.0
 20
0.0
 30
0.0
 11
-6.0
 21
0.0
 31
0.0
  0
LINE
  5
282
330
279
100
AcDbEntity
  8
ﾚｲﾔｰ0
100
AcDbLine
 10
0.0
 20
-5.0
 30
0.0
 11
0.0
 21
-6.0
 31
0.0
  0
LINE
  5
283
330
279
100
AcDbEntity
  8
ﾚｲﾔｰ0
100
AcDbLine
 10
5.0
 20
0.0
 30
0.0
 11
6.0
 21
0.0
 31
0.0
  0
ENDBLK
  5
27B
330
279
100
AcDbEntity
  8
0
100
AcDbBlockEnd
  0
BLOCK
  5
286
330
285
100
AcDbEntity
  8
0
100
AcDbBlockBegin
  2
SW_CENTERMARKSYMBOL_5
 70
     0
 71
     0
 10
0.0
 20
0.0
 30
0.0
  3
SW_CENTERMARKSYMBOL_5
  1

  0
LINE
  5
288
330
285
100
AcDbEntity
  8
ﾚｲﾔｰ0
100
AcDbLine
 10
0.0
 20
0.0
 30
0.0
 11
0.0
 21
2.5
 31
0.0
  0
LINE
  5
289
330
285
100
AcDbEntity
  8
ﾚｲﾔｰ0
100
AcDbLine
 10
0.0
 20
0.0
 30
0.0
 11
-2.5
 21
0.0
 31
0.0
  0
LINE
  5
28A
330
285
100
AcDbEntity
  8
ﾚｲﾔｰ0
100
AcDbLine
 10
0.0
 20
0.0
 30
0.0
 11
0.0
 21
-2.5
 31
0.0
  0
LINE
  5
28B
330
285
100
AcDbEntity
  8
ﾚｲﾔｰ0
100
AcDbLine
 10
0.0
 20
0.0
 30
0.0
 11
2.5
 21
0.0
 31
0.0
  0
LINE
  5
28C
330
285
100
AcDbEntity
  8
ﾚｲﾔｰ0
100
AcDbLine
 10
0.0
 20
2.5
 30
0.0
 11
0.0
 21
4.75
 31
0.0
  0
LINE
  5
28D
330
285
100
AcDbEntity
  8
ﾚｲﾔｰ0
100
AcDbLine
 10
-2.5
 20
0.0
 30
0.0
 11
-4.75
 21
0.0
 31
0.0
  0
LINE
  5
28E
330
285
100
AcDbEntity
  8
ﾚｲﾔｰ0
100
AcDbLine
 10
0.0
 20
-2.5
 30
0.0
 11
0.0
 21
-4.75
 31
0.0
  0
LINE
  5
28F
330
285
100
AcDbEntity
  8
ﾚｲﾔｰ0
100
AcDbLine
 10
2.5
 20
0.0
 30
0.0
 11
4.75
 21
0.0
 31
0.0
  0
ENDBLK
  5
287
330
285
100
AcDbEntity
  8
0
100
AcDbBlockEnd
  0
BLOCK
  5
292
330
291
100
AcDbEntity
  8
0
100
AcDbBlockBegin
  2
SW_CENTERMARKSYMBOL_6
 70
     0
 71
     0
 10
0.0
 20
0.0
 30
0.0
  3
SW_CENTERMARKSYMBOL_6
  1

  0
LINE
  5
294
330
291
100
AcDbEntity
  8
ﾚｲﾔｰ0
100
AcDbLine
 10
0.0
 20
0.0
 30
0.0
 11
0.0
 21
2.5
 31
0.0
  0
LINE
  5
295
330
291
100
AcDbEntity
  8
ﾚｲﾔｰ0
100
AcDbLine
 10
0.0
 20
0.0
 30
0.0
 11
-2.5
 21
0.0
 31
0.0
  0
LINE
  5
296
330
291
100
AcDbEntity
  8
ﾚｲﾔｰ0
100
AcDbLine
 10
0.0
 20
0.0
 30
0.0
 11
0.0
 21
-2.5
 31
0.0
  0
LINE
  5
297
330
291
100
AcDbEntity
  8
ﾚｲﾔｰ0
100
AcDbLine
 10
0.0
 20
0.0
 30
0.0
 11
2.5
 21
0.0
 31
0.0
  0
LINE
  5
298
330
291
100
AcDbEntity
  8
ﾚｲﾔｰ0
100
AcDbLine
 10
0.0
 20
2.5
 30
0.0
 11
0.0
 21
4.75
 31
0.0
  0
LINE
  5
299
330
291
100
AcDbEntity
  8
ﾚｲﾔｰ0
100
AcDbLine
 10
-2.5
 20
0.0
 30
0.0
 11
-4.75
 21
0.0
 31
0.0
  0
LINE
  5
29A
330
291
100
AcDbEntity
  8
ﾚｲﾔｰ0
100
AcDbLine
 10
0.0
 20
-2.5
 30
0.0
 11
0.0
 21
-4.75
 31
0.0
  0
LINE
  5
29B
330
291
100
AcDbEntity
  8
ﾚｲﾔｰ0
100
AcDbLine
 10
2.5
 20
0.0
 30
0.0
 11
4.75
 21
0.0
 31
0.0
  0
ENDBLK
  5
293
330
291
100
AcDbEntity
  8
0
100
AcDbBlockEnd
  0
BLOCK
  5
29E
330
29D
100
AcDbEntity
  8
0
100
AcDbBlockBegin
  2
SW_CENTERMARKSYMBOL_7
 70
     0
 71
     0
 10
0.0
 20
0.0
 30
0.0
  3
SW_CENTERMARKSYMBOL_7
  1

  0
LINE
  5
2A0
330
29D
100
AcDbEntity
  8
ﾚｲﾔｰ0
100
AcDbLine
 10
0.0
 20
0.0
 30
0.0
 11
0.0
 21
2.5
 31
0.0
  0
LINE
  5
2A1
330
29D
100
AcDbEntity
  8
ﾚｲﾔｰ0
100
AcDbLine
 10
0.0
 20
0.0
 30
0.0
 11
-2.5
 21
0.0
 31
0.0
  0
LINE
  5
2A2
330
29D
100
AcDbEntity
  8
ﾚｲﾔｰ0
100
AcDbLine
 10
0.0
 20
0.0
 30
0.0
 11
0.0
 21
-2.5
 31
0.0
  0
LINE
  5
2A3
330
29D
100
AcDbEntity
  8
ﾚｲﾔｰ0
100
AcDbLine
 10
0.0
 20
0.0
 30
0.0
 11
2.5
 21
0.0
 31
0.0
  0
LINE
  5
2A4
330
29D
100
AcDbEntity
  8
ﾚｲﾔｰ0
100
AcDbLine
 10
0.0
 20
2.5
 30
0.0
 11
0.0
 21
4.75
 31
0.0
  0
LINE
  5
2A5
330
29D
100
AcDbEntity
  8
ﾚｲﾔｰ0
100
AcDbLine
 10
-2.5
 20
0.0
 30
0.0
 11
-4.75
 21
0.0
 31
0.0
  0
LINE
  5
2A6
330
29D
100
AcDbEntity
  8
ﾚｲﾔｰ0
100
AcDbLine
 10
0.0
 20
-2.5
 30
0.0
 11
0.0
 21
-4.75
 31
0.0
  0
LINE
  5
2A7
330
29D
100
AcDbEntity
  8
ﾚｲﾔｰ0
100
AcDbLine
 10
2.5
 20
0.0
 30
0.0
 11
4.75
 21
0.0
 31
0.0
  0
ENDBLK
  5
29F
330
29D
100
AcDbEntity
  8
0
100
AcDbBlockEnd
  0
ENDSEC
  0
SECTION
  2
ENTITIES
  0
LINE
  5
32
330
1F
100
AcDbEntity
  8
0
  6
Continuous
 62
     7
370
     0
100
AcDbLine
 10
20.2604743903
 20
285.0
 30
0.0
 11
196.7604743903
 21
285.0
 31
0.0
  0
LINE
  5
33
330
1F
100
AcDbEntity
  8
0
  6
Continuous
 62
     7
370
     0
100
AcDbLine
 10
20.2604743903
 20
285.0
 30
0.0
 11
20.2604743903
 21
10.0
 31
0.0
  0
LINE
  5
34
330
1F
100
AcDbEntity
  8
0
  6
Continuous
 62
     7
370
     0
100
AcDbLine
 10
20.2604743903
 20
10.0
 30
0.0
 11
196.7604743903
 21
10.0
 31
0.0
  0
LINE
  5
35
330
1F
100
AcDbEntity
  8
0
  6
Continuous
 62
     7
370
     0
100
AcDbLine
 10
196.7604743903
 20
285.0
 30
0.0
 11
196.7604743903
 21
10.0
 31
0.0
  0
LINE
  5
36
330
1F
100
AcDbEntity
  8
0
  6
Continuous
 62
     7
370
     0
100
AcDbLine
 10
127.0104743903
 20
50.75
 30
0.0
 11
196.7604743903
 21
50.75
 31
0.0
  0
LINE
  5
37
330
1F
100
AcDbEntity
  8
0
  6
Continuous
 62
     7
370
     0
100
AcDbLine
 10
127.0104743903
 20
50.75
 30
0.0
 11
127.0104743903
 21
10.0
 31
0.0
  0
LINE
  5
38
330
1F
100
AcDbEntity
  8
0
  6
Continuous
 62
     7
370
     0
100
AcDbLine
 10
127.0104743903
 20
22.75
 30
0.0
 11
196.7604743903
 21
22.75
 31
0.0
  0
LINE
  5
39
330
1F
100
AcDbEntity
  8
0
  6
Continuous
 62
     7
370
     0
100
AcDbLine
 10
127.0104743903
 20
36.75
 30
0.0
 11
196.7604743903
 21
36.75
 31
0.0
  0
MTEXT
  5
3B
330
1F
100
AcDbEntity
  8
ﾚｲﾔｰ0
100
AcDbMText
 10
138.0212890303
 20
45.6108858963
 30
0.0
 40
4.2333333333
 41
0.0
 71
     1
 72
     1
  1
当板(NCON-CP01付け
  7
SLDTEXTSTYLE0
 73
     1
 44
1.0
  0
MTEXT
  5
3C
330
1F
100
AcDbEntity
  8
ﾚｲﾔｰ0
100
AcDbMText
 10
154.1085526823
 20
17.9467199374
 30
0.0
 40
4.2333333333
 41
0.0
 71
     1
 72
     1
  1
131259
  7
SLDTEXTSTYLE0
 73
     1
 44
1.0
  0
MTEXT
  5
3D
330
1F
100
AcDbEntity
  8
0
  6
Continuous
 62
     7
370
     0
100
AcDbMText
 10
151.2257023249
 20
29.8861654089
 30
0.0
 40
4.2333333333
 41
0.0
 71
     1
 72
     1
  1
NCON-CP04
  7
SLDTEXTSTYLE0
 73
     1
 44
1.0
  0
LINE
  5
3E
330
1F
100
AcDbEntity
  8
0
  6
Continuous
 62
     7
370
    15
100
AcDbLine
 10
68.9783286587
 20
177.6667988459
 30
0.0
 11
65.1783294156
 21
177.6667994773
 31
0.0
  0
LINE
  5
3F
330
1F
100
AcDbEntity
  8
0
  6
Continuous
 62
     7
370
    15
100
AcDbLine
 10
65.1783294156
 20
170.6668001925
 30
0.0
 11
68.9783286587
 21
170.6667988459
 31
0.0
  0
ARC
  5
40
330
1F
100
AcDbEntity
  8
0
  6
Continuous
 62
     7
370
    15
100
AcDbCircle
 10
68.9783286587
 20
177.4667988459
 30
0.0
 40
0.2000000000000171
100
AcDbArc
 50
0.0
 51
90.0
  0
ARC
  5
41
330
1F
100
AcDbEntity
  8
0
  6
Continuous
 62
     7
370
    15
100
AcDbCircle
 10
68.9783286587
 20
170.8667988459
 30
0.0
 40
0.2000000000000028
100
AcDbArc
 50
270.0
 51
0.0
  0
LINE
  5
42
330
1F
100
AcDbEntity
  8
0
  6
Continuous
 62
     7
370
    15
100
AcDbLine
 10
65.1783286587
 20
177.9667988459
 30
0.0
 11
64.1783273891
 21
177.966797105
 31
0.0
  0
LINE
  5
43
330
1F
100
AcDbEntity
  8
0
  6
Continuous
 62
     7
370
    15
100
AcDbLine
 10
64.1783273891
 20
170.3667988395
 30
0.0
 11
65.1783286587
 21
170.3667988459
 31
0.0
  0
LINE
  5
44
330
1F
100
AcDbEntity
  8
0
  6
Continuous
 62
     7
370
    15
100
AcDbLine
 10
64.1783286587
 20
178.6667988459
 30
0.0
 11
63.3783287481
 21
178.6667977785
 31
0.0
  0
LINE
  5
45
330
1F
100
AcDbEntity
  8
0
  6
Continuous
 62
     7
370
    15
100
AcDbLine
 10
63.3783287481
 20
169.666798166
 30
0.0
 11
64.1783286587
 21
169.6667988459
 31
0.0
  0
LINE
  5
46
330
1F
100
AcDbEntity
  8
0
  6
Continuous
 62
     7
370
    15
100
AcDbLine
 10
69.1783286587
 20
177.4667988459
 30
0.0
 11
69.1783286587
 21
170.8667988459
 31
0.0
  0
LINE
  5
47
330
1F
100
AcDbEntity
  8
0
  6
Continuous
 62
     7
370
    15
100
AcDbLine
 10
65.1783286587
 20
177.9667988459
 30
0.0
 11
65.1783286587
 21
170.3667988459
 31
0.0
  0
LINE
  5
48
330
1F
100
AcDbEntity
  8
0
  6
Continuous
 62
     7
370
    15
100
AcDbLine
 10
63.3783286587
 20
176.2283516587
 30
0.0
 11
63.3783286587
 21
172.1052460331
 31
0.0
  0
LINE
  5
49
330
1F
100
AcDbEntity
  8
0
  6
Continuous
 62
     7
370
    15
100
AcDbLine
 10
64.1783286587
 20
178.6667988459
 30
0.0
 11
64.1783286587
 21
169.6667988459
 31
0.0
  0
LINE
  5
4A
330
1F
100
AcDbEntity
  8
0
  6
Continuous
 62
     7
370
    15
100
AcDbLine
 10
72.8783293739
 20
199.1668020701
 30
0.0
 11
72.8783293739
 21
179.1667987918
 31
0.0
  0
LINE
  5
4B
330
1F
100
AcDbEntity
  8
0
  6
Continuous
 62
     7
370
    15
100
AcDbLine
 10
72.8783293739
 20
179.1667987918
 30
0.0
 11
67.878330417
 21
179.1667987918
 31
0.0
  0
LINE
  5
4C
330
1F
100
AcDbEntity
  8
0
  6
Continuous
 62
     7
370
    15
100
AcDbLine
 10
67.878330417
 20
179.1667987918
 30
0.0
 11
67.878330417
 21
199.1668020701
 31
0.0
  0
LINE
  5
4D
330
1F
100
AcDbEntity
  8
0
  6
Continuous
 62
     7
370
    15
100
AcDbLine
 10
72.8783293739
 20
199.1668020701
 30
0.0
 11
67.878330417
 21
199.1668020701
 31
0.0
  0
LINE
  5
4E
330
1F
100
AcDbEntity
  8
0
  6
Continuous
 62
     7
370
    15
100
AcDbLine
 10
67.878330417
 20
199.1668020701
 30
0.0
 11
57.8783287779
 21
199.1668020701
 31
0.0
  0
LINE
  5
4F
330
1F
100
AcDbEntity
  8
0
  6
Continuous
 62
     7
370
    15
100
AcDbLine
 10
67.878330417
 20
199.1668020701
 30
0.0
 11
67.878330417
 21
179.1667987918
 31
0.0
  0
LINE
  5
50
330
1F
100
AcDbEntity
  8
0
  6
Continuous
 62
     7
370
    15
100
AcDbLine
 10
63.3783287481
 20
179.1667987918
 30
0.0
 11
67.878330417
 21
179.1667987918
 31
0.0
  0
LINE
  5
51
330
1F
100
AcDbEntity
  8
0
  6
Continuous
 62
     7
370
    15
100
AcDbLine
 10
63.3783287481
 20
179.1667987918
 30
0.0
 11
63.3783286587
 21
176.2283516587
 31
0.0
  0
LINE
  5
52
330
1F
100
AcDbEntity
  8
0
  6
Continuous
 62
     7
370
    15
100
AcDbLine
 10
63.3783286587
 20
172.1052460331
 30
0.0
 11
63.3783287481
 21
171.1667974805
 31
0.0
  0
LINE
  5
53
330
1F
100
AcDbEntity
  8
0
  6
Continuous
 62
     7
370
    15
100
AcDbLine
 10
57.8783287779
 20
171.1667974805
 30
0.0
 11
63.3783287481
 21
171.1667974805
 31
0.0
  0
LINE
  5
54
330
1F
100
AcDbEntity
  8
0
  6
Continuous
 62
     7
370
    15
100
AcDbLine
 10
57.8783287779
 20
199.1668020701
 30
0.0
 11
57.8783287779
 21
179.1667987918
 31
0.0
  0
LINE
  5
55
330
1F
100
AcDbEntity
  8
0
  6
Continuous
 62
     7
370
    15
100
AcDbLine
 10
63.3783287481
 20
169.1667971527
 30
0.0
 11
57.8783287779
 21
169.1667971527
 31
0.0
  0
LINE
  5
56
330
1F
100
AcDbEntity
  8
0
  6
Continuous
 62
     7
370
    15
100
AcDbLine
 10
63.3783287481
 20
171.1667974805
 30
0.0
 11
63.3783287481
 21
169.1667971527
 31
0.0
  0
LINE
  5
57
330
1F
100
AcDbEntity
  8
0
  6
Continuous
 62
     7
370
    15
100
AcDbLine
 10
52.878329821
 20
112.1667989855
 30
0.0
 11
57.8783287779
 21
112.1667989855
 31
0.0
  0
LINE
  5
58
330
1F
100
AcDbEntity
  8
0
  6
Continuous
 62
     7
370
    15
100
AcDbLine
 10
52.878329821
 20
112.1667989855
 30
0.0
 11
52.878329821
 21
178.1668004905
 31
0.0
  0
LINE
  5
59
330
1F
100
AcDbEntity
  8
0
  6
Continuous
 62
     7
370
    15
100
AcDbLine
 10
57.8783287779
 20
178.1668004905
 30
0.0
 11
52.878329821
 21
178.1668004905
 31
0.0
  0
LINE
  5
5A
330
1F
100
AcDbEntity
  8
0
  6
Continuous
 62
     7
370
    15
100
AcDbLine
 10
57.8783287779
 20
112.1667989855
 30
0.0
 11
57.8783287779
 21
178.1668004905
 31
0.0
  0
LINE
  5
5B
330
1F
100
AcDbEntity
  8
0
  6
Continuous
 62
     7
370
    15
100
AcDbLine
 10
57.8783287779
 20
112.1667989855
 30
0.0
 11
57.8783287779
 21
110.1667986577
 31
0.0
  0
LINE
  5
5C
330
1F
100
AcDbEntity
  8
0
  6
Continuous
 62
     7
370
    15
100
AcDbLine
 10
57.8783287779
 20
110.1667986577
 30
0.0
 11
52.878329821
 21
110.1667986577
 31
0.0
  0
LINE
  5
5D
330
1F
100
AcDbEntity
  8
0
  6
Continuous
 62
     7
370
    15
100
AcDbLine
 10
52.878329821
 20
110.1667986577
 30
0.0
 11
52.878329821
 21
112.1667989855
 31
0.0
  0
LINE
  5
5E
330
1F
100
AcDbEntity
  8
0
  6
Continuous
 62
     7
370
    15
100
AcDbLine
 10
52.878329821
 20
180.1667970931
 30
0.0
 11
57.8783287779
 21
180.1667970931
 31
0.0
  0
LINE
  5
5F
330
1F
100
AcDbEntity
  8
0
  6
Continuous
 62
     7
370
    15
100
AcDbLine
 10
52.878329821
 20
178.1668004905
 30
0.0
 11
52.878329821
 21
180.1667970931
 31
0.0
  0
LINE
  5
60
330
1F
100
AcDbEntity
  8
0
  6
Continuous
 62
     7
370
    15
100
AcDbLine
 10
57.8783287779
 20
179.1667987918
 30
0.0
 11
57.8783287779
 21
178.1668004905
 31
0.0
  0
LINE
  5
61
330
1F
100
AcDbEntity
  8
0
  6
Continuous
 62
     7
370
    15
100
AcDbLine
 10
68.9783286587
 20
170.6667988459
 30
0.0
 11
68.9783286587
 21
177.6667988459
 31
0.0
  0
DIMENSION
  5
62
330
1F
100
AcDbEntity
  8
ﾚｲﾔｰ0
100
AcDbDimension
  2
*D1
 10
43.0732477789
 20
180.1667988459
 30
0.0
 11
43.0732477789
 21
149.0602715353
 31
0.0
 70
   160
 71
     1
 42
70.0
  3
SLDDIMSTYLE0
100
AcDbAlignedDimension
 13
57.8783286587
 23
110.1667988459
 33
0.0
 14
57.8783286587
 24
180.1667988459
 34
0.0
 50
90.0
100
AcDbRotatedDimension
1001
ACAD
1000
DSTYLE
1002
{
1070
    77
1070
     3
1070
   143
1040
0.0393700787
1070
    41
1040
5.0
1070
    44
1040
1.0
1070
    42
1040
1.0
1070
   147
1040
1.524
1070
    73
1070
     0
1070
    74
1070
     0
1070
   140
1040
7.0555555556
1070
   284
1070
    12
1070
    78
1070
    12
1002
}
  0
DIMENSION
  5
7E
330
1F
100
AcDbEntity
  8
ﾚｲﾔｰ0
100
AcDbDimension
  2
*D3
 10
43.0732477789
 20
180.1667988459
 30
0.0
 11
43.0732477789
 21
190.9793411733
 31
0.0
 70
   160
 71
     1
 42
19.0
  3
SLDDIMSTYLE0
100
AcDbAlignedDimension
 13
57.8783286587
 23
199.1667988459
 33
0.0
 14
52.8783286587
 24
180.1667988459
 34
0.0
 50
90.0
100
AcDbRotatedDimension
1001
ACAD
1000
DSTYLE
1002
{
1070
    77
1070
     3
1070
   143
1040
0.0393700787
1070
    41
1040
5.0
1070
    44
1040
1.0
1070
    42
1040
1.0
1070
   147
1040
1.524
1070
    73
1070
     0
1070
    74
1070
     0
1070
   140
1040
7.0555555556
1070
   284
1070
    12
1070
    78
1070
    12
1002
}
  0
DIMENSION
  5
92
330
1F
100
AcDbEntity
  8
ﾚｲﾔｰ0
100
AcDbDimension
  2
*D4
 10
31.1491129275
 20
110.1667988459
 30
0.0
 11
31.1491129275
 21
164.9770587443
 31
0.0
 70
   160
 71
     1
 42
89.0
  3
SLDDIMSTYLE0
100
AcDbAlignedDimension
 13
57.8783286587
 23
199.1667988459
 33
0.0
 14
52.8783286587
 24
110.1667988459
 34
0.0
 50
90.0
100
AcDbRotatedDimension
1001
ACAD
1000
DSTYLE
1002
{
1070
    77
1070
     3
1070
   143
1040
0.0393700787
1070
    41
1040
5.0
1070
    44
1040
1.0
1070
    42
1040
1.0
1070
   147
1040
1.524
1070
    73
1070
     0
1070
    74
1070
     0
1070
   140
1040
7.0555555556
1070
   284
1070
    12
1070
    78
1070
    12
1002
}
  0
DIMENSION
  5
A6
330
1F
100
AcDbEntity
  8
ﾚｲﾔｰ0
100
AcDbDimension
  2
*D5
 10
84.5330051756
 20
179.1667988459
 30
0.0
 11
84.5330051756
 21
188.7986060038
 31
0.0
 70
   160
 71
     1
 42
20.0
  3
SLDDIMSTYLE0
100
AcDbAlignedDimension
 13
72.8783286587
 23
199.1667988459
 33
0.0
 14
72.8783286587
 24
179.1667988459
 34
0.0
 50
90.0
100
AcDbRotatedDimension
1001
ACAD
1000
DSTYLE
1002
{
1070
    77
1070
     3
1070
   143
1040
0.0393700787
1070
    41
1040
5.0
1070
    44
1040
1.0
1070
    42
1040
1.0
1070
   147
1040
1.524
1070
    73
1070
     0
1070
    74
1070
     0
1070
   140
1040
7.0555555556
1070
   284
1070
    12
1070
    78
1070
    12
1002
}
  0
MTEXT
  5
BA
330
1F
100
AcDbEntity
  8
ﾚｲﾔｰ0
100
AcDbMText
 10
73.4391977153
 20
159.355972414
 30
12.5952667348
 40
4.2333333333
 41
0.0
 71
     1
 72
     1
  1
M4X12 2ヶ
  7
SLDTEXTSTYLE0
 73
     1
 44
1.0
  0
LEADER
  5
C1
330
1F
100
AcDbEntity
  8
ﾚｲﾔｰ0
100
AcDbLeader
  3
SLDDIMSTYLE1
 76
     3
 10
67.1999730163
 20
173.3557554483
 30
0.0
 10
72.9365229023
 20
154.4272169793
 30
0.0
 10
98.8380269497
 20
154.4272169793
 30
0.0
  0
MTEXT
  5
C2
330
1F
100
AcDbEntity
  8
ﾚｲﾔｰ0
100
AcDbMText
 10
71.1477269361
 20
216.2625009775
 30
20.0
 40
4.2333333333
 41
0.0
 71
     1
 72
     1
  1
NCON-CP-01
  7
SLDTEXTSTYLE0
 73
     1
 44
1.0
  0
LEADER
  5
C3
330
1F
100
AcDbEntity
  8
ﾚｲﾔｰ0
100
AcDbLeader
  3
SLDDIMSTYLE1
 76
     3
 10
61.7118646728
 20
194.683775815
 30
0.0
 10
70.6457821323
 20
211.333882922
 30
0.0
 10
99.3673495558
 20
211.333882922
 30
0.0
  0
CIRCLE
  5
C4
330
1F
100
AcDbEntity
  8
0
  6
Continuous
 62
     7
370
    15
100
AcDbCircle
 10
146.3615052036
 20
174.1667988459
 30
0.0
 40
3.299999999999983
  0
LINE
  5
C5
330
1F
100
AcDbEntity
  8
0
  6
Continuous
 62
     7
370
    15
100
AcDbLine
 10
146.361505959
 20
175.9398405766
 30
0.0
 11
144.8260046279
 21
175.0533183431
 31
0.0
  0
LINE
  5
C6
330
1F
100
AcDbEntity
  8
0
  6
Continuous
 62
     7
370
    15
100
AcDbLine
 10
144.8260046279
 20
175.0533183431
 30
0.0
 11
144.8260046279
 21
173.2802776014
 31
0.0
  0
LINE
  5
C7
330
1F
100
AcDbEntity
  8
0
  6
Continuous
 62
     7
370
    15
100
AcDbLine
 10
146.361505959
 20
172.3937553679
 30
0.0
 11
144.8260046279
 21
173.2802776014
 31
0.0
  0
LINE
  5
C8
330
1F
100
AcDbEntity
  8
0
  6
Continuous
 62
     7
370
    15
100
AcDbLine
 10
147.8970054274
 20
173.2802776014
 30
0.0
 11
146.361505959
 21
172.3937553679
 31
0.0
  0
LINE
  5
C9
330
1F
100
AcDbEntity
  8
0
  6
Continuous
 62
     7
370
    15
100
AcDbLine
 10
147.8970054274
 20
173.2802776014
 30
0.0
 11
147.8970054274
 21
175.0533183431
 31
0.0
  0
LINE
  5
CA
330
1F
100
AcDbEntity
  8
0
  6
Continuous
 62
     7
370
    15
100
AcDbLine
 10
146.361505959
 20
175.9398405766
 30
0.0
 11
147.8970054274
 21
175.0533183431
 31
0.0
  0
CIRCLE
  5
CB
330
1F
100
AcDbEntity
  8
0
  6
Continuous
 62
     7
370
    15
100
AcDbCircle
 10
146.3615052036
 20
174.1667988459
 30
0.0
 40
3.5
  0
ARC
  5
CC
330
1F
100
AcDbEntity
  8
0
  6
Continuous
 62
     7
370
    15
100
AcDbCircle
 10
146.3615052036
 20
174.1667988459
 30
0.0
 40
1.535499999999998
100
AcDbArc
 50
300.0
 51
0.0
  0
ARC
  5
CD
330
1F
100
AcDbEntity
  8
0
  6
Continuous
 62
     7
370
    15
100
AcDbCircle
 10
146.3615052036
 20
174.1667988459
 30
0.0
 40
1.535499999999998
100
AcDbArc
 50
240.0
 51
300.0
  0
ARC
  5
CE
330
1F
100
AcDbEntity
  8
0
  6
Continuous
 62
     7
370
    15
100
AcDbCircle
 10
146.3615052036
 20
174.1667988459
 30
0.0
 40
1.535500000000013
100
AcDbArc
 50
180.0
 51
240.0
  0
ARC
  5
CF
330
1F
100
AcDbEntity
  8
0
  6
Continuous
 62
     7
370
    15
100
AcDbCircle
 10
146.3615052036
 20
174.1667988459
 30
0.0
 40
1.535500000000013
100
AcDbArc
 50
120.0
 51
180.0
  0
ARC
  5
D0
330
1F
100
AcDbEntity
  8
0
  6
Continuous
 62
     7
370
    15
100
AcDbCircle
 10
146.3615052036
 20
174.1667988459
 30
0.0
 40
1.535499999999998
100
AcDbArc
 50
60.0
 51
120.0
  0
ARC
  5
D1
330
1F
100
AcDbEntity
  8
0
  6
Continuous
 62
     7
370
    15
100
AcDbCircle
 10
146.3615052036
 20
174.1667988459
 30
0.0
 40
1.535499999999998
100
AcDbArc
 50
0.0
 51
60.0
  0
CIRCLE
  5
D2
330
1F
100
AcDbEntity
  8
0
  6
Continuous
 62
     7
370
    15
100
AcDbCircle
 10
178.3615052036
 20
174.1667988459
 30
0.0
 40
3.299999999999983
  0
CIRCLE
  5
D3
330
1F
100
AcDbEntity
  8
0
  6
Continuous
 62
     7
370
    15
100
AcDbCircle
 10
178.3615052036
 20
174.1667988459
 30
0.0
 40
3.5
  0
LINE
  5
D4
330
1F
100
AcDbEntity
  8
0
  6
Continuous
 62
     7
370
    15
100
AcDbLine
 10
178.3615056162
 20
175.9398405766
 30
0.0
 11
176.8260052165
 21
175.0533183431
 31
0.0
  0
LINE
  5
D5
330
1F
100
AcDbEntity
  8
0
  6
Continuous
 62
     7
370
    15
100
AcDbLine
 10
176.8260052165
 20
175.0533183431
 30
0.0
 11
176.8260052165
 21
173.2802776014
 31
0.0
  0
LINE
  5
D6
330
1F
100
AcDbEntity
  8
0
  6
Continuous
 62
     7
370
    15
100
AcDbLine
 10
178.3615056162
 20
172.3937553679
 30
0.0
 11
176.8260052165
 21
173.2802776014
 31
0.0
  0
LINE
  5
D7
330
1F
100
AcDbEntity
  8
0
  6
Continuous
 62
     7
370
    15
100
AcDbLine
 10
179.8970050847
 20
173.2802776014
 30
0.0
 11
178.3615056162
 21
172.3937553679
 31
0.0
  0
LINE
  5
D8
330
1F
100
AcDbEntity
  8
0
  6
Continuous
 62
     7
370
    15
100
AcDbLine
 10
179.8970050847
 20
173.2802776014
 30
0.0
 11
179.8970050847
 21
175.0533183431
 31
0.0
  0
LINE
  5
D9
330
1F
100
AcDbEntity
  8
0
  6
Continuous
 62
     7
370
    15
100
AcDbLine
 10
178.3615056162
 20
175.9398405766
 30
0.0
 11
179.8970050847
 21
175.0533183431
 31
0.0
  0
ARC
  5
DA
330
1F
100
AcDbEntity
  8
0
  6
Continuous
 62
     7
370
    15
100
AcDbCircle
 10
178.3615052036
 20
174.1667988459
 30
0.0
 40
1.535499999999998
100
AcDbArc
 50
0.0
 51
60.0
  0
ARC
  5
DB
330
1F
100
AcDbEntity
  8
0
  6
Continuous
 62
     7
370
    15
100
AcDbCircle
 10
178.3615052036
 20
174.1667988459
 30
0.0
 40
1.535500000000023
100
AcDbArc
 50
300.0
 51
0.0
  0
ARC
  5
DC
330
1F
100
AcDbEntity
  8
0
  6
Continuous
 62
     7
370
    15
100
AcDbCircle
 10
178.3615052036
 20
174.1667988459
 30
0.0
 40
1.535500000000023
100
AcDbArc
 50
240.0
 51
300.0
  0
ARC
  5
DD
330
1F
100
AcDbEntity
  8
0
  6
Continuous
 62
     7
370
    15
100
AcDbCircle
 10
178.3615052036
 20
174.1667988459
 30
0.0
 40
1.535500000000023
100
AcDbArc
 50
180.0
 51
240.0
  0
ARC
  5
DE
330
1F
100
AcDbEntity
  8
0
  6
Continuous
 62
     7
370
    15
100
AcDbCircle
 10
178.3615052036
 20
174.1667988459
 30
0.0
 40
1.535500000000013
100
AcDbArc
 50
120.0
 51
180.0
  0
ARC
  5
DF
330
1F
100
AcDbEntity
  8
0
  6
Continuous
 62
     7
370
    15
100
AcDbCircle
 10
178.3615052036
 20
174.1667988459
 30
0.0
 40
1.535499999999998
100
AcDbArc
 50
60.0
 51
120.0
  0
ARC
  5
E0
330
1F
100
AcDbEntity
  8
0
  6
Continuous
 62
     7
370
    15
100
AcDbCircle
 10
178.3615052036
 20
174.1667988459
 30
0.0
 40
3.799999999999995
100
AcDbArc
 50
4.5
 51
355.5
  0
LINE
  5
E1
330
1F
100
AcDbEntity
  8
0
  6
Continuous
 62
     7
370
    15
100
AcDbLine
 10
181.8507149552
 20
173.8921937858
 30
0.0
 11
182.1497910717
 21
173.8686542821
 31
0.0
  0
LINE
  5
E2
330
1F
100
AcDbEntity
  8
0
  6
Continuous
 62
     7
370
    15
100
AcDbLine
 10
181.8507149552
 20
174.4414058839
 30
0.0
 11
182.1497910717
 21
174.4649434096
 31
0.0
  0
LINE
  5
E3
330
1F
100
AcDbEntity
  8
0
  6
Continuous
 62
     7
370
    15
100
AcDbLine
 10
149.850715298
 20
173.8921937858
 30
0.0
 11
150.1497910717
 21
173.8686542821
 31
0.0
  0
ARC
  5
E4
330
1F
100
AcDbEntity
  8
0
  6
Continuous
 62
     7
370
    15
100
AcDbCircle
 10
146.3615052036
 20
174.1667988459
 30
0.0
 40
3.799999999999995
100
AcDbArc
 50
4.5
 51
355.5
  0
LINE
  5
E5
330
1F
100
AcDbEntity
  8
0
  6
Continuous
 62
     7
370
    15
100
AcDbLine
 10
149.850715298
 20
174.4414058839
 30
0.0
 11
150.1497910717
 21
174.4649434096
 31
0.0
  0
CIRCLE
  5
E6
330
1F
100
AcDbEntity
  8
0
  6
Continuous
 62
     7
370
    15
100
AcDbCircle
 10
146.3615052036
 20
174.1667988459
 30
0.0
 40
4.5
  0
CIRCLE
  5
E7
330
1F
100
AcDbEntity
  8
0
  6
Continuous
 62
     7
370
    15
100
AcDbCircle
 10
178.3615052036
 20
174.1667988459
 30
0.0
 40
4.5
  0
LINE
  5
E8
330
1F
100
AcDbEntity
  8
0
  6
Continuous
 62
     7
370
    15
100
AcDbLine
 10
142.3615053033
 20
199.1668020701
 30
0.0
 11
142.3615053033
 21
179.1667987918
 31
0.0
  0
LINE
  5
E9
330
1F
100
AcDbEntity
  8
0
  6
Continuous
 62
     7
370
    15
100
AcDbLine
 10
182.3615044092
 20
199.1668020701
 30
0.0
 11
142.3615053033
 21
199.1668020701
 31
0.0
  0
LINE
  5
EA
330
1F
100
AcDbEntity
  8
0
  6
Continuous
 62
     7
370
    15
100
AcDbLine
 10
182.3615044092
 20
179.1667987918
 30
0.0
 11
182.3615044092
 21
199.1668020701
 31
0.0
  0
LINE
  5
EB
330
1F
100
AcDbEntity
  8
0
  6
Continuous
 62
     7
370
    15
100
AcDbLine
 10
142.3615053033
 20
179.1667987918
 30
0.0
 11
182.3615044092
 21
179.1667987918
 31
0.0
  0
LINE
  5
EC
330
1F
100
AcDbEntity
  8
0
  6
Continuous
 62
     7
370
    15
100
AcDbLine
 10
142.8615044539
 20
186.5667973971
 30
0.0
 11
142.8615044539
 21
183.566798768
 31
0.0
  0
LINE
  5
ED
330
1F
100
AcDbEntity
  8
0
  6
Continuous
 62
     7
370
    15
100
AcDbLine
 10
142.8615044539
 20
198.566799364
 30
0.0
 11
142.8615044539
 21
195.5668007349
 31
0.0
  0
LINE
  5
EE
330
1F
100
AcDbEntity
  8
0
  6
Continuous
 62
     7
370
    15
100
AcDbLine
 10
142.8615044539
 20
182.5668004667
 30
0.0
 11
142.8615044539
 21
179.5667981123
 31
0.0
  0
LINE
  5
EF
330
1F
100
AcDbEntity
  8
0
  6
Continuous
 62
     7
370
    15
100
AcDbLine
 10
142.8615044539
 20
194.5667987084
 30
0.0
 11
142.8615044539
 21
191.5668000793
 31
0.0
  0
LINE
  5
F0
330
1F
100
AcDbEntity
  8
0
  6
Continuous
 62
     7
370
    15
100
AcDbLine
 10
142.8615044539
 20
190.5667980527
 30
0.0
 11
142.8615044539
 21
187.5667994236
 31
0.0
  0
LINE
  5
F1
330
1F
100
AcDbEntity
  8
0
  6
Continuous
 62
     7
370
    15
100
AcDbLine
 10
145.8615049457
 20
194.5667987084
 30
0.0
 11
142.8615044539
 21
194.5667987084
 31
0.0
  0
LINE
  5
F2
330
1F
100
AcDbEntity
  8
0
  6
Continuous
 62
     7
370
    15
100
AcDbLine
 10
145.8615049457
 20
191.5668000793
 30
0.0
 11
145.8615049457
 21
194.5667987084
 31
0.0
  0
LINE
  5
F3
330
1F
100
AcDbEntity
  8
0
  6
Continuous
 62
     7
370
    15
100
AcDbLine
 10
145.8615049457
 20
187.5667994236
 30
0.0
 11
145.8615049457
 21
190.5667980527
 31
0.0
  0
LINE
  5
F4
330
1F
100
AcDbEntity
  8
0
  6
Continuous
 62
     7
370
    15
100
AcDbLine
 10
142.8615044539
 20
187.5667994236
 30
0.0
 11
145.8615049457
 21
187.5667994236
 31
0.0
  0
LINE
  5
F5
330
1F
100
AcDbEntity
  8
0
  6
Continuous
 62
     7
370
    15
100
AcDbLine
 10
145.8615049457
 20
198.566799364
 30
0.0
 11
142.8615044539
 21
198.566799364
 31
0.0
  0
LINE
  5
F6
330
1F
100
AcDbEntity
  8
0
  6
Continuous
 62
     7
370
    15
100
AcDbLine
 10
145.8615049457
 20
195.5668007349
 30
0.0
 11
145.8615049457
 21
198.566799364
 31
0.0
  0
LINE
  5
F7
330
1F
100
AcDbEntity
  8
0
  6
Continuous
 62
     7
370
    15
100
AcDbLine
 10
142.8615044539
 20
195.5668007349
 30
0.0
 11
145.8615049457
 21
195.5668007349
 31
0.0
  0
LINE
  5
F8
330
1F
100
AcDbEntity
  8
0
  6
Continuous
 62
     7
370
    15
100
AcDbLine
 10
145.8615049457
 20
190.5667980527
 30
0.0
 11
142.8615044539
 21
190.5667980527
 31
0.0
  0
LINE
  5
F9
330
1F
100
AcDbEntity
  8
0
  6
Continuous
 62
     7
370
    15
100
AcDbLine
 10
142.8615044539
 20
191.5668000793
 30
0.0
 11
145.8615049457
 21
191.5668000793
 31
0.0
  0
LINE
  5
FA
330
1F
100
AcDbEntity
  8
0
  6
Continuous
 62
     7
370
    15
100
AcDbLine
 10
145.8615049457
 20
186.5667973971
 30
0.0
 11
142.8615044539
 21
186.5667973971
 31
0.0
  0
LINE
  5
FB
330
1F
100
AcDbEntity
  8
0
  6
Continuous
 62
     7
370
    15
100
AcDbLine
 10
145.8615049457
 20
182.5668004667
 30
0.0
 11
142.8615044539
 21
182.5668004667
 31
0.0
  0
LINE
  5
FC
330
1F
100
AcDbEntity
  8
0
  6
Continuous
 62
     7
370
    15
100
AcDbLine
 10
145.8615049457
 20
179.5667981123
 30
0.0
 11
145.8615049457
 21
182.5668004667
 31
0.0
  0
LINE
  5
FD
330
1F
100
AcDbEntity
  8
0
  6
Continuous
 62
     7
370
    15
100
AcDbLine
 10
142.8615044539
 20
179.5667981123
 30
0.0
 11
145.8615049457
 21
179.5667981123
 31
0.0
  0
LINE
  5
FE
330
1F
100
AcDbEntity
  8
0
  6
Continuous
 62
     7
370
    15
100
AcDbLine
 10
145.8615049457
 20
183.566798768
 30
0.0
 11
145.8615049457
 21
186.5667973971
 31
0.0
  0
LINE
  5
FF
330
1F
100
AcDbEntity
  8
0
  6
Continuous
 62
     7
370
    15
100
AcDbLine
 10
142.8615044539
 20
183.566798768
 30
0.0
 11
145.8615049457
 21
183.566798768
 31
0.0
  0
LINE
  5
100
330
1F
100
AcDbEntity
  8
0
  6
Continuous
 62
     7
370
    15
100
AcDbLine
 10
146.8615051096
 20
182.5668004667
 30
0.0
 11
146.8615051096
 21
179.5667981123
 31
0.0
  0
LINE
  5
101
330
1F
100
AcDbEntity
  8
0
  6
Continuous
 62
     7
370
    15
100
AcDbLine
 10
146.8615051096
 20
190.5667980527
 30
0.0
 11
146.8615051096
 21
187.5667994236
 31
0.0
  0
LINE
  5
102
330
1F
100
AcDbEntity
  8
0
  6
Continuous
 62
     7
370
    15
100
AcDbLine
 10
146.8615051096
 20
198.566799364
 30
0.0
 11
146.8615051096
 21
195.5668007349
 31
0.0
  0
LINE
  5
103
330
1F
100
AcDbEntity
  8
0
  6
Continuous
 62
     7
370
    15
100
AcDbLine
 10
146.8615051096
 20
186.5667973971
 30
0.0
 11
146.8615051096
 21
183.566798768
 31
0.0
  0
LINE
  5
104
330
1F
100
AcDbEntity
  8
0
  6
Continuous
 62
     7
370
    15
100
AcDbLine
 10
146.8615051096
 20
194.5667987084
 30
0.0
 11
146.8615051096
 21
191.5668000793
 31
0.0
  0
LINE
  5
105
330
1F
100
AcDbEntity
  8
0
  6
Continuous
 62
     7
370
    15
100
AcDbLine
 10
149.8615056013
 20
182.5668004667
 30
0.0
 11
146.8615051096
 21
182.5668004667
 31
0.0
  0
LINE
  5
106
330
1F
100
AcDbEntity
  8
0
  6
Continuous
 62
     7
370
    15
100
AcDbLine
 10
149.8615056013
 20
194.5667987084
 30
0.0
 11
146.8615051096
 21
194.5667987084
 31
0.0
  0
LINE
  5
107
330
1F
100
AcDbEntity
  8
0
  6
Continuous
 62
     7
370
    15
100
AcDbLine
 10
149.8615056013
 20
179.5667981123
 30
0.0
 11
149.8615056013
 21
182.5668004667
 31
0.0
  0
LINE
  5
108
330
1F
100
AcDbEntity
  8
0
  6
Continuous
 62
     7
370
    15
100
AcDbLine
 10
149.8615056013
 20
187.5667994236
 30
0.0
 11
149.8615056013
 21
190.5667980527
 31
0.0
  0
LINE
  5
109
330
1F
100
AcDbEntity
  8
0
  6
Continuous
 62
     7
370
    15
100
AcDbLine
 10
146.8615051096
 20
187.5667994236
 30
0.0
 11
149.8615056013
 21
187.5667994236
 31
0.0
  0
LINE
  5
10A
330
1F
100
AcDbEntity
  8
0
  6
Continuous
 62
     7
370
    15
100
AcDbLine
 10
149.8615056013
 20
198.566799364
 30
0.0
 11
146.8615051096
 21
198.566799364
 31
0.0
  0
LINE
  5
10B
330
1F
100
AcDbEntity
  8
0
  6
Continuous
 62
     7
370
    15
100
AcDbLine
 10
149.8615056013
 20
195.5668007349
 30
0.0
 11
149.8615056013
 21
198.566799364
 31
0.0
  0
LINE
  5
10C
330
1F
100
AcDbEntity
  8
0
  6
Continuous
 62
     7
370
    15
100
AcDbLine
 10
149.8615056013
 20
191.5668000793
 30
0.0
 11
149.8615056013
 21
194.5667987084
 31
0.0
  0
LINE
  5
10D
330
1F
100
AcDbEntity
  8
0
  6
Continuous
 62
     7
370
    15
100
AcDbLine
 10
149.8615056013
 20
190.5667980527
 30
0.0
 11
146.8615051096
 21
190.5667980527
 31
0.0
  0
LINE
  5
10E
330
1F
100
AcDbEntity
  8
0
  6
Continuous
 62
     7
370
    15
100
AcDbLine
 10
146.8615051096
 20
191.5668000793
 30
0.0
 11
149.8615056013
 21
191.5668000793
 31
0.0
  0
LINE
  5
10F
330
1F
100
AcDbEntity
  8
0
  6
Continuous
 62
     7
370
    15
100
AcDbLine
 10
149.8615056013
 20
186.5667973971
 30
0.0
 11
146.8615051096
 21
186.5667973971
 31
0.0
  0
LINE
  5
110
330
1F
100
AcDbEntity
  8
0
  6
Continuous
 62
     7
370
    15
100
AcDbLine
 10
149.8615056013
 20
183.566798768
 30
0.0
 11
149.8615056013
 21
186.5667973971
 31
0.0
  0
LINE
  5
111
330
1F
100
AcDbEntity
  8
0
  6
Continuous
 62
     7
370
    15
100
AcDbLine
 10
146.8615051096
 20
183.566798768
 30
0.0
 11
149.8615056013
 21
183.566798768
 31
0.0
  0
LINE
  5
112
330
1F
100
AcDbEntity
  8
0
  6
Continuous
 62
     7
370
    15
100
AcDbLine
 10
146.8615051096
 20
179.5667981123
 30
0.0
 11
149.8615056013
 21
179.5667981123
 31
0.0
  0
LINE
  5
113
330
1F
100
AcDbEntity
  8
0
  6
Continuous
 62
     7
370
    15
100
AcDbLine
 10
146.8615051096
 20
195.5668007349
 30
0.0
 11
149.8615056013
 21
195.5668007349
 31
0.0
  0
LINE
  5
114
330
1F
100
AcDbEntity
  8
0
  6
Continuous
 62
     7
370
    15
100
AcDbLine
 10
150.8615048339
 20
182.5668004667
 30
0.0
 11
150.8615048339
 21
179.5667981123
 31
0.0
  0
LINE
  5
115
330
1F
100
AcDbEntity
  8
0
  6
Continuous
 62
     7
370
    15
100
AcDbLine
 10
150.8615048339
 20
190.5667980527
 30
0.0
 11
150.8615048339
 21
187.5667994236
 31
0.0
  0
LINE
  5
116
330
1F
100
AcDbEntity
  8
0
  6
Continuous
 62
     7
370
    15
100
AcDbLine
 10
150.8615048339
 20
194.5667987084
 30
0.0
 11
150.8615048339
 21
191.5668000793
 31
0.0
  0
LINE
  5
117
330
1F
100
AcDbEntity
  8
0
  6
Continuous
 62
     7
370
    15
100
AcDbLine
 10
150.8615048339
 20
198.566799364
 30
0.0
 11
150.8615048339
 21
195.5668007349
 31
0.0
  0
LINE
  5
118
330
1F
100
AcDbEntity
  8
0
  6
Continuous
 62
     7
370
    15
100
AcDbLine
 10
150.8615048339
 20
186.5667973971
 30
0.0
 11
150.8615048339
 21
183.566798768
 31
0.0
  0
LINE
  5
119
330
1F
100
AcDbEntity
  8
0
  6
Continuous
 62
     7
370
    15
100
AcDbLine
 10
153.8615053257
 20
179.5667981123
 30
0.0
 11
153.8615053257
 21
182.5668004667
 31
0.0
  0
LINE
  5
11A
330
1F
100
AcDbEntity
  8
0
  6
Continuous
 62
     7
370
    15
100
AcDbLine
 10
153.8615053257
 20
182.5668004667
 30
0.0
 11
150.8615048339
 21
182.5668004667
 31
0.0
  0
LINE
  5
11B
330
1F
100
AcDbEntity
  8
0
  6
Continuous
 62
     7
370
    15
100
AcDbLine
 10
150.8615048339
 20
179.5667981123
 30
0.0
 11
153.8615053257
 21
179.5667981123
 31
0.0
  0
LINE
  5
11C
330
1F
100
AcDbEntity
  8
0
  6
Continuous
 62
     7
370
    15
100
AcDbLine
 10
153.8615053257
 20
191.5668000793
 30
0.0
 11
153.8615053257
 21
194.5667987084
 31
0.0
  0
LINE
  5
11D
330
1F
100
AcDbEntity
  8
0
  6
Continuous
 62
     7
370
    15
100
AcDbLine
 10
153.8615053257
 20
194.5667987084
 30
0.0
 11
150.8615048339
 21
194.5667987084
 31
0.0
  0
LINE
  5
11E
330
1F
100
AcDbEntity
  8
0
  6
Continuous
 62
     7
370
    15
100
AcDbLine
 10
153.8615053257
 20
195.5668007349
 30
0.0
 11
153.8615053257
 21
198.566799364
 31
0.0
  0
LINE
  5
11F
330
1F
100
AcDbEntity
  8
0
  6
Continuous
 62
     7
370
    15
100
AcDbLine
 10
153.8615053257
 20
198.566799364
 30
0.0
 11
150.8615048339
 21
198.566799364
 31
0.0
  0
LINE
  5
120
330
1F
100
AcDbEntity
  8
0
  6
Continuous
 62
     7
370
    15
100
AcDbLine
 10
150.8615048339
 20
191.5668000793
 30
0.0
 11
153.8615053257
 21
191.5668000793
 31
0.0
  0
LINE
  5
121
330
1F
100
AcDbEntity
  8
0
  6
Continuous
 62
     7
370
    15
100
AcDbLine
 10
150.8615048339
 20
195.5668007349
 30
0.0
 11
153.8615053257
 21
195.5668007349
 31
0.0
  0
LINE
  5
122
330
1F
100
AcDbEntity
  8
0
  6
Continuous
 62
     7
370
    15
100
AcDbLine
 10
153.8615053257
 20
187.5667994236
 30
0.0
 11
153.8615053257
 21
190.5667980527
 31
0.0
  0
LINE
  5
123
330
1F
100
AcDbEntity
  8
0
  6
Continuous
 62
     7
370
    15
100
AcDbLine
 10
150.8615048339
 20
187.5667994236
 30
0.0
 11
153.8615053257
 21
187.5667994236
 31
0.0
  0
LINE
  5
124
330
1F
100
AcDbEntity
  8
0
  6
Continuous
 62
     7
370
    15
100
AcDbLine
 10
153.8615053257
 20
183.566798768
 30
0.0
 11
153.8615053257
 21
186.5667973971
 31
0.0
  0
LINE
  5
125
330
1F
100
AcDbEntity
  8
0
  6
Continuous
 62
     7
370
    15
100
AcDbLine
 10
150.8615048339
 20
183.566798768
 30
0.0
 11
153.8615053257
 21
183.566798768
 31
0.0
  0
LINE
  5
126
330
1F
100
AcDbEntity
  8
0
  6
Continuous
 62
     7
370
    15
100
AcDbLine
 10
153.8615053257
 20
190.5667980527
 30
0.0
 11
150.8615048339
 21
190.5667980527
 31
0.0
  0
LINE
  5
127
330
1F
100
AcDbEntity
  8
0
  6
Continuous
 62
     7
370
    15
100
AcDbLine
 10
153.8615053257
 20
186.5667973971
 30
0.0
 11
150.8615048339
 21
186.5667973971
 31
0.0
  0
LINE
  5
128
330
1F
100
AcDbEntity
  8
0
  6
Continuous
 62
     7
370
    15
100
AcDbLine
 10
154.8615054896
 20
190.5667980527
 30
0.0
 11
154.8615054896
 21
187.5667994236
 31
0.0
  0
LINE
  5
129
330
1F
100
AcDbEntity
  8
0
  6
Continuous
 62
     7
370
    15
100
AcDbLine
 10
154.8615054896
 20
182.5668004667
 30
0.0
 11
154.8615054896
 21
179.5667981123
 31
0.0
  0
LINE
  5
12A
330
1F
100
AcDbEntity
  8
0
  6
Continuous
 62
     7
370
    15
100
AcDbLine
 10
154.8615054896
 20
194.5667987084
 30
0.0
 11
154.8615054896
 21
191.5668000793
 31
0.0
  0
LINE
  5
12B
330
1F
100
AcDbEntity
  8
0
  6
Continuous
 62
     7
370
    15
100
AcDbLine
 10
154.8615054896
 20
198.566799364
 30
0.0
 11
154.8615054896
 21
195.5668007349
 31
0.0
  0
LINE
  5
12C
330
1F
100
AcDbEntity
  8
0
  6
Continuous
 62
     7
370
    15
100
AcDbLine
 10
154.8615054896
 20
186.5667973971
 30
0.0
 11
154.8615054896
 21
183.566798768
 31
0.0
  0
LINE
  5
12D
330
1F
100
AcDbEntity
  8
0
  6
Continuous
 62
     7
370
    15
100
AcDbLine
 10
157.86150505
 20
183.566798768
 30
0.0
 11
157.86150505
 21
186.5667973971
 31
0.0
  0
LINE
  5
12E
330
1F
100
AcDbEntity
  8
0
  6
Continuous
 62
     7
370
    15
100
AcDbLine
 10
154.8615054896
 20
183.566798768
 30
0.0
 11
157.86150505
 21
183.566798768
 31
0.0
  0
LINE
  5
12F
330
1F
100
AcDbEntity
  8
0
  6
Continuous
 62
     7
370
    15
100
AcDbLine
 10
157.86150505
 20
179.5667981123
 30
0.0
 11
157.86150505
 21
182.5668004667
 31
0.0
  0
LINE
  5
130
330
1F
100
AcDbEntity
  8
0
  6
Continuous
 62
     7
370
    15
100
AcDbLine
 10
157.86150505
 20
186.5667973971
 30
0.0
 11
154.8615054896
 21
186.5667973971
 31
0.0
  0
LINE
  5
131
330
1F
100
AcDbEntity
  8
0
  6
Continuous
 62
     7
370
    15
100
AcDbLine
 10
157.86150505
 20
198.566799364
 30
0.0
 11
154.8615054896
 21
198.566799364
 31
0.0
  0
LINE
  5
132
330
1F
100
AcDbEntity
  8
0
  6
Continuous
 62
     7
370
    15
100
AcDbLine
 10
157.86150505
 20
195.5668007349
 30
0.0
 11
157.86150505
 21
198.566799364
 31
0.0
  0
LINE
  5
133
330
1F
100
AcDbEntity
  8
0
  6
Continuous
 62
     7
370
    15
100
AcDbLine
 10
154.8615054896
 20
179.5667981123
 30
0.0
 11
157.86150505
 21
179.5667981123
 31
0.0
  0
LINE
  5
134
330
1F
100
AcDbEntity
  8
0
  6
Continuous
 62
     7
370
    15
100
AcDbLine
 10
154.8615054896
 20
191.5668000793
 30
0.0
 11
157.86150505
 21
191.5668000793
 31
0.0
  0
LINE
  5
135
330
1F
100
AcDbEntity
  8
0
  6
Continuous
 62
     7
370
    15
100
AcDbLine
 10
157.86150505
 20
187.5667994236
 30
0.0
 11
157.86150505
 21
190.5667980527
 31
0.0
  0
LINE
  5
136
330
1F
100
AcDbEntity
  8
0
  6
Continuous
 62
     7
370
    15
100
AcDbLine
 10
154.8615054896
 20
187.5667994236
 30
0.0
 11
157.86150505
 21
187.5667994236
 31
0.0
  0
LINE
  5
137
330
1F
100
AcDbEntity
  8
0
  6
Continuous
 62
     7
370
    15
100
AcDbLine
 10
157.86150505
 20
182.5668004667
 30
0.0
 11
154.8615054896
 21
182.5668004667
 31
0.0
  0
LINE
  5
138
330
1F
100
AcDbEntity
  8
0
  6
Continuous
 62
     7
370
    15
100
AcDbLine
 10
157.86150505
 20
194.5667987084
 30
0.0
 11
154.8615054896
 21
194.5667987084
 31
0.0
  0
LINE
  5
139
330
1F
100
AcDbEntity
  8
0
  6
Continuous
 62
     7
370
    15
100
AcDbLine
 10
157.86150505
 20
191.5668000793
 30
0.0
 11
157.86150505
 21
194.5667987084
 31
0.0
  0
LINE
  5
13A
330
1F
100
AcDbEntity
  8
0
  6
Continuous
 62
     7
370
    15
100
AcDbLine
 10
157.86150505
 20
190.5667980527
 30
0.0
 11
154.8615054896
 21
190.5667980527
 31
0.0
  0
LINE
  5
13B
330
1F
100
AcDbEntity
  8
0
  6
Continuous
 62
     7
370
    15
100
AcDbLine
 10
154.8615054896
 20
195.5668007349
 30
0.0
 11
157.86150505
 21
195.5668007349
 31
0.0
  0
LINE
  5
13C
330
1F
100
AcDbEntity
  8
0
  6
Continuous
 62
     7
370
    15
100
AcDbLine
 10
158.8615052139
 20
190.5667980527
 30
0.0
 11
158.8615052139
 21
187.5667994236
 31
0.0
  0
LINE
  5
13D
330
1F
100
AcDbEntity
  8
0
  6
Continuous
 62
     7
370
    15
100
AcDbLine
 10
158.8615052139
 20
198.566799364
 30
0.0
 11
158.8615052139
 21
195.5668007349
 31
0.0
  0
LINE
  5
13E
330
1F
100
AcDbEntity
  8
0
  6
Continuous
 62
     7
370
    15
100
AcDbLine
 10
158.8615052139
 20
186.5667973971
 30
0.0
 11
158.8615052139
 21
183.566798768
 31
0.0
  0
LINE
  5
13F
330
1F
100
AcDbEntity
  8
0
  6
Continuous
 62
     7
370
    15
100
AcDbLine
 10
158.8615052139
 20
194.5667987084
 30
0.0
 11
158.8615052139
 21
191.5668000793
 31
0.0
  0
LINE
  5
140
330
1F
100
AcDbEntity
  8
0
  6
Continuous
 62
     7
370
    15
100
AcDbLine
 10
158.8615052139
 20
182.5668004667
 30
0.0
 11
158.8615052139
 21
179.5667981123
 31
0.0
  0
LINE
  5
141
330
1F
100
AcDbEntity
  8
0
  6
Continuous
 62
     7
370
    15
100
AcDbLine
 10
158.8615052139
 20
183.566798768
 30
0.0
 11
161.86150524
 21
183.566798768
 31
0.0
  0
LINE
  5
142
330
1F
100
AcDbEntity
  8
0
  6
Continuous
 62
     7
370
    15
100
AcDbLine
 10
158.8615052139
 20
179.5667981123
 30
0.0
 11
161.86150524
 21
179.5667981123
 31
0.0
  0
LINE
  5
143
330
1F
100
AcDbEntity
  8
0
  6
Continuous
 62
     7
370
    15
100
AcDbLine
 10
161.86150524
 20
179.5667981123
 30
0.0
 11
161.86150524
 21
182.5668004667
 31
0.0
  0
LINE
  5
144
330
1F
100
AcDbEntity
  8
0
  6
Continuous
 62
     7
370
    15
100
AcDbLine
 10
161.86150524
 20
183.566798768
 30
0.0
 11
161.86150524
 21
186.5667973971
 31
0.0
  0
LINE
  5
145
330
1F
100
AcDbEntity
  8
0
  6
Continuous
 62
     7
370
    15
100
AcDbLine
 10
161.86150524
 20
198.566799364
 30
0.0
 11
158.8615052139
 21
198.566799364
 31
0.0
  0
LINE
  5
146
330
1F
100
AcDbEntity
  8
0
  6
Continuous
 62
     7
370
    15
100
AcDbLine
 10
161.86150524
 20
195.5668007349
 30
0.0
 11
161.86150524
 21
198.566799364
 31
0.0
  0
LINE
  5
147
330
1F
100
AcDbEntity
  8
0
  6
Continuous
 62
     7
370
    15
100
AcDbLine
 10
158.8615052139
 20
195.5668007349
 30
0.0
 11
161.86150524
 21
195.5668007349
 31
0.0
  0
LINE
  5
148
330
1F
100
AcDbEntity
  8
0
  6
Continuous
 62
     7
370
    15
100
AcDbLine
 10
161.86150524
 20
190.5667980527
 30
0.0
 11
158.8615052139
 21
190.5667980527
 31
0.0
  0
LINE
  5
149
330
1F
100
AcDbEntity
  8
0
  6
Continuous
 62
     7
370
    15
100
AcDbLine
 10
161.86150524
 20
187.5667994236
 30
0.0
 11
161.86150524
 21
190.5667980527
 31
0.0
  0
LINE
  5
14A
330
1F
100
AcDbEntity
  8
0
  6
Continuous
 62
     7
370
    15
100
AcDbLine
 10
158.8615052139
 20
187.5667994236
 30
0.0
 11
161.86150524
 21
187.5667994236
 31
0.0
  0
LINE
  5
14B
330
1F
100
AcDbEntity
  8
0
  6
Continuous
 62
     7
370
    15
100
AcDbLine
 10
161.86150524
 20
182.5668004667
 30
0.0
 11
158.8615052139
 21
182.5668004667
 31
0.0
  0
LINE
  5
14C
330
1F
100
AcDbEntity
  8
0
  6
Continuous
 62
     7
370
    15
100
AcDbLine
 10
161.86150524
 20
194.5667987084
 30
0.0
 11
158.8615052139
 21
194.5667987084
 31
0.0
  0
LINE
  5
14D
330
1F
100
AcDbEntity
  8
0
  6
Continuous
 62
     7
370
    15
100
AcDbLine
 10
161.86150524
 20
191.5668000793
 30
0.0
 11
161.86150524
 21
194.5667987084
 31
0.0
  0
LINE
  5
14E
330
1F
100
AcDbEntity
  8
0
  6
Continuous
 62
     7
370
    15
100
AcDbLine
 10
158.8615052139
 20
191.5668000793
 30
0.0
 11
161.86150524
 21
191.5668000793
 31
0.0
  0
LINE
  5
14F
330
1F
100
AcDbEntity
  8
0
  6
Continuous
 62
     7
370
    15
100
AcDbLine
 10
161.86150524
 20
186.5667973971
 30
0.0
 11
158.8615052139
 21
186.5667973971
 31
0.0
  0
LINE
  5
150
330
1F
100
AcDbEntity
  8
0
  6
Continuous
 62
     7
370
    15
100
AcDbLine
 10
162.8615051711
 20
186.5667973971
 30
0.0
 11
162.8615051711
 21
183.566798768
 31
0.0
  0
LINE
  5
151
330
1F
100
AcDbEntity
  8
0
  6
Continuous
 62
     7
370
    15
100
AcDbLine
 10
162.8615051711
 20
190.5667980527
 30
0.0
 11
162.8615051711
 21
187.5667994236
 31
0.0
  0
LINE
  5
152
330
1F
100
AcDbEntity
  8
0
  6
Continuous
 62
     7
370
    15
100
AcDbLine
 10
162.8615051711
 20
198.566799364
 30
0.0
 11
162.8615051711
 21
195.5668007349
 31
0.0
  0
LINE
  5
153
330
1F
100
AcDbEntity
  8
0
  6
Continuous
 62
     7
370
    15
100
AcDbLine
 10
162.8615051711
 20
182.5668004667
 30
0.0
 11
162.8615051711
 21
179.5667981123
 31
0.0
  0
LINE
  5
154
330
1F
100
AcDbEntity
  8
0
  6
Continuous
 62
     7
370
    15
100
AcDbLine
 10
162.8615051711
 20
194.5667987084
 30
0.0
 11
162.8615051711
 21
191.5668000793
 31
0.0
  0
LINE
  5
155
330
1F
100
AcDbEntity
  8
0
  6
Continuous
 62
     7
370
    15
100
AcDbLine
 10
165.8615051971
 20
190.5667980527
 30
0.0
 11
162.8615051711
 21
190.5667980527
 31
0.0
  0
LINE
  5
156
330
1F
100
AcDbEntity
  8
0
  6
Continuous
 62
     7
370
    15
100
AcDbLine
 10
162.8615051711
 20
179.5667981123
 30
0.0
 11
165.8615051971
 21
179.5667981123
 31
0.0
  0
LINE
  5
157
330
1F
100
AcDbEntity
  8
0
  6
Continuous
 62
     7
370
    15
100
AcDbLine
 10
162.8615051711
 20
187.5667994236
 30
0.0
 11
165.8615051971
 21
187.5667994236
 31
0.0
  0
LINE
  5
158
330
1F
100
AcDbEntity
  8
0
  6
Continuous
 62
     7
370
    15
100
AcDbLine
 10
165.8615051971
 20
186.5667973971
 30
0.0
 11
162.8615051711
 21
186.5667973971
 31
0.0
  0
LINE
  5
159
330
1F
100
AcDbEntity
  8
0
  6
Continuous
 62
     7
370
    15
100
AcDbLine
 10
165.8615051971
 20
182.5668004667
 30
0.0
 11
162.8615051711
 21
182.5668004667
 31
0.0
  0
LINE
  5
15A
330
1F
100
AcDbEntity
  8
0
  6
Continuous
 62
     7
370
    15
100
AcDbLine
 10
162.8615051711
 20
183.566798768
 30
0.0
 11
165.8615051971
 21
183.566798768
 31
0.0
  0
LINE
  5
15B
330
1F
100
AcDbEntity
  8
0
  6
Continuous
 62
     7
370
    15
100
AcDbLine
 10
165.8615051971
 20
195.5668007349
 30
0.0
 11
165.8615051971
 21
198.566799364
 31
0.0
  0
LINE
  5
15C
330
1F
100
AcDbEntity
  8
0
  6
Continuous
 62
     7
370
    15
100
AcDbLine
 10
162.8615051711
 20
195.5668007349
 30
0.0
 11
165.8615051971
 21
195.5668007349
 31
0.0
  0
LINE
  5
15D
330
1F
100
AcDbEntity
  8
0
  6
Continuous
 62
     7
370
    15
100
AcDbLine
 10
165.8615051971
 20
187.5667994236
 30
0.0
 11
165.8615051971
 21
190.5667980527
 31
0.0
  0
LINE
  5
15E
330
1F
100
AcDbEntity
  8
0
  6
Continuous
 62
     7
370
    15
100
AcDbLine
 10
162.8615051711
 20
191.5668000793
 30
0.0
 11
165.8615051971
 21
191.5668000793
 31
0.0
  0
LINE
  5
15F
330
1F
100
AcDbEntity
  8
0
  6
Continuous
 62
     7
370
    15
100
AcDbLine
 10
165.8615051971
 20
183.566798768
 30
0.0
 11
165.8615051971
 21
186.5667973971
 31
0.0
  0
LINE
  5
160
330
1F
100
AcDbEntity
  8
0
  6
Continuous
 62
     7
370
    15
100
AcDbLine
 10
165.8615051971
 20
179.5667981123
 30
0.0
 11
165.8615051971
 21
182.5668004667
 31
0.0
  0
LINE
  5
161
330
1F
100
AcDbEntity
  8
0
  6
Continuous
 62
     7
370
    15
100
AcDbLine
 10
165.8615051971
 20
194.5667987084
 30
0.0
 11
162.8615051711
 21
194.5667987084
 31
0.0
  0
LINE
  5
162
330
1F
100
AcDbEntity
  8
0
  6
Continuous
 62
     7
370
    15
100
AcDbLine
 10
165.8615051971
 20
191.5668000793
 30
0.0
 11
165.8615051971
 21
194.5667987084
 31
0.0
  0
LINE
  5
163
330
1F
100
AcDbEntity
  8
0
  6
Continuous
 62
     7
370
    15
100
AcDbLine
 10
165.8615051971
 20
198.566799364
 30
0.0
 11
162.8615051711
 21
198.566799364
 31
0.0
  0
LINE
  5
164
330
1F
100
AcDbEntity
  8
0
  6
Continuous
 62
     7
370
    15
100
AcDbLine
 10
166.8615052446
 20
198.566799364
 30
0.0
 11
166.8615052446
 21
195.5668007349
 31
0.0
  0
LINE
  5
165
330
1F
100
AcDbEntity
  8
0
  6
Continuous
 62
     7
370
    15
100
AcDbLine
 10
166.8615052446
 20
190.5667980527
 30
0.0
 11
166.8615052446
 21
187.5667994236
 31
0.0
  0
LINE
  5
166
330
1F
100
AcDbEntity
  8
0
  6
Continuous
 62
     7
370
    15
100
AcDbLine
 10
166.8615052446
 20
194.5667987084
 30
0.0
 11
166.8615052446
 21
191.5668000793
 31
0.0
  0
LINE
  5
167
330
1F
100
AcDbEntity
  8
0
  6
Continuous
 62
     7
370
    15
100
AcDbLine
 10
166.8615052446
 20
182.5668004667
 30
0.0
 11
166.8615052446
 21
179.5667981123
 31
0.0
  0
LINE
  5
168
330
1F
100
AcDbEntity
  8
0
  6
Continuous
 62
     7
370
    15
100
AcDbLine
 10
166.8615052446
 20
186.5667973971
 30
0.0
 11
166.8615052446
 21
183.566798768
 31
0.0
  0
LINE
  5
169
330
1F
100
AcDbEntity
  8
0
  6
Continuous
 62
     7
370
    15
100
AcDbLine
 10
169.8615051543
 20
179.5667981123
 30
0.0
 11
169.8615051543
 21
182.5668004667
 31
0.0
  0
LINE
  5
16A
330
1F
100
AcDbEntity
  8
0
  6
Continuous
 62
     7
370
    15
100
AcDbLine
 10
169.8615051543
 20
194.5667987084
 30
0.0
 11
166.8615052446
 21
194.5667987084
 31
0.0
  0
LINE
  5
16B
330
1F
100
AcDbEntity
  8
0
  6
Continuous
 62
     7
370
    15
100
AcDbLine
 10
169.8615051543
 20
182.5668004667
 30
0.0
 11
166.8615052446
 21
182.5668004667
 31
0.0
  0
LINE
  5
16C
330
1F
100
AcDbEntity
  8
0
  6
Continuous
 62
     7
370
    15
100
AcDbLine
 10
169.8615051543
 20
187.5667994236
 30
0.0
 11
169.8615051543
 21
190.5667980527
 31
0.0
  0
LINE
  5
16D
330
1F
100
AcDbEntity
  8
0
  6
Continuous
 62
     7
370
    15
100
AcDbLine
 10
166.8615052446
 20
187.5667994236
 30
0.0
 11
169.8615051543
 21
187.5667994236
 31
0.0
  0
LINE
  5
16E
330
1F
100
AcDbEntity
  8
0
  6
Continuous
 62
     7
370
    15
100
AcDbLine
 10
169.8615051543
 20
183.566798768
 30
0.0
 11
169.8615051543
 21
186.5667973971
 31
0.0
  0
LINE
  5
16F
330
1F
100
AcDbEntity
  8
0
  6
Continuous
 62
     7
370
    15
100
AcDbLine
 10
166.8615052446
 20
183.566798768
 30
0.0
 11
169.8615051543
 21
183.566798768
 31
0.0
  0
LINE
  5
170
330
1F
100
AcDbEntity
  8
0
  6
Continuous
 62
     7
370
    15
100
AcDbLine
 10
166.8615052446
 20
179.5667981123
 30
0.0
 11
169.8615051543
 21
179.5667981123
 31
0.0
  0
LINE
  5
171
330
1F
100
AcDbEntity
  8
0
  6
Continuous
 62
     7
370
    15
100
AcDbLine
 10
169.8615051543
 20
190.5667980527
 30
0.0
 11
166.8615052446
 21
190.5667980527
 31
0.0
  0
LINE
  5
172
330
1F
100
AcDbEntity
  8
0
  6
Continuous
 62
     7
370
    15
100
AcDbLine
 10
166.8615052446
 20
191.5668000793
 30
0.0
 11
169.8615051543
 21
191.5668000793
 31
0.0
  0
LINE
  5
173
330
1F
100
AcDbEntity
  8
0
  6
Continuous
 62
     7
370
    15
100
AcDbLine
 10
169.8615051543
 20
186.5667973971
 30
0.0
 11
166.8615052446
 21
186.5667973971
 31
0.0
  0
LINE
  5
174
330
1F
100
AcDbEntity
  8
0
  6
Continuous
 62
     7
370
    15
100
AcDbLine
 10
169.8615051543
 20
198.566799364
 30
0.0
 11
166.8615052446
 21
198.566799364
 31
0.0
  0
LINE
  5
175
330
1F
100
AcDbEntity
  8
0
  6
Continuous
 62
     7
370
    15
100
AcDbLine
 10
169.8615051543
 20
195.5668007349
 30
0.0
 11
169.8615051543
 21
198.566799364
 31
0.0
  0
LINE
  5
176
330
1F
100
AcDbEntity
  8
0
  6
Continuous
 62
     7
370
    15
100
AcDbLine
 10
169.8615051543
 20
191.5668000793
 30
0.0
 11
169.8615051543
 21
194.5667987084
 31
0.0
  0
LINE
  5
177
330
1F
100
AcDbEntity
  8
0
  6
Continuous
 62
     7
370
    15
100
AcDbLine
 10
166.8615052446
 20
195.5668007349
 30
0.0
 11
169.8615051543
 21
195.5668007349
 31
0.0
  0
LINE
  5
178
330
1F
100
AcDbEntity
  8
0
  6
Continuous
 62
     7
370
    15
100
AcDbLine
 10
170.8615053182
 20
194.5667987084
 30
0.0
 11
170.8615053182
 21
191.5668000793
 31
0.0
  0
LINE
  5
179
330
1F
100
AcDbEntity
  8
0
  6
Continuous
 62
     7
370
    15
100
AcDbLine
 10
170.8615053182
 20
190.5667980527
 30
0.0
 11
170.8615053182
 21
187.5667994236
 31
0.0
  0
LINE
  5
17A
330
1F
100
AcDbEntity
  8
0
  6
Continuous
 62
     7
370
    15
100
AcDbLine
 10
170.8615053182
 20
186.5667973971
 30
0.0
 11
170.8615053182
 21
183.566798768
 31
0.0
  0
LINE
  5
17B
330
1F
100
AcDbEntity
  8
0
  6
Continuous
 62
     7
370
    15
100
AcDbLine
 10
170.8615053182
 20
182.5668004667
 30
0.0
 11
170.8615053182
 21
179.5667981123
 31
0.0
  0
LINE
  5
17C
330
1F
100
AcDbEntity
  8
0
  6
Continuous
 62
     7
370
    15
100
AcDbLine
 10
170.8615053182
 20
198.566799364
 30
0.0
 11
170.8615053182
 21
195.5668007349
 31
0.0
  0
LINE
  5
17D
330
1F
100
AcDbEntity
  8
0
  6
Continuous
 62
     7
370
    15
100
AcDbLine
 10
170.8615053182
 20
179.5667981123
 30
0.0
 11
173.8615048786
 21
179.5667981123
 31
0.0
  0
LINE
  5
17E
330
1F
100
AcDbEntity
  8
0
  6
Continuous
 62
     7
370
    15
100
AcDbLine
 10
173.8615048786
 20
179.5667981123
 30
0.0
 11
173.8615048786
 21
182.5668004667
 31
0.0
  0
LINE
  5
17F
330
1F
100
AcDbEntity
  8
0
  6
Continuous
 62
     7
370
    15
100
AcDbLine
 10
173.8615048786
 20
194.5667987084
 30
0.0
 11
170.8615053182
 21
194.5667987084
 31
0.0
  0
LINE
  5
180
330
1F
100
AcDbEntity
  8
0
  6
Continuous
 62
     7
370
    15
100
AcDbLine
 10
173.8615048786
 20
186.5667973971
 30
0.0
 11
170.8615053182
 21
186.5667973971
 31
0.0
  0
LINE
  5
181
330
1F
100
AcDbEntity
  8
0
  6
Continuous
 62
     7
370
    15
100
AcDbLine
 10
173.8615048786
 20
183.566798768
 30
0.0
 11
173.8615048786
 21
186.5667973971
 31
0.0
  0
LINE
  5
182
330
1F
100
AcDbEntity
  8
0
  6
Continuous
 62
     7
370
    15
100
AcDbLine
 10
170.8615053182
 20
183.566798768
 30
0.0
 11
173.8615048786
 21
183.566798768
 31
0.0
  0
LINE
  5
183
330
1F
100
AcDbEntity
  8
0
  6
Continuous
 62
     7
370
    15
100
AcDbLine
 10
173.8615048786
 20
191.5668000793
 30
0.0
 11
173.8615048786
 21
194.5667987084
 31
0.0
  0
LINE
  5
184
330
1F
100
AcDbEntity
  8
0
  6
Continuous
 62
     7
370
    15
100
AcDbLine
 10
170.8615053182
 20
191.5668000793
 30
0.0
 11
173.8615048786
 21
191.5668000793
 31
0.0
  0
LINE
  5
185
330
1F
100
AcDbEntity
  8
0
  6
Continuous
 62
     7
370
    15
100
AcDbLine
 10
173.8615048786
 20
187.5667994236
 30
0.0
 11
173.8615048786
 21
190.5667980527
 31
0.0
  0
LINE
  5
186
330
1F
100
AcDbEntity
  8
0
  6
Continuous
 62
     7
370
    15
100
AcDbLine
 10
170.8615053182
 20
187.5667994236
 30
0.0
 11
173.8615048786
 21
187.5667994236
 31
0.0
  0
LINE
  5
187
330
1F
100
AcDbEntity
  8
0
  6
Continuous
 62
     7
370
    15
100
AcDbLine
 10
173.8615048786
 20
182.5668004667
 30
0.0
 11
170.8615053182
 21
182.5668004667
 31
0.0
  0
LINE
  5
188
330
1F
100
AcDbEntity
  8
0
  6
Continuous
 62
     7
370
    15
100
AcDbLine
 10
173.8615048786
 20
195.5668007349
 30
0.0
 11
173.8615048786
 21
198.566799364
 31
0.0
  0
LINE
  5
189
330
1F
100
AcDbEntity
  8
0
  6
Continuous
 62
     7
370
    15
100
AcDbLine
 10
170.8615053182
 20
195.5668007349
 30
0.0
 11
173.8615048786
 21
195.5668007349
 31
0.0
  0
LINE
  5
18A
330
1F
100
AcDbEntity
  8
0
  6
Continuous
 62
     7
370
    15
100
AcDbLine
 10
173.8615048786
 20
190.5667980527
 30
0.0
 11
170.8615053182
 21
190.5667980527
 31
0.0
  0
LINE
  5
18B
330
1F
100
AcDbEntity
  8
0
  6
Continuous
 62
     7
370
    15
100
AcDbLine
 10
173.8615048786
 20
198.566799364
 30
0.0
 11
170.8615053182
 21
198.566799364
 31
0.0
  0
LINE
  5
18C
330
1F
100
AcDbEntity
  8
0
  6
Continuous
 62
     7
370
    15
100
AcDbLine
 10
174.8615050425
 20
190.5667980527
 30
0.0
 11
174.8615050425
 21
187.5667994236
 31
0.0
  0
LINE
  5
18D
330
1F
100
AcDbEntity
  8
0
  6
Continuous
 62
     7
370
    15
100
AcDbLine
 10
174.8615050425
 20
182.5668004667
 30
0.0
 11
174.8615050425
 21
179.5667981123
 31
0.0
  0
LINE
  5
18E
330
1F
100
AcDbEntity
  8
0
  6
Continuous
 62
     7
370
    15
100
AcDbLine
 10
174.8615050425
 20
194.5667987084
 30
0.0
 11
174.8615050425
 21
191.5668000793
 31
0.0
  0
LINE
  5
18F
330
1F
100
AcDbEntity
  8
0
  6
Continuous
 62
     7
370
    15
100
AcDbLine
 10
174.8615050425
 20
198.566799364
 30
0.0
 11
174.8615050425
 21
195.5668007349
 31
0.0
  0
LINE
  5
190
330
1F
100
AcDbEntity
  8
0
  6
Continuous
 62
     7
370
    15
100
AcDbLine
 10
174.8615050425
 20
186.5667973971
 30
0.0
 11
174.8615050425
 21
183.566798768
 31
0.0
  0
LINE
  5
191
330
1F
100
AcDbEntity
  8
0
  6
Continuous
 62
     7
370
    15
100
AcDbLine
 10
177.8615055343
 20
183.566798768
 30
0.0
 11
177.8615055343
 21
186.5667973971
 31
0.0
  0
LINE
  5
192
330
1F
100
AcDbEntity
  8
0
  6
Continuous
 62
     7
370
    15
100
AcDbLine
 10
174.8615050425
 20
183.566798768
 30
0.0
 11
177.8615055343
 21
183.566798768
 31
0.0
  0
LINE
  5
193
330
1F
100
AcDbEntity
  8
0
  6
Continuous
 62
     7
370
    15
100
AcDbLine
 10
177.8615055343
 20
194.5667987084
 30
0.0
 11
174.8615050425
 21
194.5667987084
 31
0.0
  0
LINE
  5
194
330
1F
100
AcDbEntity
  8
0
  6
Continuous
 62
     7
370
    15
100
AcDbLine
 10
177.8615055343
 20
186.5667973971
 30
0.0
 11
174.8615050425
 21
186.5667973971
 31
0.0
  0
LINE
  5
195
330
1F
100
AcDbEntity
  8
0
  6
Continuous
 62
     7
370
    15
100
AcDbLine
 10
177.8615055343
 20
198.566799364
 30
0.0
 11
174.8615050425
 21
198.566799364
 31
0.0
  0
LINE
  5
196
330
1F
100
AcDbEntity
  8
0
  6
Continuous
 62
     7
370
    15
100
AcDbLine
 10
177.8615055343
 20
195.5668007349
 30
0.0
 11
177.8615055343
 21
198.566799364
 31
0.0
  0
LINE
  5
197
330
1F
100
AcDbEntity
  8
0
  6
Continuous
 62
     7
370
    15
100
AcDbLine
 10
177.8615055343
 20
191.5668000793
 30
0.0
 11
177.8615055343
 21
194.5667987084
 31
0.0
  0
LINE
  5
198
330
1F
100
AcDbEntity
  8
0
  6
Continuous
 62
     7
370
    15
100
AcDbLine
 10
174.8615050425
 20
191.5668000793
 30
0.0
 11
177.8615055343
 21
191.5668000793
 31
0.0
  0
LINE
  5
199
330
1F
100
AcDbEntity
  8
0
  6
Continuous
 62
     7
370
    15
100
AcDbLine
 10
177.8615055343
 20
187.5667994236
 30
0.0
 11
177.8615055343
 21
190.5667980527
 31
0.0
  0
LINE
  5
19A
330
1F
100
AcDbEntity
  8
0
  6
Continuous
 62
     7
370
    15
100
AcDbLine
 10
174.8615050425
 20
187.5667994236
 30
0.0
 11
177.8615055343
 21
187.5667994236
 31
0.0
  0
LINE
  5
19B
330
1F
100
AcDbEntity
  8
0
  6
Continuous
 62
     7
370
    15
100
AcDbLine
 10
177.8615055343
 20
182.5668004667
 30
0.0
 11
174.8615050425
 21
182.5668004667
 31
0.0
  0
LINE
  5
19C
330
1F
100
AcDbEntity
  8
0
  6
Continuous
 62
     7
370
    15
100
AcDbLine
 10
177.8615055343
 20
179.5667981123
 30
0.0
 11
177.8615055343
 21
182.5668004667
 31
0.0
  0
LINE
  5
19D
330
1F
100
AcDbEntity
  8
0
  6
Continuous
 62
     7
370
    15
100
AcDbLine
 10
174.8615050425
 20
179.5667981123
 30
0.0
 11
177.8615055343
 21
179.5667981123
 31
0.0
  0
LINE
  5
19E
330
1F
100
AcDbEntity
  8
0
  6
Continuous
 62
     7
370
    15
100
AcDbLine
 10
177.8615055343
 20
190.5667980527
 30
0.0
 11
174.8615050425
 21
190.5667980527
 31
0.0
  0
LINE
  5
19F
330
1F
100
AcDbEntity
  8
0
  6
Continuous
 62
     7
370
    15
100
AcDbLine
 10
174.8615050425
 20
195.5668007349
 30
0.0
 11
177.8615055343
 21
195.5668007349
 31
0.0
  0
LINE
  5
1A0
330
1F
100
AcDbEntity
  8
0
  6
Continuous
 62
     7
370
    15
100
AcDbLine
 10
178.8615047669
 20
190.5667980527
 30
0.0
 11
178.8615047669
 21
187.5667994236
 31
0.0
  0
LINE
  5
1A1
330
1F
100
AcDbEntity
  8
0
  6
Continuous
 62
     7
370
    15
100
AcDbLine
 10
178.8615047669
 20
198.566799364
 30
0.0
 11
178.8615047669
 21
195.5668007349
 31
0.0
  0
LINE
  5
1A2
330
1F
100
AcDbEntity
  8
0
  6
Continuous
 62
     7
370
    15
100
AcDbLine
 10
178.8615047669
 20
186.5667973971
 30
0.0
 11
178.8615047669
 21
183.566798768
 31
0.0
  0
LINE
  5
1A3
330
1F
100
AcDbEntity
  8
0
  6
Continuous
 62
     7
370
    15
100
AcDbLine
 10
178.8615047669
 20
194.5667987084
 30
0.0
 11
178.8615047669
 21
191.5668000793
 31
0.0
  0
LINE
  5
1A4
330
1F
100
AcDbEntity
  8
0
  6
Continuous
 62
     7
370
    15
100
AcDbLine
 10
178.8615047669
 20
182.5668004667
 30
0.0
 11
178.8615047669
 21
179.5667981123
 31
0.0
  0
LINE
  5
1A5
330
1F
100
AcDbEntity
  8
0
  6
Continuous
 62
     7
370
    15
100
AcDbLine
 10
178.8615047669
 20
183.566798768
 30
0.0
 11
181.8615052586
 21
183.566798768
 31
0.0
  0
LINE
  5
1A6
330
1F
100
AcDbEntity
  8
0
  6
Continuous
 62
     7
370
    15
100
AcDbLine
 10
181.8615052586
 20
191.5668000793
 30
0.0
 11
181.8615052586
 21
194.5667987084
 31
0.0
  0
LINE
  5
1A7
330
1F
100
AcDbEntity
  8
0
  6
Continuous
 62
     7
370
    15
100
AcDbLine
 10
181.8615052586
 20
194.5667987084
 30
0.0
 11
178.8615047669
 21
194.5667987084
 31
0.0
  0
LINE
  5
1A8
330
1F
100
AcDbEntity
  8
0
  6
Continuous
 62
     7
370
    15
100
AcDbLine
 10
181.8615052586
 20
183.566798768
 30
0.0
 11
181.8615052586
 21
186.5667973971
 31
0.0
  0
LINE
  5
1A9
330
1F
100
AcDbEntity
  8
0
  6
Continuous
 62
     7
370
    15
100
AcDbLine
 10
181.8615052586
 20
198.566799364
 30
0.0
 11
178.8615047669
 21
198.566799364
 31
0.0
  0
LINE
  5
1AA
330
1F
100
AcDbEntity
  8
0
  6
Continuous
 62
     7
370
    15
100
AcDbLine
 10
181.8615052586
 20
195.5668007349
 30
0.0
 11
181.8615052586
 21
198.566799364
 31
0.0
  0
LINE
  5
1AB
330
1F
100
AcDbEntity
  8
0
  6
Continuous
 62
     7
370
    15
100
AcDbLine
 10
178.8615047669
 20
195.5668007349
 30
0.0
 11
181.8615052586
 21
195.5668007349
 31
0.0
  0
LINE
  5
1AC
330
1F
100
AcDbEntity
  8
0
  6
Continuous
 62
     7
370
    15
100
AcDbLine
 10
181.8615052586
 20
190.5667980527
 30
0.0
 11
178.8615047669
 21
190.5667980527
 31
0.0
  0
LINE
  5
1AD
330
1F
100
AcDbEntity
  8
0
  6
Continuous
 62
     7
370
    15
100
AcDbLine
 10
181.8615052586
 20
187.5667994236
 30
0.0
 11
181.8615052586
 21
190.5667980527
 31
0.0
  0
LINE
  5
1AE
330
1F
100
AcDbEntity
  8
0
  6
Continuous
 62
     7
370
    15
100
AcDbLine
 10
178.8615047669
 20
187.5667994236
 30
0.0
 11
181.8615052586
 21
187.5667994236
 31
0.0
  0
LINE
  5
1AF
330
1F
100
AcDbEntity
  8
0
  6
Continuous
 62
     7
370
    15
100
AcDbLine
 10
181.8615052586
 20
182.5668004667
 30
0.0
 11
178.8615047669
 21
182.5668004667
 31
0.0
  0
LINE
  5
1B0
330
1F
100
AcDbEntity
  8
0
  6
Continuous
 62
     7
370
    15
100
AcDbLine
 10
181.8615052586
 20
179.5667981123
 30
0.0
 11
181.8615052586
 21
182.5668004667
 31
0.0
  0
LINE
  5
1B1
330
1F
100
AcDbEntity
  8
0
  6
Continuous
 62
     7
370
    15
100
AcDbLine
 10
178.8615047669
 20
179.5667981123
 30
0.0
 11
181.8615052586
 21
179.5667981123
 31
0.0
  0
LINE
  5
1B2
330
1F
100
AcDbEntity
  8
0
  6
Continuous
 62
     7
370
    15
100
AcDbLine
 10
178.8615047669
 20
191.5668000793
 30
0.0
 11
181.8615052586
 21
191.5668000793
 31
0.0
  0
LINE
  5
1B3
330
1F
100
AcDbEntity
  8
0
  6
Continuous
 62
     7
370
    15
100
AcDbLine
 10
181.8615052586
 20
186.5667973971
 30
0.0
 11
178.8615047669
 21
186.5667973971
 31
0.0
  0
LINE
  5
1B4
330
1F
100
AcDbEntity
  8
0
  6
Continuous
 62
     7
370
    15
100
AcDbLine
 10
142.3615053033
 20
171.1667974805
 30
0.0
 11
144.3615056311
 21
169.1667971527
 31
0.0
  0
LINE
  5
1B5
330
1F
100
AcDbEntity
  8
0
  6
Continuous
 62
     7
370
    15
100
AcDbLine
 10
144.3615056311
 20
169.1667971527
 30
0.0
 11
180.3615050127
 21
169.1667971527
 31
0.0
  0
CIRCLE
  5
1B6
330
1F
100
AcDbEntity
  8
0
  6
Continuous
 62
     7
370
    15
100
AcDbCircle
 10
154.3615052036
 20
174.1667988459
 30
0.0
 40
2.25
  0
CIRCLE
  5
1B7
330
1F
100
AcDbEntity
  8
0
  6
Continuous
 62
     7
370
    15
100
AcDbCircle
 10
170.3615052036
 20
174.1667988459
 30
0.0
 40
2.25
  0
LINE
  5
1B8
330
1F
100
AcDbEntity
  8
0
  6
Continuous
 62
     7
370
    15
100
AcDbLine
 10
180.3615050127
 20
169.1667971527
 30
0.0
 11
182.3615044092
 21
171.1667974805
 31
0.0
  0
LINE
  5
1B9
330
1F
100
AcDbEntity
  8
0
  6
Continuous
 62
     7
370
    15
100
AcDbLine
 10
142.3615053033
 20
179.1667987918
 30
0.0
 11
142.3615053033
 21
176.2283531343
 31
0.0
  0
LINE
  5
1BA
330
1F
100
AcDbEntity
  8
0
  6
Continuous
 62
     7
370
    15
100
AcDbLine
 10
142.3615053033
 20
172.1052465355
 30
0.0
 11
142.3615053033
 21
171.1667974805
 31
0.0
  0
LINE
  5
1BB
330
1F
100
AcDbEntity
  8
0
  6
Continuous
 62
     7
370
    15
100
AcDbLine
 10
182.3615044092
 20
171.1667974805
 30
0.0
 11
182.3615044092
 21
172.1052465355
 31
0.0
  0
LINE
  5
1BC
330
1F
100
AcDbEntity
  8
0
  6
Continuous
 62
     7
370
    15
100
AcDbLine
 10
182.3615044092
 20
176.2283531343
 30
0.0
 11
182.3615044092
 21
179.1667987918
 31
0.0
  0
LINE
  5
1BD
330
1F
100
AcDbEntity
  8
0
  6
Continuous
 62
     7
370
    15
100
AcDbLine
 10
144.1115052036
 20
115.1667988459
 30
0.0
 11
144.1115052036
 21
160.1667988459
 31
0.0
  0
ARC
  5
1BE
330
1F
100
AcDbEntity
  8
0
  6
Continuous
 62
     7
370
    15
100
AcDbCircle
 10
146.3615052036
 20
115.1667988459
 30
0.0
 40
2.25
100
AcDbArc
 50
180.0
 51
0.0
  0
LINE
  5
1BF
330
1F
100
AcDbEntity
  8
0
  6
Continuous
 62
     7
370
    15
100
AcDbLine
 10
148.6115052036
 20
160.1667988459
 30
0.0
 11
148.6115052036
 21
115.1667988459
 31
0.0
  0
ARC
  5
1C0
330
1F
100
AcDbEntity
  8
0
  6
Continuous
 62
     7
370
    15
100
AcDbCircle
 10
146.3615052036
 20
160.1667988459
 30
0.0
 40
2.250000000000028
100
AcDbArc
 50
0.0
 51
180.0
  0
LINE
  5
1C1
330
1F
100
AcDbEntity
  8
0
  6
Continuous
 62
     7
370
    15
100
AcDbLine
 10
181.361506108
 20
110.1667986577
 30
0.0
 11
143.3615054672
 21
110.1667986577
 31
0.0
  0
LINE
  5
1C2
330
1F
100
AcDbEntity
  8
0
  6
Continuous
 62
     7
370
    15
100
AcDbLine
 10
141.3615051394
 20
112.1667989855
 30
0.0
 11
143.3615054672
 21
110.1667986577
 31
0.0
  0
LINE
  5
1C3
330
1F
100
AcDbEntity
  8
0
  6
Continuous
 62
     7
370
    15
100
AcDbLine
 10
141.3615051394
 20
112.1667989855
 30
0.0
 11
141.3615051394
 21
178.1668004905
 31
0.0
  0
LINE
  5
1C4
330
1F
100
AcDbEntity
  8
0
  6
Continuous
 62
     7
370
    15
100
AcDbLine
 10
142.3615053033
 20
179.1667987918
 30
0.0
 11
141.3615051394
 21
178.1668004905
 31
0.0
  0
LINE
  5
1C5
330
1F
100
AcDbEntity
  8
0
  6
Continuous
 62
     7
370
    15
100
AcDbLine
 10
176.1115052036
 20
115.1667988459
 30
0.0
 11
176.1115052036
 21
160.1667988459
 31
0.0
  0
ARC
  5
1C6
330
1F
100
AcDbEntity
  8
0
  6
Continuous
 62
     7
370
    15
100
AcDbCircle
 10
178.3615052036
 20
115.1667988459
 30
0.0
 40
2.250000000000028
100
AcDbArc
 50
180.0
 51
0.0
  0
LINE
  5
1C7
330
1F
100
AcDbEntity
  8
0
  6
Continuous
 62
     7
370
    15
100
AcDbLine
 10
180.6115052036
 20
160.1667988459
 30
0.0
 11
180.6115052036
 21
115.1667988459
 31
0.0
  0
ARC
  5
1C8
330
1F
100
AcDbEntity
  8
0
  6
Continuous
 62
     7
370
    15
100
AcDbCircle
 10
178.3615052036
 20
160.1667988459
 30
0.0
 40
2.25
100
AcDbArc
 50
0.0
 51
180.0
  0
ARC
  5
1C9
330
1F
100
AcDbEntity
  8
0
  6
Continuous
 62
     7
370
    15
100
AcDbCircle
 10
154.3615052036
 20
170.1667988459
 30
0.0
 40
3.000000000000028
100
AcDbArc
 50
199.4712206345
 51
270.0
  0
ARC
  5
1CA
330
1F
100
AcDbEntity
  8
0
  6
Continuous
 62
     7
370
    15
100
AcDbCircle
 10
154.3615052036
 20
170.1667988459
 30
0.0
 40
3.0
100
AcDbArc
 50
90.0
 51
123.8262859376
  0
LINE
  5
1CB
330
1F
100
AcDbEntity
  8
0
  6
Continuous
 62
     7
370
    15
100
AcDbLine
 10
170.3615052036
 20
167.1667988459
 30
0.0
 11
154.3615052036
 21
167.1667988459
 31
0.0
  0
ARC
  5
1CC
330
1F
100
AcDbEntity
  8
0
  6
Continuous
 62
     7
370
    15
100
AcDbCircle
 10
170.3615052036
 20
170.1667988459
 30
0.0
 40
3.0
100
AcDbArc
 50
56.1737140624
 51
90.0
  0
ARC
  5
1CD
330
1F
100
AcDbEntity
  8
0
  6
Continuous
 62
     7
370
    15
100
AcDbCircle
 10
170.3615052036
 20
170.1667988459
 30
0.0
 40
3.000000000000028
100
AcDbArc
 50
270.0
 51
340.5287793655
  0
LINE
  5
1CE
330
1F
100
AcDbEntity
  8
0
  6
Continuous
 62
     7
370
    15
100
AcDbLine
 10
154.3615052036
 20
173.1667988459
 30
0.0
 11
156.3770699983
 21
173.1667978083
 31
0.0
  0
LINE
  5
1CF
330
1F
100
AcDbEntity
  8
0
  6
Continuous
 62
     7
370
    15
100
AcDbLine
 10
168.3459408784
 20
173.1667978083
 30
0.0
 11
170.3615052036
 21
173.1667988459
 31
0.0
  0
LINE
  5
1D0
330
1F
100
AcDbEntity
  8
0
  6
Continuous
 62
     7
370
    15
100
AcDbLine
 10
183.3615045731
 20
178.1668004905
 30
0.0
 11
182.3615044092
 21
179.1667987918
 31
0.0
  0
LINE
  5
1D1
330
1F
100
AcDbEntity
  8
0
  6
Continuous
 62
     7
370
    15
100
AcDbLine
 10
183.3615045731
 20
178.1668004905
 30
0.0
 11
183.3615045731
 21
112.1667989855
 31
0.0
  0
LINE
  5
1D2
330
1F
100
AcDbEntity
  8
0
  6
Continuous
 62
     7
370
    15
100
AcDbLine
 10
181.361506108
 20
110.1667986577
 30
0.0
 11
183.3615045731
 21
112.1667989855
 31
0.0
  0
DIMENSION
  5
1D3
330
1F
100
AcDbEntity
  8
ﾚｲﾔｰ0
100
AcDbDimension
  2
*D7
 10
178.3615052036
 20
96.0033694292
 30
0.0
 11
162.3338279465
 21
96.0033694292
 31
0.0
 70
   160
 71
     1
 42
32.0
  3
SLDDIMSTYLE0
100
AcDbAlignedDimension
 13
146.3615052036
 23
110.4167988459
 33
0.0
 14
178.3615052036
 24
110.4167988459
 34
0.0
100
AcDbRotatedDimension
1001
ACAD
1000
DSTYLE
1002
{
1070
    77
1070
     3
1070
   143
1040
0.0393700787
1070
    41
1040
5.0
1070
    44
1040
1.0
1070
    42
1040
1.0
1070
   147
1040
1.524
1070
    73
1070
     0
1070
    74
1070
     0
1070
   140
1040
7.0555555556
1070
   284
1070
    12
1070
    78
1070
    12
1002
}
  0
DIMENSION
  5
1E6
330
1F
100
AcDbEntity
  8
ﾚｲﾔｰ0
100
AcDbDimension
  2
*D8
 10
183.3615052036
 20
85.138988835
 30
0.0
 11
162.3338279465
 21
85.138988835
 31
0.0
 70
   160
 71
     1
 42
42.0
  3
SLDDIMSTYLE0
100
AcDbAlignedDimension
 13
141.3615052036
 23
112.1667988459
 33
0.0
 14
183.3615052036
 24
112.1667988459
 34
0.0
100
AcDbRotatedDimension
1001
ACAD
1000
DSTYLE
1002
{
1070
    77
1070
     3
1070
   143
1040
0.0393700787
1070
    41
1040
5.0
1070
    44
1040
1.0
1070
    42
1040
1.0
1070
   147
1040
1.524
1070
    73
1070
     0
1070
    74
1070
     0
1070
   140
1040
7.0555555556
1070
   284
1070
    12
1070
    78
1070
    12
1002
}
  0
DIMENSION
  5
1F9
330
1F
100
AcDbEntity
  8
ﾚｲﾔｰ0
100
AcDbDimension
  2
*D9
 10
132.6375283019
 20
115.1667988459
 30
0.0
 11
132.6375283019
 21
140.1754016608
 31
0.0
 70
   160
 71
     1
 42
45.0
  3
SLDDIMSTYLE0
100
AcDbAlignedDimension
 13
141.6115052036
 23
160.1667988459
 33
0.0
 14
141.6115052036
 24
115.1667988459
 34
0.0
 50
90.0
100
AcDbRotatedDimension
1001
ACAD
1000
DSTYLE
1002
{
1070
    77
1070
     3
1070
   143
1040
0.0393700787
1070
    41
1040
5.0
1070
    44
1040
1.0
1070
    42
1040
1.0
1070
   147
1040
1.524
1070
    73
1070
     0
1070
    74
1070
     0
1070
   140
1040
7.0555555556
1070
   284
1070
    12
1070
    78
1070
    12
1002
}
  0
DIMENSION
  5
20D
330
1F
100
AcDbEntity
  8
ﾚｲﾔｰ0
100
AcDbDimension
  2
*D10
 10
132.6375283019
 20
110.1667988459
 30
0.0
 11
132.6375283019
 21
101.9156728076
 31
0.0
 70
   160
 71
     1
 42
5.0
  3
SLDDIMSTYLE0
100
AcDbAlignedDimension
 13
141.6115052036
 23
115.1667988459
 33
0.0
 14
143.3615052036
 24
110.1667988459
 34
0.0
 50
90.0
100
AcDbRotatedDimension
1001
ACAD
1000
DSTYLE
1002
{
1070
    77
1070
     3
1070
   143
1040
0.0393700787
1070
    41
1040
5.0
1070
    44
1040
1.0
1070
    42
1040
1.0
1070
   147
1040
1.524
1070
    73
1070
     0
1070
    74
1070
     0
1070
   140
1040
7.0555555556
1070
   284
1070
    12
1070
    78
1070
    12
1002
}
  0
DIMENSION
  5
224
330
1F
100
AcDbEntity
  8
ﾚｲﾔｰ0
100
AcDbDimension
  2
*D11
 10
142.3615052036
 20
208.8311600159
 30
0.0
 11
162.3338279465
 21
208.8311600159
 31
0.0
 70
   160
 71
     1
 42
40.0
  3
SLDDIMSTYLE0
100
AcDbAlignedDimension
 13
182.3615052036
 23
199.1667988459
 33
0.0
 14
142.3615052036
 24
199.1667988459
 34
0.0
100
AcDbRotatedDimension
1001
ACAD
1000
DSTYLE
1002
{
1070
    77
1070
     3
1070
   143
1040
0.0393700787
1070
    41
1040
5.0
1070
    44
1040
1.0
1070
    42
1040
1.0
1070
   147
1040
1.524
1070
    73
1070
     0
1070
    74
1070
     0
1070
   140
1040
7.0555555556
1070
   284
1070
    12
1070
    78
1070
    12
1002
}
  0
DIMENSION
  5
237
330
1F
100
AcDbEntity
  8
ﾚｲﾔｰ0
100
AcDbDimension
  2
*D12
 10
146.3615052036
 20
160.1667988459
 30
0.0
 11
118.1874934727
 21
174.007492637
 31
0.0
 70
   164
  1
2-<>
 71
     1
 42
2.25
  3
SLDDIMSTYLE2
100
AcDbRadialDimension
 15
144.7035360872
 25
161.6878637391
 35
0.0
 40
0.0
1001
ACAD
1000
DSTYLE
1002
{
1070
    77
1070
     0
1070
   143
1040
0.0393700787
1070
    41
1040
5.0
1070
    44
1040
1.0
1070
    42
1040
1.0
1070
   147
1040
1.524
1070
    73
1070
     1
1070
    74
1070
     1
1070
   140
1040
7.0555555556
1070
   284
1070
    12
1070
    78
1070
    12
1002
}
  0
INSERT
  5
254
330
1F
100
AcDbEntity
  8
ﾚｲﾔｰ0
100
AcDbBlockReference
  2
SW_CENTERMARKSYMBOL_0
 10
146.3615052036
 20
160.1667988459
 30
0.0
  0
INSERT
  5
260
330
1F
100
AcDbEntity
  8
ﾚｲﾔｰ0
100
AcDbBlockReference
  2
SW_CENTERMARKSYMBOL_1
 10
146.3615052036
 20
174.1667988459
 30
0.0
  0
INSERT
  5
26C
330
1F
100
AcDbEntity
  8
ﾚｲﾔｰ0
100
AcDbBlockReference
  2
SW_CENTERMARKSYMBOL_2
 10
178.3615052036
 20
160.1667988459
 30
0.0
  0
INSERT
  5
278
330
1F
100
AcDbEntity
  8
ﾚｲﾔｰ0
100
AcDbBlockReference
  2
SW_CENTERMARKSYMBOL_3
 10
170.3615052036
 20
174.1667988459
 30
0.0
  0
INSERT
  5
284
330
1F
100
AcDbEntity
  8
ﾚｲﾔｰ0
100
AcDbBlockReference
  2
SW_CENTERMARKSYMBOL_4
 10
178.3615052036
 20
174.1667988459
 30
0.0
  0
INSERT
  5
290
330
1F
100
AcDbEntity
  8
ﾚｲﾔｰ0
100
AcDbBlockReference
  2
SW_CENTERMARKSYMBOL_5
 10
154.3615052036
 20
174.1667988459
 30
0.0
  0
INSERT
  5
29C
330
1F
100
AcDbEntity
  8
ﾚｲﾔｰ0
100
AcDbBlockReference
  2
SW_CENTERMARKSYMBOL_6
 10
178.3615052036
 20
115.1667988459
 30
0.0
  0
INSERT
  5
2A8
330
1F
100
AcDbEntity
  8
ﾚｲﾔｰ0
100
AcDbBlockReference
  2
SW_CENTERMARKSYMBOL_7
 10
146.3615052036
 20
115.1667988459
 30
0.0
  0
LINE
  5
2A9
330
1F
100
AcDbEntity
  8
ﾚｲﾔｰ0
  6
CENTERX2
370
     0
100
AcDbLine
 10
162.3615052036
 20
204.5723099704
 30
0.0
 11
162.3615052036
 21
106.1840967423
 31
0.0
  0
ENDSEC
  0
SECTION
  2
OBJECTS
  0
DICTIONARY
  5
C
330
0
100
AcDbDictionary
281
     1
  3
ACAD_GROUP
350
D
  3
ACAD_LAYOUT
350
1A
  3
ACAD_MLINESTYLE
350
17
  3
ACAD_PLOTSETTINGS
350
19
  3
ACAD_PLOTSTYLENAME
350
E
  0
DICTIONARY
  5
D
102
{ACAD_REACTORS
330
C
102
}
330
C
100
AcDbDictionary
281
     1
  0
DICTIONARY
  5
1A
102
{ACAD_REACTORS
330
C
102
}
330
C
100
AcDbDictionary
281
     1
  3
Layout1
350
1E
  3
Layout2
350
26
  3
Model
350
22
  0
DICTIONARY
  5
17
102
{ACAD_REACTORS
330
C
102
}
330
C
100
AcDbDictionary
281
     1
  3
Standard
350
18
  0
DICTIONARY
  5
19
102
{ACAD_REACTORS
330
C
102
}
330
C
100
AcDbDictionary
281
     1
  0
ACDBDICTIONARYWDFLT
  5
E
102
{ACAD_REACTORS
330
C
102
}
330
C
100
AcDbDictionary
281
     1
  3
Normal
350
F
100
AcDbDictionaryWithDefault
340
F
  0
LAYOUT
  5
1E
102
{ACAD_REACTORS
330
1A
102
}
330
1A
100
AcDbPlotSettings
  1

  2

  4

  6

 40
0.0
 41
0.0
 42
0.0
 43
0.0
 44
0.0
 45
0.0
 46
0.0
 47
0.0
 48
0.0
 49
0.0
140
0.0
141
0.0
142
1.0
143
1.0
 70
   688
 72
     0
 73
     0
 74
     5
  7

 75
    16
147
1.0
148
0.0
149
0.0
100
AcDbLayout
  1
Layout1
 70
     1
 71
     1
 10
0.0
 20
0.0
 11
0.0
 21
0.0
 12
0.0
 22
0.0
 32
0.0
 14
0.0
 24
0.0
 34
0.0
 15
0.0
 25
0.0
 35
0.0
146
0.0
 13
0.0
 23
0.0
 33
0.0
 16
1.0
 26
0.0
 36
0.0
 17
0.0
 27
1.0
 37
0.0
 76
     0
330
1B
  0
LAYOUT
  5
26
102
{ACAD_REACTORS
330
1A
102
}
330
1A
100
AcDbPlotSettings
  1

  2

  4

  6

 40
0.0
 41
0.0
 42
0.0
 43
0.0
 44
0.0
 45
0.0
 46
0.0
 47
0.0
 48
0.0
 49
0.0
140
0.0
141
0.0
142
1.0
143
1.0
 70
   688
 72
     0
 73
     0
 74
     5
  7

 75
    16
147
1.0
148
0.0
149
0.0
100
AcDbLayout
  1
Layout2
 70
     1
 71
     2
 10
0.0
 20
0.0
 11
0.0
 21
0.0
 12
0.0
 22
0.0
 32
0.0
 14
0.0
 24
0.0
 34
0.0
 15
0.0
 25
0.0
 35
0.0
146
0.0
 13
0.0
 23
0.0
 33
0.0
 16
1.0
 26
0.0
 36
0.0
 17
0.0
 27
1.0
 37
0.0
 76
     0
330
23
  0
LAYOUT
  5
22
102
{ACAD_REACTORS
330
1A
102
}
330
1A
100
AcDbPlotSettings
  1

  2

  4

  6

 40
0.0
 41
0.0
 42
0.0
 43
0.0
 44
0.0
 45
0.0
 46
0.0
 47
0.0
 48
0.0
 49
0.0
140
0.0
141
0.0
142
1.0
143
1.0
 70
  1712
 72
     0
 73
     0
 74
     0
  7

 75
     0
147
1.0
148
0.0
149
0.0
100
AcDbLayout
  1
Model
 70
     1
 71
     0
 10
0.0
 20
0.0
 11
0.0
 21
0.0
 12
0.0
 22
0.0
 32
0.0
 14
0.0
 24
0.0
 34
0.0
 15
210.0
 25
297.0
 35
0.0
146
0.0
 13
0.0
 23
0.0
 33
0.0
 16
1.0
 26
0.0
 36
0.0
 17
0.0
 27
1.0
 37
0.0
 76
     0
330
1F
  0
MLINESTYLE
  5
18
102
{ACAD_REACTORS
330
17
102
}
330
17
100
AcDbMlineStyle
  2
Standard
 70
     0
  3

 62
   256
 51
90.0
 52
90.0
 71
     2
 49
0.5
 62
   256
  6
BYLAYER
 49
-0.5
 62
   256
  6
BYLAYER
  0
ACDBPLACEHOLDER
  5
F
102
{ACAD_REACTORS
330
E
102
}
330
E
  0
ENDSEC
  0
EOF
