  0
SECTION
  2
HEADER
  9
$ACADVER
  1
AC1015
  9
$ACADMAINTVER
 70
     6
  9
$DWGCODEPAGE
  3
DOS932
  9
$INSBASE
 10
0.0
 20
0.0
 30
0.0
  9
$EXTMIN
 10
0.0
 20
0.0
 30
0.0
  9
$EXTMAX
 10
210.0
 20
297.0
 30
0.0
  9
$LIMMIN
 10
0.0
 20
0.0
  9
$LIMMAX
 10
210.0
 20
297.0
  9
$ORTHOMODE
 70
     0
  9
$REGENMODE
 70
     1
  9
$FILLMODE
 70
     1
  9
$QTEXTMODE
 70
     0
  9
$MIRRTEXT
 70
     1
  9
$LTSCALE
 40
1.0
  9
$ATTMODE
 70
     1
  9
$TEXTSIZE
 40
3.5
  9
$TRACEWID
 40
1.0
  9
$TEXTSTYLE
  7
Standard
  9
$CLAYER
  8
0
  9
$CELTYPE
  6
ByLayer
  9
$CECOLOR
 62
   256
  9
$CELTSCALE
 40
1.0
  9
$DISPSILH
 70
     0
  9
$DIMSCALE
 40
1.0
  9
$DIMASZ
 40
3.302
  9
$DIMEXO
 40
1.0
  9
$DIMDLI
 40
3.75
  9
$DIMRND
 40
0.0
  9
$DIMDLE
 40
0.0
  9
$DIMEXE
 40
1.0
  9
$DIMTP
 40
0.0
  9
$DIMTM
 40
0.0
  9
$DIMTXT
 40
3.5
  9
$DIMCEN
 40
2.5
  9
$DIMTSZ
 40
0.0
  9
$DIMTOL
 70
     0
  9
$DIMLIM
 70
     0
  9
$DIMTIH
 70
     1
  9
$DIMTOH
 70
     1
  9
$DIMSE1
 70
     0
  9
$DIMSE2
 70
     0
  9
$DIMTAD
 70
     1
  9
$DIMZIN
 70
     0
  9
$DIMBLK
  1

  9
$DIMASO
 70
     1
  9
$DIMSHO
 70
     1
  9
$DIMPOST
  1

  9
$DIMAPOST
  1

  9
$DIMALT
 70
     0
  9
$DIMALTD
 70
     3
  9
$DIMALTF
 40
0.0393700787
  9
$DIMLFAC
 40
1.0
  9
$DIMTOFL
 70
     1
  9
$DIMTVP
 40
0.0
  9
$DIMTIX
 70
     0
  9
$DIMSOXD
 70
     0
  9
$DIMSAH
 70
     0
  9
$DIMBLK1
  1

  9
$DIMBLK2
  1

  9
$DIMSTYLE
  2
ISO-25
  9
$DIMCLRD
 70
     0
  9
$DIMCLRE
 70
     0
  9
$DIMCLRT
 70
     0
  9
$DIMTFAC
 40
1.0
  9
$DIMGAP
 40
1.524
  9
$DIMJUST
 70
     0
  9
$DIMSD1
 70
     0
  9
$DIMSD2
 70
     0
  9
$DIMTOLJ
 70
     0
  9
$DIMTZIN
 70
     0
  9
$DIMALTZ
 70
     0
  9
$DIMALTTZ
 70
     0
  9
$DIMUPT
 70
     0
  9
$DIMDEC
 70
     2
  9
$DIMTDEC
 70
     2
  9
$DIMALTU
 70
     2
  9
$DIMALTTD
 70
     3
  9
$DIMTXSTY
  7
Standard
  9
$DIMAUNIT
 70
     0
  9
$DIMADEC
 70
     2
  9
$DIMALTRND
 40
0.0
  9
$DIMAZIN
 70
     0
  9
$DIMDSEP
 70
    44
  9
$DIMATFIT
 70
     3
  9
$DIMFRAC
 70
     0
  9
$DIMLDRBLK
  1

  9
$DIMLUNIT
 70
     2
  9
$DIMLWD
 70
    -2
  9
$DIMLWE
 70
    -2
  9
$DIMTMOVE
 70
     0
  9
$LUNITS
 70
     2
  9
$LUPREC
 70
     2
  9
$SKETCHINC
 40
1.0
  9
$FILLETRAD
 40
10.0
  9
$AUNITS
 70
     0
  9
$AUPREC
 70
     2
  9
$MENU
  1
.
  9
$ELEVATION
 40
0.0
  9
$PELEVATION
 40
0.0
  9
$THICKNESS
 40
0.0
  9
$LIMCHECK
 70
     0
  9
$CHAMFERA
 40
10.0
  9
$CHAMFERB
 40
10.0
  9
$CHAMFERC
 40
20.0
  9
$CHAMFERD
 40
0.0
  9
$SKPOLY
 70
     0
  9
$TDCREATE
 40
2456892.722335058
  9
$TDUCREATE
 40
2456892.347335058
  9
$TDUPDATE
 40
2456892.72233794
  9
$TDUUPDATE
 40
2456892.34733794
  9
$TDINDWG
 40
0.0000000116
  9
$TDUSRTIMER
 40
0.0000000116
  9
$USRTIMER
 70
     1
  9
$ANGBASE
 50
0.0
  9
$ANGDIR
 70
     0
  9
$PDMODE
 70
     0
  9
$PDSIZE
 40
-1.0
  9
$PLINEWID
 40
0.0
  9
$SPLFRAME
 70
     0
  9
$SPLINETYPE
 70
     6
  9
$SPLINESEGS
 70
     8
  9
$HANDSEED
  5
40C
  9
$SURFTAB1
 70
     6
  9
$SURFTAB2
 70
     6
  9
$SURFTYPE
 70
     6
  9
$SURFU
 70
     6
  9
$SURFV
 70
     6
  9
$UCSBASE
  2

  9
$UCSNAME
  2

  9
$UCSORG
 10
0.0
 20
0.0
 30
0.0
  9
$UCSXDIR
 10
1.0
 20
0.0
 30
0.0
  9
$UCSYDIR
 10
0.0
 20
1.0
 30
0.0
  9
$UCSORTHOREF
  2

  9
$UCSORTHOVIEW
 70
     0
  9
$UCSORGTOP
 10
0.0
 20
0.0
 30
0.0
  9
$UCSORGBOTTOM
 10
0.0
 20
0.0
 30
0.0
  9
$UCSORGLEFT
 10
0.0
 20
0.0
 30
0.0
  9
$UCSORGRIGHT
 10
0.0
 20
0.0
 30
0.0
  9
$UCSORGFRONT
 10
0.0
 20
0.0
 30
0.0
  9
$UCSORGBACK
 10
0.0
 20
0.0
 30
0.0
  9
$PUCSBASE
  2

  9
$PUCSNAME
  2

  9
$PUCSORG
 10
0.0
 20
0.0
 30
0.0
  9
$PUCSXDIR
 10
1.0
 20
0.0
 30
0.0
  9
$PUCSYDIR
 10
0.0
 20
1.0
 30
0.0
  9
$PUCSORTHOREF
  2

  9
$PUCSORTHOVIEW
 70
     0
  9
$PUCSORGTOP
 10
0.0
 20
0.0
 30
0.0
  9
$PUCSORGBOTTOM
 10
0.0
 20
0.0
 30
0.0
  9
$PUCSORGLEFT
 10
0.0
 20
0.0
 30
0.0
  9
$PUCSORGRIGHT
 10
0.0
 20
0.0
 30
0.0
  9
$PUCSORGFRONT
 10
0.0
 20
0.0
 30
0.0
  9
$PUCSORGBACK
 10
0.0
 20
0.0
 30
0.0
  9
$USERI1
 70
     0
  9
$USERI2
 70
     0
  9
$USERI3
 70
     0
  9
$USERI4
 70
     0
  9
$USERI5
 70
     0
  9
$USERR1
 40
0.0
  9
$USERR2
 40
0.0
  9
$USERR3
 40
0.0
  9
$USERR4
 40
0.0
  9
$USERR5
 40
0.0
  9
$WORLDVIEW
 70
     1
  9
$SHADEDGE
 70
     3
  9
$SHADEDIF
 70
    70
  9
$TILEMODE
 70
     1
  9
$MAXACTVP
 70
    64
  9
$PINSBASE
 10
0.0
 20
0.0
 30
0.0
  9
$PLIMCHECK
 70
     0
  9
$PEXTMIN
 10
1.0000000000E+20
 20
1.0000000000E+20
 30
1.0000000000E+20
  9
$PEXTMAX
 10
-1.0000000000E+20
 20
-1.0000000000E+20
 30
-1.0000000000E+20
  9
$PLIMMIN
 10
0.0
 20
0.0
  9
$PLIMMAX
 10
420.0
 20
297.0
  9
$UNITMODE
 70
     0
  9
$VISRETAIN
 70
     1
  9
$PLINEGEN
 70
     0
  9
$PSLTSCALE
 70
     1
  9
$TREEDEPTH
 70
  3020
  9
$CMLSTYLE
  2
Standard
  9
$CMLJUST
 70
     0
  9
$CMLSCALE
 40
20.0
  9
$PROXYGRAPHICS
 70
     1
  9
$MEASUREMENT
 70
     1
  9
$CELWEIGHT
370
    -1
  9
$ENDCAPS
280
     0
  9
$JOINSTYLE
280
     0
  9
$LWDISPLAY
290
     1
  9
$INSUNITS
 70
     4
  9
$HYPERLINKBASE
  1

  9
$STYLESHEET
  1

  9
$XEDIT
290
     1
  9
$CEPSNTYPE
380
     0
  9
$PSTYLEMODE
290
     1
  9
$FINGERPRINTGUID
  2
{454617A5-1CE0-4BBC-9C06-9852A0DD5680}
  9
$VERSIONGUID
  2
{FAEB1C32-E019-11D5-929B-00C0DF256EC4}
  9
$EXTNAMES
290
     1
  9
$PSVPSCALE
 40
0.0
  9
$OLESTARTUP
290
     0
  0
ENDSEC
  0
SECTION
  2
CLASSES
  0
CLASS
  1
ACDBDICTIONARYWDFLT
  2
AcDbDictionaryWithDefault
  3
ObjectDBX Classes
 90
        0
280
     0
281
     0
  0
CLASS
  1
VISUALSTYLE
  2
AcDbVisualStyle
  3
ObjectDBX Classes
 90
     4095
280
     0
281
     0
  0
CLASS
  1
MATERIAL
  2
AcDbMaterial
  3
ObjectDBX Classes
 90
     1153
280
     0
281
     0
  0
CLASS
  1
ACDBPLACEHOLDER
  2
AcDbPlaceHolder
  3
ObjectDBX Classes
 90
        0
280
     0
281
     0
  0
CLASS
  1
LAYOUT
  2
AcDbLayout
  3
ObjectDBX Classes
 90
        0
280
     0
281
     0
  0
ENDSEC
  0
SECTION
  2
TABLES
  0
TABLE
  2
VPORT
  5
8
330
0
100
AcDbSymbolTable
 70
     1
  0
VPORT
  5
29
330
8
100
AcDbSymbolTableRecord
100
AcDbViewportTableRecord
  2
*Active
 70
     0
 10
0.0
 20
0.0
 11
1.0
 21
1.0
 12
105.0
 22
148.5
 13
0.0
 23
0.0
 14
10.0
 24
10.0
 15
10.0
 25
10.0
 16
0.0
 26
0.0
 36
1.0
 17
0.0
 27
0.0
 37
0.0
 40
297.0
 41
0.7070707071
 42
50.0
 43
0.0
 44
0.0
 50
0.0
 51
0.0
 71
     0
 72
  2000
 73
     1
 74
     3
 75
     0
 76
     0
 77
     0
 78
     0
281
     0
 65
     1
110
0.0
120
0.0
130
0.0
111
1.0
121
0.0
131
0.0
112
0.0
122
1.0
132
0.0
 79
     0
146
0.0
  0
ENDTAB
  0
TABLE
  2
LTYPE
  5
5
330
0
100
AcDbSymbolTable
 70
     6
  0
LTYPE
  5
14
330
5
100
AcDbSymbolTableRecord
100
AcDbLinetypeTableRecord
  2
ByBlock
 70
     0
  3

 72
    65
 73
     0
 40
0.0
  0
LTYPE
  5
15
330
5
100
AcDbSymbolTableRecord
100
AcDbLinetypeTableRecord
  2
ByLayer
 70
     0
  3

 72
    65
 73
     0
 40
0.0
  0
LTYPE
  5
16
330
5
100
AcDbSymbolTableRecord
100
AcDbLinetypeTableRecord
  2
Continuous
 70
     0
  3
Solid line
 72
    65
 73
     0
 40
0.0
  0
LTYPE
  5
3F
330
5
100
AcDbSymbolTableRecord
100
AcDbLinetypeTableRecord
  2
HIDDEN
 70
     0
  3
Hidden __ __ __ __ __ __ __ __ __ __ __ __ __ __
 72
    65
 73
     2
 40
1.905
 49
1.27
 74
     0
 49
-0.635
 74
     0
  0
LTYPE
  5
40
330
5
100
AcDbSymbolTableRecord
100
AcDbLinetypeTableRecord
  2
PHANTOM
 70
     0
  3
Phantom ______  __  __  ______  __  __  ______
 72
    65
 73
     6
 40
12.7
 49
6.35
 74
     0
 49
-1.27
 74
     0
 49
1.27
 74
     0
 49
-1.27
 74
     0
 49
1.27
 74
     0
 49
-1.27
 74
     0
  0
LTYPE
  5
41
330
5
100
AcDbSymbolTableRecord
100
AcDbLinetypeTableRecord
  2
CENTER
 70
     0
  3
Center ____ _ ____ _ ____ _ ____ _ ____ _ ____
 72
    65
 73
     4
 40
10.16
 49
6.35
 74
     0
 49
-1.27
 74
     0
 49
1.27
 74
     0
 49
-1.27
 74
     0
  0
LTYPE
  5
42
330
5
100
AcDbSymbolTableRecord
100
AcDbLinetypeTableRecord
  2
CENTERX2
 70
     0
  3
Center (2x) ________  __  ________  __  _____
 72
    65
 73
     4
 40
20.32
 49
12.7
 74
     0
 49
-2.54
 74
     0
 49
2.54
 74
     0
 49
-2.54
 74
     0
  0
LTYPE
  5
43
330
5
100
AcDbSymbolTableRecord
100
AcDbLinetypeTableRecord
  2
DOT2
 70
     0
  3
Dot (.5x) ........................................
 72
    65
 73
     2
 40
0.635
 49
0.0
 74
     0
 49
-0.635
 74
     0
  0
ENDTAB
  0
TABLE
  2
LAYER
  5
2
330
0
100
AcDbSymbolTable
 70
     1
  0
LAYER
  5
10
330
2
100
AcDbSymbolTableRecord
100
AcDbLayerTableRecord
  2
0
 70
     0
 62
     7
  6
Continuous
370
    -3
390
F
  0
ENDTAB
  0
TABLE
  2
STYLE
  5
3
330
0
100
AcDbSymbolTable
 70
     3
  0
STYLE
  5
11
330
3
100
AcDbSymbolTableRecord
100
AcDbTextStyleTableRecord
  2
Standard
 70
     0
 40
0.0
 41
1.0
 50
0.0
 71
     0
 42
3.5
  3
txt
  4
bigfont
  0
STYLE
  5
4C
330
3
100
AcDbSymbolTableRecord
100
AcDbTextStyleTableRecord
  2
SLDTEXTSTYLE0
 70
     0
 40
0.0
 41
0.75
 50
0.0
 71
     0
 42
0.2
  3
TXT
  4
bigfont
  0
STYLE
  5
50
330
3
100
AcDbSymbolTableRecord
100
AcDbTextStyleTableRecord
  2
SLDTEXTSTYLE1
 70
     0
 40
0.0
 41
0.7
 50
0.0
 71
     0
 42
0.2
  3
TXT
  4
bigfont
  0
ENDTAB
  0
TABLE
  2
VIEW
  5
6
330
0
100
AcDbSymbolTable
 70
     0
  0
ENDTAB
  0
TABLE
  2
UCS
  5
7
330
0
100
AcDbSymbolTable
 70
     0
  0
ENDTAB
  0
TABLE
  2
APPID
  5
9
330
0
100
AcDbSymbolTable
 70
     1
  0
APPID
  5
12
330
9
100
AcDbSymbolTableRecord
100
AcDbRegAppTableRecord
  2
ACAD
 70
     0
  0
ENDTAB
  0
TABLE
  2
DIMSTYLE
  5
A
330
0
100
AcDbSymbolTable
 70
     9
100
AcDbDimStyleTable
  0
DIMSTYLE
105
27
330
A
100
AcDbSymbolTableRecord
100
AcDbDimStyleTableRecord
  2
ISO-25
 70
     0
 41
2.5
 42
0.625
 43
3.75
 44
1.25
 73
     0
 74
     0
 77
     1
 78
     8
140
2.5
141
2.5
143
0.0393700787
147
0.625
171
     3
172
     1
178
     0
271
     2
272
     2
274
     3
278
    44
283
     0
284
     8
340
11
  0
DIMSTYLE
105
156
102
{ACAD_REACTORS
330
155
330
186
330
1BB
330
2C1
102
}
330
A
100
AcDbSymbolTableRecord
100
AcDbDimStyleTableRecord
  2
SLDDIMSTYLE0
 70
     0
 41
3.302
 44
0.0
 45
0.000000001
 73
     0
 74
     0
 77
     3
 78
    12
 79
     3
140
3.5
147
0.875
173
     1
178
     0
271
     1
272
     1
276
     2
284
    12
340
4C
  0
DIMSTYLE
105
163
102
{ACAD_REACTORS
330
162
102
}
330
A
100
AcDbSymbolTableRecord
100
AcDbDimStyleTableRecord
  2
SLDDIMSTYLE1
 70
     0
 41
3.302
 44
0.0
 45
0.000000001
 73
     0
 74
     0
 77
     3
 78
    12
 79
     3
140
3.5
147
0.875
172
     1
173
     1
178
     0
271
     2
272
     2
276
     2
284
    12
289
     0
340
4C
  0
DIMSTYLE
105
171
102
{ACAD_REACTORS
330
170
330
1A4
330
2CD
330
2E1
330
2EB
330
2F5
330
3E5
102
}
330
A
100
AcDbSymbolTableRecord
100
AcDbDimStyleTableRecord
  2
SLDDIMSTYLE2
 70
     0
 41
3.302
 44
0.0
 45
0.000000001
 73
     0
 74
     0
 77
     3
 78
    12
 79
     3
140
3.5
147
0.875
173
     1
178
     0
271
     1
272
     2
276
     2
284
    12
340
4C
  0
DIMSTYLE
105
17C
102
{ACAD_REACTORS
330
17B
330
190
330
19A
330
2D7
330
3C7
330
3D1
330
3DB
102
}
330
A
100
AcDbSymbolTableRecord
100
AcDbDimStyleTableRecord
  2
SLDDIMSTYLE3
 70
     0
 41
3.302
 44
0.0
 45
0.000000001
 73
     0
 74
     0
 77
     3
 78
    12
 79
     3
140
3.5
147
0.875
173
     1
178
     0
271
     2
272
     2
276
     2
284
    12
340
4C
  0
DIMSTYLE
105
1AF
102
{ACAD_REACTORS
330
1AE
102
}
330
A
100
AcDbSymbolTableRecord
100
AcDbDimStyleTableRecord
  2
SLDDIMSTYLE4
 70
     0
 41
3.302
 44
0.0
 45
0.000000001
 73
     0
 74
     0
 77
     3
 78
    12
 79
     3
140
3.5
147
0.875
172
     1
173
     1
178
     0
271
     1
272
     2
276
     2
284
    12
289
     0
340
4C
  0
DIMSTYLE
105
1C6
330
A
100
AcDbSymbolTableRecord
100
AcDbDimStyleTableRecord
  2
SLDDIMSTYLE5
 70
     0
 41
3.0
 44
0.0
 45
0.000000001
140
0.0
146
3.0
147
0.0
173
     1
178
     0
271
     0
272
     0
276
     2
340
11
341
1C7
343
1C7
344
1C7
  0
DIMSTYLE
105
300
102
{ACAD_REACTORS
330
2FF
102
}
330
A
100
AcDbSymbolTableRecord
100
AcDbDimStyleTableRecord
  2
SLDDIMSTYLE6
 70
     0
 41
3.302
 44
0.0
 45
0.000000001
 73
     0
 74
     0
 77
     3
 78
    12
 79
     3
140
3.5
147
0.875
172
     1
173
     1
178
     0
271
     1
272
     1
276
     2
284
    12
289
     0
340
4C
  0
DIMSTYLE
105
3F0
330
A
100
AcDbSymbolTableRecord
100
AcDbDimStyleTableRecord
  2
SLDDIMSTYLE7
 70
     0
 41
3.302
 44
0.0
 45
0.000000001
140
0.0
146
3.302
147
0.0
173
     1
178
     0
271
     0
272
     0
276
     2
340
11
  0
ENDTAB
  0
TABLE
  2
BLOCK_RECORD
  5
1
330
0
100
AcDbSymbolTable
 70
    31
  0
BLOCK_RECORD
  5
1F
330
1
100
AcDbSymbolTableRecord
100
AcDbBlockTableRecord
  2
*Model_Space
340
22
  0
BLOCK_RECORD
  5
1B
330
1
100
AcDbSymbolTableRecord
100
AcDbBlockTableRecord
  2
*Paper_Space
340
1E
  0
BLOCK_RECORD
  5
23
330
1
100
AcDbSymbolTableRecord
100
AcDbBlockTableRecord
  2
*Paper_Space0
340
26
  0
BLOCK_RECORD
  5
157
330
1
100
AcDbSymbolTableRecord
100
AcDbBlockTableRecord
  2
_D
340
0
  0
BLOCK_RECORD
  5
164
330
1
100
AcDbSymbolTableRecord
100
AcDbBlockTableRecord
  2
_D_1
340
0
  0
BLOCK_RECORD
  5
172
330
1
100
AcDbSymbolTableRecord
100
AcDbBlockTableRecord
  2
_D_2
340
0
  0
BLOCK_RECORD
  5
17D
330
1
100
AcDbSymbolTableRecord
100
AcDbBlockTableRecord
  2
_D_3
340
0
  0
BLOCK_RECORD
  5
187
330
1
100
AcDbSymbolTableRecord
100
AcDbBlockTableRecord
  2
_D_4
340
0
  0
BLOCK_RECORD
  5
191
330
1
100
AcDbSymbolTableRecord
100
AcDbBlockTableRecord
  2
_D_5
340
0
  0
BLOCK_RECORD
  5
19B
330
1
100
AcDbSymbolTableRecord
100
AcDbBlockTableRecord
  2
_D_6
340
0
  0
BLOCK_RECORD
  5
1A5
330
1
100
AcDbSymbolTableRecord
100
AcDbBlockTableRecord
  2
_D_7
340
0
  0
BLOCK_RECORD
  5
1B0
330
1
100
AcDbSymbolTableRecord
100
AcDbBlockTableRecord
  2
_D_8
340
0
  0
BLOCK_RECORD
  5
1BC
330
1
100
AcDbSymbolTableRecord
100
AcDbBlockTableRecord
  2
_D_9
340
0
  0
BLOCK_RECORD
  5
1C7
330
1
100
AcDbSymbolTableRecord
100
AcDbBlockTableRecord
  2
_DOT
340
0
  0
BLOCK_RECORD
  5
2C2
330
1
100
AcDbSymbolTableRecord
100
AcDbBlockTableRecord
  2
_D_10
340
0
  0
BLOCK_RECORD
  5
2CE
330
1
100
AcDbSymbolTableRecord
100
AcDbBlockTableRecord
  2
_D_11
340
0
  0
BLOCK_RECORD
  5
2D8
330
1
100
AcDbSymbolTableRecord
100
AcDbBlockTableRecord
  2
_D_12
340
0
  0
BLOCK_RECORD
  5
2E2
330
1
100
AcDbSymbolTableRecord
100
AcDbBlockTableRecord
  2
_D_13
340
0
  0
BLOCK_RECORD
  5
2EC
330
1
100
AcDbSymbolTableRecord
100
AcDbBlockTableRecord
  2
_D_14
340
0
  0
BLOCK_RECORD
  5
2F6
330
1
100
AcDbSymbolTableRecord
100
AcDbBlockTableRecord
  2
_D_15
340
0
  0
BLOCK_RECORD
  5
301
330
1
100
AcDbSymbolTableRecord
100
AcDbBlockTableRecord
  2
_D_16
340
0
  0
BLOCK_RECORD
  5
30C
330
1
100
AcDbSymbolTableRecord
100
AcDbBlockTableRecord
  2
SW_CENTERMARKSYMBOL_0
340
0
102
{BLKREFS
331
317
102
}
  0
BLOCK_RECORD
  5
318
330
1
100
AcDbSymbolTableRecord
100
AcDbBlockTableRecord
  2
SW_CENTERMARKSYMBOL_1
340
0
102
{BLKREFS
331
323
102
}
  0
BLOCK_RECORD
  5
324
330
1
100
AcDbSymbolTableRecord
100
AcDbBlockTableRecord
  2
SW_CENTERMARKSYMBOL_2
340
0
102
{BLKREFS
331
32F
102
}
  0
BLOCK_RECORD
  5
330
330
1
100
AcDbSymbolTableRecord
100
AcDbBlockTableRecord
  2
SW_CENTERMARKSYMBOL_3
340
0
102
{BLKREFS
331
33B
102
}
  0
BLOCK_RECORD
  5
33C
330
1
100
AcDbSymbolTableRecord
100
AcDbBlockTableRecord
  2
SW_CENTERMARKSYMBOL_4
340
0
102
{BLKREFS
331
347
102
}
  0
BLOCK_RECORD
  5
348
330
1
100
AcDbSymbolTableRecord
100
AcDbBlockTableRecord
  2
SW_CENTERMARKSYMBOL_5
340
0
102
{BLKREFS
331
353
102
}
  0
BLOCK_RECORD
  5
3C8
330
1
100
AcDbSymbolTableRecord
100
AcDbBlockTableRecord
  2
_D_17
340
0
  0
BLOCK_RECORD
  5
3D2
330
1
100
AcDbSymbolTableRecord
100
AcDbBlockTableRecord
  2
_D_18
340
0
  0
BLOCK_RECORD
  5
3DC
330
1
100
AcDbSymbolTableRecord
100
AcDbBlockTableRecord
  2
_D_19
340
0
  0
BLOCK_RECORD
  5
3E6
330
1
100
AcDbSymbolTableRecord
100
AcDbBlockTableRecord
  2
_D_20
340
0
  0
BLOCK_RECORD
  5
3F4
330
1
100
AcDbSymbolTableRecord
100
AcDbBlockTableRecord
  2
SW_CENTERMARKSYMBOL_6
340
0
102
{BLKREFS
331
3FF
102
}
  0
BLOCK_RECORD
  5
400
330
1
100
AcDbSymbolTableRecord
100
AcDbBlockTableRecord
  2
SW_CENTERMARKSYMBOL_7
340
0
102
{BLKREFS
331
40B
102
}
  0
ENDTAB
  0
ENDSEC
  0
SECTION
  2
BLOCKS
  0
BLOCK
  5
20
330
1F
100
AcDbEntity
  8
0
100
AcDbBlockBegin
  2
*Model_Space
 70
     0
 10
0.0
 20
0.0
 30
0.0
  3
*Model_Space
  1

  0
ENDBLK
  5
21
330
1F
100
AcDbEntity
  8
0
100
AcDbBlockEnd
  0
BLOCK
  5
1C
330
1B
100
AcDbEntity
 67
     1
  8
0
100
AcDbBlockBegin
  2
*Paper_Space
 70
     0
 10
0.0
 20
0.0
 30
0.0
  3
*Paper_Space
  1

  0
ENDBLK
  5
1D
330
1B
100
AcDbEntity
 67
     1
  8
0
100
AcDbBlockEnd
  0
BLOCK
  5
24
330
23
100
AcDbEntity
  8
0
100
AcDbBlockBegin
  2
*Paper_Space0
 70
     0
 10
0.0
 20
0.0
 30
0.0
  3
*Paper_Space0
  1

  0
ENDBLK
  5
25
330
23
100
AcDbEntity
  8
0
100
AcDbBlockEnd
  0
BLOCK
  5
158
330
157
100
AcDbEntity
  8
0
100
AcDbBlockBegin
  2
_D
 70
     0
 10
0.0
 20
0.0
 30
0.0
  3
_D
  1

  0
ARC
  5
15A
330
157
100
AcDbEntity
  8
0
  6
Continuous
 62
     7
370
     0
100
AcDbCircle
 10
191.9849982102
 20
154.9654472882
 30
0.0
 40
6.212076339995588
100
AcDbArc
 50
243.4349488229
 51
296.5650511771
  0
ARC
  5
15B
330
157
100
AcDbEntity
  8
0
  6
Continuous
 62
     7
370
     0
100
AcDbCircle
 10
191.9849982102
 20
152.904336367
 30
0.0
 40
6.212076339995614
100
AcDbArc
 50
63.4349488229
 51
116.5650511771
  0
SOLID
  5
15C
330
157
100
AcDbEntity
  8
0
  6
Continuous
 62
     7
370
     0
100
AcDbTrace
 10
194.7631232057
 20
179.0388103627
 30
0.0
 11
194.0131232057
 21
177.0388103627
 31
0.0
 12
195.5131232057
 22
177.0388103627
 32
0.0
 13
195.5131232057
 23
177.0388103627
 33
0.0
  0
SOLID
  5
15D
330
157
100
AcDbEntity
  8
0
  6
Continuous
 62
     7
370
     0
100
AcDbTrace
 10
194.7631232057
 20
128.8309729432
 30
0.0
 11
195.5131232057
 21
130.8309729432
 31
0.0
 12
194.0131232057
 22
130.8309729432
 32
0.0
 13
194.0131232057
 23
130.8309729432
 33
0.0
  0
LINE
  5
15E
330
157
100
AcDbEntity
  8
0
  6
Continuous
 62
     7
370
     0
100
AcDbLine
 10
187.7631231871
 20
179.0388103627
 30
0.0
 11
195.7631232057
 21
179.0388103627
 31
0.0
  0
LINE
  5
15F
330
157
100
AcDbEntity
  8
0
  6
Continuous
 62
     7
370
     0
100
AcDbLine
 10
165.4631231866
 20
128.8309729432
 30
0.0
 11
195.7631232057
 21
128.8309729432
 31
0.0
  0
LINE
  5
160
330
157
100
AcDbEntity
  8
0
  6
Continuous
 62
     7
370
     0
100
AcDbLine
 10
194.7631232057
 20
179.0388103627
 30
0.0
 11
194.7631232057
 21
128.8309729432
 31
0.0
  0
MTEXT
  5
161
330
157
100
AcDbEntity
  8
0
  6
Continuous
 62
     7
370
     0
100
AcDbMText
 10
190.2513862911
 20
149.4091972971
 30
0.1
 40
3.5
 41
0.0
 71
     1
 72
     1
  1
50.2
  7
SLDTEXTSTYLE0
 11
-7.044195017643634E-15
 21
1.0
 31
0.0
 73
     1
 44
1.0
  0
ENDBLK
  5
159
330
157
100
AcDbEntity
  8
0
100
AcDbBlockEnd
  0
BLOCK
  5
165
330
164
100
AcDbEntity
  8
0
100
AcDbBlockBegin
  2
_D_1
 70
     0
 10
0.0
 20
0.0
 30
0.0
  3
_D_1
  1

  0
SOLID
  5
167
330
164
100
AcDbEntity
  8
0
  6
Continuous
 62
     7
370
     0
100
AcDbTrace
 10
186.7631231871
 20
205.709576146
 30
0.0
 11
188.7631231871
 21
204.959576146
 31
0.0
 12
188.7631231871
 22
206.459576146
 32
0.0
 13
188.7631231871
 23
206.459576146
 33
0.0
  0
SOLID
  5
168
330
164
100
AcDbEntity
  8
0
  6
Continuous
 62
     7
370
     0
100
AcDbTrace
 10
184.7631231871
 20
205.709576146
 30
0.0
 11
182.7631231871
 21
206.459576146
 31
0.0
 12
182.7631231871
 22
204.959576146
 32
0.0
 13
182.7631231871
 23
204.959576146
 33
0.0
  0
LINE
  5
169
330
164
100
AcDbEntity
  8
0
  6
Continuous
 62
     7
370
     0
100
AcDbLine
 10
186.7631231871
 20
180.0388103627
 30
0.0
 11
186.7631231871
 21
206.709576146
 31
0.0
  0
LINE
  5
16A
330
164
100
AcDbEntity
  8
0
  6
Continuous
 62
     7
370
     0
100
AcDbLine
 10
184.7631231871
 20
180.0388103627
 30
0.0
 11
184.7631231871
 21
206.709576146
 31
0.0
  0
LINE
  5
16B
330
164
100
AcDbEntity
  8
0
  6
Continuous
 62
     7
370
     0
100
AcDbLine
 10
186.7631231871
 20
205.709576146
 30
0.0
 11
191.7631231871
 21
205.709576146
 31
0.0
  0
LINE
  5
16C
330
164
100
AcDbEntity
  8
0
  6
Continuous
 62
     7
370
     0
100
AcDbLine
 10
186.7631231871
 20
205.709576146
 30
0.0
 11
184.7631231871
 21
205.709576146
 31
0.0
  0
LINE
  5
16D
330
164
100
AcDbEntity
  8
0
  6
Continuous
 62
     7
370
     0
100
AcDbLine
 10
184.7631231871
 20
205.709576146
 30
0.0
 11
123.3380702573
 21
205.709576146
 31
0.0
  0
MTEXT
  5
16E
330
164
100
AcDbEntity
  8
0
  6
Continuous
 62
     7
370
     0
100
AcDbMText
 10
123.3380702573
 20
210.2213130606
 30
0.1
 40
3.5
 41
0.0
 71
     1
 72
     1
  1
Maxストローク
  7
SLDTEXTSTYLE0
 73
     1
 44
1.0
  0
MTEXT
  5
16F
330
164
100
AcDbEntity
  8
0
  6
Continuous
 62
     7
370
     0
100
AcDbMText
 10
153.8220984179
 20
210.2213130606
 30
0.1
 40
3.5
 41
0.0
 71
     1
 72
     1
  1
2
  7
SLDTEXTSTYLE0
 73
     1
 44
1.0
  0
ENDBLK
  5
166
330
164
100
AcDbEntity
  8
0
100
AcDbBlockEnd
  0
BLOCK
  5
173
330
172
100
AcDbEntity
  8
0
100
AcDbBlockBegin
  2
_D_2
 70
     0
 10
0.0
 20
0.0
 30
0.0
  3
_D_2
  1

  0
SOLID
  5
175
330
172
100
AcDbEntity
  8
0
  6
Continuous
 62
     7
370
     0
100
AcDbTrace
 10
105.0621746977
 20
145.6309729432
 30
0.0
 11
104.3121746977
 21
143.6309729432
 31
0.0
 12
105.8121746977
 22
143.6309729432
 32
0.0
 13
105.8121746977
 23
143.6309729432
 33
0.0
  0
SOLID
  5
176
330
172
100
AcDbEntity
  8
0
  6
Continuous
 62
     7
370
     0
100
AcDbTrace
 10
105.0621746977
 20
128.8309729432
 30
0.0
 11
105.8121746977
 21
130.8309729432
 31
0.0
 12
104.3121746977
 22
130.8309729432
 32
0.0
 13
104.3121746977
 23
130.8309729432
 33
0.0
  0
LINE
  5
177
330
172
100
AcDbEntity
  8
0
  6
Continuous
 62
     7
370
     0
100
AcDbLine
 10
109.3631231866
 20
145.6309729432
 30
0.0
 11
104.0621746977
 21
145.6309729432
 31
0.0
  0
LINE
  5
178
330
172
100
AcDbEntity
  8
0
  6
Continuous
 62
     7
370
     0
100
AcDbLine
 10
128.4631231866
 20
128.8309729432
 30
0.0
 11
104.0621746977
 21
128.8309729432
 31
0.0
  0
LINE
  5
179
330
172
100
AcDbEntity
  8
0
  6
Continuous
 62
     7
370
     0
100
AcDbLine
 10
105.0621746977
 20
145.6309729432
 30
0.0
 11
105.0621746977
 21
128.8309729432
 31
0.0
  0
MTEXT
  5
17A
330
172
100
AcDbEntity
  8
0
  6
Continuous
 62
     7
370
     0
100
AcDbMText
 10
100.5504377831
 20
132.7052784128
 30
9.8905721489
 40
3.5
 41
0.0
 71
     1
 72
     1
  1
16.8
  7
SLDTEXTSTYLE0
 11
-7.044195017643634E-15
 21
1.0
 31
0.0
 73
     1
 44
1.0
  0
ENDBLK
  5
174
330
172
100
AcDbEntity
  8
0
100
AcDbBlockEnd
  0
BLOCK
  5
17E
330
17D
100
AcDbEntity
  8
0
100
AcDbBlockBegin
  2
_D_3
 70
     0
 10
0.0
 20
0.0
 30
0.0
  3
_D_3
  1

  0
SOLID
  5
180
330
17D
100
AcDbEntity
  8
0
  6
Continuous
 62
     7
370
     0
100
AcDbTrace
 10
109.9631231866
 20
106.8309729432
 30
0.0
 11
111.9631231866
 21
106.0809729432
 31
0.0
 12
111.9631231866
 22
107.5809729432
 32
0.0
 13
111.9631231866
 23
107.5809729432
 33
0.0
  0
SOLID
  5
181
330
17D
100
AcDbEntity
  8
0
  6
Continuous
 62
     7
370
     0
100
AcDbTrace
 10
183.9631231866
 20
106.8309729432
 30
0.0
 11
181.9631231866
 21
107.5809729432
 31
0.0
 12
181.9631231866
 22
106.0809729432
 32
0.0
 13
181.9631231866
 23
106.0809729432
 33
0.0
  0
LINE
  5
182
330
17D
100
AcDbEntity
  8
0
  6
Continuous
 62
     7
370
     0
100
AcDbLine
 10
109.9631231866
 20
140.7809729432
 30
0.0
 11
109.9631231866
 21
105.8309729432
 31
0.0
  0
LINE
  5
183
330
17D
100
AcDbEntity
  8
0
  6
Continuous
 62
     7
370
     0
100
AcDbLine
 10
183.9631231866
 20
140.7309729432
 30
0.0
 11
183.9631231866
 21
105.8309729432
 31
0.0
  0
LINE
  5
184
330
17D
100
AcDbEntity
  8
0
  6
Continuous
 62
     7
370
     0
100
AcDbLine
 10
109.9631231866
 20
106.8309729432
 30
0.0
 11
183.9631231866
 21
106.8309729432
 31
0.0
  0
MTEXT
  5
185
330
17D
100
AcDbEntity
  8
0
  6
Continuous
 62
     7
370
     0
100
AcDbMText
 10
144.9803408773
 20
111.3427098578
 30
9.8905721489
 40
3.5
 41
0.0
 71
     1
 72
     1
  1
74
  7
SLDTEXTSTYLE0
 73
     1
 44
1.0
  0
ENDBLK
  5
17F
330
17D
100
AcDbEntity
  8
0
100
AcDbBlockEnd
  0
BLOCK
  5
188
330
187
100
AcDbEntity
  8
0
100
AcDbBlockBegin
  2
_D_4
 70
     0
 10
0.0
 20
0.0
 30
0.0
  3
_D_4
  1

  0
SOLID
  5
18A
330
187
100
AcDbEntity
  8
0
  6
Continuous
 62
     7
370
     0
100
AcDbTrace
 10
124.4631231866
 20
114.6594954763
 30
0.0
 11
126.4631231866
 21
113.9094954763
 31
0.0
 12
126.4631231866
 22
115.4094954763
 32
0.0
 13
126.4631231866
 23
115.4094954763
 33
0.0
  0
SOLID
  5
18B
330
187
100
AcDbEntity
  8
0
  6
Continuous
 62
     7
370
     0
100
AcDbTrace
 10
183.9631231866
 20
114.6594954763
 30
0.0
 11
181.9631231866
 21
115.4094954763
 31
0.0
 12
181.9631231866
 22
113.9094954763
 32
0.0
 13
181.9631231866
 23
113.9094954763
 33
0.0
  0
LINE
  5
18C
330
187
100
AcDbEntity
  8
0
  6
Continuous
 62
     7
370
     0
100
AcDbLine
 10
124.4631231866
 20
133.3309729432
 30
0.0
 11
124.4631231866
 21
113.6594954763
 31
0.0
  0
LINE
  5
18D
330
187
100
AcDbEntity
  8
0
  6
Continuous
 62
     7
370
     0
100
AcDbLine
 10
183.9631231866
 20
140.7309729432
 30
0.0
 11
183.9631231866
 21
113.6594954763
 31
0.0
  0
LINE
  5
18E
330
187
100
AcDbEntity
  8
0
  6
Continuous
 62
     7
370
     0
100
AcDbLine
 10
124.4631231866
 20
114.6594954763
 30
0.0
 11
183.9631231866
 21
114.6594954763
 31
0.0
  0
MTEXT
  5
18F
330
187
100
AcDbEntity
  8
0
  6
Continuous
 62
     7
370
     0
100
AcDbMText
 10
146.6324630998
 20
119.1712323909
 30
9.8905721489
 40
3.5
 41
0.0
 71
     1
 72
     1
  1
59.5
  7
SLDTEXTSTYLE0
 73
     1
 44
1.0
  0
ENDBLK
  5
189
330
187
100
AcDbEntity
  8
0
100
AcDbBlockEnd
  0
BLOCK
  5
192
330
191
100
AcDbEntity
  8
0
100
AcDbBlockBegin
  2
_D_5
 70
     0
 10
0.0
 20
0.0
 30
0.0
  3
_D_5
  1

  0
SOLID
  5
194
330
191
100
AcDbEntity
  8
0
  6
Continuous
 62
     7
370
     0
100
AcDbTrace
 10
139.9631231866
 20
121.5098813767
 30
0.0
 11
141.9631231866
 21
120.7598813767
 31
0.0
 12
141.9631231866
 22
122.2598813767
 32
0.0
 13
141.9631231866
 23
122.2598813767
 33
0.0
  0
SOLID
  5
195
330
191
100
AcDbEntity
  8
0
  6
Continuous
 62
     7
370
     0
100
AcDbTrace
 10
159.9631231866
 20
121.5098813767
 30
0.0
 11
157.9631231866
 21
122.2598813767
 31
0.0
 12
157.9631231866
 22
120.7598813767
 32
0.0
 13
157.9631231866
 23
120.7598813767
 33
0.0
  0
LINE
  5
196
330
191
100
AcDbEntity
  8
0
  6
Continuous
 62
     7
370
     0
100
AcDbLine
 10
139.9631231866
 20
125.8309729432
 30
0.0
 11
139.9631231866
 21
120.5098813767
 31
0.0
  0
LINE
  5
197
330
191
100
AcDbEntity
  8
0
  6
Continuous
 62
     7
370
     0
100
AcDbLine
 10
159.9631231866
 20
125.8309729432
 30
0.0
 11
159.9631231866
 21
120.5098813767
 31
0.0
  0
LINE
  5
198
330
191
100
AcDbEntity
  8
0
  6
Continuous
 62
     7
370
     0
100
AcDbLine
 10
139.9631231866
 20
121.5098813767
 30
0.0
 11
159.9631231866
 21
121.5098813767
 31
0.0
  0
MTEXT
  5
199
330
191
100
AcDbEntity
  8
0
  6
Continuous
 62
     7
370
     0
100
AcDbMText
 10
147.3770119931
 20
126.0216182912
 30
9.8905721489
 40
3.5
 41
0.0
 71
     1
 72
     1
  1
20
  7
SLDTEXTSTYLE0
 73
     1
 44
1.0
  0
ENDBLK
  5
193
330
191
100
AcDbEntity
  8
0
100
AcDbBlockEnd
  0
BLOCK
  5
19C
330
19B
100
AcDbEntity
  8
0
100
AcDbBlockBegin
  2
_D_6
 70
     0
 10
0.0
 20
0.0
 30
0.0
  3
_D_6
  1

  0
SOLID
  5
19E
330
19B
100
AcDbEntity
  8
0
  6
Continuous
 62
     7
370
     0
100
AcDbTrace
 10
159.9631231866
 20
121.5098813767
 30
0.0
 11
161.9631231866
 21
120.7598813767
 31
0.0
 12
161.9631231866
 22
122.2598813767
 32
0.0
 13
161.9631231866
 23
122.2598813767
 33
0.0
  0
SOLID
  5
19F
330
19B
100
AcDbEntity
  8
0
  6
Continuous
 62
     7
370
     0
100
AcDbTrace
 10
183.9631231866
 20
121.5098813767
 30
0.0
 11
181.9631231866
 21
122.2598813767
 31
0.0
 12
181.9631231866
 22
120.7598813767
 32
0.0
 13
181.9631231866
 23
120.7598813767
 33
0.0
  0
LINE
  5
1A0
330
19B
100
AcDbEntity
  8
0
  6
Continuous
 62
     7
370
     0
100
AcDbLine
 10
159.9631231866
 20
125.8309729432
 30
0.0
 11
159.9631231866
 21
120.5098813767
 31
0.0
  0
LINE
  5
1A1
330
19B
100
AcDbEntity
  8
0
  6
Continuous
 62
     7
370
     0
100
AcDbLine
 10
183.9631231866
 20
140.7309729432
 30
0.0
 11
183.9631231866
 21
120.5098813767
 31
0.0
  0
LINE
  5
1A2
330
19B
100
AcDbEntity
  8
0
  6
Continuous
 62
     7
370
     0
100
AcDbLine
 10
159.9631231866
 20
121.5098813767
 30
0.0
 11
183.9631231866
 21
121.5098813767
 31
0.0
  0
MTEXT
  5
1A3
330
19B
100
AcDbEntity
  8
0
  6
Continuous
 62
     7
370
     0
100
AcDbMText
 10
169.3770119931
 20
126.0216182912
 30
9.8905721489
 40
3.5
 41
0.0
 71
     1
 72
     1
  1
24
  7
SLDTEXTSTYLE0
 73
     1
 44
1.0
  0
ENDBLK
  5
19D
330
19B
100
AcDbEntity
  8
0
100
AcDbBlockEnd
  0
BLOCK
  5
1A6
330
1A5
100
AcDbEntity
  8
0
100
AcDbBlockBegin
  2
_D_7
 70
     0
 10
0.0
 20
0.0
 30
0.0
  3
_D_7
  1

  0
SOLID
  5
1A8
330
1A5
100
AcDbEntity
  8
0
  6
Continuous
 62
     7
370
     0
100
AcDbTrace
 10
159.9631231866
 20
218.5475522156
 30
0.0
 11
161.9631231866
 21
217.7975522156
 31
0.0
 12
161.9631231866
 22
219.2975522156
 32
0.0
 13
161.9631231866
 23
219.2975522156
 33
0.0
  0
SOLID
  5
1A9
330
1A5
100
AcDbEntity
  8
0
  6
Continuous
 62
     7
370
     0
100
AcDbTrace
 10
177.2631231896
 20
218.5475522156
 30
0.0
 11
175.2631231896
 21
219.2975522156
 31
0.0
 12
175.2631231896
 22
217.7975522156
 32
0.0
 13
175.2631231896
 23
217.7975522156
 33
0.0
  0
LINE
  5
1AA
330
1A5
100
AcDbEntity
  8
0
  6
Continuous
 62
     7
370
     0
100
AcDbLine
 10
159.9631231866
 20
136.3309729432
 30
0.0
 11
159.9631231866
 21
219.5475522156
 31
0.0
  0
LINE
  5
1AB
330
1A5
100
AcDbEntity
  8
0
  6
Continuous
 62
     7
370
     0
100
AcDbLine
 10
177.2631231896
 20
171.6185085629
 30
0.0
 11
177.2631231896
 21
219.5475522156
 31
0.0
  0
LINE
  5
1AC
330
1A5
100
AcDbEntity
  8
0
  6
Continuous
 62
     7
370
     0
100
AcDbLine
 10
159.9631231866
 20
218.5475522156
 30
0.0
 11
177.2631231896
 21
218.5475522156
 31
0.0
  0
MTEXT
  5
1AD
330
1A5
100
AcDbEntity
  8
0
  6
Continuous
 62
     7
370
     0
100
AcDbMText
 10
163.6650535098
 20
223.0592891302
 30
9.8905721489
 40
3.5
 41
0.0
 71
     1
 72
     1
  1
17.3
  7
SLDTEXTSTYLE0
 73
     1
 44
1.0
  0
ENDBLK
  5
1A7
330
1A5
100
AcDbEntity
  8
0
100
AcDbBlockEnd
  0
BLOCK
  5
1B1
330
1B0
100
AcDbEntity
  8
0
100
AcDbBlockBegin
  2
_D_8
 70
     0
 10
0.0
 20
0.0
 30
0.0
  3
_D_8
  1

  0
SOLID
  5
1B3
330
1B0
100
AcDbEntity
  8
0
  6
Continuous
 62
     7
370
     0
100
AcDbTrace
 10
177.2631231896
 20
218.5475522156
 30
0.0
 11
175.2631231896
 21
219.2975522156
 31
0.0
 12
175.2631231896
 22
217.7975522156
 32
0.0
 13
175.2631231896
 23
217.7975522156
 33
0.0
  0
SOLID
  5
1B4
330
1B0
100
AcDbEntity
  8
0
  6
Continuous
 62
     7
370
     0
100
AcDbTrace
 10
184.7631231871
 20
218.5475522156
 30
0.0
 11
186.7631231871
 21
217.7975522156
 31
0.0
 12
186.7631231871
 22
219.2975522156
 32
0.0
 13
186.7631231871
 23
219.2975522156
 33
0.0
  0
LINE
  5
1B5
330
1B0
100
AcDbEntity
  8
0
  6
Continuous
 62
     7
370
     0
100
AcDbLine
 10
177.2631231896
 20
171.6185085629
 30
0.0
 11
177.2631231896
 21
219.5475522156
 31
0.0
  0
LINE
  5
1B6
330
1B0
100
AcDbEntity
  8
0
  6
Continuous
 62
     7
370
     0
100
AcDbLine
 10
184.7631231871
 20
180.0388103627
 30
0.0
 11
184.7631231871
 21
219.5475522156
 31
0.0
  0
LINE
  5
1B7
330
1B0
100
AcDbEntity
  8
0
  6
Continuous
 62
     7
370
     0
100
AcDbLine
 10
177.2631231896
 20
218.5475522156
 30
0.0
 11
172.2631231896
 21
218.5475522156
 31
0.0
  0
LINE
  5
1B8
330
1B0
100
AcDbEntity
  8
0
  6
Continuous
 62
     7
370
     0
100
AcDbLine
 10
177.2631231896
 20
218.5475522156
 30
0.0
 11
184.7631231871
 21
218.5475522156
 31
0.0
  0
LINE
  5
1B9
330
1B0
100
AcDbEntity
  8
0
  6
Continuous
 62
     7
370
     0
100
AcDbLine
 10
184.7631231871
 20
218.5475522156
 30
0.0
 11
189.7631231871
 21
218.5475522156
 31
0.0
  0
MTEXT
  5
1BA
330
1B0
100
AcDbEntity
  8
0
  6
Continuous
 62
     7
370
     0
100
AcDbMText
 10
177.7804843711
 20
223.0592891302
 30
9.8905721489
 40
3.5
 41
0.0
 71
     1
 72
     1
  1
7.5
  7
SLDTEXTSTYLE0
 73
     1
 44
1.0
  0
ENDBLK
  5
1B2
330
1B0
100
AcDbEntity
  8
0
100
AcDbBlockEnd
  0
BLOCK
  5
1BD
330
1BC
100
AcDbEntity
  8
0
100
AcDbBlockBegin
  2
_D_9
 70
     0
 10
0.0
 20
0.0
 30
0.0
  3
_D_9
  1

  0
SOLID
  5
1BF
330
1BC
100
AcDbEntity
  8
0
  6
Continuous
 62
     7
370
     0
100
AcDbTrace
 10
97.0593284644
 20
156.6309729432
 30
0.0
 11
96.3093284644
 21
154.6309729432
 31
0.0
 12
97.8093284644
 22
154.6309729432
 32
0.0
 13
97.8093284644
 23
154.6309729432
 33
0.0
  0
SOLID
  5
1C0
330
1BC
100
AcDbEntity
  8
0
  6
Continuous
 62
     7
370
     0
100
AcDbTrace
 10
97.0593284644
 20
128.8309729432
 30
0.0
 11
97.8093284644
 21
130.8309729432
 31
0.0
 12
96.3093284644
 22
130.8309729432
 32
0.0
 13
96.3093284644
 23
130.8309729432
 33
0.0
  0
LINE
  5
1C1
330
1BC
100
AcDbEntity
  8
0
  6
Continuous
 62
     7
370
     0
100
AcDbLine
 10
120.1631231866
 20
156.6309729432
 30
0.0
 11
96.0593284644
 21
156.6309729432
 31
0.0
  0
LINE
  5
1C2
330
1BC
100
AcDbEntity
  8
0
  6
Continuous
 62
     7
370
     0
100
AcDbLine
 10
132.4631231866
 20
128.8309729432
 30
0.0
 11
96.0593284644
 21
128.8309729432
 31
0.0
  0
LINE
  5
1C3
330
1BC
100
AcDbEntity
  8
0
  6
Continuous
 62
     7
370
     0
100
AcDbLine
 10
97.0593284644
 20
156.6309729432
 30
0.0
 11
97.0593284644
 21
128.8309729432
 31
0.0
  0
MTEXT
  5
1C4
330
1BC
100
AcDbEntity
  8
0
  6
Continuous
 62
     7
370
     0
100
AcDbMText
 10
92.5475915498
 20
138.2052784128
 30
9.8905721489
 40
3.5
 41
0.0
 71
     1
 72
     1
  1
27.8
  7
SLDTEXTSTYLE0
 11
-1.237326553584439E-14
 21
1.0
 31
0.0
 73
     1
 44
1.0
  0
ENDBLK
  5
1BE
330
1BC
100
AcDbEntity
  8
0
100
AcDbBlockEnd
  0
BLOCK
  5
1C8
330
1C7
100
AcDbEntity
  8
0
100
AcDbBlockBegin
  2
_DOT
 70
     0
 10
0.0
 20
0.0
 30
0.0
  3
_DOT
  1

  0
POLYLINE
  5
1CA
330
1C7
100
AcDbEntity
  8
0
  6
ByBlock
 62
     0
100
AcDb2dPolyline
 66
     1
 10
0.0
 20
0.0
 30
0.0
 70
     1
 40
0.5
 41
0.5
  0
VERTEX
  5
1CC
330
1CA
100
AcDbEntity
  8
0
  6
ByBlock
 62
     0
100
AcDbVertex
100
AcDb2dVertex
 10
-0.25
 20
0.0
 30
0.0
 42
1.0
  0
VERTEX
  5
1CD
330
1CA
100
AcDbEntity
  8
0
  6
ByBlock
 62
     0
100
AcDbVertex
100
AcDb2dVertex
 10
0.25
 20
0.0
 30
0.0
 42
1.0
  0
SEQEND
  5
1CE
330
1CA
100
AcDbEntity
  8
0
  6
ByBlock
 62
     0
  0
LINE
  5
1CB
330
1C7
100
AcDbEntity
  8
0
  6
ByBlock
 62
     0
370
    -2
100
AcDbLine
 10
-0.5
 20
0.0
 30
0.0
 11
-1.0
 21
0.0
 31
0.0
  0
ENDBLK
  5
1C9
330
1C7
100
AcDbEntity
  8
0
100
AcDbBlockEnd
  0
BLOCK
  5
2C3
330
2C2
100
AcDbEntity
  8
0
100
AcDbBlockBegin
  2
_D_10
 70
     0
 10
0.0
 20
0.0
 30
0.0
  3
_D_10
  1

  0
ARC
  5
2C5
330
2C2
100
AcDbEntity
  8
0
  6
Continuous
 62
     7
370
     0
100
AcDbCircle
 10
55.3605523954
 20
196.9465513597
 30
0.0
 40
6.21207633999562
100
AcDbArc
 50
153.4367499699
 51
206.566852324
  0
ARC
  5
2C6
330
2C2
100
AcDbEntity
  8
0
  6
Continuous
 62
     7
370
     0
100
AcDbCircle
 10
53.2994414752
 20
196.9464865667
 30
0.0
 40
6.212076339995606
100
AcDbArc
 50
333.4367499699
 51
26.566852324
  0
SOLID
  5
2C7
330
2C2
100
AcDbEntity
  8
0
  6
Continuous
 62
     7
370
     0
100
AcDbTrace
 10
48.5223591453
 20
194.1682113977
 30
0.0
 11
50.5223827213
 21
193.41827427
 31
0.0
 12
50.5223355674
 22
194.9182742692
 32
0.0
 13
50.5223355674
 23
194.9182742692
 33
0.0
  0
SOLID
  5
2C8
330
2C2
100
AcDbEntity
  8
0
  6
Continuous
 62
     7
370
     0
100
AcDbTrace
 10
60.1378090419
 20
194.1685765403
 30
0.0
 11
58.137785466
 21
194.9185136681
 31
0.0
 12
58.1378326199
 22
193.4185136688
 32
0.0
 13
58.1378326199
 23
193.4185136688
 33
0.0
  0
LINE
  5
2C9
330
2C2
100
AcDbEntity
  8
0
  6
Continuous
 62
     7
370
     0
100
AcDbLine
 10
48.5231508832
 20
168.9824619828
 30
0.0
 11
48.5223277094
 21
195.1682113972
 31
0.0
  0
LINE
  5
2CA
330
2C2
100
AcDbEntity
  8
0
  6
Continuous
 62
     7
370
     0
100
AcDbLine
 10
60.1386008232
 20
168.9814439439
 30
0.0
 11
60.137777606
 21
195.1685765399
 31
0.0
  0
LINE
  5
2CB
330
2C2
100
AcDbEntity
  8
0
  6
Continuous
 62
     7
370
     0
100
AcDbLine
 10
48.5223591453
 20
194.1682113977
 30
0.0
 11
60.1378090419
 21
194.1685765403
 31
0.0
  0
MTEXT
  5
2CC
330
2C2
100
AcDbEntity
  8
0
  6
Continuous
 62
     7
370
     0
100
AcDbMText
 10
49.8042479093
 20
198.6799886119
 30
-29.4999999905
 40
3.5
 41
0.0
 71
     1
 72
     1
  1
11.6
  7
SLDTEXTSTYLE0
 11
0.9999999995058907
 21
3.143594436559903E-5
 31
0.0
 73
     1
 44
1.0
  0
ENDBLK
  5
2C4
330
2C2
100
AcDbEntity
  8
0
100
AcDbBlockEnd
  0
BLOCK
  5
2CF
330
2CE
100
AcDbEntity
  8
0
100
AcDbBlockBegin
  2
_D_11
 70
     0
 10
0.0
 20
0.0
 30
0.0
  3
_D_11
  1

  0
SOLID
  5
2D1
330
2CE
100
AcDbEntity
  8
0
  6
Continuous
 62
     7
370
     0
100
AcDbTrace
 10
37.3352152503
 20
164.2309729432
 30
0.0
 11
36.5852152503
 21
162.2309729432
 31
0.0
 12
38.0852152503
 22
162.2309729432
 32
0.0
 13
38.0852152503
 23
162.2309729432
 33
0.0
  0
SOLID
  5
2D2
330
2CE
100
AcDbEntity
  8
0
  6
Continuous
 62
     7
370
     0
100
AcDbTrace
 10
37.3352152503
 20
128.8309729432
 30
0.0
 11
38.0852152503
 21
130.8309729432
 31
0.0
 12
36.5852152503
 22
130.8309729432
 32
0.0
 13
36.5852152503
 23
130.8309729432
 33
0.0
  0
LINE
  5
2D3
330
2CE
100
AcDbEntity
  8
0
  6
Continuous
 62
     7
370
     0
100
AcDbLine
 10
46.0310252041
 20
164.2309729432
 30
0.0
 11
36.3352152503
 21
164.2309729432
 31
0.0
  0
LINE
  5
2D4
330
2CE
100
AcDbEntity
  8
0
  6
Continuous
 62
     7
370
     0
100
AcDbLine
 10
43.8310252041
 20
128.8309729432
 30
0.0
 11
36.3352152503
 21
128.8309729432
 31
0.0
  0
LINE
  5
2D5
330
2CE
100
AcDbEntity
  8
0
  6
Continuous
 62
     7
370
     0
100
AcDbLine
 10
37.3352152503
 20
164.2309729432
 30
0.0
 11
37.3352152503
 21
128.8309729432
 31
0.0
  0
MTEXT
  5
2D6
330
2CE
100
AcDbEntity
  8
0
  6
Continuous
 62
     7
370
     0
100
AcDbMText
 10
32.8234783357
 20
140.8222410496
 30
-29.4999999905
 40
3.5
 41
0.0
 71
     1
 72
     1
  1
35.4
  7
SLDTEXTSTYLE0
 11
-7.044195017643634E-15
 21
1.0
 31
0.0
 73
     1
 44
1.0
  0
ENDBLK
  5
2D0
330
2CE
100
AcDbEntity
  8
0
100
AcDbBlockEnd
  0
BLOCK
  5
2D9
330
2D8
100
AcDbEntity
  8
0
100
AcDbBlockBegin
  2
_D_12
 70
     0
 10
0.0
 20
0.0
 30
0.0
  3
_D_12
  1

  0
SOLID
  5
2DB
330
2D8
100
AcDbEntity
  8
0
  6
Continuous
 62
     7
370
     0
100
AcDbTrace
 10
44.3310252041
 20
120.6088507302
 30
0.0
 11
46.3310252041
 21
119.8588507302
 31
0.0
 12
46.3310252041
 22
121.3588507302
 32
0.0
 13
46.3310252041
 23
121.3588507302
 33
0.0
  0
SOLID
  5
2DC
330
2D8
100
AcDbEntity
  8
0
  6
Continuous
 62
     7
370
     0
100
AcDbTrace
 10
64.3310252041
 20
120.6088507302
 30
0.0
 11
62.3310252041
 21
121.3588507302
 31
0.0
 12
62.3310252041
 22
119.8588507302
 32
0.0
 13
62.3310252041
 23
119.8588507302
 33
0.0
  0
LINE
  5
2DD
330
2D8
100
AcDbEntity
  8
0
  6
Continuous
 62
     7
370
     0
100
AcDbLine
 10
44.3310252041
 20
131.3309729432
 30
0.0
 11
44.3310252041
 21
119.6088507302
 31
0.0
  0
LINE
  5
2DE
330
2D8
100
AcDbEntity
  8
0
  6
Continuous
 62
     7
370
     0
100
AcDbLine
 10
64.3310252041
 20
130.3309729432
 30
0.0
 11
64.3310252041
 21
119.6088507302
 31
0.0
  0
LINE
  5
2DF
330
2D8
100
AcDbEntity
  8
0
  6
Continuous
 62
     7
370
     0
100
AcDbLine
 10
44.3310252041
 20
120.6088507302
 30
0.0
 11
64.3310252041
 21
120.6088507302
 31
0.0
  0
MTEXT
  5
2E0
330
2D8
100
AcDbEntity
  8
0
  6
Continuous
 62
     7
370
     0
100
AcDbMText
 10
51.7449140106
 20
125.1205876448
 30
-29.4999999905
 40
3.5
 41
0.0
 71
     1
 72
     1
  1
20
  7
SLDTEXTSTYLE0
 73
     1
 44
1.0
  0
ENDBLK
  5
2DA
330
2D8
100
AcDbEntity
  8
0
100
AcDbBlockEnd
  0
BLOCK
  5
2E3
330
2E2
100
AcDbEntity
  8
0
100
AcDbBlockBegin
  2
_D_13
 70
     0
 10
0.0
 20
0.0
 30
0.0
  3
_D_13
  1

  0
SOLID
  5
2E5
330
2E2
100
AcDbEntity
  8
0
  6
Continuous
 62
     7
370
     0
100
AcDbTrace
 10
72.2216769039
 20
160.7309729432
 30
0.0
 11
71.4716769039
 21
158.7309729432
 31
0.0
 12
72.9716769039
 22
158.7309729432
 32
0.0
 13
72.9716769039
 23
158.7309729432
 33
0.0
  0
SOLID
  5
2E6
330
2E2
100
AcDbEntity
  8
0
  6
Continuous
 62
     7
370
     0
100
AcDbTrace
 10
72.2216769039
 20
128.8309729432
 30
0.0
 11
72.9716769039
 21
130.8309729432
 31
0.0
 12
71.4716769039
 22
130.8309729432
 32
0.0
 13
71.4716769039
 23
130.8309729432
 33
0.0
  0
LINE
  5
2E7
330
2E2
100
AcDbEntity
  8
0
  6
Continuous
 62
     7
370
     0
100
AcDbLine
 10
62.3310252041
 20
160.7309729432
 30
0.0
 11
73.2216769039
 21
160.7309729432
 31
0.0
  0
LINE
  5
2E8
330
2E2
100
AcDbEntity
  8
0
  6
Continuous
 62
     7
370
     0
100
AcDbLine
 10
64.8310252041
 20
128.8309729432
 30
0.0
 11
73.2216769039
 21
128.8309729432
 31
0.0
  0
LINE
  5
2E9
330
2E2
100
AcDbEntity
  8
0
  6
Continuous
 62
     7
370
     0
100
AcDbLine
 10
72.2216769039
 20
160.7309729432
 30
0.0
 11
72.2216769039
 21
128.8309729432
 31
0.0
  0
MTEXT
  5
2EA
330
2E2
100
AcDbEntity
  8
0
  6
Continuous
 62
     7
370
     0
100
AcDbMText
 10
67.7099399893
 20
140.8222410496
 30
-29.4999999905
 40
3.5
 41
0.0
 71
     1
 72
     1
  1
31.9
  7
SLDTEXTSTYLE0
 11
-7.044195017643634E-15
 21
1.0
 31
0.0
 73
     1
 44
1.0
  0
ENDBLK
  5
2E4
330
2E2
100
AcDbEntity
  8
0
100
AcDbBlockEnd
  0
BLOCK
  5
2ED
330
2EC
100
AcDbEntity
  8
0
100
AcDbBlockBegin
  2
_D_14
 70
     0
 10
0.0
 20
0.0
 30
0.0
  3
_D_14
  1

  0
SOLID
  5
2EF
330
2EC
100
AcDbEntity
  8
0
  6
Continuous
 62
     7
370
     0
100
AcDbTrace
 10
79.6734444196
 20
168.6309729469
 30
0.0
 11
78.9234444196
 21
166.6309729469
 31
0.0
 12
80.4234444196
 22
166.6309729469
 32
0.0
 13
80.4234444196
 23
166.6309729469
 33
0.0
  0
SOLID
  5
2F0
330
2EC
100
AcDbEntity
  8
0
  6
Continuous
 62
     7
370
     0
100
AcDbTrace
 10
79.6734444196
 20
128.8309729432
 30
0.0
 11
80.4234444196
 21
130.8309729432
 31
0.0
 12
78.9234444196
 22
130.8309729432
 32
0.0
 13
78.9234444196
 23
130.8309729432
 33
0.0
  0
LINE
  5
2F1
330
2EC
100
AcDbEntity
  8
0
  6
Continuous
 62
     7
370
     0
100
AcDbLine
 10
62.5017364623
 20
168.6309729469
 30
0.0
 11
80.6734444196
 21
168.6309729469
 31
0.0
  0
LINE
  5
2F2
330
2EC
100
AcDbEntity
  8
0
  6
Continuous
 62
     7
370
     0
100
AcDbLine
 10
64.8310252041
 20
128.8309729432
 30
0.0
 11
80.6734444196
 21
128.8309729432
 31
0.0
  0
LINE
  5
2F3
330
2EC
100
AcDbEntity
  8
0
  6
Continuous
 62
     7
370
     0
100
AcDbLine
 10
79.6734444196
 20
168.6309729469
 30
0.0
 11
79.6734444196
 21
128.8309729432
 31
0.0
  0
MTEXT
  5
2F4
330
2EC
100
AcDbEntity
  8
0
  6
Continuous
 62
     7
370
     0
100
AcDbMText
 10
75.161707505
 20
140.8222410496
 30
-29.4999999905
 40
3.5
 41
0.0
 71
     1
 72
     1
  1
39.8
  7
SLDTEXTSTYLE0
 11
-7.044195017643634E-15
 21
1.0
 31
0.0
 73
     1
 44
1.0
  0
ENDBLK
  5
2EE
330
2EC
100
AcDbEntity
  8
0
100
AcDbBlockEnd
  0
BLOCK
  5
2F7
330
2F6
100
AcDbEntity
  8
0
100
AcDbBlockBegin
  2
_D_15
 70
     0
 10
0.0
 20
0.0
 30
0.0
  3
_D_15
  1

  0
SOLID
  5
2F9
330
2F6
100
AcDbEntity
  8
0
  6
Continuous
 62
     7
370
     0
100
AcDbTrace
 10
79.6734444169
 20
179.1454457792
 30
0.0
 11
78.9234444174
 21
177.145445779
 31
0.0
 12
80.4234444174
 22
177.1454457794
 32
0.0
 13
80.4234444174
 23
177.1454457794
 33
0.0
  0
SOLID
  5
2FA
330
2F6
100
AcDbEntity
  8
0
  6
Continuous
 62
     7
370
     0
100
AcDbTrace
 10
79.6734444196
 20
168.6309729516
 30
0.0
 11
80.4234444191
 21
170.6309729518
 31
0.0
 12
78.9234444191
 22
170.6309729514
 32
0.0
 13
78.9234444191
 23
170.6309729514
 33
0.0
  0
LINE
  5
2FB
330
2F6
100
AcDbEntity
  8
0
  6
Continuous
 62
     7
370
     0
100
AcDbLine
 10
56.9305563589
 20
179.1454457733
 30
0.0
 11
80.6734444169
 21
179.1454457794
 31
0.0
  0
LINE
  5
2FC
330
2F6
100
AcDbEntity
  8
0
  6
Continuous
 62
     7
370
     0
100
AcDbLine
 10
62.5017364623
 20
168.6309729472
 30
0.0
 11
80.6734444196
 21
168.6309729519
 31
0.0
  0
LINE
  5
2FD
330
2F6
100
AcDbEntity
  8
0
  6
Continuous
 62
     7
370
     0
100
AcDbLine
 10
79.6734444169
 20
179.1454457792
 30
0.0
 11
79.6734444196
 21
168.6309729516
 31
0.0
  0
MTEXT
  5
2FE
330
2F6
100
AcDbEntity
  8
0
  6
Continuous
 62
     7
370
     0
100
AcDbMText
 10
75.1617075048
 20
169.3625148338
 30
-29.4999999905
 40
3.5
 41
0.0
 71
     1
 72
     1
  1
10.5
  7
SLDTEXTSTYLE0
 11
-2.572128563991375E-10
 21
1.0
 31
0.0
 73
     1
 44
1.0
  0
ENDBLK
  5
2F8
330
2F6
100
AcDbEntity
  8
0
100
AcDbBlockEnd
  0
BLOCK
  5
302
330
301
100
AcDbEntity
  8
0
100
AcDbBlockBegin
  2
_D_16
 70
     0
 10
0.0
 20
0.0
 30
0.0
  3
_D_16
  1

  0
SOLID
  5
304
330
301
100
AcDbEntity
  8
0
  6
Continuous
 62
     7
370
     0
100
AcDbTrace
 10
52.7303311354
 20
186.3099846659
 30
0.0
 11
50.7303075597
 21
187.0599217942
 31
0.0
 12
50.7303547131
 22
185.559921795
 32
0.0
 13
50.7303547131
 23
185.559921795
 33
0.0
  0
SOLID
  5
305
330
301
100
AcDbEntity
  8
0
  6
Continuous
 62
     7
370
     0
100
AcDbTrace
 10
55.9303311338
 20
186.31008526
 30
0.0
 11
57.9303547096
 21
185.5601481316
 31
0.0
 12
57.9303075561
 22
187.0601481309
 32
0.0
 13
57.9303075561
 23
187.0601481309
 33
0.0
  0
LINE
  5
306
330
301
100
AcDbEntity
  8
0
  6
Continuous
 62
     7
370
     0
100
AcDbLine
 10
52.7305249248
 20
180.1453451785
 30
0.0
 11
52.7302996998
 21
187.3099846654
 31
0.0
  0
LINE
  5
307
330
301
100
AcDbEntity
  8
0
  6
Continuous
 62
     7
370
     0
100
AcDbLine
 10
55.9305249232
 20
180.1454457726
 30
0.0
 11
55.9302996982
 21
187.3100852595
 31
0.0
  0
LINE
  5
308
330
301
100
AcDbEntity
  8
0
  6
Continuous
 62
     7
370
     0
100
AcDbLine
 10
52.7303311354
 20
186.3099846659
 30
0.0
 11
47.7303311379
 21
186.3098274877
 31
0.0
  0
LINE
  5
309
330
301
100
AcDbEntity
  8
0
  6
Continuous
 62
     7
370
     0
100
AcDbLine
 10
52.7303311354
 20
186.3099846659
 30
0.0
 11
55.9303311338
 21
186.31008526
 31
0.0
  0
LINE
  5
30A
330
301
100
AcDbEntity
  8
0
  6
Continuous
 62
     7
370
     0
100
AcDbLine
 10
55.9303311338
 20
186.31008526
 30
0.0
 11
69.7414476639
 21
186.3105194213
 31
0.0
  0
MTEXT
  5
30B
330
301
100
AcDbEntity
  8
0
  6
Continuous
 62
     7
370
     0
100
AcDbMText
 10
63.2760282032
 20
190.8220530935
 30
-29.4999999905
 40
3.5
 41
0.0
 71
     1
 72
     1
  1
3.2
  7
SLDTEXTSTYLE0
 11
0.9999999995059001
 21
3.143564390240863E-5
 31
0.0
 73
     1
 44
1.0
  0
ENDBLK
  5
303
330
301
100
AcDbEntity
  8
0
100
AcDbBlockEnd
  0
BLOCK
  5
30D
330
30C
100
AcDbEntity
  8
0
100
AcDbBlockBegin
  2
SW_CENTERMARKSYMBOL_0
 70
     0
 10
0.0
 20
0.0
 30
0.0
  3
SW_CENTERMARKSYMBOL_0
  1

  0
LINE
  5
30F
330
30C
100
AcDbEntity
  8
0
  6
Continuous
 62
     0
370
     0
100
AcDbLine
 10
0.0
 20
0.0
 30
0.0
 11
0.0
 21
2.5
 31
0.0
  0
LINE
  5
310
330
30C
100
AcDbEntity
  8
0
  6
Continuous
 62
     0
370
     0
100
AcDbLine
 10
0.0
 20
0.0
 30
0.0
 11
-2.5
 21
0.0
 31
0.0
  0
LINE
  5
311
330
30C
100
AcDbEntity
  8
0
  6
Continuous
 62
     0
370
     0
100
AcDbLine
 10
0.0
 20
0.0
 30
0.0
 11
0.0
 21
-2.5
 31
0.0
  0
LINE
  5
312
330
30C
100
AcDbEntity
  8
0
  6
Continuous
 62
     0
370
     0
100
AcDbLine
 10
0.0
 20
0.0
 30
0.0
 11
2.5
 21
0.0
 31
0.0
  0
LINE
  5
313
330
30C
100
AcDbEntity
  8
0
  6
Continuous
 62
     0
370
     0
100
AcDbLine
 10
0.0
 20
5.0
 30
0.0
 11
0.0
 21
6.35
 31
0.0
  0
LINE
  5
314
330
30C
100
AcDbEntity
  8
0
  6
Continuous
 62
     0
370
     0
100
AcDbLine
 10
-5.0
 20
0.0
 30
0.0
 11
-6.35
 21
0.0
 31
0.0
  0
LINE
  5
315
330
30C
100
AcDbEntity
  8
0
  6
Continuous
 62
     0
370
     0
100
AcDbLine
 10
0.0
 20
-5.0
 30
0.0
 11
0.0
 21
-6.35
 31
0.0
  0
LINE
  5
316
330
30C
100
AcDbEntity
  8
0
  6
Continuous
 62
     0
370
     0
100
AcDbLine
 10
5.0
 20
0.0
 30
0.0
 11
6.35
 21
0.0
 31
0.0
  0
ENDBLK
  5
30E
330
30C
100
AcDbEntity
  8
0
100
AcDbBlockEnd
  0
BLOCK
  5
319
330
318
100
AcDbEntity
  8
0
100
AcDbBlockBegin
  2
SW_CENTERMARKSYMBOL_1
 70
     0
 10
0.0
 20
0.0
 30
0.0
  3
SW_CENTERMARKSYMBOL_1
  1

  0
LINE
  5
31B
330
318
100
AcDbEntity
  8
0
  6
Continuous
 62
     0
370
     0
100
AcDbLine
 10
0.0
 20
0.0
 30
0.0
 11
0.0
 21
2.5
 31
0.0
  0
LINE
  5
31C
330
318
100
AcDbEntity
  8
0
  6
Continuous
 62
     0
370
     0
100
AcDbLine
 10
0.0
 20
0.0
 30
0.0
 11
-2.5
 21
0.0
 31
0.0
  0
LINE
  5
31D
330
318
100
AcDbEntity
  8
0
  6
Continuous
 62
     0
370
     0
100
AcDbLine
 10
0.0
 20
0.0
 30
0.0
 11
0.0
 21
-2.5
 31
0.0
  0
LINE
  5
31E
330
318
100
AcDbEntity
  8
0
  6
Continuous
 62
     0
370
     0
100
AcDbLine
 10
0.0
 20
0.0
 30
0.0
 11
2.5
 21
0.0
 31
0.0
  0
LINE
  5
31F
330
318
100
AcDbEntity
  8
0
  6
Continuous
 62
     0
370
     0
100
AcDbLine
 10
0.0
 20
2.5
 30
0.0
 11
0.0
 21
3.7195
 31
0.0
  0
LINE
  5
320
330
318
100
AcDbEntity
  8
0
  6
Continuous
 62
     0
370
     0
100
AcDbLine
 10
-2.5
 20
0.0
 30
0.0
 11
-3.7195
 21
0.0
 31
0.0
  0
LINE
  5
321
330
318
100
AcDbEntity
  8
0
  6
Continuous
 62
     0
370
     0
100
AcDbLine
 10
0.0
 20
-2.5
 30
0.0
 11
0.0
 21
-3.7195
 31
0.0
  0
LINE
  5
322
330
318
100
AcDbEntity
  8
0
  6
Continuous
 62
     0
370
     0
100
AcDbLine
 10
2.5
 20
0.0
 30
0.0
 11
3.7195
 21
0.0
 31
0.0
  0
ENDBLK
  5
31A
330
318
100
AcDbEntity
  8
0
100
AcDbBlockEnd
  0
BLOCK
  5
325
330
324
100
AcDbEntity
  8
0
100
AcDbBlockBegin
  2
SW_CENTERMARKSYMBOL_2
 70
     0
 10
0.0
 20
0.0
 30
0.0
  3
SW_CENTERMARKSYMBOL_2
  1

  0
LINE
  5
327
330
324
100
AcDbEntity
  8
0
  6
Continuous
 62
     0
370
     0
100
AcDbLine
 10
0.0
 20
0.0
 30
0.0
 11
0.0
 21
2.5
 31
0.0
  0
LINE
  5
328
330
324
100
AcDbEntity
  8
0
  6
Continuous
 62
     0
370
     0
100
AcDbLine
 10
0.0
 20
0.0
 30
0.0
 11
-2.5
 21
0.0
 31
0.0
  0
LINE
  5
329
330
324
100
AcDbEntity
  8
0
  6
Continuous
 62
     0
370
     0
100
AcDbLine
 10
0.0
 20
0.0
 30
0.0
 11
0.0
 21
-2.5
 31
0.0
  0
LINE
  5
32A
330
324
100
AcDbEntity
  8
0
  6
Continuous
 62
     0
370
     0
100
AcDbLine
 10
0.0
 20
0.0
 30
0.0
 11
2.5
 21
0.0
 31
0.0
  0
LINE
  5
32B
330
324
100
AcDbEntity
  8
0
  6
Continuous
 62
     0
370
     0
100
AcDbLine
 10
0.0
 20
5.0
 30
0.0
 11
0.0
 21
6.35
 31
0.0
  0
LINE
  5
32C
330
324
100
AcDbEntity
  8
0
  6
Continuous
 62
     0
370
     0
100
AcDbLine
 10
-5.0
 20
0.0
 30
0.0
 11
-6.35
 21
0.0
 31
0.0
  0
LINE
  5
32D
330
324
100
AcDbEntity
  8
0
  6
Continuous
 62
     0
370
     0
100
AcDbLine
 10
0.0
 20
-5.0
 30
0.0
 11
0.0
 21
-6.35
 31
0.0
  0
LINE
  5
32E
330
324
100
AcDbEntity
  8
0
  6
Continuous
 62
     0
370
     0
100
AcDbLine
 10
5.0
 20
0.0
 30
0.0
 11
6.35
 21
0.0
 31
0.0
  0
ENDBLK
  5
326
330
324
100
AcDbEntity
  8
0
100
AcDbBlockEnd
  0
BLOCK
  5
331
330
330
100
AcDbEntity
  8
0
100
AcDbBlockBegin
  2
SW_CENTERMARKSYMBOL_3
 70
     0
 10
0.0
 20
0.0
 30
0.0
  3
SW_CENTERMARKSYMBOL_3
  1

  0
LINE
  5
333
330
330
100
AcDbEntity
  8
0
  6
Continuous
 62
     0
370
     0
100
AcDbLine
 10
0.0
 20
0.0
 30
0.0
 11
0.0
 21
2.5
 31
0.0
  0
LINE
  5
334
330
330
100
AcDbEntity
  8
0
  6
Continuous
 62
     0
370
     0
100
AcDbLine
 10
0.0
 20
0.0
 30
0.0
 11
-2.5
 21
0.0
 31
0.0
  0
LINE
  5
335
330
330
100
AcDbEntity
  8
0
  6
Continuous
 62
     0
370
     0
100
AcDbLine
 10
0.0
 20
0.0
 30
0.0
 11
0.0
 21
-2.5
 31
0.0
  0
LINE
  5
336
330
330
100
AcDbEntity
  8
0
  6
Continuous
 62
     0
370
     0
100
AcDbLine
 10
0.0
 20
0.0
 30
0.0
 11
2.5
 21
0.0
 31
0.0
  0
LINE
  5
337
330
330
100
AcDbEntity
  8
0
  6
Continuous
 62
     0
370
     0
100
AcDbLine
 10
0.0
 20
2.5
 30
0.0
 11
0.0
 21
4.625
 31
0.0
  0
LINE
  5
338
330
330
100
AcDbEntity
  8
0
  6
Continuous
 62
     0
370
     0
100
AcDbLine
 10
-2.5
 20
0.0
 30
0.0
 11
-4.625
 21
0.0
 31
0.0
  0
LINE
  5
339
330
330
100
AcDbEntity
  8
0
  6
Continuous
 62
     0
370
     0
100
AcDbLine
 10
0.0
 20
-2.5
 30
0.0
 11
0.0
 21
-4.625
 31
0.0
  0
LINE
  5
33A
330
330
100
AcDbEntity
  8
0
  6
Continuous
 62
     0
370
     0
100
AcDbLine
 10
2.5
 20
0.0
 30
0.0
 11
4.625
 21
0.0
 31
0.0
  0
ENDBLK
  5
332
330
330
100
AcDbEntity
  8
0
100
AcDbBlockEnd
  0
BLOCK
  5
33D
330
33C
100
AcDbEntity
  8
0
100
AcDbBlockBegin
  2
SW_CENTERMARKSYMBOL_4
 70
     0
 10
0.0
 20
0.0
 30
0.0
  3
SW_CENTERMARKSYMBOL_4
  1

  0
LINE
  5
33F
330
33C
100
AcDbEntity
  8
0
  6
Continuous
 62
     0
370
     0
100
AcDbLine
 10
0.0
 20
0.0
 30
0.0
 11
0.0
 21
2.5
 31
0.0
  0
LINE
  5
340
330
33C
100
AcDbEntity
  8
0
  6
Continuous
 62
     0
370
     0
100
AcDbLine
 10
0.0
 20
0.0
 30
0.0
 11
-2.5
 21
0.0
 31
0.0
  0
LINE
  5
341
330
33C
100
AcDbEntity
  8
0
  6
Continuous
 62
     0
370
     0
100
AcDbLine
 10
0.0
 20
0.0
 30
0.0
 11
0.0
 21
-2.5
 31
0.0
  0
LINE
  5
342
330
33C
100
AcDbEntity
  8
0
  6
Continuous
 62
     0
370
     0
100
AcDbLine
 10
0.0
 20
0.0
 30
0.0
 11
2.5
 21
0.0
 31
0.0
  0
LINE
  5
343
330
33C
100
AcDbEntity
  8
0
  6
Continuous
 62
     0
370
     0
100
AcDbLine
 10
0.0
 20
2.5
 30
0.0
 11
0.0
 21
4.625
 31
0.0
  0
LINE
  5
344
330
33C
100
AcDbEntity
  8
0
  6
Continuous
 62
     0
370
     0
100
AcDbLine
 10
-2.5
 20
0.0
 30
0.0
 11
-4.625
 21
0.0
 31
0.0
  0
LINE
  5
345
330
33C
100
AcDbEntity
  8
0
  6
Continuous
 62
     0
370
     0
100
AcDbLine
 10
0.0
 20
-2.5
 30
0.0
 11
0.0
 21
-4.625
 31
0.0
  0
LINE
  5
346
330
33C
100
AcDbEntity
  8
0
  6
Continuous
 62
     0
370
     0
100
AcDbLine
 10
2.5
 20
0.0
 30
0.0
 11
4.625
 21
0.0
 31
0.0
  0
ENDBLK
  5
33E
330
33C
100
AcDbEntity
  8
0
100
AcDbBlockEnd
  0
BLOCK
  5
349
330
348
100
AcDbEntity
  8
0
100
AcDbBlockBegin
  2
SW_CENTERMARKSYMBOL_5
 70
     0
 10
0.0
 20
0.0
 30
0.0
  3
SW_CENTERMARKSYMBOL_5
  1

  0
LINE
  5
34B
330
348
100
AcDbEntity
  8
0
  6
Continuous
 62
     0
370
     0
100
AcDbLine
 10
0.0
 20
0.0
 30
0.0
 11
0.0
 21
2.5
 31
0.0
  0
LINE
  5
34C
330
348
100
AcDbEntity
  8
0
  6
Continuous
 62
     0
370
     0
100
AcDbLine
 10
0.0
 20
0.0
 30
0.0
 11
-2.5
 21
0.0
 31
0.0
  0
LINE
  5
34D
330
348
100
AcDbEntity
  8
0
  6
Continuous
 62
     0
370
     0
100
AcDbLine
 10
0.0
 20
0.0
 30
0.0
 11
0.0
 21
-2.5
 31
0.0
  0
LINE
  5
34E
330
348
100
AcDbEntity
  8
0
  6
Continuous
 62
     0
370
     0
100
AcDbLine
 10
0.0
 20
0.0
 30
0.0
 11
2.5
 21
0.0
 31
0.0
  0
LINE
  5
34F
330
348
100
AcDbEntity
  8
0
  6
Continuous
 62
     0
370
     0
100
AcDbLine
 10
0.0
 20
5.0
 30
0.0
 11
0.0
 21
7.3
 31
0.0
  0
LINE
  5
350
330
348
100
AcDbEntity
  8
0
  6
Continuous
 62
     0
370
     0
100
AcDbLine
 10
-5.0
 20
0.0
 30
0.0
 11
-7.3
 21
0.0
 31
0.0
  0
LINE
  5
351
330
348
100
AcDbEntity
  8
0
  6
Continuous
 62
     0
370
     0
100
AcDbLine
 10
0.0
 20
-5.0
 30
0.0
 11
0.0
 21
-7.3
 31
0.0
  0
LINE
  5
352
330
348
100
AcDbEntity
  8
0
  6
Continuous
 62
     0
370
     0
100
AcDbLine
 10
5.0
 20
0.0
 30
0.0
 11
7.3
 21
0.0
 31
0.0
  0
ENDBLK
  5
34A
330
348
100
AcDbEntity
  8
0
100
AcDbBlockEnd
  0
BLOCK
  5
3C9
330
3C8
100
AcDbEntity
  8
0
100
AcDbBlockBegin
  2
_D_17
 70
     0
 10
0.0
 20
0.0
 30
0.0
  3
_D_17
  1

  0
SOLID
  5
3CB
330
3C8
100
AcDbEntity
  8
0
  6
Continuous
 62
     7
370
     0
100
AcDbTrace
 10
139.9631231866
 20
95.8033251445
 30
0.0
 11
141.9631231866
 21
95.0533251445
 31
0.0
 12
141.9631231866
 22
96.5533251445
 32
0.0
 13
141.9631231866
 23
96.5533251445
 33
0.0
  0
SOLID
  5
3CC
330
3C8
100
AcDbEntity
  8
0
  6
Continuous
 62
     7
370
     0
100
AcDbTrace
 10
159.9631231866
 20
95.8033251445
 30
0.0
 11
157.9631231866
 21
96.5533251445
 31
0.0
 12
157.9631231866
 22
95.0533251445
 32
0.0
 13
157.9631231866
 23
95.0533251445
 33
0.0
  0
LINE
  5
3CD
330
3C8
100
AcDbEntity
  8
0
  6
Continuous
 62
     7
370
     0
100
AcDbLine
 10
139.9631231866
 20
80.0216925309
 30
0.0
 11
139.9631231866
 21
96.8033251445
 31
0.0
  0
LINE
  5
3CE
330
3C8
100
AcDbEntity
  8
0
  6
Continuous
 62
     7
370
     0
100
AcDbLine
 10
159.9631231866
 20
80.0216925309
 30
0.0
 11
159.9631231866
 21
96.8033251445
 31
0.0
  0
LINE
  5
3CF
330
3C8
100
AcDbEntity
  8
0
  6
Continuous
 62
     7
370
     0
100
AcDbLine
 10
139.9631231866
 20
95.8033251445
 30
0.0
 11
159.9631231866
 21
95.8033251445
 31
0.0
  0
MTEXT
  5
3D0
330
3C8
100
AcDbEntity
  8
0
  6
Continuous
 62
     7
370
     0
100
AcDbMText
 10
147.3770119931
 20
100.315062059
 30
-6.1155168885
 40
3.5
 41
0.0
 71
     1
 72
     1
  1
20
  7
SLDTEXTSTYLE0
 73
     1
 44
1.0
  0
ENDBLK
  5
3CA
330
3C8
100
AcDbEntity
  8
0
100
AcDbBlockEnd
  0
BLOCK
  5
3D3
330
3D2
100
AcDbEntity
  8
0
100
AcDbBlockBegin
  2
_D_18
 70
     0
 10
0.0
 20
0.0
 30
0.0
  3
_D_18
  1

  0
SOLID
  5
3D5
330
3D2
100
AcDbEntity
  8
0
  6
Continuous
 62
     7
370
     0
100
AcDbTrace
 10
159.9631231866
 20
95.8033251445
 30
0.0
 11
161.9631231866
 21
95.0533251445
 31
0.0
 12
161.9631231866
 22
96.5533251445
 32
0.0
 13
161.9631231866
 23
96.5533251445
 33
0.0
  0
SOLID
  5
3D6
330
3D2
100
AcDbEntity
  8
0
  6
Continuous
 62
     7
370
     0
100
AcDbTrace
 10
183.9631231866
 20
95.8033251445
 30
0.0
 11
181.9631231866
 21
96.5533251445
 31
0.0
 12
181.9631231866
 22
95.0533251445
 32
0.0
 13
181.9631231866
 23
95.0533251445
 33
0.0
  0
LINE
  5
3D7
330
3D2
100
AcDbEntity
  8
0
  6
Continuous
 62
     7
370
     0
100
AcDbLine
 10
159.9631231866
 20
80.0216925309
 30
0.0
 11
159.9631231866
 21
96.8033251445
 31
0.0
  0
LINE
  5
3D8
330
3D2
100
AcDbEntity
  8
0
  6
Continuous
 62
     7
370
     0
100
AcDbLine
 10
183.9631231866
 20
85.3716925309
 30
0.0
 11
183.9631231866
 21
96.8033251445
 31
0.0
  0
LINE
  5
3D9
330
3D2
100
AcDbEntity
  8
0
  6
Continuous
 62
     7
370
     0
100
AcDbLine
 10
159.9631231866
 20
95.8033251445
 30
0.0
 11
183.9631231866
 21
95.8033251445
 31
0.0
  0
MTEXT
  5
3DA
330
3D2
100
AcDbEntity
  8
0
  6
Continuous
 62
     7
370
     0
100
AcDbMText
 10
169.3770119931
 20
100.315062059
 30
-6.1155168885
 40
3.5
 41
0.0
 71
     1
 72
     1
  1
24
  7
SLDTEXTSTYLE0
 73
     1
 44
1.0
  0
ENDBLK
  5
3D4
330
3D2
100
AcDbEntity
  8
0
100
AcDbBlockEnd
  0
BLOCK
  5
3DD
330
3DC
100
AcDbEntity
  8
0
100
AcDbBlockBegin
  2
_D_19
 70
     0
 10
0.0
 20
0.0
 30
0.0
  3
_D_19
  1

  0
SOLID
  5
3DF
330
3DC
100
AcDbEntity
  8
0
  6
Continuous
 62
     7
370
     0
100
AcDbTrace
 10
129.4631231866
 20
54.7981353723
 30
0.0
 11
131.4631231866
 21
54.0481353723
 31
0.0
 12
131.4631231866
 22
55.5481353723
 32
0.0
 13
131.4631231866
 23
55.5481353723
 33
0.0
  0
SOLID
  5
3E0
330
3DC
100
AcDbEntity
  8
0
  6
Continuous
 62
     7
370
     0
100
AcDbTrace
 10
164.4631231866
 20
54.7981353723
 30
0.0
 11
162.4631231866
 21
55.5481353723
 31
0.0
 12
162.4631231866
 22
54.0481353723
 32
0.0
 13
162.4631231866
 23
54.0481353723
 33
0.0
  0
LINE
  5
3E1
330
3DC
100
AcDbEntity
  8
0
  6
Continuous
 62
     7
370
     0
100
AcDbLine
 10
129.4631231866
 20
64.3716925309
 30
0.0
 11
129.4631231866
 21
53.7981353723
 31
0.0
  0
LINE
  5
3E2
330
3DC
100
AcDbEntity
  8
0
  6
Continuous
 62
     7
370
     0
100
AcDbLine
 10
164.4631231866
 20
64.3716925309
 30
0.0
 11
164.4631231866
 21
53.7981353723
 31
0.0
  0
LINE
  5
3E3
330
3DC
100
AcDbEntity
  8
0
  6
Continuous
 62
     7
370
     0
100
AcDbLine
 10
129.4631231866
 20
54.7981353723
 30
0.0
 11
164.4631231866
 21
54.7981353723
 31
0.0
  0
MTEXT
  5
3E4
330
3DC
100
AcDbEntity
  8
0
  6
Continuous
 62
     7
370
     0
100
AcDbMText
 10
145.0738754383
 20
59.3098722869
 30
-6.1155168885
 40
3.5
 41
0.0
 71
     1
 72
     1
  1
35
  7
SLDTEXTSTYLE0
 73
     1
 44
1.0
  0
ENDBLK
  5
3DE
330
3DC
100
AcDbEntity
  8
0
100
AcDbBlockEnd
  0
BLOCK
  5
3E7
330
3E6
100
AcDbEntity
  8
0
100
AcDbBlockBegin
  2
_D_20
 70
     0
 10
0.0
 20
0.0
 30
0.0
  3
_D_20
  1

  0
SOLID
  5
3E9
330
3E6
100
AcDbEntity
  8
0
  6
Continuous
 62
     7
370
     0
100
AcDbTrace
 10
164.4631231866
 20
54.7981353723
 30
0.0
 11
166.4631231866
 21
54.0481353723
 31
0.0
 12
166.4631231866
 22
55.5481353723
 32
0.0
 13
166.4631231866
 23
55.5481353723
 33
0.0
  0
SOLID
  5
3EA
330
3E6
100
AcDbEntity
  8
0
  6
Continuous
 62
     7
370
     0
100
AcDbTrace
 10
183.9631231866
 20
54.7981353723
 30
0.0
 11
181.9631231866
 21
55.5481353723
 31
0.0
 12
181.9631231866
 22
54.0481353723
 32
0.0
 13
181.9631231866
 23
54.0481353723
 33
0.0
  0
LINE
  5
3EB
330
3E6
100
AcDbEntity
  8
0
  6
Continuous
 62
     7
370
     0
100
AcDbLine
 10
164.4631231866
 20
64.3716925309
 30
0.0
 11
164.4631231866
 21
53.7981353723
 31
0.0
  0
LINE
  5
3EC
330
3E6
100
AcDbEntity
  8
0
  6
Continuous
 62
     7
370
     0
100
AcDbLine
 10
183.9631231866
 20
64.3716925309
 30
0.0
 11
183.9631231866
 21
53.7981353723
 31
0.0
  0
LINE
  5
3ED
330
3E6
100
AcDbEntity
  8
0
  6
Continuous
 62
     7
370
     0
100
AcDbLine
 10
164.4631231866
 20
54.7981353723
 30
0.0
 11
183.9631231866
 21
54.7981353723
 31
0.0
  0
MTEXT
  5
3EE
330
3E6
100
AcDbEntity
  8
0
  6
Continuous
 62
     7
370
     0
100
AcDbMText
 10
169.1370189411
 20
59.3098722869
 30
-6.1155168885
 40
3.5
 41
0.0
 71
     1
 72
     1
  1
19.5
  7
SLDTEXTSTYLE0
 73
     1
 44
1.0
  0
ENDBLK
  5
3E8
330
3E6
100
AcDbEntity
  8
0
100
AcDbBlockEnd
  0
BLOCK
  5
3F5
330
3F4
100
AcDbEntity
  8
0
100
AcDbBlockBegin
  2
SW_CENTERMARKSYMBOL_6
 70
     0
 10
0.0
 20
0.0
 30
0.0
  3
SW_CENTERMARKSYMBOL_6
  1

  0
LINE
  5
3F7
330
3F4
100
AcDbEntity
  8
0
  6
Continuous
 62
     0
370
     0
100
AcDbLine
 10
0.0
 20
0.0
 30
0.0
 11
0.0
 21
2.5
 31
0.0
  0
LINE
  5
3F8
330
3F4
100
AcDbEntity
  8
0
  6
Continuous
 62
     0
370
     0
100
AcDbLine
 10
0.0
 20
0.0
 30
0.0
 11
-2.5
 21
0.0
 31
0.0
  0
LINE
  5
3F9
330
3F4
100
AcDbEntity
  8
0
  6
Continuous
 62
     0
370
     0
100
AcDbLine
 10
0.0
 20
0.0
 30
0.0
 11
0.0
 21
-2.5
 31
0.0
  0
LINE
  5
3FA
330
3F4
100
AcDbEntity
  8
0
  6
Continuous
 62
     0
370
     0
100
AcDbLine
 10
0.0
 20
0.0
 30
0.0
 11
2.5
 21
0.0
 31
0.0
  0
LINE
  5
3FB
330
3F4
100
AcDbEntity
  8
0
  6
Continuous
 62
     0
370
     0
100
AcDbLine
 10
0.0
 20
2.5
 30
0.0
 11
0.0
 21
4.15
 31
0.0
  0
LINE
  5
3FC
330
3F4
100
AcDbEntity
  8
0
  6
Continuous
 62
     0
370
     0
100
AcDbLine
 10
-2.5
 20
0.0
 30
0.0
 11
-4.15
 21
0.0
 31
0.0
  0
LINE
  5
3FD
330
3F4
100
AcDbEntity
  8
0
  6
Continuous
 62
     0
370
     0
100
AcDbLine
 10
0.0
 20
-2.5
 30
0.0
 11
0.0
 21
-4.15
 31
0.0
  0
LINE
  5
3FE
330
3F4
100
AcDbEntity
  8
0
  6
Continuous
 62
     0
370
     0
100
AcDbLine
 10
2.5
 20
0.0
 30
0.0
 11
4.15
 21
0.0
 31
0.0
  0
ENDBLK
  5
3F6
330
3F4
100
AcDbEntity
  8
0
100
AcDbBlockEnd
  0
BLOCK
  5
401
330
400
100
AcDbEntity
  8
0
100
AcDbBlockBegin
  2
SW_CENTERMARKSYMBOL_7
 70
     0
 10
0.0
 20
0.0
 30
0.0
  3
SW_CENTERMARKSYMBOL_7
  1

  0
LINE
  5
403
330
400
100
AcDbEntity
  8
0
  6
Continuous
 62
     0
370
     0
100
AcDbLine
 10
0.0
 20
0.0
 30
0.0
 11
0.0
 21
2.5
 31
0.0
  0
LINE
  5
404
330
400
100
AcDbEntity
  8
0
  6
Continuous
 62
     0
370
     0
100
AcDbLine
 10
0.0
 20
0.0
 30
0.0
 11
-2.5
 21
0.0
 31
0.0
  0
LINE
  5
405
330
400
100
AcDbEntity
  8
0
  6
Continuous
 62
     0
370
     0
100
AcDbLine
 10
0.0
 20
0.0
 30
0.0
 11
0.0
 21
-2.5
 31
0.0
  0
LINE
  5
406
330
400
100
AcDbEntity
  8
0
  6
Continuous
 62
     0
370
     0
100
AcDbLine
 10
0.0
 20
0.0
 30
0.0
 11
2.5
 21
0.0
 31
0.0
  0
LINE
  5
407
330
400
100
AcDbEntity
  8
0
  6
Continuous
 62
     0
370
     0
100
AcDbLine
 10
0.0
 20
2.5
 30
0.0
 11
0.0
 21
4.15
 31
0.0
  0
LINE
  5
408
330
400
100
AcDbEntity
  8
0
  6
Continuous
 62
     0
370
     0
100
AcDbLine
 10
-2.5
 20
0.0
 30
0.0
 11
-4.15
 21
0.0
 31
0.0
  0
LINE
  5
409
330
400
100
AcDbEntity
  8
0
  6
Continuous
 62
     0
370
     0
100
AcDbLine
 10
0.0
 20
-2.5
 30
0.0
 11
0.0
 21
-4.15
 31
0.0
  0
LINE
  5
40A
330
400
100
AcDbEntity
  8
0
  6
Continuous
 62
     0
370
     0
100
AcDbLine
 10
2.5
 20
0.0
 30
0.0
 11
4.15
 21
0.0
 31
0.0
  0
ENDBLK
  5
402
330
400
100
AcDbEntity
  8
0
100
AcDbBlockEnd
  0
ENDSEC
  0
SECTION
  2
ENTITIES
  0
LINE
  5
44
330
1F
100
AcDbEntity
  8
0
  6
Continuous
 62
     7
370
     0
100
AcDbLine
 10
20.2604743903
 20
285.0
 30
0.0
 11
196.7604743903
 21
285.0
 31
0.0
  0
LINE
  5
45
330
1F
100
AcDbEntity
  8
0
  6
Continuous
 62
     7
370
     0
100
AcDbLine
 10
20.2604743903
 20
285.0
 30
0.0
 11
20.2604743903
 21
10.0
 31
0.0
  0
LINE
  5
46
330
1F
100
AcDbEntity
  8
0
  6
Continuous
 62
     7
370
     0
100
AcDbLine
 10
20.2604743903
 20
10.0
 30
0.0
 11
196.7604743903
 21
10.0
 31
0.0
  0
LINE
  5
47
330
1F
100
AcDbEntity
  8
0
  6
Continuous
 62
     7
370
     0
100
AcDbLine
 10
196.7604743903
 20
285.0
 30
0.0
 11
196.7604743903
 21
10.0
 31
0.0
  0
LINE
  5
48
330
1F
100
AcDbEntity
  8
0
  6
Continuous
 62
     7
370
     0
100
AcDbLine
 10
127.0104743903
 20
50.75
 30
0.0
 11
196.7604743903
 21
50.75
 31
0.0
  0
LINE
  5
49
330
1F
100
AcDbEntity
  8
0
  6
Continuous
 62
     7
370
     0
100
AcDbLine
 10
127.0104743903
 20
50.75
 30
0.0
 11
127.0104743903
 21
10.0
 31
0.0
  0
LINE
  5
4A
330
1F
100
AcDbEntity
  8
0
  6
Continuous
 62
     7
370
     0
100
AcDbLine
 10
127.0104743903
 20
22.75
 30
0.0
 11
196.7604743903
 21
22.75
 31
0.0
  0
LINE
  5
4B
330
1F
100
AcDbEntity
  8
0
  6
Continuous
 62
     7
370
     0
100
AcDbLine
 10
127.0104743903
 20
36.75
 30
0.0
 11
196.7604743903
 21
36.75
 31
0.0
  0
MTEXT
  5
4D
330
1F
100
AcDbEntity
  8
0
  6
Continuous
 62
     7
370
     0
100
AcDbMText
 10
71.2625516412
 20
80.1346371665
 30
0.0
 40
3.5
 41
0.0
 71
     1
 72
     1
  1
ストッパーネジ
  7
SLDTEXTSTYLE0
 73
     1
 44
1.0
  0
MTEXT
  5
4E
330
1F
100
AcDbEntity
  8
0
  6
Continuous
 62
     7
370
     0
100
AcDbMText
 10
108.9510243308
 20
192.7746044571
 30
0.0
 40
2.9104166667
 41
0.0
 71
     1
 72
     1
  1
KQ2S04-M3G
  7
SLDTEXTSTYLE0
 73
     1
 44
1.0
  0
MTEXT
  5
4F
330
1F
100
AcDbEntity
  8
0
  6
Continuous
 62
     7
370
     0
100
AcDbMText
 10
93.599763709
 20
176.9442191738
 30
0.0
 40
2.9104166667
 41
0.0
 71
     1
 72
     1
  1
KQ2S04-M3G
  7
SLDTEXTSTYLE0
 73
     1
 44
1.0
  0
MTEXT
  5
51
330
1F
100
AcDbEntity
  8
0
  6
Continuous
 62
     7
370
     0
100
AcDbMText
 10
162.4641245831
 20
30.4171582345
 30
0.0
 40
4.2333333333
 41
0.0
 71
     2
 72
     1
  1
NW1-10R
  7
SLDTEXTSTYLE1
 73
     1
 44
1.0
  0
MTEXT
  5
52
330
1F
100
AcDbEntity
  8
0
  6
Continuous
 62
     7
370
     0
100
AcDbMText
 10
158.4613484155
 20
45.3830833172
 30
0.0
 40
3.7041666667
 41
0.0
 71
     2
 72
     1
  1
ミニエアーニッパー・本体・逆刃付
  7
SLDTEXTSTYLE1
 73
     1
 44
1.0
  0
MTEXT
  5
53
330
1F
100
AcDbEntity
  8
0
  6
Continuous
 62
     7
370
     0
100
AcDbMText
 10
162.6642798804
 20
16.8228189052
 30
0.0
 40
4.2333333333
 41
0.0
 71
     2
 72
     1
  1
131539
  7
SLDTEXTSTYLE1
 73
     1
 44
1.0
  0
LINE
  5
54
330
1F
100
AcDbEntity
  8
0
  6
Continuous
 62
     7
370
    15
100
AcDbLine
 10
124.4631248257
 20
149.6309731727
 30
0.0
 11
112.3631248913
 21
149.6309731727
 31
0.0
  0
LINE
  5
55
330
1F
100
AcDbEntity
  8
0
  6
Continuous
 62
     7
370
    15
100
AcDbLine
 10
112.3631248913
 20
141.6309737241
 30
0.0
 11
124.4631248257
 21
141.6309737241
 31
0.0
  0
LINE
  5
56
330
1F
100
AcDbEntity
  8
0
  6
Continuous
 62
     7
370
    15
100
AcDbLine
 10
111.4631245575
 20
149.4809724962
 30
0.0
 11
109.9631215177
 21
149.4809724962
 31
0.0
  0
LINE
  5
57
330
1F
100
AcDbEntity
  8
0
  6
Continuous
 62
     7
370
    15
100
AcDbLine
 10
109.9631215177
 20
141.7809725379
 30
0.0
 11
111.4631245575
 21
141.7809725379
 31
0.0
  0
LINE
  5
58
330
1F
100
AcDbEntity
  8
0
  6
Continuous
 62
     7
370
    15
100
AcDbLine
 10
112.3631248913
 20
148.0309730967
 30
0.0
 11
111.4631245575
 21
148.0309730967
 31
0.0
  0
LINE
  5
59
330
1F
100
AcDbEntity
  8
0
  6
Continuous
 62
     7
370
    15
100
AcDbLine
 10
111.4631245575
 20
143.2309728687
 30
0.0
 11
112.3631248913
 21
143.2309728687
 31
0.0
  0
LINE
  5
5A
330
1F
100
AcDbEntity
  8
0
  6
Continuous
 62
     7
370
    15
100
AcDbLine
 10
135.2631213806
 20
160.6309729458
 30
0.0
 11
123.1631214461
 21
160.6309729458
 31
0.0
  0
LINE
  5
5B
330
1F
100
AcDbEntity
  8
0
  6
Continuous
 62
     7
370
    15
100
AcDbLine
 10
123.1631214461
 20
152.6309727331
 30
0.0
 11
135.2631213806
 21
152.6309727331
 31
0.0
  0
LINE
  5
5C
330
1F
100
AcDbEntity
  8
0
  6
Continuous
 62
     7
370
    15
100
AcDbLine
 10
122.2631248377
 20
160.4809729314
 30
0.0
 11
120.7631217978
 21
160.4809729314
 31
0.0
  0
LINE
  5
5D
330
1F
100
AcDbEntity
  8
0
  6
Continuous
 62
     7
370
    15
100
AcDbLine
 10
120.7631217978
 20
152.7809724783
 30
0.0
 11
122.2631248377
 21
152.7809724783
 31
0.0
  0
LINE
  5
5E
330
1F
100
AcDbEntity
  8
0
  6
Continuous
 62
     7
370
    15
100
AcDbLine
 10
123.1631214461
 20
159.0309729207
 30
0.0
 11
122.2631248377
 21
159.0309729207
 31
0.0
  0
LINE
  5
5F
330
1F
100
AcDbEntity
  8
0
  6
Continuous
 62
     7
370
    15
100
AcDbLine
 10
122.2631248377
 20
154.2309728091
 30
0.0
 11
123.1631214461
 21
154.2309728091
 31
0.0
  0
LINE
  5
60
330
1F
100
AcDbEntity
  8
0
  6
Continuous
 62
     7
370
    15
100
AcDbLine
 10
180.5381231672
 20
140.8809722041
 30
0.0
 11
178.1631232436
 21
140.8809722041
 31
0.0
  0
LINE
  5
61
330
1F
100
AcDbEntity
  8
0
  6
Continuous
 62
     7
370
    15
100
AcDbLine
 10
178.1631232436
 20
136.3809723978
 30
0.0
 11
180.5381231672
 21
136.3809723978
 31
0.0
  0
ARC
  5
62
330
1F
100
AcDbEntity
  8
0
  6
Continuous
 62
     7
370
    15
100
AcDbCircle
 10
180.5381231866
 20
140.7559729432
 30
0.0
 40
0.1250000000000284
100
AcDbArc
 50
0.0
 51
90.0
  0
ARC
  5
63
330
1F
100
AcDbEntity
  8
0
  6
Continuous
 62
     7
370
    15
100
AcDbCircle
 10
180.5381231866
 20
136.5059729432
 30
0.0
 40
0.1250000000000284
100
AcDbArc
 50
270.0
 51
360.0
  0
LINE
  5
64
330
1F
100
AcDbEntity
  8
0
  6
Continuous
 62
     7
370
    15
100
AcDbLine
 10
133.9631217263
 20
144.1309732025
 30
0.0
 11
134.4631227396
 21
144.6309723531
 31
0.0
  0
LINE
  5
65
330
1F
100
AcDbEntity
  8
0
  6
Continuous
 62
     7
370
    15
100
AcDbLine
 10
134.4631227396
 20
146.630972681
 30
0.0
 11
133.9631217263
 21
147.1309727629
 31
0.0
  0
LINE
  5
66
330
1F
100
AcDbEntity
  8
0
  6
Continuous
 62
     7
370
    15
100
AcDbLine
 10
118.6250696621
 20
144.1309732025
 30
0.0
 11
122.0631214521
 21
144.1309732025
 31
0.0
  0
LINE
  5
67
330
1F
100
AcDbEntity
  8
0
  6
Continuous
 62
     7
370
    15
100
AcDbLine
 10
126.4631214283
 20
144.1309732025
 30
0.0
 11
133.9631217263
 21
144.1309732025
 31
0.0
  0
LINE
  5
68
330
1F
100
AcDbEntity
  8
0
  6
Continuous
 62
     7
370
    15
100
AcDbLine
 10
133.9631217263
 20
147.1309727629
 30
0.0
 11
126.4631214283
 21
147.1309727629
 31
0.0
  0
LINE
  5
69
330
1F
100
AcDbEntity
  8
0
  6
Continuous
 62
     7
370
    15
100
AcDbLine
 10
122.0631214521
 20
147.1309727629
 30
0.0
 11
118.6250696621
 21
147.1309727629
 31
0.0
  0
LINE
  5
6A
330
1F
100
AcDbEntity
  8
0
  6
Continuous
 62
     7
370
    15
100
AcDbLine
 10
118.6250696621
 20
147.1309727629
 30
0.0
 11
118.4631238423
 21
146.8504733046
 31
0.0
  0
LINE
  5
6B
330
1F
100
AcDbEntity
  8
0
  6
Continuous
 62
     7
370
    15
100
AcDbLine
 10
118.4631238423
 20
144.4114726608
 30
0.0
 11
118.6250696621
 21
144.1309732025
 31
0.0
  0
LINE
  5
6C
330
1F
100
AcDbEntity
  8
0
  6
Continuous
 62
     7
370
    15
100
AcDbLine
 10
134.4631227396
 20
144.1309732025
 30
0.0
 11
135.2631213806
 21
144.1309732025
 31
0.0
  0
LINE
  5
6D
330
1F
100
AcDbEntity
  8
0
  6
Continuous
 62
     7
370
    15
100
AcDbLine
 10
135.2631213806
 20
147.1309727629
 30
0.0
 11
134.4631227396
 21
147.1309727629
 31
0.0
  0
LINE
  5
6E
330
1F
100
AcDbEntity
  8
0
  6
Continuous
 62
     7
370
    15
100
AcDbLine
 10
135.8881245098
 20
136.3809723978
 30
0.0
 11
138.263123735
 21
136.3809723978
 31
0.0
  0
LINE
  5
6F
330
1F
100
AcDbEntity
  8
0
  6
Continuous
 62
     7
370
    15
100
AcDbLine
 10
138.263123735
 20
140.8809722041
 30
0.0
 11
135.8881245098
 21
140.8809722041
 31
0.0
  0
ARC
  5
70
330
1F
100
AcDbEntity
  8
0
  6
Continuous
 62
     7
370
    15
100
AcDbCircle
 10
135.8881231866
 20
136.5059729432
 30
0.0
 40
0.125
100
AcDbArc
 50
180.0
 51
270.0
  0
ARC
  5
71
330
1F
100
AcDbEntity
  8
0
  6
Continuous
 62
     7
370
    15
100
AcDbCircle
 10
135.8881231866
 20
140.7559729432
 30
0.0
 40
0.1250000000000284
100
AcDbArc
 50
90.0
 51
180.0
  0
LINE
  5
72
330
1F
100
AcDbEntity
  8
0
  6
Continuous
 62
     7
370
    15
100
AcDbLine
 10
135.8881245098
 20
155.3809727182
 30
0.0
 11
138.263123735
 21
155.3809727182
 31
0.0
  0
LINE
  5
73
330
1F
100
AcDbEntity
  8
0
  6
Continuous
 62
     7
370
    15
100
AcDbLine
 10
138.263123735
 20
159.880972932
 30
0.0
 11
135.8881245098
 21
159.880972932
 31
0.0
  0
ARC
  5
74
330
1F
100
AcDbEntity
  8
0
  6
Continuous
 62
     7
370
    15
100
AcDbCircle
 10
135.8881231866
 20
155.5059729432
 30
0.0
 40
0.1250000000000284
100
AcDbArc
 50
180.0
 51
270.0
  0
ARC
  5
75
330
1F
100
AcDbEntity
  8
0
  6
Continuous
 62
     7
370
    15
100
AcDbCircle
 10
135.8881231866
 20
159.7559729432
 30
0.0
 40
0.125
100
AcDbArc
 50
90.0
 51
180.0
  0
LINE
  5
76
330
1F
100
AcDbEntity
  8
0
  6
Continuous
 62
     7
370
    15
100
AcDbLine
 10
167.2631229005
 20
133.4309727525
 30
0.0
 11
167.2631229005
 21
133.3309729224
 31
0.0
  0
LINE
  5
77
330
1F
100
AcDbEntity
  8
0
  6
Continuous
 62
     7
370
    15
100
AcDbLine
 10
172.2631232544
 20
133.3309729224
 30
0.0
 11
172.2631232544
 21
133.4309727525
 31
0.0
  0
LINE
  5
78
330
1F
100
AcDbEntity
  8
0
  6
Continuous
 62
     7
370
    15
100
AcDbLine
 10
128.2631220958
 20
148.6309730088
 30
0.0
 11
126.6631248138
 21
148.6309730088
 31
0.0
  0
LINE
  5
79
330
1F
100
AcDbEntity
  8
0
  6
Continuous
 62
     7
370
    15
100
AcDbLine
 10
126.6631248138
 20
142.6309720253
 30
0.0
 11
128.2631220958
 21
142.6309720253
 31
0.0
  0
LINE
  5
7A
330
1F
100
AcDbEntity
  8
0
  6
Continuous
 62
     7
370
    15
100
AcDbLine
 10
126.4631214283
 20
142.8309735482
 30
0.0
 11
126.6631248138
 21
142.6309720253
 31
0.0
  0
LINE
  5
7B
330
1F
100
AcDbEntity
  8
0
  6
Continuous
 62
     7
370
    15
100
AcDbLine
 10
126.6631248138
 20
148.6309730088
 30
0.0
 11
126.4631214283
 21
148.4309733485
 31
0.0
  0
ARC
  5
7C
330
1F
100
AcDbEntity
  8
0
  6
Continuous
 62
     7
370
    15
100
AcDbCircle
 10
134.7631231866
 20
139.6309729432
 30
0.0
 40
0.5
100
AcDbArc
 50
0.0
 51
90.0
  0
ARC
  5
7D
330
1F
100
AcDbEntity
  8
0
  6
Continuous
 62
     7
370
    15
100
AcDbCircle
 10
134.7631231866
 20
151.6309729432
 30
0.0
 40
0.5
100
AcDbArc
 50
270.0
 51
0.0
  0
LINE
  5
7E
330
1F
100
AcDbEntity
  8
0
  6
Continuous
 62
     7
370
    15
100
AcDbLine
 10
134.7631240926
 20
151.1309724873
 30
0.0
 11
128.5631234489
 21
151.1309724873
 31
0.0
  0
LINE
  5
7F
330
1F
100
AcDbEntity
  8
0
  6
Continuous
 62
     7
370
    15
100
AcDbLine
 10
128.5631234489
 20
140.1309725469
 30
0.0
 11
134.7631240926
 21
140.1309725469
 31
0.0
  0
ARC
  5
80
330
1F
100
AcDbEntity
  8
0
  6
Continuous
 62
     7
370
    15
100
AcDbCircle
 10
128.5631231866
 20
140.4309729432
 30
0.0
 40
0.2999999999999829
100
AcDbArc
 50
180.0
 51
270.0
  0
ARC
  5
81
330
1F
100
AcDbEntity
  8
0
  6
Continuous
 62
     7
370
    15
100
AcDbCircle
 10
128.5631231866
 20
150.8309729432
 30
0.0
 40
0.2999999999999829
100
AcDbArc
 50
90.0
 51
180.0
  0
LINE
  5
82
330
1F
100
AcDbEntity
  8
0
  6
Continuous
 62
     7
370
    15
100
AcDbLine
 10
112.3631248913
 20
141.6309737241
 30
0.0
 11
112.3631248913
 21
149.6309731727
 31
0.0
  0
LINE
  5
83
330
1F
100
AcDbEntity
  8
0
  6
Continuous
 62
     7
370
    15
100
AcDbLine
 10
109.9631215177
 20
148.8858368819
 30
0.0
 11
109.9631215177
 21
149.4809724962
 31
0.0
  0
LINE
  5
84
330
1F
100
AcDbEntity
  8
0
  6
Continuous
 62
     7
370
    15
100
AcDbLine
 10
109.9631215177
 20
141.7809725379
 30
0.0
 11
109.9631215177
 21
148.8858368819
 31
0.0
  0
LINE
  5
85
330
1F
100
AcDbEntity
  8
0
  6
Continuous
 62
     7
370
    15
100
AcDbLine
 10
111.4631245575
 20
148.8858368819
 30
0.0
 11
111.4631245575
 21
149.4809724962
 31
0.0
  0
LINE
  5
86
330
1F
100
AcDbEntity
  8
0
  6
Continuous
 62
     7
370
    15
100
AcDbLine
 10
111.4631245575
 20
141.7809725379
 30
0.0
 11
111.4631245575
 21
148.8858368819
 31
0.0
  0
LINE
  5
87
330
1F
100
AcDbEntity
  8
0
  6
Continuous
 62
     7
370
    15
100
AcDbLine
 10
123.1631214461
 20
152.6309727331
 30
0.0
 11
123.1631214461
 21
160.6309729458
 31
0.0
  0
LINE
  5
88
330
1F
100
AcDbEntity
  8
0
  6
Continuous
 62
     7
370
    15
100
AcDbLine
 10
135.2631213806
 20
155.666191188
 30
0.0
 11
135.2631213806
 21
158.5674645019
 31
0.0
  0
LINE
  5
89
330
1F
100
AcDbEntity
  8
0
  6
Continuous
 62
     7
370
    15
100
AcDbLine
 10
135.2631213806
 20
160.1309729147
 30
0.0
 11
135.2631213806
 21
160.6309729458
 31
0.0
  0
LINE
  5
8A
330
1F
100
AcDbEntity
  8
0
  6
Continuous
 62
     7
370
    15
100
AcDbLine
 10
120.7631217978
 20
159.8858369969
 30
0.0
 11
120.7631217978
 21
160.4809729314
 31
0.0
  0
LINE
  5
8B
330
1F
100
AcDbEntity
  8
0
  6
Continuous
 62
     7
370
    15
100
AcDbLine
 10
120.7631217978
 20
152.7809724783
 30
0.0
 11
120.7631217978
 21
159.8858369969
 31
0.0
  0
LINE
  5
8C
330
1F
100
AcDbEntity
  8
0
  6
Continuous
 62
     7
370
    15
100
AcDbLine
 10
122.2631248377
 20
159.8858369969
 30
0.0
 11
122.2631248377
 21
160.4809729314
 31
0.0
  0
LINE
  5
8D
330
1F
100
AcDbEntity
  8
0
  6
Continuous
 62
     7
370
    15
100
AcDbLine
 10
122.2631248377
 20
152.7809724783
 30
0.0
 11
122.2631248377
 21
159.8858369969
 31
0.0
  0
LINE
  5
8E
330
1F
100
AcDbEntity
  8
0
  6
Continuous
 62
     7
370
    15
100
AcDbLine
 10
176.8631231891
 20
166.6987655324
 30
0.0
 11
176.6631231724
 21
166.6987655324
 31
0.0
  0
LINE
  5
8F
330
1F
100
AcDbEntity
  8
0
  6
Continuous
 62
     7
370
    15
100
AcDbLine
 10
176.6631231724
 20
161.7631804537
 30
0.0
 11
176.8631231891
 21
161.7631804537
 31
0.0
  0
LINE
  5
90
330
1F
100
AcDbEntity
  8
0
  6
Continuous
 62
     7
370
    15
100
AcDbLine
 10
176.9631231866
 20
161.7631804537
 30
0.0
 11
176.8631231891
 21
161.7631804537
 31
0.0
  0
LINE
  5
91
330
1F
100
AcDbEntity
  8
0
  6
Continuous
 62
     7
370
    15
100
AcDbLine
 10
176.8631231891
 20
166.6987655324
 30
0.0
 11
176.8631231891
 21
161.7631804537
 31
0.0
  0
LINE
  5
92
330
1F
100
AcDbEntity
  8
0
  6
Continuous
 62
     7
370
    15
100
AcDbLine
 10
176.8631231891
 20
166.6987655324
 30
0.0
 11
176.9631231866
 21
166.6987655324
 31
0.0
  0
LINE
  5
93
330
1F
100
AcDbEntity
  8
0
  6
Continuous
 62
     7
370
    15
100
AcDbLine
 10
176.8631231891
 20
161.7631804537
 30
0.0
 11
176.6631231724
 21
161.9660226268
 31
0.0
  0
LINE
  5
94
330
1F
100
AcDbEntity
  8
0
  6
Continuous
 62
     7
370
    15
100
AcDbLine
 10
176.6631231724
 20
161.9660226268
 30
0.0
 11
176.6631231724
 21
166.4959234757
 31
0.0
  0
LINE
  5
95
330
1F
100
AcDbEntity
  8
0
  6
Continuous
 62
     7
370
    15
100
AcDbLine
 10
176.6631231724
 20
166.4959234757
 30
0.0
 11
176.8631231891
 21
166.6987655324
 31
0.0
  0
LINE
  5
96
330
1F
100
AcDbEntity
  8
0
  6
Continuous
 62
     7
370
    15
100
AcDbLine
 10
176.6631231724
 20
161.9660226268
 30
0.0
 11
176.6631231724
 21
161.7631804537
 31
0.0
  0
LINE
  5
97
330
1F
100
AcDbEntity
  8
0
  6
Continuous
 62
     7
370
    15
100
AcDbLine
 10
176.6631231724
 20
166.6987655324
 30
0.0
 11
176.6631231724
 21
166.4959234757
 31
0.0
  0
LINE
  5
98
330
1F
100
AcDbEntity
  8
0
  6
Continuous
 62
     7
370
    15
100
AcDbLine
 10
176.9631231866
 20
161.6609729234
 30
0.0
 11
176.9631231866
 21
168.6309725618
 31
0.0
  0
LINE
  5
99
330
1F
100
AcDbEntity
  8
0
  6
Continuous
 62
     7
370
    15
100
AcDbLine
 10
176.9631231866
 20
168.6309725618
 30
0.0
 11
182.7631231128
 21
168.6309725618
 31
0.0
  0
LINE
  5
9A
330
1F
100
AcDbEntity
  8
0
  6
Continuous
 62
     7
370
    15
100
AcDbLine
 10
182.7631231128
 20
168.6309725618
 30
0.0
 11
183.4631233207
 21
168.6309725618
 31
0.0
  0
LINE
  5
9B
330
1F
100
AcDbEntity
  8
0
  6
Continuous
 62
     7
370
    15
100
AcDbLine
 10
183.4631233207
 20
161.6609729234
 30
0.0
 11
183.4631233207
 21
168.6309725618
 31
0.0
  0
LINE
  5
9C
330
1F
100
AcDbEntity
  8
0
  6
Continuous
 62
     7
370
    15
100
AcDbLine
 10
176.9631231866
 20
161.6609729234
 30
0.0
 11
183.4631233207
 21
161.6609729234
 31
0.0
  0
SPLINE
  5
9D
330
1F
100
AcDbEntity
  8
0
  6
Continuous
 62
     7
370
    15
100
AcDbSpline
210
0.0
220
0.0
230
1.0
 70
    24
 71
     3
 72
    17
 73
    13
 74
     0
 42
0.00000001
 43
0.00000001
 12
1.0
 22
0.0
 32
0.0
 13
1.0
 23
0.0
 33
0.0
 40
0.0
 40
0.0
 40
0.0
 40
0.0
 40
0.068532143374323
 40
0.1394266927427966
 40
0.2078983831993019
 40
0.2780897634126174
 40
0.3728588268317872
 40
0.4703305601178549
 40
0.6022144579881111
 40
0.7378007753754199
 40
0.8678654309380083
 40
1.0
 40
1.0
 40
1.0
 40
1.0
 10
183.4631233207136
 20
168.6309725617621
 30
0.0
 10
183.4851519414931
 20
168.6309725617621
 30
0.0
 10
183.5299685427219
 20
168.6309725617621
 30
0.0
 10
183.5945287766357
 20
168.6309725617621
 30
0.0
 10
183.6554215195566
 20
168.6309725617621
 30
0.0
 10
183.7173711536967
 20
168.6309725617621
 30
0.0
 10
183.7783797401233
 20
168.6309725617621
 30
0.0
 10
183.8409084596275
 20
168.6309725617621
 30
0.0
 10
183.8950983690657
 20
168.6309725617621
 30
0.0
 10
183.9349250927885
 20
168.6309725617621
 30
0.0
 10
183.9588411139684
 20
168.6309725617621
 30
0.0
 10
183.9616884803244
 20
168.6309725617621
 30
0.0
 10
183.96312340267
 20
168.6309725617621
 30
0.0
  0
LINE
  5
9E
330
1F
100
AcDbEntity
  8
0
  6
Continuous
 62
     7
370
    15
100
AcDbLine
 10
183.9631234027
 20
168.6309725618
 30
0.0
 11
183.9631234027
 21
161.6609729234
 31
0.0
  0
LINE
  5
9F
330
1F
100
AcDbEntity
  8
0
  6
Continuous
 62
     7
370
    15
100
AcDbLine
 10
183.4631233207
 20
161.6609729234
 30
0.0
 11
183.9631234027
 21
161.6609729234
 31
0.0
  0
LINE
  5
A0
330
1F
100
AcDbEntity
  8
0
  6
Continuous
 62
     7
370
    15
100
AcDbLine
 10
183.9631234027
 20
156.9168300474
 30
0.0
 11
183.9631234027
 21
141.7309735542
 31
0.0
  0
LINE
  5
A1
330
1F
100
AcDbEntity
  8
0
  6
Continuous
 62
     7
370
    15
100
AcDbLine
 10
183.4631233207
 20
141.7309735542
 30
0.0
 11
183.9631234027
 21
141.7309735542
 31
0.0
  0
LINE
  5
A2
330
1F
100
AcDbEntity
  8
0
  6
Continuous
 62
     7
370
    15
100
AcDbLine
 10
183.4631233207
 20
141.7309735542
 30
0.0
 11
183.4631233207
 21
161.6609729234
 31
0.0
  0
LINE
  5
A3
330
1F
100
AcDbEntity
  8
0
  6
Continuous
 62
     7
370
    15
100
AcDbLine
 10
183.9631234027
 20
161.6609729234
 30
0.0
 11
183.9631234027
 21
158.3451158939
 31
0.0
  0
SPLINE
  5
A4
330
1F
100
AcDbEntity
  8
0
  6
Continuous
 62
     7
370
    15
100
AcDbSpline
210
0.0
220
0.0
230
1.0
 70
     8
 71
     3
 72
    15
 73
    11
 74
     0
 42
0.00000001
 43
0.00000001
 12
1.0
 22
0.0
 32
0.0
 13
1.0
 23
0.0
 33
0.0
 40
0.0
 40
0.0
 40
0.0
 40
0.0
 40
0.1283534579934188
 40
0.2575926787020764
 40
0.3889249364628057
 40
0.5208123637054294
 40
0.6394239253405489
 40
0.7584387633377879
 40
0.8788946411754279
 40
0.9999999999999999
 40
0.9999999999999999
 40
0.9999999999999999
 40
0.9999999999999999
 10
183.96312340267
 20
158.345115893856
 30
0.0
 10
183.9626482386815
 20
158.285209589949
 30
0.0
 10
183.9616946316144
 20
158.1649835708311
 30
0.0
 10
183.9577890072366
 20
157.9795005435261
 30
0.0
 10
183.9551177170879
 20
157.7911885141757
 30
0.0
 10
183.95434208566
 20
157.6072715986721
 30
0.0
 10
183.9556299902836
 20
157.4294037103237
 30
0.0
 10
183.9582777970495
 20
157.2577751615502
 30
0.0
 10
183.9618516898404
 20
157.0860192471226
 30
0.0
 10
183.962698739245
 20
156.9733274447044
 30
0.0
 10
183.96312340267
 20
156.9168300473694
 30
0.0
  0
LINE
  5
A5
330
1F
100
AcDbEntity
  8
0
  6
Continuous
 62
     7
370
    15
100
AcDbLine
 10
178.1631232436
 20
137.1309720551
 30
0.0
 11
176.9631231866
 21
137.1309720551
 31
0.0
  0
LINE
  5
A6
330
1F
100
AcDbEntity
  8
0
  6
Continuous
 62
     7
370
    15
100
AcDbLine
 10
176.9631231866
 20
137.1309720551
 30
0.0
 11
176.9631231866
 21
161.6609729234
 31
0.0
  0
LINE
  5
A7
330
1F
100
AcDbEntity
  8
0
  6
Continuous
 62
     7
370
    15
100
AcDbLine
 10
178.1631232436
 20
141.7309735542
 30
0.0
 11
183.4631233207
 21
141.7309735542
 31
0.0
  0
LINE
  5
A8
330
1F
100
AcDbEntity
  8
0
  6
Continuous
 62
     7
370
    15
100
AcDbLine
 10
178.1631232436
 20
137.1309720551
 30
0.0
 11
178.1631232436
 21
141.7309735542
 31
0.0
  0
LINE
  5
A9
330
1F
100
AcDbEntity
  8
0
  6
Continuous
 62
     7
370
    15
100
AcDbLine
 10
183.4631233207
 20
141.7309735542
 30
0.0
 11
183.4631233207
 21
141.2309725409
 31
0.0
  0
LINE
  5
AA
330
1F
100
AcDbEntity
  8
0
  6
Continuous
 62
     7
370
    15
100
AcDbLine
 10
183.4631233207
 20
141.2309725409
 30
0.0
 11
178.1631232436
 21
141.2309725409
 31
0.0
  0
ARC
  5
AB
330
1F
100
AcDbEntity
  8
0
  6
Continuous
 62
     7
370
    15
100
AcDbCircle
 10
183.4631231866
 20
141.7309729432
 30
0.0
 40
0.5
100
AcDbArc
 50
270.0
 51
0.0
  0
LINE
  5
AC
330
1F
100
AcDbEntity
  8
0
  6
Continuous
 62
     7
370
    15
100
AcDbLine
 10
178.1631232436
 20
135.6309727406
 30
0.0
 11
176.9631231866
 21
135.6309727406
 31
0.0
  0
LINE
  5
AD
330
1F
100
AcDbEntity
  8
0
  6
Continuous
 62
     7
370
    15
100
AcDbLine
 10
178.1631232436
 20
135.6309727406
 30
0.0
 11
178.1631232436
 21
137.1309720551
 31
0.0
  0
LINE
  5
AE
330
1F
100
AcDbEntity
  8
0
  6
Continuous
 62
     7
370
    15
100
AcDbLine
 10
184.7190416149
 20
179.0121514922
 30
0.0
 11
183.4890965103
 21
179.0121514922
 31
0.0
  0
ELLIPSE
  5
AF
330
1F
100
AcDbEntity
  8
0
  6
Continuous
 62
     7
370
    15
100
AcDbEllipse
 10
187.8488453495
 20
167.9814439444
 30
0.0
 11
0.4267701419018693
 21
21.99987285750985
 31
0.0
210
0.0
220
0.0
230
1.0
 40
0.1752576726
 41
1.048984838244424
 42
1.507408417812623
  0
ELLIPSE
  5
B0
330
1F
100
AcDbEntity
  8
0
  6
Continuous
 62
     7
370
    15
100
AcDbEllipse
 10
169.8438916781
 20
167.9814439444
 30
0.0
 11
82.10304273517534
 21
21.89069326715185
 31
0.0
210
0.0
220
0.0
230
1.0
 40
0.0266778253
 41
4.872430556656273
 42
4.878902356990684
  0
SPLINE
  5
B1
330
1F
100
AcDbEntity
  8
0
  6
Continuous
 62
     7
370
    15
100
AcDbSpline
210
0.0
220
0.0
230
1.0
 70
     8
 71
     3
 72
    14
 73
    10
 74
     0
 42
0.00000001
 43
0.00000001
 12
1.0
 22
0.0
 32
0.0
 13
1.0
 23
0.0
 33
0.0
 40
0.0
 40
0.0
 40
0.0
 40
0.0
 40
0.1637682903653934
 40
0.3323302355601268
 40
0.4960842085142615
 40
0.6645043877129918
 40
0.8297695291097537
 40
0.999746973838817
 40
1.0
 40
1.0
 40
1.0
 40
1.0
 10
183.5043040766567
 20
169.3075886567686
 30
0.0
 10
183.4516196133259
 20
169.2905125942389
 30
0.0
 10
183.344708561925
 20
169.2558606364619
 30
0.0
 10
183.1989691820393
 20
169.1710492029458
 30
0.0
 10
183.0677570221353
 20
169.0639454251996
 30
0.0
 10
182.9563149317491
 20
168.9369861284157
 30
0.0
 10
182.8693574100783
 20
168.7910126530698
 30
0.0
 10
182.8209402734441
 20
168.6870312522097
 30
0.0
 10
182.8081013279466
 20
168.63105576228
 30
0.0
 10
182.8080822444707
 20
168.6309725617621
 30
0.0
  0
LINE
  5
B2
330
1F
100
AcDbEntity
  8
0
  6
Continuous
 62
     7
370
    15
100
AcDbLine
 10
177.2631232009
 20
168.6309725618
 30
0.0
 11
177.2631232009
 21
170.156964158
 31
0.0
  0
LINE
  5
B3
330
1F
100
AcDbEntity
  8
0
  6
Continuous
 62
     7
370
    15
100
AcDbLine
 10
177.2631232009
 20
170.156964158
 30
0.0
 11
180.2281731936
 21
170.156964158
 31
0.0
  0
SPLINE
  5
B4
330
1F
100
AcDbEntity
  8
0
  6
Continuous
 62
     7
370
    15
100
AcDbSpline
210
0.0
220
0.0
230
1.0
 70
     8
 71
     3
 72
    17
 73
    13
 74
     0
 42
0.00000001
 43
0.00000001
 12
1.0
 22
0.0
 32
0.0
 13
1.0
 23
0.0
 33
0.0
 40
0.0
 40
0.0
 40
0.0
 40
0.0
 40
0.0936608569685745
 40
0.1904103670735253
 40
0.28393587138328
 40
0.3794899899755681
 40
0.4883834325366959
 40
0.5995818541441575
 40
0.7273143574475446
 40
0.8581809502608855
 40
0.9288217599860907
 40
1.0
 40
1.0
 40
1.0
 40
1.0
 10
180.9159416436404
 20
170.6658974861357
 30
0.0
 10
180.9097998161949
 20
170.6377402253491
 30
0.0
 10
180.8973136223222
 20
170.5804971620705
 30
0.0
 10
180.8595822433124
 20
170.5010545789596
 30
0.0
 10
180.8105846668404
 20
170.4277720428837
 30
0.0
 10
180.7487438537724
 20
170.3595150140796
 30
0.0
 10
180.673624560923
 20
170.2971140892315
 30
0.0
 10
180.5818989436672
 20
170.240736900817
 30
0.0
 10
180.4765648730787
 20
170.1954598496976
 30
0.0
 10
180.3776361630495
 20
170.1701491643152
 30
0.0
 10
180.294018282585
 20
170.1586795113274
 30
0.0
 10
180.2501769362659
 20
170.157537385186
 30
0.0
 10
180.2281731936335
 20
170.1569641580436
 30
0.0
  0
ELLIPSE
  5
B5
330
1F
100
AcDbEntity
  8
0
  6
Continuous
 62
     7
370
    15
100
AcDbEllipse
 10
195.9177803804
 20
167.9814439444
 30
0.0
 11
3.141119638754958
 21
21.89333996895053
 31
0.0
210
0.0
220
0.0
230
1.0
 40
0.6888357669
 41
1.144095027381097
 42
1.546980835575719
  0
LINE
  5
B6
330
1F
100
AcDbEntity
  8
0
  6
Continuous
 62
     7
370
    15
100
AcDbLine
 10
184.763122975
 20
170.0901268622
 30
0.0
 11
184.0279760502
 21
169.449680542
 31
0.0
  0
LINE
  5
B7
330
1F
100
AcDbEntity
  8
0
  6
Continuous
 62
     7
370
    15
100
AcDbLine
 10
184.763122975
 20
179.0388096695
 30
0.0
 11
184.7190416149
 21
179.0121514922
 31
0.0
  0
LINE
  5
B8
330
1F
100
AcDbEntity
  8
0
  6
Continuous
 62
     7
370
    15
100
AcDbLine
 10
184.763122975
 20
170.0901268622
 30
0.0
 11
184.763122975
 21
179.0388096695
 31
0.0
  0
LINE
  5
B9
330
1F
100
AcDbEntity
  8
0
  6
Continuous
 62
     7
370
    15
100
AcDbLine
 10
180.9037264168
 20
170.6185089996
 30
0.0
 11
177.2631232009
 21
170.6185089996
 31
0.0
  0
LINE
  5
BA
330
1F
100
AcDbEntity
  8
0
  6
Continuous
 62
     7
370
    15
100
AcDbLine
 10
177.2631232009
 20
170.6185089996
 30
0.0
 11
177.2631232009
 21
170.156964158
 31
0.0
  0
LINE
  5
BB
330
1F
100
AcDbEntity
  8
0
  6
Continuous
 62
     7
370
    15
100
AcDbLine
 10
184.763122975
 20
179.1454461043
 30
0.0
 11
184.763122975
 21
179.0388096695
 31
0.0
  0
LINE
  5
BC
330
1F
100
AcDbEntity
  8
0
  6
Continuous
 62
     7
370
    15
100
AcDbLine
 10
183.4890965103
 20
179.0121514922
 30
0.0
 11
184.763122975
 21
179.1454461043
 31
0.0
  0
LINE
  5
BD
330
1F
100
AcDbEntity
  8
0
  6
Continuous
 62
     7
370
    15
100
AcDbLine
 10
184.0279760502
 20
169.4493182575
 30
0.0
 11
184.763122975
 21
170.0900234853
 31
0.0
  0
ELLIPSE
  5
BE
330
1F
100
AcDbEntity
  8
0
  6
Continuous
 62
     7
370
    15
100
AcDbEllipse
 10
169.8438921564
 20
167.9824619833
 30
0.0
 11
82.10303788592336
 21
21.89056457599628
 31
0.0
210
0.0
220
0.0
230
1.0
 40
0.0266934876
 41
4.872426421430569
 42
4.878898221949915
  0
LINE
  5
BF
330
1F
100
AcDbEntity
  8
0
  6
Continuous
 62
     7
370
    15
100
AcDbLine
 10
184.763122975
 20
170.0900234853
 30
0.0
 11
184.763122975
 21
170.0901268622
 31
0.0
  0
LINE
  5
C0
330
1F
100
AcDbEntity
  8
0
  6
Continuous
 62
     7
370
    15
100
AcDbLine
 10
180.6631231877
 20
136.8066669082
 30
0.0
 11
180.6631231877
 21
136.5059726512
 31
0.0
  0
LINE
  5
C1
330
1F
100
AcDbEntity
  8
0
  6
Continuous
 62
     7
370
    15
100
AcDbLine
 10
180.6631231877
 20
140.7559738135
 30
0.0
 11
180.6631231877
 21
136.8066669082
 31
0.0
  0
LINE
  5
C2
330
1F
100
AcDbEntity
  8
0
  6
Continuous
 62
     7
370
    15
100
AcDbLine
 10
133.9631217263
 20
146.0580425908
 30
0.0
 11
133.9631217263
 21
147.1309727629
 31
0.0
  0
LINE
  5
C3
330
1F
100
AcDbEntity
  8
0
  6
Continuous
 62
     7
370
    15
100
AcDbLine
 10
133.9631217263
 20
144.1309732025
 30
0.0
 11
133.9631217263
 21
146.0580425908
 31
0.0
  0
LINE
  5
C4
330
1F
100
AcDbEntity
  8
0
  6
Continuous
 62
     7
370
    15
100
AcDbLine
 10
118.6250696621
 20
146.0580425908
 30
0.0
 11
118.6250696621
 21
147.1309727629
 31
0.0
  0
LINE
  5
C5
330
1F
100
AcDbEntity
  8
0
  6
Continuous
 62
     7
370
    15
100
AcDbLine
 10
118.6250696621
 20
144.1309732025
 30
0.0
 11
118.6250696621
 21
146.0580425908
 31
0.0
  0
LINE
  5
C6
330
1F
100
AcDbEntity
  8
0
  6
Continuous
 62
     7
370
    15
100
AcDbLine
 10
118.4631238423
 20
145.9781798174
 30
0.0
 11
118.4631238423
 21
146.8504733046
 31
0.0
  0
LINE
  5
C7
330
1F
100
AcDbEntity
  8
0
  6
Continuous
 62
     7
370
    15
100
AcDbLine
 10
118.4631238423
 20
144.4114726608
 30
0.0
 11
118.4631238423
 21
145.9781798174
 31
0.0
  0
LINE
  5
C8
330
1F
100
AcDbEntity
  8
0
  6
Continuous
 62
     7
370
    15
100
AcDbLine
 10
124.4631248257
 20
145.6309725171
 30
0.0
 11
122.3087447426
 21
145.6309725171
 31
0.0
  0
SPLINE
  5
C9
330
1F
100
AcDbEntity
  8
0
  6
Continuous
 62
     7
370
    15
100
AcDbSpline
210
0.0
220
0.0
230
1.0
 70
     8
 71
     3
 72
    10
 73
     6
 74
     0
 42
0.00000001
 43
0.00000001
 12
1.0
 22
0.0
 32
0.0
 13
1.0
 23
0.0
 33
0.0
 40
0.0
 40
0.0
 40
0.0
 40
0.0
 40
0.07001233235508
 40
0.5307440241956519
 40
1.0
 40
1.0
 40
1.0
 40
1.0
 10
122.063121452108
 20
147.005972509608
 30
0.0
 10
122.0634150672344
 20
146.9734167502779
 30
0.0
 10
122.0656408818658
 20
146.726620591139
 30
0.0
 10
122.1192667372528
 20
146.2612613664472
 30
0.0
 10
122.2452006367072
 20
145.8423487205119
 30
0.0
 10
122.3087447426468
 20
145.6309725170586
 30
0.0
  0
SPLINE
  5
CA
330
1F
100
AcDbEntity
  8
0
  6
Continuous
 62
     7
370
    15
100
AcDbSpline
210
0.0
220
0.0
230
1.0
 70
     8
 71
     3
 72
     9
 73
     5
 74
     0
 42
0.00000001
 43
0.00000001
 12
1.0
 22
0.0
 32
0.0
 13
1.0
 23
0.0
 33
0.0
 40
0.0
 40
0.0
 40
0.0
 40
0.0
 40
0.4954577615756385
 40
1.0
 40
1.0
 40
1.0
 40
1.0
 10
122.3087447426468
 20
148.3809725021574
 30
0.0
 10
122.2400936305463
 20
148.1576667054853
 30
0.0
 10
122.1015326523467
 20
147.7069606837206
 30
0.0
 10
122.0760024948956
 20
147.2410460977355
 30
0.0
 10
122.063121452108
 20
147.005972509608
 30
0.0
  0
LINE
  5
CB
330
1F
100
AcDbEntity
  8
0
  6
Continuous
 62
     7
370
    15
100
AcDbLine
 10
124.4631248257
 20
148.3809725022
 30
0.0
 11
122.3087447426
 21
148.3809725022
 31
0.0
  0
LINE
  5
CC
330
1F
100
AcDbEntity
  8
0
  6
Continuous
 62
     7
370
    15
100
AcDbLine
 10
124.4631248257
 20
145.6309725171
 30
0.0
 11
124.4631248257
 21
146.8008459186
 31
0.0
  0
SPLINE
  5
CD
330
1F
100
AcDbEntity
  8
0
  6
Continuous
 62
     7
370
    15
100
AcDbSpline
210
0.0
220
0.0
230
1.0
 70
     8
 71
     3
 72
    13
 73
     9
 74
     0
 42
0.00000001
 43
0.00000001
 12
1.0
 22
0.0
 32
0.0
 13
1.0
 23
0.0
 33
0.0
 40
0.0
 40
0.0
 40
0.0
 40
0.0
 40
0.1340634192304563
 40
0.2683985025141641
 40
0.4501240001695693
 40
0.632394853590455
 40
0.8160264195802205
 40
1.0
 40
1.0
 40
1.0
 40
1.0
 10
122.063121452108
 20
144.2559734558318
 30
0.0
 10
122.0640699520537
 20
144.3183600377067
 30
0.0
 10
122.065968873971
 20
144.4432596206678
 30
0.0
 10
122.0829302402293
 20
144.6522918925961
 30
0.0
 10
122.1144203108806
 20
144.8826767338038
 30
0.0
 10
122.1652562345251
 20
145.1337674859753
 30
0.0
 10
122.2294833902091
 20
145.3836314404378
 30
0.0
 10
122.2823079094485
 20
145.5484743690383
 30
0.0
 10
122.3087447426468
 20
145.6309725170586
 30
0.0
  0
LINE
  5
CE
330
1F
100
AcDbEntity
  8
0
  6
Continuous
 62
     7
370
    15
100
AcDbLine
 10
122.0631214521
 20
144.2559734558
 30
0.0
 11
122.0631214521
 21
147.0059725096
 31
0.0
  0
LINE
  5
CF
330
1F
100
AcDbEntity
  8
0
  6
Continuous
 62
     7
370
    15
100
AcDbLine
 10
124.4631248257
 20
142.880972532
 30
0.0
 11
122.3087447426
 21
142.880972532
 31
0.0
  0
SPLINE
  5
D0
330
1F
100
AcDbEntity
  8
0
  6
Continuous
 62
     7
370
    15
100
AcDbSpline
210
0.0
220
0.0
230
1.0
 70
     8
 71
     3
 72
    13
 73
     9
 74
     0
 42
0.00000001
 43
0.00000001
 12
1.0
 22
0.0
 32
0.0
 13
1.0
 23
0.0
 33
0.0
 40
0.0
 40
0.0
 40
0.0
 40
0.0
 40
0.1285441158778991
 40
0.2571859337687105
 40
0.4415226931301762
 40
0.626323752020187
 40
0.8128144820577182
 40
1.0
 40
1.0
 40
1.0
 40
1.0
 10
122.3087447426468
 20
142.8809725319598
 30
0.0
 10
122.290068146437
 20
142.9385604215585
 30
0.0
 10
122.2527007585714
 20
143.0537799713534
 30
0.0
 10
122.1965221475472
 20
143.2534157452271
 30
0.0
 10
122.1425230385202
 20
143.4803626989749
 30
0.0
 10
122.0978599273849
 20
143.7360844154274
 30
0.0
 10
122.0686541077572
 20
143.9949584437365
 30
0.0
 10
122.0649679552505
 20
144.1688606711879
 30
0.0
 10
122.063121452108
 20
144.2559734558318
 30
0.0
  0
LINE
  5
D1
330
1F
100
AcDbEntity
  8
0
  6
Continuous
 62
     7
370
    15
100
AcDbLine
 10
124.4631248257
 20
145.6309725171
 30
0.0
 11
124.4631248257
 21
144.4610991155
 31
0.0
  0
SPLINE
  5
D2
330
1F
100
AcDbEntity
  8
0
  6
Continuous
 62
     7
370
    15
100
AcDbSpline
210
0.0
220
0.0
230
1.0
 70
    24
 71
     3
 72
    10
 73
     6
 74
     0
 42
0.00000001
 43
0.00000001
 12
1.0
 22
0.0
 32
0.0
 13
1.0
 23
0.0
 33
0.0
 40
0.0
 40
0.0
 40
0.0
 40
0.0
 40
0.0700124678631176
 40
0.5307444184909671
 40
1.0
 40
1.0
 40
1.0
 40
1.0
 10
122.063121452108
 20
148.3809725021574
 30
0.0
 10
122.0634150670699
 20
148.3809725021574
 30
0.0
 10
122.0656408778003
 20
148.3809725021574
 30
0.0
 10
122.119266621513
 20
148.3809725021574
 30
0.0
 10
122.2452006272255
 20
148.3809725021574
 30
0.0
 10
122.3087447426468
 20
148.3809725021574
 30
0.0
  0
LINE
  5
D3
330
1F
100
AcDbEntity
  8
0
  6
Continuous
 62
     7
370
    15
100
AcDbLine
 10
122.0631214521
 20
148.3809725022
 30
0.0
 11
122.0631214521
 21
147.0059725096
 31
0.0
  0
SPLINE
  5
D4
330
1F
100
AcDbEntity
  8
0
  6
Continuous
 62
     7
370
    15
100
AcDbSpline
210
0.0
220
0.0
230
1.0
 70
    24
 71
     3
 72
    11
 73
     7
 74
     0
 42
0.00000001
 43
0.00000001
 12
1.0
 22
0.0
 32
0.0
 13
1.0
 23
0.0
 33
0.0
 40
0.0
 40
0.0
 40
0.0
 40
0.0
 40
0.2472686640211247
 40
0.4953626917232824
 40
0.746874084210522
 40
1.0
 40
1.0
 40
1.0
 40
1.0
 10
122.3087447426468
 20
142.8809725319598
 30
0.0
 10
122.2736346058552
 20
142.8809725319598
 30
0.0
 10
122.2032971373503
 20
142.8809725319598
 30
0.0
 10
122.1261102663223
 20
142.8809725319598
 30
0.0
 10
122.0732134382937
 20
142.8809725319598
 30
0.0
 10
122.0664926149782
 20
142.8809725319598
 30
0.0
 10
122.063121452108
 20
142.8809725319598
 30
0.0
  0
LINE
  5
D5
330
1F
100
AcDbEntity
  8
0
  6
Continuous
 62
     7
370
    15
100
AcDbLine
 10
122.0631214521
 20
144.2559734558
 30
0.0
 11
122.0631214521
 21
142.880972532
 31
0.0
  0
LINE
  5
D6
330
1F
100
AcDbEntity
  8
0
  6
Continuous
 62
     7
370
    15
100
AcDbLine
 10
134.4631227396
 20
147.1309727629
 30
0.0
 11
134.4631227396
 21
144.1309732025
 31
0.0
  0
LINE
  5
D7
330
1F
100
AcDbEntity
  8
0
  6
Continuous
 62
     7
370
    15
100
AcDbLine
 10
135.7631223939
 20
140.7559738135
 30
0.0
 11
135.7631223939
 21
136.5059726512
 31
0.0
  0
LINE
  5
D8
330
1F
100
AcDbEntity
  8
0
  6
Continuous
 62
     7
370
    15
100
AcDbLine
 10
135.7631223939
 20
158.6934729119
 30
0.0
 11
135.7631223939
 21
159.7559729697
 31
0.0
  0
LINE
  5
D9
330
1F
100
AcDbEntity
  8
0
  6
Continuous
 62
     7
370
    15
100
AcDbLine
 10
135.7631223939
 20
155.5059729715
 30
0.0
 11
135.7631223939
 21
158.6934729119
 31
0.0
  0
LINE
  5
DA
330
1F
100
AcDbEntity
  8
0
  6
Continuous
 62
     7
370
    15
100
AcDbLine
 10
126.4631214283
 20
147.6309728449
 30
0.0
 11
124.4631248257
 21
147.6309728449
 31
0.0
  0
LINE
  5
DB
330
1F
100
AcDbEntity
  8
0
  6
Continuous
 62
     7
370
    15
100
AcDbLine
 10
124.4631248257
 20
151.6309725692
 30
0.0
 11
126.4631214283
 21
151.6309725692
 31
0.0
  0
LINE
  5
DC
330
1F
100
AcDbEntity
  8
0
  6
Continuous
 62
     7
370
    15
100
AcDbLine
 10
124.4631248257
 20
147.6309728449
 30
0.0
 11
124.4631248257
 21
151.6309725692
 31
0.0
  0
LINE
  5
DD
330
1F
100
AcDbEntity
  8
0
  6
Continuous
 62
     7
370
    15
100
AcDbLine
 10
126.4631214283
 20
151.6309725692
 30
0.0
 11
126.4631214283
 21
147.6309728449
 31
0.0
  0
ARC
  5
DE
330
1F
100
AcDbEntity
  8
0
  6
Continuous
 62
     7
370
    15
100
AcDbCircle
 10
127.4631231866
 20
134.3309729432
 30
0.0
 40
1.0
100
AcDbArc
 50
180.0
 51
270.0
  0
LINE
  5
DF
330
1F
100
AcDbEntity
  8
0
  6
Continuous
 62
     7
370
    15
100
AcDbLine
 10
173.9631231605
 20
131.3309725945
 30
0.0
 11
173.9631231605
 21
133.3309729224
 31
0.0
  0
LINE
  5
E0
330
1F
100
AcDbEntity
  8
0
  6
Continuous
 62
     7
370
    15
100
AcDbLine
 10
173.9631231605
 20
131.3309725945
 30
0.0
 11
127.4631234548
 21
131.3309725945
 31
0.0
  0
ARC
  5
E1
330
1F
100
AcDbEntity
  8
0
  6
Continuous
 62
     7
370
    15
100
AcDbCircle
 10
127.4631231866
 20
134.3309729432
 30
0.0
 40
3.0
100
AcDbArc
 50
180.0
 51
270.0
  0
LINE
  5
E2
330
1F
100
AcDbEntity
  8
0
  6
Continuous
 62
     7
370
    15
100
AcDbLine
 10
173.9631231605
 20
133.3309729224
 30
0.0
 11
127.4631234548
 21
133.3309729224
 31
0.0
  0
LINE
  5
E3
330
1F
100
AcDbEntity
  8
0
  6
Continuous
 62
     7
370
    15
100
AcDbLine
 10
124.4631248257
 20
134.3309730863
 30
0.0
 11
124.4631248257
 21
144.4610991155
 31
0.0
  0
LINE
  5
E4
330
1F
100
AcDbEntity
  8
0
  6
Continuous
 62
     7
370
    15
100
AcDbLine
 10
124.4631248257
 20
146.8008459186
 30
0.0
 11
124.4631248257
 21
147.6309728449
 31
0.0
  0
LINE
  5
E5
330
1F
100
AcDbEntity
  8
0
  6
Continuous
 62
     7
370
    15
100
AcDbLine
 10
126.4631214283
 20
147.6309728449
 30
0.0
 11
126.4631214283
 21
134.3309730863
 31
0.0
  0
LINE
  5
E6
330
1F
100
AcDbEntity
  8
0
  6
Continuous
 62
     7
370
    15
100
AcDbLine
 10
174.4631232425
 20
133.3309729224
 30
0.0
 11
174.4631232425
 21
131.3309725945
 31
0.0
  0
LINE
  5
E7
330
1F
100
AcDbEntity
  8
0
  6
Continuous
 62
     7
370
    15
100
AcDbLine
 10
173.9631231605
 20
133.3309729224
 30
0.0
 11
174.4631232425
 21
133.3309729224
 31
0.0
  0
LINE
  5
E8
330
1F
100
AcDbEntity
  8
0
  6
Continuous
 62
     7
370
    15
100
AcDbLine
 10
164.4631230003
 20
128.8309731161
 30
0.0
 11
129.4631237826
 21
128.8309731161
 31
0.0
  0
LINE
  5
E9
330
1F
100
AcDbEntity
  8
0
  6
Continuous
 62
     7
370
    15
100
AcDbLine
 10
129.4631237826
 20
128.8309731161
 30
0.0
 11
129.4631237826
 21
131.3309725945
 31
0.0
  0
LINE
  5
EA
330
1F
100
AcDbEntity
  8
0
  6
Continuous
 62
     7
370
    15
100
AcDbLine
 10
164.4631230003
 20
128.8309731161
 30
0.0
 11
164.4631230003
 21
131.3309725945
 31
0.0
  0
LINE
  5
EB
330
1F
100
AcDbEntity
  8
0
  6
Continuous
 62
     7
370
    15
100
AcDbLine
 10
175.2631231641
 20
133.4309727525
 30
0.0
 11
175.2631231641
 21
135.7309725707
 31
0.0
  0
LINE
  5
EC
330
1F
100
AcDbEntity
  8
0
  6
Continuous
 62
     7
370
    15
100
AcDbLine
 10
175.2631231641
 20
133.4309727525
 30
0.0
 11
164.2631233401
 21
133.4309727525
 31
0.0
  0
LINE
  5
ED
330
1F
100
AcDbEntity
  8
0
  6
Continuous
 62
     7
370
    15
100
AcDbLine
 10
164.2631233401
 20
133.4309727525
 30
0.0
 11
164.2631233401
 21
135.7309725707
 31
0.0
  0
LINE
  5
EE
330
1F
100
AcDbEntity
  8
0
  6
Continuous
 62
     7
370
    15
100
AcDbLine
 10
173.6361064679
 20
135.7309725707
 30
0.0
 11
165.8901401526
 21
135.7309725707
 31
0.0
  0
LINE
  5
EF
330
1F
100
AcDbEntity
  8
0
  6
Continuous
 62
     7
370
    15
100
AcDbLine
 10
176.9631231866
 20
157.6309728542
 30
0.0
 11
175.7631231296
 21
157.6309728542
 31
0.0
  0
ARC
  5
F0
330
1F
100
AcDbEntity
  8
0
  6
Continuous
 62
     7
370
    15
100
AcDbCircle
 10
175.9631231866
 20
131.1309729432
 30
0.0
 40
1.0
100
AcDbArc
 50
270.0
 51
0.0
  0
LINE
  5
F1
330
1F
100
AcDbEntity
  8
0
  6
Continuous
 62
     7
370
    15
100
AcDbLine
 10
167.963123574
 20
131.3309725945
 30
0.0
 11
167.963123574
 21
130.1309727704
 31
0.0
  0
LINE
  5
F2
330
1F
100
AcDbEntity
  8
0
  6
Continuous
 62
     7
370
    15
100
AcDbLine
 10
167.963123574
 20
131.3309725945
 30
0.0
 11
174.7631231985
 21
131.3309725945
 31
0.0
  0
ARC
  5
F3
330
1F
100
AcDbEntity
  8
0
  6
Continuous
 62
     7
370
    15
100
AcDbCircle
 10
174.7631231866
 20
132.3309729432
 30
0.0
 40
1.0
100
AcDbArc
 50
270.0
 51
0.0
  0
LINE
  5
F4
330
1F
100
AcDbEntity
  8
0
  6
Continuous
 62
     7
370
    15
100
AcDbLine
 10
167.963123574
 20
130.1309727704
 30
0.0
 11
175.9631231391
 21
130.1309727704
 31
0.0
  0
LINE
  5
F5
330
1F
100
AcDbEntity
  8
0
  6
Continuous
 62
     7
370
    15
100
AcDbLine
 10
176.9631231866
 20
131.1309729343
 30
0.0
 11
176.9631231866
 21
157.6309728542
 31
0.0
  0
LINE
  5
F6
330
1F
100
AcDbEntity
  8
0
  6
Continuous
 62
     7
370
    15
100
AcDbLine
 10
175.7631231296
 20
132.3309727585
 30
0.0
 11
175.7631231296
 21
157.6309728542
 31
0.0
  0
LINE
  5
F7
330
1F
100
AcDbEntity
  8
0
  6
Continuous
 62
     7
370
    15
100
AcDbLine
 10
166.9631234101
 20
130.1309727704
 30
0.0
 11
166.9631234101
 21
131.3309725945
 31
0.0
  0
LINE
  5
F8
330
1F
100
AcDbEntity
  8
0
  6
Continuous
 62
     7
370
    15
100
AcDbLine
 10
167.963123574
 20
130.1309727704
 30
0.0
 11
166.9631234101
 21
130.1309727704
 31
0.0
  0
LINE
  5
F9
330
1F
100
AcDbEntity
  8
0
  6
Continuous
 62
     7
370
    15
100
AcDbLine
 10
175.7631231296
 20
160.6309729458
 30
0.0
 11
176.9631231866
 21
160.6309729458
 31
0.0
  0
LINE
  5
FA
330
1F
100
AcDbEntity
  8
0
  6
Continuous
 62
     7
370
    15
100
AcDbLine
 10
175.7631231296
 20
138.7309730624
 30
0.0
 11
148.7631226621
 21
138.7309730624
 31
0.0
  0
LINE
  5
FB
330
1F
100
AcDbEntity
  8
0
  6
Continuous
 62
     7
370
    15
100
AcDbLine
 10
175.7631231296
 20
135.7309725707
 30
0.0
 11
173.6361064679
 21
135.7309725707
 31
0.0
  0
LINE
  5
FC
330
1F
100
AcDbEntity
  8
0
  6
Continuous
 62
     7
370
    15
100
AcDbLine
 10
165.8901401526
 20
135.7309725707
 30
0.0
 11
148.7631226621
 21
135.7309725707
 31
0.0
  0
LINE
  5
FD
330
1F
100
AcDbEntity
  8
0
  6
Continuous
 62
     7
370
    15
100
AcDbLine
 10
148.7631226621
 20
138.7309730624
 30
0.0
 11
148.7631226621
 21
135.7309725707
 31
0.0
  0
LINE
  5
FE
330
1F
100
AcDbEntity
  8
0
  6
Continuous
 62
     7
370
    15
100
AcDbLine
 10
175.7631231296
 20
160.7309729432
 30
0.0
 11
148.7631226621
 21
160.7309729432
 31
0.0
  0
LINE
  5
FF
330
1F
100
AcDbEntity
  8
0
  6
Continuous
 62
     7
370
    15
100
AcDbLine
 10
175.7631231296
 20
157.7309729172
 30
0.0
 11
148.7631226621
 21
157.7309729172
 31
0.0
  0
LINE
  5
100
330
1F
100
AcDbEntity
  8
0
  6
Continuous
 62
     7
370
    15
100
AcDbLine
 10
148.7631226621
 20
160.7309729432
 30
0.0
 11
148.7631226621
 21
157.7309729172
 31
0.0
  0
LINE
  5
101
330
1F
100
AcDbEntity
  8
0
  6
Continuous
 62
     7
370
    15
100
AcDbLine
 10
175.7631231296
 20
160.7309729432
 30
0.0
 11
175.7631231296
 21
157.7309729172
 31
0.0
  0
LINE
  5
102
330
1F
100
AcDbEntity
  8
0
  6
Continuous
 62
     7
370
    15
100
AcDbLine
 10
148.7631226621
 20
157.7309729172
 30
0.0
 11
148.7631226621
 21
138.7309730624
 31
0.0
  0
LINE
  5
103
330
1F
100
AcDbEntity
  8
0
  6
Continuous
 62
     7
370
    15
100
AcDbLine
 10
175.7631231296
 20
157.7309729172
 30
0.0
 11
175.7631231296
 21
138.7309730624
 31
0.0
  0
LINE
  5
104
330
1F
100
AcDbEntity
  8
0
  6
Continuous
 62
     7
370
    15
100
AcDbLine
 10
148.7631226621
 20
160.1309729147
 30
0.0
 11
148.2631235114
 21
160.1309729147
 31
0.0
  0
LINE
  5
105
330
1F
100
AcDbEntity
  8
0
  6
Continuous
 62
     7
370
    15
100
AcDbLine
 10
148.7631226621
 20
157.1309730051
 30
0.0
 11
148.2631235114
 21
157.1309730051
 31
0.0
  0
LINE
  5
106
330
1F
100
AcDbEntity
  8
0
  6
Continuous
 62
     7
370
    15
100
AcDbLine
 10
148.7631226621
 20
139.1309723829
 30
0.0
 11
148.2631235114
 21
139.1309723829
 31
0.0
  0
LINE
  5
107
330
1F
100
AcDbEntity
  8
0
  6
Continuous
 62
     7
370
    15
100
AcDbLine
 10
148.7631226621
 20
136.1309737539
 30
0.0
 11
148.2631235114
 21
136.1309737539
 31
0.0
  0
LINE
  5
108
330
1F
100
AcDbEntity
  8
0
  6
Continuous
 62
     7
370
    15
100
AcDbLine
 10
148.2631235114
 20
135.6309727406
 30
0.0
 11
146.2631231836
 21
135.6309727406
 31
0.0
  0
LINE
  5
109
330
1F
100
AcDbEntity
  8
0
  6
Continuous
 62
     7
370
    15
100
AcDbLine
 10
146.2631231836
 20
135.6309727406
 30
0.0
 11
146.2631231836
 21
138.6309732323
 31
0.0
  0
LINE
  5
10A
330
1F
100
AcDbEntity
  8
0
  6
Continuous
 62
     7
370
    15
100
AcDbLine
 10
146.2631231836
 20
138.6309732323
 30
0.0
 11
148.2631235114
 21
138.6309732323
 31
0.0
  0
LINE
  5
10B
330
1F
100
AcDbEntity
  8
0
  6
Continuous
 62
     7
370
    15
100
AcDbLine
 10
148.2631235114
 20
138.6309732323
 30
0.0
 11
148.2631235114
 21
135.6309727406
 31
0.0
  0
LINE
  5
10C
330
1F
100
AcDbEntity
  8
0
  6
Continuous
 62
     7
370
    15
100
AcDbLine
 10
148.2631235114
 20
157.6309728542
 30
0.0
 11
146.2631231836
 21
157.6309728542
 31
0.0
  0
LINE
  5
10D
330
1F
100
AcDbEntity
  8
0
  6
Continuous
 62
     7
370
    15
100
AcDbLine
 10
148.2631235114
 20
157.6309728542
 30
0.0
 11
148.2631235114
 21
138.6309732323
 31
0.0
  0
LINE
  5
10E
330
1F
100
AcDbEntity
  8
0
  6
Continuous
 62
     7
370
    15
100
AcDbLine
 10
146.2631231836
 20
157.6309728542
 30
0.0
 11
146.2631231836
 21
138.6309732323
 31
0.0
  0
LINE
  5
10F
330
1F
100
AcDbEntity
  8
0
  6
Continuous
 62
     7
370
    15
100
AcDbLine
 10
146.2631231836
 20
160.6309729458
 30
0.0
 11
148.2631235114
 21
160.6309729458
 31
0.0
  0
LINE
  5
110
330
1F
100
AcDbEntity
  8
0
  6
Continuous
 62
     7
370
    15
100
AcDbLine
 10
148.2631235114
 20
160.6309729458
 30
0.0
 11
148.2631235114
 21
157.6309728542
 31
0.0
  0
LINE
  5
111
330
1F
100
AcDbEntity
  8
0
  6
Continuous
 62
     7
370
    15
100
AcDbLine
 10
146.2631231836
 20
157.6309728542
 30
0.0
 11
146.2631231836
 21
160.6309729458
 31
0.0
  0
LINE
  5
112
330
1F
100
AcDbEntity
  8
0
  6
Continuous
 62
     7
370
    15
100
AcDbLine
 10
126.6631248138
 20
148.6309730088
 30
0.0
 11
126.6631248138
 21
147.1309727629
 31
0.0
  0
LINE
  5
113
330
1F
100
AcDbEntity
  8
0
  6
Continuous
 62
     7
370
    15
100
AcDbLine
 10
126.6631248138
 20
144.1309732025
 30
0.0
 11
126.6631248138
 21
142.6309720253
 31
0.0
  0
LINE
  5
114
330
1F
100
AcDbEntity
  8
0
  6
Continuous
 62
     7
370
    15
100
AcDbLine
 10
135.2631213806
 20
142.1309728747
 30
0.0
 11
135.2631213806
 21
142.6309720253
 31
0.0
  0
LINE
  5
115
330
1F
100
AcDbEntity
  8
0
  6
Continuous
 62
     7
370
    15
100
AcDbLine
 10
135.2631213806
 20
142.6309720253
 30
0.0
 11
135.7631223939
 21
142.6309720253
 31
0.0
  0
LINE
  5
116
330
1F
100
AcDbEntity
  8
0
  6
Continuous
 62
     7
370
    15
100
AcDbLine
 10
135.7631223939
 20
142.6309720253
 30
0.0
 11
135.7631223939
 21
141.6309737241
 31
0.0
  0
ARC
  5
117
330
1F
100
AcDbEntity
  8
0
  6
Continuous
 62
     7
370
    15
100
AcDbCircle
 10
135.7631231866
 20
142.1309729432
 30
0.0
 40
0.5
100
AcDbArc
 50
180.0
 51
270.0
  0
LINE
  5
118
330
1F
100
AcDbEntity
  8
0
  6
Continuous
 62
     7
370
    15
100
AcDbLine
 10
135.2631213806
 20
142.6309720253
 30
0.0
 11
135.2631213806
 21
153.630972897
 31
0.0
  0
LINE
  5
119
330
1F
100
AcDbEntity
  8
0
  6
Continuous
 62
     7
370
    15
100
AcDbLine
 10
135.2631213806
 20
153.630972897
 30
0.0
 11
135.7631223939
 21
153.630972897
 31
0.0
  0
LINE
  5
11A
330
1F
100
AcDbEntity
  8
0
  6
Continuous
 62
     7
370
    15
100
AcDbLine
 10
135.7631223939
 20
153.630972897
 30
0.0
 11
135.7631223939
 21
142.6309720253
 31
0.0
  0
LINE
  5
11B
330
1F
100
AcDbEntity
  8
0
  6
Continuous
 62
     7
370
    15
100
AcDbLine
 10
146.2631231836
 20
135.6309727406
 30
0.0
 11
138.7631247482
 21
135.6309727406
 31
0.0
  0
LINE
  5
11C
330
1F
100
AcDbEntity
  8
0
  6
Continuous
 62
     7
370
    15
100
AcDbLine
 10
138.7631247482
 20
138.6309732323
 30
0.0
 11
138.7631247482
 21
135.6309727406
 31
0.0
  0
LINE
  5
11D
330
1F
100
AcDbEntity
  8
0
  6
Continuous
 62
     7
370
    15
100
AcDbLine
 10
138.7631247482
 20
138.6309732323
 30
0.0
 11
146.2631231836
 21
138.6309732323
 31
0.0
  0
LINE
  5
11E
330
1F
100
AcDbEntity
  8
0
  6
Continuous
 62
     7
370
    15
100
AcDbLine
 10
138.7631247482
 20
157.6309728542
 30
0.0
 11
138.7631247482
 21
153.630972897
 31
0.0
  0
LINE
  5
11F
330
1F
100
AcDbEntity
  8
0
  6
Continuous
 62
     7
370
    15
100
AcDbLine
 10
146.2631231836
 20
157.6309728542
 30
0.0
 11
138.7631247482
 21
157.6309728542
 31
0.0
  0
LINE
  5
120
330
1F
100
AcDbEntity
  8
0
  6
Continuous
 62
     7
370
    15
100
AcDbLine
 10
138.7631247482
 20
142.6309720253
 30
0.0
 11
138.7631247482
 21
138.6309732323
 31
0.0
  0
LINE
  5
121
330
1F
100
AcDbEntity
  8
0
  6
Continuous
 62
     7
370
    15
100
AcDbLine
 10
135.7631223939
 20
142.6309720253
 30
0.0
 11
138.7631247482
 21
142.6309720253
 31
0.0
  0
LINE
  5
122
330
1F
100
AcDbEntity
  8
0
  6
Continuous
 62
     7
370
    15
100
AcDbLine
 10
138.7631247482
 20
153.630972897
 30
0.0
 11
135.7631223939
 21
153.630972897
 31
0.0
  0
LINE
  5
123
330
1F
100
AcDbEntity
  8
0
  6
Continuous
 62
     7
370
    15
100
AcDbLine
 10
138.7631247482
 20
138.6309732323
 30
0.0
 11
138.263123735
 21
138.6309732323
 31
0.0
  0
LINE
  5
124
330
1F
100
AcDbEntity
  8
0
  6
Continuous
 62
     7
370
    15
100
AcDbLine
 10
138.263123735
 20
138.6309732323
 30
0.0
 11
138.263123735
 21
141.7649482017
 31
0.0
  0
SPLINE
  5
125
330
1F
100
AcDbEntity
  8
0
  6
Continuous
 62
     7
370
    15
100
AcDbSpline
210
0.0
220
0.0
230
1.0
 70
     8
 71
     3
 72
    22
 73
    18
 74
     0
 42
0.00000001
 43
0.00000001
 12
1.0
 22
0.0
 32
0.0
 13
1.0
 23
0.0
 33
0.0
 40
0.0
 40
0.0
 40
0.0
 40
0.0
 40
0.0531573751681059
 40
0.106919585131563
 40
0.1623584480269577
 40
0.2182767903694417
 40
0.2818433195119308
 40
0.345902281050205
 40
0.4112878531405628
 40
0.4770428786418636
 40
0.5665698549526068
 40
0.6567815767930827
 40
0.7488921869522825
 40
0.8415668640896888
 40
0.9179561439332663
 40
0.9946279761936625
 40
1.0
 40
1.0
 40
1.0
 40
1.0
 10
138.2631237349659
 20
141.7649482017014
 30
0.0
 10
138.2636901736149
 20
141.7757131910293
 30
0.0
 10
138.2648294959605
 20
141.7973656557953
 30
0.0
 10
138.2735132522924
 20
141.8342246395237
 30
0.0
 10
138.2867406442571
 20
141.8741836987635
 30
0.0
 10
138.3053502131757
 20
141.9190763410564
 30
0.0
 10
138.3291182596242
 20
141.9685180948825
 30
0.0
 10
138.3580830976104
 20
142.0226614182428
 30
0.0
 10
138.390724925854
 20
142.0792085560152
 30
0.0
 10
138.4307498293091
 20
142.1447878542427
 30
0.0
 10
138.4786491407052
 20
142.2195181760823
 30
0.0
 10
138.5348975661389
 20
142.3039236393039
 30
0.0
 10
138.5942010786739
 20
142.390537661015
 30
0.0
 10
138.6521078547671
 20
142.4736096804818
 30
0.0
 10
138.7074136428028
 20
142.5521704217884
 30
0.0
 10
138.7433016892228
 20
142.6029662626441
 30
0.0
 10
138.7619065491586
 20
142.6292509693288
 30
0.0
 10
138.7631247482448
 20
142.6309720253203
 30
0.0
  0
LINE
  5
126
330
1F
100
AcDbEntity
  8
0
  6
Continuous
 62
     7
370
    15
100
AcDbLine
 10
138.7631247482
 20
160.6309729458
 30
0.0
 11
138.7631247482
 21
157.6309728542
 31
0.0
  0
LINE
  5
127
330
1F
100
AcDbEntity
  8
0
  6
Continuous
 62
     7
370
    15
100
AcDbLine
 10
138.7631247482
 20
160.6309729458
 30
0.0
 11
146.2631231836
 21
160.6309729458
 31
0.0
  0
LINE
  5
128
330
1F
100
AcDbEntity
  8
0
  6
Continuous
 62
     7
370
    15
100
AcDbLine
 10
138.263123735
 20
141.6309737241
 30
0.0
 11
135.7631223939
 21
141.6309737241
 31
0.0
  0
LINE
  5
129
330
1F
100
AcDbEntity
  8
0
  6
Continuous
 62
     7
370
    15
100
AcDbLine
 10
138.263123735
 20
157.6309728542
 30
0.0
 11
138.263123735
 21
160.1309729147
 31
0.0
  0
ARC
  5
12A
330
1F
100
AcDbEntity
  8
0
  6
Continuous
 62
     7
370
    15
100
AcDbCircle
 10
138.7631231866
 20
160.1309729432
 30
0.0
 40
0.5
100
AcDbArc
 50
90.0
 51
180.0
  0
LINE
  5
12B
330
1F
100
AcDbEntity
  8
0
  6
Continuous
 62
     7
370
    15
100
AcDbLine
 10
138.263123735
 20
157.6309728542
 30
0.0
 11
138.7631247482
 21
157.6309728542
 31
0.0
  0
ARC
  5
12C
330
1F
100
AcDbEntity
  8
0
  6
Continuous
 62
     7
370
    15
100
AcDbCircle
 10
138.7631231866
 20
136.1309729432
 30
0.0
 40
0.5
100
AcDbArc
 50
180.0
 51
270.0
  0
LINE
  5
12D
330
1F
100
AcDbEntity
  8
0
  6
Continuous
 62
     7
370
    15
100
AcDbLine
 10
138.263123735
 20
136.1309737539
 30
0.0
 11
138.263123735
 21
138.6309732323
 31
0.0
  0
LINE
  5
12E
330
1F
100
AcDbEntity
  8
0
  6
Continuous
 62
     7
370
    15
100
AcDbLine
 10
135.2631213806
 20
153.630972897
 30
0.0
 11
135.2631213806
 21
154.130972979
 31
0.0
  0
ARC
  5
12F
330
1F
100
AcDbEntity
  8
0
  6
Continuous
 62
     7
370
    15
100
AcDbCircle
 10
135.7631231866
 20
154.1309729432
 30
0.0
 40
0.5
100
AcDbArc
 50
90.0
 51
180.0
  0
LINE
  5
130
330
1F
100
AcDbEntity
  8
0
  6
Continuous
 62
     7
370
    15
100
AcDbLine
 10
135.7631223939
 20
154.630973061
 30
0.0
 11
135.7631223939
 21
153.630972897
 31
0.0
  0
LINE
  5
131
330
1F
100
AcDbEntity
  8
0
  6
Continuous
 62
     7
370
    15
100
AcDbLine
 10
138.263123735
 20
154.4969981176
 30
0.0
 11
138.263123735
 21
157.6309728542
 31
0.0
  0
SPLINE
  5
132
330
1F
100
AcDbEntity
  8
0
  6
Continuous
 62
     7
370
    15
100
AcDbSpline
210
0.0
220
0.0
230
1.0
 70
     8
 71
     3
 72
    22
 73
    18
 74
     0
 42
0.00000001
 43
0.00000001
 12
1.0
 22
0.0
 32
0.0
 13
1.0
 23
0.0
 33
0.0
 40
0.0
 40
0.0
 40
0.0
 40
0.0
 40
0.005372681684137
 40
0.0817638043037919
 40
0.1584338211807563
 40
0.2481411609912789
 40
0.3383527698152717
 40
0.4303065095848637
 40
0.522958407007465
 40
0.586693835262057
 40
0.6507534091038729
 40
0.7159896547625483
 40
0.7817233707954082
 40
0.8350903309273363
 40
0.8888561914009483
 40
0.9441095863160616
 40
1.0
 40
1.0
 40
1.0
 40
1.0
 10
138.7631247482448
 20
153.6309728970382
 30
0.0
 10
138.7619065548733
 20
153.6326942677384
 30
0.0
 10
138.74336755884
 20
153.6588908349905
 30
0.0
 10
138.7074760870651
 20
153.7096840758836
 30
0.0
 10
138.6528380235993
 20
153.7872983377934
 30
0.0
 10
138.5959341544569
 20
153.8689171038051
 30
0.0
 10
138.5372227739643
 20
153.9545856349643
 30
0.0
 10
138.4802384069291
 20
154.0399812202151
 30
0.0
 10
138.4317103728686
 20
154.1156151267586
 30
0.0
 10
138.3916877028045
 20
154.1811481736804
 30
0.0
 10
138.3592909441828
 20
154.2371301522726
 30
0.0
 10
138.3298620721133
 20
154.2919262631552
 30
0.0
 10
138.3059122183268
 20
154.3416249213586
 30
0.0
 10
138.2874351452277
 20
154.3860351614957
 30
0.0
 10
138.2741631249262
 20
154.4254808367448
 30
0.0
 10
138.2649941953964
 20
154.4631188703979
 30
0.0
 10
138.2637495995691
 20
154.4856619667742
 30
0.0
 10
138.2631237349659
 20
154.496998117641
 30
0.0
  0
LINE
  5
133
330
1F
100
AcDbEntity
  8
0
  6
Continuous
 62
     7
370
    15
100
AcDbLine
 10
135.7631223939
 20
154.630973061
 30
0.0
 11
138.263123735
 21
154.630973061
 31
0.0
  0
LINE
  5
134
330
1F
100
AcDbEntity
  8
0
  6
Continuous
 62
     7
370
    15
100
AcDbLine
 10
135.2631213806
 20
139.1309723829
 30
0.0
 11
135.7631223939
 21
139.1309723829
 31
0.0
  0
LINE
  5
135
330
1F
100
AcDbEntity
  8
0
  6
Continuous
 62
     7
370
    15
100
AcDbLine
 10
135.2631213806
 20
139.1309723829
 30
0.0
 11
135.2631213806
 21
142.1309728747
 31
0.0
  0
LINE
  5
136
330
1F
100
AcDbEntity
  8
0
  6
Continuous
 62
     7
370
    15
100
AcDbLine
 10
135.2631213806
 20
157.1309730051
 30
0.0
 11
135.7631223939
 21
157.1309730051
 31
0.0
  0
LINE
  5
137
330
1F
100
AcDbEntity
  8
0
  6
Continuous
 62
     7
370
    15
100
AcDbLine
 10
135.2631213806
 20
154.130972979
 30
0.0
 11
135.2631213806
 21
155.666191188
 31
0.0
  0
LINE
  5
138
330
1F
100
AcDbEntity
  8
0
  6
Continuous
 62
     7
370
    15
100
AcDbLine
 10
128.2631220958
 20
147.1309727629
 30
0.0
 11
128.2631220958
 21
150.8309729969
 31
0.0
  0
LINE
  5
139
330
1F
100
AcDbEntity
  8
0
  6
Continuous
 62
     7
370
    15
100
AcDbLine
 10
128.2631220958
 20
140.4309720372
 30
0.0
 11
128.2631220958
 21
144.1309732025
 31
0.0
  0
LINE
  5
13A
330
1F
100
AcDbEntity
  8
0
  6
Continuous
 62
     7
370
    15
100
AcDbLine
 10
135.2631213806
 20
136.6309729045
 30
0.0
 11
135.7631223939
 21
136.6309729045
 31
0.0
  0
LINE
  5
13B
330
1F
100
AcDbEntity
  8
0
  6
Continuous
 62
     7
370
    15
100
AcDbLine
 10
135.2631213806
 20
136.6309729045
 30
0.0
 11
135.2631213806
 21
139.1309723829
 31
0.0
  0
LINE
  5
13C
330
1F
100
AcDbEntity
  8
0
  6
Continuous
 62
     7
370
    15
100
AcDbLine
 10
135.7631223939
 20
159.6309729492
 30
0.0
 11
135.2631213806
 21
159.6309729492
 31
0.0
  0
LINE
  5
13D
330
1F
100
AcDbEntity
  8
0
  6
Continuous
 62
     7
370
    15
100
AcDbLine
 10
135.2631213806
 20
158.5674645019
 30
0.0
 11
135.2631213806
 21
159.6309729492
 31
0.0
  0
ARC
  5
13E
330
1F
100
AcDbEntity
  8
0
  6
Continuous
 62
     7
370
    15
100
AcDbCircle
 10
135.7631231866
 20
136.1309729432
 30
0.0
 40
0.5
100
AcDbArc
 50
180.0
 51
270.0
  0
LINE
  5
13F
330
1F
100
AcDbEntity
  8
0
  6
Continuous
 62
     7
370
    15
100
AcDbLine
 10
135.2631213806
 20
136.1309737539
 30
0.0
 11
135.2631213806
 21
136.6309729045
 31
0.0
  0
LINE
  5
140
330
1F
100
AcDbEntity
  8
0
  6
Continuous
 62
     7
370
    15
100
AcDbLine
 10
135.7631223939
 20
160.6309729458
 30
0.0
 11
138.7631247482
 21
160.6309729458
 31
0.0
  0
LINE
  5
141
330
1F
100
AcDbEntity
  8
0
  6
Continuous
 62
     7
370
    15
100
AcDbLine
 10
138.7631247482
 20
135.6309727406
 30
0.0
 11
135.7631223939
 21
135.6309727406
 31
0.0
  0
ARC
  5
142
330
1F
100
AcDbEntity
  8
0
  6
Continuous
 62
     7
370
    15
100
AcDbCircle
 10
135.7631231866
 20
160.1309729432
 30
0.0
 40
0.5
100
AcDbArc
 50
90.0
 51
180.0
  0
LINE
  5
143
330
1F
100
AcDbEntity
  8
0
  6
Continuous
 62
     7
370
    15
100
AcDbLine
 10
135.2631213806
 20
159.6309729492
 30
0.0
 11
135.2631213806
 21
160.1309729147
 31
0.0
  0
LINE
  5
144
330
1F
100
AcDbEntity
  8
0
  6
Continuous
 62
     8
370
    15
100
AcDbLine
 10
180.2281731936
 20
170.156964158
 30
0.0
 11
180.4390008758
 21
170.1890705725
 31
0.0
  0
LINE
  5
145
330
1F
100
AcDbEntity
  8
0
  6
Continuous
 62
     8
370
    15
100
AcDbLine
 10
180.5381231672
 20
136.6993561959
 30
0.0
 11
180.5381231672
 21
140.8809722041
 31
0.0
  0
LINE
  5
146
330
1F
100
AcDbEntity
  8
0
  6
Continuous
 62
     8
370
    15
100
AcDbLine
 10
180.5381231672
 20
136.3809723978
 30
0.0
 11
180.5381231672
 21
136.6993561959
 31
0.0
  0
LINE
  5
147
330
1F
100
AcDbEntity
  8
0
  6
Continuous
 62
     8
370
    15
100
AcDbLine
 10
135.8881245098
 20
140.8809722041
 30
0.0
 11
135.8881245098
 21
136.3809723978
 31
0.0
  0
LINE
  5
148
330
1F
100
AcDbEntity
  8
0
  6
Continuous
 62
     8
370
    15
100
AcDbLine
 10
135.8881245098
 20
158.7559730386
 30
0.0
 11
135.8881245098
 21
155.3809727182
 31
0.0
  0
LINE
  5
149
330
1F
100
AcDbEntity
  8
0
  6
Continuous
 62
     8
370
    15
100
AcDbLine
 10
135.8881245098
 20
159.880972932
 30
0.0
 11
135.8881245098
 21
158.7559730386
 31
0.0
  0
LINE
  5
14A
330
1F
100
AcDbEntity
  8
0
  6
Continuous
 62
     8
370
    15
100
AcDbLine
 10
135.7631223939
 20
141.6309737241
 30
0.0
 11
135.7631223939
 21
140.7559738135
 31
0.0
  0
LINE
  5
14B
330
1F
100
AcDbEntity
  8
0
  6
Continuous
 62
     8
370
    15
100
AcDbLine
 10
135.7631223939
 20
155.5059729715
 30
0.0
 11
135.7631223939
 21
154.630973061
 31
0.0
  0
LINE
  5
14C
330
1F
100
AcDbEntity
  8
0
  6
Continuous
 62
     8
370
    15
100
AcDbLine
 10
134.7631240926
 20
147.1309727629
 30
0.0
 11
134.7631240926
 21
151.1309724873
 31
0.0
  0
LINE
  5
14D
330
1F
100
AcDbEntity
  8
0
  6
Continuous
 62
     8
370
    15
100
AcDbLine
 10
134.7631240926
 20
140.1309725469
 30
0.0
 11
134.7631240926
 21
144.1309732025
 31
0.0
  0
LINE
  5
14E
330
1F
100
AcDbEntity
  8
0
  6
Continuous
 62
     8
370
    15
100
AcDbLine
 10
128.5631234489
 20
144.1309732025
 30
0.0
 11
128.5631234489
 21
140.1309725469
 31
0.0
  0
LINE
  5
14F
330
1F
100
AcDbEntity
  8
0
  6
Continuous
 62
     8
370
    15
100
AcDbLine
 10
128.5631234489
 20
151.1309724873
 30
0.0
 11
128.5631234489
 21
147.1309727629
 31
0.0
  0
LINE
  5
150
330
1F
100
AcDbEntity
  8
0
  6
Continuous
 62
     8
370
    15
100
AcDbLine
 10
135.7631223939
 20
136.5059726512
 30
0.0
 11
135.7631223939
 21
135.6309727406
 31
0.0
  0
LINE
  5
151
330
1F
100
AcDbEntity
  8
0
  6
Continuous
 62
     8
370
    15
100
AcDbLine
 10
135.7631223939
 20
160.6309729458
 30
0.0
 11
135.7631223939
 21
159.7559729697
 31
0.0
  0
LINE
  5
152
330
1F
100
AcDbEntity
  8
0
  6
CENTERX2
 62
     7
370
     0
100
AcDbLine
 10
186.7631231871
 20
170.0901266687
 30
0.0
 11
186.7631231871
 21
179.0388103627
 31
0.0
  0
LINE
  5
153
330
1F
100
AcDbEntity
  8
0
  6
CENTERX2
 62
     7
370
     0
100
AcDbLine
 10
186.7631231871
 20
179.0388103627
 30
0.0
 11
185.5331783223
 21
179.0388103627
 31
0.0
  0
ELLIPSE
  5
154
330
1F
100
AcDbEntity
  8
0
  6
CENTERX2
 62
     7
370
     0
100
AcDbEllipse
 10
197.9618621255
 20
168.008102797
 30
0.0
 11
-3.141119638754958
 21
-21.8933399689505
 31
0.0
210
0.0
220
0.0
230
1.0
 40
0.6888357669
 41
4.285687680970903
 42
4.375986145718545
  0
DIMENSION
  5
155
330
1F
100
AcDbEntity
  8
0
  6
Continuous
 62
     7
370
     0
100
AcDbDimension
  2
_D
 10
194.7631232057
 20
128.8309729432
 30
0.0
 11
194.7631232057
 21
153.9348916529
 31
0.0
 70
   160
  1
(<>)
 71
     2
 42
-1.0
  3
SLDDIMSTYLE0
100
AcDbAlignedDimension
 13
186.7631231871
 23
179.0388103627
 33
0.0
 14
164.4631231866
 24
128.8309729432
 34
0.0
 50
90.0
100
AcDbRotatedDimension
  0
DIMENSION
  5
162
330
1F
100
AcDbEntity
  8
0
  6
Continuous
 62
     7
370
     0
100
AcDbDimension
  2
_D_1
 10
184.7631231871
 20
205.709576146
 30
0.0
 11
139.8731381882
 21
205.709576146
 31
0.0
 70
   160
  1
Maxストローク  <>
 71
     2
 42
-1.0
  3
SLDDIMSTYLE1
100
AcDbAlignedDimension
 13
186.7631231871
 23
179.0388103627
 33
0.0
 14
184.7631231871
 24
179.0388103627
 34
0.0
100
AcDbRotatedDimension
  0
DIMENSION
  5
170
330
1F
100
AcDbEntity
  8
0
  6
Continuous
 62
     7
370
     0
100
AcDbDimension
  2
_D_2
 10
105.0621746977
 20
128.8309729432
 30
0.0
 11
105.0621746977
 21
137.2309729432
 31
0.0
 70
   160
  1
<>
 71
     2
 42
-1.0
  3
SLDDIMSTYLE2
100
AcDbAlignedDimension
 13
110.3631231866
 23
145.6309729432
 33
0.0
 14
129.4631231866
 24
128.8309729432
 34
0.0
 50
90.0
100
AcDbRotatedDimension
  0
DIMENSION
  5
17B
330
1F
100
AcDbEntity
  8
0
  6
Continuous
 62
     7
370
     0
100
AcDbDimension
  2
_D_3
 10
183.9631231866
 20
106.8309729432
 30
0.0
 11
147.5664520709
 21
106.8309729432
 31
0.0
 70
   160
  1
<>
 71
     2
 42
-1.0
  3
SLDDIMSTYLE3
100
AcDbAlignedDimension
 13
109.9631231866
 23
141.7809729432
 33
0.0
 14
183.9631231866
 24
141.7309729432
 34
0.0
 50
0.0
100
AcDbRotatedDimension
  0
DIMENSION
  5
186
330
1F
100
AcDbEntity
  8
0
  6
Continuous
 62
     7
370
     0
100
AcDbDimension
  2
_D_4
 10
183.9631231866
 20
114.6594954763
 30
0.0
 11
151.1581576302
 21
114.6594954763
 31
0.0
 70
   160
  1
<>
 71
     2
 42
-1.0
  3
SLDDIMSTYLE0
100
AcDbAlignedDimension
 13
124.4631231866
 23
134.3309729432
 33
0.0
 14
183.9631231866
 24
141.7309729432
 34
0.0
 50
0.0
100
AcDbRotatedDimension
  0
DIMENSION
  5
190
330
1F
100
AcDbEntity
  8
0
  6
Continuous
 62
     7
370
     0
100
AcDbDimension
  2
_D_5
 10
159.9631231866
 20
121.5098813767
 30
0.0
 11
149.9631231866
 21
121.5098813767
 31
0.0
 70
   160
  1
<>
 71
     2
 42
-1.0
  3
SLDDIMSTYLE3
100
AcDbAlignedDimension
 13
139.9631231866
 23
126.8309729432
 33
0.0
 14
159.9631231866
 24
126.8309729432
 34
0.0
100
AcDbRotatedDimension
  0
DIMENSION
  5
19A
330
1F
100
AcDbEntity
  8
0
  6
Continuous
 62
     7
370
     0
100
AcDbDimension
  2
_D_6
 10
183.9631231866
 20
121.5098813767
 30
0.0
 11
171.9631231866
 21
121.5098813767
 31
0.0
 70
   160
  1
<>
 71
     2
 42
-1.0
  3
SLDDIMSTYLE3
100
AcDbAlignedDimension
 13
159.9631231866
 23
126.8309729432
 33
0.0
 14
183.9631231866
 24
141.7309729432
 34
0.0
 50
0.0
100
AcDbRotatedDimension
  0
DIMENSION
  5
1A4
330
1F
100
AcDbEntity
  8
0
  6
Continuous
 62
     7
370
     0
100
AcDbDimension
  2
_D_7
 10
177.2631231896
 20
218.5475522156
 30
0.0
 11
168.1907480403
 21
218.5475522156
 31
0.0
 70
   160
  1
<>
 71
     2
 42
-1.0
  3
SLDDIMSTYLE2
100
AcDbAlignedDimension
 13
159.9631231866
 23
135.3309729432
 33
0.0
 14
177.2631231896
 24
170.6185085629
 34
0.0
100
AcDbRotatedDimension
  0
DIMENSION
  5
1AE
330
1F
100
AcDbEntity
  8
0
  6
Continuous
 62
     7
370
     0
100
AcDbDimension
  2
_D_8
 10
184.7631231871
 20
218.5475522156
 30
0.0
 11
181.0131231884
 21
218.5475522156
 31
0.0
 70
   160
  1
<>
 71
     2
 42
-1.0
  3
SLDDIMSTYLE4
100
AcDbAlignedDimension
 13
177.2631231896
 23
170.6185085629
 33
0.0
 14
184.7631231871
 24
179.0388103627
 34
0.0
100
AcDbRotatedDimension
  0
DIMENSION
  5
1BB
330
1F
100
AcDbEntity
  8
0
  6
Continuous
 62
     7
370
     0
100
AcDbDimension
  2
_D_9
 10
97.0593284644
 20
128.8309729432
 30
0.0
 11
97.0593284644
 21
142.7309729432
 31
0.0
 70
   160
  1
<>
 71
     2
 42
-1.0
  3
SLDDIMSTYLE0
100
AcDbAlignedDimension
 13
121.1631231866
 23
156.6309729432
 33
0.0
 14
133.4631231866
 24
128.8309729432
 34
0.0
 50
90.0
100
AcDbRotatedDimension
  0
MTEXT
  5
1C5
330
1F
100
AcDbEntity
  8
0
  6
Continuous
 62
     7
370
     0
100
AcDbMText
 10
94.5339360535
 20
183.0031942849
 30
0.0
 40
3.5
 41
0.0
 71
     1
 72
     1
  1
プッシュ配管
  7
SLDTEXTSTYLE0
 73
     1
 44
1.0
  0
LEADER
  5
1CF
330
1F
100
AcDbEntity
  8
0
  6
Continuous
 62
     7
370
     0
100
AcDbLeader
  3
SLDDIMSTYLE5
 76
     3
 10
118.7666529246
 20
148.2847275353
 30
0.0
 10
118.5539273154
 20
178.429073857
 30
0.0
 10
94.49003517
 20
178.429073857
 30
0.0
  0
MTEXT
  5
1D0
330
1F
100
AcDbEntity
  8
0
  6
Continuous
 62
     7
370
     0
100
AcDbMText
 10
113.2668931047
 20
198.116012383
 30
0.0
 40
3.5
 41
0.0
 71
     1
 72
     1
  1
カット配管
  7
SLDTEXTSTYLE0
 73
     1
 44
1.0
  0
LEADER
  5
1D1
330
1F
100
AcDbEntity
  8
0
  6
Continuous
 62
     7
370
     0
100
AcDbLeader
  3
SLDDIMSTYLE5
 76
     3
 10
133.3284089212
 20
157.6317145382
 30
0.0
 10
133.3253223916
 20
193.5521688159
 30
0.0
 10
113.2473622509
 20
193.5521688159
 30
0.0
  0
LINE
  5
1D2
330
1F
100
AcDbEntity
  8
0
  6
CENTERX2
 62
     7
370
     0
100
AcDbLine
 10
121.1631231866
 20
156.6309729432
 30
0.0
 11
137.2631231866
 21
156.6309729432
 31
0.0
  0
LINE
  5
1D3
330
1F
100
AcDbEntity
  8
0
  6
CENTERX2
 62
     7
370
     0
100
AcDbLine
 10
126.4631231866
 20
145.6309729432
 30
0.0
 11
110.3631231866
 21
145.6309729432
 31
0.0
  0
LINE
  5
1D4
330
1F
100
AcDbEntity
  8
0
  6
CENTERX2
 62
     7
370
     0
100
AcDbLine
 10
159.9631231866
 20
135.3309729432
 30
0.0
 11
159.9631231866
 21
126.8309729432
 31
0.0
  0
LINE
  5
1D5
330
1F
100
AcDbEntity
  8
0
  6
CENTERX2
 62
     7
370
     0
100
AcDbLine
 10
139.9631231866
 20
135.3309729432
 30
0.0
 11
139.9631231866
 21
126.8309729432
 31
0.0
  0
LINE
  5
1D6
330
1F
100
AcDbEntity
  8
0
  6
CENTERX2
 62
     7
370
     0
100
AcDbLine
 10
177.7631231866
 20
138.7309729432
 30
0.0
 11
146.7631231866
 21
138.7309729432
 31
0.0
  0
CIRCLE
  5
1D7
330
1F
100
AcDbEntity
  8
0
  6
Continuous
 62
     7
100
AcDbCircle
 10
54.3310252041
 20
145.6309729432
 30
0.0
 40
2.666063202279182
  0
CIRCLE
  5
1D8
330
1F
100
AcDbEntity
  8
0
  6
Continuous
 62
     7
370
    15
100
AcDbCircle
 10
54.3310252041
 20
145.6309729432
 30
0.0
 40
3.849999999999961
  0
CIRCLE
  5
1D9
330
1F
100
AcDbEntity
  8
0
  6
Continuous
 62
     7
370
    15
100
AcDbCircle
 10
54.3310252041
 20
145.6309729432
 30
0.0
 40
2.0
  0
CIRCLE
  5
1DA
330
1F
100
AcDbEntity
  8
0
  6
Continuous
 62
     7
370
    15
100
AcDbCircle
 10
54.3310252041
 20
145.6309729432
 30
0.0
 40
3.999999999999933
  0
LINE
  5
1DB
330
1F
100
AcDbEntity
  8
0
  6
Continuous
 62
     7
370
    15
100
AcDbLine
 10
53.5643709288
 20
145.2281820228
 30
0.0
 11
54.2965245829
 21
144.7656341469
 31
0.0
  0
LINE
  5
1DC
330
1F
100
AcDbEntity
  8
0
  6
Continuous
 62
     7
370
    15
100
AcDbLine
 10
54.2965245829
 20
144.7656341469
 30
0.0
 11
55.0631800131
 21
145.1684265038
 31
0.0
  0
LINE
  5
1DD
330
1F
100
AcDbEntity
  8
0
  6
Continuous
 62
     7
370
    15
100
AcDbLine
 10
55.0631800131
 20
145.1684265038
 30
0.0
 11
55.0976799265
 21
146.0337639426
 31
0.0
  0
LINE
  5
1DE
330
1F
100
AcDbEntity
  8
0
  6
Continuous
 62
     7
370
    15
100
AcDbLine
 10
55.0976799265
 20
146.0337639426
 30
0.0
 11
54.3655253411
 21
146.4963108873
 31
0.0
  0
LINE
  5
1DF
330
1F
100
AcDbEntity
  8
0
  6
Continuous
 62
     7
370
    15
100
AcDbLine
 10
53.5988708422
 20
146.093520393
 30
0.0
 11
54.3655253411
 21
146.4963108873
 31
0.0
  0
LINE
  5
1E0
330
1F
100
AcDbEntity
  8
0
  6
Continuous
 62
     7
370
    15
100
AcDbLine
 10
53.5988708422
 20
146.0935194617
 30
0.0
 11
53.5643709288
 21
145.2281820228
 31
0.0
  0
CIRCLE
  5
1E1
330
1F
100
AcDbEntity
  8
0
  6
Continuous
 62
     7
370
    15
100
AcDbCircle
 10
54.3310252041
 20
156.6309729432
 30
0.0
 40
3.849999999999985
  0
CIRCLE
  5
1E2
330
1F
100
AcDbEntity
  8
0
  6
Continuous
 62
     7
370
    15
100
AcDbCircle
 10
54.3310252041
 20
156.6309729432
 30
0.0
 40
2.000000000000021
  0
CIRCLE
  5
1E3
330
1F
100
AcDbEntity
  8
0
  6
Continuous
 62
     7
370
    15
100
AcDbCircle
 10
54.3310252041
 20
156.6309729432
 30
0.0
 40
3.999999999999933
  0
LINE
  5
1E4
330
1F
100
AcDbEntity
  8
0
  6
Continuous
 62
     7
370
    15
100
AcDbLine
 10
53.5643709288
 20
156.2281819632
 30
0.0
 11
54.2965245829
 21
155.7656350186
 31
0.0
  0
LINE
  5
1E5
330
1F
100
AcDbEntity
  8
0
  6
Continuous
 62
     7
370
    15
100
AcDbLine
 10
54.2965245829
 20
155.7656350186
 30
0.0
 11
55.0631800131
 21
156.1684259785
 31
0.0
  0
LINE
  5
1E6
330
1F
100
AcDbEntity
  8
0
  6
Continuous
 62
     7
370
    15
100
AcDbLine
 10
55.0631800131
 20
156.1684259785
 30
0.0
 11
55.0976799265
 21
157.033763883
 31
0.0
  0
LINE
  5
1E7
330
1F
100
AcDbEntity
  8
0
  6
Continuous
 62
     7
370
    15
100
AcDbLine
 10
55.0976799265
 20
157.033763883
 30
0.0
 11
54.3655253411
 21
157.4963108277
 31
0.0
  0
LINE
  5
1E8
330
1F
100
AcDbEntity
  8
0
  6
Continuous
 62
     7
370
    15
100
AcDbLine
 10
53.5988708422
 20
157.0935198677
 30
0.0
 11
54.3655253411
 21
157.4963108277
 31
0.0
  0
LINE
  5
1E9
330
1F
100
AcDbEntity
  8
0
  6
Continuous
 62
     7
370
    15
100
AcDbLine
 10
53.5988708422
 20
157.0935198677
 30
0.0
 11
53.5643709288
 21
156.2281819632
 31
0.0
  0
ARC
  5
1EA
330
1F
100
AcDbEntity
  8
0
  6
Continuous
 62
     7
370
    15
100
AcDbCircle
 10
54.3310252041
 20
164.2309729432
 30
0.0
 40
1.52500000000002
100
AcDbArc
 50
105.2062878761
 51
254.7937121239
  0
LINE
  5
1EB
330
1F
100
AcDbEntity
  8
0
  6
Continuous
 62
     7
370
    15
100
AcDbLine
 10
53.9310251758
 20
162.7593667352
 30
0.0
 11
53.9310251758
 21
161.7631804537
 31
0.0
  0
LINE
  5
1EC
330
1F
100
AcDbEntity
  8
0
  6
Continuous
 62
     7
370
    15
100
AcDbLine
 10
53.9310251758
 20
166.6987655324
 30
0.0
 11
53.9310251758
 21
165.7025791345
 31
0.0
  0
ARC
  5
1ED
330
1F
100
AcDbEntity
  8
0
  6
Continuous
 62
     7
370
    15
100
AcDbCircle
 10
54.3310252041
 20
164.2309729432
 30
0.0
 40
2.500000000000049
100
AcDbArc
 50
99.2068962213
 51
260.7931037787
  0
ARC
  5
1EE
330
1F
100
AcDbEntity
  8
0
  6
Continuous
 62
     7
370
    15
100
AcDbCircle
 10
54.3310252041
 20
164.2309729432
 30
0.0
 40
1.025000000000016
100
AcDbArc
 50
112.9696765723
 51
247.0303234277
  0
SPLINE
  5
1EF
330
1F
100
AcDbEntity
  8
0
  6
Continuous
 62
     7
370
    15
100
AcDbSpline
210
0.0
220
0.0
230
1.0
 70
    24
 71
     3
 72
     9
 73
     5
 74
     0
 42
0.00000001
 43
0.00000001
 12
1.0
 22
0.0
 32
0.0
 13
1.0
 23
0.0
 33
0.0
 40
0.0
 40
0.0
 40
0.0
 40
0.0
 40
0.4999602633314156
 40
1.0
 40
1.0
 40
1.0
 40
1.0
 10
53.93102517582337
 20
163.2872436301414
 30
0.0
 10
53.93102517582337
 20
163.1985698802766
 30
0.0
 10
53.93102517582337
 20
163.0212082850291
 30
0.0
 10
53.93102517582337
 20
162.8466518760167
 30
0.0
 10
53.93102517582337
 20
162.7593667352203
 30
0.0
  0
SPLINE
  5
1F0
330
1F
100
AcDbEntity
  8
0
  6
Continuous
 62
     7
370
    15
100
AcDbSpline
210
0.0
220
0.0
230
1.0
 70
    24
 71
     3
 72
     9
 73
     5
 74
     0
 42
0.00000001
 43
0.00000001
 12
1.0
 22
0.0
 32
0.0
 13
1.0
 23
0.0
 33
0.0
 40
0.0
 40
0.0
 40
0.0
 40
0.0
 40
0.4999739622283317
 40
1.0
 40
1.0
 40
1.0
 40
1.0
 10
53.93102517582337
 20
165.7025791344795
 30
0.0
 10
53.93102517582337
 20
165.6153054912605
 30
0.0
 10
53.93102517582337
 20
165.4407491147043
 30
0.0
 10
53.93102517582337
 20
165.263387610006
 30
0.0
 10
53.93102517582337
 20
165.1747022395585
 30
0.0
  0
LINE
  5
1F1
330
1F
100
AcDbEntity
  8
0
  6
Continuous
 62
     7
370
    15
100
AcDbLine
 10
54.7310247482
 20
161.7631804537
 30
0.0
 11
54.7310247482
 21
161.9660226268
 31
0.0
  0
ARC
  5
1F2
330
1F
100
AcDbEntity
  8
0
  6
Continuous
 62
     7
370
    15
100
AcDbCircle
 10
54.3310252041
 20
164.2309729432
 30
0.0
 40
2.30000000000003
100
AcDbArc
 50
280.0154101683
 51
79.9845898317
  0
LINE
  5
1F3
330
1F
100
AcDbEntity
  8
0
  6
Continuous
 62
     7
370
    15
100
AcDbLine
 10
54.7310247482
 20
166.4959234757
 30
0.0
 11
54.7310247482
 21
166.6987655324
 31
0.0
  0
ARC
  5
1F4
330
1F
100
AcDbEntity
  8
0
  6
Continuous
 62
     7
370
    15
100
AcDbCircle
 10
54.3310252041
 20
164.2309729432
 30
0.0
 40
2.500000000000048
100
AcDbArc
 50
279.2068962213
 51
80.7931037787
  0
ARC
  5
1F5
330
1F
100
AcDbEntity
  8
0
  6
Continuous
 62
     7
370
    15
100
AcDbCircle
 10
54.3310252041
 20
164.2309729432
 30
0.0
 40
1.525000000000018
100
AcDbArc
 50
285.2062878761
 51
74.7937121239
  0
LINE
  5
1F6
330
1F
100
AcDbEntity
  8
0
  6
Continuous
 62
     7
370
    15
100
AcDbLine
 10
54.7310247482
 20
165.7025791345
 30
0.0
 11
54.7310247482
 21
166.4959234757
 31
0.0
  0
LINE
  5
1F7
330
1F
100
AcDbEntity
  8
0
  6
Continuous
 62
     7
370
    15
100
AcDbLine
 10
54.7310247482
 20
161.9660226268
 30
0.0
 11
54.7310247482
 21
162.7593667352
 31
0.0
  0
ARC
  5
1F8
330
1F
100
AcDbEntity
  8
0
  6
Continuous
 62
     7
370
    15
100
AcDbCircle
 10
54.3310252041
 20
164.2309729432
 30
0.0
 40
1.025000000000013
100
AcDbArc
 50
292.9696765723
 51
67.0303234277
  0
LINE
  5
1F9
330
1F
100
AcDbEntity
  8
0
  6
Continuous
 62
     7
370
    15
100
AcDbLine
 10
54.7310247482
 20
165.1747022396
 30
0.0
 11
54.7310247482
 21
165.7025791345
 31
0.0
  0
LINE
  5
1FA
330
1F
100
AcDbEntity
  8
0
  6
Continuous
 62
     7
370
    15
100
AcDbLine
 10
54.7310247482
 20
162.7593667352
 30
0.0
 11
54.7310247482
 21
163.2872436301
 31
0.0
  0
ARC
  5
1FB
330
1F
100
AcDbEntity
  8
0
  6
Continuous
 62
     7
370
    15
100
AcDbCircle
 10
54.3310252041
 20
164.2309729432
 30
0.0
 40
1.025000000000016
100
AcDbArc
 50
67.0303234277
 51
112.9696765723
  0
ARC
  5
1FC
330
1F
100
AcDbEntity
  8
0
  6
Continuous
 62
     7
370
    15
100
AcDbCircle
 10
54.3310252041
 20
164.2309729432
 30
0.0
 40
1.024999999999964
100
AcDbArc
 50
247.0303234277
 51
292.9696765723
  0
ARC
  5
1FD
330
1F
100
AcDbEntity
  8
0
  6
Continuous
 62
     7
370
    15
100
AcDbCircle
 10
54.3310252041
 20
161.6609729432
 30
0.0
 40
9.999999999999964
100
AcDbArc
 50
135.8131936084
 51
180.0
  0
LINE
  5
1FE
330
1F
100
AcDbEntity
  8
0
  6
Continuous
 62
     7
370
    15
100
AcDbLine
 10
47.160314715
 20
166.7620414508
 30
0.0
 11
47.160314715
 21
168.6309725618
 31
0.0
  0
ARC
  5
1FF
330
1F
100
AcDbEntity
  8
0
  6
Continuous
 62
     7
370
    15
100
AcDbCircle
 10
54.3310252041
 20
161.6609729432
 30
0.0
 40
8.799999999999969
100
AcDbArc
 50
144.5728840639
 51
180.0
  0
LINE
  5
200
330
1F
100
AcDbEntity
  8
0
  6
Continuous
 62
     7
370
    15
100
AcDbLine
 10
45.5310254753
 20
160.1309729147
 30
0.0
 11
45.5310254753
 21
161.6609729234
 31
0.0
  0
LINE
  5
201
330
1F
100
AcDbEntity
  8
0
  6
Continuous
 62
     7
370
    15
100
AcDbLine
 10
63.1310251471
 20
161.6609729234
 30
0.0
 11
63.1310251471
 21
160.1309729147
 31
0.0
  0
ARC
  5
202
330
1F
100
AcDbEntity
  8
0
  6
Continuous
 62
     7
370
    15
100
AcDbCircle
 10
54.3310252041
 20
161.6609729432
 30
0.0
 40
8.800000000000082
100
AcDbArc
 50
0.0
 51
35.4271159764
  0
LINE
  5
203
330
1F
100
AcDbEntity
  8
0
  6
Continuous
 62
     7
370
    15
100
AcDbLine
 10
61.5017363732
 20
168.6309725618
 30
0.0
 11
61.5017363732
 21
166.7620414508
 31
0.0
  0
ARC
  5
204
330
1F
100
AcDbEntity
  8
0
  6
Continuous
 62
     7
370
    15
100
AcDbCircle
 10
54.3310252041
 20
161.6609729432
 30
0.0
 40
10.0000000000001
100
AcDbArc
 50
0.0
 51
44.1868064211
  0
LINE
  5
205
330
1F
100
AcDbEntity
  8
0
  6
Continuous
 62
     7
370
    15
100
AcDbLine
 10
64.3310252041
 20
157.7309729172
 30
0.0
 11
64.3310252041
 21
161.6609729234
 31
0.0
  0
LINE
  5
206
330
1F
100
AcDbEntity
  8
0
  6
Continuous
 62
     7
370
    15
100
AcDbLine
 10
44.3310256512
 20
161.6609729234
 30
0.0
 11
44.3310256512
 21
157.7309729172
 31
0.0
  0
LINE
  5
207
330
1F
100
AcDbEntity
  8
0
  6
Continuous
 62
     7
370
    15
100
AcDbLine
 10
47.160314715
 20
168.6309725618
 30
0.0
 11
48.5327433259
 21
168.6309725618
 31
0.0
  0
LINE
  5
208
330
1F
100
AcDbEntity
  8
0
  6
Continuous
 62
     7
370
    15
100
AcDbLine
 10
60.1290416368
 20
168.6309725618
 30
0.0
 11
61.5017363732
 21
168.6309725618
 31
0.0
  0
ARC
  5
209
330
1F
100
AcDbEntity
  8
0
  6
Continuous
 62
     7
370
    15
100
AcDbCircle
 10
54.3310252041
 20
164.2309729432
 30
0.0
 40
4.799999999999985
100
AcDbArc
 50
313.1834217962
 51
226.8165782038
  0
ARC
  5
20A
330
1F
100
AcDbEntity
  8
0
  6
Continuous
 62
     7
370
    15
100
AcDbCircle
 10
54.3310252041
 20
164.2309729432
 30
0.0
 40
2.499999999999992
100
AcDbArc
 50
260.7931037787
 51
279.2068962213
  0
ARC
  5
20B
330
1F
100
AcDbEntity
  8
0
  6
Continuous
 62
     7
370
    15
100
AcDbCircle
 10
54.3310252041
 20
164.2309729432
 30
0.0
 40
2.500000000000049
100
AcDbArc
 50
80.7931037787
 51
99.2068962213
  0
LINE
  5
20C
330
1F
100
AcDbEntity
  8
0
  6
Continuous
 62
     7
370
    15
100
AcDbLine
 10
55.7272307039
 20
170.6185089996
 30
0.0
 11
60.030802472
 21
170.156964158
 31
0.0
  0
ARC
  5
20D
330
1F
100
AcDbEntity
  8
0
  6
Continuous
 62
     7
370
    15
100
AcDbCircle
 10
38.1386322592
 20
167.9814439444
 30
0.0
 40
22.00000000000016
100
AcDbArc
 50
354.9311028349
 51
5.675097796
  0
LINE
  5
20E
330
1F
100
AcDbEntity
  8
0
  6
Continuous
 62
     7
370
    15
100
AcDbLine
 10
60.0525502511
 20
166.0376699281
 30
0.0
 11
60.0525940233
 21
166.0376652715
 31
0.0
  0
ARC
  5
20F
330
1F
100
AcDbEntity
  8
0
  6
Continuous
 62
     7
370
    15
100
AcDbCircle
 10
54.3310252041
 20
164.2309729432
 30
0.0
 40
6.000000000000065
100
AcDbArc
 50
17.5246533418
 51
77.2589744693
  0
ARC
  5
210
330
1F
100
AcDbEntity
  8
0
  6
Continuous
 62
     7
370
    15
100
AcDbCircle
 10
54.997496518
 20
170.4453366166
 30
0.0
 40
0.7499999956934328
100
AcDbArc
 50
331.131354929
 51
13.3498245994
  0
LINE
  5
211
330
1F
100
AcDbEntity
  8
0
  6
Continuous
 62
     7
370
    15
100
AcDbLine
 10
59.7996654385
 20
163.6444782478
 30
0.0
 11
60.0131925591
 21
165.6354647701
 31
0.0
  0
ARC
  5
212
330
1F
100
AcDbEntity
  8
0
  6
Continuous
 62
     7
370
    15
100
AcDbCircle
 10
54.3310252041
 20
164.2309729432
 30
0.0
 40
5.500000000000024
100
AcDbArc
 50
336.125
 51
353.8786022594
  0
LINE
  5
213
330
1F
100
AcDbEntity
  8
0
  6
Continuous
 62
     7
370
    15
100
AcDbLine
 10
49.3017969117
 20
162.0045722801
 30
0.0
 11
49.458714521
 21
161.0000609351
 31
0.0
  0
ARC
  5
214
330
1F
100
AcDbEntity
  8
0
  6
Continuous
 62
     7
370
    15
100
AcDbCircle
 10
54.997496518
 20
170.4453366166
 30
0.0
 40
0.7499999956934149
100
AcDbArc
 50
263.8786022594
 51
331.131354929
  0
ARC
  5
215
330
1F
100
AcDbEntity
  8
0
  6
Continuous
 62
     7
370
    15
100
AcDbCircle
 10
38.1386322592
 20
167.9814439444
 30
0.0
 40
22.00000000000016
100
AcDbArc
 50
353.8786022594
 51
354.9311028349
  0
LINE
  5
216
330
1F
100
AcDbEntity
  8
0
  6
Continuous
 62
     7
370
    15
100
AcDbLine
 10
49.4298556284
 20
160.7309729432
 30
0.0
 11
49.458714521
 21
161.0000609351
 31
0.0
  0
ELLIPSE
  5
217
330
1F
100
AcDbEntity
  8
0
  6
Continuous
 62
     7
370
    15
100
AcDbEllipse
 10
58.2227935365
 20
170.8537343718
 30
0.0
 11
1.902447722004155
 21
-0.2040316433789826
 31
0.0
210
0.0
220
0.0
230
1.0
 40
0.2613207653
 41
3.141592653589901
 42
4.7123889803847
  0
LINE
  5
218
330
1F
100
AcDbEntity
  8
0
  6
Continuous
 62
     7
370
    15
100
AcDbLine
 10
56.3203462795
 20
171.0577663606
 30
0.0
 11
59.9742385954
 21
170.6658974861
 31
0.0
  0
SPLINE
  5
219
330
1F
100
AcDbEntity
  8
0
  6
Continuous
 62
     7
370
    15
100
AcDbSpline
210
0.0
220
0.0
230
1.0
 70
     8
 71
     3
 72
    17
 73
    13
 74
     0
 42
0.00000001
 43
0.00000001
 12
1.0
 22
0.0
 32
0.0
 13
1.0
 23
0.0
 33
0.0
 40
0.0
 40
0.0
 40
0.0
 40
0.0
 40
0.0936608569685745
 40
0.1904103670735253
 40
0.28393587138328
 40
0.3794899899755681
 40
0.4883834325366959
 40
0.5995818541441575
 40
0.7273143574475446
 40
0.8581809502608855
 40
0.9288217599860907
 40
1.0
 40
1.0
 40
1.0
 40
1.0
 10
59.97423859543959
 20
170.6658974861357
 30
0.0
 10
59.97766737047202
 20
170.6377402253491
 30
0.0
 10
59.98463799121657
 20
170.5804971620705
 30
0.0
 10
59.99391399425863
 20
170.5010545789596
 30
0.0
 10
60.00223513545546
 20
170.4277720428837
 30
0.0
 10
60.00976019141505
 20
170.3595150140796
 30
0.0
 10
60.01644925767395
 20
170.2971140892315
 30
0.0
 10
60.02233570186424
 20
170.240736900817
 30
0.0
 10
60.02695409101075
 20
170.1954598496976
 30
0.0
 10
60.02948983604195
 20
170.1701491643152
 30
0.0
 10
60.03063196226203
 20
170.1586795113274
 30
0.0
 10
60.03074549201772
 20
170.157537385186
 30
0.0
 10
60.03080247200887
 20
170.1569641580436
 30
0.0
  0
LINE
  5
21A
330
1F
100
AcDbEntity
  8
0
  6
Continuous
 62
     7
370
    15
100
AcDbLine
 10
56.3203462795
 20
171.0577663606
 30
0.0
 11
57.1734289103
 21
179.0121514922
 31
0.0
  0
ARC
  5
21B
330
1F
100
AcDbEntity
  8
0
  6
Continuous
 62
     7
370
    15
100
AcDbCircle
 10
38.1386322592
 20
167.9814439444
 30
0.0
 40
22.00000000000023
100
AcDbArc
 50
7.0087318915
 51
30.0923883268
  0
LINE
  5
21C
330
1F
100
AcDbEntity
  8
0
  6
Continuous
 62
     7
370
    15
100
AcDbLine
 10
55.0774730206
 20
171.1910600414
 30
0.0
 11
55.9305561171
 21
179.1454461043
 31
0.0
  0
LINE
  5
21D
330
1F
100
AcDbEntity
  8
0
  6
Continuous
 62
     7
370
    15
100
AcDbLine
 10
57.1734289103
 20
179.0121514922
 30
0.0
 11
55.9305561171
 21
179.1454461043
 31
0.0
  0
ARC
  5
21E
330
1F
100
AcDbEntity
  8
0
  6
Continuous
 62
     7
370
    15
100
AcDbCircle
 10
54.997496518
 20
170.4453366166
 30
0.0
 40
0.7499999956934535
100
AcDbArc
 50
13.3498245994
 51
83.8786022594
  0
ARC
  5
21F
330
1F
100
AcDbEntity
  8
0
  6
Continuous
 62
     7
370
    15
100
AcDbCircle
 10
54.3310252041
 20
164.2309729432
 30
0.0
 40
5.50000000000001
100
AcDbArc
 50
186.125
 51
219.5211963586
  0
LINE
  5
220
330
1F
100
AcDbEntity
  8
0
  6
Continuous
 62
     7
370
    15
100
AcDbLine
 10
48.8624222041
 20
163.644134357
 30
0.0
 11
48.6487693549
 21
165.6351076079
 31
0.0
  0
LINE
  5
221
330
1F
100
AcDbEntity
  8
0
  6
Continuous
 62
     7
370
    15
100
AcDbLine
 10
48.6308749229
 20
170.1566055989
 30
0.0
 11
52.9344187514
 21
170.6184205239
 31
0.0
  0
ARC
  5
222
330
1F
100
AcDbEntity
  8
0
  6
Continuous
 62
     7
370
    15
100
AcDbCircle
 10
53.6641631855
 20
170.4452947122
 30
0.0
 40
0.7499999999999994
100
AcDbArc
 50
166.6537785694
 51
276.125
  0
ARC
  5
223
330
1F
100
AcDbEntity
  8
0
  6
Continuous
 62
     7
370
    15
100
AcDbCircle
 10
54.3310252041
 20
164.2309729432
 30
0.0
 40
5.499999999999986
100
AcDbArc
 50
6.125
 51
96.125
  0
LINE
  5
224
330
1F
100
AcDbEntity
  8
0
  6
Continuous
 62
     7
370
    15
100
AcDbLine
 10
59.1614733846
 20
160.7309729432
 30
0.0
 11
59.7996281856
 21
164.8178115127
 31
0.0
  0
ARC
  5
225
330
1F
100
AcDbEntity
  8
0
  6
Continuous
 62
     7
370
    15
100
AcDbCircle
 10
54.3310252041
 20
164.2309729432
 30
0.0
 40
4.800000000000046
100
AcDbArc
 50
313.1834217962
 51
186.125
  0
ARC
  5
226
330
1F
100
AcDbEntity
  8
0
  6
Continuous
 62
     7
370
    15
100
AcDbCircle
 10
54.3310252041
 20
164.2309729432
 30
0.0
 40
4.800000000000051
100
AcDbArc
 50
186.125
 51
226.8165782038
  0
ARC
  5
227
330
1F
100
AcDbEntity
  8
0
  6
Continuous
 62
     7
370
    15
100
AcDbCircle
 10
70.5231823191
 20
167.9824619833
 30
0.0
 40
21.99999999999994
100
AcDbArc
 50
174.3285044894
 51
186.125
  0
LINE
  5
228
330
1F
100
AcDbEntity
  8
0
  6
Continuous
 62
     7
370
    15
100
AcDbLine
 10
48.6874062032
 20
170.6655426522
 30
0.0
 11
52.3412752361
 21
171.057640632
 31
0.0
  0
ELLIPSE
  5
229
330
1F
100
AcDbEntity
  8
0
  6
Continuous
 62
     7
370
    15
100
AcDbEllipse
 10
50.438840589
 20
170.853489688
 30
0.0
 11
1.90243479946708
 21
0.2041512425436451
 31
0.0
210
0.0
220
0.0
230
1.0
 40
0.2613207778
 41
4.712388980384693
 42
6.283185307179586
  0
SPLINE
  5
22A
330
1F
100
AcDbEntity
  8
0
  6
Continuous
 62
     7
370
    15
100
AcDbSpline
210
0.0
220
0.0
230
1.0
 70
     8
 71
     3
 72
    20
 73
    16
 74
     0
 42
0.00000001
 43
0.00000001
 12
1.0
 22
0.0
 32
0.0
 13
1.0
 23
0.0
 33
0.0
 40
0.0
 40
0.0
 40
0.0
 40
0.0
 40
0.0674589115182372
 40
0.135394603635473
 40
0.204783185980586
 40
0.274655093418318
 40
0.342832627688295
 40
0.4114755270265417
 40
0.4816472496712624
 40
0.5523804503779425
 40
0.6637907403811609
 40
0.778164727885684
 40
0.8693330334311017
 40
0.9629492476619416
 40
1.0
 40
1.0
 40
1.0
 40
1.0
 10
48.63087492294471
 20
170.1566055988524
 30
0.0
 10
48.63092608468544
 20
170.15711983264
 30
0.0
 10
48.6310287697637
 20
170.158151934675
 30
0.0
 10
48.63184909555088
 20
170.166394752852
 30
0.0
 10
48.63316275621491
 20
170.1795448368167
 30
0.0
 10
48.63501855848806
 20
170.1979522794908
 30
0.0
 10
48.637382229758
 20
170.2212136499058
 30
0.0
 10
48.64027447972686
 20
170.2493199319917
 30
0.0
 10
48.64374426810303
 20
170.2826122174207
 30
0.0
 10
48.64860559746947
 20
170.3284767965176
 30
0.0
 10
48.65537767550924
 20
170.3910125426059
 30
0.0
 10
48.66406113144746
 20
170.4686379583536
 30
0.0
 10
48.67348258220967
 20
170.5500539141198
 30
0.0
 10
48.68120906871714
 20
170.6149065567798
 30
0.0
 10
48.68603718570258
 20
170.6543565626296
 30
0.0
 10
48.68740620322387
 20
170.6655426522348
 30
0.0
  0
LINE
  5
22B
330
1F
100
AcDbEntity
  8
0
  6
Continuous
 62
     7
370
    15
100
AcDbLine
 10
52.3412752361
 20
171.057640632
 30
0.0
 11
51.4876920194
 21
179.0119726782
 31
0.0
  0
ARC
  5
22C
330
1F
100
AcDbEntity
  8
0
  6
Continuous
 62
     7
370
    15
100
AcDbCircle
 10
70.5231823191
 20
167.9824619833
 30
0.0
 40
21.99999999999993
100
AcDbArc
 50
149.9112139327
 51
172.9948703941
  0
LINE
  5
22D
330
1F
100
AcDbEntity
  8
0
  6
Continuous
 62
     7
370
    15
100
AcDbLine
 10
52.7305559651
 20
179.1453455215
 30
0.0
 11
51.4876920194
 21
179.0119726782
 31
0.0
  0
LINE
  5
22E
330
1F
100
AcDbEntity
  8
0
  6
Continuous
 62
     7
370
    15
100
AcDbLine
 10
52.7305559651
 20
179.1453455215
 30
0.0
 11
53.5841401131
 21
171.1910134753
 31
0.0
  0
ARC
  5
22F
330
1F
100
AcDbEntity
  8
0
  6
Continuous
 62
     7
370
    15
100
AcDbCircle
 10
53.6641631855
 20
170.4452947122
 30
0.0
 40
0.7500000000000001
100
AcDbArc
 50
96.125
 51
166.6537785694
  0
CIRCLE
  5
230
330
1F
100
AcDbEntity
  8
0
  6
Continuous
 62
     7
370
    15
100
AcDbCircle
 10
61.8310252041
 20
145.6309729432
 30
0.0
 40
1.219500000000003
  0
CIRCLE
  5
231
330
1F
100
AcDbEntity
  8
0
  6
Continuous
 62
     7
370
    15
100
AcDbCircle
 10
61.8310252041
 20
145.6309729432
 30
0.0
 40
1.500000000000005
  0
LINE
  5
232
330
1F
100
AcDbEntity
  8
0
  6
Continuous
 62
     7
370
    15
100
AcDbLine
 10
62.4596513505
 20
145.0352967357
 30
0.0
 11
61.6294684284
 21
144.7887290841
 31
0.0
  0
LINE
  5
233
330
1F
100
AcDbEntity
  8
0
  6
Continuous
 62
     7
370
    15
100
AcDbLine
 10
62.4596513505
 20
145.0352967357
 30
0.0
 11
62.6612082985
 21
145.8775411
 31
0.0
  0
LINE
  5
234
330
1F
100
AcDbEntity
  8
0
  6
Continuous
 62
     7
370
    15
100
AcDbLine
 10
62.0325820916
 20
146.4732168814
 30
0.0
 11
62.6612082985
 21
145.8775411
 31
0.0
  0
LINE
  5
235
330
1F
100
AcDbEntity
  8
0
  6
Continuous
 62
     7
370
    15
100
AcDbLine
 10
62.0325820916
 20
146.4732168814
 30
0.0
 11
61.2023990531
 21
146.2266482984
 31
0.0
  0
LINE
  5
236
330
1F
100
AcDbEntity
  8
0
  6
Continuous
 62
     7
370
    15
100
AcDbLine
 10
61.2023990531
 20
146.2266482984
 30
0.0
 11
61.0008422215
 21
145.3844039341
 31
0.0
  0
LINE
  5
237
330
1F
100
AcDbEntity
  8
0
  6
Continuous
 62
     7
370
    15
100
AcDbLine
 10
61.6294684284
 20
144.7887290841
 30
0.0
 11
61.0008422215
 21
145.3844039341
 31
0.0
  0
SPLINE
  5
238
330
1F
100
AcDbEntity
  8
0
  6
Continuous
 62
     7
370
    15
100
AcDbSpline
210
0.0
220
0.0
230
1.0
 70
     8
 71
     3
 72
    10
 73
     6
 74
     0
 42
0.00000001
 43
0.00000001
 12
1.0
 22
0.0
 32
0.0
 13
1.0
 23
0.0
 33
0.0
 40
0.0
 40
0.0
 40
0.0
 40
0.0
 40
0.0700119524476758
 40
0.5307442768301284
 40
1.0
 40
1.0
 40
1.0
 40
1.0
 10
59.4494555541114
 20
144.2559734558318
 30
0.0
 10
59.4306592867777
 20
144.2885288940512
 30
0.0
 10
59.28816916952829
 20
144.5353240755967
 30
0.0
 10
59.01949674648333
 20
145.0006847069929
 30
0.0
 10
58.77763681584965
 20
145.4195967951821
 30
0.0
 10
58.65559851981561
 20
145.6309725170586
 30
0.0
  0
SPLINE
  5
239
330
1F
100
AcDbEntity
  8
0
  6
Continuous
 62
     7
370
    15
100
AcDbSpline
210
0.0
220
0.0
230
1.0
 70
     8
 71
     3
 72
    10
 73
     6
 74
     0
 42
0.00000001
 43
0.00000001
 12
1.0
 22
0.0
 32
0.0
 13
1.0
 23
0.0
 33
0.0
 40
0.0
 40
0.0
 40
0.0
 40
0.0
 40
0.257243339067438
 40
0.6263801056272676
 40
1.0
 40
1.0
 40
1.0
 40
1.0
 10
58.65559851981561
 20
145.6309725170586
 30
0.0
 10
58.72226317696057
 20
145.746438986332
 30
0.0
 10
58.88458969291801
 20
146.0275965062199
 30
0.0
 10
59.14952823984009
 20
146.4864847926877
 30
0.0
 10
59.34907830152131
 20
146.8321145537048
 30
0.0
 10
59.4494555541114
 20
147.005972509608
 30
0.0
  0
ARC
  5
23A
330
1F
100
AcDbEntity
  8
0
  6
Continuous
 62
     7
370
    15
100
AcDbCircle
 10
61.8310252041
 20
145.6309729432
 30
0.0
 40
2.750000000000004
100
AcDbArc
 50
150.0
 51
210.0
  0
SPLINE
  5
23B
330
1F
100
AcDbEntity
  8
0
  6
Continuous
 62
     7
370
    15
100
AcDbSpline
210
0.0
220
0.0
230
1.0
 70
    24
 71
     3
 72
    12
 73
     8
 74
     0
 42
0.00000001
 43
0.00000001
 12
1.0
 22
0.0
 32
0.0
 13
1.0
 23
0.0
 33
0.0
 40
0.0
 40
0.0
 40
0.0
 40
0.0
 40
0.0699782271178841
 40
0.2997537832901845
 40
0.5307914214663577
 40
0.7650052789451129
 40
0.9999999999999999
 40
0.9999999999999999
 40
0.9999999999999999
 40
0.9999999999999999
 10
61.83102526001493
 20
142.8809725319598
 30
0.0
 10
61.79342931166138
 20
142.8809725319598
 30
0.0
 10
61.6323859669025
 20
142.8809725319598
 30
0.0
 10
61.34744491765344
 20
142.8809725319598
 30
0.0
 10
60.97728729453026
 20
142.8809725319598
 30
0.0
 10
60.60823851746788
 20
142.8809725319598
 30
0.0
 10
60.36508913853576
 20
142.8809725319598
 30
0.0
 10
60.24331212274591
 20
142.8809725319598
 30
0.0
  0
SPLINE
  5
23C
330
1F
100
AcDbEntity
  8
0
  6
Continuous
 62
     7
370
    15
100
AcDbSpline
210
0.0
220
0.0
230
1.0
 70
     8
 71
     3
 72
     9
 73
     5
 74
     0
 42
0.00000001
 43
0.00000001
 12
1.0
 22
0.0
 32
0.0
 13
1.0
 23
0.0
 33
0.0
 40
0.0
 40
0.0
 40
0.0
 40
0.0
 40
0.4954580501552145
 40
1.0
 40
1.0
 40
1.0
 40
1.0
 10
60.24331212274591
 20
142.8809725319598
 30
0.0
 10
60.11438628165267
 20
143.1042786495993
 30
0.0
 10
59.85417082839109
 20
143.5549850566695
 30
0.0
 10
59.5851751554413
 20
144.0208998815998
 30
0.0
 10
59.4494555541114
 20
144.2559734558318
 30
0.0
  0
ARC
  5
23D
330
1F
100
AcDbEntity
  8
0
  6
Continuous
 62
     7
370
    15
100
AcDbCircle
 10
61.8310252041
 20
145.6309729432
 30
0.0
 40
2.750000000000004
100
AcDbArc
 50
210.0
 51
270.0
  0
ARC
  5
23E
330
1F
100
AcDbEntity
  8
0
  6
Continuous
 62
     7
370
    15
100
AcDbCircle
 10
61.8310252041
 20
145.6309729432
 30
0.0
 40
2.750000000000008
100
AcDbArc
 50
30.0
 51
90.0
  0
ARC
  5
23F
330
1F
100
AcDbEntity
  8
0
  6
Continuous
 62
     7
370
    15
100
AcDbCircle
 10
61.8310252041
 20
145.6309729432
 30
0.0
 40
2.750000000000012
100
AcDbArc
 50
330.0
 51
30.0
  0
ARC
  5
240
330
1F
100
AcDbEntity
  8
0
  6
Continuous
 62
     7
370
    15
100
AcDbCircle
 10
61.8310252041
 20
145.6309729432
 30
0.0
 40
2.750000000000012
100
AcDbArc
 50
270.0
 51
330.0
  0
ARC
  5
241
330
1F
100
AcDbEntity
  8
0
  6
Continuous
 62
     7
370
    15
100
AcDbCircle
 10
61.8310252041
 20
145.6309729432
 30
0.0
 40
2.75
100
AcDbArc
 50
90.0
 51
150.0
  0
SPLINE
  5
242
330
1F
100
AcDbEntity
  8
0
  6
Continuous
 62
     7
370
    15
100
AcDbSpline
210
0.0
220
0.0
230
1.0
 70
    24
 71
     3
 72
     9
 73
     5
 74
     0
 42
0.00000001
 43
0.00000001
 12
1.0
 22
0.0
 32
0.0
 13
1.0
 23
0.0
 33
0.0
 40
0.0
 40
0.0
 40
0.0
 40
0.0
 40
0.4954580778997594
 40
1.0
 40
1.0
 40
1.0
 40
1.0
 10
60.24331212274591
 20
148.3809725021574
 30
0.0
 10
60.5011636818467
 20
148.3809725021574
 30
0.0
 10
61.02159431079883
 20
148.3809725021574
 30
0.0
 10
61.5595859329174
 20
148.3809725021574
 30
0.0
 10
61.83102526001493
 20
148.3809725021574
 30
0.0
  0
SPLINE
  5
243
330
1F
100
AcDbEntity
  8
0
  6
Continuous
 62
     7
370
    15
100
AcDbSpline
210
0.0
220
0.0
230
1.0
 70
     8
 71
     3
 72
    10
 73
     6
 74
     0
 42
0.00000001
 43
0.00000001
 12
1.0
 22
0.0
 32
0.0
 13
1.0
 23
0.0
 33
0.0
 40
0.0
 40
0.0
 40
0.0
 40
0.0
 40
0.2684068578681624
 40
0.6323731060287935
 40
0.9999999999999999
 40
0.9999999999999999
 40
0.9999999999999999
 40
0.9999999999999999
 10
59.4494555541114
 20
147.005972509608
 30
0.0
 10
59.52154926356376
 20
147.1308430145922
 30
0.0
 10
59.69140380205666
 20
147.4250409710655
 30
0.0
 10
59.95788433368067
 20
147.8865984330479
 30
0.0
 10
60.14785268050437
 20
148.2156323541276
 30
0.0
 10
60.24331212274591
 20
148.3809725021574
 30
0.0
  0
SPLINE
  5
244
330
1F
100
AcDbEntity
  8
0
  6
Continuous
 62
     7
370
    15
100
AcDbSpline
210
0.0
220
0.0
230
1.0
 70
    24
 71
     3
 72
    10
 73
     6
 74
     0
 42
0.00000001
 43
0.00000001
 12
1.0
 22
0.0
 32
0.0
 13
1.0
 23
0.0
 33
0.0
 40
0.0
 40
0.0
 40
0.0
 40
0.0
 40
0.0700124678631176
 40
0.5307444184909671
 40
1.0
 40
1.0
 40
1.0
 40
1.0
 10
61.83102526001493
 20
148.3809725021574
 30
0.0
 10
61.86861752012318
 20
148.3809725021574
 30
0.0
 10
62.15359365137339
 20
148.3809725021574
 30
0.0
 10
62.69094417190605
 20
148.3809725021574
 30
0.0
 10
63.17466255014517
 20
148.3809725021574
 30
0.0
 10
63.41873845549162
 20
148.3809725021574
 30
0.0
  0
SPLINE
  5
245
330
1F
100
AcDbEntity
  8
0
  6
Continuous
 62
     7
370
    15
100
AcDbSpline
210
0.0
220
0.0
230
1.0
 70
     8
 71
     3
 72
     9
 73
     5
 74
     0
 42
0.00000001
 43
0.00000001
 12
1.0
 22
0.0
 32
0.0
 13
1.0
 23
0.0
 33
0.0
 40
0.0
 40
0.0
 40
0.0
 40
0.0
 40
0.4954577615756385
 40
1.0
 40
1.0
 40
1.0
 40
1.0
 10
63.41873845549162
 20
148.3809725021574
 30
0.0
 10
63.54766427351023
 20
148.1576667054853
 30
0.0
 10
63.80787983176209
 20
147.7069606837206
 30
0.0
 10
64.07687542768741
 20
147.2410460977355
 30
0.0
 10
64.21259506778188
 20
147.005972509608
 30
0.0
  0
SPLINE
  5
246
330
1F
100
AcDbEntity
  8
0
  6
Continuous
 62
     7
370
    15
100
AcDbSpline
210
0.0
220
0.0
230
1.0
 70
    24
 71
     3
 72
    11
 73
     7
 74
     0
 42
0.00000001
 43
0.00000001
 12
1.0
 22
0.0
 32
0.0
 13
1.0
 23
0.0
 33
0.0
 40
0.0
 40
0.0
 40
0.0
 40
0.0
 40
0.2472686640211247
 40
0.4953626917232824
 40
0.746874084210522
 40
1.0
 40
1.0
 40
1.0
 40
1.0
 10
63.41873845549162
 20
142.8809725319598
 30
0.0
 10
63.29057863072293
 20
142.8809725319598
 30
0.0
 10
63.03383119360014
 20
142.8809725319598
 30
0.0
 10
62.6397911614736
 20
142.8809725319598
 30
0.0
 10
62.23825419499036
 20
142.8809725319598
 30
0.0
 10
61.96705745823709
 20
142.8809725319598
 30
0.0
 10
61.83102526001493
 20
142.8809725319598
 30
0.0
  0
SPLINE
  5
247
330
1F
100
AcDbEntity
  8
0
  6
Continuous
 62
     7
370
    15
100
AcDbSpline
210
0.0
220
0.0
230
1.0
 70
     8
 71
     3
 72
    13
 73
     9
 74
     0
 42
0.00000001
 43
0.00000001
 12
1.0
 22
0.0
 32
0.0
 13
1.0
 23
0.0
 33
0.0
 40
0.0
 40
0.0
 40
0.0
 40
0.0
 40
0.1285441158778991
 40
0.2571859337687105
 40
0.4415226931301762
 40
0.626323752020187
 40
0.8128144820577182
 40
1.0
 40
1.0
 40
1.0
 40
1.0
 10
63.41873845549162
 20
142.8809725319598
 30
0.0
 10
63.45198681520062
 20
142.9385604215585
 30
0.0
 10
63.51850880556664
 20
143.0537799713534
 30
0.0
 10
63.63376758145549
 20
143.2534157452271
 30
0.0
 10
63.76479721435502
 20
143.4803626989749
 30
0.0
 10
63.91243700183225
 20
143.7360844154274
 30
0.0
 10
64.06189856284423
 20
143.9949584437365
 30
0.0
 10
64.16230067254445
 20
144.1688606711879
 30
0.0
 10
64.21259506778188
 20
144.2559734558318
 30
0.0
  0
SPLINE
  5
248
330
1F
100
AcDbEntity
  8
0
  6
Continuous
 62
     7
370
    15
100
AcDbSpline
210
0.0
220
0.0
230
1.0
 70
     8
 71
     3
 72
    13
 73
     9
 74
     0
 42
0.00000001
 43
0.00000001
 12
1.0
 22
0.0
 32
0.0
 13
1.0
 23
0.0
 33
0.0
 40
0.0
 40
0.0
 40
0.0
 40
0.0
 40
0.1340634192304563
 40
0.2683985025141641
 40
0.4501240001695693
 40
0.632394853590455
 40
0.8160264195802205
 40
1.0
 40
1.0
 40
1.0
 40
1.0
 10
64.21259506778188
 20
144.2559734558318
 30
0.0
 10
64.24861428155484
 20
144.3183600377067
 30
0.0
 10
64.32072569788224
 20
144.4432596206678
 30
0.0
 10
64.4414092457821
 20
144.6522918925961
 30
0.0
 10
64.5744232104493
 20
144.8826767338038
 30
0.0
 10
64.7193896556129
 20
145.1337674859753
 30
0.0
 10
64.86364929755173
 20
145.3836314404378
 30
0.0
 10
64.95882138972888
 20
145.5484743690383
 30
0.0
 10
65.00645170917596
 20
145.6309725170586
 30
0.0
  0
SPLINE
  5
249
330
1F
100
AcDbEntity
  8
0
  6
Continuous
 62
     7
370
    15
100
AcDbSpline
210
0.0
220
0.0
230
1.0
 70
     8
 71
     3
 72
    10
 73
     6
 74
     0
 42
0.00000001
 43
0.00000001
 12
1.0
 22
0.0
 32
0.0
 13
1.0
 23
0.0
 33
0.0
 40
0.0
 40
0.0
 40
0.0
 40
0.0
 40
0.07001233235508
 40
0.5307440241956519
 40
1.0
 40
1.0
 40
1.0
 40
1.0
 10
64.21259506778188
 20
147.005972509608
 30
0.0
 10
64.23139121490864
 20
146.9734167502779
 30
0.0
 10
64.37387957988469
 20
146.726620591139
 30
0.0
 10
64.64255478545608
 20
146.2612613664472
 30
0.0
 10
64.88441377330123
 20
145.8423487205119
 30
0.0
 10
65.00645170917596
 20
145.6309725170586
 30
0.0
  0
CIRCLE
  5
24A
330
1F
100
AcDbEntity
  8
0
  6
Continuous
 62
     7
370
    15
100
AcDbCircle
 10
47.3310252041
 20
157.6309729432
 30
0.0
 40
2.125000000000023
  0
CIRCLE
  5
24B
330
1F
100
AcDbEntity
  8
0
  6
Continuous
 62
     7
370
    15
100
AcDbCircle
 10
47.3310252041
 20
157.6309729432
 30
0.0
 40
2.25000000000002
  0
LINE
  5
24C
330
1F
100
AcDbEntity
  8
0
  6
Continuous
 62
     7
370
    15
100
AcDbLine
 10
46.7406849772
 20
158.6534728402
 30
0.0
 11
46.1503438116
 21
157.6309728542
 31
0.0
  0
LINE
  5
24D
330
1F
100
AcDbEntity
  8
0
  6
Continuous
 62
     7
370
    15
100
AcDbLine
 10
46.1503438116
 20
157.6309728542
 30
0.0
 11
46.7406849772
 21
156.608473101
 31
0.0
  0
LINE
  5
24E
330
1F
100
AcDbEntity
  8
0
  6
Continuous
 62
     7
370
    15
100
AcDbLine
 10
47.9213654459
 20
156.608473101
 30
0.0
 11
46.7406849772
 21
156.608473101
 31
0.0
  0
LINE
  5
24F
330
1F
100
AcDbEntity
  8
0
  6
Continuous
 62
     7
370
    15
100
AcDbLine
 10
48.5117066116
 20
157.6309728542
 30
0.0
 11
47.9213654459
 21
156.608473101
 31
0.0
  0
LINE
  5
250
330
1F
100
AcDbEntity
  8
0
  6
Continuous
 62
     7
370
    15
100
AcDbLine
 10
48.5117066116
 20
157.6309728542
 30
0.0
 11
47.9213654459
 21
158.6534728402
 31
0.0
  0
LINE
  5
251
330
1F
100
AcDbEntity
  8
0
  6
Continuous
 62
     7
370
    15
100
AcDbLine
 10
46.7406849772
 20
158.6534728402
 30
0.0
 11
47.9213654459
 21
158.6534728402
 31
0.0
  0
ARC
  5
252
330
1F
100
AcDbEntity
  8
0
  6
Continuous
 62
     7
370
    15
100
AcDbCircle
 10
47.3310252041
 20
157.6309729432
 30
0.0
 40
1.022500000000005
100
AcDbArc
 50
150.0
 51
210.0
  0
ARC
  5
253
330
1F
100
AcDbEntity
  8
0
  6
Continuous
 62
     7
370
    15
100
AcDbCircle
 10
47.3310252041
 20
157.6309729432
 30
0.0
 40
1.022500000000005
100
AcDbArc
 50
330.0
 51
30.0
  0
ARC
  5
254
330
1F
100
AcDbEntity
  8
0
  6
Continuous
 62
     7
370
    15
100
AcDbCircle
 10
47.3310252041
 20
157.6309729432
 30
0.0
 40
1.022500000000065
100
AcDbArc
 50
270.0
 51
330.0
  0
ARC
  5
255
330
1F
100
AcDbEntity
  8
0
  6
Continuous
 62
     7
370
    15
100
AcDbCircle
 10
47.3310252041
 20
157.6309729432
 30
0.0
 40
1.022500000000065
100
AcDbArc
 50
210.0
 51
270.0
  0
ARC
  5
256
330
1F
100
AcDbEntity
  8
0
  6
Continuous
 62
     7
370
    15
100
AcDbCircle
 10
47.3310252041
 20
157.6309729432
 30
0.0
 40
1.022500000000008
100
AcDbArc
 50
90.0
 51
150.0
  0
ARC
  5
257
330
1F
100
AcDbEntity
  8
0
  6
Continuous
 62
     7
370
    15
100
AcDbCircle
 10
47.3310252041
 20
157.6309729432
 30
0.0
 40
1.022500000000008
100
AcDbArc
 50
30.0
 51
90.0
  0
ARC
  5
258
330
1F
100
AcDbEntity
  8
0
  6
Continuous
 62
     7
370
    15
100
AcDbCircle
 10
47.3310252041
 20
138.6309729432
 30
0.0
 40
2.249999999999993
100
AcDbArc
 50
108.5652844741
 51
218.1630322767
  0
CIRCLE
  5
259
330
1F
100
AcDbEntity
  8
0
  6
Continuous
 62
     7
370
    15
100
AcDbCircle
 10
61.3310252041
 20
157.6309729432
 30
0.0
 40
2.125000000000023
  0
LINE
  5
25A
330
1F
100
AcDbEntity
  8
0
  6
Continuous
 62
     7
370
    15
100
AcDbLine
 10
60.7406844781
 20
158.6534728402
 30
0.0
 11
60.1503437781
 21
157.6309728542
 31
0.0
  0
LINE
  5
25B
330
1F
100
AcDbEntity
  8
0
  6
Continuous
 62
     7
370
    15
100
AcDbLine
 10
60.1503437781
 20
157.6309728542
 30
0.0
 11
60.7406844781
 21
156.608473101
 31
0.0
  0
LINE
  5
25C
330
1F
100
AcDbEntity
  8
0
  6
Continuous
 62
     7
370
    15
100
AcDbLine
 10
61.9213658781
 20
156.608473101
 30
0.0
 11
60.7406844781
 21
156.608473101
 31
0.0
  0
LINE
  5
25D
330
1F
100
AcDbEntity
  8
0
  6
Continuous
 62
     7
370
    15
100
AcDbLine
 10
62.5117064616
 20
157.6309728542
 30
0.0
 11
61.9213658781
 21
156.608473101
 31
0.0
  0
LINE
  5
25E
330
1F
100
AcDbEntity
  8
0
  6
Continuous
 62
     7
370
    15
100
AcDbLine
 10
62.5117064616
 20
157.6309728542
 30
0.0
 11
61.9213658781
 21
158.6534728402
 31
0.0
  0
LINE
  5
25F
330
1F
100
AcDbEntity
  8
0
  6
Continuous
 62
     7
370
    15
100
AcDbLine
 10
60.7406844781
 20
158.6534728402
 30
0.0
 11
61.9213658781
 21
158.6534728402
 31
0.0
  0
CIRCLE
  5
260
330
1F
100
AcDbEntity
  8
0
  6
Continuous
 62
     7
370
    15
100
AcDbCircle
 10
61.3310252041
 20
157.6309729432
 30
0.0
 40
2.250000000000041
  0
ARC
  5
261
330
1F
100
AcDbEntity
  8
0
  6
Continuous
 62
     7
370
    15
100
AcDbCircle
 10
61.3310252041
 20
157.6309729432
 30
0.0
 40
1.022499999999999
100
AcDbArc
 50
150.0
 51
210.0
  0
ARC
  5
262
330
1F
100
AcDbEntity
  8
0
  6
Continuous
 62
     7
370
    15
100
AcDbCircle
 10
61.3310252041
 20
157.6309729432
 30
0.0
 40
1.022500000000008
100
AcDbArc
 50
90.0
 51
150.0
  0
ARC
  5
263
330
1F
100
AcDbEntity
  8
0
  6
Continuous
 62
     7
370
    15
100
AcDbCircle
 10
61.3310252041
 20
157.6309729432
 30
0.0
 40
1.022500000000065
100
AcDbArc
 50
270.0
 51
330.0
  0
ARC
  5
264
330
1F
100
AcDbEntity
  8
0
  6
Continuous
 62
     7
370
    15
100
AcDbCircle
 10
61.3310252041
 20
157.6309729432
 30
0.0
 40
1.022500000000012
100
AcDbArc
 50
330.0
 51
30.0
  0
ARC
  5
265
330
1F
100
AcDbEntity
  8
0
  6
Continuous
 62
     7
370
    15
100
AcDbCircle
 10
61.3310252041
 20
157.6309729432
 30
0.0
 40
1.022500000000065
100
AcDbArc
 50
210.0
 51
270.0
  0
ARC
  5
266
330
1F
100
AcDbEntity
  8
0
  6
Continuous
 62
     7
370
    15
100
AcDbCircle
 10
61.3310252041
 20
157.6309729432
 30
0.0
 40
1.022500000000012
100
AcDbArc
 50
30.0
 51
90.0
  0
LINE
  5
267
330
1F
100
AcDbEntity
  8
0
  6
Continuous
 62
     7
370
    15
100
AcDbLine
 10
44.6925408602
 20
134.3309730863
 30
0.0
 11
64.3310252041
 21
134.3309730863
 31
0.0
  0
LINE
  5
268
330
1F
100
AcDbEntity
  8
0
  6
Continuous
 62
     7
370
    15
100
AcDbLine
 10
64.3310252041
 20
134.3309730863
 30
0.0
 11
64.3310252041
 21
131.3309725945
 31
0.0
  0
LINE
  5
269
330
1F
100
AcDbEntity
  8
0
  6
Continuous
 62
     7
370
    15
100
AcDbLine
 10
64.3310252041
 20
131.3309725945
 30
0.0
 11
44.3310256512
 21
131.3309725945
 31
0.0
  0
LINE
  5
26A
330
1F
100
AcDbEntity
  8
0
  6
Continuous
 62
     7
370
    15
100
AcDbLine
 10
44.3310256512
 20
131.3309725945
 30
0.0
 11
44.3310256512
 21
133.1210546767
 31
0.0
  0
LWPOLYLINE
  5
26B
330
1F
100
AcDbEntity
  8
0
  6
Continuous
 62
     7
370
    15
100
AcDbPolyline
 90
        4
 70
   128
 43
0.0
 10
44.6925408602
 20
134.3309730863
 10
44.5689003379
 20
133.9171697026
 10
44.4476216496
 20
133.5112769728
 10
44.3310256512
 20
133.1210546767
  0
ARC
  5
26C
330
1F
100
AcDbEntity
  8
0
  6
Continuous
 62
     7
370
    15
100
AcDbCircle
 10
60.3310252041
 20
147.6309729432
 30
0.0
 40
4.0
100
AcDbArc
 50
0.0
 51
90.0
  0
LINE
  5
26D
330
1F
100
AcDbEntity
  8
0
  6
Continuous
 62
     7
370
    15
100
AcDbLine
 10
64.3310252041
 20
134.3309730863
 30
0.0
 11
64.3310252041
 21
144.4610991155
 31
0.0
  0
LINE
  5
26E
330
1F
100
AcDbEntity
  8
0
  6
Continuous
 62
     7
370
    15
100
AcDbLine
 10
64.3310252041
 20
146.8008459186
 30
0.0
 11
64.3310252041
 21
147.6309728449
 31
0.0
  0
LINE
  5
26F
330
1F
100
AcDbEntity
  8
0
  6
Continuous
 62
     7
370
    15
100
AcDbLine
 10
44.6925408602
 20
134.3309730863
 30
0.0
 11
48.582163027
 21
147.3487001484
 31
0.0
  0
ARC
  5
270
330
1F
100
AcDbEntity
  8
0
  6
Continuous
 62
     7
370
    15
100
AcDbCircle
 10
54.3310252041
 20
145.6309729432
 30
0.0
 40
5.999999999999998
100
AcDbArc
 50
90.0
 51
163.3641583754
  0
LINE
  5
271
330
1F
100
AcDbEntity
  8
0
  6
Continuous
 62
     7
370
    15
100
AcDbLine
 10
60.3310250141
 20
151.6309725692
 30
0.0
 11
54.3310254277
 21
151.6309725692
 31
0.0
  0
LINE
  5
272
330
1F
100
AcDbEntity
  8
0
  6
Continuous
 62
     7
370
    15
100
AcDbLine
 10
63.8310251804
 20
128.8309731161
 30
0.0
 11
63.8310251804
 21
131.3309725945
 31
0.0
  0
LINE
  5
273
330
1F
100
AcDbEntity
  8
0
  6
Continuous
 62
     7
370
    15
100
AcDbLine
 10
63.8310251804
 20
128.8309731161
 30
0.0
 11
44.8310248018
 21
128.8309731161
 31
0.0
  0
LINE
  5
274
330
1F
100
AcDbEntity
  8
0
  6
Continuous
 62
     7
370
    15
100
AcDbLine
 10
44.8310248018
 20
128.8309731161
 30
0.0
 11
44.8310248018
 21
131.3309725945
 31
0.0
  0
LINE
  5
275
330
1F
100
AcDbEntity
  8
0
  6
Continuous
 62
     7
370
    15
100
AcDbLine
 10
44.3310256512
 20
130.1309727704
 30
0.0
 11
44.3310256512
 21
131.3309725945
 31
0.0
  0
LINE
  5
276
330
1F
100
AcDbEntity
  8
0
  6
Continuous
 62
     7
370
    15
100
AcDbLine
 10
44.8310248018
 20
130.1309727704
 30
0.0
 11
44.3310256512
 21
130.1309727704
 31
0.0
  0
LINE
  5
277
330
1F
100
AcDbEntity
  8
0
  6
Continuous
 62
     7
370
    15
100
AcDbLine
 10
64.3310252041
 20
131.3309725945
 30
0.0
 11
64.3310252041
 21
130.1309727704
 31
0.0
  0
LINE
  5
278
330
1F
100
AcDbEntity
  8
0
  6
Continuous
 62
     7
370
    15
100
AcDbLine
 10
64.3310252041
 20
130.1309727704
 30
0.0
 11
63.8310251804
 21
130.1309727704
 31
0.0
  0
LINE
  5
279
330
1F
100
AcDbEntity
  8
0
  6
Continuous
 62
     7
370
    15
100
AcDbLine
 10
44.3310256512
 20
138.6309732323
 30
0.0
 11
44.3310256512
 21
133.1210546767
 31
0.0
  0
LINE
  5
27A
330
1F
100
AcDbEntity
  8
0
  6
Continuous
 62
     7
370
    15
100
AcDbLine
 10
47.3310242803
 20
160.7309729432
 30
0.0
 11
61.3310251781
 21
160.7309729432
 31
0.0
  0
ARC
  5
27B
330
1F
100
AcDbEntity
  8
0
  6
Continuous
 62
     7
370
    15
100
AcDbCircle
 10
61.3310252041
 20
157.7309729432
 30
0.0
 40
3.000000000000057
100
AcDbArc
 50
0.0
 51
90.0
  0
ARC
  5
27C
330
1F
100
AcDbEntity
  8
0
  6
Continuous
 62
     7
370
    15
100
AcDbCircle
 10
47.3310252041
 20
157.7309729432
 30
0.0
 40
3.000000000000057
100
AcDbArc
 50
90.0
 51
180.0
  0
ARC
  5
27D
330
1F
100
AcDbEntity
  8
0
  6
Continuous
 62
     7
370
    15
100
AcDbCircle
 10
45.3310252041
 20
153.6309729432
 30
0.0
 40
1.000000000000028
100
AcDbArc
 50
90.0
 51
180.0
  0
LINE
  5
27E
330
1F
100
AcDbEntity
  8
0
  6
Continuous
 62
     7
370
    15
100
AcDbLine
 10
45.3310258151
 20
154.630973061
 30
0.0
 11
45.3310258151
 21
154.130972979
 31
0.0
  0
ARC
  5
27F
330
1F
100
AcDbEntity
  8
0
  6
Continuous
 62
     7
370
    15
100
AcDbCircle
 10
45.3310252041
 20
153.6309729432
 30
0.0
 40
0.5000000000000284
100
AcDbArc
 50
90.0
 51
180.0
  0
LINE
  5
280
330
1F
100
AcDbEntity
  8
0
  6
Continuous
 62
     7
370
    15
100
AcDbLine
 10
44.3310256512
 20
153.630972897
 30
0.0
 11
44.8310248018
 21
153.630972897
 31
0.0
  0
LINE
  5
281
330
1F
100
AcDbEntity
  8
0
  6
Continuous
 62
     7
370
    15
100
AcDbLine
 10
45.3310258151
 20
154.630973061
 30
0.0
 11
47.8310252935
 21
154.630973061
 31
0.0
  0
LINE
  5
282
330
1F
100
AcDbEntity
  8
0
  6
Continuous
 62
     7
370
    15
100
AcDbLine
 10
47.8310252935
 20
154.630973061
 30
0.0
 11
47.8310252935
 21
154.130972979
 31
0.0
  0
LINE
  5
283
330
1F
100
AcDbEntity
  8
0
  6
Continuous
 62
     7
370
    15
100
AcDbLine
 10
47.8310252935
 20
154.130972979
 30
0.0
 11
45.3310258151
 21
154.130972979
 31
0.0
  0
LINE
  5
284
330
1F
100
AcDbEntity
  8
0
  6
Continuous
 62
     7
370
    15
100
AcDbLine
 10
46.8737393082
 20
141.6309737241
 30
0.0
 11
45.3310258151
 21
141.6309737241
 31
0.0
  0
LINE
  5
285
330
1F
100
AcDbEntity
  8
0
  6
Continuous
 62
     7
370
    15
100
AcDbLine
 10
45.3310258151
 20
141.6309737241
 30
0.0
 11
45.3310258151
 21
142.1309728747
 31
0.0
  0
LINE
  5
286
330
1F
100
AcDbEntity
  8
0
  6
Continuous
 62
     7
370
    15
100
AcDbLine
 10
44.3310256512
 20
142.6309720253
 30
0.0
 11
44.3310256512
 21
153.630972897
 31
0.0
  0
LINE
  5
287
330
1F
100
AcDbEntity
  8
0
  6
Continuous
 62
     7
370
    15
100
AcDbLine
 10
44.8310248018
 20
153.630972897
 30
0.0
 11
44.8310248018
 21
142.6309720253
 31
0.0
  0
LINE
  5
288
330
1F
100
AcDbEntity
  8
0
  6
Continuous
 62
     7
370
    15
100
AcDbLine
 10
44.3310256512
 20
142.6309720253
 30
0.0
 11
44.8310248018
 21
142.6309720253
 31
0.0
  0
ARC
  5
289
330
1F
100
AcDbEntity
  8
0
  6
Continuous
 62
     7
370
    15
100
AcDbCircle
 10
45.3310252041
 20
142.6309729432
 30
0.0
 40
1.0
100
AcDbArc
 50
180.0
 51
270.0
  0
ARC
  5
28A
330
1F
100
AcDbEntity
  8
0
  6
Continuous
 62
     7
370
    15
100
AcDbCircle
 10
45.3310252041
 20
142.6309729432
 30
0.0
 40
0.5
100
AcDbArc
 50
180.0
 51
270.0
  0
LINE
  5
28B
330
1F
100
AcDbEntity
  8
0
  6
Continuous
 62
     7
370
    15
100
AcDbLine
 10
63.3310251566
 20
154.130972979
 30
0.0
 11
60.8310250961
 21
154.130972979
 31
0.0
  0
ARC
  5
28C
330
1F
100
AcDbEntity
  8
0
  6
Continuous
 62
     7
370
    15
100
AcDbCircle
 10
63.3310252041
 20
153.6309729432
 30
0.0
 40
0.5
100
AcDbArc
 50
0.0
 51
90.0
  0
ARC
  5
28D
330
1F
100
AcDbEntity
  8
0
  6
Continuous
 62
     7
370
    15
100
AcDbCircle
 10
51.3310252041
 20
159.6309729432
 30
0.0
 40
0.5000000000000284
100
AcDbArc
 50
90.0
 51
180.0
  0
ARC
  5
28E
330
1F
100
AcDbEntity
  8
0
  6
Continuous
 62
     7
370
    15
100
AcDbCircle
 10
57.3310252041
 20
159.6309729432
 30
0.0
 40
0.5000000000000284
100
AcDbArc
 50
0.0
 51
90.0
  0
ARC
  5
28F
330
1F
100
AcDbEntity
  8
0
  6
Continuous
 62
     7
370
    15
100
AcDbCircle
 10
47.8310252041
 20
157.1309729432
 30
0.0
 40
2.500000000000028
100
AcDbArc
 50
270.0
 51
0.0
  0
LINE
  5
290
330
1F
100
AcDbEntity
  8
0
  6
Continuous
 62
     7
370
    15
100
AcDbLine
 10
51.3310249359
 20
160.6309729458
 30
0.0
 11
57.3310249881
 21
160.6309729458
 31
0.0
  0
LINE
  5
291
330
1F
100
AcDbEntity
  8
0
  6
Continuous
 62
     7
370
    15
100
AcDbLine
 10
57.3310249881
 20
160.6309729458
 30
0.0
 11
57.3310249881
 21
160.1309729147
 31
0.0
  0
LINE
  5
292
330
1F
100
AcDbEntity
  8
0
  6
Continuous
 62
     7
370
    15
100
AcDbLine
 10
51.3310249359
 20
160.6309729458
 30
0.0
 11
51.3310249359
 21
160.1309729147
 31
0.0
  0
ARC
  5
293
330
1F
100
AcDbEntity
  8
0
  6
Continuous
 62
     7
370
    15
100
AcDbCircle
 10
51.3310252041
 20
159.6309729432
 30
0.0
 40
1.000000000000028
100
AcDbArc
 50
90.0
 51
180.0
  0
LINE
  5
294
330
1F
100
AcDbEntity
  8
0
  6
Continuous
 62
     7
370
    15
100
AcDbLine
 10
50.331024772
 20
159.6309729492
 30
0.0
 11
50.831024854
 21
159.6309729492
 31
0.0
  0
LINE
  5
295
330
1F
100
AcDbEntity
  8
0
  6
Continuous
 62
     7
370
    15
100
AcDbLine
 10
50.331024772
 20
157.1309730051
 30
0.0
 11
50.331024772
 21
159.6309729492
 31
0.0
  0
ARC
  5
296
330
1F
100
AcDbEntity
  8
0
  6
Continuous
 62
     7
370
    15
100
AcDbCircle
 10
57.3310252041
 20
159.6309729432
 30
0.0
 40
1.000000000000028
100
AcDbArc
 50
0.0
 51
90.0
  0
LINE
  5
297
330
1F
100
AcDbEntity
  8
0
  6
Continuous
 62
     7
370
    15
100
AcDbLine
 10
58.331025152
 20
159.6309729492
 30
0.0
 11
57.83102507
 21
159.6309729492
 31
0.0
  0
LINE
  5
298
330
1F
100
AcDbEntity
  8
0
  6
Continuous
 62
     7
370
    15
100
AcDbLine
 10
58.331025152
 20
159.6309729492
 30
0.0
 11
58.331025152
 21
157.1309730051
 31
0.0
  0
ARC
  5
299
330
1F
100
AcDbEntity
  8
0
  6
Continuous
 62
     7
370
    15
100
AcDbCircle
 10
60.8310252041
 20
157.1309729432
 30
0.0
 40
2.500000000000014
100
AcDbArc
 50
180.0
 51
270.0
  0
LINE
  5
29A
330
1F
100
AcDbEntity
  8
0
  6
Continuous
 62
     7
370
    15
100
AcDbLine
 10
60.8310250961
 20
154.130972979
 30
0.0
 11
60.8310250961
 21
154.630973061
 31
0.0
  0
LINE
  5
29B
330
1F
100
AcDbEntity
  8
0
  6
Continuous
 62
     7
370
    15
100
AcDbLine
 10
60.8310250961
 20
154.630973061
 30
0.0
 11
63.3310251566
 21
154.630973061
 31
0.0
  0
LINE
  5
29C
330
1F
100
AcDbEntity
  8
0
  6
Continuous
 62
     7
370
    15
100
AcDbLine
 10
63.3310251566
 20
154.130972979
 30
0.0
 11
63.3310251566
 21
154.630973061
 31
0.0
  0
ARC
  5
29D
330
1F
100
AcDbEntity
  8
0
  6
Continuous
 62
     7
370
    15
100
AcDbCircle
 10
63.3310252041
 20
153.6309729432
 30
0.0
 40
1.0
100
AcDbArc
 50
0.0
 51
90.0
  0
LINE
  5
29E
330
1F
100
AcDbEntity
  8
0
  6
Continuous
 62
     7
370
    15
100
AcDbLine
 10
63.8310251804
 20
153.630972897
 30
0.0
 11
64.3310252041
 21
153.630972897
 31
0.0
  0
LINE
  5
29F
330
1F
100
AcDbEntity
  8
0
  6
Continuous
 62
     7
370
    15
100
AcDbLine
 10
64.3310252041
 20
153.630972897
 30
0.0
 11
64.3310252041
 21
147.6309728449
 31
0.0
  0
LINE
  5
2A0
330
1F
100
AcDbEntity
  8
0
  6
Continuous
 62
     7
370
    15
100
AcDbLine
 10
50.465000181
 20
160.1309729147
 30
0.0
 11
47.3310242803
 21
160.1309729147
 31
0.0
  0
LINE
  5
2A1
330
1F
100
AcDbEntity
  8
0
  6
Continuous
 62
     7
370
    15
100
AcDbLine
 10
44.8310248018
 20
157.6309728542
 30
0.0
 11
44.8310248018
 21
154.4969981176
 31
0.0
  0
ARC
  5
2A2
330
1F
100
AcDbEntity
  8
0
  6
Continuous
 62
     7
370
    15
100
AcDbCircle
 10
47.3310252041
 20
157.6309729432
 30
0.0
 40
2.500000000000057
100
AcDbArc
 50
90.0
 51
180.0
  0
LINE
  5
2A3
330
1F
100
AcDbEntity
  8
0
  6
Continuous
 62
     7
370
    15
100
AcDbLine
 10
44.8310248018
 20
141.7649482017
 30
0.0
 11
44.8310248018
 21
138.6309732323
 31
0.0
  0
LINE
  5
2A4
330
1F
100
AcDbEntity
  8
0
  6
Continuous
 62
     7
370
    15
100
AcDbLine
 10
44.3310256512
 20
138.6309732323
 30
0.0
 11
44.8310248018
 21
138.6309732323
 31
0.0
  0
LINE
  5
2A5
330
1F
100
AcDbEntity
  8
0
  6
Continuous
 62
     7
370
    15
100
AcDbLine
 10
44.3310256512
 20
138.6309732323
 30
0.0
 11
44.3310256512
 21
142.6309720253
 31
0.0
  0
LINE
  5
2A6
330
1F
100
AcDbEntity
  8
0
  6
Continuous
 62
     7
370
    15
100
AcDbLine
 10
44.8310248018
 20
157.6309728542
 30
0.0
 11
44.3310256512
 21
157.6309728542
 31
0.0
  0
ARC
  5
2A7
330
1F
100
AcDbEntity
  8
0
  6
Continuous
 62
     7
370
    15
100
AcDbCircle
 10
47.3310252041
 20
157.6309729432
 30
0.0
 40
3.000000000000057
100
AcDbArc
 50
90.0
 51
180.0
  0
LINE
  5
2A8
330
1F
100
AcDbEntity
  8
0
  6
Continuous
 62
     7
370
    15
100
AcDbLine
 10
47.3310242803
 20
160.1309729147
 30
0.0
 11
47.3310242803
 21
160.6309729458
 31
0.0
  0
LINE
  5
2A9
330
1F
100
AcDbEntity
  8
0
  6
Continuous
 62
     7
370
    15
100
AcDbLine
 10
44.3310256512
 20
153.630972897
 30
0.0
 11
44.3310256512
 21
157.6309728542
 31
0.0
  0
ARC
  5
2AA
330
1F
100
AcDbEntity
  8
0
  6
Continuous
 62
     7
370
    15
100
AcDbCircle
 10
47.3310252041
 20
138.6309729432
 30
0.0
 40
3.000000000000015
100
AcDbArc
 50
180.0
 51
227.7482402706
  0
LINE
  5
2AB
330
1F
100
AcDbEntity
  8
0
  6
Continuous
 62
     7
370
    15
100
AcDbLine
 10
47.3310242803
 20
160.6309729458
 30
0.0
 11
51.3310249359
 21
160.6309729458
 31
0.0
  0
LINE
  5
2AC
330
1F
100
AcDbEntity
  8
0
  6
Continuous
 62
     7
370
    15
100
AcDbLine
 10
61.3310251781
 20
160.1309729147
 30
0.0
 11
58.1970506743
 21
160.1309729147
 31
0.0
  0
LINE
  5
2AD
330
1F
100
AcDbEntity
  8
0
  6
Continuous
 62
     7
370
    15
100
AcDbLine
 10
61.3310251781
 20
160.1309729147
 30
0.0
 11
61.3310251781
 21
160.6309729458
 31
0.0
  0
LINE
  5
2AE
330
1F
100
AcDbEntity
  8
0
  6
Continuous
 62
     7
370
    15
100
AcDbLine
 10
57.3310249881
 20
160.6309729458
 30
0.0
 11
61.3310251781
 21
160.6309729458
 31
0.0
  0
LINE
  5
2AF
330
1F
100
AcDbEntity
  8
0
  6
Continuous
 62
     7
370
    15
100
AcDbLine
 10
63.8310251804
 20
154.4969981176
 30
0.0
 11
63.8310251804
 21
157.6309728542
 31
0.0
  0
ARC
  5
2B0
330
1F
100
AcDbEntity
  8
0
  6
Continuous
 62
     7
370
    15
100
AcDbCircle
 10
61.3310252041
 20
157.6309729432
 30
0.0
 40
2.500000000000028
100
AcDbArc
 50
0.0
 51
90.0
  0
ARC
  5
2B1
330
1F
100
AcDbEntity
  8
0
  6
Continuous
 62
     7
370
    15
100
AcDbCircle
 10
61.3310252041
 20
157.6309729432
 30
0.0
 40
3.000000000000028
100
AcDbArc
 50
0.0
 51
90.0
  0
LINE
  5
2B2
330
1F
100
AcDbEntity
  8
0
  6
Continuous
 62
     7
370
    15
100
AcDbLine
 10
63.8310251804
 20
157.6309728542
 30
0.0
 11
64.3310252041
 21
157.6309728542
 31
0.0
  0
LINE
  5
2B3
330
1F
100
AcDbEntity
  8
0
  6
Continuous
 62
     7
370
    15
100
AcDbLine
 10
64.3310252041
 20
157.6309728542
 30
0.0
 11
64.3310252041
 21
153.630972897
 31
0.0
  0
LINE
  5
2B4
330
1F
100
AcDbEntity
  8
0
  6
Continuous
 62
     8
370
    15
100
AcDbLine
 10
45.4907215596
 20
137.5684738731
 30
0.0
 11
45.6064048619
 21
137.3894773995
 31
0.0
  0
ARC
  5
2B5
330
1F
100
AcDbEntity
  8
0
  6
Continuous
 62
     8
370
    15
100
AcDbCircle
 10
47.3310252041
 20
138.6309729432
 30
0.0
 40
2.125000000000008
100
AcDbArc
 50
110.9794867903
 51
210.0
  0
LINE
  5
2B6
330
1F
100
AcDbEntity
  8
0
  6
Continuous
 62
     8
370
    15
100
AcDbLine
 10
45.3310258151
 20
142.1309728747
 30
0.0
 11
47.0231364877
 21
142.1309728747
 31
0.0
  0
LINE
  5
2B7
330
1F
100
AcDbEntity
  8
0
  6
Continuous
 62
     8
370
    15
100
AcDbLine
 10
63.8310251804
 20
149.5674644237
 30
0.0
 11
63.8310251804
 21
153.630972897
 31
0.0
  0
ARC
  5
2B8
330
1F
100
AcDbEntity
  8
0
  6
Continuous
 62
     8
370
    15
100
AcDbCircle
 10
47.8310252041
 20
157.1309729432
 30
0.0
 40
3.000000000000028
100
AcDbArc
 50
270.0
 51
330.7736834849
  0
LINE
  5
2B9
330
1F
100
AcDbEntity
  8
0
  6
Continuous
 62
     8
370
    15
100
AcDbLine
 10
50.831024854
 20
159.6309729492
 30
0.0
 11
50.831024854
 21
158.5674645019
 31
0.0
  0
LINE
  5
2BA
330
1F
100
AcDbEntity
  8
0
  6
Continuous
 62
     8
370
    15
100
AcDbLine
 10
57.3310249881
 20
160.1309729147
 30
0.0
 11
56.2675170065
 21
160.1309729147
 31
0.0
  0
LINE
  5
2BB
330
1F
100
AcDbEntity
  8
0
  6
Continuous
 62
     8
370
    15
100
AcDbLine
 10
52.3945338488
 20
160.1309729147
 30
0.0
 11
51.3310249359
 21
160.1309729147
 31
0.0
  0
LINE
  5
2BC
330
1F
100
AcDbEntity
  8
0
  6
Continuous
 62
     8
370
    15
100
AcDbLine
 10
57.83102507
 20
158.5674645019
 30
0.0
 11
57.83102507
 21
159.6309729492
 31
0.0
  0
ARC
  5
2BD
330
1F
100
AcDbEntity
  8
0
  6
Continuous
 62
     8
370
    15
100
AcDbCircle
 10
60.8310252041
 20
157.1309729432
 30
0.0
 40
3.0
100
AcDbArc
 50
209.2263165151
 51
270.0
  0
LINE
  5
2BE
330
1F
100
AcDbEntity
  8
0
  6
Continuous
 62
     8
370
    15
100
AcDbLine
 10
50.331024772
 20
157.1309730051
 30
0.0
 11
50.3623982356
 21
157.1309730051
 31
0.0
  0
LINE
  5
2BF
330
1F
100
AcDbEntity
  8
0
  6
Continuous
 62
     8
370
    15
100
AcDbLine
 10
58.2996521541
 20
157.1309730051
 30
0.0
 11
58.331025152
 21
157.1309730051
 31
0.0
  0
ARC
  5
2C0
330
1F
100
AcDbEntity
  8
0
  6
Continuous
 62
     8
370
    15
100
AcDbCircle
 10
47.3310252041
 20
138.6309729432
 30
0.0
 40
2.500000000000009
100
AcDbArc
 50
180.0
 51
222.1121289667
  0
DIMENSION
  5
2C1
330
1F
100
AcDbEntity
  8
0
  6
Continuous
 62
     7
370
     0
100
AcDbDimension
  2
_D_10
 10
60.1378090419
 20
194.1685765403
 30
0.0
 11
54.3300840936
 21
194.168393969
 31
0.0
 70
   160
  1
(<>)
 71
     2
 42
-1.0
  3
SLDDIMSTYLE0
100
AcDbAlignedDimension
 13
48.5231823191
 23
167.9824619833
 33
0.0
 14
60.1386322592
 24
167.9814439444
 34
0.0
 50
0.0018011469
100
AcDbRotatedDimension
  0
DIMENSION
  5
2CD
330
1F
100
AcDbEntity
  8
0
  6
Continuous
 62
     7
370
     0
100
AcDbDimension
  2
_D_11
 10
37.3352152503
 20
128.8309729432
 30
0.0
 11
37.3352152503
 21
145.34793558
 31
0.0
 70
   160
  1
<>
 71
     2
 42
-1.0
  3
SLDDIMSTYLE2
100
AcDbAlignedDimension
 13
47.0310252041
 23
164.2309729432
 33
0.0
 14
44.8310252041
 24
128.8309729432
 34
0.0
 50
90.0
100
AcDbRotatedDimension
  0
DIMENSION
  5
2D7
330
1F
100
AcDbEntity
  8
0
  6
Continuous
 62
     7
370
     0
100
AcDbDimension
  2
_D_12
 10
64.3310252041
 20
120.6088507302
 30
0.0
 11
54.3310252041
 21
120.6088507302
 31
0.0
 70
   160
  1
<>
 71
     2
 42
-1.0
  3
SLDDIMSTYLE3
100
AcDbAlignedDimension
 13
44.3310252041
 23
132.3309729432
 33
0.0
 14
64.3310252041
 24
131.3309729432
 34
0.0
100
AcDbRotatedDimension
  0
DIMENSION
  5
2E1
330
1F
100
AcDbEntity
  8
0
  6
Continuous
 62
     7
370
     0
100
AcDbDimension
  2
_D_13
 10
72.2216769039
 20
128.8309729432
 30
0.0
 11
72.2216769039
 21
145.34793558
 31
0.0
 70
   160
  1
<>
 71
     2
 42
-1.0
  3
SLDDIMSTYLE2
100
AcDbAlignedDimension
 13
61.3310252041
 23
160.7309729432
 33
0.0
 14
63.8310252041
 24
128.8309729432
 34
0.0
 50
90.0
100
AcDbRotatedDimension
  0
DIMENSION
  5
2EB
330
1F
100
AcDbEntity
  8
0
  6
Continuous
 62
     7
370
     0
100
AcDbDimension
  2
_D_14
 10
79.6734444196
 20
128.8309729432
 30
0.0
 11
79.6734444196
 21
145.34793558
 31
0.0
 70
   160
  1
<>
 71
     2
 42
-1.0
  3
SLDDIMSTYLE2
100
AcDbAlignedDimension
 13
61.5017364623
 23
168.6309729469
 33
0.0
 14
63.8310252041
 24
128.8309729432
 34
0.0
 50
90.0
100
AcDbRotatedDimension
  0
DIMENSION
  5
2F5
330
1F
100
AcDbEntity
  8
0
  6
Continuous
 62
     7
370
     0
100
AcDbDimension
  2
_D_15
 10
79.6734444196
 20
168.6309729516
 30
0.0
 11
79.6734444183
 21
173.8882093654
 31
0.0
 70
   160
  1
<>
 71
     2
 42
-1.0
  3
SLDDIMSTYLE2
100
AcDbAlignedDimension
 13
55.9305563589
 23
179.1454457731
 33
0.0
 14
61.5017364623
 24
168.6309729469
 34
0.0
 50
90.0
100
AcDbRotatedDimension
  0
DIMENSION
  5
2FF
330
1F
100
AcDbEntity
  8
0
  6
Continuous
 62
     7
370
     0
100
AcDbDimension
  2
_D_16
 10
55.9303311338
 20
186.31008526
 30
0.0
 11
66.5088088482
 21
186.3104178012
 31
0.0
 70
   160
  1
<>
 71
     2
 42
-1.0
  3
SLDDIMSTYLE6
100
AcDbAlignedDimension
 13
52.7305563605
 23
179.145345179
 33
0.0
 14
55.9305563589
 24
179.1454457731
 34
0.0
 50
0.0018011297
100
AcDbRotatedDimension
  0
INSERT
  5
317
330
1F
100
AcDbEntity
  8
0
  6
Continuous
 62
     7
370
     0
100
AcDbBlockReference
  2
SW_CENTERMARKSYMBOL_0
 10
54.3310252041
 20
145.6309729432
 30
0.0
  0
INSERT
  5
323
330
1F
100
AcDbEntity
  8
0
  6
Continuous
 62
     7
370
     0
100
AcDbBlockReference
  2
SW_CENTERMARKSYMBOL_1
 10
61.8310252041
 20
145.6309729432
 30
0.0
  0
INSERT
  5
32F
330
1F
100
AcDbEntity
  8
0
  6
Continuous
 62
     7
370
     0
100
AcDbBlockReference
  2
SW_CENTERMARKSYMBOL_2
 10
54.3310252041
 20
156.6309729432
 30
0.0
  0
INSERT
  5
33B
330
1F
100
AcDbEntity
  8
0
  6
Continuous
 62
     7
370
     0
100
AcDbBlockReference
  2
SW_CENTERMARKSYMBOL_3
 10
61.3310252041
 20
157.6309729432
 30
0.0
  0
INSERT
  5
347
330
1F
100
AcDbEntity
  8
0
  6
Continuous
 62
     7
370
     0
100
AcDbBlockReference
  2
SW_CENTERMARKSYMBOL_4
 10
47.3310252041
 20
157.6309729432
 30
0.0
  0
INSERT
  5
353
330
1F
100
AcDbEntity
  8
0
  6
Continuous
 62
     7
370
     0
100
AcDbBlockReference
  2
SW_CENTERMARKSYMBOL_5
 10
54.3310252041
 20
164.2309729432
 30
0.0
  0
LINE
  5
354
330
1F
100
AcDbEntity
  8
0
  6
Continuous
 62
     7
370
    15
100
AcDbLine
 10
124.4631248257
 20
78.8716924787
 30
0.0
 11
112.3631248913
 21
78.8716924787
 31
0.0
  0
LINE
  5
355
330
1F
100
AcDbEntity
  8
0
  6
Continuous
 62
     7
370
    15
100
AcDbLine
 10
112.3631248913
 20
70.8716920987
 30
0.0
 11
124.4631248257
 21
70.8716920987
 31
0.0
  0
LINE
  5
356
330
1F
100
AcDbEntity
  8
0
  6
Continuous
 62
     7
370
    15
100
AcDbLine
 10
111.4631245575
 20
78.7216927335
 30
0.0
 11
109.9631215177
 21
78.7216927335
 31
0.0
  0
LINE
  5
357
330
1F
100
AcDbEntity
  8
0
  6
Continuous
 62
     7
370
    15
100
AcDbLine
 10
109.9631215177
 20
71.0216927752
 30
0.0
 11
111.4631245575
 21
71.0216927752
 31
0.0
  0
LINE
  5
358
330
1F
100
AcDbEntity
  8
0
  6
Continuous
 62
     7
370
    15
100
AcDbLine
 10
112.3631248913
 20
77.2716924027
 30
0.0
 11
111.4631245575
 21
77.2716924027
 31
0.0
  0
LINE
  5
359
330
1F
100
AcDbEntity
  8
0
  6
Continuous
 62
     7
370
    15
100
AcDbLine
 10
111.4631245575
 20
72.4716921747
 30
0.0
 11
112.3631248913
 21
72.4716921747
 31
0.0
  0
ARC
  5
35A
330
1F
100
AcDbEntity
  8
0
  6
Continuous
 62
     7
370
    15
100
AcDbCircle
 10
180.5381231866
 20
83.9966925309
 30
0.0
 40
0.1250000000000284
100
AcDbArc
 50
0.0
 51
90.0
  0
ARC
  5
35B
330
1F
100
AcDbEntity
  8
0
  6
Continuous
 62
     7
370
    15
100
AcDbCircle
 10
180.5381231866
 20
79.7466925309
 30
0.0
 40
0.1250000000000284
100
AcDbArc
 50
270.0
 51
360.0
  0
LINE
  5
35C
330
1F
100
AcDbEntity
  8
0
  6
Continuous
 62
     7
370
    15
100
AcDbLine
 10
180.5381231672
 20
84.1216925243
 30
0.0
 11
178.1631232436
 21
84.1216925243
 31
0.0
  0
LINE
  5
35D
330
1F
100
AcDbEntity
  8
0
  6
Continuous
 62
     7
370
    15
100
AcDbLine
 10
178.1631232436
 20
79.6216926016
 30
0.0
 11
180.5381231672
 21
79.6216926016
 31
0.0
  0
LINE
  5
35E
330
1F
100
AcDbEntity
  8
0
  6
Continuous
 62
     7
370
    15
100
AcDbLine
 10
180.5381231672
 20
70.1216924415
 30
0.0
 11
178.1631232436
 21
70.1216924415
 31
0.0
  0
LINE
  5
35F
330
1F
100
AcDbEntity
  8
0
  6
Continuous
 62
     7
370
    15
100
AcDbLine
 10
178.1631232436
 20
65.6216926352
 30
0.0
 11
180.5381231672
 21
65.6216926352
 31
0.0
  0
ARC
  5
360
330
1F
100
AcDbEntity
  8
0
  6
Continuous
 62
     7
370
    15
100
AcDbCircle
 10
180.5381231866
 20
69.9966925309
 30
0.0
 40
0.125
100
AcDbArc
 50
0.0
 51
90.0
  0
ARC
  5
361
330
1F
100
AcDbEntity
  8
0
  6
Continuous
 62
     7
370
    15
100
AcDbCircle
 10
180.5381231866
 20
65.7466925309
 30
0.0
 40
0.125
100
AcDbArc
 50
270.0
 51
0.0
  0
LINE
  5
362
330
1F
100
AcDbEntity
  8
0
  6
Continuous
 62
     7
370
    15
100
AcDbLine
 10
118.6250696621
 20
80.8716923409
 30
0.0
 11
122.0631214521
 21
80.8716923409
 31
0.0
  0
LINE
  5
363
330
1F
100
AcDbEntity
  8
0
  6
Continuous
 62
     7
370
    15
100
AcDbLine
 10
122.0631214521
 20
83.8716924834
 30
0.0
 11
118.6250696621
 21
83.8716924834
 31
0.0
  0
LINE
  5
364
330
1F
100
AcDbEntity
  8
0
  6
Continuous
 62
     7
370
    15
100
AcDbLine
 10
118.6250696621
 20
83.8716924834
 30
0.0
 11
118.4631238423
 21
83.5911925594
 31
0.0
  0
LINE
  5
365
330
1F
100
AcDbEntity
  8
0
  6
Continuous
 62
     7
370
    15
100
AcDbLine
 10
118.4631238423
 20
81.1521924977
 30
0.0
 11
118.6250696621
 21
80.8716923409
 31
0.0
  0
LINE
  5
366
330
1F
100
AcDbEntity
  8
0
  6
Continuous
 62
     7
370
    15
100
AcDbLine
 10
122.3087447426
 20
85.5471190359
 30
0.0
 11
122.0631214521
 21
85.1216925427
 31
0.0
  0
LINE
  5
367
330
1F
100
AcDbEntity
  8
0
  6
Continuous
 62
     7
370
    15
100
AcDbLine
 10
122.0631214521
 20
79.6216926016
 30
0.0
 11
122.3087447426
 21
79.1962658465
 31
0.0
  0
LINE
  5
368
330
1F
100
AcDbEntity
  8
0
  6
Continuous
 62
     7
370
    15
100
AcDbLine
 10
112.3631248913
 20
70.8716920987
 30
0.0
 11
112.3631248913
 21
78.8716924787
 31
0.0
  0
LINE
  5
369
330
1F
100
AcDbEntity
  8
0
  6
Continuous
 62
     7
370
    15
100
AcDbLine
 10
109.9631215177
 20
71.0216927752
 30
0.0
 11
109.9631215177
 21
78.7216927335
 31
0.0
  0
LINE
  5
36A
330
1F
100
AcDbEntity
  8
0
  6
Continuous
 62
     7
370
    15
100
AcDbLine
 10
111.4631245575
 20
71.0216927752
 30
0.0
 11
111.4631245575
 21
78.7216927335
 31
0.0
  0
LINE
  5
36B
330
1F
100
AcDbEntity
  8
0
  6
Continuous
 62
     7
370
    15
100
AcDbLine
 10
178.1631232436
 20
66.3716922924
 30
0.0
 11
176.9631231866
 21
66.3716922924
 31
0.0
  0
LINE
  5
36C
330
1F
100
AcDbEntity
  8
0
  6
Continuous
 62
     7
370
    15
100
AcDbLine
 10
178.1631232436
 20
64.8716929779
 30
0.0
 11
178.1631232436
 21
66.3716922924
 31
0.0
  0
LINE
  5
36D
330
1F
100
AcDbEntity
  8
0
  6
Continuous
 62
     7
370
    15
100
AcDbLine
 10
178.1631232436
 20
64.8716929779
 30
0.0
 11
176.9631231866
 21
64.8716929779
 31
0.0
  0
LINE
  5
36E
330
1F
100
AcDbEntity
  8
0
  6
Continuous
 62
     7
370
    15
100
AcDbLine
 10
178.1631232436
 20
83.3716925178
 30
0.0
 11
176.9631231866
 21
83.3716925178
 31
0.0
  0
LINE
  5
36F
330
1F
100
AcDbEntity
  8
0
  6
Continuous
 62
     7
370
    15
100
AcDbLine
 10
178.1631232436
 20
66.3716922924
 30
0.0
 11
178.1631232436
 21
83.3716925178
 31
0.0
  0
LINE
  5
370
330
1F
100
AcDbEntity
  8
0
  6
Continuous
 62
     7
370
    15
100
AcDbLine
 10
178.1631232436
 20
84.8716925309
 30
0.0
 11
176.9631231866
 21
84.8716925309
 31
0.0
  0
LINE
  5
371
330
1F
100
AcDbEntity
  8
0
  6
Continuous
 62
     7
370
    15
100
AcDbLine
 10
178.1631232436
 20
83.3716925178
 30
0.0
 11
178.1631232436
 21
84.8716925309
 31
0.0
  0
LINE
  5
372
330
1F
100
AcDbEntity
  8
0
  6
Continuous
 62
     7
370
    15
100
AcDbLine
 10
178.1631232436
 20
65.3716921285
 30
0.0
 11
183.4631233207
 21
65.3716921285
 31
0.0
  0
LINE
  5
373
330
1F
100
AcDbEntity
  8
0
  6
Continuous
 62
     7
370
    15
100
AcDbLine
 10
183.4631233207
 20
65.3716921285
 30
0.0
 11
183.4631233207
 21
64.8716929779
 31
0.0
  0
LINE
  5
374
330
1F
100
AcDbEntity
  8
0
  6
Continuous
 62
     7
370
    15
100
AcDbLine
 10
183.4631233207
 20
64.8716929779
 30
0.0
 11
178.1631232436
 21
64.8716929779
 31
0.0
  0
LINE
  5
375
330
1F
100
AcDbEntity
  8
0
  6
Continuous
 62
     7
370
    15
100
AcDbLine
 10
183.4631233207
 20
65.3716921285
 30
0.0
 11
183.9631234027
 21
65.3716921285
 31
0.0
  0
ARC
  5
376
330
1F
100
AcDbEntity
  8
0
  6
Continuous
 62
     7
370
    15
100
AcDbCircle
 10
183.4631231866
 20
65.3716925309
 30
0.0
 40
0.5
100
AcDbArc
 50
270.0
 51
0.0
  0
LINE
  5
377
330
1F
100
AcDbEntity
  8
0
  6
Continuous
 62
     7
370
    15
100
AcDbLine
 10
183.4631233207
 20
65.3716921285
 30
0.0
 11
183.4631233207
 21
84.3716925071
 31
0.0
  0
LINE
  5
378
330
1F
100
AcDbEntity
  8
0
  6
Continuous
 62
     7
370
    15
100
AcDbLine
 10
183.4631233207
 20
84.3716925071
 30
0.0
 11
183.9631234027
 21
84.3716925071
 31
0.0
  0
LINE
  5
379
330
1F
100
AcDbEntity
  8
0
  6
Continuous
 62
     7
370
    15
100
AcDbLine
 10
183.9631234027
 20
84.3716925071
 30
0.0
 11
183.9631234027
 21
65.3716921285
 31
0.0
  0
LINE
  5
37A
330
1F
100
AcDbEntity
  8
0
  6
Continuous
 62
     7
370
    15
100
AcDbLine
 10
183.4631233207
 20
84.3716925071
 30
0.0
 11
178.1631232436
 21
84.3716925071
 31
0.0
  0
LINE
  5
37B
330
1F
100
AcDbEntity
  8
0
  6
Continuous
 62
     7
370
    15
100
AcDbLine
 10
183.4631233207
 20
84.8716925309
 30
0.0
 11
183.4631233207
 21
84.3716925071
 31
0.0
  0
LINE
  5
37C
330
1F
100
AcDbEntity
  8
0
  6
Continuous
 62
     7
370
    15
100
AcDbLine
 10
178.1631232436
 20
84.8716925309
 30
0.0
 11
183.4631233207
 21
84.8716925309
 31
0.0
  0
ARC
  5
37D
330
1F
100
AcDbEntity
  8
0
  6
Continuous
 62
     7
370
    15
100
AcDbCircle
 10
183.4631231866
 20
84.3716925309
 30
0.0
 40
0.5
100
AcDbArc
 50
0.0
 51
90.0
  0
ELLIPSE
  5
37E
330
1F
100
AcDbEntity
  8
0
  6
Continuous
 62
     7
370
    15
100
AcDbEllipse
 10
187.8488453495
 20
58.6792995859
 30
0.0
 11
-3.858378813798566
 21
21.99988741165951
 31
0.0
210
0.0
220
0.0
230
1.0
 40
0.0182417974
 41
5.754774783612622
 42
6.21319836318095
  0
ELLIPSE
  5
37F
330
1F
100
AcDbEntity
  8
0
  6
Continuous
 62
     7
370
    15
100
AcDbEllipse
 10
169.8438916781
 20
58.6792995859
 30
0.0
 11
82.10236866307326
 21
2.524966068191212
 31
0.0
210
0.0
220
0.0
230
1.0
 40
0.2661874846
 41
1.388983990832473
 42
1.389785870137302
  0
ELLIPSE
  5
380
330
1F
100
AcDbEntity
  8
0
  6
Continuous
 62
     7
370
    15
100
AcDbEllipse
 10
185.6961358743
 20
75.5381638447
 30
0.0
 11
2.798944370169295
 21
0.08607838819406767
 31
0.0
210
0.0
220
0.0
230
1.0
 40
0.2661874846
 41
1.902447110394244
 42
2.230264664901645
  0
LINE
  5
381
330
1F
100
AcDbEntity
  8
0
  6
Continuous
 62
     7
370
    15
100
AcDbLine
 10
184.763122975
 20
76.505803451
 30
0.0
 11
184.0279760502
 21
80.6302511544
 31
0.0
  0
LINE
  5
382
330
1F
100
AcDbEntity
  8
0
  6
Continuous
 62
     7
370
    15
100
AcDbLine
 10
184.763122975
 20
76.2145798132
 30
0.0
 11
184.763122975
 21
76.505803451
 31
0.0
  0
LINE
  5
383
330
1F
100
AcDbEntity
  8
0
  6
Continuous
 62
     7
370
    15
100
AcDbLine
 10
184.763122975
 20
77.4655220509
 30
0.0
 11
184.7190416149
 21
77.714096237
 31
0.0
  0
LINE
  5
384
330
1F
100
AcDbEntity
  8
0
  6
Continuous
 62
     7
370
    15
100
AcDbLine
 10
184.763122975
 20
76.505803451
 30
0.0
 11
184.763122975
 21
77.4655220509
 31
0.0
  0
LINE
  5
385
330
1F
100
AcDbEntity
  8
0
  6
Continuous
 62
     7
370
    15
100
AcDbLine
 10
184.763122975
 20
76.2145798132
 30
0.0
 11
184.763122975
 21
75.6181403474
 31
0.0
  0
ELLIPSE
  5
386
330
1F
100
AcDbEntity
  8
0
  6
Continuous
 62
     7
370
    15
100
AcDbEllipse
 10
184.7631231871
 20
75.5381638447
 30
0.0
 11
0.7633668117382797
 21
-0.7488888743295661
 31
0.0
210
0.0
220
0.0
230
1.0
 40
0.0534603985
 41
1.623194793030562
 42
2.422713868341736
  0
ELLIPSE
  5
387
330
1F
100
AcDbEntity
  8
0
  6
Continuous
 62
     7
370
    15
100
AcDbEllipse
 10
169.8438921564
 20
91.0638496458
 30
0.0
 11
82.10236305130806
 21
-2.526443386298155
 31
0.0
210
0.0
220
0.0
230
1.0
 40
0.2661854233
 41
4.89340416279085
 42
4.89420604210667
  0
ELLIPSE
  5
388
330
1F
100
AcDbEntity
  8
0
  6
Continuous
 62
     7
370
    15
100
AcDbEllipse
 10
187.848845349
 20
91.0638496458
 30
0.0
 11
3.858354320288385
 21
21.99988728095886
 31
0.0
210
0.0
220
0.0
230
1.0
 40
0.0182524983
 41
3.211518582007875
 42
3.669942161751705
  0
LINE
  5
389
330
1F
100
AcDbEntity
  8
0
  6
Continuous
 62
     7
370
    15
100
AcDbLine
 10
183.9631234027
 20
73.5480570645
 30
0.0
 11
184.6138412795
 21
73.5480570645
 31
0.0
  0
ELLIPSE
  5
38A
330
1F
100
AcDbEntity
  8
0
  6
Continuous
 62
     7
370
    15
100
AcDbEllipse
 10
162.370818483
 20
74.8716925309
 30
0.0
 11
22.39155355944765
 21
-0.6890300144449526
 31
0.0
210
0.0
220
0.0
230
1.0
 40
0.2661854233
 41
6.023266689949511
 42
6.175841847425173
  0
ELLIPSE
  5
38B
330
1F
100
AcDbEntity
  8
0
  6
Continuous
 62
     7
370
    15
100
AcDbEllipse
 10
185.6961358826
 20
74.2048305122
 30
0.0
 11
2.798944194930953
 21
-0.08612875180561728
 31
0.0
210
0.0
220
0.0
230
1.0
 40
0.2661854233
 41
4.323565447399377
 42
4.380742911460324
  0
LINE
  5
38C
330
1F
100
AcDbEntity
  8
0
  6
Continuous
 62
     7
370
    15
100
AcDbLine
 10
184.763122975
 20
73.237213254
 30
0.0
 11
184.763122975
 21
73.5284350291
 31
0.0
  0
LINE
  5
38D
330
1F
100
AcDbEntity
  8
0
  6
Continuous
 62
     7
370
    15
100
AcDbLine
 10
184.0279760502
 20
69.1128055975
 30
0.0
 11
184.763122975
 21
73.237213254
 31
0.0
  0
LINE
  5
38E
330
1F
100
AcDbEntity
  8
0
  6
Continuous
 62
     7
370
    15
100
AcDbLine
 10
184.763122975
 20
73.237213254
 30
0.0
 11
184.763122975
 21
72.2769321353
 31
0.0
  0
LINE
  5
38F
330
1F
100
AcDbEntity
  8
0
  6
Continuous
 62
     7
370
    15
100
AcDbLine
 10
184.7190416149
 20
72.0283593461
 30
0.0
 11
184.763122975
 21
72.2769321353
 31
0.0
  0
LINE
  5
390
330
1F
100
AcDbEntity
  8
0
  6
Continuous
 62
     7
370
    15
100
AcDbLine
 10
184.763122975
 20
74.1248074398
 30
0.0
 11
184.763122975
 21
73.5284350291
 31
0.0
  0
ELLIPSE
  5
391
330
1F
100
AcDbEntity
  8
0
  6
Continuous
 62
     7
370
    15
100
AcDbEllipse
 10
184.7631232057
 20
74.2048305122
 30
0.0
 11
0.7633655929055577
 21
0.7488875706245182
 31
0.0
210
0.0
220
0.0
230
1.0
 40
0.0534919183
 41
3.699980564710398
 42
4.659959684620727
  0
LINE
  5
392
330
1F
100
AcDbEntity
  8
0
  6
Continuous
 62
     7
370
    15
100
AcDbLine
 10
180.6631231877
 20
82.9614329329
 30
0.0
 11
180.6631231877
 21
79.7466923893
 31
0.0
  0
LINE
  5
393
330
1F
100
AcDbEntity
  8
0
  6
Continuous
 62
     7
370
    15
100
AcDbLine
 10
180.6631231877
 20
83.9966925039
 30
0.0
 11
180.6631231877
 21
82.9614329329
 31
0.0
  0
LINE
  5
394
330
1F
100
AcDbEntity
  8
0
  6
Continuous
 62
     7
370
    15
100
AcDbLine
 10
180.6631231877
 20
69.9966921881
 30
0.0
 11
180.6631231877
 21
65.7466928885
 31
0.0
  0
LINE
  5
395
330
1F
100
AcDbEntity
  8
0
  6
Continuous
 62
     7
370
    15
100
AcDbLine
 10
118.6250696621
 20
80.8716923409
 30
0.0
 11
118.6250696621
 21
83.8716924834
 31
0.0
  0
LINE
  5
396
330
1F
100
AcDbEntity
  8
0
  6
Continuous
 62
     7
370
    15
100
AcDbLine
 10
118.4631238423
 20
81.1521924977
 30
0.0
 11
118.4631238423
 21
83.5911925594
 31
0.0
  0
LINE
  5
397
330
1F
100
AcDbEntity
  8
0
  6
Continuous
 62
     7
370
    15
100
AcDbLine
 10
124.4631248257
 20
80.7839794495
 30
0.0
 11
122.3087447426
 21
80.7839794495
 31
0.0
  0
SPLINE
  5
398
330
1F
100
AcDbEntity
  8
0
  6
Continuous
 62
     7
370
    15
100
AcDbSpline
210
0.0
220
0.0
230
1.0
 70
     8
 71
     3
 72
    10
 73
     6
 74
     0
 42
0.00000001
 43
0.00000001
 12
1.0
 22
0.0
 32
0.0
 13
1.0
 23
0.0
 33
0.0
 40
0.0
 40
0.0
 40
0.0
 40
0.0
 40
0.0700126145820066
 40
0.5307445796973922
 40
1.0
 40
1.0
 40
1.0
 40
1.0
 10
122.063121452108
 20
82.37169258674429
 30
0.0
 10
122.0634150664918
 20
82.33410024904627
 30
0.0
 10
122.0656408688512
 20
82.04912404025174
 30
0.0
 10
122.1192665911443
 20
81.51177353166821
 30
0.0
 10
122.2452006248868
 20
81.02805525714562
 30
0.0
 10
122.3087447426468
 20
80.78397944947527
 30
0.0
  0
SPLINE
  5
399
330
1F
100
AcDbEntity
  8
0
  6
Continuous
 62
     7
370
    15
100
AcDbSpline
210
0.0
220
0.0
230
1.0
 70
     8
 71
     3
 72
     9
 73
     5
 74
     0
 42
0.00000001
 43
0.00000001
 12
1.0
 22
0.0
 32
0.0
 13
1.0
 23
0.0
 33
0.0
 40
0.0
 40
0.0
 40
0.0
 40
0.0
 40
0.4954580956728794
 40
1.0
 40
1.0
 40
1.0
 40
1.0
 10
122.3087447426468
 20
83.95940578222097
 30
0.0
 10
122.2400936316159
 20
83.70155420363163
 30
0.0
 10
122.1015327490097
 20
83.18112355401406
 30
0.0
 10
122.076002521642
 20
82.64313191354076
 30
0.0
 10
122.063121452108
 20
82.37169258674429
 30
0.0
  0
LINE
  5
39A
330
1F
100
AcDbEntity
  8
0
  6
Continuous
 62
     7
370
    15
100
AcDbLine
 10
124.4631248257
 20
83.9594057822
 30
0.0
 11
122.3087447426
 21
83.9594057822
 31
0.0
  0
SPLINE
  5
39B
330
1F
100
AcDbEntity
  8
0
  6
Continuous
 62
     7
370
    15
100
AcDbSpline
210
0.0
220
0.0
230
1.0
 70
     8
 71
     3
 72
     9
 73
     5
 74
     0
 42
0.00000001
 43
0.00000001
 12
1.0
 22
0.0
 32
0.0
 13
1.0
 23
0.0
 33
0.0
 40
0.0
 40
0.0
 40
0.0
 40
0.0
 40
0.4954580501552145
 40
1.0
 40
1.0
 40
1.0
 40
1.0
 10
122.3087447426468
 20
80.78397944947527
 30
0.0
 10
122.2400936314702
 20
80.65505360838202
 30
0.0
 10
122.1015327358402
 20
80.39483815512044
 30
0.0
 10
122.076002517998
 20
80.12584248217065
 30
0.0
 10
122.063121452108
 20
79.99012288084076
 30
0.0
  0
LINE
  5
39C
330
1F
100
AcDbEntity
  8
0
  6
Continuous
 62
     7
370
    15
100
AcDbLine
 10
122.0631214521
 20
82.3716925867
 30
0.0
 11
122.0631214521
 21
79.9901228808
 31
0.0
  0
SPLINE
  5
39D
330
1F
100
AcDbEntity
  8
0
  6
Continuous
 62
     7
370
    15
100
AcDbSpline
210
0.0
220
0.0
230
1.0
 70
     8
 71
     3
 72
    13
 73
     9
 74
     0
 42
0.00000001
 43
0.00000001
 12
1.0
 22
0.0
 32
0.0
 13
1.0
 23
0.0
 33
0.0
 40
0.0
 40
0.0
 40
0.0
 40
0.0
 40
0.1285441158778991
 40
0.2571859337687105
 40
0.4415226931301762
 40
0.626323752020187
 40
0.8128144820577182
 40
1.0
 40
1.0
 40
1.0
 40
1.0
 10
122.3087447426468
 20
83.95940578222097
 30
0.0
 10
122.290068146437
 20
83.99265414192996
 30
0.0
 10
122.2527007585714
 20
84.05917613229599
 30
0.0
 10
122.1965221475472
 20
84.17443490818482
 30
0.0
 10
122.1425230385202
 20
84.30546454108436
 30
0.0
 10
122.0978599273849
 20
84.4531043285616
 30
0.0
 10
122.0686541077572
 20
84.60256588957357
 30
0.0
 10
122.0649679552505
 20
84.7029679992738
 30
0.0
 10
122.063121452108
 20
84.75326239451122
 30
0.0
  0
LINE
  5
39E
330
1F
100
AcDbEntity
  8
0
  6
Continuous
 62
     7
370
    15
100
AcDbLine
 10
122.0631214521
 20
84.7532623945
 30
0.0
 11
122.0631214521
 21
82.3716925867
 31
0.0
  0
SPLINE
  5
39F
330
1F
100
AcDbEntity
  8
0
  6
Continuous
 62
     7
370
    15
100
AcDbSpline
210
0.0
220
0.0
230
1.0
 70
     8
 71
     3
 72
    13
 73
     9
 74
     0
 42
0.00000001
 43
0.00000001
 12
1.0
 22
0.0
 32
0.0
 13
1.0
 23
0.0
 33
0.0
 40
0.0
 40
0.0
 40
0.0
 40
0.0
 40
0.1340634192304563
 40
0.2683985025141641
 40
0.4501240001695693
 40
0.632394853590455
 40
0.8160264195802205
 40
1.0
 40
1.0
 40
1.0
 40
1.0
 10
122.063121452108
 20
84.75326239451122
 30
0.0
 10
122.0640699520537
 20
84.78928160828418
 30
0.0
 10
122.065968873971
 20
84.86139302461159
 30
0.0
 10
122.0829302402293
 20
84.98207657251145
 30
0.0
 10
122.1144203108806
 20
85.11509053717866
 30
0.0
 10
122.1652562345251
 20
85.26005698234223
 30
0.0
 10
122.2294833902091
 20
85.40431662428108
 30
0.0
 10
122.2823079094485
 20
85.49948871645825
 30
0.0
 10
122.3087447426468
 20
85.54711903590531
 30
0.0
  0
LINE
  5
3A0
330
1F
100
AcDbEntity
  8
0
  6
Continuous
 62
     7
370
    15
100
AcDbLine
 10
124.4631248257
 20
85.5471190359
 30
0.0
 11
122.3087447426
 21
85.5471190359
 31
0.0
  0
LINE
  5
3A1
330
1F
100
AcDbEntity
  8
0
  6
Continuous
 62
     7
370
    15
100
AcDbLine
 10
124.4631248257
 20
85.5471190359
 30
0.0
 11
124.4631248257
 21
84.8716925309
 31
0.0
  0
LINE
  5
3A2
330
1F
100
AcDbEntity
  8
0
  6
Continuous
 62
     7
370
    15
100
AcDbLine
 10
124.4631248257
 20
79.1962658465
 30
0.0
 11
122.3087447426
 21
79.1962658465
 31
0.0
  0
SPLINE
  5
3A3
330
1F
100
AcDbEntity
  8
0
  6
Continuous
 62
     7
370
    15
100
AcDbSpline
210
0.0
220
0.0
230
1.0
 70
     8
 71
     3
 72
    10
 73
     6
 74
     0
 42
0.00000001
 43
0.00000001
 12
1.0
 22
0.0
 32
0.0
 13
1.0
 23
0.0
 33
0.0
 40
0.0
 40
0.0
 40
0.0
 40
0.0
 40
0.0700119524476758
 40
0.5307442768301284
 40
1.0
 40
1.0
 40
1.0
 40
1.0
 10
122.063121452108
 20
79.99012288084076
 30
0.0
 10
122.0634150697402
 20
79.97132661350705
 30
0.0
 10
122.0656409165054
 20
79.82883649625764
 30
0.0
 10
122.1192665764563
 20
79.56016407321268
 30
0.0
 10
122.2452006227721
 20
79.318304142579
 30
0.0
 10
122.3087447426468
 20
79.19626584654496
 30
0.0
  0
LINE
  5
3A4
330
1F
100
AcDbEntity
  8
0
  6
Continuous
 62
     7
370
    15
100
AcDbLine
 10
122.0631214521
 20
84.7532623945
 30
0.0
 11
122.0631214521
 21
85.1216925427
 31
0.0
  0
LINE
  5
3A5
330
1F
100
AcDbEntity
  8
0
  6
Continuous
 62
     7
370
    15
100
AcDbLine
 10
122.0631214521
 20
79.9901228808
 30
0.0
 11
122.0631214521
 21
79.6216926016
 31
0.0
  0
CIRCLE
  5
3A6
330
1F
100
AcDbEntity
  8
0
  6
Continuous
 62
     7
370
    15
100
AcDbCircle
 10
152.4631231866
 20
74.8716925309
 30
0.0
 40
1.0
  0
LINE
  5
3A7
330
1F
100
AcDbEntity
  8
0
  6
Continuous
 62
     7
370
    15
100
AcDbLine
 10
164.4631230003
 20
84.3716925071
 30
0.0
 11
129.4631237826
 21
84.3716925071
 31
0.0
  0
LINE
  5
3A8
330
1F
100
AcDbEntity
  8
0
  6
Continuous
 62
     7
370
    15
100
AcDbLine
 10
164.4631230003
 20
65.3716921285
 30
0.0
 11
164.4631230003
 21
84.3716925071
 31
0.0
  0
LINE
  5
3A9
330
1F
100
AcDbEntity
  8
0
  6
Continuous
 62
     7
370
    15
100
AcDbLine
 10
129.4631237826
 20
65.3716921285
 30
0.0
 11
164.4631230003
 21
65.3716921285
 31
0.0
  0
LINE
  5
3AA
330
1F
100
AcDbEntity
  8
0
  6
Continuous
 62
     7
370
    15
100
AcDbLine
 10
129.4631237826
 20
84.3716925071
 30
0.0
 11
129.4631237826
 21
65.3716921285
 31
0.0
  0
CIRCLE
  5
3AB
330
1F
100
AcDbEntity
  8
0
  6
Continuous
 62
     7
370
    15
100
AcDbCircle
 10
132.4631231866
 20
74.8716925309
 30
0.0
 40
1.0
  0
CIRCLE
  5
3AC
330
1F
100
AcDbEntity
  8
0
  6
Continuous
 62
     7
370
    15
100
AcDbCircle
 10
159.9631231866
 20
74.8716925309
 30
0.0
 40
1.650000000000006
  0
CIRCLE
  5
3AD
330
1F
100
AcDbEntity
  8
0
  6
Continuous
 62
     7
370
    15
100
AcDbCircle
 10
139.9631231866
 20
74.8716925309
 30
0.0
 40
1.649999999999977
  0
LINE
  5
3AE
330
1F
100
AcDbEntity
  8
0
  6
Continuous
 62
     7
370
    15
100
AcDbLine
 10
124.4631248257
 20
65.233208187
 30
0.0
 11
124.4631248257
 21
84.8716925309
 31
0.0
  0
LINE
  5
3AF
330
1F
100
AcDbEntity
  8
0
  6
Continuous
 62
     7
370
    15
100
AcDbLine
 10
124.4631248257
 20
84.8716925309
 30
0.0
 11
127.4631234548
 21
84.8716925309
 31
0.0
  0
LINE
  5
3B0
330
1F
100
AcDbEntity
  8
0
  6
Continuous
 62
     7
370
    15
100
AcDbLine
 10
127.4631234548
 20
84.8716925309
 30
0.0
 11
127.4631234548
 21
64.8716929779
 31
0.0
  0
LINE
  5
3B1
330
1F
100
AcDbEntity
  8
0
  6
Continuous
 62
     7
370
    15
100
AcDbLine
 10
127.4631234548
 20
64.8716929779
 30
0.0
 11
124.7179272316
 21
64.8716929779
 31
0.0
  0
ELLIPSE
  5
3B2
330
1F
100
AcDbEntity
  8
0
  6
Continuous
 62
     7
370
    15
100
AcDbEllipse
 10
127.4631231866
 20
65.2332089374
 30
0.0
 11
3.0
 21
0.0
 31
0.0
210
0.0
220
0.0
230
1.0
 40
0.2987942229
 41
3.141592653589855
 42
3.556719368598076
  0
ARC
  5
3B3
330
1F
100
AcDbEntity
  8
0
  6
Continuous
 62
     7
370
    15
100
AcDbCircle
 10
166.9631231866
 20
74.8716925309
 30
0.0
 40
2.800000000000011
100
AcDbArc
 50
90.0
 51
153.2344994232
  0
ARC
  5
3B4
330
1F
100
AcDbEntity
  8
0
  6
Continuous
 62
     7
370
    15
100
AcDbCircle
 10
166.9631231866
 20
74.8716925309
 30
0.0
 40
2.800000000000026
100
AcDbArc
 50
206.7655005768
 51
270.0
  0
LINE
  5
3B5
330
1F
100
AcDbEntity
  8
0
  6
Continuous
 62
     7
370
    15
100
AcDbLine
 10
127.4631234548
 20
64.8716929779
 30
0.0
 11
167.963123574
 21
64.8716929779
 31
0.0
  0
LINE
  5
3B6
330
1F
100
AcDbEntity
  8
0
  6
Continuous
 62
     7
370
    15
100
AcDbLine
 10
167.963123574
 20
84.8716925309
 30
0.0
 11
127.4631234548
 21
84.8716925309
 31
0.0
  0
ARC
  5
3B7
330
1F
100
AcDbEntity
  8
0
  6
Continuous
 62
     7
370
    15
100
AcDbCircle
 10
166.9631231866
 20
74.8716925309
 30
0.0
 40
2.5
100
AcDbArc
 50
90.0
 51
270.0
  0
CIRCLE
  5
3B8
330
1F
100
AcDbEntity
  8
0
  6
Continuous
 62
     7
370
    15
100
AcDbCircle
 10
169.7631231866
 20
74.8716925309
 30
0.0
 40
1.549999999999983
  0
LINE
  5
3B9
330
1F
100
AcDbEntity
  8
0
  6
Continuous
 62
     7
370
    15
100
AcDbLine
 10
176.9631231866
 20
84.8716925309
 30
0.0
 11
176.9631231866
 21
64.8716929779
 31
0.0
  0
LINE
  5
3BA
330
1F
100
AcDbEntity
  8
0
  6
Continuous
 62
     7
370
    15
100
AcDbLine
 10
176.9631231866
 20
64.8716929779
 30
0.0
 11
175.9631231391
 21
64.8716929779
 31
0.0
  0
LINE
  5
3BB
330
1F
100
AcDbEntity
  8
0
  6
Continuous
 62
     7
370
    15
100
AcDbLine
 10
175.9631231391
 20
64.8716929779
 30
0.0
 11
175.9631231391
 21
84.8716925309
 31
0.0
  0
LINE
  5
3BC
330
1F
100
AcDbEntity
  8
0
  6
Continuous
 62
     7
370
    15
100
AcDbLine
 10
175.9631231391
 20
84.8716925309
 30
0.0
 11
176.9631231866
 21
84.8716925309
 31
0.0
  0
LINE
  5
3BD
330
1F
100
AcDbEntity
  8
0
  6
Continuous
 62
     7
370
    15
100
AcDbLine
 10
167.963123574
 20
64.8716929779
 30
0.0
 11
175.9631231391
 21
64.8716929779
 31
0.0
  0
LINE
  5
3BE
330
1F
100
AcDbEntity
  8
0
  6
Continuous
 62
     7
370
    15
100
AcDbLine
 10
166.9631234101
 20
65.8716931418
 30
0.0
 11
167.963123574
 21
64.8716929779
 31
0.0
  0
LINE
  5
3BF
330
1F
100
AcDbEntity
  8
0
  6
Continuous
 62
     7
370
    15
100
AcDbLine
 10
166.9631234101
 20
83.8716924834
 30
0.0
 11
166.9631234101
 21
65.8716931418
 31
0.0
  0
LINE
  5
3C0
330
1F
100
AcDbEntity
  8
0
  6
Continuous
 62
     7
370
    15
100
AcDbLine
 10
167.963123574
 20
84.8716925309
 30
0.0
 11
166.9631234101
 21
83.8716924834
 31
0.0
  0
LINE
  5
3C1
330
1F
100
AcDbEntity
  8
0
  6
Continuous
 62
     7
370
    15
100
AcDbLine
 10
167.963123574
 20
84.8716925309
 30
0.0
 11
175.9631231391
 21
84.8716925309
 31
0.0
  0
CIRCLE
  5
3C2
330
1F
100
AcDbEntity
  8
0
  6
Continuous
 62
     7
370
    15
100
AcDbCircle
 10
169.7631231866
 20
74.8716925309
 30
0.0
 40
2.000000000000043
  0
CIRCLE
  5
3C3
330
1F
100
AcDbEntity
  8
0
  6
Continuous
 62
     7
370
    15
100
AcDbCircle
 10
169.7631231866
 20
74.8716925309
 30
0.0
 40
1.599999999999994
  0
LINE
  5
3C4
330
1F
100
AcDbEntity
  8
0
  6
Continuous
 62
     8
370
    15
100
AcDbLine
 10
180.5381231672
 20
83.0255354001
 30
0.0
 11
180.5381231672
 21
84.1216925243
 31
0.0
  0
LINE
  5
3C5
330
1F
100
AcDbEntity
  8
0
  6
Continuous
 62
     8
370
    15
100
AcDbLine
 10
180.5381231672
 20
79.6216926016
 30
0.0
 11
180.5381231672
 21
83.0255354001
 31
0.0
  0
LINE
  5
3C6
330
1F
100
AcDbEntity
  8
0
  6
Continuous
 62
     8
370
    15
100
AcDbLine
 10
180.5381231672
 20
65.6216926352
 30
0.0
 11
180.5381231672
 21
70.1216924415
 31
0.0
  0
DIMENSION
  5
3C7
330
1F
100
AcDbEntity
  8
0
  6
Continuous
 62
     7
370
     0
100
AcDbDimension
  2
_D_17
 10
159.9631231866
 20
95.8033251445
 30
0.0
 11
149.9631231866
 21
95.8033251445
 31
0.0
 70
   160
  1
<>
 71
     2
 42
-1.0
  3
SLDDIMSTYLE3
100
AcDbAlignedDimension
 13
139.9631231866
 23
79.0216925309
 33
0.0
 14
159.9631231866
 24
79.0216925309
 34
0.0
100
AcDbRotatedDimension
  0
DIMENSION
  5
3D1
330
1F
100
AcDbEntity
  8
0
  6
Continuous
 62
     7
370
     0
100
AcDbDimension
  2
_D_18
 10
183.9631231866
 20
95.8033251445
 30
0.0
 11
171.9631231866
 21
95.8033251445
 31
0.0
 70
   160
  1
<>
 71
     2
 42
-1.0
  3
SLDDIMSTYLE3
100
AcDbAlignedDimension
 13
159.9631231866
 23
79.0216925309
 33
0.0
 14
183.9631231866
 24
84.3716925309
 34
0.0
100
AcDbRotatedDimension
  0
DIMENSION
  5
3DB
330
1F
100
AcDbEntity
  8
0
  6
Continuous
 62
     7
370
     0
100
AcDbDimension
  2
_D_19
 10
164.4631231866
 20
54.7981353723
 30
0.0
 11
147.6599866318
 21
54.7981353723
 31
0.0
 70
   160
  1
<>
 71
     2
 42
-1.0
  3
SLDDIMSTYLE3
100
AcDbAlignedDimension
 13
129.4631231866
 23
65.3716925309
 33
0.0
 14
164.4631231866
 24
65.3716925309
 34
0.0
100
AcDbRotatedDimension
  0
DIMENSION
  5
3E5
330
1F
100
AcDbEntity
  8
0
  6
Continuous
 62
     7
370
     0
100
AcDbDimension
  2
_D_20
 10
183.9631231866
 20
54.7981353723
 30
0.0
 11
173.6627134716
 21
54.7981353723
 31
0.0
 70
   160
  1
<>
 71
     2
 42
-1.0
  3
SLDDIMSTYLE2
100
AcDbAlignedDimension
 13
164.4631231866
 23
65.3716925309
 33
0.0
 14
183.9631231866
 24
65.3716925309
 34
0.0
100
AcDbRotatedDimension
  0
MTEXT
  5
3EF
330
1F
100
AcDbEntity
  8
0
  6
Continuous
 62
     7
370
     0
100
AcDbMText
 10
95.7068093435
 20
99.9623763113
 30
0.0
 40
3.5
 41
0.0
 71
     1
 72
     1
  1
2-M4取付用
  7
SLDTEXTSTYLE0
 73
     1
 44
1.0
  0
LEADER
  5
3F1
330
1F
100
AcDbEntity
  8
0
  6
Continuous
 62
     7
370
     0
100
AcDbLeader
  3
SLDDIMSTYLE7
 76
     3
 10
139.2582378431
 20
76.363549311
 30
0.0
 10
121.8364595545
 20
95.5451348183
 30
0.0
 10
95.6623681125
 20
95.5451348183
 30
0.0
  0
MTEXT
  5
3F2
330
1F
100
AcDbEntity
  8
0
  6
Continuous
 62
     7
370
     0
100
AcDbMText
 10
71.4495366183
 20
86.6077792776
 30
0.0
 40
3.5
 41
0.0
 71
     1
 72
     1
  1
ストローク調整
  7
SLDTEXTSTYLE0
 73
     1
 44
1.0
  0
LEADER
  5
3F3
330
1F
100
AcDbEntity
  8
0
  6
Continuous
 62
     7
370
     0
100
AcDbLeader
  3
SLDDIMSTYLE5
 76
     3
 10
118.6250699371
 20
82.2049229211
 30
0.0
 10
99.9138335287
 20
82.1805392732
 30
0.0
 10
71.3950762016
 20
82.1805392732
 30
0.0
  0
INSERT
  5
3FF
330
1F
100
AcDbEntity
  8
0
  6
Continuous
 62
     7
370
     0
100
AcDbBlockReference
  2
SW_CENTERMARKSYMBOL_6
 10
139.9631231866
 20
74.8716925309
 30
0.0
  0
INSERT
  5
40B
330
1F
100
AcDbEntity
  8
0
  6
Continuous
 62
     7
370
     0
100
AcDbBlockReference
  2
SW_CENTERMARKSYMBOL_7
 10
159.9631231866
 20
74.8716925309
 30
0.0
  0
ENDSEC
  0
SECTION
  2
OBJECTS
  0
DICTIONARY
  5
C
330
0
100
AcDbDictionary
281
     1
  3
ACAD_GROUP
350
D
  3
ACAD_LAYOUT
350
1A
  3
ACAD_MLINESTYLE
350
17
  3
ACAD_PLOTSETTINGS
350
19
  3
ACAD_PLOTSTYLENAME
350
E
  0
DICTIONARY
  5
D
102
{ACAD_REACTORS
330
C
102
}
330
C
100
AcDbDictionary
281
     1
  0
DICTIONARY
  5
1A
102
{ACAD_REACTORS
330
C
102
}
330
C
100
AcDbDictionary
281
     1
  3
Layout1
350
1E
  3
Layout2
350
26
  3
Model
350
22
  0
DICTIONARY
  5
17
102
{ACAD_REACTORS
330
C
102
}
330
C
100
AcDbDictionary
281
     1
  3
Standard
350
18
  0
DICTIONARY
  5
19
102
{ACAD_REACTORS
330
C
102
}
330
C
100
AcDbDictionary
281
     1
  0
ACDBDICTIONARYWDFLT
  5
E
102
{ACAD_REACTORS
330
C
102
}
330
C
100
AcDbDictionary
281
     1
  3
Normal
350
F
100
AcDbDictionaryWithDefault
340
F
  0
LAYOUT
  5
1E
102
{ACAD_REACTORS
330
1A
102
}
330
1A
100
AcDbPlotSettings
  1

  2
none_device
  4

  6

 40
0.0
 41
0.0
 42
0.0
 43
0.0
 44
0.0
 45
0.0
 46
0.0
 47
0.0
 48
0.0
 49
0.0
140
0.0
141
0.0
142
1.0
143
1.0
 70
   688
 72
     0
 73
     0
 74
     5
  7

 75
    16
147
1.0
148
0.0
149
0.0
100
AcDbLayout
  1
Layout1
 70
     1
 71
     1
 10
0.0
 20
0.0
 11
420.0
 21
297.0
 12
0.0
 22
0.0
 32
0.0
 14
1.0000000000E+20
 24
1.0000000000E+20
 34
1.0000000000E+20
 15
-1.0000000000E+20
 25
-1.0000000000E+20
 35
-1.0000000000E+20
146
0.0
 13
0.0
 23
0.0
 33
0.0
 16
1.0
 26
0.0
 36
0.0
 17
0.0
 27
1.0
 37
0.0
 76
     0
330
1B
  0
LAYOUT
  5
26
102
{ACAD_REACTORS
330
1A
102
}
330
1A
100
AcDbPlotSettings
  1

  2
none_device
  4

  6

 40
0.0
 41
0.0
 42
0.0
 43
0.0
 44
0.0
 45
0.0
 46
0.0
 47
0.0
 48
0.0
 49
0.0
140
0.0
141
0.0
142
1.0
143
1.0
 70
   688
 72
     0
 73
     0
 74
     5
  7

 75
    16
147
1.0
148
0.0
149
0.0
100
AcDbLayout
  1
Layout2
 70
     1
 71
     2
 10
0.0
 20
0.0
 11
0.0
 21
0.0
 12
0.0
 22
0.0
 32
0.0
 14
0.0
 24
0.0
 34
0.0
 15
0.0
 25
0.0
 35
0.0
146
0.0
 13
0.0
 23
0.0
 33
0.0
 16
1.0
 26
0.0
 36
0.0
 17
0.0
 27
1.0
 37
0.0
 76
     0
330
23
  0
LAYOUT
  5
22
102
{ACAD_REACTORS
330
1A
102
}
330
1A
100
AcDbPlotSettings
  1

  2
none_device
  4

  6

 40
0.0
 41
0.0
 42
0.0
 43
0.0
 44
0.0
 45
0.0
 46
0.0
 47
0.0
 48
0.0
 49
0.0
140
0.0
141
0.0
142
1.0
143
1.0
 70
  1712
 72
     0
 73
     0
 74
     0
  7

 75
     0
147
1.0
148
0.0
149
0.0
100
AcDbLayout
  1
Model
 70
     1
 71
     0
 10
0.0
 20
0.0
 11
210.0
 21
297.0
 12
0.0
 22
0.0
 32
0.0
 14
0.0
 24
0.0
 34
0.0
 15
210.0
 25
297.0
 35
0.0
146
0.0
 13
0.0
 23
0.0
 33
0.0
 16
1.0
 26
0.0
 36
0.0
 17
0.0
 27
1.0
 37
0.0
 76
     0
330
1F
331
29
  0
MLINESTYLE
  5
18
102
{ACAD_REACTORS
330
17
102
}
330
17
100
AcDbMlineStyle
  2
Standard
 70
     0
  3

 62
   256
 51
90.0
 52
90.0
 71
     2
 49
0.5
 62
   256
  6
BYLAYER
 49
-0.5
 62
   256
  6
BYLAYER
  0
ACDBPLACEHOLDER
  5
F
102
{ACAD_REACTORS
330
E
102
}
330
E
  0
ENDSEC
  0
EOF
