  0
SECTION
  2
HEADER
  9
$ACADVER
  1
AC1015
  9
$ACADMAINTVER
 70
     6
  9
$DWGCODEPAGE
  3
DOS932
  9
$INSBASE
 10
0.0
 20
0.0
 30
0.0
  9
$EXTMIN
 10
0.0
 20
0.0
 30
0.0
  9
$EXTMAX
 10
210.0
 20
297.0
 30
0.0
  9
$LIMMIN
 10
0.0
 20
0.0
  9
$LIMMAX
 10
210.0
 20
297.0
  9
$ORTHOMODE
 70
     0
  9
$REGENMODE
 70
     1
  9
$FILLMODE
 70
     1
  9
$QTEXTMODE
 70
     0
  9
$MIRRTEXT
 70
     1
  9
$LTSCALE
 40
1.0
  9
$ATTMODE
 70
     1
  9
$TEXTSIZE
 40
3.5
  9
$TRACEWID
 40
1.0
  9
$TEXTSTYLE
  7
Standard
  9
$CLAYER
  8
0
  9
$CELTYPE
  6
ByLayer
  9
$CECOLOR
 62
   256
  9
$CELTSCALE
 40
1.0
  9
$DISPSILH
 70
     0
  9
$DIMSCALE
 40
1.0
  9
$DIMASZ
 40
3.302
  9
$DIMEXO
 40
1.0
  9
$DIMDLI
 40
3.75
  9
$DIMRND
 40
0.0
  9
$DIMDLE
 40
0.0
  9
$DIMEXE
 40
1.0
  9
$DIMTP
 40
0.0
  9
$DIMTM
 40
0.0
  9
$DIMTXT
 40
3.5
  9
$DIMCEN
 40
2.5
  9
$DIMTSZ
 40
0.0
  9
$DIMTOL
 70
     0
  9
$DIMLIM
 70
     0
  9
$DIMTIH
 70
     1
  9
$DIMTOH
 70
     1
  9
$DIMSE1
 70
     0
  9
$DIMSE2
 70
     0
  9
$DIMTAD
 70
     1
  9
$DIMZIN
 70
     0
  9
$DIMBLK
  1

  9
$DIMASO
 70
     1
  9
$DIMSHO
 70
     1
  9
$DIMPOST
  1

  9
$DIMAPOST
  1

  9
$DIMALT
 70
     0
  9
$DIMALTD
 70
     3
  9
$DIMALTF
 40
0.0393700787
  9
$DIMLFAC
 40
1.0
  9
$DIMTOFL
 70
     1
  9
$DIMTVP
 40
0.0
  9
$DIMTIX
 70
     0
  9
$DIMSOXD
 70
     0
  9
$DIMSAH
 70
     0
  9
$DIMBLK1
  1

  9
$DIMBLK2
  1

  9
$DIMSTYLE
  2
ISO-25
  9
$DIMCLRD
 70
     0
  9
$DIMCLRE
 70
     0
  9
$DIMCLRT
 70
     0
  9
$DIMTFAC
 40
1.0
  9
$DIMGAP
 40
1.524
  9
$DIMJUST
 70
     0
  9
$DIMSD1
 70
     0
  9
$DIMSD2
 70
     0
  9
$DIMTOLJ
 70
     0
  9
$DIMTZIN
 70
     0
  9
$DIMALTZ
 70
     0
  9
$DIMALTTZ
 70
     0
  9
$DIMUPT
 70
     0
  9
$DIMDEC
 70
     2
  9
$DIMTDEC
 70
     2
  9
$DIMALTU
 70
     2
  9
$DIMALTTD
 70
     3
  9
$DIMTXSTY
  7
Standard
  9
$DIMAUNIT
 70
     0
  9
$DIMADEC
 70
     2
  9
$DIMALTRND
 40
0.0
  9
$DIMAZIN
 70
     0
  9
$DIMDSEP
 70
    44
  9
$DIMATFIT
 70
     3
  9
$DIMFRAC
 70
     0
  9
$DIMLDRBLK
  1

  9
$DIMLUNIT
 70
     2
  9
$DIMLWD
 70
    -2
  9
$DIMLWE
 70
    -2
  9
$DIMTMOVE
 70
     0
  9
$LUNITS
 70
     2
  9
$LUPREC
 70
     2
  9
$SKETCHINC
 40
1.0
  9
$FILLETRAD
 40
10.0
  9
$AUNITS
 70
     0
  9
$AUPREC
 70
     2
  9
$MENU
  1
.
  9
$ELEVATION
 40
0.0
  9
$PELEVATION
 40
0.0
  9
$THICKNESS
 40
0.0
  9
$LIMCHECK
 70
     0
  9
$CHAMFERA
 40
10.0
  9
$CHAMFERB
 40
10.0
  9
$CHAMFERC
 40
20.0
  9
$CHAMFERD
 40
0.0
  9
$SKPOLY
 70
     0
  9
$TDCREATE
 40
2456892.651845463
  9
$TDUCREATE
 40
2456892.276845463
  9
$TDUPDATE
 40
2456892.651848357
  9
$TDUUPDATE
 40
2456892.276848357
  9
$TDINDWG
 40
0.0000000116
  9
$TDUSRTIMER
 40
0.0000000116
  9
$USRTIMER
 70
     1
  9
$ANGBASE
 50
0.0
  9
$ANGDIR
 70
     0
  9
$PDMODE
 70
     0
  9
$PDSIZE
 40
-1.0
  9
$PLINEWID
 40
0.0
  9
$SPLFRAME
 70
     0
  9
$SPLINETYPE
 70
     6
  9
$SPLINESEGS
 70
     8
  9
$HANDSEED
  5
40D
  9
$SURFTAB1
 70
     6
  9
$SURFTAB2
 70
     6
  9
$SURFTYPE
 70
     6
  9
$SURFU
 70
     6
  9
$SURFV
 70
     6
  9
$UCSBASE
  2

  9
$UCSNAME
  2

  9
$UCSORG
 10
0.0
 20
0.0
 30
0.0
  9
$UCSXDIR
 10
1.0
 20
0.0
 30
0.0
  9
$UCSYDIR
 10
0.0
 20
1.0
 30
0.0
  9
$UCSORTHOREF
  2

  9
$UCSORTHOVIEW
 70
     0
  9
$UCSORGTOP
 10
0.0
 20
0.0
 30
0.0
  9
$UCSORGBOTTOM
 10
0.0
 20
0.0
 30
0.0
  9
$UCSORGLEFT
 10
0.0
 20
0.0
 30
0.0
  9
$UCSORGRIGHT
 10
0.0
 20
0.0
 30
0.0
  9
$UCSORGFRONT
 10
0.0
 20
0.0
 30
0.0
  9
$UCSORGBACK
 10
0.0
 20
0.0
 30
0.0
  9
$PUCSBASE
  2

  9
$PUCSNAME
  2

  9
$PUCSORG
 10
0.0
 20
0.0
 30
0.0
  9
$PUCSXDIR
 10
1.0
 20
0.0
 30
0.0
  9
$PUCSYDIR
 10
0.0
 20
1.0
 30
0.0
  9
$PUCSORTHOREF
  2

  9
$PUCSORTHOVIEW
 70
     0
  9
$PUCSORGTOP
 10
0.0
 20
0.0
 30
0.0
  9
$PUCSORGBOTTOM
 10
0.0
 20
0.0
 30
0.0
  9
$PUCSORGLEFT
 10
0.0
 20
0.0
 30
0.0
  9
$PUCSORGRIGHT
 10
0.0
 20
0.0
 30
0.0
  9
$PUCSORGFRONT
 10
0.0
 20
0.0
 30
0.0
  9
$PUCSORGBACK
 10
0.0
 20
0.0
 30
0.0
  9
$USERI1
 70
     0
  9
$USERI2
 70
     0
  9
$USERI3
 70
     0
  9
$USERI4
 70
     0
  9
$USERI5
 70
     0
  9
$USERR1
 40
0.0
  9
$USERR2
 40
0.0
  9
$USERR3
 40
0.0
  9
$USERR4
 40
0.0
  9
$USERR5
 40
0.0
  9
$WORLDVIEW
 70
     1
  9
$SHADEDGE
 70
     3
  9
$SHADEDIF
 70
    70
  9
$TILEMODE
 70
     1
  9
$MAXACTVP
 70
    64
  9
$PINSBASE
 10
0.0
 20
0.0
 30
0.0
  9
$PLIMCHECK
 70
     0
  9
$PEXTMIN
 10
1.0000000000E+20
 20
1.0000000000E+20
 30
1.0000000000E+20
  9
$PEXTMAX
 10
-1.0000000000E+20
 20
-1.0000000000E+20
 30
-1.0000000000E+20
  9
$PLIMMIN
 10
0.0
 20
0.0
  9
$PLIMMAX
 10
420.0
 20
297.0
  9
$UNITMODE
 70
     0
  9
$VISRETAIN
 70
     1
  9
$PLINEGEN
 70
     0
  9
$PSLTSCALE
 70
     1
  9
$TREEDEPTH
 70
  3020
  9
$CMLSTYLE
  2
Standard
  9
$CMLJUST
 70
     0
  9
$CMLSCALE
 40
20.0
  9
$PROXYGRAPHICS
 70
     1
  9
$MEASUREMENT
 70
     1
  9
$CELWEIGHT
370
    -1
  9
$ENDCAPS
280
     0
  9
$JOINSTYLE
280
     0
  9
$LWDISPLAY
290
     1
  9
$INSUNITS
 70
     4
  9
$HYPERLINKBASE
  1

  9
$STYLESHEET
  1

  9
$XEDIT
290
     1
  9
$CEPSNTYPE
380
     0
  9
$PSTYLEMODE
290
     1
  9
$FINGERPRINTGUID
  2
{5EEAB5D7-E703-4532-8DAD-AA93E0ADF415}
  9
$VERSIONGUID
  2
{FAEB1C32-E019-11D5-929B-00C0DF256EC4}
  9
$EXTNAMES
290
     1
  9
$PSVPSCALE
 40
0.0
  9
$OLESTARTUP
290
     0
  0
ENDSEC
  0
SECTION
  2
CLASSES
  0
CLASS
  1
ACDBDICTIONARYWDFLT
  2
AcDbDictionaryWithDefault
  3
ObjectDBX Classes
 90
        0
280
     0
281
     0
  0
CLASS
  1
VISUALSTYLE
  2
AcDbVisualStyle
  3
ObjectDBX Classes
 90
     4095
280
     0
281
     0
  0
CLASS
  1
MATERIAL
  2
AcDbMaterial
  3
ObjectDBX Classes
 90
     1153
280
     0
281
     0
  0
CLASS
  1
ACDBPLACEHOLDER
  2
AcDbPlaceHolder
  3
ObjectDBX Classes
 90
        0
280
     0
281
     0
  0
CLASS
  1
LAYOUT
  2
AcDbLayout
  3
ObjectDBX Classes
 90
        0
280
     0
281
     0
  0
ENDSEC
  0
SECTION
  2
TABLES
  0
TABLE
  2
VPORT
  5
8
330
0
100
AcDbSymbolTable
 70
     1
  0
VPORT
  5
29
330
8
100
AcDbSymbolTableRecord
100
AcDbViewportTableRecord
  2
*Active
 70
     0
 10
0.0
 20
0.0
 11
1.0
 21
1.0
 12
105.0
 22
148.5
 13
0.0
 23
0.0
 14
10.0
 24
10.0
 15
10.0
 25
10.0
 16
0.0
 26
0.0
 36
1.0
 17
0.0
 27
0.0
 37
0.0
 40
297.0
 41
0.7070707071
 42
50.0
 43
0.0
 44
0.0
 50
0.0
 51
0.0
 71
     0
 72
  2000
 73
     1
 74
     3
 75
     0
 76
     0
 77
     0
 78
     0
281
     0
 65
     1
110
0.0
120
0.0
130
0.0
111
1.0
121
0.0
131
0.0
112
0.0
122
1.0
132
0.0
 79
     0
146
0.0
  0
ENDTAB
  0
TABLE
  2
LTYPE
  5
5
330
0
100
AcDbSymbolTable
 70
     6
  0
LTYPE
  5
14
330
5
100
AcDbSymbolTableRecord
100
AcDbLinetypeTableRecord
  2
ByBlock
 70
     0
  3

 72
    65
 73
     0
 40
0.0
  0
LTYPE
  5
15
330
5
100
AcDbSymbolTableRecord
100
AcDbLinetypeTableRecord
  2
ByLayer
 70
     0
  3

 72
    65
 73
     0
 40
0.0
  0
LTYPE
  5
16
330
5
100
AcDbSymbolTableRecord
100
AcDbLinetypeTableRecord
  2
Continuous
 70
     0
  3
Solid line
 72
    65
 73
     0
 40
0.0
  0
LTYPE
  5
3F
330
5
100
AcDbSymbolTableRecord
100
AcDbLinetypeTableRecord
  2
HIDDEN
 70
     0
  3
Hidden __ __ __ __ __ __ __ __ __ __ __ __ __ __
 72
    65
 73
     2
 40
1.905
 49
1.27
 74
     0
 49
-0.635
 74
     0
  0
LTYPE
  5
40
330
5
100
AcDbSymbolTableRecord
100
AcDbLinetypeTableRecord
  2
PHANTOM
 70
     0
  3
Phantom ______  __  __  ______  __  __  ______
 72
    65
 73
     6
 40
12.7
 49
6.35
 74
     0
 49
-1.27
 74
     0
 49
1.27
 74
     0
 49
-1.27
 74
     0
 49
1.27
 74
     0
 49
-1.27
 74
     0
  0
LTYPE
  5
41
330
5
100
AcDbSymbolTableRecord
100
AcDbLinetypeTableRecord
  2
CENTER
 70
     0
  3
Center ____ _ ____ _ ____ _ ____ _ ____ _ ____
 72
    65
 73
     4
 40
10.16
 49
6.35
 74
     0
 49
-1.27
 74
     0
 49
1.27
 74
     0
 49
-1.27
 74
     0
  0
LTYPE
  5
42
330
5
100
AcDbSymbolTableRecord
100
AcDbLinetypeTableRecord
  2
CENTERX2
 70
     0
  3
Center (2x) ________  __  ________  __  _____
 72
    65
 73
     4
 40
20.32
 49
12.7
 74
     0
 49
-2.54
 74
     0
 49
2.54
 74
     0
 49
-2.54
 74
     0
  0
LTYPE
  5
43
330
5
100
AcDbSymbolTableRecord
100
AcDbLinetypeTableRecord
  2
DOT2
 70
     0
  3
Dot (.5x) ........................................
 72
    65
 73
     2
 40
0.635
 49
0.0
 74
     0
 49
-0.635
 74
     0
  0
ENDTAB
  0
TABLE
  2
LAYER
  5
2
330
0
100
AcDbSymbolTable
 70
     1
  0
LAYER
  5
10
330
2
100
AcDbSymbolTableRecord
100
AcDbLayerTableRecord
  2
0
 70
     0
 62
     7
  6
Continuous
370
    -3
390
F
  0
ENDTAB
  0
TABLE
  2
STYLE
  5
3
330
0
100
AcDbSymbolTable
 70
     3
  0
STYLE
  5
11
330
3
100
AcDbSymbolTableRecord
100
AcDbTextStyleTableRecord
  2
Standard
 70
     0
 40
0.0
 41
1.0
 50
0.0
 71
     0
 42
3.5
  3
txt
  4
bigfont
  0
STYLE
  5
4C
330
3
100
AcDbSymbolTableRecord
100
AcDbTextStyleTableRecord
  2
SLDTEXTSTYLE0
 70
     0
 40
0.0
 41
0.75
 50
0.0
 71
     0
 42
0.2
  3
TXT
  4
bigfont
  0
STYLE
  5
4F
330
3
100
AcDbSymbolTableRecord
100
AcDbTextStyleTableRecord
  2
SLDTEXTSTYLE1
 70
     0
 40
0.0
 41
0.7
 50
0.0
 71
     0
 42
0.2
  3
TXT
  4
bigfont
  0
ENDTAB
  0
TABLE
  2
VIEW
  5
6
330
0
100
AcDbSymbolTable
 70
     0
  0
ENDTAB
  0
TABLE
  2
UCS
  5
7
330
0
100
AcDbSymbolTable
 70
     0
  0
ENDTAB
  0
TABLE
  2
APPID
  5
9
330
0
100
AcDbSymbolTable
 70
     1
  0
APPID
  5
12
330
9
100
AcDbSymbolTableRecord
100
AcDbRegAppTableRecord
  2
ACAD
 70
     0
  0
ENDTAB
  0
TABLE
  2
DIMSTYLE
  5
A
330
0
100
AcDbSymbolTable
 70
     7
100
AcDbDimStyleTable
  0
DIMSTYLE
105
27
330
A
100
AcDbSymbolTableRecord
100
AcDbDimStyleTableRecord
  2
ISO-25
 70
     0
 41
2.5
 42
0.625
 43
3.75
 44
1.25
 73
     0
 74
     0
 77
     1
 78
     8
140
2.5
141
2.5
143
0.0393700787
147
0.625
171
     3
172
     1
178
     0
271
     2
272
     2
274
     3
278
    44
283
     0
284
     8
340
11
  0
DIMSTYLE
105
133
102
{ACAD_REACTORS
330
132
102
}
330
A
100
AcDbSymbolTableRecord
100
AcDbDimStyleTableRecord
  2
SLDDIMSTYLE0
 70
     0
 41
3.0
 44
0.0
 45
0.000000001
 73
     0
 74
     0
 77
     3
 78
    12
 79
     3
140
3.5
147
0.875
172
     1
173
     1
178
     0
271
     1
272
     2
276
     2
284
    12
289
     0
340
4C
341
134
343
134
  0
DIMSTYLE
105
14B
102
{ACAD_REACTORS
330
14A
330
157
330
163
330
16F
330
179
330
183
330
18D
330
1A2
330
28F
330
299
330
2A3
330
2AD
330
2B7
330
37D
330
393
330
39D
330
3A7
330
3B1
102
}
330
A
100
AcDbSymbolTableRecord
100
AcDbDimStyleTableRecord
  2
SLDDIMSTYLE1
 70
     0
 41
3.302
 44
0.0
 45
0.000000001
 73
     0
 74
     0
 77
     3
 78
    12
 79
     3
140
3.5
147
0.875
173
     1
178
     0
271
     1
272
     2
276
     2
284
    12
340
4C
  0
DIMSTYLE
105
198
102
{ACAD_REACTORS
330
197
102
}
330
A
100
AcDbSymbolTableRecord
100
AcDbDimStyleTableRecord
  2
SLDDIMSTYLE2
 70
     0
 41
3.0
 44
0.0
 45
0.000000001
 73
     0
 74
     0
 77
     3
 78
    12
 79
     3
140
3.5
147
0.875
173
     1
178
     0
271
     1
272
     2
276
     2
284
    12
340
4C
341
134
343
134
  0
DIMSTYLE
105
1B8
330
A
100
AcDbSymbolTableRecord
100
AcDbDimStyleTableRecord
  2
SLDDIMSTYLE3
 70
     0
 41
3.0
 44
0.0
 45
0.000000001
140
0.0
146
3.0
147
0.0
173
     1
178
     0
271
     0
272
     0
276
     2
340
11
341
134
343
134
344
134
  0
DIMSTYLE
105
275
102
{ACAD_REACTORS
330
274
330
281
330
387
102
}
330
A
100
AcDbSymbolTableRecord
100
AcDbDimStyleTableRecord
  2
SLDDIMSTYLE4
 70
     0
 41
3.302
 44
0.0
 45
0.000000001
 73
     0
 74
     0
 77
     3
 78
    12
 79
     3
140
3.5
147
0.875
172
     1
173
     1
178
     0
271
     1
272
     2
276
     2
284
    12
289
     0
340
4C
  0
DIMSTYLE
105
3BE
330
A
100
AcDbSymbolTableRecord
100
AcDbDimStyleTableRecord
  2
SLDDIMSTYLE5
 70
     0
 41
3.302
 44
0.0
 45
0.000000001
140
0.0
146
3.302
147
0.0
173
     1
178
     0
271
     0
272
     0
276
     2
340
11
  0
ENDTAB
  0
TABLE
  2
BLOCK_RECORD
  5
1
330
0
100
AcDbSymbolTable
 70
    38
  0
BLOCK_RECORD
  5
1F
330
1
100
AcDbSymbolTableRecord
100
AcDbBlockTableRecord
  2
*Model_Space
340
22
  0
BLOCK_RECORD
  5
1B
330
1
100
AcDbSymbolTableRecord
100
AcDbBlockTableRecord
  2
*Paper_Space
340
1E
  0
BLOCK_RECORD
  5
23
330
1
100
AcDbSymbolTableRecord
100
AcDbBlockTableRecord
  2
*Paper_Space0
340
26
  0
BLOCK_RECORD
  5
134
330
1
100
AcDbSymbolTableRecord
100
AcDbBlockTableRecord
  2
_DOT
340
0
102
{BLKREFS
331
13F
331
19C
331
1C5
102
}
  0
BLOCK_RECORD
  5
13C
330
1
100
AcDbSymbolTableRecord
100
AcDbBlockTableRecord
  2
_D
340
0
  0
BLOCK_RECORD
  5
14C
330
1
100
AcDbSymbolTableRecord
100
AcDbBlockTableRecord
  2
_D_1
340
0
  0
BLOCK_RECORD
  5
158
330
1
100
AcDbSymbolTableRecord
100
AcDbBlockTableRecord
  2
_D_2
340
0
  0
BLOCK_RECORD
  5
164
330
1
100
AcDbSymbolTableRecord
100
AcDbBlockTableRecord
  2
_D_3
340
0
  0
BLOCK_RECORD
  5
170
330
1
100
AcDbSymbolTableRecord
100
AcDbBlockTableRecord
  2
_D_4
340
0
  0
BLOCK_RECORD
  5
17A
330
1
100
AcDbSymbolTableRecord
100
AcDbBlockTableRecord
  2
_D_5
340
0
  0
BLOCK_RECORD
  5
184
330
1
100
AcDbSymbolTableRecord
100
AcDbBlockTableRecord
  2
_D_6
340
0
  0
BLOCK_RECORD
  5
18E
330
1
100
AcDbSymbolTableRecord
100
AcDbBlockTableRecord
  2
_D_7
340
0
  0
BLOCK_RECORD
  5
199
330
1
100
AcDbSymbolTableRecord
100
AcDbBlockTableRecord
  2
_D_8
340
0
  0
BLOCK_RECORD
  5
1A3
330
1
100
AcDbSymbolTableRecord
100
AcDbBlockTableRecord
  2
_D_9
340
0
  0
BLOCK_RECORD
  5
1AD
330
1
100
AcDbSymbolTableRecord
100
AcDbBlockTableRecord
  2
SW_NOTE_0
340
0
102
{BLKREFS
331
1B7
102
}
  0
BLOCK_RECORD
  5
1BA
330
1
100
AcDbSymbolTableRecord
100
AcDbBlockTableRecord
  2
SW_NOTE_1
340
0
102
{BLKREFS
331
1C4
102
}
  0
BLOCK_RECORD
  5
276
330
1
100
AcDbSymbolTableRecord
100
AcDbBlockTableRecord
  2
_D_10
340
0
  0
BLOCK_RECORD
  5
282
330
1
100
AcDbSymbolTableRecord
100
AcDbBlockTableRecord
  2
_D_11
340
0
  0
BLOCK_RECORD
  5
290
330
1
100
AcDbSymbolTableRecord
100
AcDbBlockTableRecord
  2
_D_12
340
0
  0
BLOCK_RECORD
  5
29A
330
1
100
AcDbSymbolTableRecord
100
AcDbBlockTableRecord
  2
_D_13
340
0
  0
BLOCK_RECORD
  5
2A4
330
1
100
AcDbSymbolTableRecord
100
AcDbBlockTableRecord
  2
_D_14
340
0
  0
BLOCK_RECORD
  5
2AE
330
1
100
AcDbSymbolTableRecord
100
AcDbBlockTableRecord
  2
_D_15
340
0
  0
BLOCK_RECORD
  5
2B8
330
1
100
AcDbSymbolTableRecord
100
AcDbBlockTableRecord
  2
_D_16
340
0
  0
BLOCK_RECORD
  5
2C3
330
1
100
AcDbSymbolTableRecord
100
AcDbBlockTableRecord
  2
SW_CENTERMARKSYMBOL_0
340
0
102
{BLKREFS
331
2CE
102
}
  0
BLOCK_RECORD
  5
2CF
330
1
100
AcDbSymbolTableRecord
100
AcDbBlockTableRecord
  2
SW_CENTERMARKSYMBOL_1
340
0
102
{BLKREFS
331
2DA
102
}
  0
BLOCK_RECORD
  5
2DB
330
1
100
AcDbSymbolTableRecord
100
AcDbBlockTableRecord
  2
SW_CENTERMARKSYMBOL_2
340
0
102
{BLKREFS
331
2E6
102
}
  0
BLOCK_RECORD
  5
2E7
330
1
100
AcDbSymbolTableRecord
100
AcDbBlockTableRecord
  2
SW_CENTERMARKSYMBOL_3
340
0
102
{BLKREFS
331
2F2
102
}
  0
BLOCK_RECORD
  5
2F3
330
1
100
AcDbSymbolTableRecord
100
AcDbBlockTableRecord
  2
SW_CENTERMARKSYMBOL_4
340
0
102
{BLKREFS
331
2FE
102
}
  0
BLOCK_RECORD
  5
37E
330
1
100
AcDbSymbolTableRecord
100
AcDbBlockTableRecord
  2
_D_17
340
0
  0
BLOCK_RECORD
  5
388
330
1
100
AcDbSymbolTableRecord
100
AcDbBlockTableRecord
  2
_D_18
340
0
  0
BLOCK_RECORD
  5
394
330
1
100
AcDbSymbolTableRecord
100
AcDbBlockTableRecord
  2
_D_19
340
0
  0
BLOCK_RECORD
  5
39E
330
1
100
AcDbSymbolTableRecord
100
AcDbBlockTableRecord
  2
_D_20
340
0
  0
BLOCK_RECORD
  5
3A8
330
1
100
AcDbSymbolTableRecord
100
AcDbBlockTableRecord
  2
_D_21
340
0
  0
BLOCK_RECORD
  5
3B2
330
1
100
AcDbSymbolTableRecord
100
AcDbBlockTableRecord
  2
_D_22
340
0
  0
BLOCK_RECORD
  5
3C0
330
1
100
AcDbSymbolTableRecord
100
AcDbBlockTableRecord
  2
SW_CENTERMARKSYMBOL_5
340
0
102
{BLKREFS
331
3CB
102
}
  0
BLOCK_RECORD
  5
3CC
330
1
100
AcDbSymbolTableRecord
100
AcDbBlockTableRecord
  2
SW_CENTERMARKSYMBOL_6
340
0
102
{BLKREFS
331
3D7
102
}
  0
BLOCK_RECORD
  5
3D8
330
1
100
AcDbSymbolTableRecord
100
AcDbBlockTableRecord
  2
SW_CENTERMARKSYMBOL_7
340
0
102
{BLKREFS
331
3E3
102
}
  0
BLOCK_RECORD
  5
3E4
330
1
100
AcDbSymbolTableRecord
100
AcDbBlockTableRecord
  2
SW_CENTERMARKSYMBOL_8
340
0
102
{BLKREFS
331
3EF
102
}
  0
BLOCK_RECORD
  5
3F0
330
1
100
AcDbSymbolTableRecord
100
AcDbBlockTableRecord
  2
SW_CENTERMARKSYMBOL_9
340
0
102
{BLKREFS
331
3FB
102
}
  0
BLOCK_RECORD
  5
3FC
330
1
100
AcDbSymbolTableRecord
100
AcDbBlockTableRecord
  2
SW_CENTERMARKSYMBOL_10
340
0
102
{BLKREFS
331
407
102
}
  0
ENDTAB
  0
ENDSEC
  0
SECTION
  2
BLOCKS
  0
BLOCK
  5
20
330
1F
100
AcDbEntity
  8
0
100
AcDbBlockBegin
  2
*Model_Space
 70
     0
 10
0.0
 20
0.0
 30
0.0
  3
*Model_Space
  1

  0
ENDBLK
  5
21
330
1F
100
AcDbEntity
  8
0
100
AcDbBlockEnd
  0
BLOCK
  5
1C
330
1B
100
AcDbEntity
 67
     1
  8
0
100
AcDbBlockBegin
  2
*Paper_Space
 70
     0
 10
0.0
 20
0.0
 30
0.0
  3
*Paper_Space
  1

  0
ENDBLK
  5
1D
330
1B
100
AcDbEntity
 67
     1
  8
0
100
AcDbBlockEnd
  0
BLOCK
  5
24
330
23
100
AcDbEntity
  8
0
100
AcDbBlockBegin
  2
*Paper_Space0
 70
     0
 10
0.0
 20
0.0
 30
0.0
  3
*Paper_Space0
  1

  0
ENDBLK
  5
25
330
23
100
AcDbEntity
  8
0
100
AcDbBlockEnd
  0
BLOCK
  5
135
330
134
100
AcDbEntity
  8
0
100
AcDbBlockBegin
  2
_DOT
 70
     0
 10
0.0
 20
0.0
 30
0.0
  3
_DOT
  1

  0
POLYLINE
  5
137
330
134
100
AcDbEntity
  8
0
  6
ByBlock
 62
     0
100
AcDb2dPolyline
 66
     1
 10
0.0
 20
0.0
 30
0.0
 70
     1
 40
0.5
 41
0.5
  0
VERTEX
  5
139
330
137
100
AcDbEntity
  8
0
  6
ByBlock
 62
     0
100
AcDbVertex
100
AcDb2dVertex
 10
-0.25
 20
0.0
 30
0.0
 42
1.0
  0
VERTEX
  5
13A
330
137
100
AcDbEntity
  8
0
  6
ByBlock
 62
     0
100
AcDbVertex
100
AcDb2dVertex
 10
0.25
 20
0.0
 30
0.0
 42
1.0
  0
SEQEND
  5
13B
330
137
100
AcDbEntity
  8
0
  6
ByBlock
 62
     0
  0
LINE
  5
138
330
134
100
AcDbEntity
  8
0
  6
ByBlock
 62
     0
370
    -2
100
AcDbLine
 10
-0.5
 20
0.0
 30
0.0
 11
-1.0
 21
0.0
 31
0.0
  0
ENDBLK
  5
136
330
134
100
AcDbEntity
  8
0
100
AcDbBlockEnd
  0
BLOCK
  5
13D
330
13C
100
AcDbEntity
  8
0
100
AcDbBlockBegin
  2
_D
 70
     0
 10
0.0
 20
0.0
 30
0.0
  3
_D
  1

  0
INSERT
  5
13F
330
13C
100
AcDbEntity
  8
0
  6
Continuous
 62
     7
370
     0
100
AcDbBlockReference
  2
_DOT
 10
179.045585934
 20
251.1629040202
 30
0.1
 41
3.0
 42
3.0
 50
180.0
  0
SOLID
  5
140
330
13C
100
AcDbEntity
  8
0
  6
Continuous
 62
     7
370
     0
100
AcDbTrace
 10
176.045585934
 20
251.1629040202
 30
0.0
 11
172.743585934
 21
252.6629040202
 31
0.0
 12
172.743585934
 22
249.6629040202
 32
0.0
 13
172.743585934
 23
249.6629040202
 33
0.0
  0
LINE
  5
141
330
13C
100
AcDbEntity
  8
0
  6
Continuous
 62
     7
370
     0
100
AcDbLine
 10
179.045585934
 20
212.1628041301
 30
0.0
 11
179.045585934
 21
252.1629040202
 31
0.0
  0
LINE
  5
142
330
13C
100
AcDbEntity
  8
0
  6
Continuous
 62
     7
370
     0
100
AcDbLine
 10
176.045585934
 20
212.0055918304
 30
0.0
 11
176.045585934
 21
252.1629040202
 31
0.0
  0
LINE
  5
143
330
13C
100
AcDbEntity
  8
0
  6
Continuous
 62
     7
370
     0
100
AcDbLine
 10
179.045585934
 20
251.1629040202
 30
0.0
 11
185.395585934
 21
251.1629040202
 31
0.0
  0
LINE
  5
144
330
13C
100
AcDbEntity
  8
0
  6
Continuous
 62
     7
370
     0
100
AcDbLine
 10
179.045585934
 20
251.1629040202
 30
0.0
 11
176.045585934
 21
251.1629040202
 31
0.0
  0
LINE
  5
145
330
13C
100
AcDbEntity
  8
0
  6
Continuous
 62
     7
370
     0
100
AcDbLine
 10
176.045585934
 20
251.1629040202
 30
0.0
 11
169.695585934
 21
251.1629040202
 31
0.0
  0
LINE
  5
146
330
13C
100
AcDbEntity
  8
0
  6
Continuous
 62
     7
370
     0
100
AcDbLine
 10
177.545585934
 20
251.1629040202
 30
0.0
 11
165.2690309945
 21
267.4240830964
 31
0.0
  0
LINE
  5
147
330
13C
100
AcDbEntity
  8
0
  6
Continuous
 62
     7
370
     0
100
AcDbLine
 10
165.2690309945
 20
267.4240830964
 30
0.0
 11
132.1988951328
 21
267.4240830964
 31
0.0
  0
MTEXT
  5
148
330
13C
100
AcDbEntity
  8
0
  6
Continuous
 62
     7
370
     0
100
AcDbMText
 10
132.1988951328
 20
271.935820011
 30
0.1
 40
3.5
 41
0.0
 71
     1
 72
     1
  1
Maxストローク
  7
SLDTEXTSTYLE0
 73
     1
 44
1.0
  0
MTEXT
  5
149
330
13C
100
AcDbEntity
  8
0
  6
Continuous
 62
     7
370
     0
100
AcDbMText
 10
162.6829232934
 20
271.935820011
 30
0.1
 40
3.5
 41
0.0
 71
     1
 72
     1
  1
3
  7
SLDTEXTSTYLE0
 73
     1
 44
1.0
  0
ENDBLK
  5
13E
330
13C
100
AcDbEntity
  8
0
100
AcDbBlockEnd
  0
BLOCK
  5
14D
330
14C
100
AcDbEntity
  8
0
100
AcDbBlockBegin
  2
_D_1
 70
     0
 10
0.0
 20
0.0
 30
0.0
  3
_D_1
  1

  0
ARC
  5
14F
330
14C
100
AcDbEntity
  8
0
  6
Continuous
 62
     7
370
     0
100
AcDbCircle
 10
164.5261415692
 20
253.9410290157
 30
0.0
 40
6.2120763399956
100
AcDbArc
 50
153.4349488229
 51
206.5650511771
  0
ARC
  5
150
330
14C
100
AcDbEntity
  8
0
  6
Continuous
 62
     7
370
     0
100
AcDbCircle
 10
162.465030648
 20
253.9410290157
 30
0.0
 40
6.212076339995626
100
AcDbArc
 50
333.4349488229
 51
26.5650511771
  0
SOLID
  5
151
330
14C
100
AcDbEntity
  8
0
  6
Continuous
 62
     7
370
     0
100
AcDbTrace
 10
176.045585934
 20
251.1629040202
 30
0.0
 11
174.045585934
 21
251.9129040202
 31
0.0
 12
174.045585934
 22
250.4129040202
 32
0.0
 13
174.045585934
 23
250.4129040202
 33
0.0
  0
SOLID
  5
152
330
14C
100
AcDbEntity
  8
0
  6
Continuous
 62
     7
370
     0
100
AcDbTrace
 10
150.945585934
 20
251.1629040202
 30
0.0
 11
152.945585934
 21
250.4129040202
 31
0.0
 12
152.945585934
 22
251.9129040202
 32
0.0
 13
152.945585934
 23
251.9129040202
 33
0.0
  0
LINE
  5
153
330
14C
100
AcDbEntity
  8
0
  6
Continuous
 62
     7
370
     0
100
AcDbLine
 10
176.045585934
 20
212.0055918304
 30
0.0
 11
176.045585934
 21
252.1629040202
 31
0.0
  0
LINE
  5
154
330
14C
100
AcDbEntity
  8
0
  6
Continuous
 62
     7
370
     0
100
AcDbLine
 10
150.945585934
 20
145.8557315669
 30
0.0
 11
150.945585934
 21
252.1629040202
 31
0.0
  0
LINE
  5
155
330
14C
100
AcDbEntity
  8
0
  6
Continuous
 62
     7
370
     0
100
AcDbLine
 10
176.045585934
 20
251.1629040202
 30
0.0
 11
150.945585934
 21
251.1629040202
 31
0.0
  0
MTEXT
  5
156
330
14C
100
AcDbEntity
  8
0
  6
Continuous
 62
     7
370
     0
100
AcDbMText
 10
158.9698915782
 20
255.6746409348
 30
0.1
 40
3.5
 41
0.0
 71
     1
 72
     1
  1
25.1
  7
SLDTEXTSTYLE0
 73
     1
 44
1.0
  0
ENDBLK
  5
14E
330
14C
100
AcDbEntity
  8
0
100
AcDbBlockEnd
  0
BLOCK
  5
159
330
158
100
AcDbEntity
  8
0
100
AcDbBlockBegin
  2
_D_2
 70
     0
 10
0.0
 20
0.0
 30
0.0
  3
_D_2
  1

  0
ARC
  5
15B
330
158
100
AcDbEntity
  8
0
  6
Continuous
 62
     7
370
     0
100
AcDbCircle
 10
142.2761415692
 20
116.6231205879
 30
0.0
 40
6.212076339995607
100
AcDbArc
 50
153.4349488229
 51
206.5650511771
  0
ARC
  5
15C
330
158
100
AcDbEntity
  8
0
  6
Continuous
 62
     7
370
     0
100
AcDbCircle
 10
140.215030648
 20
116.6231205879
 30
0.0
 40
6.212076339995607
100
AcDbArc
 50
333.4349488229
 51
26.5650511771
  0
SOLID
  5
15D
330
158
100
AcDbEntity
  8
0
  6
Continuous
 62
     7
370
     0
100
AcDbTrace
 10
93.845585934
 20
113.8449955924
 30
0.0
 11
95.845585934
 21
113.0949955924
 31
0.0
 12
95.845585934
 22
114.5949955924
 32
0.0
 13
95.845585934
 23
114.5949955924
 33
0.0
  0
SOLID
  5
15E
330
158
100
AcDbEntity
  8
0
  6
Continuous
 62
     7
370
     0
100
AcDbTrace
 10
188.645585934
 20
113.8449955924
 30
0.0
 11
186.645585934
 21
114.5949955924
 31
0.0
 12
186.645585934
 22
113.0949955924
 32
0.0
 13
186.645585934
 23
113.0949955924
 33
0.0
  0
LINE
  5
15F
330
158
100
AcDbEntity
  8
0
  6
Continuous
 62
     7
370
     0
100
AcDbLine
 10
93.845585934
 20
154.2057315669
 30
0.0
 11
93.845585934
 21
112.8449955924
 31
0.0
  0
LINE
  5
160
330
158
100
AcDbEntity
  8
0
  6
Continuous
 62
     7
370
     0
100
AcDbLine
 10
188.645585934
 20
156.2557315669
 30
0.0
 11
188.645585934
 21
112.8449955924
 31
0.0
  0
LINE
  5
161
330
158
100
AcDbEntity
  8
0
  6
Continuous
 62
     7
370
     0
100
AcDbLine
 10
93.845585934
 20
113.8449955924
 30
0.0
 11
188.645585934
 21
113.8449955924
 31
0.0
  0
MTEXT
  5
162
330
158
100
AcDbEntity
  8
0
  6
Continuous
 62
     7
370
     0
100
AcDbMText
 10
136.7198915782
 20
118.356732507
 30
0.1
 40
3.5
 41
0.0
 71
     1
 72
     1
  1
94.8
  7
SLDTEXTSTYLE0
 73
     1
 44
1.0
  0
ENDBLK
  5
15A
330
158
100
AcDbEntity
  8
0
100
AcDbBlockEnd
  0
BLOCK
  5
165
330
164
100
AcDbEntity
  8
0
100
AcDbBlockBegin
  2
_D_3
 70
     0
 10
0.0
 20
0.0
 30
0.0
  3
_D_3
  1

  0
ARC
  5
167
330
164
100
AcDbEntity
  8
0
  6
Continuous
 62
     7
370
     0
100
AcDbCircle
 10
149.5761415692
 20
125.9674353658
 30
0.0
 40
6.212076339995607
100
AcDbArc
 50
153.4349488229
 51
206.5650511771
  0
ARC
  5
168
330
164
100
AcDbEntity
  8
0
  6
Continuous
 62
     7
370
     0
100
AcDbCircle
 10
147.515030648
 20
125.9674353658
 30
0.0
 40
6.2120763399956
100
AcDbArc
 50
333.4349488229
 51
26.5650511771
  0
SOLID
  5
169
330
164
100
AcDbEntity
  8
0
  6
Continuous
 62
     7
370
     0
100
AcDbTrace
 10
108.445585934
 20
123.1893103703
 30
0.0
 11
110.445585934
 21
122.4393103703
 31
0.0
 12
110.445585934
 22
123.9393103703
 32
0.0
 13
110.445585934
 23
123.9393103703
 33
0.0
  0
SOLID
  5
16A
330
164
100
AcDbEntity
  8
0
  6
Continuous
 62
     7
370
     0
100
AcDbTrace
 10
188.645585934
 20
123.1893103703
 30
0.0
 11
186.645585934
 21
123.9393103703
 31
0.0
 12
186.645585934
 22
122.4393103703
 32
0.0
 13
186.645585934
 23
122.4393103703
 33
0.0
  0
LINE
  5
16B
330
164
100
AcDbEntity
  8
0
  6
Continuous
 62
     7
370
     0
100
AcDbLine
 10
108.445585934
 20
142.8557315669
 30
0.0
 11
108.445585934
 21
122.1893103703
 31
0.0
  0
LINE
  5
16C
330
164
100
AcDbEntity
  8
0
  6
Continuous
 62
     7
370
     0
100
AcDbLine
 10
188.645585934
 20
156.2557315669
 30
0.0
 11
188.645585934
 21
122.1893103703
 31
0.0
  0
LINE
  5
16D
330
164
100
AcDbEntity
  8
0
  6
Continuous
 62
     7
370
     0
100
AcDbLine
 10
108.445585934
 20
123.1893103703
 30
0.0
 11
188.645585934
 21
123.1893103703
 31
0.0
  0
MTEXT
  5
16E
330
164
100
AcDbEntity
  8
0
  6
Continuous
 62
     7
370
     0
100
AcDbMText
 10
144.0198915782
 20
127.7010472848
 30
0.1
 40
3.5
 41
0.0
 71
     1
 72
     1
  1
80.2
  7
SLDTEXTSTYLE0
 73
     1
 44
1.0
  0
ENDBLK
  5
166
330
164
100
AcDbEntity
  8
0
100
AcDbBlockEnd
  0
BLOCK
  5
171
330
170
100
AcDbEntity
  8
0
100
AcDbBlockBegin
  2
_D_4
 70
     0
 10
0.0
 20
0.0
 30
0.0
  3
_D_4
  1

  0
SOLID
  5
173
330
170
100
AcDbEntity
  8
0
  6
Continuous
 62
     7
370
     0
100
AcDbTrace
 10
86.6857209969
 20
159.0557315669
 30
0.0
 11
85.9357209969
 21
157.0557315669
 31
0.0
 12
87.4357209969
 22
157.0557315669
 32
0.0
 13
87.4357209969
 23
157.0557315669
 33
0.0
  0
SOLID
  5
174
330
170
100
AcDbEntity
  8
0
  6
Continuous
 62
     7
370
     0
100
AcDbTrace
 10
86.6857209969
 20
140.3557315669
 30
0.0
 11
87.4357209969
 21
142.3557315669
 31
0.0
 12
85.9357209969
 22
142.3557315669
 32
0.0
 13
85.9357209969
 23
142.3557315669
 33
0.0
  0
LINE
  5
175
330
170
100
AcDbEntity
  8
0
  6
Continuous
 62
     7
370
     0
100
AcDbLine
 10
90.2592117132
 20
159.0557315669
 30
0.0
 11
85.6857209969
 21
159.0557315669
 31
0.0
  0
LINE
  5
176
330
170
100
AcDbEntity
  8
0
  6
Continuous
 62
     7
370
     0
100
AcDbLine
 10
110.945585934
 20
140.3557315669
 30
0.0
 11
85.6857209969
 21
140.3557315669
 31
0.0
  0
LINE
  5
177
330
170
100
AcDbEntity
  8
0
  6
Continuous
 62
     7
370
     0
100
AcDbLine
 10
86.6857209969
 20
159.0557315669
 30
0.0
 11
86.6857209969
 21
140.3557315669
 31
0.0
  0
MTEXT
  5
178
330
170
100
AcDbEntity
  8
0
  6
Continuous
 62
     7
370
     0
100
AcDbMText
 10
82.1739840823
 20
145.181041237
 30
0.0
 40
3.5
 41
0.0
 71
     1
 72
     1
  1
18.7
  7
SLDTEXTSTYLE0
 11
-1.770233605404514E-14
 21
1.0
 31
0.0
 73
     1
 44
1.0
  0
ENDBLK
  5
172
330
170
100
AcDbEntity
  8
0
100
AcDbBlockEnd
  0
BLOCK
  5
17B
330
17A
100
AcDbEntity
  8
0
100
AcDbBlockBegin
  2
_D_5
 70
     0
 10
0.0
 20
0.0
 30
0.0
  3
_D_5
  1

  0
SOLID
  5
17D
330
17A
100
AcDbEntity
  8
0
  6
Continuous
 62
     7
370
     0
100
AcDbTrace
 10
80.4965233276
 20
175.0557315669
 30
0.0
 11
79.7465233276
 21
173.0557315669
 31
0.0
 12
81.2465233276
 22
173.0557315669
 32
0.0
 13
81.2465233276
 23
173.0557315669
 33
0.0
  0
SOLID
  5
17E
330
17A
100
AcDbEntity
  8
0
  6
Continuous
 62
     7
370
     0
100
AcDbTrace
 10
80.4965233276
 20
140.3557315669
 30
0.0
 11
81.2465233276
 21
142.3557315669
 31
0.0
 12
79.7465233276
 22
142.3557315669
 32
0.0
 13
79.7465233276
 23
142.3557315669
 33
0.0
  0
LINE
  5
17F
330
17A
100
AcDbEntity
  8
0
  6
Continuous
 62
     7
370
     0
100
AcDbLine
 10
116.9395563732
 20
175.0557315669
 30
0.0
 11
79.4965233276
 21
175.0557315669
 31
0.0
  0
LINE
  5
180
330
17A
100
AcDbEntity
  8
0
  6
Continuous
 62
     7
370
     0
100
AcDbLine
 10
110.945585934
 20
140.3557315669
 30
0.0
 11
79.4965233276
 21
140.3557315669
 31
0.0
  0
LINE
  5
181
330
17A
100
AcDbEntity
  8
0
  6
Continuous
 62
     7
370
     0
100
AcDbLine
 10
80.4965233276
 20
175.0557315669
 30
0.0
 11
80.4965233276
 21
140.3557315669
 31
0.0
  0
MTEXT
  5
182
330
17A
100
AcDbEntity
  8
0
  6
Continuous
 62
     7
370
     0
100
AcDbMText
 10
75.984786413
 20
153.181041237
 30
0.0
 40
3.5
 41
0.0
 71
     1
 72
     1
  1
34.7
  7
SLDTEXTSTYLE0
 11
-1.770233605404514E-14
 21
1.0
 31
0.0
 73
     1
 44
1.0
  0
ENDBLK
  5
17C
330
17A
100
AcDbEntity
  8
0
100
AcDbBlockEnd
  0
BLOCK
  5
185
330
184
100
AcDbEntity
  8
0
100
AcDbBlockBegin
  2
_D_6
 70
     0
 10
0.0
 20
0.0
 30
0.0
  3
_D_6
  1

  0
SOLID
  5
187
330
184
100
AcDbEntity
  8
0
  6
Continuous
 62
     7
370
     0
100
AcDbTrace
 10
140.945585934
 20
133.2751586099
 30
0.0
 11
142.945585934
 21
132.5251586099
 31
0.0
 12
142.945585934
 22
134.0251586099
 32
0.0
 13
142.945585934
 23
134.0251586099
 33
0.0
  0
SOLID
  5
188
330
184
100
AcDbEntity
  8
0
  6
Continuous
 62
     7
370
     0
100
AcDbTrace
 10
150.945585934
 20
133.2751586099
 30
0.0
 11
148.945585934
 21
134.0251586099
 31
0.0
 12
148.945585934
 22
132.5251586099
 32
0.0
 13
148.945585934
 23
132.5251586099
 33
0.0
  0
LINE
  5
189
330
184
100
AcDbEntity
  8
0
  6
Continuous
 62
     7
370
     0
100
AcDbLine
 10
140.945585934
 20
137.3557315669
 30
0.0
 11
140.945585934
 21
132.2751586099
 31
0.0
  0
LINE
  5
18A
330
184
100
AcDbEntity
  8
0
  6
Continuous
 62
     7
370
     0
100
AcDbLine
 10
150.945585934
 20
137.3557315669
 30
0.0
 11
150.945585934
 21
132.2751586099
 31
0.0
  0
LINE
  5
18B
330
184
100
AcDbEntity
  8
0
  6
Continuous
 62
     7
370
     0
100
AcDbLine
 10
140.945585934
 20
133.2751586099
 30
0.0
 11
150.945585934
 21
133.2751586099
 31
0.0
  0
MTEXT
  5
18C
330
184
100
AcDbEntity
  8
0
  6
Continuous
 62
     7
370
     0
100
AcDbMText
 10
143.3594747405
 20
137.7868955245
 30
0.1
 40
3.5
 41
0.0
 71
     1
 72
     1
  1
10
  7
SLDTEXTSTYLE0
 73
     1
 44
1.0
  0
ENDBLK
  5
186
330
184
100
AcDbEntity
  8
0
100
AcDbBlockEnd
  0
BLOCK
  5
18F
330
18E
100
AcDbEntity
  8
0
100
AcDbBlockBegin
  2
_D_7
 70
     0
 10
0.0
 20
0.0
 30
0.0
  3
_D_7
  1

  0
SOLID
  5
191
330
18E
100
AcDbEntity
  8
0
  6
Continuous
 62
     7
370
     0
100
AcDbTrace
 10
150.945585934
 20
133.2751586099
 30
0.0
 11
152.945585934
 21
132.5251586099
 31
0.0
 12
152.945585934
 22
134.0251586099
 32
0.0
 13
152.945585934
 23
134.0251586099
 33
0.0
  0
SOLID
  5
192
330
18E
100
AcDbEntity
  8
0
  6
Continuous
 62
     7
370
     0
100
AcDbTrace
 10
188.645585934
 20
133.2751586099
 30
0.0
 11
186.645585934
 21
134.0251586099
 31
0.0
 12
186.645585934
 22
132.5251586099
 32
0.0
 13
186.645585934
 23
132.5251586099
 33
0.0
  0
LINE
  5
193
330
18E
100
AcDbEntity
  8
0
  6
Continuous
 62
     7
370
     0
100
AcDbLine
 10
150.945585934
 20
137.3557315669
 30
0.0
 11
150.945585934
 21
132.2751586099
 31
0.0
  0
LINE
  5
194
330
18E
100
AcDbEntity
  8
0
  6
Continuous
 62
     7
370
     0
100
AcDbLine
 10
188.645585934
 20
156.2557315669
 30
0.0
 11
188.645585934
 21
132.2751586099
 31
0.0
  0
LINE
  5
195
330
18E
100
AcDbEntity
  8
0
  6
Continuous
 62
     7
370
     0
100
AcDbLine
 10
150.945585934
 20
133.2751586099
 30
0.0
 11
188.645585934
 21
133.2751586099
 31
0.0
  0
MTEXT
  5
196
330
18E
100
AcDbEntity
  8
0
  6
Continuous
 62
     7
370
     0
100
AcDbMText
 10
165.2698914036
 20
137.7868955245
 30
0.1
 40
3.5
 41
0.0
 71
     1
 72
     1
  1
37.7
  7
SLDTEXTSTYLE0
 73
     1
 44
1.0
  0
ENDBLK
  5
190
330
18E
100
AcDbEntity
  8
0
100
AcDbBlockEnd
  0
BLOCK
  5
19A
330
199
100
AcDbEntity
  8
0
100
AcDbBlockBegin
  2
_D_8
 70
     0
 10
0.0
 20
0.0
 30
0.0
  3
_D_8
  1

  0
INSERT
  5
19C
330
199
100
AcDbEntity
  8
0
  6
Continuous
 62
     7
370
     0
100
AcDbBlockReference
  2
_DOT
 10
179.045585934
 20
251.1629040202
 30
0.1
 41
3.0
 42
3.0
 50
180.0
  0
SOLID
  5
19D
330
199
100
AcDbEntity
  8
0
  6
Continuous
 62
     7
370
     0
100
AcDbTrace
 10
188.645585934
 20
251.1629040202
 30
0.0
 11
186.645585934
 21
251.9129040202
 31
0.0
 12
186.645585934
 22
250.4129040202
 32
0.0
 13
186.645585934
 23
250.4129040202
 33
0.0
  0
LINE
  5
19E
330
199
100
AcDbEntity
  8
0
  6
Continuous
 62
     7
370
     0
100
AcDbLine
 10
179.045585934
 20
212.1628041301
 30
0.0
 11
179.045585934
 21
252.1629040202
 31
0.0
  0
LINE
  5
19F
330
199
100
AcDbEntity
  8
0
  6
Continuous
 62
     7
370
     0
100
AcDbLine
 10
188.645585934
 20
194.0557315669
 30
0.0
 11
188.645585934
 21
252.1629040202
 31
0.0
  0
LINE
  5
1A0
330
199
100
AcDbEntity
  8
0
  6
Continuous
 62
     7
370
     0
100
AcDbLine
 10
179.045585934
 20
251.1629040202
 30
0.0
 11
188.645585934
 21
251.1629040202
 31
0.0
  0
MTEXT
  5
1A1
330
199
100
AcDbEntity
  8
0
  6
Continuous
 62
     7
370
     0
100
AcDbMText
 10
180.6129471167
 20
255.6746409348
 30
0.1
 40
3.5
 41
0.0
 71
     1
 72
     1
  1
9.6
  7
SLDTEXTSTYLE0
 73
     1
 44
1.0
  0
ENDBLK
  5
19B
330
199
100
AcDbEntity
  8
0
100
AcDbBlockEnd
  0
BLOCK
  5
1A4
330
1A3
100
AcDbEntity
  8
0
100
AcDbBlockBegin
  2
_D_9
 70
     0
 10
0.0
 20
0.0
 30
0.0
  3
_D_9
  1

  0
SOLID
  5
1A6
330
1A3
100
AcDbEntity
  8
0
  6
Continuous
 62
     7
370
     0
100
AcDbTrace
 10
195.0239146796
 20
211.1628041301
 30
0.0
 11
194.2739146796
 21
209.1628041301
 31
0.0
 12
195.7739146796
 22
209.1628041301
 32
0.0
 13
195.7739146796
 23
209.1628041301
 33
0.0
  0
SOLID
  5
1A7
330
1A3
100
AcDbEntity
  8
0
  6
Continuous
 62
     7
370
     0
100
AcDbTrace
 10
195.0239146797
 20
140.3557315669
 30
0.0
 11
195.7739146797
 21
142.3557315669
 31
0.0
 12
194.2739146797
 22
142.3557315669
 32
0.0
 13
194.2739146797
 23
142.3557315669
 33
0.0
  0
LINE
  5
1A8
330
1A3
100
AcDbEntity
  8
0
  6
Continuous
 62
     7
370
     0
100
AcDbLine
 10
180.045585934
 20
211.1628041301
 30
0.0
 11
196.0239146796
 21
211.1628041301
 31
0.0
  0
LINE
  5
1A9
330
1A3
100
AcDbEntity
  8
0
  6
Continuous
 62
     7
370
     0
100
AcDbLine
 10
155.933502886
 20
140.3557315669
 30
0.0
 11
196.0239146797
 21
140.3557315669
 31
0.0
  0
LINE
  5
1AA
330
1A3
100
AcDbEntity
  8
0
  6
Continuous
 62
     7
370
     0
100
AcDbLine
 10
195.0239146796
 20
211.1628041301
 30
0.0
 11
195.0239146797
 21
140.3557315669
 31
0.0
  0
MTEXT
  5
1AB
330
1A3
100
AcDbEntity
  8
0
  6
Continuous
 62
     7
370
     0
100
AcDbMText
 10
190.5121777651
 20
171.233573318
 30
0.1
 40
3.5
 41
0.0
 71
     1
 72
     1
  1
70.8
  7
SLDTEXTSTYLE0
 11
-1.770233605404514E-14
 21
1.0
 31
0.0
 73
     1
 44
1.0
  0
ENDBLK
  5
1A5
330
1A3
100
AcDbEntity
  8
0
100
AcDbBlockEnd
  0
BLOCK
  5
1AE
330
1AD
100
AcDbEntity
  8
0
100
AcDbBlockBegin
  2
SW_NOTE_0
 70
     0
 10
0.0
 20
0.0
 30
0.0
  3
SW_NOTE_0
  1

  0
LINE
  5
1B0
330
1AD
100
AcDbEntity
  8
0
  6
Continuous
 62
     0
370
     0
100
AcDbLine
 10
-19.6951934349
 20
0.3435404455
 30
0.0
 11
0.0
 21
0.3435404455
 31
0.0
  0
LINE
  5
1B1
330
1AD
100
AcDbEntity
  8
0
  6
Continuous
 62
     0
370
     0
100
AcDbLine
 10
0.0
 20
0.3435404455
 30
0.0
 11
-19.6951934349
 21
0.3435404455
 31
0.0
  0
LINE
  5
1B2
330
1AD
100
AcDbEntity
  8
0
  6
Continuous
 62
     0
370
     0
100
AcDbLine
 10
-19.6951934349
 20
0.3435404455
 30
0.0
 11
0.0
 21
0.3435404455
 31
0.0
  0
LINE
  5
1B3
330
1AD
100
AcDbEntity
  8
0
  6
Continuous
 62
     0
370
     0
100
AcDbLine
 10
0.0
 20
0.3435404455
 30
0.0
 11
-19.6951934349
 21
0.3435404455
 31
0.0
  0
LINE
  5
1B4
330
1AD
100
AcDbEntity
  8
0
  6
Continuous
 62
     0
370
     0
100
AcDbLine
 10
-19.6951934349
 20
0.3435404455
 30
0.0
 11
0.0
 21
0.3435404455
 31
0.0
  0
LINE
  5
1B5
330
1AD
100
AcDbEntity
  8
0
  6
Continuous
 62
     0
370
     0
100
AcDbLine
 10
0.0
 20
0.3435404455
 30
0.0
 11
-19.6951934349
 21
0.3435404455
 31
0.0
  0
MTEXT
  5
1B6
330
1AD
100
AcDbEntity
  8
0
  6
Continuous
 62
     0
370
     0
100
AcDbMText
 10
-19.6174258551
 20
4.5793105052
 30
0.0
 40
3.5
 41
0.0
 71
     1
 72
     1
  1
カット配管
  7
SLDTEXTSTYLE0
 73
     1
 44
1.0
  0
ENDBLK
  5
1AF
330
1AD
100
AcDbEntity
  8
0
100
AcDbBlockEnd
  0
BLOCK
  5
1BB
330
1BA
100
AcDbEntity
  8
0
100
AcDbBlockBegin
  2
SW_NOTE_1
 70
     0
 10
0.0
 20
0.0
 30
0.0
  3
SW_NOTE_1
  1

  0
LINE
  5
1BD
330
1BA
100
AcDbEntity
  8
0
  6
Continuous
 62
     0
370
     0
100
AcDbLine
 10
-0.0117675126
 20
0.2831653631
 30
0.0
 11
17.4559933315
 21
0.2831653631
 31
0.0
  0
LINE
  5
1BE
330
1BA
100
AcDbEntity
  8
0
  6
Continuous
 62
     0
370
     0
100
AcDbLine
 10
17.4559933315
 20
0.2831653631
 30
0.0
 11
-0.0117675126
 21
0.2831653631
 31
0.0
  0
LINE
  5
1BF
330
1BA
100
AcDbEntity
  8
0
  6
Continuous
 62
     0
370
     0
100
AcDbLine
 10
-0.0117675126
 20
0.2831653631
 30
0.0
 11
17.4559933315
 21
0.2831653631
 31
0.0
  0
LINE
  5
1C0
330
1BA
100
AcDbEntity
  8
0
  6
Continuous
 62
     0
370
     0
100
AcDbLine
 10
17.4559933315
 20
0.2831653631
 30
0.0
 11
-0.0117675126
 21
0.2831653631
 31
0.0
  0
LINE
  5
1C1
330
1BA
100
AcDbEntity
  8
0
  6
Continuous
 62
     0
370
     0
100
AcDbLine
 10
-0.0117675126
 20
0.2831653631
 30
0.0
 11
17.4559933315
 21
0.2831653631
 31
0.0
  0
LINE
  5
1C2
330
1BA
100
AcDbEntity
  8
0
  6
Continuous
 62
     0
370
     0
100
AcDbLine
 10
17.4559933315
 20
0.2831653631
 30
0.0
 11
-0.0117675126
 21
0.2831653631
 31
0.0
  0
MTEXT
  5
1C3
330
1BA
100
AcDbEntity
  8
0
  6
Continuous
 62
     0
370
     0
100
AcDbMText
 10
0.0
 20
4.5117370892
 30
0.0
 40
3.5
 41
0.0
 71
     1
 72
     1
  1
プル配管
  7
SLDTEXTSTYLE0
 73
     1
 44
1.0
  0
ENDBLK
  5
1BC
330
1BA
100
AcDbEntity
  8
0
100
AcDbBlockEnd
  0
BLOCK
  5
277
330
276
100
AcDbEntity
  8
0
100
AcDbBlockBegin
  2
_D_10
 70
     0
 10
0.0
 20
0.0
 30
0.0
  3
_D_10
  1

  0
SOLID
  5
279
330
276
100
AcDbEntity
  8
0
  6
Continuous
 62
     7
370
     0
100
AcDbTrace
 10
42.7732856424
 20
223.4198932499
 30
0.0
 11
40.7732851505
 21
224.169891938
 31
0.0
 12
40.7732861344
 22
222.669891938
 32
0.0
 13
40.7732861344
 23
222.669891938
 33
0.0
  0
SOLID
  5
27A
330
276
100
AcDbEntity
  8
0
  6
Continuous
 62
     7
370
     0
100
AcDbTrace
 10
48.7189058024
 20
223.4198971498
 30
0.0
 11
50.7189062944
 21
222.6698984616
 31
0.0
 12
50.7189053105
 22
224.1698984616
 32
0.0
 13
50.7189053105
 23
224.1698984616
 33
0.0
  0
LINE
  5
27B
330
276
100
AcDbEntity
  8
0
  6
Continuous
 62
     7
370
     0
100
AcDbLine
 10
42.7732930263
 20
212.1628002302
 30
0.0
 11
42.7732849865
 21
224.4198932499
 31
0.0
  0
LINE
  5
27C
330
276
100
AcDbEntity
  8
0
  6
Continuous
 62
     7
370
     0
100
AcDbLine
 10
48.7189131863
 20
212.1628041301
 30
0.0
 11
48.7189051465
 21
224.4198971498
 31
0.0
  0
LINE
  5
27D
330
276
100
AcDbEntity
  8
0
  6
Continuous
 62
     7
370
     0
100
AcDbLine
 10
42.7732856424
 20
223.4198932499
 30
0.0
 11
37.7732856424
 21
223.4198899702
 31
0.0
  0
LINE
  5
27E
330
276
100
AcDbEntity
  8
0
  6
Continuous
 62
     7
370
     0
100
AcDbLine
 10
42.7732856424
 20
223.4198932499
 30
0.0
 11
48.7189058024
 21
223.4198971498
 31
0.0
  0
LINE
  5
27F
330
276
100
AcDbEntity
  8
0
  6
Continuous
 62
     7
370
     0
100
AcDbLine
 10
48.7189058024
 20
223.4198971498
 30
0.0
 11
53.7189058024
 21
223.4199004294
 31
0.0
  0
MTEXT
  5
280
330
276
100
AcDbEntity
  8
0
  6
Continuous
 62
     7
370
     0
100
AcDbMText
 10
42.5134539458
 20
227.931629994
 30
-35.4313718718
 40
3.5
 41
0.0
 71
     1
 72
     1
  1
5.9
  7
SLDTEXTSTYLE0
 11
0.9999999999997848
 21
6.559297524106935E-7
 31
0.0
 73
     1
 44
1.0
  0
ENDBLK
  5
278
330
276
100
AcDbEntity
  8
0
100
AcDbBlockEnd
  0
BLOCK
  5
283
330
282
100
AcDbEntity
  8
0
100
AcDbBlockBegin
  2
_D_11
 70
     0
 10
0.0
 20
0.0
 30
0.0
  3
_D_11
  1

  0
ARC
  5
285
330
282
100
AcDbEntity
  8
0
  6
Continuous
 62
     7
370
     0
100
AcDbCircle
 10
46.7766841432
 20
235.9410290157
 30
0.0
 40
6.2120763399956
100
AcDbArc
 50
153.4349488229
 51
206.5650511771
  0
ARC
  5
286
330
282
100
AcDbEntity
  8
0
  6
Continuous
 62
     7
370
     0
100
AcDbCircle
 10
44.715573222
 20
235.9410290157
 30
0.0
 40
6.21207633999562
100
AcDbArc
 50
333.4349488229
 51
26.5650511771
  0
SOLID
  5
287
330
282
100
AcDbEntity
  8
0
  6
Continuous
 62
     7
370
     0
100
AcDbTrace
 10
37.044573508
 20
233.1629040202
 30
0.0
 11
35.044573508
 21
233.9129040202
 31
0.0
 12
35.044573508
 22
232.4129040202
 32
0.0
 13
35.044573508
 23
232.4129040202
 33
0.0
  0
SOLID
  5
288
330
282
100
AcDbEntity
  8
0
  6
Continuous
 62
     7
370
     0
100
AcDbTrace
 10
54.447683508
 20
233.1629040202
 30
0.0
 11
56.447683508
 21
232.4129040202
 31
0.0
 12
56.447683508
 22
233.9129040202
 32
0.0
 13
56.447683508
 23
233.9129040202
 33
0.0
  0
LINE
  5
289
330
282
100
AcDbEntity
  8
0
  6
Continuous
 62
     7
370
     0
100
AcDbLine
 10
37.044573508
 20
196.1657315669
 30
0.0
 11
37.044573508
 21
234.1629040202
 31
0.0
  0
LINE
  5
28A
330
282
100
AcDbEntity
  8
0
  6
Continuous
 62
     7
370
     0
100
AcDbLine
 10
54.447683508
 20
196.1657315669
 30
0.0
 11
54.447683508
 21
234.1629040202
 31
0.0
  0
LINE
  5
28B
330
282
100
AcDbEntity
  8
0
  6
Continuous
 62
     7
370
     0
100
AcDbLine
 10
37.044573508
 20
233.1629040202
 30
0.0
 11
32.044573508
 21
233.1629040202
 31
0.0
  0
LINE
  5
28C
330
282
100
AcDbEntity
  8
0
  6
Continuous
 62
     7
370
     0
100
AcDbLine
 10
37.044573508
 20
233.1629040202
 30
0.0
 11
54.447683508
 21
233.1629040202
 31
0.0
  0
LINE
  5
28D
330
282
100
AcDbEntity
  8
0
  6
Continuous
 62
     7
370
     0
100
AcDbLine
 10
54.447683508
 20
233.1629040202
 30
0.0
 11
59.447683508
 21
233.1629040202
 31
0.0
  0
MTEXT
  5
28E
330
282
100
AcDbEntity
  8
0
  6
Continuous
 62
     7
370
     0
100
AcDbMText
 10
41.2204341521
 20
237.6746409348
 30
-35.4313718718
 40
3.5
 41
0.0
 71
     1
 72
     1
  1
17.4
  7
SLDTEXTSTYLE0
 73
     1
 44
1.0
  0
ENDBLK
  5
284
330
282
100
AcDbEntity
  8
0
100
AcDbBlockEnd
  0
BLOCK
  5
291
330
290
100
AcDbEntity
  8
0
100
AcDbBlockBegin
  2
_D_12
 70
     0
 10
0.0
 20
0.0
 30
0.0
  3
_D_12
  1

  0
SOLID
  5
293
330
290
100
AcDbEntity
  8
0
  6
Continuous
 62
     7
370
     0
100
AcDbTrace
 10
26.852781845
 20
188.3557315669
 30
0.0
 11
26.102781845
 21
186.3557315669
 31
0.0
 12
27.602781845
 22
186.3557315669
 32
0.0
 13
27.602781845
 23
186.3557315669
 33
0.0
  0
SOLID
  5
294
330
290
100
AcDbEntity
  8
0
  6
Continuous
 62
     7
370
     0
100
AcDbTrace
 10
26.852781845
 20
140.3557315669
 30
0.0
 11
27.602781845
 21
142.3557315669
 31
0.0
 12
26.102781845
 22
142.3557315669
 32
0.0
 13
26.102781845
 23
142.3557315669
 33
0.0
  0
LINE
  5
295
330
290
100
AcDbEntity
  8
0
  6
Continuous
 62
     7
370
     0
100
AcDbLine
 10
37.096113508
 20
188.3557315669
 30
0.0
 11
25.852781845
 21
188.3557315669
 31
0.0
  0
LINE
  5
296
330
290
100
AcDbEntity
  8
0
  6
Continuous
 62
     7
370
     0
100
AcDbLine
 10
30.746113508
 20
140.3557315669
 30
0.0
 11
25.852781845
 21
140.3557315669
 31
0.0
  0
LINE
  5
297
330
290
100
AcDbEntity
  8
0
  6
Continuous
 62
     7
370
     0
100
AcDbLine
 10
26.852781845
 20
188.3557315669
 30
0.0
 11
26.852781845
 21
140.3557315669
 31
0.0
  0
MTEXT
  5
298
330
290
100
AcDbEntity
  8
0
  6
Continuous
 62
     7
370
     0
100
AcDbMText
 10
22.3410449305
 20
161.7696203734
 30
-35.4313718718
 40
3.5
 41
0.0
 71
     1
 72
     1
  1
48
  7
SLDTEXTSTYLE0
 11
-7.044195017643634E-15
 21
1.0
 31
0.0
 73
     1
 44
1.0
  0
ENDBLK
  5
292
330
290
100
AcDbEntity
  8
0
100
AcDbBlockEnd
  0
BLOCK
  5
29B
330
29A
100
AcDbEntity
  8
0
100
AcDbBlockBegin
  2
_D_13
 70
     0
 10
0.0
 20
0.0
 30
0.0
  3
_D_13
  1

  0
SOLID
  5
29D
330
29A
100
AcDbEntity
  8
0
  6
Continuous
 62
     7
370
     0
100
AcDbTrace
 10
31.746113508
 20
130.3557315669
 30
0.0
 11
33.746113508
 21
129.6057315669
 31
0.0
 12
33.746113508
 22
131.1057315669
 32
0.0
 13
33.746113508
 23
131.1057315669
 33
0.0
  0
SOLID
  5
29E
330
29A
100
AcDbEntity
  8
0
  6
Continuous
 62
     7
370
     0
100
AcDbTrace
 10
59.746113508
 20
130.3557315669
 30
0.0
 11
57.746113508
 21
131.1057315669
 31
0.0
 12
57.746113508
 22
129.6057315669
 32
0.0
 13
57.746113508
 23
129.6057315669
 33
0.0
  0
LINE
  5
29F
330
29A
100
AcDbEntity
  8
0
  6
Continuous
 62
     7
370
     0
100
AcDbLine
 10
31.746113508
 20
139.3557315669
 30
0.0
 11
31.746113508
 21
129.3557315669
 31
0.0
  0
LINE
  5
2A0
330
29A
100
AcDbEntity
  8
0
  6
Continuous
 62
     7
370
     0
100
AcDbLine
 10
59.746113508
 20
139.3557315669
 30
0.0
 11
59.746113508
 21
129.3557315669
 31
0.0
  0
LINE
  5
2A1
330
29A
100
AcDbEntity
  8
0
  6
Continuous
 62
     7
370
     0
100
AcDbLine
 10
31.746113508
 20
130.3557315669
 30
0.0
 11
59.746113508
 21
130.3557315669
 31
0.0
  0
MTEXT
  5
2A2
330
29A
100
AcDbEntity
  8
0
  6
Continuous
 62
     7
370
     0
100
AcDbMText
 10
43.1600023144
 20
134.8674684815
 30
-35.4313718718
 40
3.5
 41
0.0
 71
     1
 72
     1
  1
28
  7
SLDTEXTSTYLE0
 73
     1
 44
1.0
  0
ENDBLK
  5
29C
330
29A
100
AcDbEntity
  8
0
100
AcDbBlockEnd
  0
BLOCK
  5
2A5
330
2A4
100
AcDbEntity
  8
0
100
AcDbBlockBegin
  2
_D_14
 70
     0
 10
0.0
 20
0.0
 30
0.0
  3
_D_14
  1

  0
SOLID
  5
2A7
330
2A4
100
AcDbEntity
  8
0
  6
Continuous
 62
     7
370
     0
100
AcDbTrace
 10
66.8019216582
 20
181.0557315669
 30
0.0
 11
66.0519216582
 21
179.0557315669
 31
0.0
 12
67.5519216582
 22
179.0557315669
 32
0.0
 13
67.5519216582
 23
179.0557315669
 33
0.0
  0
SOLID
  5
2A8
330
2A4
100
AcDbEntity
  8
0
  6
Continuous
 62
     7
370
     0
100
AcDbTrace
 10
66.8019216582
 20
140.3557315669
 30
0.0
 11
67.5519216582
 21
142.3557315669
 31
0.0
 12
66.0519216582
 22
142.3557315669
 32
0.0
 13
66.0519216582
 23
142.3557315669
 33
0.0
  0
LINE
  5
2A9
330
2A4
100
AcDbEntity
  8
0
  6
Continuous
 62
     7
370
     0
100
AcDbLine
 10
56.746113508
 20
181.0557315669
 30
0.0
 11
67.8019216582
 21
181.0557315669
 31
0.0
  0
LINE
  5
2AA
330
2A4
100
AcDbEntity
  8
0
  6
Continuous
 62
     7
370
     0
100
AcDbLine
 10
60.746113508
 20
140.3557315669
 30
0.0
 11
67.8019216582
 21
140.3557315669
 31
0.0
  0
LINE
  5
2AB
330
2A4
100
AcDbEntity
  8
0
  6
Continuous
 62
     7
370
     0
100
AcDbLine
 10
66.8019216582
 20
181.0557315669
 30
0.0
 11
66.8019216582
 21
140.3557315669
 31
0.0
  0
MTEXT
  5
2AC
330
2A4
100
AcDbEntity
  8
0
  6
Continuous
 62
     7
370
     0
100
AcDbMText
 10
62.2901847436
 20
152.4935789758
 30
-35.4313718718
 40
3.5
 41
0.0
 71
     1
 72
     1
  1
40.7
  7
SLDTEXTSTYLE0
 11
-7.044195017643634E-15
 21
1.0
 31
0.0
 73
     1
 44
1.0
  0
ENDBLK
  5
2A6
330
2A4
100
AcDbEntity
  8
0
100
AcDbBlockEnd
  0
BLOCK
  5
2AF
330
2AE
100
AcDbEntity
  8
0
100
AcDbBlockBegin
  2
_D_15
 70
     0
 10
0.0
 20
0.0
 30
0.0
  3
_D_15
  1

  0
SOLID
  5
2B1
330
2AE
100
AcDbEntity
  8
0
  6
Continuous
 62
     7
370
     0
100
AcDbTrace
 10
73.6140954784
 20
193.0557315669
 30
0.0
 11
72.8640954784
 21
191.0557315669
 31
0.0
 12
74.3640954784
 22
191.0557315669
 32
0.0
 13
74.3640954784
 23
191.0557315669
 33
0.0
  0
SOLID
  5
2B2
330
2AE
100
AcDbEntity
  8
0
  6
Continuous
 62
     7
370
     0
100
AcDbTrace
 10
73.6140954784
 20
140.3557315669
 30
0.0
 11
74.3640954784
 21
142.3557315669
 31
0.0
 12
72.8640954784
 22
142.3557315669
 32
0.0
 13
72.8640954784
 23
142.3557315669
 33
0.0
  0
LINE
  5
2B3
330
2AE
100
AcDbEntity
  8
0
  6
Continuous
 62
     7
370
     0
100
AcDbLine
 10
57.2913287822
 20
193.0557315669
 30
0.0
 11
74.6140954784
 21
193.0557315669
 31
0.0
  0
LINE
  5
2B4
330
2AE
100
AcDbEntity
  8
0
  6
Continuous
 62
     7
370
     0
100
AcDbLine
 10
60.746113508
 20
140.3557315669
 30
0.0
 11
74.6140954784
 21
140.3557315669
 31
0.0
  0
LINE
  5
2B5
330
2AE
100
AcDbEntity
  8
0
  6
Continuous
 62
     7
370
     0
100
AcDbLine
 10
73.6140954784
 20
193.0557315669
 30
0.0
 11
73.6140954784
 21
140.3557315669
 31
0.0
  0
MTEXT
  5
2B6
330
2AE
100
AcDbEntity
  8
0
  6
Continuous
 62
     7
370
     0
100
AcDbMText
 10
69.1023585638
 20
156.4072029481
 30
-35.4313718718
 40
3.5
 41
0.0
 71
     1
 72
     1
  1
52.7
  7
SLDTEXTSTYLE0
 11
-7.044195017643634E-15
 21
1.0
 31
0.0
 73
     1
 44
1.0
  0
ENDBLK
  5
2B0
330
2AE
100
AcDbEntity
  8
0
100
AcDbBlockEnd
  0
BLOCK
  5
2B9
330
2B8
100
AcDbEntity
  8
0
100
AcDbBlockBegin
  2
_D_16
 70
     0
 10
0.0
 20
0.0
 30
0.0
  3
_D_16
  1

  0
ARC
  5
2BB
330
2B8
100
AcDbEntity
  8
0
  6
Continuous
 62
     7
370
     0
100
AcDbCircle
 10
70.8359704828
 20
203.1398234837
 30
0.0
 40
6.2120763399956
100
AcDbArc
 50
243.4349488229
 51
296.5650511771
  0
ARC
  5
2BC
330
2B8
100
AcDbEntity
  8
0
  6
Continuous
 62
     7
370
     0
100
AcDbCircle
 10
70.8359704828
 20
201.0787125625
 30
0.0
 40
6.2120763399956
100
AcDbArc
 50
63.4349488229
 51
116.5650511771
  0
SOLID
  5
2BD
330
2B8
100
AcDbEntity
  8
0
  6
Continuous
 62
     7
370
     0
100
AcDbTrace
 10
73.6140954784
 20
193.0557315669
 30
0.0
 11
74.3640954784
 21
195.0557315669
 31
0.0
 12
72.8640954784
 22
195.0557315669
 32
0.0
 13
72.8640954784
 23
195.0557315669
 33
0.0
  0
SOLID
  5
2BE
330
2B8
100
AcDbEntity
  8
0
  6
Continuous
 62
     7
370
     0
100
AcDbTrace
 10
73.6140954784
 20
211.1628041301
 30
0.0
 11
72.8640954784
 21
209.1628041301
 31
0.0
 12
74.3640954784
 22
209.1628041301
 32
0.0
 13
74.3640954784
 23
209.1628041301
 33
0.0
  0
LINE
  5
2BF
330
2B8
100
AcDbEntity
  8
0
  6
Continuous
 62
     7
370
     0
100
AcDbLine
 10
57.2913287822
 20
193.0557315669
 30
0.0
 11
74.6140954784
 21
193.0557315669
 31
0.0
  0
LINE
  5
2C0
330
2B8
100
AcDbEntity
  8
0
  6
Continuous
 62
     7
370
     0
100
AcDbLine
 10
49.7189138422
 20
211.1628041301
 30
0.0
 11
74.6140954784
 21
211.1628041301
 31
0.0
  0
LINE
  5
2C1
330
2B8
100
AcDbEntity
  8
0
  6
Continuous
 62
     7
370
     0
100
AcDbLine
 10
73.6140954784
 20
193.0557315669
 30
0.0
 11
73.6140954784
 21
211.1628041301
 31
0.0
  0
MTEXT
  5
2C2
330
2B8
100
AcDbEntity
  8
0
  6
Continuous
 62
     7
370
     0
100
AcDbMText
 10
69.1023585638
 20
197.5835734926
 30
-35.4313718718
 40
3.5
 41
0.0
 71
     1
 72
     1
  1
18.1
  7
SLDTEXTSTYLE0
 11
6.123233995736766E-17
 21
1.0
 31
0.0
 73
     1
 44
1.0
  0
ENDBLK
  5
2BA
330
2B8
100
AcDbEntity
  8
0
100
AcDbBlockEnd
  0
BLOCK
  5
2C4
330
2C3
100
AcDbEntity
  8
0
100
AcDbBlockBegin
  2
SW_CENTERMARKSYMBOL_0
 70
     0
 10
0.0
 20
0.0
 30
0.0
  3
SW_CENTERMARKSYMBOL_0
  1

  0
LINE
  5
2C6
330
2C3
100
AcDbEntity
  8
0
  6
Continuous
 62
     0
370
     0
100
AcDbLine
 10
0.0
 20
0.0
 30
0.0
 11
0.0
 21
2.5
 31
0.0
  0
LINE
  5
2C7
330
2C3
100
AcDbEntity
  8
0
  6
Continuous
 62
     0
370
     0
100
AcDbLine
 10
0.0
 20
0.0
 30
0.0
 11
-2.5
 21
0.0
 31
0.0
  0
LINE
  5
2C8
330
2C3
100
AcDbEntity
  8
0
  6
Continuous
 62
     0
370
     0
100
AcDbLine
 10
0.0
 20
0.0
 30
0.0
 11
0.0
 21
-2.5
 31
0.0
  0
LINE
  5
2C9
330
2C3
100
AcDbEntity
  8
0
  6
Continuous
 62
     0
370
     0
100
AcDbLine
 10
0.0
 20
0.0
 30
0.0
 11
2.5
 21
0.0
 31
0.0
  0
LINE
  5
2CA
330
2C3
100
AcDbEntity
  8
0
  6
Continuous
 62
     0
370
     0
100
AcDbLine
 10
0.0
 20
5.0
 30
0.0
 11
0.0
 21
20.6393161659
 31
0.0
  0
LINE
  5
2CB
330
2C3
100
AcDbEntity
  8
0
  6
Continuous
 62
     0
370
     0
100
AcDbLine
 10
-5.0
 20
0.0
 30
0.0
 11
-7.65
 21
0.0
 31
0.0
  0
LINE
  5
2CC
330
2C3
100
AcDbEntity
  8
0
  6
Continuous
 62
     0
370
     0
100
AcDbLine
 10
0.0
 20
-5.0
 30
0.0
 11
0.0
 21
-50.3562490153
 31
0.0
  0
LINE
  5
2CD
330
2C3
100
AcDbEntity
  8
0
  6
Continuous
 62
     0
370
     0
100
AcDbLine
 10
5.0
 20
0.0
 30
0.0
 11
7.65
 21
0.0
 31
0.0
  0
ENDBLK
  5
2C5
330
2C3
100
AcDbEntity
  8
0
100
AcDbBlockEnd
  0
BLOCK
  5
2D0
330
2CF
100
AcDbEntity
  8
0
100
AcDbBlockBegin
  2
SW_CENTERMARKSYMBOL_1
 70
     0
 10
0.0
 20
0.0
 30
0.0
  3
SW_CENTERMARKSYMBOL_1
  1

  0
LINE
  5
2D2
330
2CF
100
AcDbEntity
  8
0
  6
Continuous
 62
     0
370
     0
100
AcDbLine
 10
0.0
 20
0.0
 30
0.0
 11
0.0
 21
2.5
 31
0.0
  0
LINE
  5
2D3
330
2CF
100
AcDbEntity
  8
0
  6
Continuous
 62
     0
370
     0
100
AcDbLine
 10
0.0
 20
0.0
 30
0.0
 11
-2.5
 21
0.0
 31
0.0
  0
LINE
  5
2D4
330
2CF
100
AcDbEntity
  8
0
  6
Continuous
 62
     0
370
     0
100
AcDbLine
 10
0.0
 20
0.0
 30
0.0
 11
0.0
 21
-2.5
 31
0.0
  0
LINE
  5
2D5
330
2CF
100
AcDbEntity
  8
0
  6
Continuous
 62
     0
370
     0
100
AcDbLine
 10
0.0
 20
0.0
 30
0.0
 11
2.5
 21
0.0
 31
0.0
  0
LINE
  5
2D6
330
2CF
100
AcDbEntity
  8
0
  6
Continuous
 62
     0
370
     0
100
AcDbLine
 10
0.0
 20
5.0
 30
0.0
 11
0.0
 21
5.1
 31
0.0
  0
LINE
  5
2D7
330
2CF
100
AcDbEntity
  8
0
  6
Continuous
 62
     0
370
     0
100
AcDbLine
 10
-5.0
 20
0.0
 30
0.0
 11
-5.1
 21
0.0
 31
0.0
  0
LINE
  5
2D8
330
2CF
100
AcDbEntity
  8
0
  6
Continuous
 62
     0
370
     0
100
AcDbLine
 10
0.0
 20
-5.0
 30
0.0
 11
0.0
 21
-5.1
 31
0.0
  0
LINE
  5
2D9
330
2CF
100
AcDbEntity
  8
0
  6
Continuous
 62
     0
370
     0
100
AcDbLine
 10
5.0
 20
0.0
 30
0.0
 11
5.1
 21
0.0
 31
0.0
  0
ENDBLK
  5
2D1
330
2CF
100
AcDbEntity
  8
0
100
AcDbBlockEnd
  0
BLOCK
  5
2DC
330
2DB
100
AcDbEntity
  8
0
100
AcDbBlockBegin
  2
SW_CENTERMARKSYMBOL_2
 70
     0
 10
0.0
 20
0.0
 30
0.0
  3
SW_CENTERMARKSYMBOL_2
  1

  0
LINE
  5
2DE
330
2DB
100
AcDbEntity
  8
0
  6
Continuous
 62
     0
370
     0
100
AcDbLine
 10
0.0
 20
0.0
 30
0.0
 11
0.0
 21
2.5
 31
0.0
  0
LINE
  5
2DF
330
2DB
100
AcDbEntity
  8
0
  6
Continuous
 62
     0
370
     0
100
AcDbLine
 10
0.0
 20
0.0
 30
0.0
 11
-2.5
 21
0.0
 31
0.0
  0
LINE
  5
2E0
330
2DB
100
AcDbEntity
  8
0
  6
Continuous
 62
     0
370
     0
100
AcDbLine
 10
0.0
 20
0.0
 30
0.0
 11
0.0
 21
-2.5
 31
0.0
  0
LINE
  5
2E1
330
2DB
100
AcDbEntity
  8
0
  6
Continuous
 62
     0
370
     0
100
AcDbLine
 10
0.0
 20
0.0
 30
0.0
 11
2.5
 21
0.0
 31
0.0
  0
LINE
  5
2E2
330
2DB
100
AcDbEntity
  8
0
  6
Continuous
 62
     0
370
     0
100
AcDbLine
 10
0.0
 20
5.0
 30
0.0
 11
0.0
 21
5.1
 31
0.0
  0
LINE
  5
2E3
330
2DB
100
AcDbEntity
  8
0
  6
Continuous
 62
     0
370
     0
100
AcDbLine
 10
-5.0
 20
0.0
 30
0.0
 11
-5.1
 21
0.0
 31
0.0
  0
LINE
  5
2E4
330
2DB
100
AcDbEntity
  8
0
  6
Continuous
 62
     0
370
     0
100
AcDbLine
 10
0.0
 20
-5.0
 30
0.0
 11
0.0
 21
-5.1
 31
0.0
  0
LINE
  5
2E5
330
2DB
100
AcDbEntity
  8
0
  6
Continuous
 62
     0
370
     0
100
AcDbLine
 10
5.0
 20
0.0
 30
0.0
 11
5.1
 21
0.0
 31
0.0
  0
ENDBLK
  5
2DD
330
2DB
100
AcDbEntity
  8
0
100
AcDbBlockEnd
  0
BLOCK
  5
2E8
330
2E7
100
AcDbEntity
  8
0
100
AcDbBlockBegin
  2
SW_CENTERMARKSYMBOL_3
 70
     0
 10
0.0
 20
0.0
 30
0.0
  3
SW_CENTERMARKSYMBOL_3
  1

  0
LINE
  5
2EA
330
2E7
100
AcDbEntity
  8
0
  6
Continuous
 62
     0
370
     0
100
AcDbLine
 10
0.0
 20
0.0
 30
0.0
 11
0.0
 21
2.5
 31
0.0
  0
LINE
  5
2EB
330
2E7
100
AcDbEntity
  8
0
  6
Continuous
 62
     0
370
     0
100
AcDbLine
 10
0.0
 20
0.0
 30
0.0
 11
-2.5
 21
0.0
 31
0.0
  0
LINE
  5
2EC
330
2E7
100
AcDbEntity
  8
0
  6
Continuous
 62
     0
370
     0
100
AcDbLine
 10
0.0
 20
0.0
 30
0.0
 11
0.0
 21
-2.5
 31
0.0
  0
LINE
  5
2ED
330
2E7
100
AcDbEntity
  8
0
  6
Continuous
 62
     0
370
     0
100
AcDbLine
 10
0.0
 20
0.0
 30
0.0
 11
2.5
 21
0.0
 31
0.0
  0
LINE
  5
2EE
330
2E7
100
AcDbEntity
  8
0
  6
Continuous
 62
     0
370
     0
100
AcDbLine
 10
0.0
 20
2.5
 30
0.0
 11
0.0
 21
4.5
 31
0.0
  0
LINE
  5
2EF
330
2E7
100
AcDbEntity
  8
0
  6
Continuous
 62
     0
370
     0
100
AcDbLine
 10
-2.5
 20
0.0
 30
0.0
 11
-4.5
 21
0.0
 31
0.0
  0
LINE
  5
2F0
330
2E7
100
AcDbEntity
  8
0
  6
Continuous
 62
     0
370
     0
100
AcDbLine
 10
0.0
 20
-2.5
 30
0.0
 11
0.0
 21
-4.5
 31
0.0
  0
LINE
  5
2F1
330
2E7
100
AcDbEntity
  8
0
  6
Continuous
 62
     0
370
     0
100
AcDbLine
 10
2.5
 20
0.0
 30
0.0
 11
4.5
 21
0.0
 31
0.0
  0
ENDBLK
  5
2E9
330
2E7
100
AcDbEntity
  8
0
100
AcDbBlockEnd
  0
BLOCK
  5
2F4
330
2F3
100
AcDbEntity
  8
0
100
AcDbBlockBegin
  2
SW_CENTERMARKSYMBOL_4
 70
     0
 10
0.0
 20
0.0
 30
0.0
  3
SW_CENTERMARKSYMBOL_4
  1

  0
LINE
  5
2F6
330
2F3
100
AcDbEntity
  8
0
  6
Continuous
 62
     0
370
     0
100
AcDbLine
 10
0.0
 20
0.0
 30
0.0
 11
0.0
 21
2.5
 31
0.0
  0
LINE
  5
2F7
330
2F3
100
AcDbEntity
  8
0
  6
Continuous
 62
     0
370
     0
100
AcDbLine
 10
0.0
 20
0.0
 30
0.0
 11
-2.5
 21
0.0
 31
0.0
  0
LINE
  5
2F8
330
2F3
100
AcDbEntity
  8
0
  6
Continuous
 62
     0
370
     0
100
AcDbLine
 10
0.0
 20
0.0
 30
0.0
 11
0.0
 21
-2.5
 31
0.0
  0
LINE
  5
2F9
330
2F3
100
AcDbEntity
  8
0
  6
Continuous
 62
     0
370
     0
100
AcDbLine
 10
0.0
 20
0.0
 30
0.0
 11
2.5
 21
0.0
 31
0.0
  0
LINE
  5
2FA
330
2F3
100
AcDbEntity
  8
0
  6
Continuous
 62
     0
370
     0
100
AcDbLine
 10
0.0
 20
5.0
 30
0.0
 11
0.0
 21
6.5
 31
0.0
  0
LINE
  5
2FB
330
2F3
100
AcDbEntity
  8
0
  6
Continuous
 62
     0
370
     0
100
AcDbLine
 10
-5.0
 20
0.0
 30
0.0
 11
-6.5
 21
0.0
 31
0.0
  0
LINE
  5
2FC
330
2F3
100
AcDbEntity
  8
0
  6
Continuous
 62
     0
370
     0
100
AcDbLine
 10
0.0
 20
-5.0
 30
0.0
 11
0.0
 21
-6.5
 31
0.0
  0
LINE
  5
2FD
330
2F3
100
AcDbEntity
  8
0
  6
Continuous
 62
     0
370
     0
100
AcDbLine
 10
5.0
 20
0.0
 30
0.0
 11
6.5
 21
0.0
 31
0.0
  0
ENDBLK
  5
2F5
330
2F3
100
AcDbEntity
  8
0
100
AcDbBlockEnd
  0
BLOCK
  5
37F
330
37E
100
AcDbEntity
  8
0
100
AcDbBlockBegin
  2
_D_17
 70
     0
 10
0.0
 20
0.0
 30
0.0
  3
_D_17
  1

  0
SOLID
  5
381
330
37E
100
AcDbEntity
  8
0
  6
Continuous
 62
     7
370
     0
100
AcDbTrace
 10
108.445585934
 20
105.1503203108
 30
0.0
 11
110.445585934
 21
104.4003203108
 31
0.0
 12
110.445585934
 22
105.9003203108
 32
0.0
 13
110.445585934
 23
105.9003203108
 33
0.0
  0
SOLID
  5
382
330
37E
100
AcDbEntity
  8
0
  6
Continuous
 62
     7
370
     0
100
AcDbTrace
 10
150.945585934
 20
105.1503203108
 30
0.0
 11
148.945585934
 21
105.9003203108
 31
0.0
 12
148.945585934
 22
104.4003203108
 32
0.0
 13
148.945585934
 23
104.4003203108
 33
0.0
  0
LINE
  5
383
330
37E
100
AcDbEntity
  8
0
  6
Continuous
 62
     7
370
     0
100
AcDbLine
 10
108.445585934
 20
95.3469494539
 30
0.0
 11
108.445585934
 21
106.1503203108
 31
0.0
  0
LINE
  5
384
330
37E
100
AcDbEntity
  8
0
  6
Continuous
 62
     7
370
     0
100
AcDbLine
 10
150.945585934
 20
95.4969494539
 30
0.0
 11
150.945585934
 21
106.1503203108
 31
0.0
  0
LINE
  5
385
330
37E
100
AcDbEntity
  8
0
  6
Continuous
 62
     7
370
     0
100
AcDbLine
 10
108.445585934
 20
105.1503203108
 30
0.0
 11
150.945585934
 21
105.1503203108
 31
0.0
  0
MTEXT
  5
386
330
37E
100
AcDbEntity
  8
0
  6
Continuous
 62
     7
370
     0
100
AcDbMText
 10
125.1698914036
 20
109.6620572253
 30
12.3035862266
 40
3.5
 41
0.0
 71
     1
 72
     1
  1
42.5
  7
SLDTEXTSTYLE0
 73
     1
 44
1.0
  0
ENDBLK
  5
380
330
37E
100
AcDbEntity
  8
0
100
AcDbBlockEnd
  0
BLOCK
  5
389
330
388
100
AcDbEntity
  8
0
100
AcDbBlockBegin
  2
_D_18
 70
     0
 10
0.0
 20
0.0
 30
0.0
  3
_D_18
  1

  0
SOLID
  5
38B
330
388
100
AcDbEntity
  8
0
  6
Continuous
 62
     7
370
     0
100
AcDbTrace
 10
140.945585934
 20
98.6201658444
 30
0.0
 11
138.945585934
 21
99.3701658444
 31
0.0
 12
138.945585934
 22
97.8701658444
 32
0.0
 13
138.945585934
 23
97.8701658444
 33
0.0
  0
SOLID
  5
38C
330
388
100
AcDbEntity
  8
0
  6
Continuous
 62
     7
370
     0
100
AcDbTrace
 10
150.945585934
 20
98.6201658444
 30
0.0
 11
152.945585934
 21
97.8701658444
 31
0.0
 12
152.945585934
 22
99.3701658444
 32
0.0
 13
152.945585934
 23
99.3701658444
 33
0.0
  0
LINE
  5
38D
330
388
100
AcDbEntity
  8
0
  6
Continuous
 62
     7
370
     0
100
AcDbLine
 10
140.945585934
 20
95.4969494539
 30
0.0
 11
140.945585934
 21
99.6201658444
 31
0.0
  0
LINE
  5
38E
330
388
100
AcDbEntity
  8
0
  6
Continuous
 62
     7
370
     0
100
AcDbLine
 10
150.945585934
 20
95.4969494539
 30
0.0
 11
150.945585934
 21
99.6201658444
 31
0.0
  0
LINE
  5
38F
330
388
100
AcDbEntity
  8
0
  6
Continuous
 62
     7
370
     0
100
AcDbLine
 10
140.945585934
 20
98.6201658444
 30
0.0
 11
137.945585934
 21
98.6201658444
 31
0.0
  0
LINE
  5
390
330
388
100
AcDbEntity
  8
0
  6
Continuous
 62
     7
370
     0
100
AcDbLine
 10
140.945585934
 20
98.6201658444
 30
0.0
 11
150.945585934
 21
98.6201658444
 31
0.0
  0
LINE
  5
391
330
388
100
AcDbEntity
  8
0
  6
Continuous
 62
     7
370
     0
100
AcDbLine
 10
150.945585934
 20
98.6201658444
 30
0.0
 11
153.945585934
 21
98.6201658444
 31
0.0
  0
MTEXT
  5
392
330
388
100
AcDbEntity
  8
0
  6
Continuous
 62
     7
370
     0
100
AcDbMText
 10
143.0847122865
 20
103.1319027589
 30
12.3035862266
 40
3.5
 41
0.0
 71
     1
 72
     1
  1
10
  7
SLDTEXTSTYLE0
 73
     1
 44
1.0
  0
ENDBLK
  5
38A
330
388
100
AcDbEntity
  8
0
100
AcDbBlockEnd
  0
BLOCK
  5
395
330
394
100
AcDbEntity
  8
0
100
AcDbBlockBegin
  2
_D_19
 70
     0
 10
0.0
 20
0.0
 30
0.0
  3
_D_19
  1

  0
SOLID
  5
397
330
394
100
AcDbEntity
  8
0
  6
Continuous
 62
     7
370
     0
100
AcDbTrace
 10
150.945585934
 20
105.1503203108
 30
0.0
 11
152.945585934
 21
104.4003203108
 31
0.0
 12
152.945585934
 22
105.9003203108
 32
0.0
 13
152.945585934
 23
105.9003203108
 33
0.0
  0
SOLID
  5
398
330
394
100
AcDbEntity
  8
0
  6
Continuous
 62
     7
370
     0
100
AcDbTrace
 10
188.645585934
 20
105.1503203108
 30
0.0
 11
186.645585934
 21
105.9003203108
 31
0.0
 12
186.645585934
 22
104.4003203108
 32
0.0
 13
186.645585934
 23
104.4003203108
 33
0.0
  0
LINE
  5
399
330
394
100
AcDbEntity
  8
0
  6
Continuous
 62
     7
370
     0
100
AcDbLine
 10
150.945585934
 20
95.4969494539
 30
0.0
 11
150.945585934
 21
106.1503203108
 31
0.0
  0
LINE
  5
39A
330
394
100
AcDbEntity
  8
0
  6
Continuous
 62
     7
370
     0
100
AcDbLine
 10
188.645585934
 20
92.9469494539
 30
0.0
 11
188.645585934
 21
106.1503203108
 31
0.0
  0
LINE
  5
39B
330
394
100
AcDbEntity
  8
0
  6
Continuous
 62
     7
370
     0
100
AcDbLine
 10
150.945585934
 20
105.1503203108
 30
0.0
 11
188.645585934
 21
105.1503203108
 31
0.0
  0
MTEXT
  5
39C
330
394
100
AcDbEntity
  8
0
  6
Continuous
 62
     7
370
     0
100
AcDbMText
 10
164.8565319124
 20
109.6620572253
 30
12.3035862266
 40
3.5
 41
0.0
 71
     1
 72
     1
  1
37.7
  7
SLDTEXTSTYLE0
 73
     1
 44
1.0
  0
ENDBLK
  5
396
330
394
100
AcDbEntity
  8
0
100
AcDbBlockEnd
  0
BLOCK
  5
39F
330
39E
100
AcDbEntity
  8
0
100
AcDbBlockBegin
  2
_D_20
 70
     0
 10
0.0
 20
0.0
 30
0.0
  3
_D_20
  1

  0
SOLID
  5
3A1
330
39E
100
AcDbEntity
  8
0
  6
Continuous
 62
     7
370
     0
100
AcDbTrace
 10
122.1324769011
 20
90.3469494539
 30
0.0
 11
120.6324769011
 21
87.0449494539
 31
0.0
 12
123.6324769011
 22
87.0449494539
 32
0.0
 13
123.6324769011
 23
87.0449494539
 33
0.0
  0
SOLID
  5
3A2
330
39E
100
AcDbEntity
  8
0
  6
Continuous
 62
     7
370
     0
100
AcDbTrace
 10
122.1324769011
 20
70.3469494539
 30
0.0
 11
123.6324769011
 21
73.6489494539
 31
0.0
 12
120.6324769011
 22
73.6489494539
 32
0.0
 13
120.6324769011
 23
73.6489494539
 33
0.0
  0
LINE
  5
3A3
330
39E
100
AcDbEntity
  8
0
  6
Continuous
 62
     7
370
     0
100
AcDbLine
 10
135.795585934
 20
90.3469494539
 30
0.0
 11
121.1324769011
 21
90.3469494539
 31
0.0
  0
LINE
  5
3A4
330
39E
100
AcDbEntity
  8
0
  6
Continuous
 62
     7
370
     0
100
AcDbLine
 10
135.795585934
 20
70.3469494539
 30
0.0
 11
121.1324769011
 21
70.3469494539
 31
0.0
  0
LINE
  5
3A5
330
39E
100
AcDbEntity
  8
0
  6
Continuous
 62
     7
370
     0
100
AcDbLine
 10
122.1324769011
 20
90.3469494539
 30
0.0
 11
122.1324769011
 21
70.3469494539
 31
0.0
  0
MTEXT
  5
3A6
330
39E
100
AcDbEntity
  8
0
  6
Continuous
 62
     7
370
     0
100
AcDbMText
 10
117.6207399865
 20
78.1679273428
 30
12.3035862266
 40
3.5
 41
0.0
 71
     1
 72
     1
  1
20
  7
SLDTEXTSTYLE0
 11
-7.044195017643634E-15
 21
1.0
 31
0.0
 73
     1
 44
1.0
  0
ENDBLK
  5
3A0
330
39E
100
AcDbEntity
  8
0
100
AcDbBlockEnd
  0
BLOCK
  5
3A9
330
3A8
100
AcDbEntity
  8
0
100
AcDbBlockBegin
  2
_D_21
 70
     0
 10
0.0
 20
0.0
 30
0.0
  3
_D_21
  1

  0
SOLID
  5
3AB
330
3A8
100
AcDbEntity
  8
0
  6
Continuous
 62
     7
370
     0
100
AcDbTrace
 10
130.945585934
 20
60.4635268432
 30
0.0
 11
132.945585934
 21
59.7135268432
 31
0.0
 12
132.945585934
 22
61.2135268432
 32
0.0
 13
132.945585934
 23
61.2135268432
 33
0.0
  0
SOLID
  5
3AC
330
3A8
100
AcDbEntity
  8
0
  6
Continuous
 62
     7
370
     0
100
AcDbTrace
 10
150.945585934
 20
60.4635268432
 30
0.0
 11
148.945585934
 21
61.2135268432
 31
0.0
 12
148.945585934
 22
59.7135268432
 32
0.0
 13
148.945585934
 23
59.7135268432
 33
0.0
  0
LINE
  5
3AD
330
3A8
100
AcDbEntity
  8
0
  6
Continuous
 62
     7
370
     0
100
AcDbLine
 10
130.945585934
 20
75.1969494539
 30
0.0
 11
130.945585934
 21
59.4635268432
 31
0.0
  0
LINE
  5
3AE
330
3A8
100
AcDbEntity
  8
0
  6
Continuous
 62
     7
370
     0
100
AcDbLine
 10
150.945585934
 20
65.1969494539
 30
0.0
 11
150.945585934
 21
59.4635268432
 31
0.0
  0
LINE
  5
3AF
330
3A8
100
AcDbEntity
  8
0
  6
Continuous
 62
     7
370
     0
100
AcDbLine
 10
130.945585934
 20
60.4635268432
 30
0.0
 11
150.945585934
 21
60.4635268432
 31
0.0
  0
MTEXT
  5
3B0
330
3A8
100
AcDbEntity
  8
0
  6
Continuous
 62
     7
370
     0
100
AcDbMText
 10
138.6751570445
 20
64.9752637578
 30
12.3035862266
 40
3.5
 41
0.0
 71
     1
 72
     1
  1
20
  7
SLDTEXTSTYLE0
 73
     1
 44
1.0
  0
ENDBLK
  5
3AA
330
3A8
100
AcDbEntity
  8
0
100
AcDbBlockEnd
  0
BLOCK
  5
3B3
330
3B2
100
AcDbEntity
  8
0
100
AcDbBlockBegin
  2
_D_22
 70
     0
 10
0.0
 20
0.0
 30
0.0
  3
_D_22
  1

  0
SOLID
  5
3B5
330
3B2
100
AcDbEntity
  8
0
  6
Continuous
 62
     7
370
     0
100
AcDbTrace
 10
156.3010618357
 20
52.3671724737
 30
0.0
 11
154.3010618357
 21
53.1171724737
 31
0.0
 12
154.3010618357
 22
51.6171724737
 32
0.0
 13
154.3010618357
 23
51.6171724737
 33
0.0
  0
SOLID
  5
3B6
330
3B2
100
AcDbEntity
  8
0
  6
Continuous
 62
     7
370
     0
100
AcDbTrace
 10
108.445585934
 20
52.3671724737
 30
0.0
 11
110.445585934
 21
51.6171724737
 31
0.0
 12
110.445585934
 22
53.1171724737
 32
0.0
 13
110.445585934
 23
53.1171724737
 33
0.0
  0
LINE
  5
3B7
330
3B2
100
AcDbEntity
  8
0
  6
Continuous
 62
     7
370
     0
100
AcDbLine
 10
156.3010618357
 20
65.3469494539
 30
0.0
 11
156.3010618357
 21
51.3671724737
 31
0.0
  0
LINE
  5
3B8
330
3B2
100
AcDbEntity
  8
0
  6
Continuous
 62
     7
370
     0
100
AcDbLine
 10
108.445585934
 20
65.3469494539
 30
0.0
 11
108.445585934
 21
51.3671724737
 31
0.0
  0
LINE
  5
3B9
330
3B2
100
AcDbEntity
  8
0
  6
Continuous
 62
     7
370
     0
100
AcDbLine
 10
156.3010618357
 20
52.3671724737
 30
0.0
 11
108.445585934
 21
52.3671724737
 31
0.0
  0
MTEXT
  5
3BA
330
3B2
100
AcDbEntity
  8
0
  6
Continuous
 62
     7
370
     0
100
AcDbMText
 10
129.7264641474
 20
56.8789093883
 30
12.3035862266
 40
3.5
 41
0.0
 71
     1
 72
     1
  1
47.9
  7
SLDTEXTSTYLE0
 73
     1
 44
1.0
  0
ENDBLK
  5
3B4
330
3B2
100
AcDbEntity
  8
0
100
AcDbBlockEnd
  0
BLOCK
  5
3C1
330
3C0
100
AcDbEntity
  8
0
100
AcDbBlockBegin
  2
SW_CENTERMARKSYMBOL_5
 70
     0
 10
0.0
 20
0.0
 30
0.0
  3
SW_CENTERMARKSYMBOL_5
  1

  0
LINE
  5
3C3
330
3C0
100
AcDbEntity
  8
0
  6
Continuous
 62
     0
370
     0
100
AcDbLine
 10
0.0
 20
0.0
 30
0.0
 11
0.0
 21
2.5
 31
0.0
  0
LINE
  5
3C4
330
3C0
100
AcDbEntity
  8
0
  6
Continuous
 62
     0
370
     0
100
AcDbLine
 10
0.0
 20
0.0
 30
0.0
 11
-2.5
 21
0.0
 31
0.0
  0
LINE
  5
3C5
330
3C0
100
AcDbEntity
  8
0
  6
Continuous
 62
     0
370
     0
100
AcDbLine
 10
0.0
 20
0.0
 30
0.0
 11
0.0
 21
-2.5
 31
0.0
  0
LINE
  5
3C6
330
3C0
100
AcDbEntity
  8
0
  6
Continuous
 62
     0
370
     0
100
AcDbLine
 10
0.0
 20
0.0
 30
0.0
 11
2.5
 21
0.0
 31
0.0
  0
LINE
  5
3C7
330
3C0
100
AcDbEntity
  8
0
  6
Continuous
 62
     0
370
     0
100
AcDbLine
 10
0.0
 20
2.5
 30
0.0
 11
0.0
 21
4.15
 31
0.0
  0
LINE
  5
3C8
330
3C0
100
AcDbEntity
  8
0
  6
Continuous
 62
     0
370
     0
100
AcDbLine
 10
-2.5
 20
0.0
 30
0.0
 11
-4.15
 21
0.0
 31
0.0
  0
LINE
  5
3C9
330
3C0
100
AcDbEntity
  8
0
  6
Continuous
 62
     0
370
     0
100
AcDbLine
 10
0.0
 20
-2.5
 30
0.0
 11
0.0
 21
-4.15
 31
0.0
  0
LINE
  5
3CA
330
3C0
100
AcDbEntity
  8
0
  6
Continuous
 62
     0
370
     0
100
AcDbLine
 10
2.5
 20
0.0
 30
0.0
 11
4.15
 21
0.0
 31
0.0
  0
ENDBLK
  5
3C2
330
3C0
100
AcDbEntity
  8
0
100
AcDbBlockEnd
  0
BLOCK
  5
3CD
330
3CC
100
AcDbEntity
  8
0
100
AcDbBlockBegin
  2
SW_CENTERMARKSYMBOL_6
 70
     0
 10
0.0
 20
0.0
 30
0.0
  3
SW_CENTERMARKSYMBOL_6
  1

  0
LINE
  5
3CF
330
3CC
100
AcDbEntity
  8
0
  6
Continuous
 62
     0
370
     0
100
AcDbLine
 10
0.0
 20
0.0
 30
0.0
 11
0.0
 21
2.5
 31
0.0
  0
LINE
  5
3D0
330
3CC
100
AcDbEntity
  8
0
  6
Continuous
 62
     0
370
     0
100
AcDbLine
 10
0.0
 20
0.0
 30
0.0
 11
-2.5
 21
0.0
 31
0.0
  0
LINE
  5
3D1
330
3CC
100
AcDbEntity
  8
0
  6
Continuous
 62
     0
370
     0
100
AcDbLine
 10
0.0
 20
0.0
 30
0.0
 11
0.0
 21
-2.5
 31
0.0
  0
LINE
  5
3D2
330
3CC
100
AcDbEntity
  8
0
  6
Continuous
 62
     0
370
     0
100
AcDbLine
 10
0.0
 20
0.0
 30
0.0
 11
2.5
 21
0.0
 31
0.0
  0
LINE
  5
3D3
330
3CC
100
AcDbEntity
  8
0
  6
Continuous
 62
     0
370
     0
100
AcDbLine
 10
0.0
 20
2.5
 30
0.0
 11
0.0
 21
4.15
 31
0.0
  0
LINE
  5
3D4
330
3CC
100
AcDbEntity
  8
0
  6
Continuous
 62
     0
370
     0
100
AcDbLine
 10
-2.5
 20
0.0
 30
0.0
 11
-4.15
 21
0.0
 31
0.0
  0
LINE
  5
3D5
330
3CC
100
AcDbEntity
  8
0
  6
Continuous
 62
     0
370
     0
100
AcDbLine
 10
0.0
 20
-2.5
 30
0.0
 11
0.0
 21
-4.15
 31
0.0
  0
LINE
  5
3D6
330
3CC
100
AcDbEntity
  8
0
  6
Continuous
 62
     0
370
     0
100
AcDbLine
 10
2.5
 20
0.0
 30
0.0
 11
4.15
 21
0.0
 31
0.0
  0
ENDBLK
  5
3CE
330
3CC
100
AcDbEntity
  8
0
100
AcDbBlockEnd
  0
BLOCK
  5
3D9
330
3D8
100
AcDbEntity
  8
0
100
AcDbBlockBegin
  2
SW_CENTERMARKSYMBOL_7
 70
     0
 10
0.0
 20
0.0
 30
0.0
  3
SW_CENTERMARKSYMBOL_7
  1

  0
LINE
  5
3DB
330
3D8
100
AcDbEntity
  8
0
  6
Continuous
 62
     0
370
     0
100
AcDbLine
 10
0.0
 20
0.0
 30
0.0
 11
0.0
 21
2.5
 31
0.0
  0
LINE
  5
3DC
330
3D8
100
AcDbEntity
  8
0
  6
Continuous
 62
     0
370
     0
100
AcDbLine
 10
0.0
 20
0.0
 30
0.0
 11
-2.5
 21
0.0
 31
0.0
  0
LINE
  5
3DD
330
3D8
100
AcDbEntity
  8
0
  6
Continuous
 62
     0
370
     0
100
AcDbLine
 10
0.0
 20
0.0
 30
0.0
 11
0.0
 21
-2.5
 31
0.0
  0
LINE
  5
3DE
330
3D8
100
AcDbEntity
  8
0
  6
Continuous
 62
     0
370
     0
100
AcDbLine
 10
0.0
 20
0.0
 30
0.0
 11
2.5
 21
0.0
 31
0.0
  0
LINE
  5
3DF
330
3D8
100
AcDbEntity
  8
0
  6
Continuous
 62
     0
370
     0
100
AcDbLine
 10
0.0
 20
2.5
 30
0.0
 11
0.0
 21
4.15
 31
0.0
  0
LINE
  5
3E0
330
3D8
100
AcDbEntity
  8
0
  6
Continuous
 62
     0
370
     0
100
AcDbLine
 10
-2.5
 20
0.0
 30
0.0
 11
-4.15
 21
0.0
 31
0.0
  0
LINE
  5
3E1
330
3D8
100
AcDbEntity
  8
0
  6
Continuous
 62
     0
370
     0
100
AcDbLine
 10
0.0
 20
-2.5
 30
0.0
 11
0.0
 21
-4.15
 31
0.0
  0
LINE
  5
3E2
330
3D8
100
AcDbEntity
  8
0
  6
Continuous
 62
     0
370
     0
100
AcDbLine
 10
2.5
 20
0.0
 30
0.0
 11
4.15
 21
0.0
 31
0.0
  0
ENDBLK
  5
3DA
330
3D8
100
AcDbEntity
  8
0
100
AcDbBlockEnd
  0
BLOCK
  5
3E5
330
3E4
100
AcDbEntity
  8
0
100
AcDbBlockBegin
  2
SW_CENTERMARKSYMBOL_8
 70
     0
 10
0.0
 20
0.0
 30
0.0
  3
SW_CENTERMARKSYMBOL_8
  1

  0
LINE
  5
3E7
330
3E4
100
AcDbEntity
  8
0
  6
Continuous
 62
     0
370
     0
100
AcDbLine
 10
0.0
 20
0.0
 30
0.0
 11
0.0
 21
2.5
 31
0.0
  0
LINE
  5
3E8
330
3E4
100
AcDbEntity
  8
0
  6
Continuous
 62
     0
370
     0
100
AcDbLine
 10
0.0
 20
0.0
 30
0.0
 11
-2.5
 21
0.0
 31
0.0
  0
LINE
  5
3E9
330
3E4
100
AcDbEntity
  8
0
  6
Continuous
 62
     0
370
     0
100
AcDbLine
 10
0.0
 20
0.0
 30
0.0
 11
0.0
 21
-2.5
 31
0.0
  0
LINE
  5
3EA
330
3E4
100
AcDbEntity
  8
0
  6
Continuous
 62
     0
370
     0
100
AcDbLine
 10
0.0
 20
0.0
 30
0.0
 11
2.5
 21
0.0
 31
0.0
  0
LINE
  5
3EB
330
3E4
100
AcDbEntity
  8
0
  6
Continuous
 62
     0
370
     0
100
AcDbLine
 10
0.0
 20
2.5
 30
0.0
 11
0.0
 21
4.15
 31
0.0
  0
LINE
  5
3EC
330
3E4
100
AcDbEntity
  8
0
  6
Continuous
 62
     0
370
     0
100
AcDbLine
 10
-2.5
 20
0.0
 30
0.0
 11
-4.15
 21
0.0
 31
0.0
  0
LINE
  5
3ED
330
3E4
100
AcDbEntity
  8
0
  6
Continuous
 62
     0
370
     0
100
AcDbLine
 10
0.0
 20
-2.5
 30
0.0
 11
0.0
 21
-4.15
 31
0.0
  0
LINE
  5
3EE
330
3E4
100
AcDbEntity
  8
0
  6
Continuous
 62
     0
370
     0
100
AcDbLine
 10
2.5
 20
0.0
 30
0.0
 11
4.15
 21
0.0
 31
0.0
  0
ENDBLK
  5
3E6
330
3E4
100
AcDbEntity
  8
0
100
AcDbBlockEnd
  0
BLOCK
  5
3F1
330
3F0
100
AcDbEntity
  8
0
100
AcDbBlockBegin
  2
SW_CENTERMARKSYMBOL_9
 70
     0
 10
0.0
 20
0.0
 30
0.0
  3
SW_CENTERMARKSYMBOL_9
  1

  0
LINE
  5
3F3
330
3F0
100
AcDbEntity
  8
0
  6
Continuous
 62
     0
370
     0
100
AcDbLine
 10
0.0
 20
0.0
 30
0.0
 11
0.0
 21
2.5
 31
0.0
  0
LINE
  5
3F4
330
3F0
100
AcDbEntity
  8
0
  6
Continuous
 62
     0
370
     0
100
AcDbLine
 10
0.0
 20
0.0
 30
0.0
 11
-2.5
 21
0.0
 31
0.0
  0
LINE
  5
3F5
330
3F0
100
AcDbEntity
  8
0
  6
Continuous
 62
     0
370
     0
100
AcDbLine
 10
0.0
 20
0.0
 30
0.0
 11
0.0
 21
-2.5
 31
0.0
  0
LINE
  5
3F6
330
3F0
100
AcDbEntity
  8
0
  6
Continuous
 62
     0
370
     0
100
AcDbLine
 10
0.0
 20
0.0
 30
0.0
 11
2.5
 21
0.0
 31
0.0
  0
LINE
  5
3F7
330
3F0
100
AcDbEntity
  8
0
  6
Continuous
 62
     0
370
     0
100
AcDbLine
 10
0.0
 20
2.5
 30
0.0
 11
0.0
 21
4.15
 31
0.0
  0
LINE
  5
3F8
330
3F0
100
AcDbEntity
  8
0
  6
Continuous
 62
     0
370
     0
100
AcDbLine
 10
-2.5
 20
0.0
 30
0.0
 11
-13.8581313382
 21
0.0
 31
0.0
  0
LINE
  5
3F9
330
3F0
100
AcDbEntity
  8
0
  6
Continuous
 62
     0
370
     0
100
AcDbLine
 10
0.0
 20
-2.5
 30
0.0
 11
0.0
 21
-4.15
 31
0.0
  0
LINE
  5
3FA
330
3F0
100
AcDbEntity
  8
0
  6
Continuous
 62
     0
370
     0
100
AcDbLine
 10
2.5
 20
0.0
 30
0.0
 11
39.6936611741
 21
0.0
 31
0.0
  0
ENDBLK
  5
3F2
330
3F0
100
AcDbEntity
  8
0
100
AcDbBlockEnd
  0
BLOCK
  5
3FD
330
3FC
100
AcDbEntity
  8
0
100
AcDbBlockBegin
  2
SW_CENTERMARKSYMBOL_10
 70
     0
 10
0.0
 20
0.0
 30
0.0
  3
SW_CENTERMARKSYMBOL_10
  1

  0
LINE
  5
3FF
330
3FC
100
AcDbEntity
  8
0
  6
Continuous
 62
     0
370
     0
100
AcDbLine
 10
0.0
 20
0.0
 30
0.0
 11
0.0
 21
2.5
 31
0.0
  0
LINE
  5
400
330
3FC
100
AcDbEntity
  8
0
  6
Continuous
 62
     0
370
     0
100
AcDbLine
 10
0.0
 20
0.0
 30
0.0
 11
-2.5
 21
0.0
 31
0.0
  0
LINE
  5
401
330
3FC
100
AcDbEntity
  8
0
  6
Continuous
 62
     0
370
     0
100
AcDbLine
 10
0.0
 20
0.0
 30
0.0
 11
0.0
 21
-2.5
 31
0.0
  0
LINE
  5
402
330
3FC
100
AcDbEntity
  8
0
  6
Continuous
 62
     0
370
     0
100
AcDbLine
 10
0.0
 20
0.0
 30
0.0
 11
2.5
 21
0.0
 31
0.0
  0
LINE
  5
403
330
3FC
100
AcDbEntity
  8
0
  6
Continuous
 62
     0
370
     0
100
AcDbLine
 10
0.0
 20
2.5
 30
0.0
 11
0.0
 21
4.15
 31
0.0
  0
LINE
  5
404
330
3FC
100
AcDbEntity
  8
0
  6
Continuous
 62
     0
370
     0
100
AcDbLine
 10
-2.5
 20
0.0
 30
0.0
 11
-4.15
 21
0.0
 31
0.0
  0
LINE
  5
405
330
3FC
100
AcDbEntity
  8
0
  6
Continuous
 62
     0
370
     0
100
AcDbLine
 10
0.0
 20
-2.5
 30
0.0
 11
0.0
 21
-4.15
 31
0.0
  0
LINE
  5
406
330
3FC
100
AcDbEntity
  8
0
  6
Continuous
 62
     0
370
     0
100
AcDbLine
 10
2.5
 20
0.0
 30
0.0
 11
4.15
 21
0.0
 31
0.0
  0
ENDBLK
  5
3FE
330
3FC
100
AcDbEntity
  8
0
100
AcDbBlockEnd
  0
ENDSEC
  0
SECTION
  2
ENTITIES
  0
LINE
  5
44
330
1F
100
AcDbEntity
  8
0
  6
Continuous
 62
     7
370
     0
100
AcDbLine
 10
20.2604743903
 20
285.0
 30
0.0
 11
196.7604743903
 21
285.0
 31
0.0
  0
LINE
  5
45
330
1F
100
AcDbEntity
  8
0
  6
Continuous
 62
     7
370
     0
100
AcDbLine
 10
20.2604743903
 20
285.0
 30
0.0
 11
20.2604743903
 21
10.0
 31
0.0
  0
LINE
  5
46
330
1F
100
AcDbEntity
  8
0
  6
Continuous
 62
     7
370
     0
100
AcDbLine
 10
20.2604743903
 20
10.0
 30
0.0
 11
196.7604743903
 21
10.0
 31
0.0
  0
LINE
  5
47
330
1F
100
AcDbEntity
  8
0
  6
Continuous
 62
     7
370
     0
100
AcDbLine
 10
196.7604743903
 20
285.0
 30
0.0
 11
196.7604743903
 21
10.0
 31
0.0
  0
LINE
  5
48
330
1F
100
AcDbEntity
  8
0
  6
Continuous
 62
     7
370
     0
100
AcDbLine
 10
127.0104743903
 20
50.75
 30
0.0
 11
196.7604743903
 21
50.75
 31
0.0
  0
LINE
  5
49
330
1F
100
AcDbEntity
  8
0
  6
Continuous
 62
     7
370
     0
100
AcDbLine
 10
127.0104743903
 20
50.75
 30
0.0
 11
127.0104743903
 21
10.0
 31
0.0
  0
LINE
  5
4A
330
1F
100
AcDbEntity
  8
0
  6
Continuous
 62
     7
370
     0
100
AcDbLine
 10
127.0104743903
 20
22.75
 30
0.0
 11
196.7604743903
 21
22.75
 31
0.0
  0
LINE
  5
4B
330
1F
100
AcDbEntity
  8
0
  6
Continuous
 62
     7
370
     0
100
AcDbLine
 10
127.0104743903
 20
36.75
 30
0.0
 11
196.7604743903
 21
36.75
 31
0.0
  0
MTEXT
  5
4D
330
1F
100
AcDbEntity
  8
0
  6
Continuous
 62
     7
370
     0
100
AcDbMText
 10
61.7336297939
 20
87.9091071318
 30
0.0
 40
3.5
 41
0.0
 71
     1
 72
     1
  1
ストッパーネジ
  7
SLDTEXTSTYLE0
 73
     1
 44
1.0
  0
MTEXT
  5
4E
330
1F
100
AcDbEntity
  8
0
  6
Continuous
 62
     7
370
     0
100
AcDbMText
 10
76.3570619423
 20
204.6584065614
 30
0.0
 40
2.9104166667
 41
0.0
 71
     1
 72
     1
  1
KQ2S04-M5N
  7
SLDTEXTSTYLE0
 73
     1
 44
1.0
  0
MTEXT
  5
50
330
1F
100
AcDbEntity
  8
0
  6
Continuous
 62
     7
370
     0
100
AcDbMText
 10
162.522920971
 20
30.4171582345
 30
0.0
 40
4.2333333333
 41
0.0
 71
     2
 72
     1
  1
NW2-20
  7
SLDTEXTSTYLE1
 73
     1
 44
1.0
  0
MTEXT
  5
51
330
1F
100
AcDbEntity
  8
0
  6
Continuous
 62
     7
370
     0
100
AcDbMText
 10
157.587867821
 20
45.1628598281
 30
0.0
 40
3.7041666667
 41
0.0
 71
     2
 72
     1
  1
ミニエアニッパー・本体・正刃付
  7
SLDTEXTSTYLE1
 73
     1
 44
1.0
  0
MTEXT
  5
52
330
1F
100
AcDbEntity
  8
0
  6
Continuous
 62
     7
370
     0
100
AcDbMText
 10
162.6373320617
 20
16.8228189052
 30
0.0
 40
4.2333333333
 41
0.0
 71
     2
 72
     1
  1
131540
  7
SLDTEXTSTYLE1
 73
     1
 44
1.0
  0
SPLINE
  5
53
330
1F
100
AcDbEntity
  8
0
  6
Continuous
 62
     7
370
    15
100
AcDbSpline
210
0.0
220
0.0
230
1.0
 70
     8
 71
     3
 72
    15
 73
    11
 74
     0
 42
0.00000001
 43
0.00000001
 12
1.0
 22
0.0
 32
0.0
 13
1.0
 23
0.0
 33
0.0
 40
0.0
 40
0.0
 40
0.0
 40
0.0
 40
0.121225782444904
 40
0.2487264856325554
 40
0.3796041234829372
 40
0.5108476441688499
 40
0.6398635847607463
 40
0.7648475003618869
 40
0.8849123257228632
 40
1.0
 40
1.0
 40
1.0
 40
1.0
 10
186.2455859682871
 20
154.8943645677342
 30
0.0
 10
186.3975044935641
 20
154.9073121090886
 30
0.0
 10
186.7092051906648
 20
154.9338773858287
 30
0.0
 10
187.1731752247948
 20
155.0812048294643
 30
0.0
 10
187.6107450710285
 20
155.3107985229319
 30
0.0
 10
187.9909264904739
 20
155.6211998251682
 30
0.0
 10
188.2921622979852
 20
155.9930635888024
 30
0.0
 10
188.5018753237075
 20
156.4066276660878
 30
0.0
 10
188.6271644813671
 20
156.8413013367629
 30
0.0
 10
188.6394143167235
 20
157.1390622897493
 30
0.0
 10
188.645409596653
 20
157.2847916169836
 30
0.0
  0
LINE
  5
54
330
1F
100
AcDbEntity
  8
0
  6
Continuous
 62
     7
370
    15
100
AcDbLine
 10
182.4455859042
 20
152.8057312018
 30
0.0
 11
179.7455858342
 21
152.8057312018
 31
0.0
  0
LINE
  5
55
330
1F
100
AcDbEntity
  8
0
  6
Continuous
 62
     7
370
    15
100
AcDbLine
 10
179.7455858342
 20
147.3057321629
 30
0.0
 11
182.4455859042
 21
147.3057321629
 31
0.0
  0
LINE
  5
56
330
1F
100
AcDbEntity
  8
0
  6
Continuous
 62
     7
370
    15
100
AcDbLine
 10
182.4455859042
 20
147.3057321629
 30
0.0
 11
182.7455858603
 21
147.8057313136
 31
0.0
  0
LINE
  5
57
330
1F
100
AcDbEntity
  8
0
  6
Continuous
 62
     7
370
    15
100
AcDbLine
 10
182.7455858603
 20
152.3057311198
 30
0.0
 11
182.4455859042
 21
152.8057312018
 31
0.0
  0
LINE
  5
58
330
1F
100
AcDbEntity
  8
0
  6
Continuous
 62
     7
370
    15
100
AcDbLine
 10
113.3955830611
 20
157.0557314328
 30
0.0
 11
114.1455883063
 21
157.8057315557
 31
0.0
  0
LINE
  5
59
330
1F
100
AcDbEntity
  8
0
  6
Continuous
 62
     7
370
    15
100
AcDbLine
 10
114.1455883063
 20
160.3057314998
 30
0.0
 11
113.3955830611
 21
161.0557316228
 31
0.0
  0
LINE
  5
5A
330
1F
100
AcDbEntity
  8
0
  6
Continuous
 62
     7
370
    15
100
AcDbLine
 10
104.3707543887
 20
157.0557314328
 30
0.0
 11
105.2455866612
 21
157.0557314328
 31
0.0
  0
LINE
  5
5B
330
1F
100
AcDbEntity
  8
0
  6
Continuous
 62
     7
370
    15
100
AcDbLine
 10
110.9455862916
 20
157.0557314328
 30
0.0
 11
113.3955830611
 21
157.0557314328
 31
0.0
  0
LINE
  5
5C
330
1F
100
AcDbEntity
  8
0
  6
Continuous
 62
     7
370
    15
100
AcDbLine
 10
113.3955830611
 20
161.0557316228
 30
0.0
 11
110.9455862916
 21
161.0557316228
 31
0.0
  0
LINE
  5
5D
330
1F
100
AcDbEntity
  8
0
  6
Continuous
 62
     7
370
    15
100
AcDbLine
 10
105.2455866612
 20
161.0557316228
 30
0.0
 11
104.3707543887
 21
161.0557316228
 31
0.0
  0
LINE
  5
5E
330
1F
100
AcDbEntity
  8
0
  6
Continuous
 62
     7
370
    15
100
AcDbLine
 10
104.3707543887
 20
161.0557316228
 30
0.0
 11
104.1455829419
 21
160.6657316799
 31
0.0
  0
LINE
  5
5F
330
1F
100
AcDbEntity
  8
0
  6
Continuous
 62
     7
370
    15
100
AcDbLine
 10
104.1455829419
 20
157.4457316085
 30
0.0
 11
104.3707543887
 21
157.0557314328
 31
0.0
  0
LINE
  5
60
330
1F
100
AcDbEntity
  8
0
  6
Continuous
 62
     7
370
    15
100
AcDbLine
 10
180.8455858282
 20
152.8057312018
 30
0.0
 11
179.7455858342
 21
152.8057312018
 31
0.0
  0
LINE
  5
61
330
1F
100
AcDbEntity
  8
0
  6
Continuous
 62
     7
370
    15
100
AcDbLine
 10
179.7455858342
 20
147.3057321629
 30
0.0
 11
180.8455858282
 21
147.3057321629
 31
0.0
  0
ARC
  5
62
330
1F
100
AcDbEntity
  8
0
  6
Continuous
 62
     7
370
    15
100
AcDbCircle
 10
129.595585934
 20
174.4557315669
 30
0.0
 40
0.1500000000000341
100
AcDbArc
 50
180.0
 51
270.0
  0
ARC
  5
63
330
1F
100
AcDbEntity
  8
0
  6
Continuous
 62
     7
370
    15
100
AcDbCircle
 10
129.595585934
 20
179.6557315669
 30
0.0
 40
0.1500000000000057
100
AcDbArc
 50
90.0
 51
180.0
  0
LINE
  5
64
330
1F
100
AcDbEntity
  8
0
  6
Continuous
 62
     7
370
    15
100
AcDbLine
 10
129.5955853439
 20
174.305731932
 30
0.0
 11
132.4455851592
 21
174.305731932
 31
0.0
  0
LINE
  5
65
330
1F
100
AcDbEntity
  8
0
  6
Continuous
 62
     7
370
    15
100
AcDbLine
 10
132.4455851592
 20
179.8057309708
 30
0.0
 11
129.5955853439
 21
179.8057309708
 31
0.0
  0
LINE
  5
66
330
1F
100
AcDbEntity
  8
0
  6
Continuous
 62
     7
370
    15
100
AcDbLine
 10
129.5955853439
 20
147.3057321629
 30
0.0
 11
132.4455851592
 21
147.3057321629
 31
0.0
  0
LINE
  5
67
330
1F
100
AcDbEntity
  8
0
  6
Continuous
 62
     7
370
    15
100
AcDbLine
 10
132.4455851592
 20
152.8057312018
 30
0.0
 11
129.5955853439
 21
152.8057312018
 31
0.0
  0
ARC
  5
68
330
1F
100
AcDbEntity
  8
0
  6
Continuous
 62
     7
370
    15
100
AcDbCircle
 10
129.595585934
 20
147.4557315669
 30
0.0
 40
0.1500000000000057
100
AcDbArc
 50
180.0
 51
270.0
  0
ARC
  5
69
330
1F
100
AcDbEntity
  8
0
  6
Continuous
 62
     7
370
    15
100
AcDbCircle
 10
129.595585934
 20
152.6557315669
 30
0.0
 40
0.1500000000000341
100
AcDbArc
 50
90.0
 51
180.0
  0
LINE
  5
6A
330
1F
100
AcDbEntity
  8
0
  6
Continuous
 62
     7
370
    15
100
AcDbLine
 10
114.9455869473
 20
161.0557316228
 30
0.0
 11
114.1455883063
 21
161.0557316228
 31
0.0
  0
LINE
  5
6B
330
1F
100
AcDbEntity
  8
0
  6
Continuous
 62
     7
370
    15
100
AcDbLine
 10
114.1455883063
 20
157.0557314328
 30
0.0
 11
114.9455869473
 21
157.0557314328
 31
0.0
  0
LINE
  5
6C
330
1F
100
AcDbEntity
  8
0
  6
Continuous
 62
     7
370
    15
100
AcDbLine
 10
164.4455857477
 20
144.655732008
 30
0.0
 11
164.4455857477
 21
144.5536311141
 31
0.0
  0
LINE
  5
6D
330
1F
100
AcDbEntity
  8
0
  6
Continuous
 62
     7
370
    15
100
AcDbLine
 10
172.4455861277
 20
142.1557306669
 30
0.0
 11
172.4455861277
 21
144.655732008
 31
0.0
  0
LINE
  5
6E
330
1F
100
AcDbEntity
  8
0
  6
Continuous
 62
     7
370
    15
100
AcDbLine
 10
114.9455869473
 20
163.0557315431
 30
0.0
 11
114.445585934
 21
163.0557315431
 31
0.0
  0
LINE
  5
6F
330
1F
100
AcDbEntity
  8
0
  6
Continuous
 62
     7
370
    15
100
AcDbLine
 10
114.445585934
 20
155.0557311049
 30
0.0
 11
114.9455869473
 21
155.0557311049
 31
0.0
  0
LINE
  5
70
330
1F
100
AcDbEntity
  8
0
  6
Continuous
 62
     7
370
    15
100
AcDbLine
 10
129.4455865301
 20
169.0557315371
 30
0.0
 11
114.9455869473
 21
169.0557315371
 31
0.0
  0
LINE
  5
71
330
1F
100
AcDbEntity
  8
0
  6
Continuous
 62
     7
370
    15
100
AcDbLine
 10
114.9455869473
 20
149.0557319841
 30
0.0
 11
129.4455865301
 21
149.0557319841
 31
0.0
  0
LINE
  5
72
330
1F
100
AcDbEntity
  8
0
  6
Continuous
 62
     7
370
    15
100
AcDbLine
 10
117.2455849029
 20
171.0557313992
 30
0.0
 11
129.4455865301
 21
171.0557313992
 31
0.0
  0
LINE
  5
73
330
1F
100
AcDbEntity
  8
0
  6
Continuous
 62
     7
370
    15
100
AcDbLine
 10
129.4455865301
 20
179.0557313136
 30
0.0
 11
117.2455849029
 21
179.0557313136
 31
0.0
  0
LINE
  5
74
330
1F
100
AcDbEntity
  8
0
  6
Continuous
 62
     7
370
    15
100
AcDbLine
 10
114.8455852545
 20
171.2057316101
 30
0.0
 11
116.3455845691
 21
171.2057316101
 31
0.0
  0
LINE
  5
75
330
1F
100
AcDbEntity
  8
0
  6
Continuous
 62
     7
370
    15
100
AcDbLine
 10
116.3455845691
 20
178.9057315684
 30
0.0
 11
114.8455852545
 21
178.9057315684
 31
0.0
  0
LINE
  5
76
330
1F
100
AcDbEntity
  8
0
  6
Continuous
 62
     7
370
    15
100
AcDbLine
 10
116.3455845691
 20
172.6557319409
 30
0.0
 11
117.2455849029
 21
172.6557319409
 31
0.0
  0
LINE
  5
77
330
1F
100
AcDbEntity
  8
0
  6
Continuous
 62
     7
370
    15
100
AcDbLine
 10
117.2455849029
 20
177.4557312376
 30
0.0
 11
116.3455845691
 21
177.4557312376
 31
0.0
  0
LINE
  5
78
330
1F
100
AcDbEntity
  8
0
  6
Continuous
 62
     7
370
    15
100
AcDbLine
 10
96.2455833233
 20
155.0557311049
 30
0.0
 11
108.4455886758
 21
155.0557311049
 31
0.0
  0
LINE
  5
79
330
1F
100
AcDbEntity
  8
0
  6
Continuous
 62
     7
370
    15
100
AcDbLine
 10
108.4455886758
 20
163.0557315431
 30
0.0
 11
96.2455833233
 21
163.0557315431
 31
0.0
  0
LINE
  5
7A
330
1F
100
AcDbEntity
  8
0
  6
Continuous
 62
     7
370
    15
100
AcDbLine
 10
93.8455874003
 20
155.2057317815
 30
0.0
 11
95.3455829895
 21
155.2057317815
 31
0.0
  0
LINE
  5
7B
330
1F
100
AcDbEntity
  8
0
  6
Continuous
 62
     7
370
    15
100
AcDbLine
 10
95.3455829895
 20
162.9057315651
 30
0.0
 11
93.8455874003
 21
162.9057315651
 31
0.0
  0
LINE
  5
7C
330
1F
100
AcDbEntity
  8
0
  6
Continuous
 62
     7
370
    15
100
AcDbLine
 10
95.3455829895
 20
156.6557316466
 30
0.0
 11
96.2455833233
 21
156.6557316466
 31
0.0
  0
LINE
  5
7D
330
1F
100
AcDbEntity
  8
0
  6
Continuous
 62
     7
370
    15
100
AcDbLine
 10
96.2455833233
 20
161.4557316418
 30
0.0
 11
95.3455829895
 21
161.4557316418
 31
0.0
  0
LINE
  5
7E
330
1F
100
AcDbEntity
  8
0
  6
Continuous
 62
     7
370
    15
100
AcDbLine
 10
188.6455856166
 20
157.2557315587
 30
0.0
 11
186.2455859683
 21
157.2557315587
 31
0.0
  0
LINE
  5
7F
330
1F
100
AcDbEntity
  8
0
  6
Continuous
 62
     7
370
    15
100
AcDbLine
 10
186.2455859683
 20
154.8942714355
 30
0.0
 11
186.2455859683
 21
154.8557314447
 31
0.0
  0
LINE
  5
80
330
1F
100
AcDbEntity
  8
0
  6
Continuous
 62
     7
370
    15
100
AcDbLine
 10
186.2455859683
 20
154.8557314447
 30
0.0
 11
180.5455858722
 21
154.8557314447
 31
0.0
  0
LINE
  5
81
330
1F
100
AcDbEntity
  8
0
  6
Continuous
 62
     7
370
    15
100
AcDbLine
 10
180.5455858722
 20
157.2557315587
 30
0.0
 11
180.5455858722
 21
154.8557314447
 31
0.0
  0
LINE
  5
82
330
1F
100
AcDbEntity
  8
0
  6
Continuous
 62
     7
370
    15
100
AcDbLine
 10
186.2455859683
 20
157.2557315587
 30
0.0
 11
180.5455858722
 21
157.2557315587
 31
0.0
  0
LINE
  5
83
330
1F
100
AcDbEntity
  8
0
  6
Continuous
 62
     7
370
    15
100
AcDbLine
 10
179.8455858971
 20
193.0557317457
 30
0.0
 11
186.2455859683
 21
193.0557317457
 31
0.0
  0
LINE
  5
84
330
1F
100
AcDbEntity
  8
0
  6
Continuous
 62
     7
370
    15
100
AcDbLine
 10
186.2455859683
 20
193.0557317457
 30
0.0
 11
186.2455859683
 21
184.0557321331
 31
0.0
  0
LINE
  5
85
330
1F
100
AcDbEntity
  8
0
  6
Continuous
 62
     7
370
    15
100
AcDbLine
 10
179.8455858971
 20
184.0557321331
 30
0.0
 11
186.2455859683
 21
184.0557321331
 31
0.0
  0
LINE
  5
86
330
1F
100
AcDbEntity
  8
0
  6
Continuous
 62
     7
370
    15
100
AcDbLine
 10
179.8455858971
 20
184.0557321331
 30
0.0
 11
179.8455858971
 21
193.0557317457
 31
0.0
  0
SPLINE
  5
87
330
1F
100
AcDbEntity
  8
0
  6
Continuous
 62
     7
370
    15
100
AcDbSpline
210
0.0
220
0.0
230
1.0
 70
    24
 71
     3
 72
    12
 73
     8
 74
     0
 42
0.00000001
 43
0.00000001
 12
1.0
 22
0.0
 32
0.0
 13
1.0
 23
0.0
 33
0.0
 40
0.0
 40
0.0
 40
0.0
 40
0.0
 40
0.2118450891343373
 40
0.4222530376994592
 40
0.5867282201383488
 40
0.7558354061195097
 40
1.0
 40
1.0
 40
1.0
 40
1.0
 10
187.0455855406233
 20
193.0557317456974
 30
0.0
 10
187.2756075785789
 20
193.0557317456974
 30
0.0
 10
187.7340912029172
 20
193.0557317456974
 30
0.0
 10
188.1611822167456
 20
193.0557317456974
 30
0.0
 10
188.4305392263825
 20
193.0557317456974
 30
0.0
 10
188.6097342760565
 20
193.0557317456974
 30
0.0
 10
188.6322708254726
 20
193.0557317456974
 30
0.0
 10
188.6455856166192
 20
193.0557317456974
 30
0.0
  0
LINE
  5
88
330
1F
100
AcDbEntity
  8
0
  6
Continuous
 62
     7
370
    15
100
AcDbLine
 10
188.6455856166
 20
184.0557321331
 30
0.0
 11
188.6455856166
 21
193.0557317457
 31
0.0
  0
LINE
  5
89
330
1F
100
AcDbEntity
  8
0
  6
Continuous
 62
     7
370
    15
100
AcDbLine
 10
186.2455859683
 20
184.0557321331
 30
0.0
 11
188.6455856166
 21
184.0557321331
 31
0.0
  0
ARC
  5
8A
330
1F
100
AcDbEntity
  8
0
  6
Continuous
 62
     7
370
    15
100
AcDbCircle
 10
186.2509453037
 20
189.4326499166
 30
0.0
 40
3.623085792941798
100
AcDbArc
 50
77.3304973235
 51
90.0847530068
  0
LINE
  5
8B
330
1F
100
AcDbEntity
  8
0
  6
Continuous
 62
     7
370
    15
100
AcDbLine
 10
187.0455855406
 20
193.0557317457
 30
0.0
 11
187.0455855406
 21
192.9675187341
 31
0.0
  0
LINE
  5
8C
330
1F
100
AcDbEntity
  8
0
  6
Continuous
 62
     7
370
    15
100
AcDbLine
 10
186.2455859683
 20
184.0557321331
 30
0.0
 11
186.2455859683
 21
157.2557315587
 31
0.0
  0
LINE
  5
8D
330
1F
100
AcDbEntity
  8
0
  6
Continuous
 62
     7
370
    15
100
AcDbLine
 10
188.6455856166
 20
184.0557321331
 30
0.0
 11
188.6455856166
 21
157.2557315587
 31
0.0
  0
LINE
  5
8E
330
1F
100
AcDbEntity
  8
0
  6
Continuous
 62
     7
370
    15
100
AcDbLine
 10
178.145585991
 20
182.0557318053
 30
0.0
 11
179.8455858971
 21
182.0557318053
 31
0.0
  0
SPLINE
  5
8F
330
1F
100
AcDbEntity
  8
0
  6
Continuous
 62
     7
370
    15
100
AcDbSpline
210
0.0
220
0.0
230
1.0
 70
     8
 71
     3
 72
    11
 73
     7
 74
     0
 42
0.00000001
 43
0.00000001
 12
1.0
 22
0.0
 32
0.0
 13
1.0
 23
0.0
 33
0.0
 40
0.0
 40
0.0
 40
0.0
 40
0.0
 40
0.0042868972112061
 40
0.3543730001178573
 40
0.7076561576196725
 40
1.0
 40
1.0
 40
1.0
 40
1.0
 10
180.5455858721745
 20
157.2557315586878
 30
0.0
 10
180.5439527697316
 20
157.2529031405303
 30
0.0
 10
180.4089536354663
 20
157.0190941689895
 30
0.0
 10
180.1437065523752
 20
156.5518472517806
 30
0.0
 10
179.8213337963011
 20
155.8538078625253
 30
0.0
 10
179.7691947240292
 20
155.361879296038
 30
0.0
 10
179.7455858341766
 20
155.1391310415042
 30
0.0
  0
LINE
  5
90
330
1F
100
AcDbEntity
  8
0
  6
Continuous
 62
     7
370
    15
100
AcDbLine
 10
179.7455858342
 20
155.1391310415
 30
0.0
 11
179.7455858342
 21
149.0557319841
 31
0.0
  0
LINE
  5
91
330
1F
100
AcDbEntity
  8
0
  6
Continuous
 62
     7
370
    15
100
AcDbLine
 10
178.145585991
 20
149.0557319841
 30
0.0
 11
179.7455858342
 21
149.0557319841
 31
0.0
  0
LINE
  5
92
330
1F
100
AcDbEntity
  8
0
  6
Continuous
 62
     7
370
    15
100
AcDbLine
 10
178.145585991
 20
149.0557319841
 30
0.0
 11
178.145585991
 21
182.0557318053
 31
0.0
  0
LINE
  5
93
330
1F
100
AcDbEntity
  8
0
  6
Continuous
 62
     7
370
    15
100
AcDbLine
 10
179.8455858971
 20
182.0557318053
 30
0.0
 11
179.8455858971
 21
184.0557321331
 31
0.0
  0
LINE
  5
94
330
1F
100
AcDbEntity
  8
0
  6
Continuous
 62
     7
370
    15
100
AcDbLine
 10
179.7455858342
 20
147.0557316563
 30
0.0
 11
178.145585991
 21
147.0557316563
 31
0.0
  0
LINE
  5
95
330
1F
100
AcDbEntity
  8
0
  6
Continuous
 62
     7
370
    15
100
AcDbLine
 10
179.7455858342
 20
147.0557316563
 30
0.0
 11
179.7455858342
 21
149.0557319841
 31
0.0
  0
ARC
  5
96
330
1F
100
AcDbEntity
  8
0
  6
Continuous
 62
     7
370
    15
100
AcDbCircle
 10
180.545585934
 20
154.0557315669
 30
0.0
 40
0.799999999999784
100
AcDbArc
 50
90.0
 51
179.9999999991
  0
LINE
  5
97
330
1F
100
AcDbEntity
  8
0
  6
Continuous
 62
     7
370
    15
100
AcDbLine
 10
182.4455859042
 20
150.0557312167
 30
0.0
 11
182.4455859042
 21
147.3057321629
 31
0.0
  0
LINE
  5
98
330
1F
100
AcDbEntity
  8
0
  6
Continuous
 62
     7
370
    15
100
AcDbLine
 10
182.4455859042
 20
152.8057312018
 30
0.0
 11
182.4455859042
 21
150.0557312167
 31
0.0
  0
LINE
  5
99
330
1F
100
AcDbEntity
  8
0
  6
Continuous
 62
     7
370
    15
100
AcDbLine
 10
182.7455858603
 20
152.3057311198
 30
0.0
 11
182.7455858603
 21
147.8057313136
 31
0.0
  0
LINE
  5
9A
330
1F
100
AcDbEntity
  8
0
  6
Continuous
 62
     7
370
    15
100
AcDbLine
 10
179.5455859411
 20
191.2887408755
 30
0.0
 11
179.0455858591
 21
191.2887408755
 31
0.0
  0
LINE
  5
9B
330
1F
100
AcDbEntity
  8
0
  6
Continuous
 62
     7
370
    15
100
AcDbLine
 10
179.0455858591
 20
191.2887408755
 30
0.0
 11
179.0455858591
 21
211.0055922887
 31
0.0
  0
LINE
  5
9C
330
1F
100
AcDbEntity
  8
0
  6
Continuous
 62
     7
370
    15
100
AcDbLine
 10
179.0455858591
 20
211.0055922887
 30
0.0
 11
180.2156478535
 21
211.0055922887
 31
0.0
  0
SPLINE
  5
9D
330
1F
100
AcDbEntity
  8
0
  6
Continuous
 62
     7
370
    15
100
AcDbSpline
210
0.0
220
0.0
230
1.0
 70
     8
 71
     3
 72
     9
 73
     5
 74
     0
 42
0.00000001
 43
0.00000001
 12
1.0
 22
0.0
 32
0.0
 13
1.0
 23
0.0
 33
0.0
 40
0.0
 40
0.0
 40
0.0
 40
0.0
 40
0.4981011080782104
 40
1.0
 40
1.0
 40
1.0
 40
1.0
 10
180.2156478534794
 20
211.00559228871
 30
0.0
 10
180.5860742903957
 20
210.5891925253258
 30
0.0
 10
181.3297514894797
 20
209.7532181485759
 30
0.0
 10
181.9562823811326
 20
208.8106280355208
 30
0.0
 10
182.270737541408
 20
208.3375431022419
 30
0.0
  0
ELLIPSE
  5
9E
330
1F
100
AcDbEntity
  8
0
  6
Continuous
 62
     7
370
    15
100
AcDbEllipse
 10
157.2456206077
 20
195.1657315669
 30
0.0
 11
22.54250009816539
 21
-22.54250009813995
 31
0.0
210
0.0
220
0.0
230
1.0
 40
0.8781120054
 41
1.276652764983432
 42
1.304759033511841
  0
SPLINE
  5
9F
330
1F
100
AcDbEntity
  8
0
  6
Continuous
 62
     7
370
    15
100
AcDbSpline
210
0.0
220
0.0
230
1.0
 70
     8
 71
     3
 72
    13
 73
     9
 74
     0
 42
0.00000001
 43
0.00000001
 12
1.0
 22
0.0
 32
0.0
 13
1.0
 23
0.0
 33
0.0
 40
0.0
 40
0.0
 40
0.0
 40
0.0
 40
0.1487600666994752
 40
0.2983712808147876
 40
0.4508543809173837
 40
0.6044270510948874
 40
0.8008376178733165
 40
1.0
 40
1.0
 40
1.0
 40
1.0
 10
182.7258162103004
 20
207.5748718700184
 30
0.0
 10
182.9353781646878
 20
207.1839673278041
 30
0.0
 10
183.3557011057023
 20
206.399921639169
 30
0.0
 10
183.8840331196675
 20
205.1429473797127
 30
0.0
 10
184.3312632272933
 20
203.8244326166956
 30
0.0
 10
184.7088390648287
 20
202.3179827715965
 30
0.0
 10
184.9881615287186
 20
200.6200516922827
 30
0.0
 10
185.0263560385601
 20
199.3667436510577
 30
0.0
 10
185.0455861441203
 20
198.7357302925362
 30
0.0
  0
SPLINE
  5
A0
330
1F
100
AcDbEntity
  8
0
  6
Continuous
 62
     7
370
    15
100
AcDbSpline
210
0.0
220
0.0
230
1.0
 70
     8
 71
     3
 72
    12
 73
     8
 74
     0
 42
0.00000001
 43
0.00000001
 12
1.0
 22
0.0
 32
0.0
 13
1.0
 23
0.0
 33
0.0
 40
0.0
 40
0.0
 40
0.0
 40
0.0
 40
0.2158801794526465
 40
0.4318007478984224
 40
0.646740653354679
 40
0.8608376203434601
 40
1.0
 40
1.0
 40
1.0
 40
1.0
 10
185.0455861441203
 20
198.7357302925362
 30
0.0
 10
185.0621890071773
 20
198.5668491413006
 30
0.0
 10
185.0953978395188
 20
198.2290552428782
 30
0.0
 10
185.3553364518765
 20
197.7782098486182
 30
0.0
 10
185.7377481664304
 20
197.4390290121297
 30
0.0
 10
186.1591003239414
 20
197.2608628957499
 30
0.0
 10
186.4363622884063
 20
197.2428334620882
 30
0.0
 10
186.5455863899895
 20
197.2357309779896
 30
0.0
  0
LINE
  5
A1
330
1F
100
AcDbEntity
  8
0
  6
Continuous
 62
     7
370
    15
100
AcDbLine
 10
186.54558639
 20
197.235730978
 30
0.0
 11
187.0455855406
 21
197.235730978
 31
0.0
  0
LINE
  5
A2
330
1F
100
AcDbEntity
  8
0
  6
Continuous
 62
     7
370
    15
100
AcDbLine
 10
187.0455855406
 20
193.0557317457
 30
0.0
 11
187.0455855406
 21
197.235730978
 31
0.0
  0
LINE
  5
A3
330
1F
100
AcDbEntity
  8
0
  6
Continuous
 62
     7
370
    15
100
AcDbLine
 10
179.5455859411
 20
187.5889352879
 30
0.0
 11
179.8455858971
 21
187.5889352879
 31
0.0
  0
LINE
  5
A4
330
1F
100
AcDbEntity
  8
0
  6
Continuous
 62
     7
370
    15
100
AcDbLine
 10
179.5455859411
 20
187.5889352879
 30
0.0
 11
179.5455859411
 21
191.2886030397
 31
0.0
  0
LINE
  5
A5
330
1F
100
AcDbEntity
  8
0
  6
Continuous
 62
     7
370
    15
100
AcDbLine
 10
179.5455859411
 20
187.8052107415
 30
0.0
 11
179.0455858591
 21
187.8052107415
 31
0.0
  0
LINE
  5
A6
330
1F
100
AcDbEntity
  8
0
  6
Continuous
 62
     7
370
    15
100
AcDbLine
 10
179.0455858591
 20
187.8052107415
 30
0.0
 11
179.0455858591
 21
191.2887408755
 31
0.0
  0
LINE
  5
A7
330
1F
100
AcDbEntity
  8
0
  6
Continuous
 62
     7
370
    15
100
AcDbLine
 10
179.0455858591
 20
187.8052107415
 30
0.0
 11
179.0455858591
 21
182.0557318053
 31
0.0
  0
LINE
  5
A8
330
1F
100
AcDbEntity
  8
0
  6
Continuous
 62
     7
370
    15
100
AcDbLine
 10
179.0455858591
 20
211.1628032646
 30
0.0
 11
179.2455661944
 21
211.1628032646
 31
0.0
  0
ARC
  5
A9
330
1F
100
AcDbEntity
  8
0
  6
Continuous
 62
     7
370
    15
100
AcDbCircle
 10
167.045585934
 20
198.7357315669
 30
0.0
 40
18.00000000001026
100
AcDbArc
 50
42.9734120166
 51
43.1311257848
  0
LINE
  5
AA
330
1F
100
AcDbEntity
  8
0
  6
Continuous
 62
     7
370
    15
100
AcDbLine
 10
179.2455661944
 20
211.1628032646
 30
0.0
 11
180.1818236146
 21
211.0417983851
 31
0.0
  0
LINE
  5
AB
330
1F
100
AcDbEntity
  8
0
  6
Continuous
 62
     7
370
    15
100
AcDbLine
 10
179.0455858591
 20
211.0055922887
 30
0.0
 11
179.0455858591
 21
211.1628032646
 31
0.0
  0
LINE
  5
AC
330
1F
100
AcDbEntity
  8
0
  6
Continuous
 62
     7
370
    15
100
AcDbLine
 10
113.3955830611
 20
157.0557314328
 30
0.0
 11
113.3955830611
 21
161.0557316228
 31
0.0
  0
LINE
  5
AD
330
1F
100
AcDbEntity
  8
0
  6
Continuous
 62
     7
370
    15
100
AcDbLine
 10
114.1455883063
 20
157.8072952463
 30
0.0
 11
114.1455883063
 21
160.3041680421
 31
0.0
  0
LINE
  5
AE
330
1F
100
AcDbEntity
  8
0
  6
Continuous
 62
     7
370
    15
100
AcDbLine
 10
104.3707543887
 20
157.0557314328
 30
0.0
 11
104.3707543887
 21
161.0557316228
 31
0.0
  0
LINE
  5
AF
330
1F
100
AcDbEntity
  8
0
  6
Continuous
 62
     7
370
    15
100
AcDbLine
 10
104.1455829419
 20
157.4457316085
 30
0.0
 11
104.1455829419
 21
160.6657316799
 31
0.0
  0
LINE
  5
B0
330
1F
100
AcDbEntity
  8
0
  6
Continuous
 62
     7
370
    15
100
AcDbLine
 10
180.8455858282
 20
152.5487047977
 30
0.0
 11
180.8455858282
 21
147.3057321629
 31
0.0
  0
LINE
  5
B1
330
1F
100
AcDbEntity
  8
0
  6
Continuous
 62
     7
370
    15
100
AcDbLine
 10
180.8455858282
 20
152.8057312018
 30
0.0
 11
180.8455858282
 21
152.5487047977
 31
0.0
  0
LINE
  5
B2
330
1F
100
AcDbEntity
  8
0
  6
Continuous
 62
     7
370
    15
100
AcDbLine
 10
129.4455865301
 20
174.4557316772
 30
0.0
 11
129.4455865301
 21
179.655732157
 31
0.0
  0
LINE
  5
B3
330
1F
100
AcDbEntity
  8
0
  6
Continuous
 62
     7
370
    15
100
AcDbLine
 10
129.4455865301
 20
147.4557309768
 30
0.0
 11
129.4455865301
 21
152.6557314566
 31
0.0
  0
LINE
  5
B4
330
1F
100
AcDbEntity
  8
0
  6
Continuous
 62
     7
370
    15
100
AcDbLine
 10
108.4455886758
 20
155.5557311869
 30
0.0
 11
105.5581906713
 21
155.5557311869
 31
0.0
  0
SPLINE
  5
B5
330
1F
100
AcDbEntity
  8
0
  6
Continuous
 62
     7
370
    15
100
AcDbSpline
210
0.0
220
0.0
230
1.0
 70
     8
 71
     3
 72
    10
 73
     6
 74
     0
 42
0.00000001
 43
0.00000001
 12
1.0
 22
0.0
 32
0.0
 13
1.0
 23
0.0
 33
0.0
 40
0.0
 40
0.0
 40
0.0
 40
0.0
 40
0.0700362528189455
 40
0.5307569207574331
 40
1.0
 40
1.0
 40
1.0
 40
1.0
 10
105.245586661191
 20
157.3057314737504
 30
0.0
 10
105.2459589650201
 20
157.2642826543403
 30
0.0
 10
105.2487804014331
 20
156.950170364295
 30
0.0
 10
105.3170525709237
 20
156.3578966712443
 30
0.0
 10
105.4773217228286
 20
155.8247483149115
 30
0.0
 10
105.5581906712962
 20
155.555731186903
 30
0.0
  0
SPLINE
  5
B6
330
1F
100
AcDbEntity
  8
0
  6
Continuous
 62
     7
370
    15
100
AcDbSpline
210
0.0
220
0.0
230
1.0
 70
     8
 71
     3
 72
     9
 73
     5
 74
     0
 42
0.00000001
 43
0.00000001
 12
1.0
 22
0.0
 32
0.0
 13
1.0
 23
0.0
 33
0.0
 40
0.0
 40
0.0
 40
0.0
 40
0.0
 40
0.4954578422127281
 40
1.0
 40
1.0
 40
1.0
 40
1.0
 10
105.5581906712961
 20
159.0557317605977
 30
0.0
 10
105.470818617829
 20
158.7715239677843
 30
0.0
 10
105.2944725273586
 20
158.1978973771864
 30
0.0
 10
105.2619803396758
 20
157.6049157190665
 30
0.0
 10
105.245586661191
 20
157.3057314737504
 30
0.0
  0
LINE
  5
B7
330
1F
100
AcDbEntity
  8
0
  6
Continuous
 62
     7
370
    15
100
AcDbLine
 10
108.4455886758
 20
159.0557317606
 30
0.0
 11
105.5581906713
 21
159.0557317606
 31
0.0
  0
SPLINE
  5
B8
330
1F
100
AcDbEntity
  8
0
  6
Continuous
 62
     7
370
    15
100
AcDbSpline
210
0.0
220
0.0
230
1.0
 70
     8
 71
     3
 72
    10
 73
     6
 74
     0
 42
0.00000001
 43
0.00000001
 12
1.0
 22
0.0
 32
0.0
 13
1.0
 23
0.0
 33
0.0
 40
0.0
 40
0.0
 40
0.0
 40
0.0
 40
0.0700365914175321
 40
0.5307571199293314
 40
1.0
 40
1.0
 40
1.0
 40
1.0
 10
105.245586661191
 20
160.8057315817838
 30
0.0
 10
105.2459589629893
 20
160.7642826953284
 30
0.0
 10
105.2487803714313
 20
160.4501712979279
 30
0.0
 10
105.3170525603161
 20
159.8578960834803
 30
0.0
 10
105.4773217225152
 20
159.3247484883039
 30
0.0
 10
105.5581906712961
 20
159.0557317605977
 30
0.0
  0
LINE
  5
B9
330
1F
100
AcDbEntity
  8
0
  6
Continuous
 62
     7
370
    15
100
AcDbLine
 10
105.2455866612
 20
160.8057315818
 30
0.0
 11
105.2455866612
 21
157.3057314738
 31
0.0
  0
SPLINE
  5
BA
330
1F
100
AcDbEntity
  8
0
  6
Continuous
 62
     7
370
    15
100
AcDbSpline
210
0.0
220
0.0
230
1.0
 70
     8
 71
     3
 72
     9
 73
     5
 74
     0
 42
0.00000001
 43
0.00000001
 12
1.0
 22
0.0
 32
0.0
 13
1.0
 23
0.0
 33
0.0
 40
0.0
 40
0.0
 40
0.0
 40
0.0
 40
0.4954578181211137
 40
1.0
 40
1.0
 40
1.0
 40
1.0
 10
105.5581906712961
 20
162.5557315193852
 30
0.0
 10
105.4708186177308
 20
162.2715238069154
 30
0.0
 10
105.2944725184875
 20
161.6978973505853
 30
0.0
 10
105.2619803372211
 20
161.1049157914459
 30
0.0
 10
105.245586661191
 20
160.8057315817838
 30
0.0
  0
LINE
  5
BB
330
1F
100
AcDbEntity
  8
0
  6
Continuous
 62
     7
370
    15
100
AcDbLine
 10
108.4455886758
 20
162.5557315194
 30
0.0
 11
105.5581906713
 21
162.5557315194
 31
0.0
  0
SPLINE
  5
BC
330
1F
100
AcDbEntity
  8
0
  6
Continuous
 62
     7
370
    15
100
AcDbSpline
210
0.0
220
0.0
230
1.0
 70
    24
 71
     3
 72
    10
 73
     6
 74
     0
 42
0.00000001
 43
0.00000001
 12
1.0
 22
0.0
 32
0.0
 13
1.0
 23
0.0
 33
0.0
 40
0.0
 40
0.0
 40
0.0
 40
0.0
 40
0.2684068207404545
 40
0.6323733358689111
 40
1.0
 40
1.0
 40
1.0
 40
1.0
 10
105.245586661191
 20
155.555731186903
 30
0.0
 10
105.2506643018124
 20
155.555731186903
 30
0.0
 10
105.2626273530091
 20
155.555731186903
 30
0.0
 10
105.3654184870984
 20
155.555731186903
 30
0.0
 10
105.4937193142332
 20
155.555731186903
 30
0.0
 10
105.5581906712962
 20
155.555731186903
 30
0.0
  0
LINE
  5
BD
330
1F
100
AcDbEntity
  8
0
  6
Continuous
 62
     7
370
    15
100
AcDbLine
 10
105.2455866612
 20
155.5557311869
 30
0.0
 11
105.2455866612
 21
157.3057314738
 31
0.0
  0
SPLINE
  5
BE
330
1F
100
AcDbEntity
  8
0
  6
Continuous
 62
     7
370
    15
100
AcDbSpline
210
0.0
220
0.0
230
1.0
 70
    24
 71
     3
 72
    10
 73
     6
 74
     0
 42
0.00000001
 43
0.00000001
 12
1.0
 22
0.0
 32
0.0
 13
1.0
 23
0.0
 33
0.0
 40
0.0
 40
0.0
 40
0.0
 40
0.0
 40
0.2684068207404545
 40
0.6323733358689111
 40
1.0
 40
1.0
 40
1.0
 40
1.0
 10
105.245586661191
 20
162.5557315193852
 30
0.0
 10
105.2506643018123
 20
162.5557315193852
 30
0.0
 10
105.2626273530091
 20
162.5557315193852
 30
0.0
 10
105.3654184870984
 20
162.5557315193852
 30
0.0
 10
105.4937193142332
 20
162.5557315193852
 30
0.0
 10
105.5581906712961
 20
162.5557315193852
 30
0.0
  0
LINE
  5
BF
330
1F
100
AcDbEntity
  8
0
  6
Continuous
 62
     7
370
    15
100
AcDbLine
 10
105.2455866612
 20
162.5557315194
 30
0.0
 11
105.2455866612
 21
160.8057315818
 31
0.0
  0
LINE
  5
C0
330
1F
100
AcDbEntity
  8
0
  6
Continuous
 62
     7
370
    15
100
AcDbLine
 10
114.1455883063
 20
157.0557314328
 30
0.0
 11
114.1455883063
 21
157.8057315557
 31
0.0
  0
LINE
  5
C1
330
1F
100
AcDbEntity
  8
0
  6
Continuous
 62
     7
370
    15
100
AcDbLine
 10
114.1455883063
 20
160.3041680421
 30
0.0
 11
114.1455883063
 21
161.0557316228
 31
0.0
  0
LINE
  5
C2
330
1F
100
AcDbEntity
  8
0
  6
Continuous
 62
     7
370
    15
100
AcDbLine
 10
176.4455859103
 20
144.655732008
 30
0.0
 11
176.4455859103
 21
146.0557314924
 31
0.0
  0
LINE
  5
C3
330
1F
100
AcDbEntity
  8
0
  6
Continuous
 62
     7
370
    15
100
AcDbLine
 10
160.4455860234
 20
144.655732008
 30
0.0
 11
160.4455860234
 21
146.0557314924
 31
0.0
  0
LINE
  5
C4
330
1F
100
AcDbEntity
  8
0
  6
Continuous
 62
     7
370
    15
100
AcDbLine
 10
175.5210718275
 20
146.0557314924
 30
0.0
 11
161.3700996987
 21
146.0557314924
 31
0.0
  0
LINE
  5
C5
330
1F
100
AcDbEntity
  8
0
  6
Continuous
 62
     7
370
    15
100
AcDbLine
 10
176.4455859103
 20
144.655732008
 30
0.0
 11
160.4455860234
 21
144.655732008
 31
0.0
  0
LINE
  5
C6
330
1F
100
AcDbEntity
  8
0
  6
Continuous
 62
     7
370
    15
100
AcDbLine
 10
172.4455861277
 20
142.1557306669
 30
0.0
 11
171.9455860458
 21
142.1557306669
 31
0.0
  0
ARC
  5
C7
330
1F
100
AcDbEntity
  8
0
  6
Continuous
 62
     7
370
    15
100
AcDbCircle
 10
159.8490382334
 20
141.0536308317
 30
0.0
 40
3.5
100
AcDbArc
 50
90.0
 51
113.0
  0
LINE
  5
C8
330
1F
100
AcDbEntity
  8
0
  6
Continuous
 62
     7
370
    15
100
AcDbLine
 10
159.8490385241
 20
144.5536311141
 30
0.0
 11
159.8490385241
 21
142.0536316356
 31
0.0
  0
ARC
  5
C9
330
1F
100
AcDbEntity
  8
0
  6
Continuous
 62
     7
370
    15
100
AcDbCircle
 10
159.8490382334
 20
141.0536308317
 30
0.0
 40
1.0
100
AcDbArc
 50
90.0
 51
113.0
  0
LINE
  5
CA
330
1F
100
AcDbEntity
  8
0
  6
Continuous
 62
     7
370
    15
100
AcDbLine
 10
159.4583077259
 20
141.9741358033
 30
0.0
 11
158.4814788676
 21
144.2753984949
 31
0.0
  0
LINE
  5
CB
330
1F
100
AcDbEntity
  8
0
  6
Continuous
 62
     7
370
    15
100
AcDbLine
 10
159.8490385241
 20
144.5536311141
 30
0.0
 11
170.9455858819
 21
144.5536311141
 31
0.0
  0
LINE
  5
CC
330
1F
100
AcDbEntity
  8
0
  6
Continuous
 62
     7
370
    15
100
AcDbLine
 10
170.9455858819
 20
142.0536316356
 30
0.0
 11
170.9455858819
 21
144.5536311141
 31
0.0
  0
LINE
  5
CD
330
1F
100
AcDbEntity
  8
0
  6
Continuous
 62
     7
370
    15
100
AcDbLine
 10
159.8490385241
 20
142.0536316356
 30
0.0
 11
170.9455858819
 21
142.0536316356
 31
0.0
  0
LINE
  5
CE
330
1F
100
AcDbEntity
  8
0
  6
Continuous
 62
     7
370
    15
100
AcDbLine
 10
170.9455858819
 20
144.5536311141
 30
0.0
 11
171.9455860458
 21
144.5536311141
 31
0.0
  0
LINE
  5
CF
330
1F
100
AcDbEntity
  8
0
  6
Continuous
 62
     7
370
    15
100
AcDbLine
 10
171.9455860458
 20
144.5536311141
 30
0.0
 11
171.9455860458
 21
142.0557308367
 31
0.0
  0
ARC
  5
D0
330
1F
100
AcDbEntity
  8
0
  6
Continuous
 62
     7
370
    15
100
AcDbCircle
 10
154.933502886
 20
143.8557315669
 30
0.0
 40
1.000000000000028
100
AcDbArc
 50
270.0
 51
293.0
  0
LINE
  5
D1
330
1F
100
AcDbEntity
  8
0
  6
Continuous
 62
     7
370
    15
100
AcDbLine
 10
155.3242338724
 20
142.9352271727
 30
0.0
 11
156.3010627306
 21
140.6339644811
 31
0.0
  0
LINE
  5
D2
330
1F
100
AcDbEntity
  8
0
  6
Continuous
 62
     7
370
    15
100
AcDbLine
 10
154.9335030741
 20
140.3557318619
 30
0.0
 11
154.9335030741
 21
142.8557313404
 31
0.0
  0
ARC
  5
D3
330
1F
100
AcDbEntity
  8
0
  6
Continuous
 62
     7
370
    15
100
AcDbCircle
 10
154.933502886
 20
143.8557315669
 30
0.0
 40
3.500000000000028
100
AcDbArc
 50
270.0
 51
293.0
  0
LINE
  5
D4
330
1F
100
AcDbEntity
  8
0
  6
Continuous
 62
     7
370
    15
100
AcDbLine
 10
155.3242338724
 20
142.9352271727
 30
0.0
 11
158.4814788676
 21
144.2753984949
 31
0.0
  0
LINE
  5
D5
330
1F
100
AcDbEntity
  8
0
  6
Continuous
 62
     7
370
    15
100
AcDbLine
 10
156.3010627306
 20
140.6339644811
 30
0.0
 11
159.4583077259
 21
141.9741358033
 31
0.0
  0
LINE
  5
D6
330
1F
100
AcDbEntity
  8
0
  6
Continuous
 62
     7
370
    15
100
AcDbLine
 10
111.9455883182
 20
142.8557313404
 30
0.0
 11
111.9455883182
 21
140.3557318619
 31
0.0
  0
LINE
  5
D7
330
1F
100
AcDbEntity
  8
0
  6
Continuous
 62
     7
370
    15
100
AcDbLine
 10
111.9455883182
 20
142.8557313404
 30
0.0
 11
154.9335030741
 21
142.8557313404
 31
0.0
  0
LINE
  5
D8
330
1F
100
AcDbEntity
  8
0
  6
Continuous
 62
     7
370
    15
100
AcDbLine
 10
111.9455883182
 20
140.3557318619
 30
0.0
 11
154.9335030741
 21
140.3557318619
 31
0.0
  0
LINE
  5
D9
330
1F
100
AcDbEntity
  8
0
  6
Continuous
 62
     7
370
    15
100
AcDbLine
 10
110.9455862916
 20
159.0557317606
 30
0.0
 11
108.4455886758
 21
159.0557317606
 31
0.0
  0
LINE
  5
DA
330
1F
100
AcDbEntity
  8
0
  6
Continuous
 62
     7
370
    15
100
AcDbLine
 10
110.9455862916
 20
159.0557317606
 30
0.0
 11
110.9455862916
 21
143.8557315043
 31
0.0
  0
ARC
  5
DB
330
1F
100
AcDbEntity
  8
0
  6
Continuous
 62
     7
370
    15
100
AcDbCircle
 10
111.945585934
 20
143.8557315669
 30
0.0
 40
1.0
100
AcDbArc
 50
180.0
 51
270.0
  0
ARC
  5
DC
330
1F
100
AcDbEntity
  8
0
  6
Continuous
 62
     7
370
    15
100
AcDbCircle
 10
111.945585934
 20
143.8557315669
 30
0.0
 40
3.5
100
AcDbArc
 50
180.0
 51
270.0
  0
LINE
  5
DD
330
1F
100
AcDbEntity
  8
0
  6
Continuous
 62
     7
370
    15
100
AcDbLine
 10
108.4455886758
 20
159.0557317606
 30
0.0
 11
108.4455886758
 21
143.8557315043
 31
0.0
  0
LINE
  5
DE
330
1F
100
AcDbEntity
  8
0
  6
Continuous
 62
     7
370
    15
100
AcDbLine
 10
110.9455862916
 20
169.0557315371
 30
0.0
 11
108.4455886758
 21
169.0557315371
 31
0.0
  0
LINE
  5
DF
330
1F
100
AcDbEntity
  8
0
  6
Continuous
 62
     7
370
    15
100
AcDbLine
 10
110.9455862916
 20
159.0557317606
 30
0.0
 11
110.9455862916
 21
169.0557315371
 31
0.0
  0
LINE
  5
E0
330
1F
100
AcDbEntity
  8
0
  6
Continuous
 62
     7
370
    15
100
AcDbLine
 10
108.4455886758
 20
159.0557317606
 30
0.0
 11
108.4455886758
 21
169.0557315371
 31
0.0
  0
LINE
  5
E1
330
1F
100
AcDbEntity
  8
0
  6
Continuous
 62
     7
370
    15
100
AcDbLine
 10
176.945585934
 20
143.0557310006
 30
0.0
 11
178.145585991
 21
143.0557310006
 31
0.0
  0
LINE
  5
E2
330
1F
100
AcDbEntity
  8
0
  6
Continuous
 62
     7
370
    15
100
AcDbLine
 10
178.145585991
 20
177.0557319171
 30
0.0
 11
176.945585934
 21
177.0557319171
 31
0.0
  0
LINE
  5
E3
330
1F
100
AcDbEntity
  8
0
  6
Continuous
 62
     7
370
    15
100
AcDbLine
 10
178.145585991
 20
143.0557310006
 30
0.0
 11
178.145585991
 21
177.0557319171
 31
0.0
  0
LINE
  5
E4
330
1F
100
AcDbEntity
  8
0
  6
Continuous
 62
     7
370
    15
100
AcDbLine
 10
176.945585934
 20
143.0557310006
 30
0.0
 11
176.945585934
 21
177.0557319171
 31
0.0
  0
LINE
  5
E5
330
1F
100
AcDbEntity
  8
0
  6
Continuous
 62
     7
370
    15
100
AcDbLine
 10
165.14558549
 20
140.8557310126
 30
0.0
 11
165.14558549
 21
142.0536316356
 31
0.0
  0
LINE
  5
E6
330
1F
100
AcDbEntity
  8
0
  6
Continuous
 62
     7
370
    15
100
AcDbLine
 10
166.1455856539
 20
142.0557308367
 30
0.0
 11
166.1455856539
 21
140.8557310126
 31
0.0
  0
LINE
  5
E7
330
1F
100
AcDbEntity
  8
0
  6
Continuous
 62
     7
370
    15
100
AcDbLine
 10
166.1455856539
 20
140.8557310126
 30
0.0
 11
165.14558549
 21
140.8557310126
 31
0.0
  0
LINE
  5
E8
330
1F
100
AcDbEntity
  8
0
  6
Continuous
 62
     7
370
    15
100
AcDbLine
 10
175.9455858865
 20
140.8557310126
 30
0.0
 11
175.9455858865
 21
142.0557308367
 31
0.0
  0
LINE
  5
E9
330
1F
100
AcDbEntity
  8
0
  6
Continuous
 62
     7
370
    15
100
AcDbLine
 10
166.1455856539
 20
140.8557310126
 30
0.0
 11
175.9455858865
 21
140.8557310126
 31
0.0
  0
LINE
  5
EA
330
1F
100
AcDbEntity
  8
0
  6
Continuous
 62
     7
370
    15
100
AcDbLine
 10
166.1455856539
 20
142.0557308367
 30
0.0
 11
175.9455858865
 21
142.0557308367
 31
0.0
  0
ARC
  5
EB
330
1F
100
AcDbEntity
  8
0
  6
Continuous
 62
     7
370
    15
100
AcDbCircle
 10
175.945585934
 20
143.0557315669
 30
0.0
 40
1.0
100
AcDbArc
 50
270.0
 51
0.0
  0
ARC
  5
EC
330
1F
100
AcDbEntity
  8
0
  6
Continuous
 62
     7
370
    15
100
AcDbCircle
 10
175.945585934
 20
143.0557315669
 30
0.0
 40
2.200000000000017
100
AcDbArc
 50
270.0
 51
0.0
  0
LINE
  5
ED
330
1F
100
AcDbEntity
  8
0
  6
Continuous
 62
     7
370
    15
100
AcDbLine
 10
176.945585934
 20
181.0557316414
 30
0.0
 11
178.145585991
 21
181.0557316414
 31
0.0
  0
LINE
  5
EE
330
1F
100
AcDbEntity
  8
0
  6
Continuous
 62
     7
370
    15
100
AcDbLine
 10
176.945585934
 20
177.0557319171
 30
0.0
 11
176.945585934
 21
181.0557316414
 31
0.0
  0
LWPOLYLINE
  5
EF
330
1F
100
AcDbEntity
  8
0
  6
Continuous
 62
     7
370
    15
100
AcDbPolyline
 90
        5
 70
   128
 43
0.0
 10
113.9455849207
 20
155.5557311869
 10
114.1616964615
 20
155.3396215088
 10
114.318568436
 20
155.182748603
 10
114.4137048996
 20
155.0876130706
 10
114.445585934
 20
155.0557311049
  0
LINE
  5
F0
330
1F
100
AcDbEntity
  8
0
  6
Continuous
 62
     7
370
    15
100
AcDbLine
 10
111.2455839194
 20
155.5557311869
 30
0.0
 11
113.9455849207
 21
155.5557311869
 31
0.0
  0
LINE
  5
F1
330
1F
100
AcDbEntity
  8
0
  6
Continuous
 62
     7
370
    15
100
AcDbLine
 10
111.2455839194
 20
162.5557315194
 30
0.0
 11
111.2455839194
 21
161.0557316228
 31
0.0
  0
LINE
  5
F2
330
1F
100
AcDbEntity
  8
0
  6
Continuous
 62
     7
370
    15
100
AcDbLine
 10
111.2455839194
 20
157.0557314328
 30
0.0
 11
111.2455839194
 21
155.5557311869
 31
0.0
  0
LINE
  5
F3
330
1F
100
AcDbEntity
  8
0
  6
Continuous
 62
     7
370
    15
100
AcDbLine
 10
113.9455849207
 20
162.5557315194
 30
0.0
 11
111.2455839194
 21
162.5557315194
 31
0.0
  0
LWPOLYLINE
  5
F4
330
1F
100
AcDbEntity
  8
0
  6
Continuous
 62
     7
370
    15
100
AcDbPolyline
 90
        5
 70
   128
 43
0.0
 10
114.445585934
 20
163.0557315431
 10
114.4137048996
 20
163.0238503341
 10
114.318568436
 20
162.9287149182
 10
114.1616964615
 20
162.7718417796
 10
113.9455849207
 20
162.5557315194
  0
LINE
  5
F5
330
1F
100
AcDbEntity
  8
0
  6
Continuous
 62
     7
370
    15
100
AcDbLine
 10
110.9455862916
 20
162.5557315194
 30
0.0
 11
111.2455839194
 21
162.5557315194
 31
0.0
  0
LINE
  5
F6
330
1F
100
AcDbEntity
  8
0
  6
Continuous
 62
     7
370
    15
100
AcDbLine
 10
111.2455839194
 20
155.5557311869
 30
0.0
 11
110.9455862916
 21
155.5557311869
 31
0.0
  0
LINE
  5
F7
330
1F
100
AcDbEntity
  8
0
  6
Continuous
 62
     7
370
    15
100
AcDbLine
 10
136.4455858148
 20
177.0557319171
 30
0.0
 11
132.4455851592
 21
177.0557319171
 31
0.0
  0
LINE
  5
F8
330
1F
100
AcDbEntity
  8
0
  6
Continuous
 62
     7
370
    15
100
AcDbLine
 10
136.4455858148
 20
150.0557312167
 30
0.0
 11
136.4455858148
 21
177.0557319171
 31
0.0
  0
LINE
  5
F9
330
1F
100
AcDbEntity
  8
0
  6
Continuous
 62
     7
370
    15
100
AcDbLine
 10
132.4455851592
 20
150.0557312167
 30
0.0
 11
136.4455858148
 21
150.0557312167
 31
0.0
  0
LINE
  5
FA
330
1F
100
AcDbEntity
  8
0
  6
Continuous
 62
     7
370
    15
100
AcDbLine
 10
132.4455851592
 20
150.0557312167
 30
0.0
 11
132.4455851592
 21
156.1666364207
 31
0.0
  0
LINE
  5
FB
330
1F
100
AcDbEntity
  8
0
  6
Continuous
 62
     7
370
    15
100
AcDbLine
 10
132.4455851592
 20
156.1666364207
 30
0.0
 11
129.4455865301
 21
156.1666364207
 31
0.0
  0
LINE
  5
FC
330
1F
100
AcDbEntity
  8
0
  6
Continuous
 62
     7
370
    15
100
AcDbLine
 10
129.4455865301
 20
156.1666364207
 30
0.0
 11
129.4455865301
 21
170.9448267131
 31
0.0
  0
LINE
  5
FD
330
1F
100
AcDbEntity
  8
0
  6
Continuous
 62
     7
370
    15
100
AcDbLine
 10
132.4455851592
 20
170.9448267131
 30
0.0
 11
129.4455865301
 21
170.9448267131
 31
0.0
  0
LINE
  5
FE
330
1F
100
AcDbEntity
  8
0
  6
Continuous
 62
     7
370
    15
100
AcDbLine
 10
132.4455851592
 20
170.9448267131
 30
0.0
 11
132.4455851592
 21
177.0557319171
 31
0.0
  0
LINE
  5
FF
330
1F
100
AcDbEntity
  8
0
  6
Continuous
 62
     7
370
    15
100
AcDbLine
 10
132.4455851592
 20
181.0557316414
 30
0.0
 11
136.4455858148
 21
181.0557316414
 31
0.0
  0
LINE
  5
100
330
1F
100
AcDbEntity
  8
0
  6
Continuous
 62
     7
370
    15
100
AcDbLine
 10
136.4455858148
 20
181.0557316414
 30
0.0
 11
136.4455858148
 21
177.0557319171
 31
0.0
  0
LINE
  5
101
330
1F
100
AcDbEntity
  8
0
  6
Continuous
 62
     7
370
    15
100
AcDbLine
 10
132.4455851592
 20
177.0557319171
 30
0.0
 11
132.4455851592
 21
181.0557316414
 31
0.0
  0
LINE
  5
102
330
1F
100
AcDbEntity
  8
0
  6
Continuous
 62
     7
370
    15
100
AcDbLine
 10
136.4455858148
 20
150.0557312167
 30
0.0
 11
136.4455858148
 21
146.0557314924
 31
0.0
  0
LINE
  5
103
330
1F
100
AcDbEntity
  8
0
  6
Continuous
 62
     7
370
    15
100
AcDbLine
 10
136.4455858148
 20
146.0557314924
 30
0.0
 11
132.4455851592
 21
146.0557314924
 31
0.0
  0
LINE
  5
104
330
1F
100
AcDbEntity
  8
0
  6
Continuous
 62
     7
370
    15
100
AcDbLine
 10
132.4455851592
 20
146.0557314924
 30
0.0
 11
132.4455851592
 21
150.0557312167
 31
0.0
  0
LINE
  5
105
330
1F
100
AcDbEntity
  8
0
  6
Continuous
 62
     7
370
    15
100
AcDbLine
 10
132.4455851592
 20
153.2550347394
 30
0.0
 11
129.4455865301
 21
153.2550347394
 31
0.0
  0
LINE
  5
106
330
1F
100
AcDbEntity
  8
0
  6
Continuous
 62
     7
370
    15
100
AcDbLine
 10
129.4455865301
 20
156.1666364207
 30
0.0
 11
129.4455865301
 21
153.2550347394
 31
0.0
  0
LINE
  5
107
330
1F
100
AcDbEntity
  8
0
  6
Continuous
 62
     7
370
    15
100
AcDbLine
 10
132.4455851592
 20
173.8564283944
 30
0.0
 11
129.4455865301
 21
173.8564283944
 31
0.0
  0
LINE
  5
108
330
1F
100
AcDbEntity
  8
0
  6
Continuous
 62
     7
370
    15
100
AcDbLine
 10
129.4455865301
 20
173.8564283944
 30
0.0
 11
129.4455865301
 21
170.9448267131
 31
0.0
  0
LINE
  5
109
330
1F
100
AcDbEntity
  8
0
  6
Continuous
 62
     7
370
    15
100
AcDbLine
 10
129.4455865301
 20
153.2550347394
 30
0.0
 11
129.4455865301
 21
152.6557314566
 31
0.0
  0
LINE
  5
10A
330
1F
100
AcDbEntity
  8
0
  6
Continuous
 62
     7
370
    15
100
AcDbLine
 10
129.4455865301
 20
174.4557316772
 30
0.0
 11
129.4455865301
 21
173.8564283944
 31
0.0
  0
LINE
  5
10B
330
1F
100
AcDbEntity
  8
0
  6
Continuous
 62
     7
370
    15
100
AcDbLine
 10
114.9455869473
 20
159.0557317606
 30
0.0
 11
114.9455869473
 21
169.0557315371
 31
0.0
  0
LINE
  5
10C
330
1F
100
AcDbEntity
  8
0
  6
Continuous
 62
     7
370
    15
100
AcDbLine
 10
114.9455869473
 20
149.0557319841
 30
0.0
 11
114.9455869473
 21
159.0557317606
 31
0.0
  0
LINE
  5
10D
330
1F
100
AcDbEntity
  8
0
  6
Continuous
 62
     7
370
    15
100
AcDbLine
 10
132.4455851592
 20
146.0557314924
 30
0.0
 11
129.4455865301
 21
146.0557314924
 31
0.0
  0
SPLINE
  5
10E
330
1F
100
AcDbEntity
  8
0
  6
Continuous
 62
     7
370
    15
100
AcDbSpline
210
0.0
220
0.0
230
1.0
 70
    24
 71
     3
 72
    11
 73
     7
 74
     0
 42
0.00000001
 43
0.00000001
 12
1.0
 22
0.0
 32
0.0
 13
1.0
 23
0.0
 33
0.0
 40
0.0
 40
0.0
 40
0.0
 40
0.0
 40
0.2536027224292522
 40
0.4839284228989782
 40
0.7355668660786313
 40
0.9999999999999999
 40
0.9999999999999999
 40
0.9999999999999999
 40
0.9999999999999999
 10
129.4455865300609
 20
147.4124468288191
 30
0.0
 10
129.4455865300609
 20
147.2318170798728
 30
0.0
 10
129.4455865300609
 20
146.8871367519217
 30
0.0
 10
129.4455865300609
 20
146.558684066104
 30
0.0
 10
129.4455865300609
 20
146.2924913713134
 30
0.0
 10
129.4455865300609
 20
146.1359451744854
 30
0.0
 10
129.4455865300609
 20
146.0557314923771
 30
0.0
  0
LINE
  5
10F
330
1F
100
AcDbEntity
  8
0
  6
Continuous
 62
     7
370
    15
100
AcDbLine
 10
132.4455851592
 20
181.0557316414
 30
0.0
 11
129.4455865301
 21
181.0557316414
 31
0.0
  0
SPLINE
  5
110
330
1F
100
AcDbEntity
  8
0
  6
Continuous
 62
     7
370
    15
100
AcDbSpline
210
0.0
220
0.0
230
1.0
 70
    24
 71
     3
 72
    11
 73
     7
 74
     0
 42
0.00000001
 43
0.00000001
 12
1.0
 22
0.0
 32
0.0
 13
1.0
 23
0.0
 33
0.0
 40
0.0
 40
0.0
 40
0.0
 40
0.0
 40
0.3403612626946448
 40
0.6550608911929107
 40
0.9348894017185301
 40
1.0
 40
1.0
 40
1.0
 40
1.0
 10
129.4455865300606
 20
181.0557316413887
 30
0.0
 10
129.4455865300606
 20
180.9542987015675
 30
0.0
 10
129.4455865300606
 20
180.7590803872694
 30
0.0
 10
129.4455865300606
 20
180.402947390891
 30
0.0
 10
129.4455865300606
 20
180.0456272624775
 30
0.0
 10
129.4455865300606
 20
179.7825755866456
 30
0.0
 10
129.4455865300606
 20
179.7329220345982
 30
0.0
  0
LINE
  5
111
330
1F
100
AcDbEntity
  8
0
  6
Continuous
 62
     7
370
    15
100
AcDbLine
 10
138.4455861426
 20
177.0557319171
 30
0.0
 11
136.4455858148
 21
177.0557319171
 31
0.0
  0
LINE
  5
112
330
1F
100
AcDbEntity
  8
0
  6
Continuous
 62
     7
370
    15
100
AcDbLine
 10
136.4455858148
 20
150.0557312167
 30
0.0
 11
138.4455861426
 21
150.0557312167
 31
0.0
  0
LINE
  5
113
330
1F
100
AcDbEntity
  8
0
  6
Continuous
 62
     7
370
    15
100
AcDbLine
 10
138.4455861426
 20
150.0557312167
 30
0.0
 11
138.4455861426
 21
177.0557319171
 31
0.0
  0
LINE
  5
114
330
1F
100
AcDbEntity
  8
0
  6
Continuous
 62
     7
370
    15
100
AcDbLine
 10
138.4455861426
 20
146.0557314924
 30
0.0
 11
136.4455858148
 21
146.0557314924
 31
0.0
  0
LINE
  5
115
330
1F
100
AcDbEntity
  8
0
  6
Continuous
 62
     7
370
    15
100
AcDbLine
 10
138.4455861426
 20
150.0557312167
 30
0.0
 11
138.4455861426
 21
146.0557314924
 31
0.0
  0
LINE
  5
116
330
1F
100
AcDbEntity
  8
0
  6
Continuous
 62
     7
370
    15
100
AcDbLine
 10
136.4455858148
 20
181.0557316414
 30
0.0
 11
138.4455861426
 21
181.0557316414
 31
0.0
  0
LINE
  5
117
330
1F
100
AcDbEntity
  8
0
  6
Continuous
 62
     7
370
    15
100
AcDbLine
 10
138.4455861426
 20
181.0557316414
 30
0.0
 11
138.4455861426
 21
177.0557319171
 31
0.0
  0
LINE
  5
118
330
1F
100
AcDbEntity
  8
0
  6
Continuous
 62
     7
370
    15
100
AcDbLine
 10
138.4455861426
 20
176.5557318351
 30
0.0
 11
138.9455871559
 21
176.5557318351
 31
0.0
  0
LINE
  5
119
330
1F
100
AcDbEntity
  8
0
  6
Continuous
 62
     7
370
    15
100
AcDbLine
 10
138.4455861426
 20
180.5557324908
 30
0.0
 11
138.9455871559
 21
180.5557324908
 31
0.0
  0
LINE
  5
11A
330
1F
100
AcDbEntity
  8
0
  6
Continuous
 62
     7
370
    15
100
AcDbLine
 10
138.4455861426
 20
150.5557312987
 30
0.0
 11
138.9455871559
 21
150.5557312987
 31
0.0
  0
LINE
  5
11B
330
1F
100
AcDbEntity
  8
0
  6
Continuous
 62
     7
370
    15
100
AcDbLine
 10
138.4455861426
 20
146.555730643
 30
0.0
 11
138.9455871559
 21
146.555730643
 31
0.0
  0
LINE
  5
11C
330
1F
100
AcDbEntity
  8
0
  6
Continuous
 62
     7
370
    15
100
AcDbLine
 10
176.945585934
 20
177.0557319171
 30
0.0
 11
138.9455871559
 21
177.0557319171
 31
0.0
  0
LINE
  5
11D
330
1F
100
AcDbEntity
  8
0
  6
Continuous
 62
     7
370
    15
100
AcDbLine
 10
176.945585934
 20
150.0557312167
 30
0.0
 11
176.945585934
 21
177.0557319171
 31
0.0
  0
LINE
  5
11E
330
1F
100
AcDbEntity
  8
0
  6
Continuous
 62
     7
370
    15
100
AcDbLine
 10
138.9455871559
 20
150.0557312167
 30
0.0
 11
176.945585934
 21
150.0557312167
 31
0.0
  0
LINE
  5
11F
330
1F
100
AcDbEntity
  8
0
  6
Continuous
 62
     7
370
    15
100
AcDbLine
 10
138.9455871559
 20
150.0557312167
 30
0.0
 11
138.9455871559
 21
177.0557319171
 31
0.0
  0
LINE
  5
120
330
1F
100
AcDbEntity
  8
0
  6
Continuous
 62
     7
370
    15
100
AcDbLine
 10
176.945585934
 20
146.0557314924
 30
0.0
 11
175.5210718275
 21
146.0557314924
 31
0.0
  0
LINE
  5
121
330
1F
100
AcDbEntity
  8
0
  6
Continuous
 62
     7
370
    15
100
AcDbLine
 10
161.3700996987
 20
146.0557314924
 30
0.0
 11
138.9455871559
 21
146.0557314924
 31
0.0
  0
LINE
  5
122
330
1F
100
AcDbEntity
  8
0
  6
Continuous
 62
     7
370
    15
100
AcDbLine
 10
138.9455871559
 20
146.0557314924
 30
0.0
 11
138.9455871559
 21
150.0557312167
 31
0.0
  0
LINE
  5
123
330
1F
100
AcDbEntity
  8
0
  6
Continuous
 62
     7
370
    15
100
AcDbLine
 10
138.9455871559
 20
181.0557316414
 30
0.0
 11
176.945585934
 21
181.0557316414
 31
0.0
  0
LINE
  5
124
330
1F
100
AcDbEntity
  8
0
  6
Continuous
 62
     7
370
    15
100
AcDbLine
 10
138.9455871559
 20
177.0557319171
 30
0.0
 11
138.9455871559
 21
181.0557316414
 31
0.0
  0
LINE
  5
125
330
1F
100
AcDbEntity
  8
0
  6
Continuous
 62
     7
370
    15
100
AcDbLine
 10
117.2455849029
 20
171.0557313992
 30
0.0
 11
117.2455849029
 21
179.0557313136
 31
0.0
  0
LINE
  5
126
330
1F
100
AcDbEntity
  8
0
  6
Continuous
 62
     7
370
    15
100
AcDbLine
 10
116.3455845691
 20
171.2057316101
 30
0.0
 11
116.3455845691
 21
178.9057315684
 31
0.0
  0
LINE
  5
127
330
1F
100
AcDbEntity
  8
0
  6
Continuous
 62
     7
370
    15
100
AcDbLine
 10
114.8455852545
 20
171.2057316101
 30
0.0
 11
114.8455852545
 21
178.9057315684
 31
0.0
  0
LINE
  5
128
330
1F
100
AcDbEntity
  8
0
  6
Continuous
 62
     7
370
    15
100
AcDbLine
 10
96.2455833233
 20
155.0557311049
 30
0.0
 11
96.2455833233
 21
163.0557315431
 31
0.0
  0
LINE
  5
129
330
1F
100
AcDbEntity
  8
0
  6
Continuous
 62
     7
370
    15
100
AcDbLine
 10
95.3455829895
 20
155.2057317815
 30
0.0
 11
95.3455829895
 21
162.9057315651
 31
0.0
  0
LINE
  5
12A
330
1F
100
AcDbEntity
  8
0
  6
Continuous
 62
     7
370
    15
100
AcDbLine
 10
93.8455874003
 20
155.2057317815
 30
0.0
 11
93.8455874003
 21
162.9057315651
 31
0.0
  0
LINE
  5
12B
330
1F
100
AcDbEntity
  8
0
  6
Continuous
 62
     8
370
    15
100
AcDbLine
 10
186.2455859683
 20
157.2557315587
 30
0.0
 11
186.2455859683
 21
154.8942714355
 31
0.0
  0
LINE
  5
12C
330
1F
100
AcDbEntity
  8
0
  6
Continuous
 62
     8
370
    15
100
AcDbLine
 10
179.8455858971
 20
191.2885844133
 30
0.0
 11
179.5455859411
 21
191.2886030397
 31
0.0
  0
LINE
  5
12D
330
1F
100
AcDbEntity
  8
0
  6
Continuous
 62
     8
370
    15
100
AcDbLine
 10
129.5955853439
 20
179.8057309708
 30
0.0
 11
129.5955853439
 21
174.305731932
 31
0.0
  0
LINE
  5
12E
330
1F
100
AcDbEntity
  8
0
  6
Continuous
 62
     8
370
    15
100
AcDbLine
 10
129.5955853439
 20
152.8057312018
 30
0.0
 11
129.5955853439
 21
147.3057321629
 31
0.0
  0
LINE
  5
12F
330
1F
100
AcDbEntity
  8
0
  6
CENTERX2
 62
     7
370
     0
100
AcDbLine
 10
176.045585934
 20
181.0557315669
 30
0.0
 11
176.045585934
 21
211.0055918304
 31
0.0
  0
ARC
  5
130
330
1F
100
AcDbEntity
  8
0
  6
Continuous
 62
     7
370
     0
100
AcDbCircle
 10
167.045585934
 20
198.7357315669
 30
0.0
 40
18.00000000001023
100
AcDbArc
 50
32.2377641178
 51
42.9734120166
  0
ARC
  5
131
330
1F
100
AcDbEntity
  8
0
  6
CENTERX2
 62
     7
370
     0
100
AcDbCircle
 10
162.9110494563
 20
198.6977101477
 30
0.0
 40
18.00000000000992
100
AcDbArc
 50
26.315939122
 51
43.1390458199
  0
DIMENSION
  5
132
330
1F
100
AcDbEntity
  8
0
  6
Continuous
 62
     7
370
     0
100
AcDbDimension
  2
_D
 10
176.045585934
 20
251.1629040202
 30
0.0
 11
177.545585934
 21
251.1629040202
 31
0.0
 70
   160
  1
Maxストローク  <>
 71
     2
 42
-1.0
  3
SLDDIMSTYLE0
100
AcDbAlignedDimension
 13
179.045585934
 23
211.1628041301
 33
0.0
 14
176.045585934
 24
211.0055918304
 34
0.0
100
AcDbRotatedDimension
  0
DIMENSION
  5
14A
330
1F
100
AcDbEntity
  8
0
  6
Continuous
 62
     7
370
     0
100
AcDbDimension
  2
_D_1
 10
150.945585934
 20
251.1629040202
 30
0.0
 11
163.495585934
 21
251.1629040202
 31
0.0
 70
   160
  1
(<>)
 71
     2
 42
-1.0
  3
SLDDIMSTYLE1
100
AcDbAlignedDimension
 13
176.045585934
 23
211.0055918304
 33
0.0
 14
150.945585934
 24
144.8557315669
 34
0.0
 50
0.0
100
AcDbRotatedDimension
  0
DIMENSION
  5
157
330
1F
100
AcDbEntity
  8
0
  6
Continuous
 62
     7
370
     0
100
AcDbDimension
  2
_D_2
 10
188.645585934
 20
113.8449955924
 30
0.0
 11
141.245585934
 21
113.8449955924
 31
0.0
 70
   160
  1
(<>)
 71
     2
 42
-1.0
  3
SLDDIMSTYLE1
100
AcDbAlignedDimension
 13
93.845585934
 23
155.2057315669
 33
0.0
 14
188.645585934
 24
157.2557315669
 34
0.0
 50
0.0
100
AcDbRotatedDimension
  0
DIMENSION
  5
163
330
1F
100
AcDbEntity
  8
0
  6
Continuous
 62
     7
370
     0
100
AcDbDimension
  2
_D_3
 10
188.645585934
 20
123.1893103702
 30
0.0
 11
148.545585934
 21
123.1893103702
 31
0.0
 70
   160
  1
(<>)
 71
     2
 42
-1.0
  3
SLDDIMSTYLE1
100
AcDbAlignedDimension
 13
108.445585934
 23
143.8557315669
 33
0.0
 14
188.645585934
 24
157.2557315669
 34
0.0
 50
0.0
100
AcDbRotatedDimension
  0
DIMENSION
  5
16F
330
1F
100
AcDbEntity
  8
0
  6
Continuous
 62
     7
370
     0
100
AcDbDimension
  2
_D_4
 10
86.6857209969
 20
140.3557315669
 30
0.0
 11
86.6857209969
 21
149.7057315669
 31
0.0
 70
   160
  1
<>
 71
     2
 42
-1.0
  3
SLDDIMSTYLE1
100
AcDbAlignedDimension
 13
91.2592117132
 23
159.0557315669
 33
0.0
 14
111.945585934
 24
140.3557315669
 34
0.0
 50
90.0
100
AcDbRotatedDimension
  0
DIMENSION
  5
179
330
1F
100
AcDbEntity
  8
0
  6
Continuous
 62
     7
370
     0
100
AcDbDimension
  2
_D_5
 10
80.4965233276
 20
140.3557315669
 30
0.0
 11
80.4965233276
 21
157.7057315669
 31
0.0
 70
   160
  1
<>
 71
     2
 42
-1.0
  3
SLDDIMSTYLE1
100
AcDbAlignedDimension
 13
117.9395563732
 23
175.0557315669
 33
0.0
 14
111.945585934
 24
140.3557315669
 34
0.0
 50
90.0
100
AcDbRotatedDimension
  0
DIMENSION
  5
183
330
1F
100
AcDbEntity
  8
0
  6
Continuous
 62
     7
370
     0
100
AcDbDimension
  2
_D_6
 10
150.945585934
 20
133.2751586099
 30
0.0
 11
145.945585934
 21
133.2751586099
 31
0.0
 70
   160
  1
<>
 71
     2
 42
-1.0
  3
SLDDIMSTYLE1
100
AcDbAlignedDimension
 13
140.945585934
 23
138.3557315669
 33
0.0
 14
150.945585934
 24
138.3557315669
 34
0.0
 50
0.0
100
AcDbRotatedDimension
  0
DIMENSION
  5
18D
330
1F
100
AcDbEntity
  8
0
  6
Continuous
 62
     7
370
     0
100
AcDbDimension
  2
_D_7
 10
188.645585934
 20
133.2751586099
 30
0.0
 11
169.795585934
 21
133.2751586099
 31
0.0
 70
   160
  1
<>
 71
     2
 42
-1.0
  3
SLDDIMSTYLE1
100
AcDbAlignedDimension
 13
150.945585934
 23
138.3557315669
 33
0.0
 14
188.645585934
 24
157.2557315669
 34
0.0
 50
0.0
100
AcDbRotatedDimension
  0
DIMENSION
  5
197
330
1F
100
AcDbEntity
  8
0
  6
Continuous
 62
     7
370
     0
100
AcDbDimension
  2
_D_8
 10
188.645585934
 20
251.1629040202
 30
0.0
 11
183.845585934
 21
251.1629040202
 31
0.0
 70
   160
  1
<>
 71
     2
 42
-1.0
  3
SLDDIMSTYLE2
100
AcDbAlignedDimension
 13
179.045585934
 23
211.1628041301
 33
0.0
 14
188.645585934
 24
193.0557315669
 34
0.0
 50
0.0
100
AcDbRotatedDimension
  0
DIMENSION
  5
1A2
330
1F
100
AcDbEntity
  8
0
  6
Continuous
 62
     7
370
     0
100
AcDbDimension
  2
_D_9
 10
195.0239146797
 20
140.3557315669
 30
0.0
 11
195.0239146797
 21
175.7592678485
 31
0.0
 70
   160
  1
<>
 71
     2
 42
-1.0
  3
SLDDIMSTYLE1
100
AcDbAlignedDimension
 13
179.045585934
 23
211.1628041301
 33
0.0
 14
154.933502886
 24
140.3557315669
 34
0.0
 50
90.0
100
AcDbRotatedDimension
  0
MTEXT
  5
1AC
330
1F
100
AcDbEntity
  8
0
  6
Continuous
 62
     7
370
     0
100
AcDbMText
 10
103.9386039452
 20
194.1322252213
 30
0.0
 40
2.9104166667
 41
0.0
 71
     1
 72
     1
  1
KQ2S04-M5N
  7
SLDTEXTSTYLE0
 73
     1
 44
1.0
  0
INSERT
  5
1B7
330
1F
100
AcDbEntity
  8
0
  6
Continuous
 62
     7
370
     0
100
AcDbBlockReference
  2
SW_NOTE_0
 10
127.9015240328
 20
194.3728018757
 30
0.0
  0
LEADER
  5
1B9
330
1F
100
AcDbEntity
  8
0
  6
Continuous
 62
     7
370
     0
100
AcDbLeader
  3
SLDDIMSTYLE3
 76
     2
 10
127.7407308619
 20
176.986469839
 30
0.0
 10
127.9015240328
 20
194.3728018757
 30
0.0
  0
INSERT
  5
1C4
330
1F
100
AcDbEntity
  8
0
  6
Continuous
 62
     7
370
     0
100
AcDbBlockReference
  2
SW_NOTE_1
 10
84.5369726709
 20
204.9841734412
 30
0.0
  0
INSERT
  5
1C5
330
1F
100
AcDbEntity
  8
0
  6
Continuous
 62
     7
370
     0
100
AcDbBlockReference
  2
_DOT
 10
101.9574258697
 20
161.5374634442
 30
3.1370379164
 41
3.0
 42
3.0
 50
269.9534345996
  0
LINE
  5
1C6
330
1F
100
AcDbEntity
  8
0
  6
Continuous
 62
     7
370
     0
100
AcDbLine
 10
101.9574258697
 20
161.5374634442
 30
0.0
 11
101.9929660023
 21
205.2673388042
 31
0.0
  0
LINE
  5
1C7
330
1F
100
AcDbEntity
  8
0
  6
CENTERX2
 62
     7
370
     0
100
AcDbLine
 10
100.8783500821
 20
159.0557315669
 30
0.0
 11
91.2592117132
 21
159.0557315669
 31
0.0
  0
LINE
  5
1C8
330
1F
100
AcDbEntity
  8
0
  6
CENTERX2
 62
     7
370
     0
100
AcDbLine
 10
140.945585934
 20
144.8557315669
 30
0.0
 11
140.945585934
 21
138.3557315669
 31
0.0
  0
LINE
  5
1C9
330
1F
100
AcDbEntity
  8
0
  6
CENTERX2
 62
     7
370
     0
100
AcDbLine
 10
150.945585934
 20
138.3557315669
 30
0.0
 11
150.945585934
 21
144.8557315669
 31
0.0
  0
LINE
  5
1CA
330
1F
100
AcDbEntity
  8
0
  6
Continuous
 62
     7
370
    15
100
AcDbLine
 10
59.7461139401
 20
182.0557318053
 30
0.0
 11
58.1461138641
 21
182.0557318053
 31
0.0
  0
LINE
  5
1CB
330
1F
100
AcDbEntity
  8
0
  6
Continuous
 62
     7
370
    15
100
AcDbLine
 10
59.7461139401
 20
177.0557319171
 30
0.0
 11
59.7461139401
 21
182.0557318053
 31
0.0
  0
LINE
  5
1CC
330
1F
100
AcDbEntity
  8
0
  6
Continuous
 62
     7
370
    15
100
AcDbLine
 10
31.7461130758
 20
182.0557318053
 30
0.0
 11
33.3461131518
 21
182.0557318053
 31
0.0
  0
LINE
  5
1CD
330
1F
100
AcDbEntity
  8
0
  6
Continuous
 62
     7
370
    15
100
AcDbLine
 10
58.1461138641
 20
180.2557311377
 30
0.0
 11
58.1461138641
 21
182.0557318053
 31
0.0
  0
LINE
  5
1CE
330
1F
100
AcDbEntity
  8
0
  6
Continuous
 62
     7
370
    15
100
AcDbLine
 10
31.7461130758
 20
182.0557318053
 30
0.0
 11
31.7461130758
 21
177.0557319171
 31
0.0
  0
LINE
  5
1CF
330
1F
100
AcDbEntity
  8
0
  6
Continuous
 62
     7
370
    15
100
AcDbLine
 10
33.3461131518
 20
182.0557318053
 30
0.0
 11
33.3461131518
 21
180.2557311377
 31
0.0
  0
ARC
  5
1D0
330
1F
100
AcDbEntity
  8
0
  6
Continuous
 62
     7
370
    15
100
AcDbCircle
 10
45.7461135079
 20
188.3557315669
 30
0.0
 40
7.999999999985278
100
AcDbArc
 50
185.4959657951
 51
245.8531520036
  0
LWPOLYLINE
  5
1D1
330
1F
100
AcDbEntity
  8
0
  6
Continuous
 62
     7
370
    15
100
AcDbPolyline
 90
        3
 70
   128
 43
0.0
 10
37.2925795232
 20
191.3162055782
 10
37.5646337484
 20
189.2289906165
 10
37.7783909058
 20
187.5890358708
  0
ARC
  5
1D2
330
1F
100
AcDbEntity
  8
0
  6
Continuous
 62
     7
370
    15
100
AcDbCircle
 10
67.044573508
 20
195.1657315669
 30
0.0
 40
30.00000000000853
100
AcDbArc
 50
148.1298888405
 51
187.3723779961
  0
LINE
  5
1D3
330
1F
100
AcDbEntity
  8
0
  6
Continuous
 62
     7
370
    15
100
AcDbLine
 10
42.7732936656
 20
211.1627995393
 30
0.0
 11
41.5671564256
 21
211.0055922887
 31
0.0
  0
LINE
  5
1D4
330
1F
100
AcDbEntity
  8
0
  6
Continuous
 62
     7
370
    15
100
AcDbLine
 10
44.7121041212
 20
196.2886280737
 30
0.0
 11
42.7732936656
 21
211.1627995393
 31
0.0
  0
ARC
  5
1D5
330
1F
100
AcDbEntity
  8
0
  6
Continuous
 62
     7
370
    15
100
AcDbCircle
 10
45.746113508
 20
188.3557315669
 30
0.0
 40
8.000000000005475
100
AcDbArc
 50
356.0540666135
 51
97.4263224573
  0
LINE
  5
1D6
330
1F
100
AcDbEntity
  8
0
  6
Continuous
 62
     7
370
    15
100
AcDbLine
 10
53.7271493664
 20
187.8052107415
 30
0.0
 11
53.3116137227
 21
181.0557316414
 31
0.0
  0
CIRCLE
  5
1D7
330
1F
100
AcDbEntity
  8
0
  6
Continuous
 62
     7
370
    15
100
AcDbCircle
 10
45.746113508
 20
188.3557315669
 30
0.0
 40
5.150000000002514
  0
ARC
  5
1D8
330
1F
100
AcDbEntity
  8
0
  6
Continuous
 62
     7
370
    15
100
AcDbCircle
 10
45.746113508
 20
188.3557315669
 30
0.0
 40
8.500000000013047
100
AcDbArc
 50
20.6479582807
 51
82.5736161085
  0
LINE
  5
1D9
330
1F
100
AcDbEntity
  8
0
  6
Continuous
 62
     7
370
    15
100
AcDbLine
 10
49.9251013239
 20
211.0055922887
 30
0.0
 11
48.7189137926
 21
211.1628032646
 31
0.0
  0
LINE
  5
1DA
330
1F
100
AcDbEntity
  8
0
  6
Continuous
 62
     7
370
    15
100
AcDbLine
 10
46.8447574963
 20
196.7844306848
 30
0.0
 11
48.7189137926
 21
211.1628032646
 31
0.0
  0
LINE
  5
1DB
330
1F
100
AcDbEntity
  8
0
  6
Continuous
 62
     7
370
    15
100
AcDbLine
 10
54.1961112609
 20
191.2887408755
 30
0.0
 11
53.700113072
 21
191.3530449739
 31
0.0
  0
ARC
  5
1DC
330
1F
100
AcDbEntity
  8
0
  6
Continuous
 62
     7
370
    15
100
AcDbCircle
 10
24.447683508
 20
195.1657315669
 30
0.0
 40
29.99999999998577
100
AcDbArc
 50
352.5747251718
 51
31.8701079699
  0
ARC
  5
1DD
330
1F
100
AcDbEntity
  8
0
  6
Continuous
 62
     7
370
    15
100
AcDbCircle
 10
45.746113508
 20
188.3557315669
 30
0.0
 40
3.999999999999972
100
AcDbArc
 50
180.0
 51
360.0
  0
ARC
  5
1DE
330
1F
100
AcDbEntity
  8
0
  6
Continuous
 62
     7
370
    15
100
AcDbCircle
 10
45.746113508
 20
188.3557315669
 30
0.0
 40
3.999999999999972
100
AcDbArc
 50
360.0
 51
180.0
  0
ARC
  5
1DF
330
1F
100
AcDbEntity
  8
0
  6
Continuous
 62
     7
370
    15
100
AcDbCircle
 10
45.746113508
 20
188.3557315669
 30
0.0
 40
2.900000000000041
100
AcDbArc
 50
180.0000000001
 51
359.9999999999
  0
ARC
  5
1E0
330
1F
100
AcDbEntity
  8
0
  6
Continuous
 62
     7
370
    15
100
AcDbCircle
 10
45.746113508
 20
188.3557315669
 30
0.0
 40
2.900000000000041
100
AcDbArc
 50
359.9999999999
 51
180.0000000001
  0
ARC
  5
1E1
330
1F
100
AcDbEntity
  8
0
  6
Continuous
 62
     7
370
    15
100
AcDbCircle
 10
45.746113508
 20
188.3557315669
 30
0.0
 40
1.199999999997354
100
AcDbArc
 50
19.4712206343
 51
160.5287793657
  0
LINE
  5
1E2
330
1F
100
AcDbEntity
  8
0
  6
Continuous
 62
     7
370
    15
100
AcDbLine
 10
44.6147426115
 20
188.7557315997
 30
0.0
 11
43.0759076112
 21
188.7557315997
 31
0.0
  0
LINE
  5
1E3
330
1F
100
AcDbEntity
  8
0
  6
Continuous
 62
     7
370
    15
100
AcDbLine
 10
48.4163194047
 20
188.7557315997
 30
0.0
 11
46.8774844044
 21
188.7557315997
 31
0.0
  0
ARC
  5
1E4
330
1F
100
AcDbEntity
  8
0
  6
Continuous
 62
     7
370
    15
100
AcDbCircle
 10
45.746113508
 20
188.3557315669
 30
0.0
 40
2.700000000000196
100
AcDbArc
 50
8.5196242541
 51
171.4803757459
  0
LINE
  5
1E5
330
1F
100
AcDbEntity
  8
0
  6
Continuous
 62
     7
370
    15
100
AcDbLine
 10
43.0759076112
 20
187.955731096
 30
0.0
 11
44.6147426115
 21
187.955731096
 31
0.0
  0
LINE
  5
1E6
330
1F
100
AcDbEntity
  8
0
  6
Continuous
 62
     7
370
    15
100
AcDbLine
 10
46.8774844044
 20
187.955731096
 30
0.0
 11
48.4163194047
 21
187.955731096
 31
0.0
  0
ARC
  5
1E7
330
1F
100
AcDbEntity
  8
0
  6
Continuous
 62
     7
370
    15
100
AcDbCircle
 10
45.746113508
 20
188.3557315669
 30
0.0
 40
1.200000000001203
100
AcDbArc
 50
199.4712206347
 51
340.5287793653
  0
ARC
  5
1E8
330
1F
100
AcDbEntity
  8
0
  6
Continuous
 62
     7
370
    15
100
AcDbCircle
 10
45.746113508
 20
188.3557315669
 30
0.0
 40
2.700000000000104
100
AcDbArc
 50
188.5196242541
 51
351.4803757459
  0
ARC
  5
1E9
330
1F
100
AcDbEntity
  8
0
  6
Continuous
 62
     7
370
    15
100
AcDbCircle
 10
45.746113508
 20
188.3557315669
 30
0.0
 40
8.499999999981382
100
AcDbArc
 50
203.277269964
 51
239.1847443654
  0
LINE
  5
1EA
330
1F
100
AcDbEntity
  8
0
  6
Continuous
 62
     7
370
    15
100
AcDbLine
 10
37.9379860675
 20
184.9966920337
 30
0.0
 11
38.1806132933
 21
181.0557316414
 31
0.0
  0
ARC
  5
1EB
330
1F
100
AcDbEntity
  8
0
  6
Continuous
 62
     7
370
    15
100
AcDbCircle
 10
45.746113508
 20
188.3557315669
 30
0.0
 40
1.20000000000108
100
AcDbArc
 50
180.0000000003
 51
199.4712206347
  0
ARC
  5
1EC
330
1F
100
AcDbEntity
  8
0
  6
Continuous
 62
     7
370
    15
100
AcDbCircle
 10
45.746113508
 20
188.3557315669
 30
0.0
 40
1.200000000000031
100
AcDbArc
 50
160.5287793658
 51
180.0000000003
  0
ARC
  5
1ED
330
1F
100
AcDbEntity
  8
0
  6
Continuous
 62
     7
370
    15
100
AcDbCircle
 10
45.746113508
 20
188.3557315669
 30
0.0
 40
2.700000000000196
100
AcDbArc
 50
171.4803757459
 51
180.0
  0
ARC
  5
1EE
330
1F
100
AcDbEntity
  8
0
  6
Continuous
 62
     7
370
    15
100
AcDbCircle
 10
45.746113508
 20
188.3557315669
 30
0.0
 40
2.700000000000104
100
AcDbArc
 50
180.0
 51
188.5196242541
  0
ARC
  5
1EF
330
1F
100
AcDbEntity
  8
0
  6
Continuous
 62
     7
370
    15
100
AcDbCircle
 10
45.746113508
 20
188.3557315669
 30
0.0
 40
1.200000000000024
100
AcDbArc
 50
359.9999999997
 51
19.4712206343
  0
ARC
  5
1F0
330
1F
100
AcDbEntity
  8
0
  6
Continuous
 62
     7
370
    15
100
AcDbCircle
 10
45.746113508
 20
188.3557315669
 30
0.0
 40
1.200000000001203
100
AcDbArc
 50
340.5287793653
 51
359.9999999997
  0
ARC
  5
1F1
330
1F
100
AcDbEntity
  8
0
  6
Continuous
 62
     7
370
    15
100
AcDbCircle
 10
45.746113508
 20
188.3557315669
 30
0.0
 40
2.700000000000041
100
AcDbArc
 50
351.4803757459
 51
0.0
  0
ARC
  5
1F2
330
1F
100
AcDbEntity
  8
0
  6
Continuous
 62
     7
370
    15
100
AcDbCircle
 10
45.746113508
 20
188.3557315669
 30
0.0
 40
2.700000000000189
100
AcDbArc
 50
0.0
 51
8.5196242541
  0
LINE
  5
1F3
330
1F
100
AcDbEntity
  8
0
  6
Continuous
 62
     7
370
    15
100
AcDbLine
 10
37.7783834552
 20
187.5890917501
 30
0.0
 11
37.9379860675
 21
184.9966920337
 31
0.0
  0
LINE
  5
1F4
330
1F
100
AcDbEntity
  8
0
  6
Continuous
 62
     7
370
    15
100
AcDbLine
 10
53.7138342475
 20
187.5889352879
 30
0.0
 11
54.1960898404
 21
191.2886030397
 31
0.0
  0
LINE
  5
1F5
330
1F
100
AcDbEntity
  8
0
  6
Continuous
 62
     7
370
    15
100
AcDbLine
 10
46.7801313931
 20
196.2886243484
 30
0.0
 11
46.8447574963
 21
196.7844306848
 31
0.0
  0
ARC
  5
1F6
330
1F
100
AcDbEntity
  8
0
  6
Continuous
 62
     7
370
    15
100
AcDbCircle
 10
45.7500257217
 20
184.0557315669
 30
0.0
 40
14.00391221375268
100
AcDbArc
 50
140.004236132
 51
180.0
  0
LINE
  5
1F7
330
1F
100
AcDbEntity
  8
0
  6
Continuous
 62
     7
370
    15
100
AcDbLine
 10
35.9955945601
 20
191.7178533396
 30
0.0
 11
35.0217412775
 21
193.056480529
 31
0.0
  0
ARC
  5
1F8
330
1F
100
AcDbEntity
  8
0
  6
Continuous
 62
     7
370
    15
100
AcDbCircle
 10
45.7500257216
 20
184.0557315669
 30
0.0
 40
12.40391221368413
100
AcDbArc
 50
141.8503060306
 51
180.0
  0
LINE
  5
1F9
330
1F
100
AcDbEntity
  8
0
  6
Continuous
 62
     7
370
    15
100
AcDbLine
 10
31.7461130758
 20
184.0557321331
 30
0.0
 11
31.7461130758
 21
182.0557318053
 31
0.0
  0
LINE
  5
1FA
330
1F
100
AcDbEntity
  8
0
  6
Continuous
 62
     7
370
    15
100
AcDbLine
 10
33.3461131518
 20
184.0557321331
 30
0.0
 11
33.3461131518
 21
182.0557318053
 31
0.0
  0
ARC
  5
1FB
330
1F
100
AcDbEntity
  8
0
  6
Continuous
 62
     7
370
    15
100
AcDbCircle
 10
45.7422012942
 20
184.0557315669
 30
0.0
 40
14.00391221375812
100
AcDbArc
 50
0.0
 51
39.9917686988
  0
ARC
  5
1FC
330
1F
100
AcDbEntity
  8
0
  6
Continuous
 62
     7
370
    15
100
AcDbCircle
 10
45.7422012942
 20
184.0557315668
 30
0.0
 40
12.40391221377524
100
AcDbArc
 50
0.0000000001
 51
39.9917686989
  0
LINE
  5
1FD
330
1F
100
AcDbEntity
  8
0
  6
Continuous
 62
     7
370
    15
100
AcDbLine
 10
55.2452945699
 20
192.0274473152
 30
0.0
 11
56.4711134498
 21
193.0557317457
 31
0.0
  0
LINE
  5
1FE
330
1F
100
AcDbEntity
  8
0
  6
Continuous
 62
     7
370
    15
100
AcDbLine
 10
59.7461139401
 20
182.0557318053
 30
0.0
 11
59.7461139401
 21
184.0557321331
 31
0.0
  0
LINE
  5
1FF
330
1F
100
AcDbEntity
  8
0
  6
Continuous
 62
     7
370
    15
100
AcDbLine
 10
58.1461138641
 20
182.0557318053
 30
0.0
 11
58.1461138641
 21
184.0557321331
 31
0.0
  0
ARC
  5
200
330
1F
100
AcDbEntity
  8
0
  6
Continuous
 62
     7
370
    15
100
AcDbCircle
 10
45.7500257217
 20
184.0557315669
 30
0.0
 40
13.86665391358123
100
AcDbArc
 50
139.5308098777
 51
140.1453495055
  0
ARC
  5
201
330
1F
100
AcDbEntity
  8
0
  6
Continuous
 62
     7
370
    15
100
AcDbCircle
 10
45.7422012942
 20
184.0557315669
 30
0.0
 40
13.86665391352287
100
AcDbArc
 50
39.9917686989
 51
40.4691901223
  0
LINE
  5
202
330
1F
100
AcDbEntity
  8
0
  6
Continuous
 62
     7
370
    15
100
AcDbLine
 10
56.2913290774
 20
193.0557317457
 30
0.0
 11
54.3733894443
 21
193.0557317457
 31
0.0
  0
LINE
  5
203
330
1F
100
AcDbEntity
  8
0
  6
Continuous
 62
     7
370
    15
100
AcDbLine
 10
37.118867374
 20
193.0557317457
 30
0.0
 11
35.2008979385
 21
193.0557317457
 31
0.0
  0
LINE
  5
204
330
1F
100
AcDbEntity
  8
0
  6
Continuous
 62
     7
370
    15
100
AcDbLine
 10
56.3710409766
 20
158.7952105685
 30
0.0
 11
56.0341946398
 21
159.8996869645
 31
0.0
  0
LINE
  5
205
330
1F
100
AcDbEntity
  8
0
  6
Continuous
 62
     7
370
    15
100
AcDbLine
 10
54.9092677971
 20
160.1602079238
 30
0.0
 11
56.0341946398
 21
159.8996869645
 31
0.0
  0
LINE
  5
206
330
1F
100
AcDbEntity
  8
0
  6
Continuous
 62
     7
370
    15
100
AcDbLine
 10
54.1211854284
 20
159.316252487
 30
0.0
 11
54.9092677971
 21
160.1602079238
 31
0.0
  0
LINE
  5
207
330
1F
100
AcDbEntity
  8
0
  6
Continuous
 62
     7
370
    15
100
AcDbLine
 10
54.1211854284
 20
159.316252487
 30
0.0
 11
54.4580317651
 21
158.211776091
 31
0.0
  0
LINE
  5
208
330
1F
100
AcDbEntity
  8
0
  6
Continuous
 62
     7
370
    15
100
AcDbLine
 10
55.5829595392
 20
157.9512553646
 30
0.0
 11
54.4580317651
 21
158.211776091
 31
0.0
  0
LINE
  5
209
330
1F
100
AcDbEntity
  8
0
  6
Continuous
 62
     7
370
    15
100
AcDbLine
 10
55.5829595392
 20
157.9512553646
 30
0.0
 11
56.3710409766
 21
158.7952105685
 31
0.0
  0
CIRCLE
  5
20A
330
1F
100
AcDbEntity
  8
0
  6
Continuous
 62
     7
370
    15
100
AcDbCircle
 10
55.246113508
 20
159.0557315669
 30
0.0
 40
1.609999999999989
  0
CIRCLE
  5
20B
330
1F
100
AcDbEntity
  8
0
  6
Continuous
 62
     7
370
    15
100
AcDbCircle
 10
55.246113508
 20
159.0557315669
 30
0.0
 40
2.000000000000003
  0
ARC
  5
20C
330
1F
100
AcDbEntity
  8
0
  6
Continuous
 62
     7
370
    15
100
AcDbCircle
 10
35.746113508
 20
150.0557315669
 30
0.0
 40
2.750000000000004
100
AcDbArc
 50
137.8110212786
 51
194.7779030418
  0
CIRCLE
  5
20D
330
1F
100
AcDbEntity
  8
0
  6
Continuous
 62
     7
370
    15
100
AcDbCircle
 10
35.746113508
 20
177.0557315669
 30
0.0
 40
2.600000000000006
  0
CIRCLE
  5
20E
330
1F
100
AcDbEntity
  8
0
  6
Continuous
 62
     7
370
    15
100
AcDbCircle
 10
35.746113508
 20
177.0557315669
 30
0.0
 40
2.750000000000008
  0
LINE
  5
20F
330
1F
100
AcDbEntity
  8
0
  6
Continuous
 62
     7
370
    15
100
AcDbLine
 10
35.6137532359
 20
175.5836536533
 30
0.0
 11
36.9547906881
 21
176.2050656027
 31
0.0
  0
LINE
  5
210
330
1F
100
AcDbEntity
  8
0
  6
Continuous
 62
     7
370
    15
100
AcDbLine
 10
36.9547906881
 20
176.2050656027
 30
0.0
 11
37.0871502524
 21
177.6771438665
 31
0.0
  0
LINE
  5
211
330
1F
100
AcDbEntity
  8
0
  6
Continuous
 62
     7
370
    15
100
AcDbLine
 10
35.8784732958
 20
178.5278101808
 30
0.0
 11
37.0871502524
 21
177.6771438665
 31
0.0
  0
LINE
  5
212
330
1F
100
AcDbEntity
  8
0
  6
Continuous
 62
     7
370
    15
100
AcDbLine
 10
34.5374367749
 20
177.9063982314
 30
0.0
 11
35.8784732958
 21
178.5278101808
 31
0.0
  0
LINE
  5
213
330
1F
100
AcDbEntity
  8
0
  6
Continuous
 62
     7
370
    15
100
AcDbLine
 10
34.5374367749
 20
177.9063982314
 30
0.0
 11
34.4050762793
 21
176.4343199677
 31
0.0
  0
LINE
  5
214
330
1F
100
AcDbEntity
  8
0
  6
Continuous
 62
     7
370
    15
100
AcDbLine
 10
35.6137532359
 20
175.5836536533
 30
0.0
 11
34.4050762793
 21
176.4343199677
 31
0.0
  0
ARC
  5
215
330
1F
100
AcDbEntity
  8
0
  6
Continuous
 62
     7
370
    15
100
AcDbCircle
 10
35.746113508
 20
177.0557315669
 30
0.0
 40
1.280000000000004
100
AcDbArc
 50
54.8621378469
 51
114.8621378469
  0
ARC
  5
216
330
1F
100
AcDbEntity
  8
0
  6
Continuous
 62
     7
370
    15
100
AcDbCircle
 10
35.746113508
 20
177.0557315669
 30
0.0
 40
1.280000000000005
100
AcDbArc
 50
114.8621378469
 51
174.8621378469
  0
ARC
  5
217
330
1F
100
AcDbEntity
  8
0
  6
Continuous
 62
     7
370
    15
100
AcDbCircle
 10
35.746113508
 20
177.0557315669
 30
0.0
 40
1.280000000000004
100
AcDbArc
 50
354.8621378469
 51
54.8621378469
  0
ARC
  5
218
330
1F
100
AcDbEntity
  8
0
  6
Continuous
 62
     7
370
    15
100
AcDbCircle
 10
35.746113508
 20
177.0557315669
 30
0.0
 40
1.280000000000022
100
AcDbArc
 50
294.8621378469
 51
354.8621378469
  0
ARC
  5
219
330
1F
100
AcDbEntity
  8
0
  6
Continuous
 62
     7
370
    15
100
AcDbCircle
 10
35.746113508
 20
177.0557315669
 30
0.0
 40
1.280000000000022
100
AcDbArc
 50
234.8621378469
 51
294.8621378469
  0
ARC
  5
21A
330
1F
100
AcDbEntity
  8
0
  6
Continuous
 62
     7
370
    15
100
AcDbCircle
 10
35.746113508
 20
177.0557315669
 30
0.0
 40
1.280000000000005
100
AcDbArc
 50
174.8621378469
 51
234.8621378469
  0
CIRCLE
  5
21B
330
1F
100
AcDbEntity
  8
0
  6
Continuous
 62
     7
370
    15
100
AcDbCircle
 10
55.746113508
 20
177.0557315669
 30
0.0
 40
2.600000000000024
  0
LINE
  5
21C
330
1F
100
AcDbEntity
  8
0
  6
Continuous
 62
     7
370
    15
100
AcDbLine
 10
54.2798408856
 20
176.8697784639
 30
0.0
 11
55.174016728
 21
175.692925731
 31
0.0
  0
LINE
  5
21D
330
1F
100
AcDbEntity
  8
0
  6
Continuous
 62
     7
370
    15
100
AcDbLine
 10
55.174016728
 20
175.692925731
 30
0.0
 11
56.6402891269
 21
175.8788791842
 31
0.0
  0
LINE
  5
21E
330
1F
100
AcDbEntity
  8
0
  6
Continuous
 62
     7
370
    15
100
AcDbLine
 10
57.2123856833
 20
177.2416844389
 30
0.0
 11
56.6402891269
 21
175.8788791842
 31
0.0
  0
LINE
  5
21F
330
1F
100
AcDbEntity
  8
0
  6
Continuous
 62
     7
370
    15
100
AcDbLine
 10
56.3182098409
 20
178.4185371718
 30
0.0
 11
57.2123856833
 21
177.2416844389
 31
0.0
  0
LINE
  5
220
330
1F
100
AcDbEntity
  8
0
  6
Continuous
 62
     7
370
    15
100
AcDbLine
 10
56.3182098409
 20
178.4185371718
 30
0.0
 11
54.851937442
 21
178.23258465
 31
0.0
  0
LINE
  5
221
330
1F
100
AcDbEntity
  8
0
  6
Continuous
 62
     7
370
    15
100
AcDbLine
 10
54.2798408856
 20
176.8697784639
 30
0.0
 11
54.851937442
 21
178.23258465
 31
0.0
  0
CIRCLE
  5
222
330
1F
100
AcDbEntity
  8
0
  6
Continuous
 62
     7
370
    15
100
AcDbCircle
 10
55.746113508
 20
177.0557315669
 30
0.0
 40
2.750000000000016
  0
ARC
  5
223
330
1F
100
AcDbEntity
  8
0
  6
Continuous
 62
     7
370
    15
100
AcDbCircle
 10
55.746113508
 20
177.0557315669
 30
0.0
 40
1.280000000000004
100
AcDbArc
 50
97.2276683999
 51
157.2276683999
  0
ARC
  5
224
330
1F
100
AcDbEntity
  8
0
  6
Continuous
 62
     7
370
    15
100
AcDbCircle
 10
55.746113508
 20
177.0557315669
 30
0.0
 40
1.280000000000004
100
AcDbArc
 50
37.2276683999
 51
97.2276683999
  0
ARC
  5
225
330
1F
100
AcDbEntity
  8
0
  6
Continuous
 62
     7
370
    15
100
AcDbCircle
 10
55.746113508
 20
177.0557315669
 30
0.0
 40
1.280000000000005
100
AcDbArc
 50
337.2276683999
 51
37.2276683999
  0
ARC
  5
226
330
1F
100
AcDbEntity
  8
0
  6
Continuous
 62
     7
370
    15
100
AcDbCircle
 10
55.746113508
 20
177.0557315669
 30
0.0
 40
1.280000000000005
100
AcDbArc
 50
277.2276683999
 51
337.2276683999
  0
ARC
  5
227
330
1F
100
AcDbEntity
  8
0
  6
Continuous
 62
     7
370
    15
100
AcDbCircle
 10
55.746113508
 20
177.0557315669
 30
0.0
 40
1.280000000000002
100
AcDbArc
 50
217.2276683999
 51
277.2276683999
  0
ARC
  5
228
330
1F
100
AcDbEntity
  8
0
  6
Continuous
 62
     7
370
    15
100
AcDbCircle
 10
55.746113508
 20
177.0557315669
 30
0.0
 40
1.280000000000002
100
AcDbArc
 50
157.2276683999
 51
217.2276683999
  0
ARC
  5
229
330
1F
100
AcDbEntity
  8
0
  6
Continuous
 62
     7
370
    15
100
AcDbCircle
 10
55.246113508
 20
159.0557315669
 30
0.0
 40
3.500000000000012
100
AcDbArc
 50
330.0
 51
30.0
  0
ARC
  5
22A
330
1F
100
AcDbEntity
  8
0
  6
Continuous
 62
     7
370
    15
100
AcDbCircle
 10
55.246113508
 20
159.0557315669
 30
0.0
 40
3.500000000000012
100
AcDbArc
 50
270.0
 51
330.0
  0
ARC
  5
22B
330
1F
100
AcDbEntity
  8
0
  6
Continuous
 62
     7
370
    15
100
AcDbCircle
 10
55.246113508
 20
159.0557315669
 30
0.0
 40
3.500000000000006
100
AcDbArc
 50
210.0
 51
270.0
  0
ARC
  5
22C
330
1F
100
AcDbEntity
  8
0
  6
Continuous
 62
     7
370
    15
100
AcDbCircle
 10
55.246113508
 20
159.0557315669
 30
0.0
 40
3.500000000000006
100
AcDbArc
 50
150.0
 51
210.0
  0
ARC
  5
22D
330
1F
100
AcDbEntity
  8
0
  6
Continuous
 62
     7
370
    15
100
AcDbCircle
 10
55.246113508
 20
159.0557315669
 30
0.0
 40
3.499999999999992
100
AcDbArc
 50
90.0
 51
150.0
  0
ARC
  5
22E
330
1F
100
AcDbEntity
  8
0
  6
Continuous
 62
     7
370
    15
100
AcDbCircle
 10
55.246113508
 20
159.0557315669
 30
0.0
 40
3.499999999999998
100
AcDbArc
 50
30.0
 51
90.0
  0
SPLINE
  5
22F
330
1F
100
AcDbEntity
  8
0
  6
Continuous
 62
     7
370
    15
100
AcDbSpline
210
0.0
220
0.0
230
1.0
 70
    24
 71
     3
 72
    10
 73
     6
 74
     0
 42
0.00000001
 43
0.00000001
 12
1.0
 22
0.0
 32
0.0
 13
1.0
 23
0.0
 33
0.0
 40
0.0
 40
0.0
 40
0.0
 40
0.0
 40
0.2572431768452554
 40
0.6263799428923559
 40
1.0
 40
1.0
 40
1.0
 40
1.0
 10
53.22538768775014
 20
162.5557315193852
 30
0.0
 10
53.39507930691206
 20
162.5557315193852
 30
0.0
 10
53.80827365485737
 20
162.5557315193852
 30
0.0
 10
54.48266367421103
 20
162.5557315193852
 30
0.0
 10
54.99060803985403
 20
162.5557315193852
 30
0.0
 10
55.24611320248989
 20
162.5557315193852
 30
0.0
  0
SPLINE
  5
230
330
1F
100
AcDbEntity
  8
0
  6
Continuous
 62
     7
370
    15
100
AcDbSpline
210
0.0
220
0.0
230
1.0
 70
     8
 71
     3
 72
    10
 73
     6
 74
     0
 42
0.00000001
 43
0.00000001
 12
1.0
 22
0.0
 32
0.0
 13
1.0
 23
0.0
 33
0.0
 40
0.0
 40
0.0
 40
0.0
 40
0.0
 40
0.0700363610398951
 40
0.5307570939997404
 40
1.0
 40
1.0
 40
1.0
 40
1.0
 10
52.21502469754962
 20
160.8057315817838
 30
0.0
 10
52.23895514837305
 20
160.8471804800783
 30
0.0
 10
52.42030746806191
 20
161.1612929850918
 30
0.0
 10
52.76225781956843
 20
161.7535664751292
 30
0.0
 10
53.07007080048725
 20
162.2867145841698
 30
0.0
 10
53.22538768775014
 20
162.5557315193852
 30
0.0
  0
SPLINE
  5
231
330
1F
100
AcDbEntity
  8
0
  6
Continuous
 62
     7
370
    15
100
AcDbSpline
210
0.0
220
0.0
230
1.0
 70
     8
 71
     3
 72
    10
 73
     6
 74
     0
 42
0.00000001
 43
0.00000001
 12
1.0
 22
0.0
 32
0.0
 13
1.0
 23
0.0
 33
0.0
 40
0.0
 40
0.0
 40
0.0
 40
0.0
 40
0.0700365626465201
 40
0.5307571149786066
 40
1.0
 40
1.0
 40
1.0
 40
1.0
 10
52.21502469754962
 20
157.3057314737504
 30
0.0
 10
52.19109408379232
 20
157.347180445214
 30
0.0
 10
52.00974104421505
 20
157.6612926129384
 30
0.0
 10
51.66779185527084
 20
158.2535668831383
 30
0.0
 10
51.3599787061905
 20
158.7867148505519
 30
0.0
 10
51.2046617073491
 20
159.0557317605977
 30
0.0
  0
SPLINE
  5
232
330
1F
100
AcDbEntity
  8
0
  6
Continuous
 62
     7
370
    15
100
AcDbSpline
210
0.0
220
0.0
230
1.0
 70
     8
 71
     3
 72
     9
 73
     5
 74
     0
 42
0.00000001
 43
0.00000001
 12
1.0
 22
0.0
 32
0.0
 13
1.0
 23
0.0
 33
0.0
 40
0.0
 40
0.0
 40
0.0
 40
0.0
 40
0.4954577454629549
 40
1.0
 40
1.0
 40
1.0
 40
1.0
 10
51.2046617073491
 20
159.0557317605977
 30
0.0
 10
51.36874914402249
 20
159.3399393880617
 30
0.0
 10
51.69993265699809
 20
159.913565756943
 30
0.0
 10
52.04229063265363
 20
160.5065473246925
 30
0.0
 10
52.21502469754962
 20
160.8057315817838
 30
0.0
  0
SPLINE
  5
233
330
1F
100
AcDbEntity
  8
0
  6
Continuous
 62
     7
370
    15
100
AcDbSpline
210
0.0
220
0.0
230
1.0
 70
     8
 71
     3
 72
     9
 73
     5
 74
     0
 42
0.00000001
 43
0.00000001
 12
1.0
 22
0.0
 32
0.0
 13
1.0
 23
0.0
 33
0.0
 40
0.0
 40
0.0
 40
0.0
 40
0.0
 40
0.4954578181211137
 40
1.0
 40
1.0
 40
1.0
 40
1.0
 10
57.26683918289093
 20
162.5557315193852
 30
0.0
 10
57.43092660728366
 20
162.2715238069154
 30
0.0
 10
57.76211004690521
 20
161.6978973505853
 30
0.0
 10
58.10446809601154
 20
161.1049157914459
 30
0.0
 10
58.27720217309145
 20
160.8057315817838
 30
0.0
  0
SPLINE
  5
234
330
1F
100
AcDbEntity
  8
0
  6
Continuous
 62
     7
370
    15
100
AcDbSpline
210
0.0
220
0.0
230
1.0
 70
    24
 71
     3
 72
    10
 73
     6
 74
     0
 42
0.00000001
 43
0.00000001
 12
1.0
 22
0.0
 32
0.0
 13
1.0
 23
0.0
 33
0.0
 40
0.0
 40
0.0
 40
0.0
 40
0.0
 40
0.2684068207404545
 40
0.6323733358689111
 40
1.0
 40
1.0
 40
1.0
 40
1.0
 10
55.24611320248989
 20
162.5557315193852
 30
0.0
 10
55.42962504612793
 20
162.5557315193852
 30
0.0
 10
55.86198364421684
 20
162.5557315193852
 30
0.0
 10
56.54029577837613
 20
162.5557315193852
 30
0.0
 10
57.02385164063156
 20
162.5557315193852
 30
0.0
 10
57.26683918289093
 20
162.5557315193852
 30
0.0
  0
SPLINE
  5
235
330
1F
100
AcDbEntity
  8
0
  6
Continuous
 62
     7
370
    15
100
AcDbSpline
210
0.0
220
0.0
230
1.0
 70
     8
 71
     3
 72
     9
 73
     5
 74
     0
 42
0.00000001
 43
0.00000001
 12
1.0
 22
0.0
 32
0.0
 13
1.0
 23
0.0
 33
0.0
 40
0.0
 40
0.0
 40
0.0
 40
0.0
 40
0.4954578422127281
 40
1.0
 40
1.0
 40
1.0
 40
1.0
 10
59.28756516329197
 20
159.0557317605977
 30
0.0
 10
59.12347774297118
 20
158.7715239677843
 30
0.0
 10
58.79229432767198
 20
158.1978973771864
 30
0.0
 10
58.44993625421122
 20
157.6049157190665
 30
0.0
 10
58.27720217309145
 20
157.3057314737504
 30
0.0
  0
SPLINE
  5
236
330
1F
100
AcDbEntity
  8
0
  6
Continuous
 62
     7
370
    15
100
AcDbSpline
210
0.0
220
0.0
230
1.0
 70
     8
 71
     3
 72
    10
 73
     6
 74
     0
 42
0.00000001
 43
0.00000001
 12
1.0
 22
0.0
 32
0.0
 13
1.0
 23
0.0
 33
0.0
 40
0.0
 40
0.0
 40
0.0
 40
0.0
 40
0.0700365914175321
 40
0.5307571199293314
 40
1.0
 40
1.0
 40
1.0
 40
1.0
 10
58.27720217309145
 20
160.8057315817838
 30
0.0
 10
58.30113295488411
 20
160.7642826953284
 30
0.0
 10
58.48248719507281
 20
160.4501712979279
 30
0.0
 10
58.82443448278276
 20
159.8578960834803
 30
0.0
 10
59.13224798373553
 20
159.3247484883039
 30
0.0
 10
59.28756516329197
 20
159.0557317605977
 30
0.0
  0
SPLINE
  5
237
330
1F
100
AcDbEntity
  8
0
  6
Continuous
 62
     7
370
    15
100
AcDbSpline
210
0.0
220
0.0
230
1.0
 70
    24
 71
     3
 72
    10
 73
     6
 74
     0
 42
0.00000001
 43
0.00000001
 12
1.0
 22
0.0
 32
0.0
 13
1.0
 23
0.0
 33
0.0
 40
0.0
 40
0.0
 40
0.0
 40
0.0
 40
0.2572431768452554
 40
0.6263799428923559
 40
1.0
 40
1.0
 40
1.0
 40
1.0
 10
53.22538768775014
 20
155.555731186903
 30
0.0
 10
53.39507930691206
 20
155.555731186903
 30
0.0
 10
53.80827365485737
 20
155.555731186903
 30
0.0
 10
54.48266367421103
 20
155.555731186903
 30
0.0
 10
54.99060803985403
 20
155.555731186903
 30
0.0
 10
55.24611320248989
 20
155.555731186903
 30
0.0
  0
SPLINE
  5
238
330
1F
100
AcDbEntity
  8
0
  6
Continuous
 62
     7
370
    15
100
AcDbSpline
210
0.0
220
0.0
230
1.0
 70
     8
 71
     3
 72
     9
 73
     5
 74
     0
 42
0.00000001
 43
0.00000001
 12
1.0
 22
0.0
 32
0.0
 13
1.0
 23
0.0
 33
0.0
 40
0.0
 40
0.0
 40
0.0
 40
0.0
 40
0.4954578422127281
 40
1.0
 40
1.0
 40
1.0
 40
1.0
 10
53.22538768775014
 20
155.555731186903
 30
0.0
 10
53.06130026742935
 20
155.8399389797165
 30
0.0
 10
52.73011685213016
 20
156.4135655703143
 30
0.0
 10
52.3877587786694
 20
157.0065472284343
 30
0.0
 10
52.21502469754962
 20
157.3057314737504
 30
0.0
  0
SPLINE
  5
239
330
1F
100
AcDbEntity
  8
0
  6
Continuous
 62
     7
370
    15
100
AcDbSpline
210
0.0
220
0.0
230
1.0
 70
    24
 71
     3
 72
    10
 73
     6
 74
     0
 42
0.00000001
 43
0.00000001
 12
1.0
 22
0.0
 32
0.0
 13
1.0
 23
0.0
 33
0.0
 40
0.0
 40
0.0
 40
0.0
 40
0.0
 40
0.2684068207404545
 40
0.6323733358689111
 40
1.0
 40
1.0
 40
1.0
 40
1.0
 10
55.24611320248989
 20
155.555731186903
 30
0.0
 10
55.42962504612793
 20
155.555731186903
 30
0.0
 10
55.86198364421684
 20
155.555731186903
 30
0.0
 10
56.54029577837613
 20
155.555731186903
 30
0.0
 10
57.02385164063156
 20
155.555731186903
 30
0.0
 10
57.26683918289093
 20
155.555731186903
 30
0.0
  0
SPLINE
  5
23A
330
1F
100
AcDbEntity
  8
0
  6
Continuous
 62
     7
370
    15
100
AcDbSpline
210
0.0
220
0.0
230
1.0
 70
     8
 71
     3
 72
    10
 73
     6
 74
     0
 42
0.00000001
 43
0.00000001
 12
1.0
 22
0.0
 32
0.0
 13
1.0
 23
0.0
 33
0.0
 40
0.0
 40
0.0
 40
0.0
 40
0.0
 40
0.0700362528189455
 40
0.5307569207574331
 40
1.0
 40
1.0
 40
1.0
 40
1.0
 10
58.27720217309145
 20
157.3057314737504
 30
0.0
 10
58.25327171999731
 20
157.2642826543403
 30
0.0
 10
58.07191916206697
 20
156.950170364295
 30
0.0
 10
57.72996898653601
 20
156.3578966712443
 30
0.0
 10
57.42215607460943
 20
155.8247483149115
 30
0.0
 10
57.26683918289093
 20
155.555731186903
 30
0.0
  0
ARC
  5
23B
330
1F
100
AcDbEntity
  8
0
  6
Continuous
 62
     7
370
    15
100
AcDbCircle
 10
45.746113508
 20
159.0557315669
 30
0.0
 40
10.00000000000001
100
AcDbArc
 50
90.0
 51
166.2944621602
  0
LINE
  5
23C
330
1F
100
AcDbEntity
  8
0
  6
Continuous
 62
     7
370
    15
100
AcDbLine
 10
47.746113603
 20
169.0557315371
 30
0.0
 11
45.746113508
 21
169.0557315371
 31
0.0
  0
ARC
  5
23D
330
1F
100
AcDbEntity
  8
0
  6
Continuous
 62
     7
370
    15
100
AcDbCircle
 10
47.746113508
 20
157.0557315669
 30
0.0
 40
12.0
100
AcDbArc
 50
9.5940682269
 51
90.0
  0
LINE
  5
23E
330
1F
100
AcDbEntity
  8
0
  6
Continuous
 62
     7
370
    15
100
AcDbLine
 10
59.5782728483
 20
159.0557317606
 30
0.0
 11
59.7461139401
 21
159.0557317606
 31
0.0
  0
LINE
  5
23F
330
1F
100
AcDbEntity
  8
0
  6
Continuous
 62
     7
370
    15
100
AcDbLine
 10
59.7461139401
 20
159.0557317606
 30
0.0
 11
59.7461139401
 21
143.8557315043
 31
0.0
  0
LINE
  5
240
330
1F
100
AcDbEntity
  8
0
  6
Continuous
 62
     7
370
    15
100
AcDbLine
 10
31.7461130758
 20
143.8557315043
 30
0.0
 11
59.7461139401
 21
143.8557315043
 31
0.0
  0
LINE
  5
241
330
1F
100
AcDbEntity
  8
0
  6
Continuous
 62
     7
370
    15
100
AcDbLine
 10
35.4530302425
 20
159.0557317606
 30
0.0
 11
31.7461130758
 21
143.8557315043
 31
0.0
  0
LINE
  5
242
330
1F
100
AcDbEntity
  8
0
  6
Continuous
 62
     7
370
    15
100
AcDbLine
 10
36.0308516388
 20
161.4250520135
 30
0.0
 11
35.4530302425
 21
159.0557317606
 31
0.0
  0
LINE
  5
243
330
1F
100
AcDbEntity
  8
0
  6
Continuous
 62
     7
370
    15
100
AcDbLine
 10
31.7461130758
 20
140.3557318619
 30
0.0
 11
59.7461139401
 21
140.3557318619
 31
0.0
  0
LINE
  5
244
330
1F
100
AcDbEntity
  8
0
  6
Continuous
 62
     7
370
    15
100
AcDbLine
 10
31.7461130758
 20
143.8557315043
 30
0.0
 11
31.7461130758
 21
140.3557318619
 31
0.0
  0
LINE
  5
245
330
1F
100
AcDbEntity
  8
0
  6
Continuous
 62
     7
370
    15
100
AcDbLine
 10
59.7461139401
 20
143.8557315043
 30
0.0
 11
59.7461139401
 21
140.3557318619
 31
0.0
  0
LINE
  5
246
330
1F
100
AcDbEntity
  8
0
  6
Continuous
 62
     7
370
    15
100
AcDbLine
 10
31.7461130758
 20
143.8557315043
 30
0.0
 11
31.7461130758
 21
144.2753984949
 31
0.0
  0
LINE
  5
247
330
1F
100
AcDbEntity
  8
0
  6
Continuous
 62
     7
370
    15
100
AcDbLine
 10
31.7461130758
 20
144.2753984949
 30
0.0
 11
31.7461130758
 21
144.5536311141
 31
0.0
  0
LINE
  5
248
330
1F
100
AcDbEntity
  8
0
  6
Continuous
 62
     7
370
    15
100
AcDbLine
 10
31.7461130758
 20
144.5536311141
 30
0.0
 11
31.916314139
 21
144.5536311141
 31
0.0
  0
LINE
  5
249
330
1F
100
AcDbEntity
  8
0
  6
Continuous
 62
     7
370
    15
100
AcDbLine
 10
31.7461130758
 20
144.5536311141
 30
0.0
 11
31.7461130758
 21
150.0557312167
 31
0.0
  0
LINE
  5
24A
330
1F
100
AcDbEntity
  8
0
  6
Continuous
 62
     7
370
    15
100
AcDbLine
 10
50.6613374305
 20
181.0557316414
 30
0.0
 11
40.8308895854
 21
181.0557316414
 31
0.0
  0
SPLINE
  5
24B
330
1F
100
AcDbEntity
  8
0
  6
Continuous
 62
     7
370
    15
100
AcDbSpline
210
0.0
220
0.0
230
1.0
 70
     8
 71
     3
 72
    13
 73
     9
 74
     0
 42
0.00000001
 43
0.00000001
 12
1.0
 22
0.0
 32
0.0
 13
1.0
 23
0.0
 33
0.0
 40
0.0
 40
0.0
 40
0.0
 40
0.0
 40
0.2066236378736374
 40
0.3976688278079883
 40
0.5675447542509966
 40
0.6995726686623813
 40
0.8446908559654156
 40
1.0
 40
1.0
 40
1.0
 40
1.0
 10
50.66133743054417
 20
181.0557316413887
 30
0.0
 10
50.91146007289009
 20
180.953781969892
 30
0.0
 10
51.39284728982975
 20
180.7575691513744
 30
0.0
 10
52.04792094396793
 20
180.4082118009051
 30
0.0
 10
52.52918397949695
 20
179.947343855465
 30
0.0
 10
52.71157633981471
 20
179.376060569955
 30
0.0
 10
52.72447708859428
 20
178.8088598484564
 30
0.0
 10
52.69401564350918
 20
178.4175758940373
 30
0.0
 10
52.67826827145365
 20
178.215297440327
 30
0.0
  0
LINE
  5
24C
330
1F
100
AcDbEntity
  8
0
  6
Continuous
 62
     7
370
    15
100
AcDbLine
 10
52.6782682715
 20
178.2152974403
 30
0.0
 11
52.6782682715
 21
178.1224436483
 31
0.0
  0
ARC
  5
24D
330
1F
100
AcDbEntity
  8
0
  6
Continuous
 62
     7
370
    15
100
AcDbCircle
 10
55.746113508
 20
177.0557315669
 30
0.0
 40
3.248007215816021
100
AcDbArc
 50
160.8270595738
 51
279.9346943189
  0
LINE
  5
24E
330
1F
100
AcDbEntity
  8
0
  6
Continuous
 62
     7
370
    15
100
AcDbLine
 10
56.3064779704
 20
173.8564283944
 30
0.0
 11
57.1030037095
 21
173.8564283944
 31
0.0
  0
ARC
  5
24F
330
1F
100
AcDbEntity
  8
0
  6
Continuous
 62
     7
370
    15
100
AcDbCircle
 10
56.7769219327
 20
170.9049265539
 30
0.0
 40
2.969459650929021
100
AcDbArc
 50
0.769893905
 51
83.6955340404
  0
LINE
  5
250
330
1F
100
AcDbEntity
  8
0
  6
Continuous
 62
     7
370
    15
100
AcDbLine
 10
59.7461139401
 20
159.0557317606
 30
0.0
 11
59.7461139401
 21
170.9448267131
 31
0.0
  0
ARC
  5
251
330
1F
100
AcDbEntity
  8
0
  6
Continuous
 62
     7
370
    15
100
AcDbCircle
 10
34.7153050832
 20
156.2065365798
 30
0.0
 40
2.969459650929005
100
AcDbArc
 50
180.769893905
 51
257.0982042662
  0
LINE
  5
252
330
1F
100
AcDbEntity
  8
0
  6
Continuous
 62
     7
370
    15
100
AcDbLine
 10
31.7461130758
 20
170.9448267131
 30
0.0
 11
31.7461130758
 21
156.1666364207
 31
0.0
  0
ARC
  5
253
330
1F
100
AcDbEntity
  8
0
  6
Continuous
 62
     7
370
    15
100
AcDbCircle
 10
34.7153050832
 20
170.9049265539
 30
0.0
 40
2.969459650929021
100
AcDbArc
 50
96.3044659596
 51
179.230106095
  0
LINE
  5
254
330
1F
100
AcDbEntity
  8
0
  6
Continuous
 62
     7
370
    15
100
AcDbLine
 10
34.3892233064
 20
173.8564283944
 30
0.0
 11
35.1857490455
 21
173.8564283944
 31
0.0
  0
ARC
  5
255
330
1F
100
AcDbEntity
  8
0
  6
Continuous
 62
     7
370
    15
100
AcDbCircle
 10
35.746113508
 20
177.0557315669
 30
0.0
 40
3.248007215816028
100
AcDbArc
 50
260.0653056811
 51
19.1729404262
  0
LINE
  5
256
330
1F
100
AcDbEntity
  8
0
  6
Continuous
 62
     7
370
    15
100
AcDbLine
 10
38.8139587445
 20
178.1224436483
 30
0.0
 11
38.8139587445
 21
178.2152974403
 31
0.0
  0
SPLINE
  5
257
330
1F
100
AcDbEntity
  8
0
  6
Continuous
 62
     7
370
    15
100
AcDbSpline
210
0.0
220
0.0
230
1.0
 70
     8
 71
     3
 72
    13
 73
     9
 74
     0
 42
0.00000001
 43
0.00000001
 12
1.0
 22
0.0
 32
0.0
 13
1.0
 23
0.0
 33
0.0
 40
0.0
 40
0.0
 40
0.0
 40
0.0
 40
0.1962825596096509
 40
0.3734497957646644
 40
0.5391744027104453
 40
0.6813774649128472
 40
0.8367390121262692
 40
1.0
 40
1.0
 40
1.0
 40
1.0
 10
38.81395874447373
 20
178.215297440327
 30
0.0
 10
38.79393842974922
 20
178.4699839208231
 30
0.0
 10
38.75584751398021
 20
178.9545537894577
 30
0.0
 10
38.81816481566663
 20
179.6749796377713
 30
0.0
 10
39.20264016706201
 20
180.2126168368951
 30
0.0
 10
39.706368847199
 20
180.5541786519872
 30
0.0
 10
40.24794178835047
 20
180.8185875453241
 30
0.0
 10
40.6333882625789
 20
180.975387787434
 30
0.0
 10
40.83088958538321
 20
181.0557316413887
 30
0.0
  0
ARC
  5
258
330
1F
100
AcDbEntity
  8
0
  6
Continuous
 62
     7
370
    15
100
AcDbCircle
 10
35.746113508
 20
177.0557315669
 30
0.0
 40
4.000000000000028
100
AcDbArc
 50
90.0
 51
180.0
  0
LINE
  5
259
330
1F
100
AcDbEntity
  8
0
  6
Continuous
 62
     7
370
    15
100
AcDbLine
 10
31.7461130758
 20
177.0557319171
 30
0.0
 11
31.7461130758
 21
170.9448267131
 31
0.0
  0
LINE
  5
25A
330
1F
100
AcDbEntity
  8
0
  6
Continuous
 62
     7
370
    15
100
AcDbLine
 10
40.8308895854
 20
181.0557316414
 30
0.0
 11
35.7461137315
 21
181.0557316414
 31
0.0
  0
ARC
  5
25B
330
1F
100
AcDbEntity
  8
0
  6
Continuous
 62
     7
370
    15
100
AcDbCircle
 10
55.746113508
 20
177.0557315669
 30
0.0
 40
4.000000000000028
100
AcDbArc
 50
0.0
 51
90.0
  0
LINE
  5
25C
330
1F
100
AcDbEntity
  8
0
  6
Continuous
 62
     7
370
    15
100
AcDbLine
 10
59.7461139401
 20
170.9448267131
 30
0.0
 11
59.7461139401
 21
177.0557319171
 31
0.0
  0
LINE
  5
25D
330
1F
100
AcDbEntity
  8
0
  6
Continuous
 62
     7
370
    15
100
AcDbLine
 10
55.7461132844
 20
181.0557316414
 30
0.0
 11
50.6613374305
 21
181.0557316414
 31
0.0
  0
ARC
  5
25E
330
1F
100
AcDbEntity
  8
0
  6
Continuous
 62
     7
370
    15
100
AcDbCircle
 10
35.746113508
 20
150.0557315669
 30
0.0
 40
4.000000000000021
100
AcDbArc
 50
180.0
 51
219.1173017795
  0
LINE
  5
25F
330
1F
100
AcDbEntity
  8
0
  6
Continuous
 62
     7
370
    15
100
AcDbLine
 10
31.7461130758
 20
156.1666364207
 30
0.0
 11
31.7461130758
 21
150.0557312167
 31
0.0
  0
CIRCLE
  5
260
330
1F
100
AcDbEntity
  8
0
  6
Continuous
 62
     7
370
    15
100
AcDbCircle
 10
45.746113508
 20
175.0557315669
 30
0.0
 40
2.050000000000011
  0
CIRCLE
  5
261
330
1F
100
AcDbEntity
  8
0
  6
Continuous
 62
     7
370
    15
100
AcDbCircle
 10
45.746113508
 20
175.0557315669
 30
0.0
 40
3.850000000000001
  0
CIRCLE
  5
262
330
1F
100
AcDbEntity
  8
0
  6
Continuous
 62
     7
370
    15
100
AcDbCircle
 10
45.746113508
 20
175.0557315669
 30
0.0
 40
4.0
  0
LINE
  5
263
330
1F
100
AcDbEntity
  8
0
  6
Continuous
 62
     7
370
    15
100
AcDbLine
 10
46.9008140349
 20
175.0557315892
 30
0.0
 11
46.3234637714
 21
176.0557317531
 31
0.0
  0
LINE
  5
264
330
1F
100
AcDbEntity
  8
0
  6
Continuous
 62
     7
370
    15
100
AcDbLine
 10
45.1687632445
 20
176.0557317531
 30
0.0
 11
46.3234637714
 21
176.0557317531
 31
0.0
  0
LINE
  5
265
330
1F
100
AcDbEntity
  8
0
  6
Continuous
 62
     7
370
    15
100
AcDbLine
 10
45.1687632445
 20
176.0557317531
 30
0.0
 11
44.591412981
 21
175.0557315892
 31
0.0
  0
LINE
  5
266
330
1F
100
AcDbEntity
  8
0
  6
Continuous
 62
     7
370
    15
100
AcDbLine
 10
44.591412981
 20
175.0557315892
 30
0.0
 11
45.1687632445
 21
174.0557314253
 31
0.0
  0
LINE
  5
267
330
1F
100
AcDbEntity
  8
0
  6
Continuous
 62
     7
370
    15
100
AcDbLine
 10
45.1687632445
 20
174.0557314253
 30
0.0
 11
46.3234637714
 21
174.0557314253
 31
0.0
  0
LINE
  5
268
330
1F
100
AcDbEntity
  8
0
  6
Continuous
 62
     7
370
    15
100
AcDbLine
 10
46.3234637714
 20
174.0557314253
 30
0.0
 11
46.9008140349
 21
175.0557315892
 31
0.0
  0
CIRCLE
  5
269
330
1F
100
AcDbEntity
  8
0
  6
Continuous
 62
     7
370
    15
100
AcDbCircle
 10
45.746113508
 20
159.0557315669
 30
0.0
 40
2.050000000000011
  0
CIRCLE
  5
26A
330
1F
100
AcDbEntity
  8
0
  6
Continuous
 62
     7
370
    15
100
AcDbCircle
 10
45.746113508
 20
159.0557315669
 30
0.0
 40
3.850000000000001
  0
CIRCLE
  5
26B
330
1F
100
AcDbEntity
  8
0
  6
Continuous
 62
     7
370
    15
100
AcDbCircle
 10
45.746113508
 20
159.0557315669
 30
0.0
 40
4.0
  0
LINE
  5
26C
330
1F
100
AcDbEntity
  8
0
  6
Continuous
 62
     7
370
    15
100
AcDbLine
 10
46.9008140349
 20
159.0557317606
 30
0.0
 11
46.3234637714
 21
160.0557314588
 31
0.0
  0
LINE
  5
26D
330
1F
100
AcDbEntity
  8
0
  6
Continuous
 62
     7
370
    15
100
AcDbLine
 10
45.1687632445
 20
160.0557314588
 30
0.0
 11
46.3234637714
 21
160.0557314588
 31
0.0
  0
LINE
  5
26E
330
1F
100
AcDbEntity
  8
0
  6
Continuous
 62
     7
370
    15
100
AcDbLine
 10
45.1687632445
 20
160.0557314588
 30
0.0
 11
44.591412981
 21
159.0557317606
 31
0.0
  0
LINE
  5
26F
330
1F
100
AcDbEntity
  8
0
  6
Continuous
 62
     7
370
    15
100
AcDbLine
 10
44.591412981
 20
159.0557317606
 30
0.0
 11
45.1687632445
 21
158.0557315967
 31
0.0
  0
LINE
  5
270
330
1F
100
AcDbEntity
  8
0
  6
Continuous
 62
     7
370
    15
100
AcDbLine
 10
45.1687632445
 20
158.0557315967
 30
0.0
 11
46.3234637714
 21
158.0557315967
 31
0.0
  0
LINE
  5
271
330
1F
100
AcDbEntity
  8
0
  6
Continuous
 62
     7
370
    15
100
AcDbLine
 10
46.3234637714
 20
158.0557315967
 30
0.0
 11
46.9008140349
 21
159.0557317606
 31
0.0
  0
ARC
  5
272
330
1F
100
AcDbEntity
  8
0
  6
Continuous
 62
     8
370
    15
100
AcDbCircle
 10
35.746113508
 20
150.0557315669
 30
0.0
 40
2.600000000000001
100
AcDbArc
 50
144.6769491027
 51
187.9119752177
  0
LINE
  5
273
330
1F
100
AcDbEntity
  8
0
  6
Continuous
 62
     8
370
    15
100
AcDbLine
 10
31.7461130758
 20
144.2753984949
 30
0.0
 11
31.8484598388
 21
144.2753984949
 31
0.0
  0
DIMENSION
  5
274
330
1F
100
AcDbEntity
  8
0
  6
Continuous
 62
     7
370
     0
100
AcDbDimension
  2
_D_10
 10
48.7189058024
 20
223.4198971498
 30
0.0
 11
45.7460957224
 21
223.4198951998
 31
0.0
 70
   160
  1
<>
 71
     2
 42
-1.0
  3
SLDDIMSTYLE4
100
AcDbAlignedDimension
 13
42.7732936822
 23
211.1628002302
 33
0.0
 14
48.7189138422
 24
211.1628041301
 34
0.0
 50
0.000037582
100
AcDbRotatedDimension
  0
DIMENSION
  5
281
330
1F
100
AcDbEntity
  8
0
  6
Continuous
 62
     7
370
     0
100
AcDbDimension
  2
_D_11
 10
54.447683508
 20
233.1629040202
 30
0.0
 11
45.746128508
 21
233.1629040202
 31
0.0
 70
   160
  1
(<>)
 71
     2
 42
-1.0
  3
SLDDIMSTYLE4
100
AcDbAlignedDimension
 13
37.044573508
 23
195.1657315669
 33
0.0
 14
54.447683508
 24
195.1657315669
 34
0.0
 50
0.0
100
AcDbRotatedDimension
  0
DIMENSION
  5
28F
330
1F
100
AcDbEntity
  8
0
  6
Continuous
 62
     7
370
     0
100
AcDbDimension
  2
_D_12
 10
26.852781845
 20
140.3557315669
 30
0.0
 11
26.852781845
 21
164.3557315669
 31
0.0
 70
   160
  1
<>
 71
     2
 42
-1.0
  3
SLDDIMSTYLE1
100
AcDbAlignedDimension
 13
38.096113508
 23
188.3557315669
 33
0.0
 14
31.746113508
 24
140.3557315669
 34
0.0
 50
90.0
100
AcDbRotatedDimension
  0
DIMENSION
  5
299
330
1F
100
AcDbEntity
  8
0
  6
Continuous
 62
     7
370
     0
100
AcDbDimension
  2
_D_13
 10
59.746113508
 20
130.3557315669
 30
0.0
 11
45.746113508
 21
130.3557315669
 31
0.0
 70
   160
  1
<>
 71
     2
 42
-1.0
  3
SLDDIMSTYLE1
100
AcDbAlignedDimension
 13
31.746113508
 23
140.3557315669
 33
0.0
 14
59.746113508
 24
140.3557315669
 34
0.0
100
AcDbRotatedDimension
  0
DIMENSION
  5
2A3
330
1F
100
AcDbEntity
  8
0
  6
Continuous
 62
     7
370
     0
100
AcDbDimension
  2
_D_14
 10
66.8019216582
 20
140.3557315669
 30
0.0
 11
66.8019216582
 21
157.0192735062
 31
0.0
 70
   160
  1
<>
 71
     2
 42
-1.0
  3
SLDDIMSTYLE1
100
AcDbAlignedDimension
 13
55.746113508
 23
181.0557315669
 33
0.0
 14
59.746113508
 24
140.3557315669
 34
0.0
 50
90.0
100
AcDbRotatedDimension
  0
DIMENSION
  5
2AD
330
1F
100
AcDbEntity
  8
0
  6
Continuous
 62
     7
370
     0
100
AcDbDimension
  2
_D_15
 10
73.6140954784
 20
140.3557315669
 30
0.0
 11
73.6140954784
 21
160.9328974785
 31
0.0
 70
   160
  1
<>
 71
     2
 42
-1.0
  3
SLDDIMSTYLE1
100
AcDbAlignedDimension
 13
56.2913287822
 23
193.0557315669
 33
0.0
 14
59.746113508
 24
140.3557315669
 34
0.0
 50
90.0
100
AcDbRotatedDimension
  0
DIMENSION
  5
2B7
330
1F
100
AcDbEntity
  8
0
  6
Continuous
 62
     7
370
     0
100
AcDbDimension
  2
_D_16
 10
73.6140954784
 20
211.1628041301
 30
0.0
 11
73.6140954784
 21
202.1092678485
 31
0.0
 70
   160
  1
(<>)
 71
     2
 42
-1.0
  3
SLDDIMSTYLE1
100
AcDbAlignedDimension
 13
56.2913287822
 23
193.0557315669
 33
0.0
 14
48.7189138422
 24
211.1628041301
 34
0.0
 50
90.0
100
AcDbRotatedDimension
  0
INSERT
  5
2CE
330
1F
100
AcDbEntity
  8
0
  6
Continuous
 62
     7
370
     0
100
AcDbBlockReference
  2
SW_CENTERMARKSYMBOL_0
 10
45.746113508
 20
188.3557315669
 30
0.0
  0
INSERT
  5
2DA
330
1F
100
AcDbEntity
  8
0
  6
Continuous
 62
     7
370
     0
100
AcDbBlockReference
  2
SW_CENTERMARKSYMBOL_1
 10
35.746113508
 20
177.0557315669
 30
0.0
  0
INSERT
  5
2E6
330
1F
100
AcDbEntity
  8
0
  6
Continuous
 62
     7
370
     0
100
AcDbBlockReference
  2
SW_CENTERMARKSYMBOL_2
 10
55.746113508
 20
177.0557315669
 30
0.0
  0
INSERT
  5
2F2
330
1F
100
AcDbEntity
  8
0
  6
Continuous
 62
     7
370
     0
100
AcDbBlockReference
  2
SW_CENTERMARKSYMBOL_3
 10
55.246113508
 20
159.0557315669
 30
0.0
  0
INSERT
  5
2FE
330
1F
100
AcDbEntity
  8
0
  6
Continuous
 62
     7
370
     0
100
AcDbBlockReference
  2
SW_CENTERMARKSYMBOL_4
 10
45.746113508
 20
175.0557315669
 30
0.0
  0
LINE
  5
2FF
330
1F
100
AcDbEntity
  8
0
  6
Continuous
 62
     7
370
    15
100
AcDbLine
 10
182.4455859042
 20
93.0969492155
 30
0.0
 11
179.7455858342
 21
93.0969492155
 31
0.0
  0
LINE
  5
300
330
1F
100
AcDbEntity
  8
0
  6
Continuous
 62
     7
370
    15
100
AcDbLine
 10
179.7455858342
 20
87.5969492453
 30
0.0
 11
182.4455859042
 21
87.5969492453
 31
0.0
  0
LINE
  5
301
330
1F
100
AcDbEntity
  8
0
  6
Continuous
 62
     7
370
    15
100
AcDbLine
 10
182.4455859042
 20
87.5969492453
 30
0.0
 11
182.7455858603
 21
88.0969493273
 31
0.0
  0
LINE
  5
302
330
1F
100
AcDbEntity
  8
0
  6
Continuous
 62
     7
370
    15
100
AcDbLine
 10
182.7455858603
 20
92.5969491335
 30
0.0
 11
182.4455859042
 21
93.0969492155
 31
0.0
  0
LINE
  5
303
330
1F
100
AcDbEntity
  8
0
  6
Continuous
 62
     7
370
    15
100
AcDbLine
 10
182.4455859042
 20
73.0969496625
 30
0.0
 11
179.7455858342
 21
73.0969496625
 31
0.0
  0
LINE
  5
304
330
1F
100
AcDbEntity
  8
0
  6
Continuous
 62
     7
370
    15
100
AcDbLine
 10
179.7455858342
 20
67.5969496923
 30
0.0
 11
182.4455859042
 21
67.5969496923
 31
0.0
  0
LINE
  5
305
330
1F
100
AcDbEntity
  8
0
  6
Continuous
 62
     7
370
    15
100
AcDbLine
 10
182.4455859042
 20
67.5969496923
 30
0.0
 11
182.7455858603
 21
68.0969497743
 31
0.0
  0
LINE
  5
306
330
1F
100
AcDbEntity
  8
0
  6
Continuous
 62
     7
370
    15
100
AcDbLine
 10
182.7455858603
 20
72.5969495806
 30
0.0
 11
182.4455859042
 21
73.0969496625
 31
0.0
  0
SPLINE
  5
307
330
1F
100
AcDbEntity
  8
0
  6
Continuous
 62
     7
370
    15
100
AcDbSpline
210
0.0
220
0.0
230
1.0
 70
     8
 71
     3
 72
    15
 73
    11
 74
     0
 42
0.00000001
 43
0.00000001
 12
1.0
 22
0.0
 32
0.0
 13
1.0
 23
0.0
 33
0.0
 40
0.0
 40
0.0
 40
0.0
 40
0.0
 40
0.1212258224921532
 40
0.2487264478951261
 40
0.3796040806113289
 40
0.5108475516082818
 40
0.63986370038098
 40
0.7648474770852369
 40
0.8849123429376806
 40
0.9999999999999999
 40
0.9999999999999999
 40
0.9999999999999999
 40
0.9999999999999999
 10
186.245585968287
 20
66.38558214482002
 30
0.0
 10
186.3975044499426
 20
66.39853015995361
 30
0.0
 10
186.7092049072793
 20
66.42509639596885
 30
0.0
 10
187.1731754455861
 20
66.57242205813164
 30
0.0
 10
187.6107448926777
 20
66.80201616753634
 30
0.0
 10
187.9909269843303
 20
67.11241751852761
 30
0.0
 10
188.2921617893707
 20
67.48428183638465
 30
0.0
 10
188.5018755478484
 20
67.89784594422213
 30
0.0
 10
188.6271644240066
 20
68.33251925179415
 30
0.0
 10
188.6394142988756
 20
68.6302803148498
 30
0.0
 10
188.645409596653
 20
68.77600965973072
 30
0.0
  0
SPLINE
  5
308
330
1F
100
AcDbEntity
  8
0
  6
Continuous
 62
     7
370
    15
100
AcDbSpline
210
0.0
220
0.0
230
1.0
 70
     8
 71
     3
 72
    15
 73
    11
 74
     0
 42
0.00000001
 43
0.00000001
 12
1.0
 22
0.0
 32
0.0
 13
1.0
 23
0.0
 33
0.0
 40
0.0
 40
0.0
 40
0.0
 40
0.0
 40
0.1150876570623193
 40
0.235152522914763
 40
0.36013629961902
 40
0.4891524483917182
 40
0.6203959193886712
 40
0.751273552104874
 40
0.8787741775078469
 40
1.0
 40
1.0
 40
1.0
 40
1.0
 10
188.645409596653
 20
91.91788924809627
 30
0.0
 10
188.6394142988756
 20
92.06361859297716
 30
0.0
 10
188.6271644240066
 20
92.36137965603284
 30
0.0
 10
188.5018755478484
 20
92.79605296360484
 30
0.0
 10
188.2921617893707
 20
93.20961707144234
 30
0.0
 10
187.9909269843303
 20
93.58148138929938
 30
0.0
 10
187.6107448926777
 20
93.89188274029063
 30
0.0
 10
187.1731754455861
 20
94.12147684969534
 30
0.0
 10
186.7092049072793
 20
94.26880251185813
 30
0.0
 10
186.3975044499426
 20
94.29536874787337
 30
0.0
 10
186.245585968287
 20
94.30831676300697
 30
0.0
  0
LINE
  5
309
330
1F
100
AcDbEntity
  8
0
  6
Continuous
 62
     7
370
    15
100
AcDbLine
 10
104.3707543887
 20
91.8469494763
 30
0.0
 11
104.1455829419
 21
91.4569497662
 31
0.0
  0
LINE
  5
30A
330
1F
100
AcDbEntity
  8
0
  6
Continuous
 62
     7
370
    15
100
AcDbLine
 10
104.1455829419
 20
88.236949462
 30
0.0
 11
104.3707543887
 21
87.8469492863
 31
0.0
  0
LINE
  5
30B
330
1F
100
AcDbEntity
  8
0
  6
Continuous
 62
     7
370
    15
100
AcDbLine
 10
104.3707543887
 20
87.8469492863
 30
0.0
 11
105.2455866612
 21
87.8469492863
 31
0.0
  0
LINE
  5
30C
330
1F
100
AcDbEntity
  8
0
  6
Continuous
 62
     7
370
    15
100
AcDbLine
 10
105.2455866612
 20
91.8469494763
 30
0.0
 11
104.3707543887
 21
91.8469494763
 31
0.0
  0
LINE
  5
30D
330
1F
100
AcDbEntity
  8
0
  6
Continuous
 62
     7
370
    15
100
AcDbLine
 10
180.8455858282
 20
93.0969492155
 30
0.0
 11
179.7455858342
 21
93.0969492155
 31
0.0
  0
LINE
  5
30E
330
1F
100
AcDbEntity
  8
0
  6
Continuous
 62
     7
370
    15
100
AcDbLine
 10
179.7455858342
 20
87.5969492453
 30
0.0
 11
180.8455858282
 21
87.5969492453
 31
0.0
  0
LINE
  5
30F
330
1F
100
AcDbEntity
  8
0
  6
Continuous
 62
     7
370
    15
100
AcDbLine
 10
105.2455866612
 20
86.3469495061
 30
0.0
 11
105.5581906713
 21
85.8054976533
 31
0.0
  0
LINE
  5
310
330
1F
100
AcDbEntity
  8
0
  6
Continuous
 62
     7
370
    15
100
AcDbLine
 10
105.5581906713
 20
93.8884011092
 30
0.0
 11
105.2455866612
 21
93.3469497221
 31
0.0
  0
LINE
  5
311
330
1F
100
AcDbEntity
  8
0
  6
Continuous
 62
     7
370
    15
100
AcDbLine
 10
96.2455833233
 20
76.3469492639
 30
0.0
 11
108.4455886758
 21
76.3469492639
 31
0.0
  0
LINE
  5
312
330
1F
100
AcDbEntity
  8
0
  6
Continuous
 62
     7
370
    15
100
AcDbLine
 10
108.4455886758
 20
84.3469496439
 30
0.0
 11
96.2455833233
 21
84.3469496439
 31
0.0
  0
LINE
  5
313
330
1F
100
AcDbEntity
  8
0
  6
Continuous
 62
     7
370
    15
100
AcDbLine
 10
93.8455874003
 20
76.4969494748
 30
0.0
 11
95.3455829895
 21
76.4969494748
 31
0.0
  0
LINE
  5
314
330
1F
100
AcDbEntity
  8
0
  6
Continuous
 62
     7
370
    15
100
AcDbLine
 10
95.3455829895
 20
84.1969494331
 30
0.0
 11
93.8455874003
 21
84.1969494331
 31
0.0
  0
LINE
  5
315
330
1F
100
AcDbEntity
  8
0
  6
Continuous
 62
     7
370
    15
100
AcDbLine
 10
95.3455829895
 20
77.9469493399
 30
0.0
 11
96.2455833233
 21
77.9469493399
 31
0.0
  0
LINE
  5
316
330
1F
100
AcDbEntity
  8
0
  6
Continuous
 62
     7
370
    15
100
AcDbLine
 10
96.2455833233
 20
82.7469495679
 30
0.0
 11
95.3455829895
 21
82.7469495679
 31
0.0
  0
LINE
  5
317
330
1F
100
AcDbEntity
  8
0
  6
Continuous
 62
     7
370
    15
100
AcDbLine
 10
179.7455858342
 20
92.3469495582
 30
0.0
 11
178.145585991
 21
92.3469495582
 31
0.0
  0
LINE
  5
318
330
1F
100
AcDbEntity
  8
0
  6
Continuous
 62
     7
370
    15
100
AcDbLine
 10
179.7455858342
 20
68.3469493496
 30
0.0
 11
179.7455858342
 21
92.3469495582
 31
0.0
  0
LINE
  5
319
330
1F
100
AcDbEntity
  8
0
  6
Continuous
 62
     7
370
    15
100
AcDbLine
 10
178.145585991
 20
68.3469493496
 30
0.0
 11
179.7455858342
 21
68.3469493496
 31
0.0
  0
LINE
  5
31A
330
1F
100
AcDbEntity
  8
0
  6
Continuous
 62
     7
370
    15
100
AcDbLine
 10
178.145585991
 20
94.346949886
 30
0.0
 11
179.7455858342
 21
94.346949886
 31
0.0
  0
LINE
  5
31B
330
1F
100
AcDbEntity
  8
0
  6
Continuous
 62
     7
370
    15
100
AcDbLine
 10
179.7455858342
 20
92.3469495582
 30
0.0
 11
179.7455858342
 21
94.346949886
 31
0.0
  0
LINE
  5
31C
330
1F
100
AcDbEntity
  8
0
  6
Continuous
 62
     7
370
    15
100
AcDbLine
 10
178.145585991
 20
66.3469490218
 30
0.0
 11
179.7455858342
 21
66.3469490218
 31
0.0
  0
LINE
  5
31D
330
1F
100
AcDbEntity
  8
0
  6
Continuous
 62
     7
370
    15
100
AcDbLine
 10
179.7455858342
 20
66.3469490218
 30
0.0
 11
179.7455858342
 21
68.3469493496
 31
0.0
  0
LINE
  5
31E
330
1F
100
AcDbEntity
  8
0
  6
Continuous
 62
     7
370
    15
100
AcDbLine
 10
182.4455859042
 20
93.0969492155
 30
0.0
 11
182.4455859042
 21
87.5969492453
 31
0.0
  0
LINE
  5
31F
330
1F
100
AcDbEntity
  8
0
  6
Continuous
 62
     7
370
    15
100
AcDbLine
 10
182.7455858603
 20
92.5969491335
 30
0.0
 11
182.7455858603
 21
88.0969493273
 31
0.0
  0
LINE
  5
320
330
1F
100
AcDbEntity
  8
0
  6
Continuous
 62
     7
370
    15
100
AcDbLine
 10
182.4455859042
 20
73.0969496625
 30
0.0
 11
182.4455859042
 21
67.5969496923
 31
0.0
  0
LINE
  5
321
330
1F
100
AcDbEntity
  8
0
  6
Continuous
 62
     7
370
    15
100
AcDbLine
 10
182.7455858603
 20
72.5969495806
 30
0.0
 11
182.7455858603
 21
68.0969497743
 31
0.0
  0
SPLINE
  5
322
330
1F
100
AcDbEntity
  8
0
  6
Continuous
 62
     7
370
    15
100
AcDbSpline
210
0.0
220
0.0
230
1.0
 70
    24
 71
     3
 72
    11
 73
     7
 74
     0
 42
0.00000001
 43
0.00000001
 12
1.0
 22
0.0
 32
0.0
 13
1.0
 23
0.0
 33
0.0
 40
0.0
 40
0.0
 40
0.0
 40
0.0
 40
0.3133618072204102
 40
0.6516791566984372
 40
0.9957126931829565
 40
1.0
 40
1.0
 40
1.0
 40
1.0
 10
179.7455862998379
 20
66.34694902177982
 30
0.0
 10
179.7724364059612
 20
66.34694902177982
 30
0.0
 10
179.8282749099286
 20
66.34694902177984
 30
0.0
 10
180.1539570389942
 20
66.34694902177974
 30
0.0
 10
180.4112716787982
 20
66.34694902177996
 30
0.0
 10
180.5439527671068
 20
66.34694902177982
 30
0.0
 10
180.5455858721745
 20
66.34694902177982
 30
0.0
  0
SPLINE
  5
323
330
1F
100
AcDbEntity
  8
0
  6
Continuous
 62
     7
370
    15
100
AcDbSpline
210
0.0
220
0.0
230
1.0
 70
    24
 71
     3
 72
    11
 73
     7
 74
     0
 42
0.00000001
 43
0.00000001
 12
1.0
 22
0.0
 32
0.0
 13
1.0
 23
0.0
 33
0.0
 40
0.0
 40
0.0
 40
0.0
 40
0.0
 40
0.0042868972112061
 40
0.3543730001178573
 40
0.7076561576196725
 40
1.0
 40
1.0
 40
1.0
 40
1.0
 10
180.5455858721745
 20
94.34694988604717
 30
0.0
 10
180.5439527697316
 20
94.34694988604717
 30
0.0
 10
180.4089536354663
 20
94.34694988604713
 30
0.0
 10
180.1437065523752
 20
94.34694988604718
 30
0.0
 10
179.8213337963011
 20
94.34694988604716
 30
0.0
 10
179.7691947240292
 20
94.34694988604717
 30
0.0
 10
179.7455858341766
 20
94.34694988604717
 30
0.0
  0
LINE
  5
324
330
1F
100
AcDbEntity
  8
0
  6
Continuous
 62
     7
370
    15
100
AcDbLine
 10
186.2455859683
 20
66.3854890126
 30
0.0
 11
186.2455859683
 21
66.3469490218
 31
0.0
  0
LINE
  5
325
330
1F
100
AcDbEntity
  8
0
  6
Continuous
 62
     7
370
    15
100
AcDbLine
 10
188.6455856166
 20
68.7469496014
 30
0.0
 11
186.2455859683
 21
68.7469496014
 31
0.0
  0
LINE
  5
326
330
1F
100
AcDbEntity
  8
0
  6
Continuous
 62
     7
370
    15
100
AcDbLine
 10
188.6455856166
 20
91.9469493064
 30
0.0
 11
186.2455859683
 21
91.9469493064
 31
0.0
  0
LINE
  5
327
330
1F
100
AcDbEntity
  8
0
  6
Continuous
 62
     7
370
    15
100
AcDbLine
 10
186.2455859683
 20
94.346949886
 30
0.0
 11
186.2455859683
 21
94.3082282874
 31
0.0
  0
LINE
  5
328
330
1F
100
AcDbEntity
  8
0
  6
Continuous
 62
     7
370
    15
100
AcDbLine
 10
186.2455859683
 20
94.346949886
 30
0.0
 11
180.5455858722
 21
94.346949886
 31
0.0
  0
LINE
  5
329
330
1F
100
AcDbEntity
  8
0
  6
Continuous
 62
     7
370
    15
100
AcDbLine
 10
180.5455858722
 20
66.3469490218
 30
0.0
 11
186.2455859683
 21
66.3469490218
 31
0.0
  0
LINE
  5
32A
330
1F
100
AcDbEntity
  8
0
  6
Continuous
 62
     7
370
    15
100
AcDbLine
 10
186.2455859683
 20
91.9469493064
 30
0.0
 11
186.2455859683
 21
68.7469496014
 31
0.0
  0
LINE
  5
32B
330
1F
100
AcDbEntity
  8
0
  6
Continuous
 62
     7
370
    15
100
AcDbLine
 10
188.6455856166
 20
68.7469496014
 30
0.0
 11
188.6455856166
 21
91.9469493064
 31
0.0
  0
LINE
  5
32C
330
1F
100
AcDbEntity
  8
0
  6
Continuous
 62
     7
370
    15
100
AcDbLine
 10
104.1455829419
 20
88.7481263461
 30
0.0
 11
104.1455829419
 21
91.4569497662
 31
0.0
  0
LINE
  5
32D
330
1F
100
AcDbEntity
  8
0
  6
Continuous
 62
     7
370
    15
100
AcDbLine
 10
104.1455829419
 20
88.236949462
 30
0.0
 11
104.1455829419
 21
88.7481263461
 31
0.0
  0
LINE
  5
32E
330
1F
100
AcDbEntity
  8
0
  6
Continuous
 62
     7
370
    15
100
AcDbLine
 10
104.3707543887
 20
88.4819524917
 30
0.0
 11
104.3707543887
 21
91.8469494763
 31
0.0
  0
LINE
  5
32F
330
1F
100
AcDbEntity
  8
0
  6
Continuous
 62
     7
370
    15
100
AcDbLine
 10
104.3707543887
 20
87.8469492863
 30
0.0
 11
104.3707543887
 21
88.4819524917
 31
0.0
  0
LINE
  5
330
330
1F
100
AcDbEntity
  8
0
  6
Continuous
 62
     7
370
    15
100
AcDbLine
 10
180.8455858282
 20
93.0969492155
 30
0.0
 11
180.8455858282
 21
87.5969492453
 31
0.0
  0
LINE
  5
331
330
1F
100
AcDbEntity
  8
0
  6
Continuous
 62
     7
370
    15
100
AcDbLine
 10
108.4455886758
 20
85.8054976533
 30
0.0
 11
105.5581906713
 21
85.8054976533
 31
0.0
  0
SPLINE
  5
332
330
1F
100
AcDbEntity
  8
0
  6
Continuous
 62
     7
370
    15
100
AcDbSpline
210
0.0
220
0.0
230
1.0
 70
     8
 71
     3
 72
    10
 73
     6
 74
     0
 42
0.00000001
 43
0.00000001
 12
1.0
 22
0.0
 32
0.0
 13
1.0
 23
0.0
 33
0.0
 40
0.0
 40
0.0
 40
0.0
 40
0.0
 40
0.0700365626465201
 40
0.5307571149786066
 40
1.0
 40
1.0
 40
1.0
 40
1.0
 10
105.245586661191
 20
86.81586064349942
 30
0.0
 10
105.2459589631849
 20
86.79193002974212
 30
0.0
 10
105.2487803742412
 20
86.61057699016484
 30
0.0
 10
105.3170525557722
 20
86.26862780122063
 30
0.0
 10
105.4773217220871
 20
85.9608146521403
 30
0.0
 10
105.5581906712961
 20
85.8054976532989
 30
0.0
  0
SPLINE
  5
333
330
1F
100
AcDbEntity
  8
0
  6
Continuous
 62
     7
370
    15
100
AcDbSpline
210
0.0
220
0.0
230
1.0
 70
     8
 71
     3
 72
     9
 73
     5
 74
     0
 42
0.00000001
 43
0.00000001
 12
1.0
 22
0.0
 32
0.0
 13
1.0
 23
0.0
 33
0.0
 40
0.0
 40
0.0
 40
0.0
 40
0.0
 40
0.4954578422127281
 40
1.0
 40
1.0
 40
1.0
 40
1.0
 10
105.5581906712962
 20
87.82622363369994
 30
0.0
 10
105.4708186178291
 20
87.66213621337914
 30
0.0
 10
105.2944725273587
 20
87.33095279807995
 30
0.0
 10
105.2619803396758
 20
86.98859472461919
 30
0.0
 10
105.245586661191
 20
86.81586064349942
 30
0.0
  0
LINE
  5
334
330
1F
100
AcDbEntity
  8
0
  6
Continuous
 62
     7
370
    15
100
AcDbLine
 10
108.4455886758
 20
87.8262236337
 30
0.0
 11
105.5581906713
 21
87.8262236337
 31
0.0
  0
SPLINE
  5
335
330
1F
100
AcDbEntity
  8
0
  6
Continuous
 62
     7
370
    15
100
AcDbSpline
210
0.0
220
0.0
230
1.0
 70
     8
 71
     3
 72
    10
 73
     6
 74
     0
 42
0.00000001
 43
0.00000001
 12
1.0
 22
0.0
 32
0.0
 13
1.0
 23
0.0
 33
0.0
 40
0.0
 40
0.0
 40
0.0
 40
0.0
 40
0.2572431768452554
 40
0.6263799428923559
 40
1.0
 40
1.0
 40
1.0
 40
1.0
 10
105.5581906712962
 20
87.82622363369994
 30
0.0
 10
105.5121241996875
 20
87.99591525286185
 30
0.0
 10
105.399953629376
 20
88.40910960080717
 30
0.0
 10
105.2743909296872
 20
89.08349962016084
 30
0.0
 10
105.2552266426621
 20
89.59144398580383
 30
0.0
 10
105.245586661191
 20
89.84694914843969
 30
0.0
  0
LINE
  5
336
330
1F
100
AcDbEntity
  8
0
  6
Continuous
 62
     7
370
    15
100
AcDbLine
 10
105.2455866612
 20
89.8469491484
 30
0.0
 11
105.2455866612
 21
86.8158606435
 31
0.0
  0
SPLINE
  5
337
330
1F
100
AcDbEntity
  8
0
  6
Continuous
 62
     7
370
    15
100
AcDbSpline
210
0.0
220
0.0
230
1.0
 70
     8
 71
     3
 72
    10
 73
     6
 74
     0
 42
0.00000001
 43
0.00000001
 12
1.0
 22
0.0
 32
0.0
 13
1.0
 23
0.0
 33
0.0
 40
0.0
 40
0.0
 40
0.0
 40
0.0
 40
0.2684068207404545
 40
0.6323733358689111
 40
1.0
 40
1.0
 40
1.0
 40
1.0
 10
105.245586661191
 20
89.84694914843969
 30
0.0
 10
105.2506643018124
 20
90.03046099207774
 30
0.0
 10
105.2626273530091
 20
90.46281959016663
 30
0.0
 10
105.3654184870984
 20
91.14113172432592
 30
0.0
 10
105.4937193142332
 20
91.62468758658135
 30
0.0
 10
105.5581906712962
 20
91.86767512884073
 30
0.0
  0
LINE
  5
338
330
1F
100
AcDbEntity
  8
0
  6
Continuous
 62
     7
370
    15
100
AcDbLine
 10
108.4455886758
 20
91.8676751288
 30
0.0
 11
105.5581906713
 21
91.8676751288
 31
0.0
  0
SPLINE
  5
339
330
1F
100
AcDbEntity
  8
0
  6
Continuous
 62
     7
370
    15
100
AcDbSpline
210
0.0
220
0.0
230
1.0
 70
     8
 71
     3
 72
    10
 73
     6
 74
     0
 42
0.00000001
 43
0.00000001
 12
1.0
 22
0.0
 32
0.0
 13
1.0
 23
0.0
 33
0.0
 40
0.0
 40
0.0
 40
0.0
 40
0.0
 40
0.0700362528189455
 40
0.5307569207574331
 40
1.0
 40
1.0
 40
1.0
 40
1.0
 10
105.245586661191
 20
92.87803811904125
 30
0.0
 10
105.2459589650201
 20
92.85410766594711
 30
0.0
 10
105.2487804014331
 20
92.67275510801677
 30
0.0
 10
105.3170525709237
 20
92.3308049324858
 30
0.0
 10
105.4773217228286
 20
92.02299202055922
 30
0.0
 10
105.5581906712962
 20
91.86767512884073
 30
0.0
  0
LINE
  5
33A
330
1F
100
AcDbEntity
  8
0
  6
Continuous
 62
     7
370
    15
100
AcDbLine
 10
105.2455866612
 20
89.8469491484
 30
0.0
 11
105.2455866612
 21
92.878038119
 31
0.0
  0
SPLINE
  5
33B
330
1F
100
AcDbEntity
  8
0
  6
Continuous
 62
     7
370
    15
100
AcDbSpline
210
0.0
220
0.0
230
1.0
 70
     8
 71
     3
 72
     9
 73
     5
 74
     0
 42
0.00000001
 43
0.00000001
 12
1.0
 22
0.0
 32
0.0
 13
1.0
 23
0.0
 33
0.0
 40
0.0
 40
0.0
 40
0.0
 40
0.0
 40
0.4954578422127281
 40
1.0
 40
1.0
 40
1.0
 40
1.0
 10
105.5581906712961
 20
93.88840110924177
 30
0.0
 10
105.470818617829
 20
93.72431368892097
 30
0.0
 10
105.2944725273586
 20
93.39313027362178
 30
0.0
 10
105.2619803396758
 20
93.05077220016102
 30
0.0
 10
105.245586661191
 20
92.87803811904125
 30
0.0
  0
LINE
  5
33C
330
1F
100
AcDbEntity
  8
0
  6
Continuous
 62
     7
370
    15
100
AcDbLine
 10
108.4455886758
 20
93.8884011092
 30
0.0
 11
105.5581906713
 21
93.8884011092
 31
0.0
  0
LINE
  5
33D
330
1F
100
AcDbEntity
  8
0
  6
Continuous
 62
     7
370
    15
100
AcDbLine
 10
105.2455866612
 20
86.8158606435
 30
0.0
 11
105.2455866612
 21
86.3469495061
 31
0.0
  0
LINE
  5
33E
330
1F
100
AcDbEntity
  8
0
  6
Continuous
 62
     7
370
    15
100
AcDbLine
 10
105.2455866612
 20
93.3469497221
 30
0.0
 11
105.2455866612
 21
92.878038119
 31
0.0
  0
CIRCLE
  5
33F
330
1F
100
AcDbEntity
  8
0
  6
Continuous
 62
     7
370
    15
100
AcDbCircle
 10
168.445585934
 20
80.3469494539
 30
0.0
 40
2.0
  0
ARC
  5
340
330
1F
100
AcDbEntity
  8
0
  6
Continuous
 62
     7
370
    15
100
AcDbCircle
 10
168.445585934
 20
80.3469494539
 30
0.0
 40
3.99999999999998
100
AcDbArc
 50
145.5884913302
 51
214.4115086698
  0
LINE
  5
341
330
1F
100
AcDbEntity
  8
0
  6
Continuous
 62
     7
370
    15
100
AcDbLine
 10
160.4455860234
 20
83.8110510348
 30
0.0
 11
160.4455860234
 21
76.882847873
 31
0.0
  0
LINE
  5
342
330
1F
100
AcDbEntity
  8
0
  6
Continuous
 62
     7
370
    15
100
AcDbLine
 10
111.9455883182
 20
66.3469490218
 30
0.0
 11
111.9455883182
 21
94.346949886
 31
0.0
  0
LINE
  5
343
330
1F
100
AcDbEntity
  8
0
  6
Continuous
 62
     7
370
    15
100
AcDbLine
 10
108.4455886758
 20
66.3469490218
 30
0.0
 11
108.4455886758
 21
94.346949886
 31
0.0
  0
LINE
  5
344
330
1F
100
AcDbEntity
  8
0
  6
Continuous
 62
     7
370
    15
100
AcDbLine
 10
108.4455886758
 20
94.346949886
 30
0.0
 11
111.9455883182
 21
94.346949886
 31
0.0
  0
LINE
  5
345
330
1F
100
AcDbEntity
  8
0
  6
Continuous
 62
     7
370
    15
100
AcDbLine
 10
108.4455886758
 20
66.3469490218
 30
0.0
 11
111.9455883182
 21
66.3469490218
 31
0.0
  0
LINE
  5
346
330
1F
100
AcDbEntity
  8
0
  6
Continuous
 62
     7
370
    15
100
AcDbLine
 10
154.9335030741
 20
66.3469490218
 30
0.0
 11
154.9335030741
 21
94.346949886
 31
0.0
  0
LINE
  5
347
330
1F
100
AcDbEntity
  8
0
  6
Continuous
 62
     7
370
    15
100
AcDbLine
 10
111.9455883182
 20
94.346949886
 30
0.0
 11
154.9335030741
 21
94.346949886
 31
0.0
  0
CIRCLE
  5
348
330
1F
100
AcDbEntity
  8
0
  6
Continuous
 62
     7
370
    15
100
AcDbCircle
 10
140.945585934
 20
90.3469494539
 30
0.0
 40
1.649999999999991
  0
CIRCLE
  5
349
330
1F
100
AcDbEntity
  8
0
  6
Continuous
 62
     7
370
    15
100
AcDbCircle
 10
150.945585934
 20
90.3469494539
 30
0.0
 40
1.649999999999991
  0
CIRCLE
  5
34A
330
1F
100
AcDbEntity
  8
0
  6
Continuous
 62
     7
370
    15
100
AcDbCircle
 10
140.945585934
 20
70.3469494539
 30
0.0
 40
1.649999999999991
  0
CIRCLE
  5
34B
330
1F
100
AcDbEntity
  8
0
  6
Continuous
 62
     7
370
    15
100
AcDbCircle
 10
150.945585934
 20
70.3469494539
 30
0.0
 40
1.649999999999991
  0
CIRCLE
  5
34C
330
1F
100
AcDbEntity
  8
0
  6
Continuous
 62
     7
370
    15
100
AcDbCircle
 10
150.945585934
 20
80.3469494539
 30
0.0
 40
1.649999999999991
  0
CIRCLE
  5
34D
330
1F
100
AcDbEntity
  8
0
  6
Continuous
 62
     7
370
    15
100
AcDbCircle
 10
130.945585934
 20
80.3469494539
 30
0.0
 40
1.649999999999991
  0
LINE
  5
34E
330
1F
100
AcDbEntity
  8
0
  6
Continuous
 62
     7
370
    15
100
AcDbLine
 10
111.9455883182
 20
66.3469490218
 30
0.0
 11
154.9335030741
 21
66.3469490218
 31
0.0
  0
LINE
  5
34F
330
1F
100
AcDbEntity
  8
0
  6
Continuous
 62
     7
370
    15
100
AcDbLine
 10
156.3010627306
 20
66.3469490218
 30
0.0
 11
156.3010627306
 21
94.346949886
 31
0.0
  0
LINE
  5
350
330
1F
100
AcDbEntity
  8
0
  6
Continuous
 62
     7
370
    15
100
AcDbLine
 10
154.9335030741
 20
66.3469490218
 30
0.0
 11
156.3010627306
 21
66.3469490218
 31
0.0
  0
LINE
  5
351
330
1F
100
AcDbEntity
  8
0
  6
Continuous
 62
     7
370
    15
100
AcDbLine
 10
154.9335030741
 20
94.346949886
 30
0.0
 11
156.3010627306
 21
94.346949886
 31
0.0
  0
LINE
  5
352
330
1F
100
AcDbEntity
  8
0
  6
Continuous
 62
     7
370
    15
100
AcDbLine
 10
156.3010627306
 20
94.346949886
 30
0.0
 11
159.4583077259
 21
94.346949886
 31
0.0
  0
LINE
  5
353
330
1F
100
AcDbEntity
  8
0
  6
Continuous
 62
     7
370
    15
100
AcDbLine
 10
159.4583077259
 20
83.007055623
 30
0.0
 11
159.4583077259
 21
94.346949886
 31
0.0
  0
ARC
  5
354
330
1F
100
AcDbEntity
  8
0
  6
Continuous
 62
     7
370
    15
100
AcDbCircle
 10
162.445585934
 20
80.3469494539
 30
0.0
 40
4.000000000000001
100
AcDbArc
 50
138.3156370023
 51
221.6843629977
  0
LINE
  5
355
330
1F
100
AcDbEntity
  8
0
  6
Continuous
 62
     7
370
    15
100
AcDbLine
 10
159.4583077259
 20
66.3469490218
 30
0.0
 11
159.4583077259
 21
77.6868432849
 31
0.0
  0
LINE
  5
356
330
1F
100
AcDbEntity
  8
0
  6
Continuous
 62
     7
370
    15
100
AcDbLine
 10
156.3010627306
 20
66.3469490218
 30
0.0
 11
159.4583077259
 21
66.3469490218
 31
0.0
  0
LINE
  5
357
330
1F
100
AcDbEntity
  8
0
  6
Continuous
 62
     7
370
    15
100
AcDbLine
 10
159.4583077259
 20
94.346949886
 30
0.0
 11
159.8490385241
 21
94.346949886
 31
0.0
  0
LINE
  5
358
330
1F
100
AcDbEntity
  8
0
  6
Continuous
 62
     7
370
    15
100
AcDbLine
 10
159.8490385241
 20
83.3896357189
 30
0.0
 11
159.8490385241
 21
94.346949886
 31
0.0
  0
SPLINE
  5
359
330
1F
100
AcDbEntity
  8
0
  6
Continuous
 62
     7
370
    15
100
AcDbSpline
210
0.0
220
0.0
230
1.0
 70
     8
 71
     3
 72
    10
 73
     6
 74
     0
 42
0.00000001
 43
0.00000001
 12
1.0
 22
0.0
 32
0.0
 13
1.0
 23
0.0
 33
0.0
 40
0.0
 40
0.0
 40
0.0
 40
0.0
 40
0.4937150385427715
 40
0.7461768085231779
 40
1.0
 40
1.0
 40
1.0
 40
1.0
 10
159.8490385241224
 20
83.38963571887545
 30
0.0
 10
159.7807441148547
 20
83.3290047059924
 30
0.0
 10
159.6775272784833
 20
83.23736995282763
 30
0.0
 10
159.5497359117689
 20
83.10759131734771
 30
0.0
 10
159.4888383731868
 20
83.04062754389663
 30
0.0
 10
159.4583077258779
 20
83.00705562297337
 30
0.0
  0
LINE
  5
35A
330
1F
100
AcDbEntity
  8
0
  6
Continuous
 62
     7
370
    15
100
AcDbLine
 10
159.4583077259
 20
66.3469490218
 30
0.0
 11
159.8490385241
 21
66.3469490218
 31
0.0
  0
SPLINE
  5
35B
330
1F
100
AcDbEntity
  8
0
  6
Continuous
 62
     7
370
    15
100
AcDbSpline
210
0.0
220
0.0
230
1.0
 70
     8
 71
     3
 72
    10
 73
     6
 74
     0
 42
0.00000001
 43
0.00000001
 12
1.0
 22
0.0
 32
0.0
 13
1.0
 23
0.0
 33
0.0
 40
0.0
 40
0.0
 40
0.0
 40
0.0
 40
0.4941693131587601
 40
0.7462474354110195
 40
1.0
 40
1.0
 40
1.0
 40
1.0
 10
159.4583077258779
 20
77.68684328485362
 30
0.0
 10
159.5186120648858
 20
77.6216314667856
 30
0.0
 10
159.6096779346807
 20
77.52315478946895
 30
0.0
 10
159.7432248563881
 20
77.39652485233269
 30
0.0
 10
159.8136895488711
 20
77.33508487130449
 30
0.0
 10
159.8490385241224
 20
77.30426318895154
 30
0.0
  0
LINE
  5
35C
330
1F
100
AcDbEntity
  8
0
  6
Continuous
 62
     7
370
    15
100
AcDbLine
 10
159.8490385241
 20
66.3469490218
 30
0.0
 11
159.8490385241
 21
77.304263189
 31
0.0
  0
ARC
  5
35D
330
1F
100
AcDbEntity
  8
0
  6
Continuous
 62
     7
370
    15
100
AcDbCircle
 10
162.445585934
 20
80.3469494539
 30
0.0
 40
4.000000000000014
100
AcDbArc
 50
229.5234387067
 51
270.0
  0
LINE
  5
35E
330
1F
100
AcDbEntity
  8
0
  6
Continuous
 62
     7
370
    15
100
AcDbLine
 10
162.4455863512
 20
76.3469492639
 30
0.0
 11
165.14558549
 21
76.3469492639
 31
0.0
  0
LINE
  5
35F
330
1F
100
AcDbEntity
  8
0
  6
Continuous
 62
     7
370
    15
100
AcDbLine
 10
159.8490385241
 20
66.3469490218
 30
0.0
 11
166.1455856539
 21
66.3469490218
 31
0.0
  0
LINE
  5
360
330
1F
100
AcDbEntity
  8
0
  6
Continuous
 62
     7
370
    15
100
AcDbLine
 10
165.14558549
 20
84.3469496439
 30
0.0
 11
162.4455863512
 21
84.3469496439
 31
0.0
  0
ARC
  5
361
330
1F
100
AcDbEntity
  8
0
  6
Continuous
 62
     7
370
    15
100
AcDbCircle
 10
162.445585934
 20
80.3469494539
 30
0.0
 40
3.999999999999986
100
AcDbArc
 50
90.0
 51
130.4765612933
  0
LINE
  5
362
330
1F
100
AcDbEntity
  8
0
  6
Continuous
 62
     7
370
    15
100
AcDbLine
 10
159.8490385241
 20
94.346949886
 30
0.0
 11
166.1455856539
 21
94.346949886
 31
0.0
  0
LINE
  5
363
330
1F
100
AcDbEntity
  8
0
  6
Continuous
 62
     7
370
    15
100
AcDbLine
 10
175.9455858865
 20
94.346949886
 30
0.0
 11
175.9455858865
 21
66.3469490218
 31
0.0
  0
LINE
  5
364
330
1F
100
AcDbEntity
  8
0
  6
Continuous
 62
     7
370
    15
100
AcDbLine
 10
166.1455856539
 20
66.3469490218
 30
0.0
 11
175.9455858865
 21
66.3469490218
 31
0.0
  0
LINE
  5
365
330
1F
100
AcDbEntity
  8
0
  6
Continuous
 62
     7
370
    15
100
AcDbLine
 10
165.14558549
 20
93.3469497221
 30
0.0
 11
165.14558549
 21
67.3469491857
 31
0.0
  0
LINE
  5
366
330
1F
100
AcDbEntity
  8
0
  6
Continuous
 62
     7
370
    15
100
AcDbLine
 10
166.1455856539
 20
94.346949886
 30
0.0
 11
165.14558549
 21
93.3469497221
 31
0.0
  0
LINE
  5
367
330
1F
100
AcDbEntity
  8
0
  6
Continuous
 62
     7
370
    15
100
AcDbLine
 10
166.1455856539
 20
94.346949886
 30
0.0
 11
175.9455858865
 21
94.346949886
 31
0.0
  0
CIRCLE
  5
368
330
1F
100
AcDbEntity
  8
0
  6
Continuous
 62
     7
370
    15
100
AcDbCircle
 10
168.445585934
 20
80.3469494539
 30
0.0
 40
2.099999999999994
  0
LINE
  5
369
330
1F
100
AcDbEntity
  8
0
  6
Continuous
 62
     7
370
    15
100
AcDbLine
 10
165.14558549
 20
67.3469491857
 30
0.0
 11
166.1455856539
 21
66.3469490218
 31
0.0
  0
LINE
  5
36A
330
1F
100
AcDbEntity
  8
0
  6
Continuous
 62
     7
370
    15
100
AcDbLine
 10
175.9455858865
 20
94.346949886
 30
0.0
 11
178.145585991
 21
94.346949886
 31
0.0
  0
LINE
  5
36B
330
1F
100
AcDbEntity
  8
0
  6
Continuous
 62
     7
370
    15
100
AcDbLine
 10
178.145585991
 20
94.346949886
 30
0.0
 11
178.145585991
 21
66.3469490218
 31
0.0
  0
LINE
  5
36C
330
1F
100
AcDbEntity
  8
0
  6
Continuous
 62
     7
370
    15
100
AcDbLine
 10
175.9455858865
 20
66.3469490218
 30
0.0
 11
178.145585991
 21
66.3469490218
 31
0.0
  0
LINE
  5
36D
330
1F
100
AcDbEntity
  8
0
  6
Continuous
 62
     7
370
    15
100
AcDbLine
 10
129.4455865301
 20
79.659563079
 30
0.0
 11
129.4455865301
 21
81.0343358288
 31
0.0
  0
LINE
  5
36E
330
1F
100
AcDbEntity
  8
0
  6
Continuous
 62
     7
370
    15
100
AcDbLine
 10
96.2455833233
 20
80.3469494539
 30
0.0
 11
96.2455833233
 21
84.3469496439
 31
0.0
  0
LINE
  5
36F
330
1F
100
AcDbEntity
  8
0
  6
Continuous
 62
     7
370
    15
100
AcDbLine
 10
96.2455833233
 20
76.3469492639
 30
0.0
 11
96.2455833233
 21
80.3469494539
 31
0.0
  0
LINE
  5
370
330
1F
100
AcDbEntity
  8
0
  6
Continuous
 62
     7
370
    15
100
AcDbLine
 10
95.3455829895
 20
76.4969494748
 30
0.0
 11
95.3455829895
 21
84.1969494331
 31
0.0
  0
LINE
  5
371
330
1F
100
AcDbEntity
  8
0
  6
Continuous
 62
     7
370
    15
100
AcDbLine
 10
93.8455874003
 20
76.4969494748
 30
0.0
 11
93.8455874003
 21
84.1969494331
 31
0.0
  0
LINE
  5
372
330
1F
100
AcDbEntity
  8
0
  6
Continuous
 62
     8
370
    15
100
AcDbLine
 10
180.5455858722
 20
67.5969496923
 30
0.0
 11
180.5455858722
 21
66.3469490218
 31
0.0
  0
LINE
  5
373
330
1F
100
AcDbEntity
  8
0
  6
Continuous
 62
     8
370
    15
100
AcDbLine
 10
180.5455858722
 20
87.5969492453
 30
0.0
 11
180.5455858722
 21
73.0969496625
 31
0.0
  0
LINE
  5
374
330
1F
100
AcDbEntity
  8
0
  6
Continuous
 62
     8
370
    15
100
AcDbLine
 10
180.5455858722
 20
94.346949886
 30
0.0
 11
180.5455858722
 21
93.0969492155
 31
0.0
  0
LINE
  5
375
330
1F
100
AcDbEntity
  8
0
  6
Continuous
 62
     8
370
    15
100
AcDbLine
 10
186.2455859683
 20
68.7469496014
 30
0.0
 11
186.2455859683
 21
66.3854890126
 31
0.0
  0
LINE
  5
376
330
1F
100
AcDbEntity
  8
0
  6
Continuous
 62
     8
370
    15
100
AcDbLine
 10
186.2455859683
 20
94.3082282874
 30
0.0
 11
186.2455859683
 21
91.9469493064
 31
0.0
  0
LINE
  5
377
330
1F
100
AcDbEntity
  8
0
  6
Continuous
 62
     8
370
    15
100
AcDbLine
 10
186.2455859683
 20
91.9469493064
 30
0.0
 11
182.7455858603
 21
91.9469493064
 31
0.0
  0
LINE
  5
378
330
1F
100
AcDbEntity
  8
0
  6
Continuous
 62
     8
370
    15
100
AcDbLine
 10
186.2455859683
 20
68.7469496014
 30
0.0
 11
182.7455858603
 21
68.7469496014
 31
0.0
  0
LINE
  5
379
330
1F
100
AcDbEntity
  8
0
  6
Continuous
 62
     8
370
    15
100
AcDbLine
 10
139.29558563
 20
70.3469496774
 30
0.0
 11
142.5955856121
 21
70.3469496774
 31
0.0
  0
LINE
  5
37A
330
1F
100
AcDbEntity
  8
0
  6
Continuous
 62
     8
370
    15
100
AcDbLine
 10
149.2955854065
 20
70.3469496774
 30
0.0
 11
152.5955853886
 21
70.3469496774
 31
0.0
  0
LINE
  5
37B
330
1F
100
AcDbEntity
  8
0
  6
Continuous
 62
     8
370
    15
100
AcDbLine
 10
152.5955853886
 20
90.3469492304
 30
0.0
 11
149.2955854065
 21
90.3469492304
 31
0.0
  0
LINE
  5
37C
330
1F
100
AcDbEntity
  8
0
  6
Continuous
 62
     8
370
    15
100
AcDbLine
 10
142.5955856121
 20
90.3469492304
 30
0.0
 11
139.29558563
 21
90.3469492304
 31
0.0
  0
DIMENSION
  5
37D
330
1F
100
AcDbEntity
  8
0
  6
Continuous
 62
     7
370
     0
100
AcDbDimension
  2
_D_17
 10
150.945585934
 20
105.1503203108
 30
0.0
 11
129.695585934
 21
105.1503203108
 31
0.0
 70
   160
  1
<>
 71
     2
 42
-1.0
  3
SLDDIMSTYLE1
100
AcDbAlignedDimension
 13
108.445585934
 23
94.3469494539
 33
0.0
 14
150.945585934
 24
94.4969494539
 34
0.0
100
AcDbRotatedDimension
  0
DIMENSION
  5
387
330
1F
100
AcDbEntity
  8
0
  6
Continuous
 62
     7
370
     0
100
AcDbDimension
  2
_D_18
 10
150.945585934
 20
98.6201658444
 30
0.0
 11
145.67082348
 21
98.6201658444
 31
0.0
 70
   160
  1
<>
 71
     2
 42
-1.0
  3
SLDDIMSTYLE4
100
AcDbAlignedDimension
 13
140.945585934
 23
94.4969494539
 33
0.0
 14
150.945585934
 24
94.4969494539
 34
0.0
100
AcDbRotatedDimension
  0
DIMENSION
  5
393
330
1F
100
AcDbEntity
  8
0
  6
Continuous
 62
     7
370
     0
100
AcDbDimension
  2
_D_19
 10
188.645585934
 20
105.1503203108
 30
0.0
 11
169.3822264429
 21
105.1503203108
 31
0.0
 70
   160
  1
<>
 71
     2
 42
-1.0
  3
SLDDIMSTYLE1
100
AcDbAlignedDimension
 13
150.945585934
 23
94.4969494539
 33
0.0
 14
188.645585934
 24
91.9469494539
 34
0.0
 50
0.0
100
AcDbRotatedDimension
  0
DIMENSION
  5
39D
330
1F
100
AcDbEntity
  8
0
  6
Continuous
 62
     7
370
     0
100
AcDbDimension
  2
_D_20
 10
122.1324769011
 20
70.3469494539
 30
0.0
 11
122.1324769011
 21
80.7540385363
 31
0.0
 70
   160
  1
<>
 71
     2
 42
-1.0
  3
SLDDIMSTYLE1
100
AcDbAlignedDimension
 13
136.795585934
 23
90.3469494539
 33
0.0
 14
136.795585934
 24
70.3469494539
 34
0.0
 50
90.0
100
AcDbRotatedDimension
  0
DIMENSION
  5
3A7
330
1F
100
AcDbEntity
  8
0
  6
Continuous
 62
     7
370
     0
100
AcDbDimension
  2
_D_21
 10
150.945585934
 20
60.4635268432
 30
0.0
 11
141.2612682381
 21
60.4635268432
 31
0.0
 70
   160
  1
<>
 71
     2
 42
-1.0
  3
SLDDIMSTYLE1
100
AcDbAlignedDimension
 13
130.945585934
 23
76.1969494539
 33
0.0
 14
150.945585934
 24
66.1969494539
 34
0.0
100
AcDbRotatedDimension
  0
DIMENSION
  5
3B1
330
1F
100
AcDbEntity
  8
0
  6
Continuous
 62
     7
370
     0
100
AcDbDimension
  2
_D_22
 10
108.445585934
 20
52.3671724737
 30
0.0
 11
134.2521586779
 21
52.3671724737
 31
0.0
 70
   160
  1
<>
 71
     2
 42
-1.0
  3
SLDDIMSTYLE1
100
AcDbAlignedDimension
 13
156.3010618357
 23
66.3469494539
 33
0.0
 14
108.445585934
 24
66.3469494539
 34
0.0
100
AcDbRotatedDimension
  0
MTEXT
  5
3BB
330
1F
100
AcDbEntity
  8
0
  6
Continuous
 62
     7
370
     0
100
AcDbMText
 10
61.5297265626
 20
94.2358331401
 30
0.0
 40
3.5
 41
0.0
 71
     1
 72
     1
  1
ストローク調整
  7
SLDTEXTSTYLE0
 73
     1
 44
1.0
  0
LEADER
  5
3BC
330
1F
100
AcDbEntity
  8
0
  6
Continuous
 62
     7
370
     0
100
AcDbLeader
  3
SLDDIMSTYLE3
 76
     3
 10
104.145585934
 20
89.8353283722
 30
0.0
 10
89.949003517
 20
89.8007033998
 30
0.0
 10
61.4302461899
 20
89.8007033998
 30
0.0
  0
MTEXT
  5
3BD
330
1F
100
AcDbEntity
  8
0
  6
Continuous
 62
     7
370
     0
100
AcDbMText
 10
64.6681174697
 20
110.2565937285
 30
0.0
 40
3.5
 41
0.0
 71
     1
 72
     1
  1
6-M4 取付用
  7
SLDTEXTSTYLE0
 73
     1
 44
1.0
  0
LEADER
  5
3BF
330
1F
100
AcDbEntity
  8
0
  6
Continuous
 62
     7
370
     0
100
AcDbLeader
  3
SLDDIMSTYLE5
 76
     3
 10
139.7407700688
 20
91.4742997681
 30
0.0
 10
92.1764361079
 20
105.7444314185
 30
0.0
 10
64.5955451348
 20
105.7444314185
 30
0.0
  0
INSERT
  5
3CB
330
1F
100
AcDbEntity
  8
0
  6
Continuous
 62
     7
370
     0
100
AcDbBlockReference
  2
SW_CENTERMARKSYMBOL_5
 10
130.945585934
 20
80.3469494539
 30
0.0
  0
INSERT
  5
3D7
330
1F
100
AcDbEntity
  8
0
  6
Continuous
 62
     7
370
     0
100
AcDbBlockReference
  2
SW_CENTERMARKSYMBOL_6
 10
140.945585934
 20
90.3469494539
 30
0.0
  0
INSERT
  5
3E3
330
1F
100
AcDbEntity
  8
0
  6
Continuous
 62
     7
370
     0
100
AcDbBlockReference
  2
SW_CENTERMARKSYMBOL_7
 10
140.945585934
 20
70.3469494539
 30
0.0
  0
INSERT
  5
3EF
330
1F
100
AcDbEntity
  8
0
  6
Continuous
 62
     7
370
     0
100
AcDbBlockReference
  2
SW_CENTERMARKSYMBOL_8
 10
150.945585934
 20
70.3469494539
 30
0.0
  0
INSERT
  5
3FB
330
1F
100
AcDbEntity
  8
0
  6
Continuous
 62
     7
370
     0
100
AcDbBlockReference
  2
SW_CENTERMARKSYMBOL_9
 10
150.945585934
 20
80.3469494539
 30
0.0
  0
INSERT
  5
407
330
1F
100
AcDbEntity
  8
0
  6
Continuous
 62
     7
370
     0
100
AcDbBlockReference
  2
SW_CENTERMARKSYMBOL_10
 10
150.945585934
 20
90.3469494539
 30
0.0
  0
LINE
  5
408
330
1F
100
AcDbEntity
  8
0
  6
CENTERX2
 62
     7
370
     0
100
AcDbLine
 10
91.845585934
 20
80.3469494539
 30
0.0
 11
113.445585934
 21
80.3469494539
 31
0.0
  0
LINE
  5
409
330
1F
100
AcDbEntity
  8
0
  6
CENTERX2
 62
     7
370
     0
100
AcDbLine
 10
94.245585934
 20
80.3469494539
 30
0.0
 11
110.445585934
 21
80.3469494539
 31
0.0
  0
LINE
  5
40A
330
1F
100
AcDbEntity
  8
0
  6
CENTERX2
 62
     7
370
     0
100
AcDbLine
 10
110.445585934
 20
89.8469494539
 30
0.0
 11
103.5581933252
 21
89.8469494539
 31
0.0
  0
LINE
  5
40B
330
1F
100
AcDbEntity
  8
0
  6
CENTERX2
 62
     7
370
     0
100
AcDbLine
 10
177.745585934
 20
90.3469494539
 30
0.0
 11
184.445585934
 21
90.3469494539
 31
0.0
  0
LINE
  5
40C
330
1F
100
AcDbEntity
  8
0
  6
CENTERX2
 62
     7
370
     0
100
AcDbLine
 10
177.745585934
 20
70.3469494539
 30
0.0
 11
184.445585934
 21
70.3469494539
 31
0.0
  0
ENDSEC
  0
SECTION
  2
OBJECTS
  0
DICTIONARY
  5
C
330
0
100
AcDbDictionary
281
     1
  3
ACAD_GROUP
350
D
  3
ACAD_LAYOUT
350
1A
  3
ACAD_MLINESTYLE
350
17
  3
ACAD_PLOTSETTINGS
350
19
  3
ACAD_PLOTSTYLENAME
350
E
  0
DICTIONARY
  5
D
102
{ACAD_REACTORS
330
C
102
}
330
C
100
AcDbDictionary
281
     1
  0
DICTIONARY
  5
1A
102
{ACAD_REACTORS
330
C
102
}
330
C
100
AcDbDictionary
281
     1
  3
Layout1
350
1E
  3
Layout2
350
26
  3
Model
350
22
  0
DICTIONARY
  5
17
102
{ACAD_REACTORS
330
C
102
}
330
C
100
AcDbDictionary
281
     1
  3
Standard
350
18
  0
DICTIONARY
  5
19
102
{ACAD_REACTORS
330
C
102
}
330
C
100
AcDbDictionary
281
     1
  0
ACDBDICTIONARYWDFLT
  5
E
102
{ACAD_REACTORS
330
C
102
}
330
C
100
AcDbDictionary
281
     1
  3
Normal
350
F
100
AcDbDictionaryWithDefault
340
F
  0
LAYOUT
  5
1E
102
{ACAD_REACTORS
330
1A
102
}
330
1A
100
AcDbPlotSettings
  1

  2
none_device
  4

  6

 40
0.0
 41
0.0
 42
0.0
 43
0.0
 44
0.0
 45
0.0
 46
0.0
 47
0.0
 48
0.0
 49
0.0
140
0.0
141
0.0
142
1.0
143
1.0
 70
   688
 72
     0
 73
     0
 74
     5
  7

 75
    16
147
1.0
148
0.0
149
0.0
100
AcDbLayout
  1
Layout1
 70
     1
 71
     1
 10
0.0
 20
0.0
 11
420.0
 21
297.0
 12
0.0
 22
0.0
 32
0.0
 14
1.0000000000E+20
 24
1.0000000000E+20
 34
1.0000000000E+20
 15
-1.0000000000E+20
 25
-1.0000000000E+20
 35
-1.0000000000E+20
146
0.0
 13
0.0
 23
0.0
 33
0.0
 16
1.0
 26
0.0
 36
0.0
 17
0.0
 27
1.0
 37
0.0
 76
     0
330
1B
  0
LAYOUT
  5
26
102
{ACAD_REACTORS
330
1A
102
}
330
1A
100
AcDbPlotSettings
  1

  2
none_device
  4

  6

 40
0.0
 41
0.0
 42
0.0
 43
0.0
 44
0.0
 45
0.0
 46
0.0
 47
0.0
 48
0.0
 49
0.0
140
0.0
141
0.0
142
1.0
143
1.0
 70
   688
 72
     0
 73
     0
 74
     5
  7

 75
    16
147
1.0
148
0.0
149
0.0
100
AcDbLayout
  1
Layout2
 70
     1
 71
     2
 10
0.0
 20
0.0
 11
0.0
 21
0.0
 12
0.0
 22
0.0
 32
0.0
 14
0.0
 24
0.0
 34
0.0
 15
0.0
 25
0.0
 35
0.0
146
0.0
 13
0.0
 23
0.0
 33
0.0
 16
1.0
 26
0.0
 36
0.0
 17
0.0
 27
1.0
 37
0.0
 76
     0
330
23
  0
LAYOUT
  5
22
102
{ACAD_REACTORS
330
1A
102
}
330
1A
100
AcDbPlotSettings
  1

  2
none_device
  4

  6

 40
0.0
 41
0.0
 42
0.0
 43
0.0
 44
0.0
 45
0.0
 46
0.0
 47
0.0
 48
0.0
 49
0.0
140
0.0
141
0.0
142
1.0
143
1.0
 70
  1712
 72
     0
 73
     0
 74
     0
  7

 75
     0
147
1.0
148
0.0
149
0.0
100
AcDbLayout
  1
Model
 70
     1
 71
     0
 10
0.0
 20
0.0
 11
210.0
 21
297.0
 12
0.0
 22
0.0
 32
0.0
 14
0.0
 24
0.0
 34
0.0
 15
210.0
 25
297.0
 35
0.0
146
0.0
 13
0.0
 23
0.0
 33
0.0
 16
1.0
 26
0.0
 36
0.0
 17
0.0
 27
1.0
 37
0.0
 76
     0
330
1F
331
29
  0
MLINESTYLE
  5
18
102
{ACAD_REACTORS
330
17
102
}
330
17
100
AcDbMlineStyle
  2
Standard
 70
     0
  3

 62
   256
 51
90.0
 52
90.0
 71
     2
 49
0.5
 62
   256
  6
BYLAYER
 49
-0.5
 62
   256
  6
BYLAYER
  0
ACDBPLACEHOLDER
  5
F
102
{ACAD_REACTORS
330
E
102
}
330
E
  0
ENDSEC
  0
EOF
