  0
SECTION
  2
HEADER
  9
$ACADVER
  1
AC1015
  9
$ACADMAINTVER
 70
     6
  9
$DWGCODEPAGE
  3
DOS932
  9
$INSBASE
 10
0.0
 20
0.0
 30
0.0
  9
$EXTMIN
 10
0.0
 20
0.0
 30
0.0
  9
$EXTMAX
 10
210.0
 20
297.0
 30
0.0
  9
$LIMMIN
 10
0.0
 20
0.0
  9
$LIMMAX
 10
210.0
 20
297.0
  9
$ORTHOMODE
 70
     0
  9
$REGENMODE
 70
     1
  9
$FILLMODE
 70
     1
  9
$QTEXTMODE
 70
     0
  9
$MIRRTEXT
 70
     1
  9
$LTSCALE
 40
1.0
  9
$ATTMODE
 70
     1
  9
$TEXTSIZE
 40
3.5
  9
$TRACEWID
 40
1.0
  9
$TEXTSTYLE
  7
Standard
  9
$CLAYER
  8
0
  9
$CELTYPE
  6
ByLayer
  9
$CECOLOR
 62
   256
  9
$CELTSCALE
 40
1.0
  9
$DISPSILH
 70
     0
  9
$DIMSCALE
 40
1.0
  9
$DIMASZ
 40
3.302
  9
$DIMEXO
 40
1.0
  9
$DIMDLI
 40
3.75
  9
$DIMRND
 40
0.0
  9
$DIMDLE
 40
0.0
  9
$DIMEXE
 40
1.0
  9
$DIMTP
 40
0.0
  9
$DIMTM
 40
0.0
  9
$DIMTXT
 40
3.5
  9
$DIMCEN
 40
2.5
  9
$DIMTSZ
 40
0.0
  9
$DIMTOL
 70
     0
  9
$DIMLIM
 70
     0
  9
$DIMTIH
 70
     1
  9
$DIMTOH
 70
     1
  9
$DIMSE1
 70
     0
  9
$DIMSE2
 70
     0
  9
$DIMTAD
 70
     1
  9
$DIMZIN
 70
     0
  9
$DIMBLK
  1

  9
$DIMASO
 70
     1
  9
$DIMSHO
 70
     1
  9
$DIMPOST
  1

  9
$DIMAPOST
  1

  9
$DIMALT
 70
     0
  9
$DIMALTD
 70
     3
  9
$DIMALTF
 40
0.0393700787
  9
$DIMLFAC
 40
1.0
  9
$DIMTOFL
 70
     1
  9
$DIMTVP
 40
0.0
  9
$DIMTIX
 70
     0
  9
$DIMSOXD
 70
     0
  9
$DIMSAH
 70
     0
  9
$DIMBLK1
  1

  9
$DIMBLK2
  1

  9
$DIMSTYLE
  2
ISO-25
  9
$DIMCLRD
 70
     0
  9
$DIMCLRE
 70
     0
  9
$DIMCLRT
 70
     0
  9
$DIMTFAC
 40
1.0
  9
$DIMGAP
 40
1.524
  9
$DIMJUST
 70
     0
  9
$DIMSD1
 70
     0
  9
$DIMSD2
 70
     0
  9
$DIMTOLJ
 70
     0
  9
$DIMTZIN
 70
     0
  9
$DIMALTZ
 70
     0
  9
$DIMALTTZ
 70
     0
  9
$DIMUPT
 70
     0
  9
$DIMDEC
 70
     2
  9
$DIMTDEC
 70
     2
  9
$DIMALTU
 70
     2
  9
$DIMALTTD
 70
     3
  9
$DIMTXSTY
  7
Standard
  9
$DIMAUNIT
 70
     0
  9
$DIMADEC
 70
     2
  9
$DIMALTRND
 40
0.0
  9
$DIMAZIN
 70
     0
  9
$DIMDSEP
 70
    44
  9
$DIMATFIT
 70
     3
  9
$DIMFRAC
 70
     0
  9
$DIMLDRBLK
  1

  9
$DIMLUNIT
 70
     2
  9
$DIMLWD
 70
    -2
  9
$DIMLWE
 70
    -2
  9
$DIMTMOVE
 70
     0
  9
$LUNITS
 70
     2
  9
$LUPREC
 70
     2
  9
$SKETCHINC
 40
1.0
  9
$FILLETRAD
 40
10.0
  9
$AUNITS
 70
     0
  9
$AUPREC
 70
     2
  9
$MENU
  1
.
  9
$ELEVATION
 40
0.0
  9
$PELEVATION
 40
0.0
  9
$THICKNESS
 40
0.0
  9
$LIMCHECK
 70
     0
  9
$CHAMFERA
 40
10.0
  9
$CHAMFERB
 40
10.0
  9
$CHAMFERC
 40
20.0
  9
$CHAMFERD
 40
0.0
  9
$SKPOLY
 70
     0
  9
$TDCREATE
 40
2456892.647307327
  9
$TDUCREATE
 40
2456892.272307327
  9
$TDUPDATE
 40
2456892.647310937
  9
$TDUUPDATE
 40
2456892.272310937
  9
$TDINDWG
 40
0.0000000116
  9
$TDUSRTIMER
 40
0.0000000116
  9
$USRTIMER
 70
     1
  9
$ANGBASE
 50
0.0
  9
$ANGDIR
 70
     0
  9
$PDMODE
 70
     0
  9
$PDSIZE
 40
-1.0
  9
$PLINEWID
 40
0.0
  9
$SPLFRAME
 70
     0
  9
$SPLINETYPE
 70
     6
  9
$SPLINESEGS
 70
     8
  9
$HANDSEED
  5
41F
  9
$SURFTAB1
 70
     6
  9
$SURFTAB2
 70
     6
  9
$SURFTYPE
 70
     6
  9
$SURFU
 70
     6
  9
$SURFV
 70
     6
  9
$UCSBASE
  2

  9
$UCSNAME
  2

  9
$UCSORG
 10
0.0
 20
0.0
 30
0.0
  9
$UCSXDIR
 10
1.0
 20
0.0
 30
0.0
  9
$UCSYDIR
 10
0.0
 20
1.0
 30
0.0
  9
$UCSORTHOREF
  2

  9
$UCSORTHOVIEW
 70
     0
  9
$UCSORGTOP
 10
0.0
 20
0.0
 30
0.0
  9
$UCSORGBOTTOM
 10
0.0
 20
0.0
 30
0.0
  9
$UCSORGLEFT
 10
0.0
 20
0.0
 30
0.0
  9
$UCSORGRIGHT
 10
0.0
 20
0.0
 30
0.0
  9
$UCSORGFRONT
 10
0.0
 20
0.0
 30
0.0
  9
$UCSORGBACK
 10
0.0
 20
0.0
 30
0.0
  9
$PUCSBASE
  2

  9
$PUCSNAME
  2

  9
$PUCSORG
 10
0.0
 20
0.0
 30
0.0
  9
$PUCSXDIR
 10
1.0
 20
0.0
 30
0.0
  9
$PUCSYDIR
 10
0.0
 20
1.0
 30
0.0
  9
$PUCSORTHOREF
  2

  9
$PUCSORTHOVIEW
 70
     0
  9
$PUCSORGTOP
 10
0.0
 20
0.0
 30
0.0
  9
$PUCSORGBOTTOM
 10
0.0
 20
0.0
 30
0.0
  9
$PUCSORGLEFT
 10
0.0
 20
0.0
 30
0.0
  9
$PUCSORGRIGHT
 10
0.0
 20
0.0
 30
0.0
  9
$PUCSORGFRONT
 10
0.0
 20
0.0
 30
0.0
  9
$PUCSORGBACK
 10
0.0
 20
0.0
 30
0.0
  9
$USERI1
 70
     0
  9
$USERI2
 70
     0
  9
$USERI3
 70
     0
  9
$USERI4
 70
     0
  9
$USERI5
 70
     0
  9
$USERR1
 40
0.0
  9
$USERR2
 40
0.0
  9
$USERR3
 40
0.0
  9
$USERR4
 40
0.0
  9
$USERR5
 40
0.0
  9
$WORLDVIEW
 70
     1
  9
$SHADEDGE
 70
     3
  9
$SHADEDIF
 70
    70
  9
$TILEMODE
 70
     1
  9
$MAXACTVP
 70
    64
  9
$PINSBASE
 10
0.0
 20
0.0
 30
0.0
  9
$PLIMCHECK
 70
     0
  9
$PEXTMIN
 10
1.0000000000E+20
 20
1.0000000000E+20
 30
1.0000000000E+20
  9
$PEXTMAX
 10
-1.0000000000E+20
 20
-1.0000000000E+20
 30
-1.0000000000E+20
  9
$PLIMMIN
 10
0.0
 20
0.0
  9
$PLIMMAX
 10
420.0
 20
297.0
  9
$UNITMODE
 70
     0
  9
$VISRETAIN
 70
     1
  9
$PLINEGEN
 70
     0
  9
$PSLTSCALE
 70
     1
  9
$TREEDEPTH
 70
  3020
  9
$CMLSTYLE
  2
Standard
  9
$CMLJUST
 70
     0
  9
$CMLSCALE
 40
20.0
  9
$PROXYGRAPHICS
 70
     1
  9
$MEASUREMENT
 70
     1
  9
$CELWEIGHT
370
    -1
  9
$ENDCAPS
280
     0
  9
$JOINSTYLE
280
     0
  9
$LWDISPLAY
290
     1
  9
$INSUNITS
 70
     4
  9
$HYPERLINKBASE
  1

  9
$STYLESHEET
  1

  9
$XEDIT
290
     1
  9
$CEPSNTYPE
380
     0
  9
$PSTYLEMODE
290
     1
  9
$FINGERPRINTGUID
  2
{7FF45EA5-C34B-4271-93CB-859A3CC85EE1}
  9
$VERSIONGUID
  2
{FAEB1C32-E019-11D5-929B-00C0DF256EC4}
  9
$EXTNAMES
290
     1
  9
$PSVPSCALE
 40
0.0
  9
$OLESTARTUP
290
     0
  0
ENDSEC
  0
SECTION
  2
CLASSES
  0
CLASS
  1
ACDBDICTIONARYWDFLT
  2
AcDbDictionaryWithDefault
  3
ObjectDBX Classes
 90
        0
280
     0
281
     0
  0
CLASS
  1
VISUALSTYLE
  2
AcDbVisualStyle
  3
ObjectDBX Classes
 90
     4095
280
     0
281
     0
  0
CLASS
  1
MATERIAL
  2
AcDbMaterial
  3
ObjectDBX Classes
 90
     1153
280
     0
281
     0
  0
CLASS
  1
ACDBPLACEHOLDER
  2
AcDbPlaceHolder
  3
ObjectDBX Classes
 90
        0
280
     0
281
     0
  0
CLASS
  1
LAYOUT
  2
AcDbLayout
  3
ObjectDBX Classes
 90
        0
280
     0
281
     0
  0
ENDSEC
  0
SECTION
  2
TABLES
  0
TABLE
  2
VPORT
  5
8
330
0
100
AcDbSymbolTable
 70
     1
  0
VPORT
  5
29
330
8
100
AcDbSymbolTableRecord
100
AcDbViewportTableRecord
  2
*Active
 70
     0
 10
0.0
 20
0.0
 11
1.0
 21
1.0
 12
105.0
 22
148.5
 13
0.0
 23
0.0
 14
10.0
 24
10.0
 15
10.0
 25
10.0
 16
0.0
 26
0.0
 36
1.0
 17
0.0
 27
0.0
 37
0.0
 40
297.0
 41
0.7070707071
 42
50.0
 43
0.0
 44
0.0
 50
0.0
 51
0.0
 71
     0
 72
  2000
 73
     1
 74
     3
 75
     0
 76
     0
 77
     0
 78
     0
281
     0
 65
     1
110
0.0
120
0.0
130
0.0
111
1.0
121
0.0
131
0.0
112
0.0
122
1.0
132
0.0
 79
     0
146
0.0
  0
ENDTAB
  0
TABLE
  2
LTYPE
  5
5
330
0
100
AcDbSymbolTable
 70
     6
  0
LTYPE
  5
14
330
5
100
AcDbSymbolTableRecord
100
AcDbLinetypeTableRecord
  2
ByBlock
 70
     0
  3

 72
    65
 73
     0
 40
0.0
  0
LTYPE
  5
15
330
5
100
AcDbSymbolTableRecord
100
AcDbLinetypeTableRecord
  2
ByLayer
 70
     0
  3

 72
    65
 73
     0
 40
0.0
  0
LTYPE
  5
16
330
5
100
AcDbSymbolTableRecord
100
AcDbLinetypeTableRecord
  2
Continuous
 70
     0
  3
Solid line
 72
    65
 73
     0
 40
0.0
  0
LTYPE
  5
3F
330
5
100
AcDbSymbolTableRecord
100
AcDbLinetypeTableRecord
  2
HIDDEN
 70
     0
  3
Hidden __ __ __ __ __ __ __ __ __ __ __ __ __ __
 72
    65
 73
     2
 40
1.905
 49
1.27
 74
     0
 49
-0.635
 74
     0
  0
LTYPE
  5
40
330
5
100
AcDbSymbolTableRecord
100
AcDbLinetypeTableRecord
  2
PHANTOM
 70
     0
  3
Phantom ______  __  __  ______  __  __  ______
 72
    65
 73
     6
 40
12.7
 49
6.35
 74
     0
 49
-1.27
 74
     0
 49
1.27
 74
     0
 49
-1.27
 74
     0
 49
1.27
 74
     0
 49
-1.27
 74
     0
  0
LTYPE
  5
41
330
5
100
AcDbSymbolTableRecord
100
AcDbLinetypeTableRecord
  2
CENTER
 70
     0
  3
Center ____ _ ____ _ ____ _ ____ _ ____ _ ____
 72
    65
 73
     4
 40
10.16
 49
6.35
 74
     0
 49
-1.27
 74
     0
 49
1.27
 74
     0
 49
-1.27
 74
     0
  0
LTYPE
  5
42
330
5
100
AcDbSymbolTableRecord
100
AcDbLinetypeTableRecord
  2
CENTERX2
 70
     0
  3
Center (2x) ________  __  ________  __  _____
 72
    65
 73
     4
 40
20.32
 49
12.7
 74
     0
 49
-2.54
 74
     0
 49
2.54
 74
     0
 49
-2.54
 74
     0
  0
LTYPE
  5
43
330
5
100
AcDbSymbolTableRecord
100
AcDbLinetypeTableRecord
  2
DOT2
 70
     0
  3
Dot (.5x) ........................................
 72
    65
 73
     2
 40
0.635
 49
0.0
 74
     0
 49
-0.635
 74
     0
  0
ENDTAB
  0
TABLE
  2
LAYER
  5
2
330
0
100
AcDbSymbolTable
 70
     1
  0
LAYER
  5
10
330
2
100
AcDbSymbolTableRecord
100
AcDbLayerTableRecord
  2
0
 70
     0
 62
     7
  6
Continuous
370
    -3
390
F
  0
ENDTAB
  0
TABLE
  2
STYLE
  5
3
330
0
100
AcDbSymbolTable
 70
     3
  0
STYLE
  5
11
330
3
100
AcDbSymbolTableRecord
100
AcDbTextStyleTableRecord
  2
Standard
 70
     0
 40
0.0
 41
1.0
 50
0.0
 71
     0
 42
3.5
  3
txt
  4
bigfont
  0
STYLE
  5
4C
330
3
100
AcDbSymbolTableRecord
100
AcDbTextStyleTableRecord
  2
SLDTEXTSTYLE0
 70
     0
 40
0.0
 41
0.75
 50
0.0
 71
     0
 42
0.2
  3
TXT
  4
bigfont
  0
STYLE
  5
4F
330
3
100
AcDbSymbolTableRecord
100
AcDbTextStyleTableRecord
  2
SLDTEXTSTYLE1
 70
     0
 40
0.0
 41
0.7
 50
0.0
 71
     0
 42
0.2
  3
TXT
  4
bigfont
  0
ENDTAB
  0
TABLE
  2
VIEW
  5
6
330
0
100
AcDbSymbolTable
 70
     0
  0
ENDTAB
  0
TABLE
  2
UCS
  5
7
330
0
100
AcDbSymbolTable
 70
     0
  0
ENDTAB
  0
TABLE
  2
APPID
  5
9
330
0
100
AcDbSymbolTable
 70
     1
  0
APPID
  5
12
330
9
100
AcDbSymbolTableRecord
100
AcDbRegAppTableRecord
  2
ACAD
 70
     0
  0
ENDTAB
  0
TABLE
  2
DIMSTYLE
  5
A
330
0
100
AcDbSymbolTable
 70
     7
100
AcDbDimStyleTable
  0
DIMSTYLE
105
27
330
A
100
AcDbSymbolTableRecord
100
AcDbDimStyleTableRecord
  2
ISO-25
 70
     0
 41
2.5
 42
0.625
 43
3.75
 44
1.25
 73
     0
 74
     0
 77
     1
 78
     8
140
2.5
141
2.5
143
0.0393700787
147
0.625
171
     3
172
     1
178
     0
271
     2
272
     2
274
     3
278
    44
283
     0
284
     8
340
11
  0
DIMSTYLE
105
131
102
{ACAD_REACTORS
330
130
330
153
330
15F
330
16B
330
175
330
17F
330
189
330
19E
330
28B
330
295
330
29F
330
2A9
330
2C1
330
391
330
3A7
330
3B1
330
3BB
330
3C5
102
}
330
A
100
AcDbSymbolTableRecord
100
AcDbDimStyleTableRecord
  2
SLDDIMSTYLE0
 70
     0
 41
3.302
 44
0.0
 45
0.000000001
 73
     0
 74
     0
 77
     3
 78
    12
 79
     3
140
3.5
147
0.875
173
     1
178
     0
271
     1
272
     2
276
     2
284
    12
340
4C
  0
DIMSTYLE
105
13C
102
{ACAD_REACTORS
330
13B
102
}
330
A
100
AcDbSymbolTableRecord
100
AcDbDimStyleTableRecord
  2
SLDDIMSTYLE1
 70
     0
 41
3.302
 44
0.0
 45
0.000000001
 73
     0
 74
     0
 77
     3
 78
    12
 79
     3
140
3.5
147
0.875
172
     1
173
     1
178
     0
271
     1
272
     2
276
     2
284
    12
289
     0
340
4C
344
13D
  0
DIMSTYLE
105
194
102
{ACAD_REACTORS
330
193
102
}
330
A
100
AcDbSymbolTableRecord
100
AcDbDimStyleTableRecord
  2
SLDDIMSTYLE2
 70
     0
 41
3.0
 44
0.0
 45
0.000000001
 73
     0
 74
     0
 77
     3
 78
    12
 79
     3
140
3.5
147
0.875
173
     1
178
     0
271
     1
272
     2
276
     2
284
    12
340
4C
341
13D
343
13D
  0
DIMSTYLE
105
1A9
102
{ACAD_REACTORS
330
1A8
330
27F
330
2B5
330
39B
102
}
330
A
100
AcDbSymbolTableRecord
100
AcDbDimStyleTableRecord
  2
SLDDIMSTYLE3
 70
     0
 41
3.302
 44
0.0
 45
0.000000001
 73
     0
 74
     0
 77
     3
 78
    12
 79
     3
140
3.5
147
0.875
172
     1
173
     1
178
     0
271
     1
272
     2
276
     2
284
    12
289
     0
340
4C
  0
DIMSTYLE
105
1C1
330
A
100
AcDbSymbolTableRecord
100
AcDbDimStyleTableRecord
  2
SLDDIMSTYLE4
 70
     0
 41
3.0
 44
0.0
 45
0.000000001
140
0.0
146
3.0
147
0.0
173
     1
178
     0
271
     0
272
     0
276
     2
340
11
341
13D
343
13D
344
13D
  0
DIMSTYLE
105
3D2
330
A
100
AcDbSymbolTableRecord
100
AcDbDimStyleTableRecord
  2
SLDDIMSTYLE5
 70
     0
 41
3.302
 44
0.0
 45
0.000000001
140
0.0
146
3.302
147
0.0
173
     1
178
     0
271
     0
272
     0
276
     2
340
11
  0
ENDTAB
  0
TABLE
  2
BLOCK_RECORD
  5
1
330
0
100
AcDbSymbolTable
 70
    40
  0
BLOCK_RECORD
  5
1F
330
1
100
AcDbSymbolTableRecord
100
AcDbBlockTableRecord
  2
*Model_Space
340
22
  0
BLOCK_RECORD
  5
1B
330
1
100
AcDbSymbolTableRecord
100
AcDbBlockTableRecord
  2
*Paper_Space
340
1E
  0
BLOCK_RECORD
  5
23
330
1
100
AcDbSymbolTableRecord
100
AcDbBlockTableRecord
  2
*Paper_Space0
340
26
  0
BLOCK_RECORD
  5
132
330
1
100
AcDbSymbolTableRecord
100
AcDbBlockTableRecord
  2
_D
340
0
  0
BLOCK_RECORD
  5
13D
330
1
100
AcDbSymbolTableRecord
100
AcDbBlockTableRecord
  2
_DOT
340
0
102
{BLKREFS
331
149
331
198
331
1CE
102
}
  0
BLOCK_RECORD
  5
145
330
1
100
AcDbSymbolTableRecord
100
AcDbBlockTableRecord
  2
_D_1
340
0
  0
BLOCK_RECORD
  5
154
330
1
100
AcDbSymbolTableRecord
100
AcDbBlockTableRecord
  2
_D_2
340
0
  0
BLOCK_RECORD
  5
160
330
1
100
AcDbSymbolTableRecord
100
AcDbBlockTableRecord
  2
_D_3
340
0
  0
BLOCK_RECORD
  5
16C
330
1
100
AcDbSymbolTableRecord
100
AcDbBlockTableRecord
  2
_D_4
340
0
  0
BLOCK_RECORD
  5
176
330
1
100
AcDbSymbolTableRecord
100
AcDbBlockTableRecord
  2
_D_5
340
0
  0
BLOCK_RECORD
  5
180
330
1
100
AcDbSymbolTableRecord
100
AcDbBlockTableRecord
  2
_D_6
340
0
  0
BLOCK_RECORD
  5
18A
330
1
100
AcDbSymbolTableRecord
100
AcDbBlockTableRecord
  2
_D_7
340
0
  0
BLOCK_RECORD
  5
195
330
1
100
AcDbSymbolTableRecord
100
AcDbBlockTableRecord
  2
_D_8
340
0
  0
BLOCK_RECORD
  5
19F
330
1
100
AcDbSymbolTableRecord
100
AcDbBlockTableRecord
  2
_D_9
340
0
  0
BLOCK_RECORD
  5
1AA
330
1
100
AcDbSymbolTableRecord
100
AcDbBlockTableRecord
  2
_D_10
340
0
  0
BLOCK_RECORD
  5
1B6
330
1
100
AcDbSymbolTableRecord
100
AcDbBlockTableRecord
  2
SW_NOTE_0
340
0
102
{BLKREFS
331
1C0
102
}
  0
BLOCK_RECORD
  5
1C3
330
1
100
AcDbSymbolTableRecord
100
AcDbBlockTableRecord
  2
SW_NOTE_1
340
0
102
{BLKREFS
331
1CD
102
}
  0
BLOCK_RECORD
  5
280
330
1
100
AcDbSymbolTableRecord
100
AcDbBlockTableRecord
  2
_D_11
340
0
  0
BLOCK_RECORD
  5
28C
330
1
100
AcDbSymbolTableRecord
100
AcDbBlockTableRecord
  2
_D_12
340
0
  0
BLOCK_RECORD
  5
296
330
1
100
AcDbSymbolTableRecord
100
AcDbBlockTableRecord
  2
_D_13
340
0
  0
BLOCK_RECORD
  5
2A0
330
1
100
AcDbSymbolTableRecord
100
AcDbBlockTableRecord
  2
_D_14
340
0
  0
BLOCK_RECORD
  5
2AA
330
1
100
AcDbSymbolTableRecord
100
AcDbBlockTableRecord
  2
_D_15
340
0
  0
BLOCK_RECORD
  5
2B6
330
1
100
AcDbSymbolTableRecord
100
AcDbBlockTableRecord
  2
_D_16
340
0
  0
BLOCK_RECORD
  5
2C2
330
1
100
AcDbSymbolTableRecord
100
AcDbBlockTableRecord
  2
_D_17
340
0
  0
BLOCK_RECORD
  5
2CB
330
1
100
AcDbSymbolTableRecord
100
AcDbBlockTableRecord
  2
SW_CENTERMARKSYMBOL_0
340
0
102
{BLKREFS
331
2D6
102
}
  0
BLOCK_RECORD
  5
2D7
330
1
100
AcDbSymbolTableRecord
100
AcDbBlockTableRecord
  2
SW_CENTERMARKSYMBOL_1
340
0
102
{BLKREFS
331
2E2
102
}
  0
BLOCK_RECORD
  5
2E3
330
1
100
AcDbSymbolTableRecord
100
AcDbBlockTableRecord
  2
SW_CENTERMARKSYMBOL_2
340
0
102
{BLKREFS
331
2EE
102
}
  0
BLOCK_RECORD
  5
2EF
330
1
100
AcDbSymbolTableRecord
100
AcDbBlockTableRecord
  2
SW_CENTERMARKSYMBOL_3
340
0
102
{BLKREFS
331
2FA
102
}
  0
BLOCK_RECORD
  5
2FB
330
1
100
AcDbSymbolTableRecord
100
AcDbBlockTableRecord
  2
SW_CENTERMARKSYMBOL_4
340
0
102
{BLKREFS
331
306
102
}
  0
BLOCK_RECORD
  5
307
330
1
100
AcDbSymbolTableRecord
100
AcDbBlockTableRecord
  2
SW_CENTERMARKSYMBOL_5
340
0
102
{BLKREFS
331
312
102
}
  0
BLOCK_RECORD
  5
392
330
1
100
AcDbSymbolTableRecord
100
AcDbBlockTableRecord
  2
_D_18
340
0
  0
BLOCK_RECORD
  5
39C
330
1
100
AcDbSymbolTableRecord
100
AcDbBlockTableRecord
  2
_D_19
340
0
  0
BLOCK_RECORD
  5
3A8
330
1
100
AcDbSymbolTableRecord
100
AcDbBlockTableRecord
  2
_D_20
340
0
  0
BLOCK_RECORD
  5
3B2
330
1
100
AcDbSymbolTableRecord
100
AcDbBlockTableRecord
  2
_D_21
340
0
  0
BLOCK_RECORD
  5
3BC
330
1
100
AcDbSymbolTableRecord
100
AcDbBlockTableRecord
  2
_D_22
340
0
  0
BLOCK_RECORD
  5
3C6
330
1
100
AcDbSymbolTableRecord
100
AcDbBlockTableRecord
  2
_D_23
340
0
  0
BLOCK_RECORD
  5
3D4
330
1
100
AcDbSymbolTableRecord
100
AcDbBlockTableRecord
  2
SW_CENTERMARKSYMBOL_6
340
0
102
{BLKREFS
331
3DF
102
}
  0
BLOCK_RECORD
  5
3E0
330
1
100
AcDbSymbolTableRecord
100
AcDbBlockTableRecord
  2
SW_CENTERMARKSYMBOL_7
340
0
102
{BLKREFS
331
3EB
102
}
  0
BLOCK_RECORD
  5
3EC
330
1
100
AcDbSymbolTableRecord
100
AcDbBlockTableRecord
  2
SW_CENTERMARKSYMBOL_8
340
0
102
{BLKREFS
331
3F7
102
}
  0
BLOCK_RECORD
  5
3F8
330
1
100
AcDbSymbolTableRecord
100
AcDbBlockTableRecord
  2
SW_CENTERMARKSYMBOL_9
340
0
102
{BLKREFS
331
403
102
}
  0
BLOCK_RECORD
  5
404
330
1
100
AcDbSymbolTableRecord
100
AcDbBlockTableRecord
  2
SW_CENTERMARKSYMBOL_10
340
0
102
{BLKREFS
331
40F
102
}
  0
BLOCK_RECORD
  5
410
330
1
100
AcDbSymbolTableRecord
100
AcDbBlockTableRecord
  2
SW_CENTERMARKSYMBOL_11
340
0
102
{BLKREFS
331
41B
102
}
  0
ENDTAB
  0
ENDSEC
  0
SECTION
  2
BLOCKS
  0
BLOCK
  5
20
330
1F
100
AcDbEntity
  8
0
100
AcDbBlockBegin
  2
*Model_Space
 70
     0
 10
0.0
 20
0.0
 30
0.0
  3
*Model_Space
  1

  0
ENDBLK
  5
21
330
1F
100
AcDbEntity
  8
0
100
AcDbBlockEnd
  0
BLOCK
  5
1C
330
1B
100
AcDbEntity
 67
     1
  8
0
100
AcDbBlockBegin
  2
*Paper_Space
 70
     0
 10
0.0
 20
0.0
 30
0.0
  3
*Paper_Space
  1

  0
ENDBLK
  5
1D
330
1B
100
AcDbEntity
 67
     1
  8
0
100
AcDbBlockEnd
  0
BLOCK
  5
24
330
23
100
AcDbEntity
  8
0
100
AcDbBlockBegin
  2
*Paper_Space0
 70
     0
 10
0.0
 20
0.0
 30
0.0
  3
*Paper_Space0
  1

  0
ENDBLK
  5
25
330
23
100
AcDbEntity
  8
0
100
AcDbBlockEnd
  0
BLOCK
  5
133
330
132
100
AcDbEntity
  8
0
100
AcDbBlockBegin
  2
_D
 70
     0
 10
0.0
 20
0.0
 30
0.0
  3
_D
  1

  0
SOLID
  5
135
330
132
100
AcDbEntity
  8
0
  6
Continuous
 62
     7
370
     0
100
AcDbTrace
 10
174.7986581885
 20
237.4349167925
 30
0.0
 11
172.7986581885
 21
238.1849167925
 31
0.0
 12
172.7986581885
 22
236.6849167925
 32
0.0
 13
172.7986581885
 23
236.6849167925
 33
0.0
  0
SOLID
  5
136
330
132
100
AcDbEntity
  8
0
  6
Continuous
 62
     7
370
     0
100
AcDbTrace
 10
149.6986581885
 20
237.4349167925
 30
0.0
 11
151.6986581885
 21
236.6849167925
 31
0.0
 12
151.6986581885
 22
238.1849167925
 32
0.0
 13
151.6986581885
 23
238.1849167925
 33
0.0
  0
LINE
  5
137
330
132
100
AcDbEntity
  8
0
  6
Continuous
 62
     7
370
     0
100
AcDbLine
 10
174.7986581885
 20
218.5138820445
 30
0.0
 11
174.7986581885
 21
238.4349167925
 31
0.0
  0
LINE
  5
138
330
132
100
AcDbEntity
  8
0
  6
Continuous
 62
     7
370
     0
100
AcDbLine
 10
149.6986581885
 20
152.364041781
 30
0.0
 11
149.6986581885
 21
238.4349167925
 31
0.0
  0
LINE
  5
139
330
132
100
AcDbEntity
  8
0
  6
Continuous
 62
     7
370
     0
100
AcDbLine
 10
174.7986581885
 20
237.4349167925
 30
0.0
 11
149.6986581885
 21
237.4349167925
 31
0.0
  0
MTEXT
  5
13A
330
132
100
AcDbEntity
  8
0
  6
Continuous
 62
     7
370
     0
100
AcDbMText
 10
157.722963658
 20
241.9466537071
 30
0.1
 40
3.5
 41
0.0
 71
     1
 72
     1
  1
25.1
  7
SLDTEXTSTYLE0
 73
     1
 44
1.0
  0
ENDBLK
  5
134
330
132
100
AcDbEntity
  8
0
100
AcDbBlockEnd
  0
BLOCK
  5
13E
330
13D
100
AcDbEntity
  8
0
100
AcDbBlockBegin
  2
_DOT
 70
     0
 10
0.0
 20
0.0
 30
0.0
  3
_DOT
  1

  0
POLYLINE
  5
140
330
13D
100
AcDbEntity
  8
0
  6
ByBlock
 62
     0
100
AcDb2dPolyline
 66
     1
 10
0.0
 20
0.0
 30
0.0
 70
     1
 40
0.5
 41
0.5
  0
VERTEX
  5
142
330
140
100
AcDbEntity
  8
0
  6
ByBlock
 62
     0
100
AcDbVertex
100
AcDb2dVertex
 10
-0.25
 20
0.0
 30
0.0
 42
1.0
  0
VERTEX
  5
143
330
140
100
AcDbEntity
  8
0
  6
ByBlock
 62
     0
100
AcDbVertex
100
AcDb2dVertex
 10
0.25
 20
0.0
 30
0.0
 42
1.0
  0
SEQEND
  5
144
330
140
100
AcDbEntity
  8
0
  6
ByBlock
 62
     0
  0
LINE
  5
141
330
13D
100
AcDbEntity
  8
0
  6
ByBlock
 62
     0
370
    -2
100
AcDbLine
 10
-0.5
 20
0.0
 30
0.0
 11
-1.0
 21
0.0
 31
0.0
  0
ENDBLK
  5
13F
330
13D
100
AcDbEntity
  8
0
100
AcDbBlockEnd
  0
BLOCK
  5
146
330
145
100
AcDbEntity
  8
0
100
AcDbBlockBegin
  2
_D_1
 70
     0
 10
0.0
 20
0.0
 30
0.0
  3
_D_1
  1

  0
SOLID
  5
148
330
145
100
AcDbEntity
  8
0
  6
Continuous
 62
     7
370
     0
100
AcDbTrace
 10
174.7986581885
 20
237.4349167925
 30
0.0
 11
172.7986581885
 21
238.1849167925
 31
0.0
 12
172.7986581885
 22
236.6849167925
 32
0.0
 13
172.7986581885
 23
236.6849167925
 33
0.0
  0
INSERT
  5
149
330
145
100
AcDbEntity
  8
0
  6
Continuous
 62
     7
370
     0
100
AcDbBlockReference
  2
_DOT
 10
177.7986581885
 20
237.4349167925
 30
0.1
 41
3.0
 42
3.0
 50
180.0
  0
LINE
  5
14A
330
145
100
AcDbEntity
  8
0
  6
Continuous
 62
     7
370
     0
100
AcDbLine
 10
174.7986581885
 20
218.5138820445
 30
0.0
 11
174.7986581885
 21
238.4349167925
 31
0.0
  0
LINE
  5
14B
330
145
100
AcDbEntity
  8
0
  6
Continuous
 62
     7
370
     0
100
AcDbLine
 10
177.7986581885
 20
218.6710932296
 30
0.0
 11
177.7986581885
 21
238.4349167925
 31
0.0
  0
LINE
  5
14C
330
145
100
AcDbEntity
  8
0
  6
Continuous
 62
     7
370
     0
100
AcDbLine
 10
174.7986581885
 20
237.4349167925
 30
0.0
 11
171.7986581885
 21
237.4349167925
 31
0.0
  0
LINE
  5
14D
330
145
100
AcDbEntity
  8
0
  6
Continuous
 62
     7
370
     0
100
AcDbLine
 10
174.7986581885
 20
237.4349167925
 30
0.0
 11
177.7986581885
 21
237.4349167925
 31
0.0
  0
LINE
  5
14E
330
145
100
AcDbEntity
  8
0
  6
Continuous
 62
     7
370
     0
100
AcDbLine
 10
177.7986581885
 20
237.4349167925
 30
0.0
 11
184.1486581885
 21
237.4349167925
 31
0.0
  0
LINE
  5
14F
330
145
100
AcDbEntity
  8
0
  6
Continuous
 62
     7
370
     0
100
AcDbLine
 10
176.2986581885
 20
237.4349167925
 30
0.0
 11
170.5972840946
 21
251.510487711
 31
0.0
  0
LINE
  5
150
330
145
100
AcDbEntity
  8
0
  6
Continuous
 62
     7
370
     0
100
AcDbLine
 10
170.5972840946
 20
251.510487711
 30
0.0
 11
137.5271482329
 21
251.510487711
 31
0.0
  0
MTEXT
  5
151
330
145
100
AcDbEntity
  8
0
  6
Continuous
 62
     7
370
     0
100
AcDbMText
 10
137.5271482329
 20
256.0222246256
 30
0.1
 40
3.5
 41
0.0
 71
     1
 72
     1
  1
Maxストローク
  7
SLDTEXTSTYLE0
 73
     1
 44
1.0
  0
MTEXT
  5
152
330
145
100
AcDbEntity
  8
0
  6
Continuous
 62
     7
370
     0
100
AcDbMText
 10
168.0111763935
 20
256.0222246256
 30
0.1
 40
3.5
 41
0.0
 71
     1
 72
     1
  1
3
  7
SLDTEXTSTYLE0
 73
     1
 44
1.0
  0
ENDBLK
  5
147
330
145
100
AcDbEntity
  8
0
100
AcDbBlockEnd
  0
BLOCK
  5
155
330
154
100
AcDbEntity
  8
0
100
AcDbBlockBegin
  2
_D_2
 70
     0
 10
0.0
 20
0.0
 30
0.0
  3
_D_2
  1

  0
ARC
  5
157
330
154
100
AcDbEntity
  8
0
  6
Continuous
 62
     7
370
     0
100
AcDbCircle
 10
141.0292138237
 20
123.131430802
 30
0.0
 40
6.212076339995614
100
AcDbArc
 50
153.4349488229
 51
206.5650511771
  0
ARC
  5
158
330
154
100
AcDbEntity
  8
0
  6
Continuous
 62
     7
370
     0
100
AcDbCircle
 10
138.9681029025
 20
123.131430802
 30
0.0
 40
6.212076339995607
100
AcDbArc
 50
333.4349488229
 51
26.5650511771
  0
SOLID
  5
159
330
154
100
AcDbEntity
  8
0
  6
Continuous
 62
     7
370
     0
100
AcDbTrace
 10
92.5986581885
 20
120.3533058065
 30
0.0
 11
94.5986581885
 21
119.6033058065
 31
0.0
 12
94.5986581885
 22
121.1033058065
 32
0.0
 13
94.5986581885
 23
121.1033058065
 33
0.0
  0
SOLID
  5
15A
330
154
100
AcDbEntity
  8
0
  6
Continuous
 62
     7
370
     0
100
AcDbTrace
 10
187.3986581885
 20
120.3533058065
 30
0.0
 11
185.3986581885
 21
121.1033058065
 31
0.0
 12
185.3986581885
 22
119.6033058065
 32
0.0
 13
185.3986581885
 23
119.6033058065
 33
0.0
  0
LINE
  5
15B
330
154
100
AcDbEntity
  8
0
  6
Continuous
 62
     7
370
     0
100
AcDbLine
 10
92.5986581885
 20
160.714041781
 30
0.0
 11
92.5986581885
 21
119.3533058065
 31
0.0
  0
LINE
  5
15C
330
154
100
AcDbEntity
  8
0
  6
Continuous
 62
     7
370
     0
100
AcDbLine
 10
187.3986581885
 20
162.764041781
 30
0.0
 11
187.3986581885
 21
119.3533058065
 31
0.0
  0
LINE
  5
15D
330
154
100
AcDbEntity
  8
0
  6
Continuous
 62
     7
370
     0
100
AcDbLine
 10
92.5986581885
 20
120.3533058065
 30
0.0
 11
187.3986581885
 21
120.3533058065
 31
0.0
  0
MTEXT
  5
15E
330
154
100
AcDbEntity
  8
0
  6
Continuous
 62
     7
370
     0
100
AcDbMText
 10
135.4729638326
 20
124.8650427211
 30
0.1
 40
3.5
 41
0.0
 71
     1
 72
     1
  1
94.8
  7
SLDTEXTSTYLE0
 73
     1
 44
1.0
  0
ENDBLK
  5
156
330
154
100
AcDbEntity
  8
0
100
AcDbBlockEnd
  0
BLOCK
  5
161
330
160
100
AcDbEntity
  8
0
100
AcDbBlockBegin
  2
_D_3
 70
     0
 10
0.0
 20
0.0
 30
0.0
  3
_D_3
  1

  0
ARC
  5
163
330
160
100
AcDbEntity
  8
0
  6
Continuous
 62
     7
370
     0
100
AcDbCircle
 10
148.3292138237
 20
133.6421667765
 30
0.0
 40
6.212076339995614
100
AcDbArc
 50
153.4349488229
 51
206.5650511771
  0
ARC
  5
164
330
160
100
AcDbEntity
  8
0
  6
Continuous
 62
     7
370
     0
100
AcDbCircle
 10
146.2681029025
 20
133.6421667765
 30
0.0
 40
6.212076339995614
100
AcDbArc
 50
333.4349488229
 51
26.5650511771
  0
SOLID
  5
165
330
160
100
AcDbEntity
  8
0
  6
Continuous
 62
     7
370
     0
100
AcDbTrace
 10
107.1986581885
 20
130.864041781
 30
0.0
 11
109.1986581885
 21
130.114041781
 31
0.0
 12
109.1986581885
 22
131.614041781
 32
0.0
 13
109.1986581885
 23
131.614041781
 33
0.0
  0
SOLID
  5
166
330
160
100
AcDbEntity
  8
0
  6
Continuous
 62
     7
370
     0
100
AcDbTrace
 10
187.3986581885
 20
130.864041781
 30
0.0
 11
185.3986581885
 21
131.614041781
 31
0.0
 12
185.3986581885
 22
130.114041781
 32
0.0
 13
185.3986581885
 23
130.114041781
 33
0.0
  0
LINE
  5
167
330
160
100
AcDbEntity
  8
0
  6
Continuous
 62
     7
370
     0
100
AcDbLine
 10
107.1986581885
 20
149.364041781
 30
0.0
 11
107.1986581885
 21
129.864041781
 31
0.0
  0
LINE
  5
168
330
160
100
AcDbEntity
  8
0
  6
Continuous
 62
     7
370
     0
100
AcDbLine
 10
187.3986581885
 20
162.764041781
 30
0.0
 11
187.3986581885
 21
129.864041781
 31
0.0
  0
LINE
  5
169
330
160
100
AcDbEntity
  8
0
  6
Continuous
 62
     7
370
     0
100
AcDbLine
 10
107.1986581885
 20
130.864041781
 30
0.0
 11
187.3986581885
 21
130.864041781
 31
0.0
  0
MTEXT
  5
16A
330
160
100
AcDbEntity
  8
0
  6
Continuous
 62
     7
370
     0
100
AcDbMText
 10
142.7729638326
 20
135.3757786956
 30
0.1
 40
3.5
 41
0.0
 71
     1
 72
     1
  1
80.2
  7
SLDTEXTSTYLE0
 73
     1
 44
1.0
  0
ENDBLK
  5
162
330
160
100
AcDbEntity
  8
0
100
AcDbBlockEnd
  0
BLOCK
  5
16D
330
16C
100
AcDbEntity
  8
0
100
AcDbBlockBegin
  2
_D_4
 70
     0
 10
0.0
 20
0.0
 30
0.0
  3
_D_4
  1

  0
SOLID
  5
16F
330
16C
100
AcDbEntity
  8
0
  6
Continuous
 62
     7
370
     0
100
AcDbTrace
 10
85.4387932513
 20
165.564041781
 30
0.0
 11
84.6887932513
 21
163.564041781
 31
0.0
 12
86.1887932513
 22
163.564041781
 32
0.0
 13
86.1887932513
 23
163.564041781
 33
0.0
  0
SOLID
  5
170
330
16C
100
AcDbEntity
  8
0
  6
Continuous
 62
     7
370
     0
100
AcDbTrace
 10
85.4387932513
 20
146.864041781
 30
0.0
 11
86.1887932513
 21
148.864041781
 31
0.0
 12
84.6887932513
 22
148.864041781
 32
0.0
 13
84.6887932513
 23
148.864041781
 33
0.0
  0
LINE
  5
171
330
16C
100
AcDbEntity
  8
0
  6
Continuous
 62
     7
370
     0
100
AcDbLine
 10
89.0122839676
 20
165.564041781
 30
0.0
 11
84.4387932513
 21
165.564041781
 31
0.0
  0
LINE
  5
172
330
16C
100
AcDbEntity
  8
0
  6
Continuous
 62
     7
370
     0
100
AcDbLine
 10
109.6986581885
 20
146.864041781
 30
0.0
 11
84.4387932513
 21
146.864041781
 31
0.0
  0
LINE
  5
173
330
16C
100
AcDbEntity
  8
0
  6
Continuous
 62
     7
370
     0
100
AcDbLine
 10
85.4387932513
 20
165.564041781
 30
0.0
 11
85.4387932513
 21
146.864041781
 31
0.0
  0
MTEXT
  5
174
330
16C
100
AcDbEntity
  8
0
  6
Continuous
 62
     7
370
     0
100
AcDbMText
 10
80.9270563367
 20
151.6891615433
 30
0.0
 40
3.5
 41
0.0
 71
     1
 72
     1
  1
18.7
  7
SLDTEXTSTYLE0
 11
-1.770233605404514E-14
 21
1.0
 31
0.0
 73
     1
 44
1.0
  0
ENDBLK
  5
16E
330
16C
100
AcDbEntity
  8
0
100
AcDbBlockEnd
  0
BLOCK
  5
177
330
176
100
AcDbEntity
  8
0
100
AcDbBlockBegin
  2
_D_5
 70
     0
 10
0.0
 20
0.0
 30
0.0
  3
_D_5
  1

  0
SOLID
  5
179
330
176
100
AcDbEntity
  8
0
  6
Continuous
 62
     7
370
     0
100
AcDbTrace
 10
79.2495955821
 20
181.564041781
 30
0.0
 11
78.4995955821
 21
179.564041781
 31
0.0
 12
79.9995955821
 22
179.564041781
 32
0.0
 13
79.9995955821
 23
179.564041781
 33
0.0
  0
SOLID
  5
17A
330
176
100
AcDbEntity
  8
0
  6
Continuous
 62
     7
370
     0
100
AcDbTrace
 10
79.2495955821
 20
146.864041781
 30
0.0
 11
79.9995955821
 21
148.864041781
 31
0.0
 12
78.4995955821
 22
148.864041781
 32
0.0
 13
78.4995955821
 23
148.864041781
 33
0.0
  0
LINE
  5
17B
330
176
100
AcDbEntity
  8
0
  6
Continuous
 62
     7
370
     0
100
AcDbLine
 10
115.6926286277
 20
181.564041781
 30
0.0
 11
78.2495955821
 21
181.564041781
 31
0.0
  0
LINE
  5
17C
330
176
100
AcDbEntity
  8
0
  6
Continuous
 62
     7
370
     0
100
AcDbLine
 10
109.6986581885
 20
146.864041781
 30
0.0
 11
78.2495955821
 21
146.864041781
 31
0.0
  0
LINE
  5
17D
330
176
100
AcDbEntity
  8
0
  6
Continuous
 62
     7
370
     0
100
AcDbLine
 10
79.2495955821
 20
181.564041781
 30
0.0
 11
79.2495955821
 21
146.864041781
 31
0.0
  0
MTEXT
  5
17E
330
176
100
AcDbEntity
  8
0
  6
Continuous
 62
     7
370
     0
100
AcDbMText
 10
74.7378586675
 20
159.6891615433
 30
0.0
 40
3.5
 41
0.0
 71
     1
 72
     1
  1
34.7
  7
SLDTEXTSTYLE0
 11
-1.770233605404514E-14
 21
1.0
 31
0.0
 73
     1
 44
1.0
  0
ENDBLK
  5
178
330
176
100
AcDbEntity
  8
0
100
AcDbBlockEnd
  0
BLOCK
  5
181
330
180
100
AcDbEntity
  8
0
100
AcDbBlockBegin
  2
_D_6
 70
     0
 10
0.0
 20
0.0
 30
0.0
  3
_D_6
  1

  0
SOLID
  5
183
330
180
100
AcDbEntity
  8
0
  6
Continuous
 62
     7
370
     0
100
AcDbTrace
 10
139.6986581885
 20
139.783468824
 30
0.0
 11
141.6986581885
 21
139.033468824
 31
0.0
 12
141.6986581885
 22
140.533468824
 32
0.0
 13
141.6986581885
 23
140.533468824
 33
0.0
  0
SOLID
  5
184
330
180
100
AcDbEntity
  8
0
  6
Continuous
 62
     7
370
     0
100
AcDbTrace
 10
149.6986581885
 20
139.783468824
 30
0.0
 11
147.6986581885
 21
140.533468824
 31
0.0
 12
147.6986581885
 22
139.033468824
 32
0.0
 13
147.6986581885
 23
139.033468824
 33
0.0
  0
LINE
  5
185
330
180
100
AcDbEntity
  8
0
  6
Continuous
 62
     7
370
     0
100
AcDbLine
 10
139.6986581885
 20
143.864041781
 30
0.0
 11
139.6986581885
 21
138.783468824
 31
0.0
  0
LINE
  5
186
330
180
100
AcDbEntity
  8
0
  6
Continuous
 62
     7
370
     0
100
AcDbLine
 10
149.6986581885
 20
143.864041781
 30
0.0
 11
149.6986581885
 21
138.783468824
 31
0.0
  0
LINE
  5
187
330
180
100
AcDbEntity
  8
0
  6
Continuous
 62
     7
370
     0
100
AcDbLine
 10
139.6986581885
 20
139.783468824
 30
0.0
 11
149.6986581885
 21
139.783468824
 31
0.0
  0
MTEXT
  5
188
330
180
100
AcDbEntity
  8
0
  6
Continuous
 62
     7
370
     0
100
AcDbMText
 10
142.112546995
 20
144.2952057386
 30
0.1
 40
3.5
 41
0.0
 71
     1
 72
     1
  1
10
  7
SLDTEXTSTYLE0
 73
     1
 44
1.0
  0
ENDBLK
  5
182
330
180
100
AcDbEntity
  8
0
100
AcDbBlockEnd
  0
BLOCK
  5
18B
330
18A
100
AcDbEntity
  8
0
100
AcDbBlockBegin
  2
_D_7
 70
     0
 10
0.0
 20
0.0
 30
0.0
  3
_D_7
  1

  0
SOLID
  5
18D
330
18A
100
AcDbEntity
  8
0
  6
Continuous
 62
     7
370
     0
100
AcDbTrace
 10
149.6986581885
 20
139.783468824
 30
0.0
 11
151.6986581885
 21
139.033468824
 31
0.0
 12
151.6986581885
 22
140.533468824
 32
0.0
 13
151.6986581885
 23
140.533468824
 33
0.0
  0
SOLID
  5
18E
330
18A
100
AcDbEntity
  8
0
  6
Continuous
 62
     7
370
     0
100
AcDbTrace
 10
187.3986581885
 20
139.783468824
 30
0.0
 11
185.3986581885
 21
140.533468824
 31
0.0
 12
185.3986581885
 22
139.033468824
 32
0.0
 13
185.3986581885
 23
139.033468824
 33
0.0
  0
LINE
  5
18F
330
18A
100
AcDbEntity
  8
0
  6
Continuous
 62
     7
370
     0
100
AcDbLine
 10
149.6986581885
 20
143.864041781
 30
0.0
 11
149.6986581885
 21
138.783468824
 31
0.0
  0
LINE
  5
190
330
18A
100
AcDbEntity
  8
0
  6
Continuous
 62
     7
370
     0
100
AcDbLine
 10
187.3986581885
 20
162.764041781
 30
0.0
 11
187.3986581885
 21
138.783468824
 31
0.0
  0
LINE
  5
191
330
18A
100
AcDbEntity
  8
0
  6
Continuous
 62
     7
370
     0
100
AcDbLine
 10
149.6986581885
 20
139.783468824
 30
0.0
 11
187.3986581885
 21
139.783468824
 31
0.0
  0
MTEXT
  5
192
330
18A
100
AcDbEntity
  8
0
  6
Continuous
 62
     7
370
     0
100
AcDbMText
 10
164.022963658
 20
144.2952057386
 30
0.1
 40
3.5
 41
0.0
 71
     1
 72
     1
  1
37.7
  7
SLDTEXTSTYLE0
 73
     1
 44
1.0
  0
ENDBLK
  5
18C
330
18A
100
AcDbEntity
  8
0
100
AcDbBlockEnd
  0
BLOCK
  5
196
330
195
100
AcDbEntity
  8
0
100
AcDbBlockBegin
  2
_D_8
 70
     0
 10
0.0
 20
0.0
 30
0.0
  3
_D_8
  1

  0
INSERT
  5
198
330
195
100
AcDbEntity
  8
0
  6
Continuous
 62
     7
370
     0
100
AcDbBlockReference
  2
_DOT
 10
177.7986581885
 20
237.4349167925
 30
0.1
 41
3.0
 42
3.0
 50
180.0
  0
SOLID
  5
199
330
195
100
AcDbEntity
  8
0
  6
Continuous
 62
     7
370
     0
100
AcDbTrace
 10
187.3986581885
 20
237.4349167925
 30
0.0
 11
185.3986581885
 21
238.1849167925
 31
0.0
 12
185.3986581885
 22
236.6849167925
 32
0.0
 13
185.3986581885
 23
236.6849167925
 33
0.0
  0
LINE
  5
19A
330
195
100
AcDbEntity
  8
0
  6
Continuous
 62
     7
370
     0
100
AcDbLine
 10
177.7986581885
 20
218.6710932296
 30
0.0
 11
177.7986581885
 21
238.4349167925
 31
0.0
  0
LINE
  5
19B
330
195
100
AcDbEntity
  8
0
  6
Continuous
 62
     7
370
     0
100
AcDbLine
 10
187.3986581885
 20
200.564041781
 30
0.0
 11
187.3986581885
 21
238.4349167925
 31
0.0
  0
LINE
  5
19C
330
195
100
AcDbEntity
  8
0
  6
Continuous
 62
     7
370
     0
100
AcDbLine
 10
177.7986581885
 20
237.4349167925
 30
0.0
 11
187.3986581885
 21
237.4349167925
 31
0.0
  0
MTEXT
  5
19D
330
195
100
AcDbEntity
  8
0
  6
Continuous
 62
     7
370
     0
100
AcDbMText
 10
179.3660193712
 20
241.9466537071
 30
0.1
 40
3.5
 41
0.0
 71
     1
 72
     1
  1
9.6
  7
SLDTEXTSTYLE0
 73
     1
 44
1.0
  0
ENDBLK
  5
197
330
195
100
AcDbEntity
  8
0
100
AcDbBlockEnd
  0
BLOCK
  5
1A0
330
19F
100
AcDbEntity
  8
0
100
AcDbBlockBegin
  2
_D_9
 70
     0
 10
0.0
 20
0.0
 30
0.0
  3
_D_9
  1

  0
SOLID
  5
1A2
330
19F
100
AcDbEntity
  8
0
  6
Continuous
 62
     7
370
     0
100
AcDbTrace
 10
193.7099859661
 20
217.6710932296
 30
0.0
 11
192.9599859661
 21
215.6710932296
 31
0.0
 12
194.4599859661
 22
215.6710932296
 32
0.0
 13
194.4599859661
 23
215.6710932296
 33
0.0
  0
SOLID
  5
1A3
330
19F
100
AcDbEntity
  8
0
  6
Continuous
 62
     7
370
     0
100
AcDbTrace
 10
193.7099859661
 20
146.864041781
 30
0.0
 11
194.4599859661
 21
148.864041781
 31
0.0
 12
192.9599859661
 22
148.864041781
 32
0.0
 13
192.9599859661
 23
148.864041781
 33
0.0
  0
LINE
  5
1A4
330
19F
100
AcDbEntity
  8
0
  6
Continuous
 62
     7
370
     0
100
AcDbLine
 10
178.7986581885
 20
217.6710932296
 30
0.0
 11
194.7099859661
 21
217.6710932296
 31
0.0
  0
LINE
  5
1A5
330
19F
100
AcDbEntity
  8
0
  6
Continuous
 62
     7
370
     0
100
AcDbLine
 10
154.6865751405
 20
146.864041781
 30
0.0
 11
194.7099859661
 21
146.864041781
 31
0.0
  0
LINE
  5
1A6
330
19F
100
AcDbEntity
  8
0
  6
Continuous
 62
     7
370
     0
100
AcDbLine
 10
193.7099859661
 20
217.6710932296
 30
0.0
 11
193.7099859661
 21
146.864041781
 31
0.0
  0
MTEXT
  5
1A7
330
19F
100
AcDbEntity
  8
0
  6
Continuous
 62
     7
370
     0
100
AcDbMText
 10
189.1982490516
 20
177.7418729748
 30
0.1
 40
3.5
 41
0.0
 71
     1
 72
     1
  1
70.8
  7
SLDTEXTSTYLE0
 11
-1.770233605404514E-14
 21
1.0
 31
0.0
 73
     1
 44
1.0
  0
ENDBLK
  5
1A1
330
19F
100
AcDbEntity
  8
0
100
AcDbBlockEnd
  0
BLOCK
  5
1AB
330
1AA
100
AcDbEntity
  8
0
100
AcDbBlockBegin
  2
_D_10
 70
     0
 10
0.0
 20
0.0
 30
0.0
  3
_D_10
  1

  0
SOLID
  5
1AD
330
1AA
100
AcDbEntity
  8
0
  6
Continuous
 62
     7
370
     0
100
AcDbTrace
 10
180.2986581885
 20
227.6712048601
 30
0.0
 11
182.2986581885
 21
226.9212048601
 31
0.0
 12
182.2986581885
 22
228.4212048601
 32
0.0
 13
182.2986581885
 23
228.4212048601
 33
0.0
  0
SOLID
  5
1AE
330
1AA
100
AcDbEntity
  8
0
  6
Continuous
 62
     7
370
     0
100
AcDbTrace
 10
177.7986581885
 20
227.6712048601
 30
0.0
 11
175.7986581885
 21
228.4212048601
 31
0.0
 12
175.7986581885
 22
226.9212048601
 32
0.0
 13
175.7986581885
 23
226.9212048601
 33
0.0
  0
LINE
  5
1AF
330
1AA
100
AcDbEntity
  8
0
  6
Continuous
 62
     7
370
     0
100
AcDbLine
 10
180.2986581885
 20
215.9202019372
 30
0.0
 11
180.2986581885
 21
228.6712048601
 31
0.0
  0
LINE
  5
1B0
330
1AA
100
AcDbEntity
  8
0
  6
Continuous
 62
     7
370
     0
100
AcDbLine
 10
177.7986581885
 20
218.6710932296
 30
0.0
 11
177.7986581885
 21
228.6712048601
 31
0.0
  0
LINE
  5
1B1
330
1AA
100
AcDbEntity
  8
0
  6
Continuous
 62
     7
370
     0
100
AcDbLine
 10
180.2986581885
 20
227.6712048601
 30
0.0
 11
183.2986581885
 21
227.6712048601
 31
0.0
  0
LINE
  5
1B2
330
1AA
100
AcDbEntity
  8
0
  6
Continuous
 62
     7
370
     0
100
AcDbLine
 10
180.2986581885
 20
227.6712048601
 30
0.0
 11
177.7986581885
 21
227.6712048601
 31
0.0
  0
LINE
  5
1B3
330
1AA
100
AcDbEntity
  8
0
  6
Continuous
 62
     7
370
     0
100
AcDbLine
 10
177.7986581885
 20
227.6712048601
 30
0.0
 11
165.2515518244
 21
227.6712048601
 31
0.0
  0
MTEXT
  5
1B4
330
1AA
100
AcDbEntity
  8
0
  6
Continuous
 62
     7
370
     0
100
AcDbMText
 10
165.2515518244
 20
232.1829417746
 30
0.1
 40
3.5
 41
0.0
 71
     1
 72
     1
  1
2.5
  7
SLDTEXTSTYLE0
 73
     1
 44
1.0
  0
ENDBLK
  5
1AC
330
1AA
100
AcDbEntity
  8
0
100
AcDbBlockEnd
  0
BLOCK
  5
1B7
330
1B6
100
AcDbEntity
  8
0
100
AcDbBlockBegin
  2
SW_NOTE_0
 70
     0
 10
0.0
 20
0.0
 30
0.0
  3
SW_NOTE_0
  1

  0
LINE
  5
1B9
330
1B6
100
AcDbEntity
  8
0
  6
Continuous
 62
     0
370
     0
100
AcDbLine
 10
-19.5779601407
 20
0.3435404455
 30
0.0
 11
0.0
 21
0.3435404455
 31
0.0
  0
LINE
  5
1BA
330
1B6
100
AcDbEntity
  8
0
  6
Continuous
 62
     0
370
     0
100
AcDbLine
 10
0.0
 20
0.3435404455
 30
0.0
 11
-19.5779601407
 21
0.3435404455
 31
0.0
  0
LINE
  5
1BB
330
1B6
100
AcDbEntity
  8
0
  6
Continuous
 62
     0
370
     0
100
AcDbLine
 10
-19.5779601407
 20
0.3435404455
 30
0.0
 11
0.0
 21
0.3435404455
 31
0.0
  0
LINE
  5
1BC
330
1B6
100
AcDbEntity
  8
0
  6
Continuous
 62
     0
370
     0
100
AcDbLine
 10
0.0
 20
0.3435404455
 30
0.0
 11
-19.5779601407
 21
0.3435404455
 31
0.0
  0
LINE
  5
1BD
330
1B6
100
AcDbEntity
  8
0
  6
Continuous
 62
     0
370
     0
100
AcDbLine
 10
-19.5779601407
 20
0.3435404455
 30
0.0
 11
0.0
 21
0.3435404455
 31
0.0
  0
LINE
  5
1BE
330
1B6
100
AcDbEntity
  8
0
  6
Continuous
 62
     0
370
     0
100
AcDbLine
 10
0.0
 20
0.3435404455
 30
0.0
 11
-19.5779601407
 21
0.3435404455
 31
0.0
  0
MTEXT
  5
1BF
330
1B6
100
AcDbEntity
  8
0
  6
Continuous
 62
     0
370
     0
100
AcDbMText
 10
-19.5747873638
 20
4.522556241
 30
0.0
 40
3.5
 41
0.0
 71
     1
 72
     1
  1
カット配管
  7
SLDTEXTSTYLE0
 73
     1
 44
1.0
  0
ENDBLK
  5
1B8
330
1B6
100
AcDbEntity
  8
0
100
AcDbBlockEnd
  0
BLOCK
  5
1C4
330
1C3
100
AcDbEntity
  8
0
100
AcDbBlockBegin
  2
SW_NOTE_1
 70
     0
 10
0.0
 20
0.0
 30
0.0
  3
SW_NOTE_1
  1

  0
LINE
  5
1C6
330
1C3
100
AcDbEntity
  8
0
  6
Continuous
 62
     0
370
     0
100
AcDbLine
 10
-0.0544060039
 20
0.3399196273
 30
0.0
 11
17.4133548402
 21
0.3399196273
 31
0.0
  0
LINE
  5
1C7
330
1C3
100
AcDbEntity
  8
0
  6
Continuous
 62
     0
370
     0
100
AcDbLine
 10
17.4133548402
 20
0.3399196273
 30
0.0
 11
-0.0544060039
 21
0.3399196273
 31
0.0
  0
LINE
  5
1C8
330
1C3
100
AcDbEntity
  8
0
  6
Continuous
 62
     0
370
     0
100
AcDbLine
 10
-0.0544060039
 20
0.3399196273
 30
0.0
 11
17.4133548402
 21
0.3399196273
 31
0.0
  0
LINE
  5
1C9
330
1C3
100
AcDbEntity
  8
0
  6
Continuous
 62
     0
370
     0
100
AcDbLine
 10
17.4133548402
 20
0.3399196273
 30
0.0
 11
-0.0544060039
 21
0.3399196273
 31
0.0
  0
LINE
  5
1CA
330
1C3
100
AcDbEntity
  8
0
  6
Continuous
 62
     0
370
     0
100
AcDbLine
 10
-0.0544060039
 20
0.3399196273
 30
0.0
 11
17.4133548402
 21
0.3399196273
 31
0.0
  0
LINE
  5
1CB
330
1C3
100
AcDbEntity
  8
0
  6
Continuous
 62
     0
370
     0
100
AcDbLine
 10
17.4133548402
 20
0.3399196273
 30
0.0
 11
-0.0544060039
 21
0.3399196273
 31
0.0
  0
MTEXT
  5
1CC
330
1C3
100
AcDbEntity
  8
0
  6
Continuous
 62
     0
370
     0
100
AcDbMText
 10
0.0
 20
4.5117370892
 30
0.0
 40
3.5
 41
0.0
 71
     1
 72
     1
  1
プル配管
  7
SLDTEXTSTYLE0
 73
     1
 44
1.0
  0
ENDBLK
  5
1C5
330
1C3
100
AcDbEntity
  8
0
100
AcDbBlockEnd
  0
BLOCK
  5
281
330
280
100
AcDbEntity
  8
0
100
AcDbBlockBegin
  2
_D_11
 70
     0
 10
0.0
 20
0.0
 30
0.0
  3
_D_11
  1

  0
SOLID
  5
283
330
280
100
AcDbEntity
  8
0
  6
Continuous
 62
     7
370
     0
100
AcDbTrace
 10
42.7732960573
 20
229.0300161125
 30
0.0
 11
40.7732955654
 21
229.7800148006
 31
0.0
 12
40.7732965493
 22
228.2800148006
 32
0.0
 13
40.7732965493
 23
228.2800148006
 33
0.0
  0
SOLID
  5
284
330
280
100
AcDbEntity
  8
0
  6
Continuous
 62
     7
370
     0
100
AcDbTrace
 10
48.7189149427
 20
229.0300200124
 30
0.0
 11
50.7189154346
 21
228.2800213243
 31
0.0
 12
50.7189144507
 22
229.7800213243
 32
0.0
 13
50.7189144507
 23
229.7800213243
 33
0.0
  0
LINE
  5
285
330
280
100
AcDbEntity
  8
0
  6
Continuous
 62
     7
370
     0
100
AcDbLine
 10
42.7733028521
 20
218.6711017808
 30
0.0
 11
42.7732954014
 21
230.0300161125
 31
0.0
  0
LINE
  5
286
330
280
100
AcDbEntity
  8
0
  6
Continuous
 62
     7
370
     0
100
AcDbLine
 10
48.7189217374
 20
218.6710932296
 30
0.0
 11
48.7189142867
 21
230.0300200124
 31
0.0
  0
LINE
  5
287
330
280
100
AcDbEntity
  8
0
  6
Continuous
 62
     7
370
     0
100
AcDbLine
 10
42.7732960573
 20
229.0300161125
 30
0.0
 11
37.7732960573
 21
229.0300128328
 31
0.0
  0
LINE
  5
288
330
280
100
AcDbEntity
  8
0
  6
Continuous
 62
     7
370
     0
100
AcDbLine
 10
42.7732960573
 20
229.0300161125
 30
0.0
 11
48.7189149427
 21
229.0300200124
 31
0.0
  0
LINE
  5
289
330
280
100
AcDbEntity
  8
0
  6
Continuous
 62
     7
370
     0
100
AcDbLine
 10
48.7189149427
 20
229.0300200124
 30
0.0
 11
53.7189149427
 21
229.0300232921
 31
0.0
  0
MTEXT
  5
28A
330
280
100
AcDbEntity
  8
0
  6
Continuous
 62
     7
370
     0
100
AcDbMText
 10
42.5134637233
 20
233.5417528566
 30
-35.4313718718
 40
3.5
 41
0.0
 71
     1
 72
     1
  1
5.9
  7
SLDTEXTSTYLE0
 11
0.9999999999997848
 21
6.559297524106935E-7
 31
0.0
 73
     1
 44
1.0
  0
ENDBLK
  5
282
330
280
100
AcDbEntity
  8
0
100
AcDbBlockEnd
  0
BLOCK
  5
28D
330
28C
100
AcDbEntity
  8
0
100
AcDbBlockBegin
  2
_D_12
 70
     0
 10
0.0
 20
0.0
 30
0.0
  3
_D_12
  1

  0
SOLID
  5
28F
330
28C
100
AcDbEntity
  8
0
  6
Continuous
 62
     7
370
     0
100
AcDbTrace
 10
31.746113508
 20
136.864041781
 30
0.0
 11
33.746113508
 21
136.114041781
 31
0.0
 12
33.746113508
 22
137.614041781
 32
0.0
 13
33.746113508
 23
137.614041781
 33
0.0
  0
SOLID
  5
290
330
28C
100
AcDbEntity
  8
0
  6
Continuous
 62
     7
370
     0
100
AcDbTrace
 10
59.746113508
 20
136.864041781
 30
0.0
 11
57.746113508
 21
137.614041781
 31
0.0
 12
57.746113508
 22
136.114041781
 32
0.0
 13
57.746113508
 23
136.114041781
 33
0.0
  0
LINE
  5
291
330
28C
100
AcDbEntity
  8
0
  6
Continuous
 62
     7
370
     0
100
AcDbLine
 10
31.746113508
 20
145.864041781
 30
0.0
 11
31.746113508
 21
135.864041781
 31
0.0
  0
LINE
  5
292
330
28C
100
AcDbEntity
  8
0
  6
Continuous
 62
     7
370
     0
100
AcDbLine
 10
59.746113508
 20
145.864041781
 30
0.0
 11
59.746113508
 21
135.864041781
 31
0.0
  0
LINE
  5
293
330
28C
100
AcDbEntity
  8
0
  6
Continuous
 62
     7
370
     0
100
AcDbLine
 10
31.746113508
 20
136.864041781
 30
0.0
 11
59.746113508
 21
136.864041781
 31
0.0
  0
MTEXT
  5
294
330
28C
100
AcDbEntity
  8
0
  6
Continuous
 62
     7
370
     0
100
AcDbMText
 10
43.1600023144
 20
141.3757786955
 30
-35.4313718718
 40
3.5
 41
0.0
 71
     1
 72
     1
  1
28
  7
SLDTEXTSTYLE0
 73
     1
 44
1.0
  0
ENDBLK
  5
28E
330
28C
100
AcDbEntity
  8
0
100
AcDbBlockEnd
  0
BLOCK
  5
297
330
296
100
AcDbEntity
  8
0
100
AcDbBlockBegin
  2
_D_13
 70
     0
 10
0.0
 20
0.0
 30
0.0
  3
_D_13
  1

  0
SOLID
  5
299
330
296
100
AcDbEntity
  8
0
  6
Continuous
 62
     7
370
     0
100
AcDbTrace
 10
65.5865403031
 20
187.564041781
 30
0.0
 11
64.8365403031
 21
185.564041781
 31
0.0
 12
66.3365403031
 22
185.564041781
 32
0.0
 13
66.3365403031
 23
185.564041781
 33
0.0
  0
SOLID
  5
29A
330
296
100
AcDbEntity
  8
0
  6
Continuous
 62
     7
370
     0
100
AcDbTrace
 10
65.5865403031
 20
146.864041781
 30
0.0
 11
66.3365403031
 21
148.864041781
 31
0.0
 12
64.8365403031
 22
148.864041781
 32
0.0
 13
64.8365403031
 23
148.864041781
 33
0.0
  0
LINE
  5
29B
330
296
100
AcDbEntity
  8
0
  6
Continuous
 62
     7
370
     0
100
AcDbLine
 10
56.746113508
 20
187.564041781
 30
0.0
 11
66.5865403031
 21
187.564041781
 31
0.0
  0
LINE
  5
29C
330
296
100
AcDbEntity
  8
0
  6
Continuous
 62
     7
370
     0
100
AcDbLine
 10
60.746113508
 20
146.864041781
 30
0.0
 11
66.5865403031
 21
146.864041781
 31
0.0
  0
LINE
  5
29D
330
296
100
AcDbEntity
  8
0
  6
Continuous
 62
     7
370
     0
100
AcDbLine
 10
65.5865403031
 20
187.564041781
 30
0.0
 11
65.5865403031
 21
146.864041781
 31
0.0
  0
MTEXT
  5
29E
330
296
100
AcDbEntity
  8
0
  6
Continuous
 62
     7
370
     0
100
AcDbMText
 10
61.0748033885
 20
158.8668468171
 30
-35.4313718718
 40
3.5
 41
0.0
 71
     1
 72
     1
  1
40.7
  7
SLDTEXTSTYLE0
 11
-7.044195017643634E-15
 21
1.0
 31
0.0
 73
     1
 44
1.0
  0
ENDBLK
  5
298
330
296
100
AcDbEntity
  8
0
100
AcDbBlockEnd
  0
BLOCK
  5
2A1
330
2A0
100
AcDbEntity
  8
0
100
AcDbBlockBegin
  2
_D_14
 70
     0
 10
0.0
 20
0.0
 30
0.0
  3
_D_14
  1

  0
SOLID
  5
2A3
330
2A0
100
AcDbEntity
  8
0
  6
Continuous
 62
     7
370
     0
100
AcDbTrace
 10
71.9605934826
 20
199.564041781
 30
0.0
 11
71.2105934826
 21
197.564041781
 31
0.0
 12
72.7105934826
 22
197.564041781
 32
0.0
 13
72.7105934826
 23
197.564041781
 33
0.0
  0
SOLID
  5
2A4
330
2A0
100
AcDbEntity
  8
0
  6
Continuous
 62
     7
370
     0
100
AcDbTrace
 10
71.9605934826
 20
146.864041781
 30
0.0
 11
72.7105934826
 21
148.864041781
 31
0.0
 12
71.2105934826
 22
148.864041781
 32
0.0
 13
71.2105934826
 23
148.864041781
 33
0.0
  0
LINE
  5
2A5
330
2A0
100
AcDbEntity
  8
0
  6
Continuous
 62
     7
370
     0
100
AcDbLine
 10
57.2913287822
 20
199.564041781
 30
0.0
 11
72.9605934826
 21
199.564041781
 31
0.0
  0
LINE
  5
2A6
330
2A0
100
AcDbEntity
  8
0
  6
Continuous
 62
     7
370
     0
100
AcDbLine
 10
60.746113508
 20
146.864041781
 30
0.0
 11
72.9605934826
 21
146.864041781
 31
0.0
  0
LINE
  5
2A7
330
2A0
100
AcDbEntity
  8
0
  6
Continuous
 62
     7
370
     0
100
AcDbLine
 10
71.9605934826
 20
199.564041781
 30
0.0
 11
71.9605934826
 21
146.864041781
 31
0.0
  0
MTEXT
  5
2A8
330
2A0
100
AcDbEntity
  8
0
  6
Continuous
 62
     7
370
     0
100
AcDbMText
 10
67.4488565681
 20
162.9029601721
 30
-35.4313718718
 40
3.5
 41
0.0
 71
     1
 72
     1
  1
52.7
  7
SLDTEXTSTYLE0
 11
-7.044195017643634E-15
 21
1.0
 31
0.0
 73
     1
 44
1.0
  0
ENDBLK
  5
2A2
330
2A0
100
AcDbEntity
  8
0
100
AcDbBlockEnd
  0
BLOCK
  5
2AB
330
2AA
100
AcDbEntity
  8
0
100
AcDbBlockBegin
  2
_D_15
 70
     0
 10
0.0
 20
0.0
 30
0.0
  3
_D_15
  1

  0
ARC
  5
2AD
330
2AA
100
AcDbEntity
  8
0
  6
Continuous
 62
     7
370
     0
100
AcDbCircle
 10
69.1824684871
 20
209.6481231405
 30
0.0
 40
6.2120763399956
100
AcDbArc
 50
243.4349488229
 51
296.5650511771
  0
ARC
  5
2AE
330
2AA
100
AcDbEntity
  8
0
  6
Continuous
 62
     7
370
     0
100
AcDbCircle
 10
69.1824684871
 20
207.5870122193
 30
0.0
 40
6.2120763399956
100
AcDbArc
 50
63.4349488229
 51
116.5650511771
  0
SOLID
  5
2AF
330
2AA
100
AcDbEntity
  8
0
  6
Continuous
 62
     7
370
     0
100
AcDbTrace
 10
71.9605934826
 20
199.564041781
 30
0.0
 11
72.7105934826
 21
201.564041781
 31
0.0
 12
71.2105934826
 22
201.564041781
 32
0.0
 13
71.2105934826
 23
201.564041781
 33
0.0
  0
SOLID
  5
2B0
330
2AA
100
AcDbEntity
  8
0
  6
Continuous
 62
     7
370
     0
100
AcDbTrace
 10
71.9605934826
 20
217.6710932296
 30
0.0
 11
71.2105934826
 21
215.6710932296
 31
0.0
 12
72.7105934826
 22
215.6710932296
 32
0.0
 13
72.7105934826
 23
215.6710932296
 33
0.0
  0
LINE
  5
2B1
330
2AA
100
AcDbEntity
  8
0
  6
Continuous
 62
     7
370
     0
100
AcDbLine
 10
57.471113508
 20
199.564041781
 30
0.0
 11
72.9605934826
 21
199.564041781
 31
0.0
  0
LINE
  5
2B2
330
2AA
100
AcDbEntity
  8
0
  6
Continuous
 62
     7
370
     0
100
AcDbLine
 10
49.7189223933
 20
217.6710932296
 30
0.0
 11
72.9605934826
 21
217.6710932296
 31
0.0
  0
LINE
  5
2B3
330
2AA
100
AcDbEntity
  8
0
  6
Continuous
 62
     7
370
     0
100
AcDbLine
 10
71.9605934826
 20
199.564041781
 30
0.0
 11
71.9605934826
 21
217.6710932296
 31
0.0
  0
MTEXT
  5
2B4
330
2AA
100
AcDbEntity
  8
0
  6
Continuous
 62
     7
370
     0
100
AcDbMText
 10
67.4488565681
 20
204.0918731495
 30
-35.4313718718
 40
3.5
 41
0.0
 71
     1
 72
     1
  1
18.1
  7
SLDTEXTSTYLE0
 11
6.123233995736766E-17
 21
1.0
 31
0.0
 73
     1
 44
1.0
  0
ENDBLK
  5
2AC
330
2AA
100
AcDbEntity
  8
0
100
AcDbBlockEnd
  0
BLOCK
  5
2B7
330
2B6
100
AcDbEntity
  8
0
100
AcDbBlockBegin
  2
_D_16
 70
     0
 10
0.0
 20
0.0
 30
0.0
  3
_D_16
  1

  0
ARC
  5
2B9
330
2B6
100
AcDbEntity
  8
0
  6
Continuous
 62
     7
370
     0
100
AcDbCircle
 10
46.7766611352
 20
242.4493298556
 30
0.0
 40
6.2120763399956
100
AcDbArc
 50
153.4349488229
 51
206.5650511771
  0
ARC
  5
2BA
330
2B6
100
AcDbEntity
  8
0
  6
Continuous
 62
     7
370
     0
100
AcDbCircle
 10
44.715550214
 20
242.4493298556
 30
0.0
 40
6.2120763399956
100
AcDbArc
 50
333.4349488229
 51
26.5650511771
  0
SOLID
  5
2BB
330
2B6
100
AcDbEntity
  8
0
  6
Continuous
 62
     7
370
     0
100
AcDbTrace
 10
37.0445758269
 20
239.67120486
 30
0.0
 11
39.0445758269
 21
238.92120486
 31
0.0
 12
39.0445758269
 22
240.42120486
 32
0.0
 13
39.0445758269
 23
240.42120486
 33
0.0
  0
SOLID
  5
2BC
330
2B6
100
AcDbEntity
  8
0
  6
Continuous
 62
     7
370
     0
100
AcDbTrace
 10
54.447683508
 20
239.6712048601
 30
0.0
 11
52.447683508
 21
240.4212048601
 31
0.0
 12
52.447683508
 22
238.9212048601
 32
0.0
 13
52.447683508
 23
238.9212048601
 33
0.0
  0
LINE
  5
2BD
330
2B6
100
AcDbEntity
  8
0
  6
Continuous
 62
     7
370
     0
100
AcDbLine
 10
37.0445758269
 20
202.674021781
 30
0.0
 11
37.0445758269
 21
240.67120486
 31
0.0
  0
LINE
  5
2BE
330
2B6
100
AcDbEntity
  8
0
  6
Continuous
 62
     7
370
     0
100
AcDbLine
 10
54.447683508
 20
202.674021781
 30
0.0
 11
54.447683508
 21
240.6712048601
 31
0.0
  0
LINE
  5
2BF
330
2B6
100
AcDbEntity
  8
0
  6
Continuous
 62
     7
370
     0
100
AcDbLine
 10
37.0445758269
 20
239.67120486
 30
0.0
 11
54.447683508
 21
239.6712048601
 31
0.0
  0
MTEXT
  5
2C0
330
2B6
100
AcDbEntity
  8
0
  6
Continuous
 62
     7
370
     0
100
AcDbMText
 10
41.2204111442
 20
244.1829417746
 30
-35.4313718718
 40
3.5
 41
0.0
 71
     1
 72
     1
  1
17.4
  7
SLDTEXTSTYLE0
 73
     1
 44
1.0
  0
ENDBLK
  5
2B8
330
2B6
100
AcDbEntity
  8
0
100
AcDbBlockEnd
  0
BLOCK
  5
2C3
330
2C2
100
AcDbEntity
  8
0
100
AcDbBlockBegin
  2
_D_17
 70
     0
 10
0.0
 20
0.0
 30
0.0
  3
_D_17
  1

  0
SOLID
  5
2C5
330
2C2
100
AcDbEntity
  8
0
  6
Continuous
 62
     7
370
     0
100
AcDbTrace
 10
26.2627526052
 20
194.864041781
 30
0.0
 11
25.5127526052
 21
192.864041781
 31
0.0
 12
27.0127526052
 22
192.864041781
 32
0.0
 13
27.0127526052
 23
192.864041781
 33
0.0
  0
SOLID
  5
2C6
330
2C2
100
AcDbEntity
  8
0
  6
Continuous
 62
     7
370
     0
100
AcDbTrace
 10
26.2627526052
 20
146.864041781
 30
0.0
 11
27.0127526052
 21
148.864041781
 31
0.0
 12
25.5127526052
 22
148.864041781
 32
0.0
 13
25.5127526052
 23
148.864041781
 33
0.0
  0
LINE
  5
2C7
330
2C2
100
AcDbEntity
  8
0
  6
Continuous
 62
     7
370
     0
100
AcDbLine
 10
37.096113508
 20
194.864041781
 30
0.0
 11
25.2627526052
 21
194.864041781
 31
0.0
  0
LINE
  5
2C8
330
2C2
100
AcDbEntity
  8
0
  6
Continuous
 62
     7
370
     0
100
AcDbLine
 10
30.746113508
 20
146.864041781
 30
0.0
 11
25.2627526052
 21
146.864041781
 31
0.0
  0
LINE
  5
2C9
330
2C2
100
AcDbEntity
  8
0
  6
Continuous
 62
     7
370
     0
100
AcDbLine
 10
26.2627526052
 20
194.864041781
 30
0.0
 11
26.2627526052
 21
146.864041781
 31
0.0
  0
MTEXT
  5
2CA
330
2C2
100
AcDbEntity
  8
0
  6
Continuous
 62
     7
370
     0
100
AcDbMText
 10
21.7510156906
 20
168.7703776561
 30
-35.4313718718
 40
3.5
 41
0.0
 71
     1
 72
     1
  1
48
  7
SLDTEXTSTYLE0
 11
-7.044195017643634E-15
 21
1.0
 31
0.0
 73
     1
 44
1.0
  0
ENDBLK
  5
2C4
330
2C2
100
AcDbEntity
  8
0
100
AcDbBlockEnd
  0
BLOCK
  5
2CC
330
2CB
100
AcDbEntity
  8
0
100
AcDbBlockBegin
  2
SW_CENTERMARKSYMBOL_0
 70
     0
 10
0.0
 20
0.0
 30
0.0
  3
SW_CENTERMARKSYMBOL_0
  1

  0
LINE
  5
2CE
330
2CB
100
AcDbEntity
  8
0
  6
Continuous
 62
     0
370
     0
100
AcDbLine
 10
0.0
 20
0.0
 30
0.0
 11
0.0
 21
2.5
 31
0.0
  0
LINE
  5
2CF
330
2CB
100
AcDbEntity
  8
0
  6
Continuous
 62
     0
370
     0
100
AcDbLine
 10
0.0
 20
0.0
 30
0.0
 11
-2.5
 21
0.0
 31
0.0
  0
LINE
  5
2D0
330
2CB
100
AcDbEntity
  8
0
  6
Continuous
 62
     0
370
     0
100
AcDbLine
 10
0.0
 20
0.0
 30
0.0
 11
0.0
 21
-2.5
 31
0.0
  0
LINE
  5
2D1
330
2CB
100
AcDbEntity
  8
0
  6
Continuous
 62
     0
370
     0
100
AcDbLine
 10
0.0
 20
0.0
 30
0.0
 11
2.5
 21
0.0
 31
0.0
  0
LINE
  5
2D2
330
2CB
100
AcDbEntity
  8
0
  6
Continuous
 62
     0
370
     0
100
AcDbLine
 10
0.0
 20
5.0
 30
0.0
 11
0.0
 21
5.1
 31
0.0
  0
LINE
  5
2D3
330
2CB
100
AcDbEntity
  8
0
  6
Continuous
 62
     0
370
     0
100
AcDbLine
 10
-5.0
 20
0.0
 30
0.0
 11
-5.1
 21
0.0
 31
0.0
  0
LINE
  5
2D4
330
2CB
100
AcDbEntity
  8
0
  6
Continuous
 62
     0
370
     0
100
AcDbLine
 10
0.0
 20
-5.0
 30
0.0
 11
0.0
 21
-5.1
 31
0.0
  0
LINE
  5
2D5
330
2CB
100
AcDbEntity
  8
0
  6
Continuous
 62
     0
370
     0
100
AcDbLine
 10
5.0
 20
0.0
 30
0.0
 11
5.1
 21
0.0
 31
0.0
  0
ENDBLK
  5
2CD
330
2CB
100
AcDbEntity
  8
0
100
AcDbBlockEnd
  0
BLOCK
  5
2D8
330
2D7
100
AcDbEntity
  8
0
100
AcDbBlockBegin
  2
SW_CENTERMARKSYMBOL_1
 70
     0
 10
0.0
 20
0.0
 30
0.0
  3
SW_CENTERMARKSYMBOL_1
  1

  0
LINE
  5
2DA
330
2D7
100
AcDbEntity
  8
0
  6
Continuous
 62
     0
370
     0
100
AcDbLine
 10
0.0
 20
0.0
 30
0.0
 11
0.0
 21
2.5
 31
0.0
  0
LINE
  5
2DB
330
2D7
100
AcDbEntity
  8
0
  6
Continuous
 62
     0
370
     0
100
AcDbLine
 10
0.0
 20
0.0
 30
0.0
 11
-2.5
 21
0.0
 31
0.0
  0
LINE
  5
2DC
330
2D7
100
AcDbEntity
  8
0
  6
Continuous
 62
     0
370
     0
100
AcDbLine
 10
0.0
 20
0.0
 30
0.0
 11
0.0
 21
-2.5
 31
0.0
  0
LINE
  5
2DD
330
2D7
100
AcDbEntity
  8
0
  6
Continuous
 62
     0
370
     0
100
AcDbLine
 10
0.0
 20
0.0
 30
0.0
 11
2.5
 21
0.0
 31
0.0
  0
LINE
  5
2DE
330
2D7
100
AcDbEntity
  8
0
  6
Continuous
 62
     0
370
     0
100
AcDbLine
 10
0.0
 20
5.0
 30
0.0
 11
0.0
 21
5.1
 31
0.0
  0
LINE
  5
2DF
330
2D7
100
AcDbEntity
  8
0
  6
Continuous
 62
     0
370
     0
100
AcDbLine
 10
-5.0
 20
0.0
 30
0.0
 11
-5.1
 21
0.0
 31
0.0
  0
LINE
  5
2E0
330
2D7
100
AcDbEntity
  8
0
  6
Continuous
 62
     0
370
     0
100
AcDbLine
 10
0.0
 20
-5.0
 30
0.0
 11
0.0
 21
-5.1
 31
0.0
  0
LINE
  5
2E1
330
2D7
100
AcDbEntity
  8
0
  6
Continuous
 62
     0
370
     0
100
AcDbLine
 10
5.0
 20
0.0
 30
0.0
 11
5.1
 21
0.0
 31
0.0
  0
ENDBLK
  5
2D9
330
2D7
100
AcDbEntity
  8
0
100
AcDbBlockEnd
  0
BLOCK
  5
2E4
330
2E3
100
AcDbEntity
  8
0
100
AcDbBlockBegin
  2
SW_CENTERMARKSYMBOL_2
 70
     0
 10
0.0
 20
0.0
 30
0.0
  3
SW_CENTERMARKSYMBOL_2
  1

  0
LINE
  5
2E6
330
2E3
100
AcDbEntity
  8
0
  6
Continuous
 62
     0
370
     0
100
AcDbLine
 10
0.0
 20
0.0
 30
0.0
 11
0.0
 21
2.5
 31
0.0
  0
LINE
  5
2E7
330
2E3
100
AcDbEntity
  8
0
  6
Continuous
 62
     0
370
     0
100
AcDbLine
 10
0.0
 20
0.0
 30
0.0
 11
-2.5
 21
0.0
 31
0.0
  0
LINE
  5
2E8
330
2E3
100
AcDbEntity
  8
0
  6
Continuous
 62
     0
370
     0
100
AcDbLine
 10
0.0
 20
0.0
 30
0.0
 11
0.0
 21
-2.5
 31
0.0
  0
LINE
  5
2E9
330
2E3
100
AcDbEntity
  8
0
  6
Continuous
 62
     0
370
     0
100
AcDbLine
 10
0.0
 20
0.0
 30
0.0
 11
2.5
 21
0.0
 31
0.0
  0
LINE
  5
2EA
330
2E3
100
AcDbEntity
  8
0
  6
Continuous
 62
     0
370
     0
100
AcDbLine
 10
0.0
 20
2.5
 30
0.0
 11
0.0
 21
4.5
 31
0.0
  0
LINE
  5
2EB
330
2E3
100
AcDbEntity
  8
0
  6
Continuous
 62
     0
370
     0
100
AcDbLine
 10
-2.5
 20
0.0
 30
0.0
 11
-4.5
 21
0.0
 31
0.0
  0
LINE
  5
2EC
330
2E3
100
AcDbEntity
  8
0
  6
Continuous
 62
     0
370
     0
100
AcDbLine
 10
0.0
 20
-2.5
 30
0.0
 11
0.0
 21
-4.5
 31
0.0
  0
LINE
  5
2ED
330
2E3
100
AcDbEntity
  8
0
  6
Continuous
 62
     0
370
     0
100
AcDbLine
 10
2.5
 20
0.0
 30
0.0
 11
4.5
 21
0.0
 31
0.0
  0
ENDBLK
  5
2E5
330
2E3
100
AcDbEntity
  8
0
100
AcDbBlockEnd
  0
BLOCK
  5
2F0
330
2EF
100
AcDbEntity
  8
0
100
AcDbBlockBegin
  2
SW_CENTERMARKSYMBOL_3
 70
     0
 10
0.0
 20
0.0
 30
0.0
  3
SW_CENTERMARKSYMBOL_3
  1

  0
LINE
  5
2F2
330
2EF
100
AcDbEntity
  8
0
  6
Continuous
 62
     0
370
     0
100
AcDbLine
 10
0.0
 20
0.0
 30
0.0
 11
0.0
 21
2.5
 31
0.0
  0
LINE
  5
2F3
330
2EF
100
AcDbEntity
  8
0
  6
Continuous
 62
     0
370
     0
100
AcDbLine
 10
0.0
 20
0.0
 30
0.0
 11
-2.5
 21
0.0
 31
0.0
  0
LINE
  5
2F4
330
2EF
100
AcDbEntity
  8
0
  6
Continuous
 62
     0
370
     0
100
AcDbLine
 10
0.0
 20
0.0
 30
0.0
 11
0.0
 21
-2.5
 31
0.0
  0
LINE
  5
2F5
330
2EF
100
AcDbEntity
  8
0
  6
Continuous
 62
     0
370
     0
100
AcDbLine
 10
0.0
 20
0.0
 30
0.0
 11
2.5
 21
0.0
 31
0.0
  0
LINE
  5
2F6
330
2EF
100
AcDbEntity
  8
0
  6
Continuous
 62
     0
370
     0
100
AcDbLine
 10
0.0
 20
5.0
 30
0.0
 11
0.0
 21
6.5
 31
0.0
  0
LINE
  5
2F7
330
2EF
100
AcDbEntity
  8
0
  6
Continuous
 62
     0
370
     0
100
AcDbLine
 10
-5.0
 20
0.0
 30
0.0
 11
-6.5
 21
0.0
 31
0.0
  0
LINE
  5
2F8
330
2EF
100
AcDbEntity
  8
0
  6
Continuous
 62
     0
370
     0
100
AcDbLine
 10
0.0
 20
-5.0
 30
0.0
 11
0.0
 21
-6.5
 31
0.0
  0
LINE
  5
2F9
330
2EF
100
AcDbEntity
  8
0
  6
Continuous
 62
     0
370
     0
100
AcDbLine
 10
5.0
 20
0.0
 30
0.0
 11
6.5
 21
0.0
 31
0.0
  0
ENDBLK
  5
2F1
330
2EF
100
AcDbEntity
  8
0
100
AcDbBlockEnd
  0
BLOCK
  5
2FC
330
2FB
100
AcDbEntity
  8
0
100
AcDbBlockBegin
  2
SW_CENTERMARKSYMBOL_4
 70
     0
 10
0.0
 20
0.0
 30
0.0
  3
SW_CENTERMARKSYMBOL_4
  1

  0
LINE
  5
2FE
330
2FB
100
AcDbEntity
  8
0
  6
Continuous
 62
     0
370
     0
100
AcDbLine
 10
0.0
 20
0.0
 30
0.0
 11
0.0
 21
2.5
 31
0.0
  0
LINE
  5
2FF
330
2FB
100
AcDbEntity
  8
0
  6
Continuous
 62
     0
370
     0
100
AcDbLine
 10
0.0
 20
0.0
 30
0.0
 11
-2.5
 21
0.0
 31
0.0
  0
LINE
  5
300
330
2FB
100
AcDbEntity
  8
0
  6
Continuous
 62
     0
370
     0
100
AcDbLine
 10
0.0
 20
0.0
 30
0.0
 11
0.0
 21
-2.5
 31
0.0
  0
LINE
  5
301
330
2FB
100
AcDbEntity
  8
0
  6
Continuous
 62
     0
370
     0
100
AcDbLine
 10
0.0
 20
0.0
 30
0.0
 11
2.5
 21
0.0
 31
0.0
  0
LINE
  5
302
330
2FB
100
AcDbEntity
  8
0
  6
Continuous
 62
     0
370
     0
100
AcDbLine
 10
0.0
 20
5.0
 30
0.0
 11
0.0
 21
7.65
 31
0.0
  0
LINE
  5
303
330
2FB
100
AcDbEntity
  8
0
  6
Continuous
 62
     0
370
     0
100
AcDbLine
 10
-5.0
 20
0.0
 30
0.0
 11
-7.65
 21
0.0
 31
0.0
  0
LINE
  5
304
330
2FB
100
AcDbEntity
  8
0
  6
Continuous
 62
     0
370
     0
100
AcDbLine
 10
0.0
 20
-5.0
 30
0.0
 11
0.0
 21
-7.65
 31
0.0
  0
LINE
  5
305
330
2FB
100
AcDbEntity
  8
0
  6
Continuous
 62
     0
370
     0
100
AcDbLine
 10
5.0
 20
0.0
 30
0.0
 11
7.65
 21
0.0
 31
0.0
  0
ENDBLK
  5
2FD
330
2FB
100
AcDbEntity
  8
0
100
AcDbBlockEnd
  0
BLOCK
  5
308
330
307
100
AcDbEntity
  8
0
100
AcDbBlockBegin
  2
SW_CENTERMARKSYMBOL_5
 70
     0
 10
0.0
 20
0.0
 30
0.0
  3
SW_CENTERMARKSYMBOL_5
  1

  0
LINE
  5
30A
330
307
100
AcDbEntity
  8
0
  6
Continuous
 62
     0
370
     0
100
AcDbLine
 10
0.0
 20
0.0
 30
0.0
 11
0.0
 21
2.5
 31
0.0
  0
LINE
  5
30B
330
307
100
AcDbEntity
  8
0
  6
Continuous
 62
     0
370
     0
100
AcDbLine
 10
0.0
 20
0.0
 30
0.0
 11
-2.5
 21
0.0
 31
0.0
  0
LINE
  5
30C
330
307
100
AcDbEntity
  8
0
  6
Continuous
 62
     0
370
     0
100
AcDbLine
 10
0.0
 20
0.0
 30
0.0
 11
0.0
 21
-2.5
 31
0.0
  0
LINE
  5
30D
330
307
100
AcDbEntity
  8
0
  6
Continuous
 62
     0
370
     0
100
AcDbLine
 10
0.0
 20
0.0
 30
0.0
 11
2.5
 21
0.0
 31
0.0
  0
LINE
  5
30E
330
307
100
AcDbEntity
  8
0
  6
Continuous
 62
     0
370
     0
100
AcDbLine
 10
0.0
 20
5.0
 30
0.0
 11
0.0
 21
6.35
 31
0.0
  0
LINE
  5
30F
330
307
100
AcDbEntity
  8
0
  6
Continuous
 62
     0
370
     0
100
AcDbLine
 10
-5.0
 20
0.0
 30
0.0
 11
-8.012304248
 21
0.0
 31
0.0
  0
LINE
  5
310
330
307
100
AcDbEntity
  8
0
  6
Continuous
 62
     0
370
     0
100
AcDbLine
 10
0.0
 20
-5.0
 30
0.0
 11
0.0
 21
-15.5603932048
 31
0.0
  0
LINE
  5
311
330
307
100
AcDbEntity
  8
0
  6
Continuous
 62
     0
370
     0
100
AcDbLine
 10
5.0
 20
0.0
 30
0.0
 11
6.35
 21
0.0
 31
0.0
  0
ENDBLK
  5
309
330
307
100
AcDbEntity
  8
0
100
AcDbBlockEnd
  0
BLOCK
  5
393
330
392
100
AcDbEntity
  8
0
100
AcDbBlockBegin
  2
_D_18
 70
     0
 10
0.0
 20
0.0
 30
0.0
  3
_D_18
  1

  0
SOLID
  5
395
330
392
100
AcDbEntity
  8
0
  6
Continuous
 62
     7
370
     0
100
AcDbTrace
 10
107.1986581885
 20
109.4663239377
 30
0.0
 11
109.1986581885
 21
108.7163239377
 31
0.0
 12
109.1986581885
 22
110.2163239377
 32
0.0
 13
109.1986581885
 23
110.2163239377
 33
0.0
  0
SOLID
  5
396
330
392
100
AcDbEntity
  8
0
  6
Continuous
 62
     7
370
     0
100
AcDbTrace
 10
149.6986581885
 20
109.4663239377
 30
0.0
 11
147.6986581885
 21
110.2163239377
 31
0.0
 12
147.6986581885
 22
108.7163239377
 32
0.0
 13
147.6986581885
 23
108.7163239377
 33
0.0
  0
LINE
  5
397
330
392
100
AcDbEntity
  8
0
  6
Continuous
 62
     7
370
     0
100
AcDbLine
 10
107.1986581885
 20
99.6629530809
 30
0.0
 11
107.1986581885
 21
110.4663239377
 31
0.0
  0
LINE
  5
398
330
392
100
AcDbEntity
  8
0
  6
Continuous
 62
     7
370
     0
100
AcDbLine
 10
149.6986581885
 20
99.8129530809
 30
0.0
 11
149.6986581885
 21
110.4663239377
 31
0.0
  0
LINE
  5
399
330
392
100
AcDbEntity
  8
0
  6
Continuous
 62
     7
370
     0
100
AcDbLine
 10
107.1986581885
 20
109.4663239377
 30
0.0
 11
149.6986581885
 21
109.4663239377
 31
0.0
  0
MTEXT
  5
39A
330
392
100
AcDbEntity
  8
0
  6
Continuous
 62
     7
370
     0
100
AcDbMText
 10
123.922963658
 20
113.9780608523
 30
12.3035862266
 40
3.5
 41
0.0
 71
     1
 72
     1
  1
42.5
  7
SLDTEXTSTYLE0
 73
     1
 44
1.0
  0
ENDBLK
  5
394
330
392
100
AcDbEntity
  8
0
100
AcDbBlockEnd
  0
BLOCK
  5
39D
330
39C
100
AcDbEntity
  8
0
100
AcDbBlockBegin
  2
_D_19
 70
     0
 10
0.0
 20
0.0
 30
0.0
  3
_D_19
  1

  0
SOLID
  5
39F
330
39C
100
AcDbEntity
  8
0
  6
Continuous
 62
     7
370
     0
100
AcDbTrace
 10
139.6986581885
 20
102.9361694713
 30
0.0
 11
137.6986581885
 21
103.6861694713
 31
0.0
 12
137.6986581885
 22
102.1861694713
 32
0.0
 13
137.6986581885
 23
102.1861694713
 33
0.0
  0
SOLID
  5
3A0
330
39C
100
AcDbEntity
  8
0
  6
Continuous
 62
     7
370
     0
100
AcDbTrace
 10
149.6986581885
 20
102.9361694713
 30
0.0
 11
151.6986581885
 21
102.1861694713
 31
0.0
 12
151.6986581885
 22
103.6861694713
 32
0.0
 13
151.6986581885
 23
103.6861694713
 33
0.0
  0
LINE
  5
3A1
330
39C
100
AcDbEntity
  8
0
  6
Continuous
 62
     7
370
     0
100
AcDbLine
 10
139.6986581885
 20
99.8129530809
 30
0.0
 11
139.6986581885
 21
103.9361694713
 31
0.0
  0
LINE
  5
3A2
330
39C
100
AcDbEntity
  8
0
  6
Continuous
 62
     7
370
     0
100
AcDbLine
 10
149.6986581885
 20
99.8129530809
 30
0.0
 11
149.6986581885
 21
103.9361694713
 31
0.0
  0
LINE
  5
3A3
330
39C
100
AcDbEntity
  8
0
  6
Continuous
 62
     7
370
     0
100
AcDbLine
 10
139.6986581885
 20
102.9361694713
 30
0.0
 11
136.6986581885
 21
102.9361694713
 31
0.0
  0
LINE
  5
3A4
330
39C
100
AcDbEntity
  8
0
  6
Continuous
 62
     7
370
     0
100
AcDbLine
 10
139.6986581885
 20
102.9361694713
 30
0.0
 11
149.6986581885
 21
102.9361694713
 31
0.0
  0
LINE
  5
3A5
330
39C
100
AcDbEntity
  8
0
  6
Continuous
 62
     7
370
     0
100
AcDbLine
 10
149.6986581885
 20
102.9361694713
 30
0.0
 11
152.6986581885
 21
102.9361694713
 31
0.0
  0
MTEXT
  5
3A6
330
39C
100
AcDbEntity
  8
0
  6
Continuous
 62
     7
370
     0
100
AcDbMText
 10
141.837784541
 20
107.4479063859
 30
12.3035862266
 40
3.5
 41
0.0
 71
     1
 72
     1
  1
10
  7
SLDTEXTSTYLE0
 73
     1
 44
1.0
  0
ENDBLK
  5
39E
330
39C
100
AcDbEntity
  8
0
100
AcDbBlockEnd
  0
BLOCK
  5
3A9
330
3A8
100
AcDbEntity
  8
0
100
AcDbBlockBegin
  2
_D_20
 70
     0
 10
0.0
 20
0.0
 30
0.0
  3
_D_20
  1

  0
SOLID
  5
3AB
330
3A8
100
AcDbEntity
  8
0
  6
Continuous
 62
     7
370
     0
100
AcDbTrace
 10
149.6986581885
 20
109.4663239377
 30
0.0
 11
151.6986581885
 21
108.7163239377
 31
0.0
 12
151.6986581885
 22
110.2163239377
 32
0.0
 13
151.6986581885
 23
110.2163239377
 33
0.0
  0
SOLID
  5
3AC
330
3A8
100
AcDbEntity
  8
0
  6
Continuous
 62
     7
370
     0
100
AcDbTrace
 10
187.3986581885
 20
109.4663239377
 30
0.0
 11
185.3986581885
 21
110.2163239377
 31
0.0
 12
185.3986581885
 22
108.7163239377
 32
0.0
 13
185.3986581885
 23
108.7163239377
 33
0.0
  0
LINE
  5
3AD
330
3A8
100
AcDbEntity
  8
0
  6
Continuous
 62
     7
370
     0
100
AcDbLine
 10
149.6986581885
 20
99.8129530809
 30
0.0
 11
149.6986581885
 21
110.4663239377
 31
0.0
  0
LINE
  5
3AE
330
3A8
100
AcDbEntity
  8
0
  6
Continuous
 62
     7
370
     0
100
AcDbLine
 10
187.3986581885
 20
97.2629530809
 30
0.0
 11
187.3986581885
 21
110.4663239377
 31
0.0
  0
LINE
  5
3AF
330
3A8
100
AcDbEntity
  8
0
  6
Continuous
 62
     7
370
     0
100
AcDbLine
 10
149.6986581885
 20
109.4663239377
 30
0.0
 11
187.3986581885
 21
109.4663239377
 31
0.0
  0
MTEXT
  5
3B0
330
3A8
100
AcDbEntity
  8
0
  6
Continuous
 62
     7
370
     0
100
AcDbMText
 10
163.6825454388
 20
113.9780608523
 30
12.3035862266
 40
3.5
 41
0.0
 71
     1
 72
     1
  1
37.7
  7
SLDTEXTSTYLE0
 73
     1
 44
1.0
  0
ENDBLK
  5
3AA
330
3A8
100
AcDbEntity
  8
0
100
AcDbBlockEnd
  0
BLOCK
  5
3B3
330
3B2
100
AcDbEntity
  8
0
100
AcDbBlockBegin
  2
_D_21
 70
     0
 10
0.0
 20
0.0
 30
0.0
  3
_D_21
  1

  0
SOLID
  5
3B5
330
3B2
100
AcDbEntity
  8
0
  6
Continuous
 62
     7
370
     0
100
AcDbTrace
 10
120.8855491555
 20
94.6629530809
 30
0.0
 11
119.3855491555
 21
91.3609530809
 31
0.0
 12
122.3855491555
 22
91.3609530809
 32
0.0
 13
122.3855491555
 23
91.3609530809
 33
0.0
  0
SOLID
  5
3B6
330
3B2
100
AcDbEntity
  8
0
  6
Continuous
 62
     7
370
     0
100
AcDbTrace
 10
120.8855491555
 20
74.6629530809
 30
0.0
 11
122.3855491555
 21
77.9649530809
 31
0.0
 12
119.3855491555
 22
77.9649530809
 32
0.0
 13
119.3855491555
 23
77.9649530809
 33
0.0
  0
LINE
  5
3B7
330
3B2
100
AcDbEntity
  8
0
  6
Continuous
 62
     7
370
     0
100
AcDbLine
 10
134.5486581885
 20
94.6629530809
 30
0.0
 11
119.8855491555
 21
94.6629530809
 31
0.0
  0
LINE
  5
3B8
330
3B2
100
AcDbEntity
  8
0
  6
Continuous
 62
     7
370
     0
100
AcDbLine
 10
134.5486581885
 20
74.6629530809
 30
0.0
 11
119.8855491555
 21
74.6629530809
 31
0.0
  0
LINE
  5
3B9
330
3B2
100
AcDbEntity
  8
0
  6
Continuous
 62
     7
370
     0
100
AcDbLine
 10
120.8855491555
 20
94.6629530809
 30
0.0
 11
120.8855491555
 21
74.6629530809
 31
0.0
  0
MTEXT
  5
3BA
330
3B2
100
AcDbEntity
  8
0
  6
Continuous
 62
     7
370
     0
100
AcDbMText
 10
116.373812241
 20
82.3031742719
 30
12.3035862266
 40
3.5
 41
0.0
 71
     1
 72
     1
  1
20
  7
SLDTEXTSTYLE0
 11
-7.044195017643634E-15
 21
1.0
 31
0.0
 73
     1
 44
1.0
  0
ENDBLK
  5
3B4
330
3B2
100
AcDbEntity
  8
0
100
AcDbBlockEnd
  0
BLOCK
  5
3BD
330
3BC
100
AcDbEntity
  8
0
100
AcDbBlockBegin
  2
_D_22
 70
     0
 10
0.0
 20
0.0
 30
0.0
  3
_D_22
  1

  0
SOLID
  5
3BF
330
3BC
100
AcDbEntity
  8
0
  6
Continuous
 62
     7
370
     0
100
AcDbTrace
 10
129.6986581885
 20
63.1195290752
 30
0.0
 11
131.6986581885
 21
62.3695290752
 31
0.0
 12
131.6986581885
 22
63.8695290752
 32
0.0
 13
131.6986581885
 23
63.8695290752
 33
0.0
  0
SOLID
  5
3C0
330
3BC
100
AcDbEntity
  8
0
  6
Continuous
 62
     7
370
     0
100
AcDbTrace
 10
149.6986581885
 20
63.1195290752
 30
0.0
 11
147.6986581885
 21
63.8695290752
 31
0.0
 12
147.6986581885
 22
62.3695290752
 32
0.0
 13
147.6986581885
 23
62.3695290752
 33
0.0
  0
LINE
  5
3C1
330
3BC
100
AcDbEntity
  8
0
  6
Continuous
 62
     7
370
     0
100
AcDbLine
 10
129.6986581885
 20
79.5129530809
 30
0.0
 11
129.6986581885
 21
62.1195290752
 31
0.0
  0
LINE
  5
3C2
330
3BC
100
AcDbEntity
  8
0
  6
Continuous
 62
     7
370
     0
100
AcDbLine
 10
149.6986581885
 20
69.5129530809
 30
0.0
 11
149.6986581885
 21
62.1195290752
 31
0.0
  0
LINE
  5
3C3
330
3BC
100
AcDbEntity
  8
0
  6
Continuous
 62
     7
370
     0
100
AcDbLine
 10
129.6986581885
 20
63.1195290752
 30
0.0
 11
149.6986581885
 21
63.1195290752
 31
0.0
  0
MTEXT
  5
3C4
330
3BC
100
AcDbEntity
  8
0
  6
Continuous
 62
     7
370
     0
100
AcDbMText
 10
137.112546995
 20
67.6312659898
 30
12.3035862266
 40
3.5
 41
0.0
 71
     1
 72
     1
  1
20
  7
SLDTEXTSTYLE0
 73
     1
 44
1.0
  0
ENDBLK
  5
3BE
330
3BC
100
AcDbEntity
  8
0
100
AcDbBlockEnd
  0
BLOCK
  5
3C7
330
3C6
100
AcDbEntity
  8
0
100
AcDbBlockBegin
  2
_D_23
 70
     0
 10
0.0
 20
0.0
 30
0.0
  3
_D_23
  1

  0
SOLID
  5
3C9
330
3C6
100
AcDbEntity
  8
0
  6
Continuous
 62
     7
370
     0
100
AcDbTrace
 10
155.0541340902
 20
54.6509703926
 30
0.0
 11
153.0541340902
 21
55.4009703926
 31
0.0
 12
153.0541340902
 22
53.9009703926
 32
0.0
 13
153.0541340902
 23
53.9009703926
 33
0.0
  0
SOLID
  5
3CA
330
3C6
100
AcDbEntity
  8
0
  6
Continuous
 62
     7
370
     0
100
AcDbTrace
 10
107.1986581885
 20
54.6509703926
 30
0.0
 11
109.1986581885
 21
53.9009703926
 31
0.0
 12
109.1986581885
 22
55.4009703926
 32
0.0
 13
109.1986581885
 23
55.4009703926
 33
0.0
  0
LINE
  5
3CB
330
3C6
100
AcDbEntity
  8
0
  6
Continuous
 62
     7
370
     0
100
AcDbLine
 10
155.0541340902
 20
69.6629530809
 30
0.0
 11
155.0541340902
 21
53.6509703926
 31
0.0
  0
LINE
  5
3CC
330
3C6
100
AcDbEntity
  8
0
  6
Continuous
 62
     7
370
     0
100
AcDbLine
 10
107.1986581885
 20
69.6629530809
 30
0.0
 11
107.1986581885
 21
53.6509703926
 31
0.0
  0
LINE
  5
3CD
330
3C6
100
AcDbEntity
  8
0
  6
Continuous
 62
     7
370
     0
100
AcDbLine
 10
155.0541340902
 20
54.6509703926
 30
0.0
 11
107.1986581885
 21
54.6509703926
 31
0.0
  0
MTEXT
  5
3CE
330
3C6
100
AcDbEntity
  8
0
  6
Continuous
 62
     7
370
     0
100
AcDbMText
 10
126.6007016089
 20
59.1627073072
 30
12.3035862266
 40
3.5
 41
0.0
 71
     1
 72
     1
  1
47.9
  7
SLDTEXTSTYLE0
 73
     1
 44
1.0
  0
ENDBLK
  5
3C8
330
3C6
100
AcDbEntity
  8
0
100
AcDbBlockEnd
  0
BLOCK
  5
3D5
330
3D4
100
AcDbEntity
  8
0
100
AcDbBlockBegin
  2
SW_CENTERMARKSYMBOL_6
 70
     0
 10
0.0
 20
0.0
 30
0.0
  3
SW_CENTERMARKSYMBOL_6
  1

  0
LINE
  5
3D7
330
3D4
100
AcDbEntity
  8
0
  6
Continuous
 62
     0
370
     0
100
AcDbLine
 10
0.0
 20
0.0
 30
0.0
 11
0.0
 21
2.5
 31
0.0
  0
LINE
  5
3D8
330
3D4
100
AcDbEntity
  8
0
  6
Continuous
 62
     0
370
     0
100
AcDbLine
 10
0.0
 20
0.0
 30
0.0
 11
-2.5
 21
0.0
 31
0.0
  0
LINE
  5
3D9
330
3D4
100
AcDbEntity
  8
0
  6
Continuous
 62
     0
370
     0
100
AcDbLine
 10
0.0
 20
0.0
 30
0.0
 11
0.0
 21
-2.5
 31
0.0
  0
LINE
  5
3DA
330
3D4
100
AcDbEntity
  8
0
  6
Continuous
 62
     0
370
     0
100
AcDbLine
 10
0.0
 20
0.0
 30
0.0
 11
2.5
 21
0.0
 31
0.0
  0
LINE
  5
3DB
330
3D4
100
AcDbEntity
  8
0
  6
Continuous
 62
     0
370
     0
100
AcDbLine
 10
0.0
 20
2.5
 30
0.0
 11
0.0
 21
4.15
 31
0.0
  0
LINE
  5
3DC
330
3D4
100
AcDbEntity
  8
0
  6
Continuous
 62
     0
370
     0
100
AcDbLine
 10
-2.5
 20
0.0
 30
0.0
 11
-4.15
 21
0.0
 31
0.0
  0
LINE
  5
3DD
330
3D4
100
AcDbEntity
  8
0
  6
Continuous
 62
     0
370
     0
100
AcDbLine
 10
0.0
 20
-2.5
 30
0.0
 11
0.0
 21
-4.15
 31
0.0
  0
LINE
  5
3DE
330
3D4
100
AcDbEntity
  8
0
  6
Continuous
 62
     0
370
     0
100
AcDbLine
 10
2.5
 20
0.0
 30
0.0
 11
4.15
 21
0.0
 31
0.0
  0
ENDBLK
  5
3D6
330
3D4
100
AcDbEntity
  8
0
100
AcDbBlockEnd
  0
BLOCK
  5
3E1
330
3E0
100
AcDbEntity
  8
0
100
AcDbBlockBegin
  2
SW_CENTERMARKSYMBOL_7
 70
     0
 10
0.0
 20
0.0
 30
0.0
  3
SW_CENTERMARKSYMBOL_7
  1

  0
LINE
  5
3E3
330
3E0
100
AcDbEntity
  8
0
  6
Continuous
 62
     0
370
     0
100
AcDbLine
 10
0.0
 20
0.0
 30
0.0
 11
0.0
 21
2.5
 31
0.0
  0
LINE
  5
3E4
330
3E0
100
AcDbEntity
  8
0
  6
Continuous
 62
     0
370
     0
100
AcDbLine
 10
0.0
 20
0.0
 30
0.0
 11
-2.5
 21
0.0
 31
0.0
  0
LINE
  5
3E5
330
3E0
100
AcDbEntity
  8
0
  6
Continuous
 62
     0
370
     0
100
AcDbLine
 10
0.0
 20
0.0
 30
0.0
 11
0.0
 21
-2.5
 31
0.0
  0
LINE
  5
3E6
330
3E0
100
AcDbEntity
  8
0
  6
Continuous
 62
     0
370
     0
100
AcDbLine
 10
0.0
 20
0.0
 30
0.0
 11
2.5
 21
0.0
 31
0.0
  0
LINE
  5
3E7
330
3E0
100
AcDbEntity
  8
0
  6
Continuous
 62
     0
370
     0
100
AcDbLine
 10
0.0
 20
2.5
 30
0.0
 11
0.0
 21
4.15
 31
0.0
  0
LINE
  5
3E8
330
3E0
100
AcDbEntity
  8
0
  6
Continuous
 62
     0
370
     0
100
AcDbLine
 10
-2.5
 20
0.0
 30
0.0
 11
-4.15
 21
0.0
 31
0.0
  0
LINE
  5
3E9
330
3E0
100
AcDbEntity
  8
0
  6
Continuous
 62
     0
370
     0
100
AcDbLine
 10
0.0
 20
-2.5
 30
0.0
 11
0.0
 21
-4.15
 31
0.0
  0
LINE
  5
3EA
330
3E0
100
AcDbEntity
  8
0
  6
Continuous
 62
     0
370
     0
100
AcDbLine
 10
2.5
 20
0.0
 30
0.0
 11
4.15
 21
0.0
 31
0.0
  0
ENDBLK
  5
3E2
330
3E0
100
AcDbEntity
  8
0
100
AcDbBlockEnd
  0
BLOCK
  5
3ED
330
3EC
100
AcDbEntity
  8
0
100
AcDbBlockBegin
  2
SW_CENTERMARKSYMBOL_8
 70
     0
 10
0.0
 20
0.0
 30
0.0
  3
SW_CENTERMARKSYMBOL_8
  1

  0
LINE
  5
3EF
330
3EC
100
AcDbEntity
  8
0
  6
Continuous
 62
     0
370
     0
100
AcDbLine
 10
0.0
 20
0.0
 30
0.0
 11
0.0
 21
2.5
 31
0.0
  0
LINE
  5
3F0
330
3EC
100
AcDbEntity
  8
0
  6
Continuous
 62
     0
370
     0
100
AcDbLine
 10
0.0
 20
0.0
 30
0.0
 11
-2.5
 21
0.0
 31
0.0
  0
LINE
  5
3F1
330
3EC
100
AcDbEntity
  8
0
  6
Continuous
 62
     0
370
     0
100
AcDbLine
 10
0.0
 20
0.0
 30
0.0
 11
0.0
 21
-2.5
 31
0.0
  0
LINE
  5
3F2
330
3EC
100
AcDbEntity
  8
0
  6
Continuous
 62
     0
370
     0
100
AcDbLine
 10
0.0
 20
0.0
 30
0.0
 11
2.5
 21
0.0
 31
0.0
  0
LINE
  5
3F3
330
3EC
100
AcDbEntity
  8
0
  6
Continuous
 62
     0
370
     0
100
AcDbLine
 10
0.0
 20
2.5
 30
0.0
 11
0.0
 21
4.15
 31
0.0
  0
LINE
  5
3F4
330
3EC
100
AcDbEntity
  8
0
  6
Continuous
 62
     0
370
     0
100
AcDbLine
 10
-2.5
 20
0.0
 30
0.0
 11
-4.15
 21
0.0
 31
0.0
  0
LINE
  5
3F5
330
3EC
100
AcDbEntity
  8
0
  6
Continuous
 62
     0
370
     0
100
AcDbLine
 10
0.0
 20
-2.5
 30
0.0
 11
0.0
 21
-4.15
 31
0.0
  0
LINE
  5
3F6
330
3EC
100
AcDbEntity
  8
0
  6
Continuous
 62
     0
370
     0
100
AcDbLine
 10
2.5
 20
0.0
 30
0.0
 11
4.15
 21
0.0
 31
0.0
  0
ENDBLK
  5
3EE
330
3EC
100
AcDbEntity
  8
0
100
AcDbBlockEnd
  0
BLOCK
  5
3F9
330
3F8
100
AcDbEntity
  8
0
100
AcDbBlockBegin
  2
SW_CENTERMARKSYMBOL_9
 70
     0
 10
0.0
 20
0.0
 30
0.0
  3
SW_CENTERMARKSYMBOL_9
  1

  0
LINE
  5
3FB
330
3F8
100
AcDbEntity
  8
0
  6
Continuous
 62
     0
370
     0
100
AcDbLine
 10
0.0
 20
0.0
 30
0.0
 11
0.0
 21
2.5
 31
0.0
  0
LINE
  5
3FC
330
3F8
100
AcDbEntity
  8
0
  6
Continuous
 62
     0
370
     0
100
AcDbLine
 10
0.0
 20
0.0
 30
0.0
 11
-2.5
 21
0.0
 31
0.0
  0
LINE
  5
3FD
330
3F8
100
AcDbEntity
  8
0
  6
Continuous
 62
     0
370
     0
100
AcDbLine
 10
0.0
 20
0.0
 30
0.0
 11
0.0
 21
-2.5
 31
0.0
  0
LINE
  5
3FE
330
3F8
100
AcDbEntity
  8
0
  6
Continuous
 62
     0
370
     0
100
AcDbLine
 10
0.0
 20
0.0
 30
0.0
 11
2.5
 21
0.0
 31
0.0
  0
LINE
  5
3FF
330
3F8
100
AcDbEntity
  8
0
  6
Continuous
 62
     0
370
     0
100
AcDbLine
 10
0.0
 20
2.5
 30
0.0
 11
0.0
 21
4.15
 31
0.0
  0
LINE
  5
400
330
3F8
100
AcDbEntity
  8
0
  6
Continuous
 62
     0
370
     0
100
AcDbLine
 10
-2.5
 20
0.0
 30
0.0
 11
-4.15
 21
0.0
 31
0.0
  0
LINE
  5
401
330
3F8
100
AcDbEntity
  8
0
  6
Continuous
 62
     0
370
     0
100
AcDbLine
 10
0.0
 20
-2.5
 30
0.0
 11
0.0
 21
-4.15
 31
0.0
  0
LINE
  5
402
330
3F8
100
AcDbEntity
  8
0
  6
Continuous
 62
     0
370
     0
100
AcDbLine
 10
2.5
 20
0.0
 30
0.0
 11
4.15
 21
0.0
 31
0.0
  0
ENDBLK
  5
3FA
330
3F8
100
AcDbEntity
  8
0
100
AcDbBlockEnd
  0
BLOCK
  5
405
330
404
100
AcDbEntity
  8
0
100
AcDbBlockBegin
  2
SW_CENTERMARKSYMBOL_10
 70
     0
 10
0.0
 20
0.0
 30
0.0
  3
SW_CENTERMARKSYMBOL_10
  1

  0
LINE
  5
407
330
404
100
AcDbEntity
  8
0
  6
Continuous
 62
     0
370
     0
100
AcDbLine
 10
0.0
 20
0.0
 30
0.0
 11
0.0
 21
2.5
 31
0.0
  0
LINE
  5
408
330
404
100
AcDbEntity
  8
0
  6
Continuous
 62
     0
370
     0
100
AcDbLine
 10
0.0
 20
0.0
 30
0.0
 11
-2.5
 21
0.0
 31
0.0
  0
LINE
  5
409
330
404
100
AcDbEntity
  8
0
  6
Continuous
 62
     0
370
     0
100
AcDbLine
 10
0.0
 20
0.0
 30
0.0
 11
0.0
 21
-2.5
 31
0.0
  0
LINE
  5
40A
330
404
100
AcDbEntity
  8
0
  6
Continuous
 62
     0
370
     0
100
AcDbLine
 10
0.0
 20
0.0
 30
0.0
 11
2.5
 21
0.0
 31
0.0
  0
LINE
  5
40B
330
404
100
AcDbEntity
  8
0
  6
Continuous
 62
     0
370
     0
100
AcDbLine
 10
0.0
 20
2.5
 30
0.0
 11
0.0
 21
4.15
 31
0.0
  0
LINE
  5
40C
330
404
100
AcDbEntity
  8
0
  6
Continuous
 62
     0
370
     0
100
AcDbLine
 10
-2.5
 20
0.0
 30
0.0
 11
-13.8581313382
 21
0.0
 31
0.0
  0
LINE
  5
40D
330
404
100
AcDbEntity
  8
0
  6
Continuous
 62
     0
370
     0
100
AcDbLine
 10
0.0
 20
-2.5
 30
0.0
 11
0.0
 21
-4.15
 31
0.0
  0
LINE
  5
40E
330
404
100
AcDbEntity
  8
0
  6
Continuous
 62
     0
370
     0
100
AcDbLine
 10
2.5
 20
0.0
 30
0.0
 11
39.6936611741
 21
0.0
 31
0.0
  0
ENDBLK
  5
406
330
404
100
AcDbEntity
  8
0
100
AcDbBlockEnd
  0
BLOCK
  5
411
330
410
100
AcDbEntity
  8
0
100
AcDbBlockBegin
  2
SW_CENTERMARKSYMBOL_11
 70
     0
 10
0.0
 20
0.0
 30
0.0
  3
SW_CENTERMARKSYMBOL_11
  1

  0
LINE
  5
413
330
410
100
AcDbEntity
  8
0
  6
Continuous
 62
     0
370
     0
100
AcDbLine
 10
0.0
 20
0.0
 30
0.0
 11
0.0
 21
2.5
 31
0.0
  0
LINE
  5
414
330
410
100
AcDbEntity
  8
0
  6
Continuous
 62
     0
370
     0
100
AcDbLine
 10
0.0
 20
0.0
 30
0.0
 11
-2.5
 21
0.0
 31
0.0
  0
LINE
  5
415
330
410
100
AcDbEntity
  8
0
  6
Continuous
 62
     0
370
     0
100
AcDbLine
 10
0.0
 20
0.0
 30
0.0
 11
0.0
 21
-2.5
 31
0.0
  0
LINE
  5
416
330
410
100
AcDbEntity
  8
0
  6
Continuous
 62
     0
370
     0
100
AcDbLine
 10
0.0
 20
0.0
 30
0.0
 11
2.5
 21
0.0
 31
0.0
  0
LINE
  5
417
330
410
100
AcDbEntity
  8
0
  6
Continuous
 62
     0
370
     0
100
AcDbLine
 10
0.0
 20
2.5
 30
0.0
 11
0.0
 21
4.15
 31
0.0
  0
LINE
  5
418
330
410
100
AcDbEntity
  8
0
  6
Continuous
 62
     0
370
     0
100
AcDbLine
 10
-2.5
 20
0.0
 30
0.0
 11
-4.15
 21
0.0
 31
0.0
  0
LINE
  5
419
330
410
100
AcDbEntity
  8
0
  6
Continuous
 62
     0
370
     0
100
AcDbLine
 10
0.0
 20
-2.5
 30
0.0
 11
0.0
 21
-4.15
 31
0.0
  0
LINE
  5
41A
330
410
100
AcDbEntity
  8
0
  6
Continuous
 62
     0
370
     0
100
AcDbLine
 10
2.5
 20
0.0
 30
0.0
 11
4.15
 21
0.0
 31
0.0
  0
ENDBLK
  5
412
330
410
100
AcDbEntity
  8
0
100
AcDbBlockEnd
  0
ENDSEC
  0
SECTION
  2
ENTITIES
  0
LINE
  5
44
330
1F
100
AcDbEntity
  8
0
  6
Continuous
 62
     7
370
     0
100
AcDbLine
 10
20.2604743903
 20
285.0
 30
0.0
 11
196.7604743903
 21
285.0
 31
0.0
  0
LINE
  5
45
330
1F
100
AcDbEntity
  8
0
  6
Continuous
 62
     7
370
     0
100
AcDbLine
 10
20.2604743903
 20
285.0
 30
0.0
 11
20.2604743903
 21
10.0
 31
0.0
  0
LINE
  5
46
330
1F
100
AcDbEntity
  8
0
  6
Continuous
 62
     7
370
     0
100
AcDbLine
 10
20.2604743903
 20
10.0
 30
0.0
 11
196.7604743903
 21
10.0
 31
0.0
  0
LINE
  5
47
330
1F
100
AcDbEntity
  8
0
  6
Continuous
 62
     7
370
     0
100
AcDbLine
 10
196.7604743903
 20
285.0
 30
0.0
 11
196.7604743903
 21
10.0
 31
0.0
  0
LINE
  5
48
330
1F
100
AcDbEntity
  8
0
  6
Continuous
 62
     7
370
     0
100
AcDbLine
 10
127.0104743903
 20
50.75
 30
0.0
 11
196.7604743903
 21
50.75
 31
0.0
  0
LINE
  5
49
330
1F
100
AcDbEntity
  8
0
  6
Continuous
 62
     7
370
     0
100
AcDbLine
 10
127.0104743903
 20
50.75
 30
0.0
 11
127.0104743903
 21
10.0
 31
0.0
  0
LINE
  5
4A
330
1F
100
AcDbEntity
  8
0
  6
Continuous
 62
     7
370
     0
100
AcDbLine
 10
127.0104743903
 20
22.75
 30
0.0
 11
196.7604743903
 21
22.75
 31
0.0
  0
LINE
  5
4B
330
1F
100
AcDbEntity
  8
0
  6
Continuous
 62
     7
370
     0
100
AcDbLine
 10
127.0104743903
 20
36.75
 30
0.0
 11
196.7604743903
 21
36.75
 31
0.0
  0
MTEXT
  5
4D
330
1F
100
AcDbEntity
  8
0
  6
Continuous
 62
     7
370
     0
100
AcDbMText
 10
60.0947121629
 20
92.2298899772
 30
0.0
 40
3.5
 41
0.0
 71
     1
 72
     1
  1
ストッパーネジ
  7
SLDTEXTSTYLE0
 73
     1
 44
1.0
  0
MTEXT
  5
4E
330
1F
100
AcDbEntity
  8
0
  6
Continuous
 62
     7
370
     0
100
AcDbMText
 10
75.8839765214
 20
210.3354316118
 30
0.0
 40
2.9104166667
 41
0.0
 71
     1
 72
     1
  1
KQ2S04-M5N
  7
SLDTEXTSTYLE0
 73
     1
 44
1.0
  0
MTEXT
  5
50
330
1F
100
AcDbEntity
  8
0
  6
Continuous
 62
     7
370
     0
100
AcDbMText
 10
162.405818202
 20
30.4171582345
 30
0.0
 40
4.2333333333
 41
0.0
 71
     2
 72
     1
  1
NW2-201
  7
SLDTEXTSTYLE1
 73
     1
 44
1.0
  0
MTEXT
  5
51
330
1F
100
AcDbEntity
  8
0
  6
Continuous
 62
     7
370
     0
100
AcDbMText
 10
157.5690029509
 20
45.1628598281
 30
0.0
 40
3.7041666667
 41
0.0
 71
     2
 72
     1
  1
ミニエアニッパー・本体・薄刃付
  7
SLDTEXTSTYLE1
 73
     1
 44
1.0
  0
MTEXT
  5
52
330
1F
100
AcDbEntity
  8
0
  6
Continuous
 62
     7
370
     0
100
AcDbMText
 10
162.7162169465
 20
16.8228189052
 30
0.0
 40
4.2333333333
 41
0.0
 71
     2
 72
     1
  1
131541
  7
SLDTEXTSTYLE1
 73
     1
 44
1.0
  0
LINE
  5
53
330
1F
100
AcDbEntity
  8
0
  6
Continuous
 62
     7
370
    15
100
AcDbLine
 10
94.9986555778
 20
161.564041319
 30
0.0
 11
107.1986609303
 21
161.564041319
 31
0.0
  0
LINE
  5
54
330
1F
100
AcDbEntity
  8
0
  6
Continuous
 62
     7
370
    15
100
AcDbLine
 10
107.1986609303
 20
169.5640417572
 30
0.0
 11
94.9986555778
 21
169.5640417572
 31
0.0
  0
LINE
  5
55
330
1F
100
AcDbEntity
  8
0
  6
Continuous
 62
     7
370
    15
100
AcDbLine
 10
92.5986596548
 20
161.7140419955
 30
0.0
 11
94.098655244
 21
161.7140419955
 31
0.0
  0
LINE
  5
56
330
1F
100
AcDbEntity
  8
0
  6
Continuous
 62
     7
370
    15
100
AcDbLine
 10
94.098655244
 20
169.4140417792
 30
0.0
 11
92.5986596548
 21
169.4140417792
 31
0.0
  0
LINE
  5
57
330
1F
100
AcDbEntity
  8
0
  6
Continuous
 62
     7
370
    15
100
AcDbLine
 10
94.098655244
 20
163.1640418607
 30
0.0
 11
94.9986555778
 21
163.1640418607
 31
0.0
  0
LINE
  5
58
330
1F
100
AcDbEntity
  8
0
  6
Continuous
 62
     7
370
    15
100
AcDbLine
 10
94.9986555778
 20
167.9640418558
 30
0.0
 11
94.098655244
 21
167.9640418558
 31
0.0
  0
LINE
  5
59
330
1F
100
AcDbEntity
  8
0
  6
Continuous
 62
     7
370
    15
100
AcDbLine
 10
115.9986571573
 20
177.5640416133
 30
0.0
 11
128.1986587845
 21
177.5640416133
 31
0.0
  0
LINE
  5
5A
330
1F
100
AcDbEntity
  8
0
  6
Continuous
 62
     7
370
    15
100
AcDbLine
 10
128.1986587845
 20
185.5640415276
 30
0.0
 11
115.9986571573
 21
185.5640415276
 31
0.0
  0
LINE
  5
5B
330
1F
100
AcDbEntity
  8
0
  6
Continuous
 62
     7
370
    15
100
AcDbLine
 10
113.598657509
 20
177.7140418242
 30
0.0
 11
115.0986568235
 21
177.7140418242
 31
0.0
  0
LINE
  5
5C
330
1F
100
AcDbEntity
  8
0
  6
Continuous
 62
     7
370
    15
100
AcDbLine
 10
115.0986568235
 20
185.4140417825
 30
0.0
 11
113.598657509
 21
185.4140417825
 31
0.0
  0
LINE
  5
5D
330
1F
100
AcDbEntity
  8
0
  6
Continuous
 62
     7
370
    15
100
AcDbLine
 10
115.0986568235
 20
179.164042155
 30
0.0
 11
115.9986571573
 21
179.164042155
 31
0.0
  0
LINE
  5
5E
330
1F
100
AcDbEntity
  8
0
  6
Continuous
 62
     7
370
    15
100
AcDbLine
 10
115.9986571573
 20
183.9640414517
 30
0.0
 11
115.0986568235
 21
183.9640414517
 31
0.0
  0
SPLINE
  5
5F
330
1F
100
AcDbEntity
  8
0
  6
Continuous
 62
     7
370
    15
100
AcDbSpline
210
0.0
220
0.0
230
1.0
 70
     8
 71
     3
 72
    15
 73
    11
 74
     0
 42
0.00000001
 43
0.00000001
 12
1.0
 22
0.0
 32
0.0
 13
1.0
 23
0.0
 33
0.0
 40
0.0
 40
0.0
 40
0.0
 40
0.0
 40
0.121225782444904
 40
0.2487264856325554
 40
0.3796041234829372
 40
0.5108476441688499
 40
0.6398635847607463
 40
0.7648475003618869
 40
0.8849123257228632
 40
1.0
 40
1.0
 40
1.0
 40
1.0
 10
184.9986582227513
 20
161.4026747818187
 30
0.0
 10
185.1505767480284
 20
161.4156223231731
 30
0.0
 10
185.4622774451291
 20
161.4421875999131
 30
0.0
 10
185.9262474792591
 20
161.5895150435488
 30
0.0
 10
186.3638173254928
 20
161.8191087370164
 30
0.0
 10
186.7439987449382
 20
162.1295100392528
 30
0.0
 10
187.0452345524495
 20
162.5013738028869
 30
0.0
 10
187.2549475781719
 20
162.9149378801723
 30
0.0
 10
187.3802367358315
 20
163.3496115508474
 30
0.0
 10
187.3924865711879
 20
163.6473725038337
 30
0.0
 10
187.3984818511173
 20
163.7931018310681
 30
0.0
  0
LINE
  5
60
330
1F
100
AcDbEntity
  8
0
  6
Continuous
 62
     7
370
    15
100
AcDbLine
 10
181.1986581587
 20
159.3140414159
 30
0.0
 11
178.4986580886
 21
159.3140414159
 31
0.0
  0
LINE
  5
61
330
1F
100
AcDbEntity
  8
0
  6
Continuous
 62
     7
370
    15
100
AcDbLine
 10
178.4986580886
 20
153.814042377
 30
0.0
 11
181.1986581587
 21
153.814042377
 31
0.0
  0
LINE
  5
62
330
1F
100
AcDbEntity
  8
0
  6
Continuous
 62
     7
370
    15
100
AcDbLine
 10
181.1986581587
 20
153.814042377
 30
0.0
 11
181.4986581147
 21
154.3140415276
 31
0.0
  0
LINE
  5
63
330
1F
100
AcDbEntity
  8
0
  6
Continuous
 62
     7
370
    15
100
AcDbLine
 10
181.4986581147
 20
158.8140413339
 30
0.0
 11
181.1986581587
 21
159.3140414159
 31
0.0
  0
LINE
  5
64
330
1F
100
AcDbEntity
  8
0
  6
Continuous
 62
     7
370
    15
100
AcDbLine
 10
103.1238266431
 20
163.5640416469
 30
0.0
 11
103.9986589157
 21
163.5640416469
 31
0.0
  0
LINE
  5
65
330
1F
100
AcDbEntity
  8
0
  6
Continuous
 62
     7
370
    15
100
AcDbLine
 10
109.6986585461
 20
163.5640416469
 30
0.0
 11
112.1486553155
 21
163.5640416469
 31
0.0
  0
LINE
  5
66
330
1F
100
AcDbEntity
  8
0
  6
Continuous
 62
     7
370
    15
100
AcDbLine
 10
112.1486553155
 20
167.5640418368
 30
0.0
 11
109.6986585461
 21
167.5640418368
 31
0.0
  0
LINE
  5
67
330
1F
100
AcDbEntity
  8
0
  6
Continuous
 62
     7
370
    15
100
AcDbLine
 10
103.9986589157
 20
167.5640418368
 30
0.0
 11
103.1238266431
 21
167.5640418368
 31
0.0
  0
LINE
  5
68
330
1F
100
AcDbEntity
  8
0
  6
Continuous
 62
     7
370
    15
100
AcDbLine
 10
103.1238266431
 20
167.5640418368
 30
0.0
 11
102.8986551963
 21
167.174041894
 31
0.0
  0
LINE
  5
69
330
1F
100
AcDbEntity
  8
0
  6
Continuous
 62
     7
370
    15
100
AcDbLine
 10
102.8986551963
 20
163.9540418225
 30
0.0
 11
103.1238266431
 21
163.5640416469
 31
0.0
  0
LINE
  5
6A
330
1F
100
AcDbEntity
  8
0
  6
Continuous
 62
     7
370
    15
100
AcDbLine
 10
112.1486553155
 20
163.5640416469
 30
0.0
 11
112.8986605607
 21
164.3140417698
 31
0.0
  0
LINE
  5
6B
330
1F
100
AcDbEntity
  8
0
  6
Continuous
 62
     7
370
    15
100
AcDbLine
 10
112.8986605607
 20
166.8140417139
 30
0.0
 11
112.1486553155
 21
167.5640418368
 31
0.0
  0
LINE
  5
6C
330
1F
100
AcDbEntity
  8
0
  6
Continuous
 62
     7
370
    15
100
AcDbLine
 10
179.5986580827
 20
159.3140414159
 30
0.0
 11
178.4986580886
 21
159.3140414159
 31
0.0
  0
LINE
  5
6D
330
1F
100
AcDbEntity
  8
0
  6
Continuous
 62
     7
370
    15
100
AcDbLine
 10
178.4986580886
 20
153.814042377
 30
0.0
 11
179.5986580827
 21
153.814042377
 31
0.0
  0
LINE
  5
6E
330
1F
100
AcDbEntity
  8
0
  6
Continuous
 62
     7
370
    15
100
AcDbLine
 10
128.3486575984
 20
153.814042377
 30
0.0
 11
131.1986574136
 21
153.814042377
 31
0.0
  0
LINE
  5
6F
330
1F
100
AcDbEntity
  8
0
  6
Continuous
 62
     7
370
    15
100
AcDbLine
 10
131.1986574136
 20
159.3140414159
 30
0.0
 11
128.3486575984
 21
159.3140414159
 31
0.0
  0
ARC
  5
70
330
1F
100
AcDbEntity
  8
0
  6
Continuous
 62
     7
370
    15
100
AcDbCircle
 10
128.3486581885
 20
153.964041781
 30
0.0
 40
0.1499999999999773
100
AcDbArc
 50
180.0
 51
270.0
  0
ARC
  5
71
330
1F
100
AcDbEntity
  8
0
  6
Continuous
 62
     7
370
    15
100
AcDbCircle
 10
128.3486581885
 20
159.164041781
 30
0.0
 40
0.1500000000000057
100
AcDbArc
 50
90.0
 51
180.0
  0
LINE
  5
72
330
1F
100
AcDbEntity
  8
0
  6
Continuous
 62
     7
370
    15
100
AcDbLine
 10
128.3486575984
 20
180.814042146
 30
0.0
 11
131.1986574136
 21
180.814042146
 31
0.0
  0
LINE
  5
73
330
1F
100
AcDbEntity
  8
0
  6
Continuous
 62
     7
370
    15
100
AcDbLine
 10
131.1986574136
 20
186.3140411849
 30
0.0
 11
128.3486575984
 21
186.3140411849
 31
0.0
  0
ARC
  5
74
330
1F
100
AcDbEntity
  8
0
  6
Continuous
 62
     7
370
    15
100
AcDbCircle
 10
128.3486581885
 20
180.964041781
 30
0.0
 40
0.1500000000000057
100
AcDbArc
 50
180.0
 51
270.0
  0
ARC
  5
75
330
1F
100
AcDbEntity
  8
0
  6
Continuous
 62
     7
370
    15
100
AcDbCircle
 10
128.3486581885
 20
186.164041781
 30
0.0
 40
0.1499999999999773
100
AcDbArc
 50
90.0
 51
180.0
  0
LINE
  5
76
330
1F
100
AcDbEntity
  8
0
  6
Continuous
 62
     7
370
    15
100
AcDbLine
 10
113.6986592018
 20
167.5640418368
 30
0.0
 11
112.8986605607
 21
167.5640418368
 31
0.0
  0
LINE
  5
77
330
1F
100
AcDbEntity
  8
0
  6
Continuous
 62
     7
370
    15
100
AcDbLine
 10
112.8986605607
 20
163.5640416469
 30
0.0
 11
113.6986592018
 21
163.5640416469
 31
0.0
  0
LINE
  5
78
330
1F
100
AcDbEntity
  8
0
  6
Continuous
 62
     7
370
    15
100
AcDbLine
 10
163.1986580022
 20
151.164042222
 30
0.0
 11
163.1986580022
 21
151.0619413282
 31
0.0
  0
LINE
  5
79
330
1F
100
AcDbEntity
  8
0
  6
Continuous
 62
     7
370
    15
100
AcDbLine
 10
171.1986583822
 20
148.6640408809
 30
0.0
 11
171.1986583822
 21
151.164042222
 31
0.0
  0
LINE
  5
7A
330
1F
100
AcDbEntity
  8
0
  6
Continuous
 62
     7
370
    15
100
AcDbLine
 10
113.6986592018
 20
169.5640417572
 30
0.0
 11
113.1986581885
 21
169.5640417572
 31
0.0
  0
LINE
  5
7B
330
1F
100
AcDbEntity
  8
0
  6
Continuous
 62
     7
370
    15
100
AcDbLine
 10
113.1986581885
 20
161.564041319
 30
0.0
 11
113.6986592018
 21
161.564041319
 31
0.0
  0
LINE
  5
7C
330
1F
100
AcDbEntity
  8
0
  6
Continuous
 62
     7
370
    15
100
AcDbLine
 10
128.1986587845
 20
175.5640417512
 30
0.0
 11
113.6986592018
 21
175.5640417512
 31
0.0
  0
LINE
  5
7D
330
1F
100
AcDbEntity
  8
0
  6
Continuous
 62
     7
370
    15
100
AcDbLine
 10
113.6986592018
 20
155.5640421982
 30
0.0
 11
128.1986587845
 21
155.5640421982
 31
0.0
  0
LINE
  5
7E
330
1F
100
AcDbEntity
  8
0
  6
Continuous
 62
     7
370
    15
100
AcDbLine
 10
94.9986555778
 20
161.564041319
 30
0.0
 11
94.9986555778
 21
169.5640417572
 31
0.0
  0
LINE
  5
7F
330
1F
100
AcDbEntity
  8
0
  6
Continuous
 62
     7
370
    15
100
AcDbLine
 10
94.098655244
 20
161.7140419955
 30
0.0
 11
94.098655244
 21
169.4140417792
 31
0.0
  0
LINE
  5
80
330
1F
100
AcDbEntity
  8
0
  6
Continuous
 62
     7
370
    15
100
AcDbLine
 10
92.5986596548
 20
161.7140419955
 30
0.0
 11
92.5986596548
 21
169.4140417792
 31
0.0
  0
LINE
  5
81
330
1F
100
AcDbEntity
  8
0
  6
Continuous
 62
     7
370
    15
100
AcDbLine
 10
115.9986571573
 20
177.5640416133
 30
0.0
 11
115.9986571573
 21
185.5640415276
 31
0.0
  0
LINE
  5
82
330
1F
100
AcDbEntity
  8
0
  6
Continuous
 62
     7
370
    15
100
AcDbLine
 10
115.0986568235
 20
177.7140418242
 30
0.0
 11
115.0986568235
 21
185.4140417825
 31
0.0
  0
LINE
  5
83
330
1F
100
AcDbEntity
  8
0
  6
Continuous
 62
     7
370
    15
100
AcDbLine
 10
113.598657509
 20
177.7140418242
 30
0.0
 11
113.598657509
 21
185.4140417825
 31
0.0
  0
LINE
  5
84
330
1F
100
AcDbEntity
  8
0
  6
Continuous
 62
     7
370
    15
100
AcDbLine
 10
187.3986578711
 20
163.7640417728
 30
0.0
 11
184.9986582228
 21
163.7640417728
 31
0.0
  0
LINE
  5
85
330
1F
100
AcDbEntity
  8
0
  6
Continuous
 62
     7
370
    15
100
AcDbLine
 10
184.9986582228
 20
161.4025816496
 30
0.0
 11
184.9986582228
 21
161.3640416588
 31
0.0
  0
LINE
  5
86
330
1F
100
AcDbEntity
  8
0
  6
Continuous
 62
     7
370
    15
100
AcDbLine
 10
178.5986581516
 20
199.5640419598
 30
0.0
 11
184.9986582228
 21
199.5640419598
 31
0.0
  0
LINE
  5
87
330
1F
100
AcDbEntity
  8
0
  6
Continuous
 62
     7
370
    15
100
AcDbLine
 10
184.9986582228
 20
199.5640419598
 30
0.0
 11
184.9986582228
 21
190.5640423472
 31
0.0
  0
LINE
  5
88
330
1F
100
AcDbEntity
  8
0
  6
Continuous
 62
     7
370
    15
100
AcDbLine
 10
178.5986581516
 20
190.5640423472
 30
0.0
 11
184.9986582228
 21
190.5640423472
 31
0.0
  0
LINE
  5
89
330
1F
100
AcDbEntity
  8
0
  6
Continuous
 62
     7
370
    15
100
AcDbLine
 10
178.5986581516
 20
190.5640423472
 30
0.0
 11
178.5986581516
 21
199.5640419598
 31
0.0
  0
SPLINE
  5
8A
330
1F
100
AcDbEntity
  8
0
  6
Continuous
 62
     7
370
    15
100
AcDbSpline
210
0.0
220
0.0
230
1.0
 70
    24
 71
     3
 72
    12
 73
     8
 74
     0
 42
0.00000001
 43
0.00000001
 12
1.0
 22
0.0
 32
0.0
 13
1.0
 23
0.0
 33
0.0
 40
0.0
 40
0.0
 40
0.0
 40
0.0
 40
0.2118450891343373
 40
0.4222530376994592
 40
0.5867282201383488
 40
0.7558354061195097
 40
1.0
 40
1.0
 40
1.0
 40
1.0
 10
185.7986577950876
 20
199.5640419597819
 30
0.0
 10
186.0286798330432
 20
199.5640419597819
 30
0.0
 10
186.4871634573815
 20
199.5640419597819
 30
0.0
 10
186.91425447121
 20
199.5640419597819
 30
0.0
 10
187.1836114808468
 20
199.5640419597819
 30
0.0
 10
187.3628065305209
 20
199.5640419597819
 30
0.0
 10
187.3853430799369
 20
199.5640419597819
 30
0.0
 10
187.3986578710836
 20
199.5640419597819
 30
0.0
  0
LINE
  5
8B
330
1F
100
AcDbEntity
  8
0
  6
Continuous
 62
     7
370
    15
100
AcDbLine
 10
187.3986578711
 20
190.5640423472
 30
0.0
 11
187.3986578711
 21
199.5640419598
 31
0.0
  0
LINE
  5
8C
330
1F
100
AcDbEntity
  8
0
  6
Continuous
 62
     7
370
    15
100
AcDbLine
 10
184.9986582228
 20
190.5640423472
 30
0.0
 11
187.3986578711
 21
190.5640423472
 31
0.0
  0
ARC
  5
8D
330
1F
100
AcDbEntity
  8
0
  6
Continuous
 62
     7
370
    15
100
AcDbCircle
 10
185.0040175582
 20
195.9409601307
 30
0.0
 40
3.623085792941794
100
AcDbArc
 50
77.3304973235
 51
90.0847530068
  0
LINE
  5
8E
330
1F
100
AcDbEntity
  8
0
  6
Continuous
 62
     7
370
    15
100
AcDbLine
 10
185.7986577951
 20
199.5640419598
 30
0.0
 11
185.7986577951
 21
199.4758289482
 31
0.0
  0
LINE
  5
8F
330
1F
100
AcDbEntity
  8
0
  6
Continuous
 62
     7
370
    15
100
AcDbLine
 10
176.8986582455
 20
188.5640420194
 30
0.0
 11
178.5986581516
 21
188.5640420194
 31
0.0
  0
LINE
  5
90
330
1F
100
AcDbEntity
  8
0
  6
Continuous
 62
     7
370
    15
100
AcDbLine
 10
178.5986581516
 20
188.5640420194
 30
0.0
 11
178.5986581516
 21
190.5640423472
 31
0.0
  0
LINE
  5
91
330
1F
100
AcDbEntity
  8
0
  6
Continuous
 62
     7
370
    15
100
AcDbLine
 10
184.9986582228
 20
190.5640423472
 30
0.0
 11
184.9986582228
 21
163.7640417728
 31
0.0
  0
LINE
  5
92
330
1F
100
AcDbEntity
  8
0
  6
Continuous
 62
     7
370
    15
100
AcDbLine
 10
184.9986582228
 20
163.7640417728
 30
0.0
 11
179.2986581266
 21
163.7640417728
 31
0.0
  0
SPLINE
  5
93
330
1F
100
AcDbEntity
  8
0
  6
Continuous
 62
     7
370
    15
100
AcDbSpline
210
0.0
220
0.0
230
1.0
 70
     8
 71
     3
 72
    11
 73
     7
 74
     0
 42
0.00000001
 43
0.00000001
 12
1.0
 22
0.0
 32
0.0
 13
1.0
 23
0.0
 33
0.0
 40
0.0
 40
0.0
 40
0.0
 40
0.0
 40
0.0042868972112061
 40
0.3543730001178573
 40
0.7076561576196725
 40
1.0
 40
1.0
 40
1.0
 40
1.0
 10
179.2986581266389
 20
163.7640417727723
 30
0.0
 10
179.2970250241959
 20
163.7612133546148
 30
0.0
 10
179.1620258899307
 20
163.527404383074
 30
0.0
 10
178.8967788068395
 20
163.0601574658651
 30
0.0
 10
178.5744060507655
 20
162.3621180766098
 30
0.0
 10
178.5222669784935
 20
161.8701895101224
 30
0.0
 10
178.4986580886409
 20
161.6474412555887
 30
0.0
  0
LINE
  5
94
330
1F
100
AcDbEntity
  8
0
  6
Continuous
 62
     7
370
    15
100
AcDbLine
 10
178.4986580886
 20
161.6474412556
 30
0.0
 11
178.4986580886
 21
155.5640421982
 31
0.0
  0
LINE
  5
95
330
1F
100
AcDbEntity
  8
0
  6
Continuous
 62
     7
370
    15
100
AcDbLine
 10
176.8986582455
 20
155.5640421982
 30
0.0
 11
178.4986580886
 21
155.5640421982
 31
0.0
  0
LINE
  5
96
330
1F
100
AcDbEntity
  8
0
  6
Continuous
 62
     7
370
    15
100
AcDbLine
 10
176.8986582455
 20
155.5640421982
 30
0.0
 11
176.8986582455
 21
188.5640420194
 31
0.0
  0
LINE
  5
97
330
1F
100
AcDbEntity
  8
0
  6
Continuous
 62
     7
370
    15
100
AcDbLine
 10
187.3986578711
 20
190.5640423472
 30
0.0
 11
187.3986578711
 21
163.7640417728
 31
0.0
  0
LINE
  5
98
330
1F
100
AcDbEntity
  8
0
  6
Continuous
 62
     7
370
    15
100
AcDbLine
 10
179.2986581266
 20
163.7640417728
 30
0.0
 11
179.2986581266
 21
161.3640416588
 31
0.0
  0
ARC
  5
99
330
1F
100
AcDbEntity
  8
0
  6
Continuous
 62
     7
370
    15
100
AcDbCircle
 10
179.2986581885
 20
160.564041781
 30
0.0
 40
0.7999999999998124
100
AcDbArc
 50
90.0
 51
179.9999999991
  0
LINE
  5
9A
330
1F
100
AcDbEntity
  8
0
  6
Continuous
 62
     7
370
    15
100
AcDbLine
 10
184.9986582228
 20
161.3640416588
 30
0.0
 11
179.2986581266
 21
161.3640416588
 31
0.0
  0
LINE
  5
9B
330
1F
100
AcDbEntity
  8
0
  6
Continuous
 62
     7
370
    15
100
AcDbLine
 10
178.4986580886
 20
153.5640418704
 30
0.0
 11
176.8986582455
 21
153.5640418704
 31
0.0
  0
LINE
  5
9C
330
1F
100
AcDbEntity
  8
0
  6
Continuous
 62
     7
370
    15
100
AcDbLine
 10
178.4986580886
 20
153.5640418704
 30
0.0
 11
178.4986580886
 21
155.5640421982
 31
0.0
  0
LINE
  5
9D
330
1F
100
AcDbEntity
  8
0
  6
Continuous
 62
     7
370
    15
100
AcDbLine
 10
181.1986581587
 20
156.5640414308
 30
0.0
 11
181.1986581587
 21
153.814042377
 31
0.0
  0
LINE
  5
9E
330
1F
100
AcDbEntity
  8
0
  6
Continuous
 62
     7
370
    15
100
AcDbLine
 10
181.1986581587
 20
159.3140414159
 30
0.0
 11
181.1986581587
 21
156.5640414308
 31
0.0
  0
LINE
  5
9F
330
1F
100
AcDbEntity
  8
0
  6
Continuous
 62
     7
370
    15
100
AcDbLine
 10
181.4986581147
 20
158.8140413339
 30
0.0
 11
181.4986581147
 21
154.3140415276
 31
0.0
  0
LINE
  5
A0
330
1F
100
AcDbEntity
  8
0
  6
Continuous
 62
     7
370
    15
100
AcDbLine
 10
178.2986581956
 20
197.7964699443
 30
0.0
 11
177.7986581136
 21
197.7964699443
 31
0.0
  0
SPLINE
  5
A1
330
1F
100
AcDbEntity
  8
0
  6
Continuous
 62
     7
370
    15
100
AcDbSpline
210
0.0
220
0.0
230
1.0
 70
    24
 71
     3
 72
    15
 73
    11
 74
     0
 42
0.00000001
 43
0.00000001
 12
1.0
 22
0.0
 32
0.0
 13
1.0
 23
0.0
 33
0.0
 40
0.0
 40
0.0
 40
0.0
 40
0.0
 40
0.1249999622378695
 40
0.2499999302584896
 40
0.3750000385807265
 40
0.5000000174818715
 40
0.6249999178893691
 40
0.7499999736688406
 40
0.8749998813037878
 40
1.0
 40
1.0
 40
1.0
 40
1.0
 10
177.7986581136
 20
197.7964699442579
 30
0.0
 10
177.7986581136
 20
198.6493386437947
 30
0.0
 10
177.7986581136
 20
200.3550760823237
 30
0.0
 10
177.7986581135999
 20
202.9309925294899
 30
0.0
 10
177.7986581135999
 20
205.4956739145729
 30
0.0
 10
177.7986581135999
 20
208.0326707643843
 30
0.0
 10
177.7986581135999
 20
210.5234130839835
 30
0.0
 10
177.7986581135998
 20
212.9469541648243
 30
0.0
 10
177.7986581135998
 20
215.296034183527
 30
0.0
 10
177.7986581135998
 20
216.7746002293137
 30
0.0
 10
177.7986581135998
 20
217.513883876343
 30
0.0
  0
LINE
  5
A2
330
1F
100
AcDbEntity
  8
0
  6
Continuous
 62
     7
370
    15
100
AcDbLine
 10
177.7986581136
 20
217.5138838763
 30
0.0
 11
178.8193231613
 21
217.5138838763
 31
0.0
  0
SPLINE
  5
A3
330
1F
100
AcDbEntity
  8
0
  6
Continuous
 62
     7
370
    15
100
AcDbSpline
210
0.0
220
0.0
230
1.0
 70
     8
 71
     3
 72
     9
 73
     5
 74
     0
 42
0.00000001
 43
0.00000001
 12
1.0
 22
0.0
 32
0.0
 13
1.0
 23
0.0
 33
0.0
 40
0.0
 40
0.0
 40
0.0
 40
0.0
 40
0.5033340177003975
 40
1.0
 40
1.0
 40
1.0
 40
1.0
 10
178.81932316129
 20
217.513883876343
 30
0.0
 10
179.0774861101571
 20
217.0920075413339
 30
0.0
 10
179.5903919337025
 20
216.2538437769682
 30
0.0
 10
180.0636213417501
 20
215.3627691266204
 30
0.0
 10
180.2986582905511
 20
214.9202026601031
 30
0.0
  0
SPLINE
  5
A4
330
1F
100
AcDbEntity
  8
0
  6
Continuous
 62
     7
370
    15
100
AcDbSpline
210
0.0
220
0.0
230
1.0
 70
    24
 71
     3
 72
    11
 73
     7
 74
     0
 42
0.00000001
 43
0.00000001
 12
1.0
 22
0.0
 32
0.0
 13
1.0
 23
0.0
 33
0.0
 40
0.0
 40
0.0
 40
0.0
 40
0.0
 40
0.2499999767959944
 40
0.5000000022808068
 40
0.7500000661442615
 40
0.9999999999999999
 40
0.9999999999999999
 40
0.9999999999999999
 40
0.9999999999999999
 10
180.2986582905511
 20
214.9202026601031
 30
0.0
 10
180.2986582905511
 20
214.1528822625835
 30
0.0
 10
180.2986582905511
 20
212.6182413181049
 30
0.0
 10
180.2986582905511
 20
210.2123888381698
 30
0.0
 10
180.2986582905512
 20
207.7541689799573
 30
0.0
 10
180.2986582905512
 20
206.0807498526946
 30
0.0
 10
180.2986582905512
 20
205.2440405066206
 30
0.0
  0
SPLINE
  5
A5
330
1F
100
AcDbEntity
  8
0
  6
Continuous
 62
     7
370
    15
100
AcDbSpline
210
0.0
220
0.0
230
1.0
 70
     8
 71
     3
 72
    13
 73
     9
 74
     0
 42
0.00000001
 43
0.00000001
 12
1.0
 22
0.0
 32
0.0
 13
1.0
 23
0.0
 33
0.0
 40
0.0
 40
0.0
 40
0.0
 40
0.0
 40
0.1324293097039641
 40
0.2603093841595928
 40
0.5014324116340084
 40
0.7454923122547216
 40
0.8715691404076358
 40
1.0
 40
1.0
 40
1.0
 40
1.0
 10
180.2986582905512
 20
205.2440405066206
 30
0.0
 10
180.3048636789333
 20
205.1406622432619
 30
0.0
 10
180.31706128709
 20
204.9374569850712
 30
0.0
 10
180.4398253663512
 20
204.5622209701149
 30
0.0
 10
180.7133796341068
 20
204.1542884984976
 30
0.0
 10
181.1222924616822
 20
203.8820851624967
 30
0.0
 10
181.4977430299049
 20
203.7617164014737
 30
0.0
 10
181.6977364538838
 20
203.7499691467092
 30
0.0
 10
181.7986580707591
 20
203.7440411920741
 30
0.0
  0
LINE
  5
A6
330
1F
100
AcDbEntity
  8
0
  6
Continuous
 62
     7
370
    15
100
AcDbLine
 10
181.7986580708
 20
203.7440411921
 30
0.0
 11
185.7986577951
 21
203.7440411921
 31
0.0
  0
LINE
  5
A7
330
1F
100
AcDbEntity
  8
0
  6
Continuous
 62
     7
370
    15
100
AcDbLine
 10
185.7986577951
 20
199.5640419598
 30
0.0
 11
185.7986577951
 21
203.7440411921
 31
0.0
  0
LINE
  5
A8
330
1F
100
AcDbEntity
  8
0
  6
Continuous
 62
     7
370
    15
100
AcDbLine
 10
178.2986581956
 20
194.0999202604
 30
0.0
 11
178.5986581516
 21
194.0999202604
 31
0.0
  0
LINE
  5
A9
330
1F
100
AcDbEntity
  8
0
  6
Continuous
 62
     7
370
    15
100
AcDbLine
 10
178.2986581956
 20
194.0999202604
 30
0.0
 11
178.2986581956
 21
197.7964215155
 31
0.0
  0
LINE
  5
AA
330
1F
100
AcDbEntity
  8
0
  6
Continuous
 62
     7
370
    15
100
AcDbLine
 10
178.2986581956
 20
194.3503193732
 30
0.0
 11
177.7986581136
 21
194.3503193732
 31
0.0
  0
LINE
  5
AB
330
1F
100
AcDbEntity
  8
0
  6
Continuous
 62
     7
370
    15
100
AcDbLine
 10
177.7986581136
 20
197.7282934065
 30
0.0
 11
177.7986581136
 21
194.3503193732
 31
0.0
  0
LINE
  5
AC
330
1F
100
AcDbEntity
  8
0
  6
Continuous
 62
     7
370
    15
100
AcDbLine
 10
177.7986581136
 20
188.5640420194
 30
0.0
 11
177.7986581136
 21
194.3503193732
 31
0.0
  0
LINE
  5
AD
330
1F
100
AcDbEntity
  8
0
  6
Continuous
 62
     7
370
    15
100
AcDbLine
 10
178.8193231613
 20
217.5138838763
 30
0.0
 11
177.7986581136
 21
217.6710948522
 31
0.0
  0
LINE
  5
AE
330
1F
100
AcDbEntity
  8
0
  6
Continuous
 62
     7
370
    15
100
AcDbLine
 10
177.7986581136
 20
217.5138838763
 30
0.0
 11
177.7986581136
 21
217.6710948522
 31
0.0
  0
LINE
  5
AF
330
1F
100
AcDbEntity
  8
0
  6
Continuous
 62
     7
370
    15
100
AcDbLine
 10
103.1238266431
 20
163.5640416469
 30
0.0
 11
103.1238266431
 21
167.5640418368
 31
0.0
  0
LINE
  5
B0
330
1F
100
AcDbEntity
  8
0
  6
Continuous
 62
     7
370
    15
100
AcDbLine
 10
112.1486553155
 20
163.5640416469
 30
0.0
 11
112.1486553155
 21
167.5640418368
 31
0.0
  0
LINE
  5
B1
330
1F
100
AcDbEntity
  8
0
  6
Continuous
 62
     7
370
    15
100
AcDbLine
 10
102.8986551963
 20
163.9540418225
 30
0.0
 11
102.8986551963
 21
167.174041894
 31
0.0
  0
LINE
  5
B2
330
1F
100
AcDbEntity
  8
0
  6
Continuous
 62
     7
370
    15
100
AcDbLine
 10
112.8986605607
 20
164.3156054604
 30
0.0
 11
112.8986605607
 21
166.8124782561
 31
0.0
  0
LINE
  5
B3
330
1F
100
AcDbEntity
  8
0
  6
Continuous
 62
     7
370
    15
100
AcDbLine
 10
179.5986580827
 20
159.0570150117
 30
0.0
 11
179.5986580827
 21
153.814042377
 31
0.0
  0
LINE
  5
B4
330
1F
100
AcDbEntity
  8
0
  6
Continuous
 62
     7
370
    15
100
AcDbLine
 10
179.5986580827
 20
159.3140414159
 30
0.0
 11
179.5986580827
 21
159.0570150117
 31
0.0
  0
LINE
  5
B5
330
1F
100
AcDbEntity
  8
0
  6
Continuous
 62
     7
370
    15
100
AcDbLine
 10
128.1986587845
 20
153.9640411909
 30
0.0
 11
128.1986587845
 21
159.1640416707
 31
0.0
  0
LINE
  5
B6
330
1F
100
AcDbEntity
  8
0
  6
Continuous
 62
     7
370
    15
100
AcDbLine
 10
128.1986587845
 20
180.9640418912
 30
0.0
 11
128.1986587845
 21
186.1640423711
 31
0.0
  0
LINE
  5
B7
330
1F
100
AcDbEntity
  8
0
  6
Continuous
 62
     7
370
    15
100
AcDbLine
 10
107.1986609303
 20
165.5640419747
 30
0.0
 11
104.3112629258
 21
165.5640419747
 31
0.0
  0
SPLINE
  5
B8
330
1F
100
AcDbEntity
  8
0
  6
Continuous
 62
     7
370
    15
100
AcDbSpline
210
0.0
220
0.0
230
1.0
 70
     8
 71
     3
 72
    10
 73
     6
 74
     0
 42
0.00000001
 43
0.00000001
 12
1.0
 22
0.0
 32
0.0
 13
1.0
 23
0.0
 33
0.0
 40
0.0
 40
0.0
 40
0.0
 40
0.0
 40
0.0700365914175321
 40
0.5307571199293314
 40
1.0
 40
1.0
 40
1.0
 40
1.0
 10
103.9986589156553
 20
167.3140417958683
 30
0.0
 10
103.9990312174537
 20
167.2725929094129
 30
0.0
 10
104.0018526258956
 20
166.9584815120124
 30
0.0
 10
104.0701248147805
 20
166.3662062975648
 30
0.0
 10
104.2303939769795
 20
165.8330587023884
 30
0.0
 10
104.3112629257605
 20
165.5640419746822
 30
0.0
  0
SPLINE
  5
B9
330
1F
100
AcDbEntity
  8
0
  6
Continuous
 62
     7
370
    15
100
AcDbSpline
210
0.0
220
0.0
230
1.0
 70
     8
 71
     3
 72
     9
 73
     5
 74
     0
 42
0.00000001
 43
0.00000001
 12
1.0
 22
0.0
 32
0.0
 13
1.0
 23
0.0
 33
0.0
 40
0.0
 40
0.0
 40
0.0
 40
0.0
 40
0.4954578181211137
 40
1.0
 40
1.0
 40
1.0
 40
1.0
 10
104.3112629257604
 20
169.0640417334697
 30
0.0
 10
104.2238908721952
 20
168.7798340209998
 30
0.0
 10
104.0475447729518
 20
168.2062075646697
 30
0.0
 10
104.0150525916855
 20
167.6132260055304
 30
0.0
 10
103.9986589156553
 20
167.3140417958683
 30
0.0
  0
LINE
  5
BA
330
1F
100
AcDbEntity
  8
0
  6
Continuous
 62
     7
370
    15
100
AcDbLine
 10
107.1986609303
 20
169.0640417335
 30
0.0
 11
104.3112629258
 21
169.0640417335
 31
0.0
  0
SPLINE
  5
BB
330
1F
100
AcDbEntity
  8
0
  6
Continuous
 62
     7
370
    15
100
AcDbSpline
210
0.0
220
0.0
230
1.0
 70
     8
 71
     3
 72
     9
 73
     5
 74
     0
 42
0.00000001
 43
0.00000001
 12
1.0
 22
0.0
 32
0.0
 13
1.0
 23
0.0
 33
0.0
 40
0.0
 40
0.0
 40
0.0
 40
0.0
 40
0.4954578422127281
 40
1.0
 40
1.0
 40
1.0
 40
1.0
 10
104.3112629257605
 20
165.5640419746822
 30
0.0
 10
104.2238908722934
 20
165.2798341818688
 30
0.0
 10
104.047544781823
 20
164.7062075912709
 30
0.0
 10
104.0150525941401
 20
164.113225933151
 30
0.0
 10
103.9986589156554
 20
163.8140416878349
 30
0.0
  0
LINE
  5
BC
330
1F
100
AcDbEntity
  8
0
  6
Continuous
 62
     7
370
    15
100
AcDbLine
 10
103.9986589157
 20
167.3140417959
 30
0.0
 11
103.9986589157
 21
163.8140416878
 31
0.0
  0
LINE
  5
BD
330
1F
100
AcDbEntity
  8
0
  6
Continuous
 62
     7
370
    15
100
AcDbLine
 10
107.1986609303
 20
162.064041401
 30
0.0
 11
104.3112629258
 21
162.064041401
 31
0.0
  0
SPLINE
  5
BE
330
1F
100
AcDbEntity
  8
0
  6
Continuous
 62
     7
370
    15
100
AcDbSpline
210
0.0
220
0.0
230
1.0
 70
     8
 71
     3
 72
    10
 73
     6
 74
     0
 42
0.00000001
 43
0.00000001
 12
1.0
 22
0.0
 32
0.0
 13
1.0
 23
0.0
 33
0.0
 40
0.0
 40
0.0
 40
0.0
 40
0.0
 40
0.0700362528189455
 40
0.5307569207574331
 40
1.0
 40
1.0
 40
1.0
 40
1.0
 10
103.9986589156553
 20
163.8140416878349
 30
0.0
 10
103.9990312194845
 20
163.7725928684247
 30
0.0
 10
104.0018526558975
 20
163.4584805783794
 30
0.0
 10
104.0701248253881
 20
162.8662068853288
 30
0.0
 10
104.230393977293
 20
162.333058528996
 30
0.0
 10
104.3112629257605
 20
162.0640414009875
 30
0.0
  0
SPLINE
  5
BF
330
1F
100
AcDbEntity
  8
0
  6
Continuous
 62
     7
370
    15
100
AcDbSpline
210
0.0
220
0.0
230
1.0
 70
    24
 71
     3
 72
    10
 73
     6
 74
     0
 42
0.00000001
 43
0.00000001
 12
1.0
 22
0.0
 32
0.0
 13
1.0
 23
0.0
 33
0.0
 40
0.0
 40
0.0
 40
0.0
 40
0.0
 40
0.2684068207404545
 40
0.6323733358689111
 40
1.0
 40
1.0
 40
1.0
 40
1.0
 10
103.9986589156554
 20
162.0640414009875
 30
0.0
 10
104.0037365562767
 20
162.0640414009875
 30
0.0
 10
104.0156996074735
 20
162.0640414009875
 30
0.0
 10
104.1184907415628
 20
162.0640414009875
 30
0.0
 10
104.2467915686976
 20
162.0640414009875
 30
0.0
 10
104.3112629257605
 20
162.0640414009875
 30
0.0
  0
LINE
  5
C0
330
1F
100
AcDbEntity
  8
0
  6
Continuous
 62
     7
370
    15
100
AcDbLine
 10
103.9986589157
 20
162.064041401
 30
0.0
 11
103.9986589157
 21
163.8140416878
 31
0.0
  0
SPLINE
  5
C1
330
1F
100
AcDbEntity
  8
0
  6
Continuous
 62
     7
370
    15
100
AcDbSpline
210
0.0
220
0.0
230
1.0
 70
    24
 71
     3
 72
    10
 73
     6
 74
     0
 42
0.00000001
 43
0.00000001
 12
1.0
 22
0.0
 32
0.0
 13
1.0
 23
0.0
 33
0.0
 40
0.0
 40
0.0
 40
0.0
 40
0.0
 40
0.2684068207404545
 40
0.6323733358689111
 40
1.0
 40
1.0
 40
1.0
 40
1.0
 10
103.9986589156553
 20
169.0640417334697
 30
0.0
 10
104.0037365562766
 20
169.0640417334697
 30
0.0
 10
104.0156996074734
 20
169.0640417334697
 30
0.0
 10
104.1184907415627
 20
169.0640417334697
 30
0.0
 10
104.2467915686975
 20
169.0640417334697
 30
0.0
 10
104.3112629257604
 20
169.0640417334697
 30
0.0
  0
LINE
  5
C2
330
1F
100
AcDbEntity
  8
0
  6
Continuous
 62
     7
370
    15
100
AcDbLine
 10
103.9986589157
 20
169.0640417335
 30
0.0
 11
103.9986589157
 21
167.3140417959
 31
0.0
  0
LINE
  5
C3
330
1F
100
AcDbEntity
  8
0
  6
Continuous
 62
     7
370
    15
100
AcDbLine
 10
112.8986605607
 20
163.5640416469
 30
0.0
 11
112.8986605607
 21
164.3140417698
 31
0.0
  0
LINE
  5
C4
330
1F
100
AcDbEntity
  8
0
  6
Continuous
 62
     7
370
    15
100
AcDbLine
 10
112.8986605607
 20
166.8124782561
 30
0.0
 11
112.8986605607
 21
167.5640418368
 31
0.0
  0
LINE
  5
C5
330
1F
100
AcDbEntity
  8
0
  6
Continuous
 62
     7
370
    15
100
AcDbLine
 10
175.1986581647
 20
151.164042222
 30
0.0
 11
175.1986581647
 21
152.5640417065
 31
0.0
  0
LINE
  5
C6
330
1F
100
AcDbEntity
  8
0
  6
Continuous
 62
     7
370
    15
100
AcDbLine
 10
175.1986581647
 20
151.164042222
 30
0.0
 11
159.1986582779
 21
151.164042222
 31
0.0
  0
LINE
  5
C7
330
1F
100
AcDbEntity
  8
0
  6
Continuous
 62
     7
370
    15
100
AcDbLine
 10
159.1986582779
 20
151.164042222
 30
0.0
 11
159.1986582779
 21
152.5640417065
 31
0.0
  0
LINE
  5
C8
330
1F
100
AcDbEntity
  8
0
  6
Continuous
 62
     7
370
    15
100
AcDbLine
 10
174.274144082
 20
152.5640417065
 30
0.0
 11
160.1231719532
 21
152.5640417065
 31
0.0
  0
LINE
  5
C9
330
1F
100
AcDbEntity
  8
0
  6
Continuous
 62
     7
370
    15
100
AcDbLine
 10
171.1986583822
 20
148.6640408809
 30
0.0
 11
170.6986583002
 21
148.6640408809
 31
0.0
  0
LINE
  5
CA
330
1F
100
AcDbEntity
  8
0
  6
Continuous
 62
     7
370
    15
100
AcDbLine
 10
158.6021107786
 20
151.0619413282
 30
0.0
 11
158.6021107786
 21
148.5619418497
 31
0.0
  0
LINE
  5
CB
330
1F
100
AcDbEntity
  8
0
  6
Continuous
 62
     7
370
    15
100
AcDbLine
 10
158.6021107786
 20
151.0619413282
 30
0.0
 11
169.6986581363
 21
151.0619413282
 31
0.0
  0
LINE
  5
CC
330
1F
100
AcDbEntity
  8
0
  6
Continuous
 62
     7
370
    15
100
AcDbLine
 10
169.6986581363
 20
148.5619418497
 30
0.0
 11
169.6986581363
 21
151.0619413282
 31
0.0
  0
LINE
  5
CD
330
1F
100
AcDbEntity
  8
0
  6
Continuous
 62
     7
370
    15
100
AcDbLine
 10
158.6021107786
 20
148.5619418497
 30
0.0
 11
169.6986581363
 21
148.5619418497
 31
0.0
  0
LINE
  5
CE
330
1F
100
AcDbEntity
  8
0
  6
Continuous
 62
     7
370
    15
100
AcDbLine
 10
158.2113799803
 20
148.4824460174
 30
0.0
 11
157.2345511221
 21
150.783708709
 31
0.0
  0
ARC
  5
CF
330
1F
100
AcDbEntity
  8
0
  6
Continuous
 62
     7
370
    15
100
AcDbCircle
 10
158.6021104879
 20
147.5619410458
 30
0.0
 40
1.000000000000002
100
AcDbArc
 50
90.0
 51
113.0
  0
ARC
  5
D0
330
1F
100
AcDbEntity
  8
0
  6
Continuous
 62
     7
370
    15
100
AcDbCircle
 10
158.6021104879
 20
147.5619410458
 30
0.0
 40
3.5
100
AcDbArc
 50
90.0
 51
113.0
  0
LINE
  5
D1
330
1F
100
AcDbEntity
  8
0
  6
Continuous
 62
     7
370
    15
100
AcDbLine
 10
154.0773061268
 20
149.4435373868
 30
0.0
 11
155.0541349851
 21
147.1422746952
 31
0.0
  0
LINE
  5
D2
330
1F
100
AcDbEntity
  8
0
  6
Continuous
 62
     7
370
    15
100
AcDbLine
 10
155.0541349851
 20
147.1422746952
 30
0.0
 11
158.2113799803
 21
148.4824460174
 31
0.0
  0
LINE
  5
D3
330
1F
100
AcDbEntity
  8
0
  6
Continuous
 62
     7
370
    15
100
AcDbLine
 10
154.0773061268
 20
149.4435373868
 30
0.0
 11
157.2345511221
 21
150.783708709
 31
0.0
  0
LINE
  5
D4
330
1F
100
AcDbEntity
  8
0
  6
Continuous
 62
     7
370
    15
100
AcDbLine
 10
170.6986583002
 20
151.0619413282
 30
0.0
 11
170.6986583002
 21
148.5640410508
 31
0.0
  0
LINE
  5
D5
330
1F
100
AcDbEntity
  8
0
  6
Continuous
 62
     7
370
    15
100
AcDbLine
 10
169.6986581363
 20
151.0619413282
 30
0.0
 11
170.6986583002
 21
151.0619413282
 31
0.0
  0
ARC
  5
D6
330
1F
100
AcDbEntity
  8
0
  6
Continuous
 62
     7
370
    15
100
AcDbCircle
 10
153.6865751405
 20
150.364041781
 30
0.0
 40
1.000000000000002
100
AcDbArc
 50
270.0
 51
293.0
  0
LINE
  5
D7
330
1F
100
AcDbEntity
  8
0
  6
Continuous
 62
     7
370
    15
100
AcDbLine
 10
153.6865753286
 20
146.864042076
 30
0.0
 11
153.6865753286
 21
149.3640415545
 31
0.0
  0
ARC
  5
D8
330
1F
100
AcDbEntity
  8
0
  6
Continuous
 62
     7
370
    15
100
AcDbCircle
 10
153.6865751405
 20
150.364041781
 30
0.0
 40
3.5
100
AcDbArc
 50
270.0
 51
293.0
  0
LINE
  5
D9
330
1F
100
AcDbEntity
  8
0
  6
Continuous
 62
     7
370
    15
100
AcDbLine
 10
110.6986605727
 20
149.3640415545
 30
0.0
 11
110.6986605727
 21
146.864042076
 31
0.0
  0
LINE
  5
DA
330
1F
100
AcDbEntity
  8
0
  6
Continuous
 62
     7
370
    15
100
AcDbLine
 10
110.6986605727
 20
149.3640415545
 30
0.0
 11
153.6865753286
 21
149.3640415545
 31
0.0
  0
LINE
  5
DB
330
1F
100
AcDbEntity
  8
0
  6
Continuous
 62
     7
370
    15
100
AcDbLine
 10
110.6986605727
 20
146.864042076
 30
0.0
 11
153.6865753286
 21
146.864042076
 31
0.0
  0
ARC
  5
DC
330
1F
100
AcDbEntity
  8
0
  6
Continuous
 62
     7
370
    15
100
AcDbCircle
 10
110.6986581885
 20
150.364041781
 30
0.0
 40
3.5
100
AcDbArc
 50
180.0
 51
270.0
  0
LINE
  5
DD
330
1F
100
AcDbEntity
  8
0
  6
Continuous
 62
     7
370
    15
100
AcDbLine
 10
109.6986585461
 20
165.5640419747
 30
0.0
 11
109.6986585461
 21
150.3640417184
 31
0.0
  0
ARC
  5
DE
330
1F
100
AcDbEntity
  8
0
  6
Continuous
 62
     7
370
    15
100
AcDbCircle
 10
110.6986581885
 20
150.364041781
 30
0.0
 40
1.0
100
AcDbArc
 50
180.0
 51
270.0
  0
LINE
  5
DF
330
1F
100
AcDbEntity
  8
0
  6
Continuous
 62
     7
370
    15
100
AcDbLine
 10
109.6986585461
 20
165.5640419747
 30
0.0
 11
107.1986609303
 21
165.5640419747
 31
0.0
  0
LINE
  5
E0
330
1F
100
AcDbEntity
  8
0
  6
Continuous
 62
     7
370
    15
100
AcDbLine
 10
107.1986609303
 20
165.5640419747
 30
0.0
 11
107.1986609303
 21
150.3640417184
 31
0.0
  0
LINE
  5
E1
330
1F
100
AcDbEntity
  8
0
  6
Continuous
 62
     7
370
    15
100
AcDbLine
 10
109.6986585461
 20
175.5640417512
 30
0.0
 11
107.1986609303
 21
175.5640417512
 31
0.0
  0
LINE
  5
E2
330
1F
100
AcDbEntity
  8
0
  6
Continuous
 62
     7
370
    15
100
AcDbLine
 10
109.6986585461
 20
165.5640419747
 30
0.0
 11
109.6986585461
 21
175.5640417512
 31
0.0
  0
LINE
  5
E3
330
1F
100
AcDbEntity
  8
0
  6
Continuous
 62
     7
370
    15
100
AcDbLine
 10
107.1986609303
 20
165.5640419747
 30
0.0
 11
107.1986609303
 21
175.5640417512
 31
0.0
  0
LINE
  5
E4
330
1F
100
AcDbEntity
  8
0
  6
Continuous
 62
     7
370
    15
100
AcDbLine
 10
174.698658141
 20
147.3640412266
 30
0.0
 11
174.698658141
 21
148.5640410508
 31
0.0
  0
LINE
  5
E5
330
1F
100
AcDbEntity
  8
0
  6
Continuous
 62
     7
370
    15
100
AcDbLine
 10
164.8986579083
 20
147.3640412266
 30
0.0
 11
174.698658141
 21
147.3640412266
 31
0.0
  0
LINE
  5
E6
330
1F
100
AcDbEntity
  8
0
  6
Continuous
 62
     7
370
    15
100
AcDbLine
 10
164.8986579083
 20
148.5640410508
 30
0.0
 11
164.8986579083
 21
147.3640412266
 31
0.0
  0
LINE
  5
E7
330
1F
100
AcDbEntity
  8
0
  6
Continuous
 62
     7
370
    15
100
AcDbLine
 10
164.8986579083
 20
148.5640410508
 30
0.0
 11
174.698658141
 21
148.5640410508
 31
0.0
  0
LINE
  5
E8
330
1F
100
AcDbEntity
  8
0
  6
Continuous
 62
     7
370
    15
100
AcDbLine
 10
175.6986581885
 20
149.5640412147
 30
0.0
 11
176.8986582455
 21
149.5640412147
 31
0.0
  0
LINE
  5
E9
330
1F
100
AcDbEntity
  8
0
  6
Continuous
 62
     7
370
    15
100
AcDbLine
 10
176.8986582455
 20
183.5640421311
 30
0.0
 11
175.6986581885
 21
183.5640421311
 31
0.0
  0
LINE
  5
EA
330
1F
100
AcDbEntity
  8
0
  6
Continuous
 62
     7
370
    15
100
AcDbLine
 10
175.6986581885
 20
149.5640412147
 30
0.0
 11
175.6986581885
 21
183.5640421311
 31
0.0
  0
LINE
  5
EB
330
1F
100
AcDbEntity
  8
0
  6
Continuous
 62
     7
370
    15
100
AcDbLine
 10
176.8986582455
 20
149.5640412147
 30
0.0
 11
176.8986582455
 21
183.5640421311
 31
0.0
  0
LINE
  5
EC
330
1F
100
AcDbEntity
  8
0
  6
Continuous
 62
     7
370
    15
100
AcDbLine
 10
163.8986577444
 20
147.3640412266
 30
0.0
 11
163.8986577444
 21
148.5619418497
 31
0.0
  0
LINE
  5
ED
330
1F
100
AcDbEntity
  8
0
  6
Continuous
 62
     7
370
    15
100
AcDbLine
 10
164.8986579083
 20
147.3640412266
 30
0.0
 11
163.8986577444
 21
147.3640412266
 31
0.0
  0
ARC
  5
EE
330
1F
100
AcDbEntity
  8
0
  6
Continuous
 62
     7
370
    15
100
AcDbCircle
 10
174.6986581885
 20
149.564041781
 30
0.0
 40
2.200000000000017
100
AcDbArc
 50
270.0
 51
0.0
  0
ARC
  5
EF
330
1F
100
AcDbEntity
  8
0
  6
Continuous
 62
     7
370
    15
100
AcDbCircle
 10
174.6986581885
 20
149.564041781
 30
0.0
 40
1.0
100
AcDbArc
 50
270.0
 51
0.0
  0
LINE
  5
F0
330
1F
100
AcDbEntity
  8
0
  6
Continuous
 62
     7
370
    15
100
AcDbLine
 10
175.6986581885
 20
187.5640418555
 30
0.0
 11
176.8986582455
 21
187.5640418555
 31
0.0
  0
LINE
  5
F1
330
1F
100
AcDbEntity
  8
0
  6
Continuous
 62
     7
370
    15
100
AcDbLine
 10
175.6986581885
 20
183.5640421311
 30
0.0
 11
175.6986581885
 21
187.5640418555
 31
0.0
  0
LINE
  5
F2
330
1F
100
AcDbEntity
  8
0
  6
Continuous
 62
     7
370
    15
100
AcDbLine
 10
109.6986585461
 20
169.0640417335
 30
0.0
 11
109.9986561738
 21
169.0640417335
 31
0.0
  0
LINE
  5
F3
330
1F
100
AcDbEntity
  8
0
  6
Continuous
 62
     7
370
    15
100
AcDbLine
 10
109.9986561738
 20
169.0640417335
 30
0.0
 11
109.9986561738
 21
167.5640418368
 31
0.0
  0
LINE
  5
F4
330
1F
100
AcDbEntity
  8
0
  6
Continuous
 62
     7
370
    15
100
AcDbLine
 10
109.9986561738
 20
163.5640416469
 30
0.0
 11
109.9986561738
 21
162.064041401
 31
0.0
  0
LINE
  5
F5
330
1F
100
AcDbEntity
  8
0
  6
Continuous
 62
     7
370
    15
100
AcDbLine
 10
109.9986561738
 20
162.064041401
 30
0.0
 11
109.6986585461
 21
162.064041401
 31
0.0
  0
LWPOLYLINE
  5
F6
330
1F
100
AcDbEntity
  8
0
  6
Continuous
 62
     7
370
    15
100
AcDbPolyline
 90
        5
 70
   128
 43
0.0
 10
112.6986571752
 20
162.064041401
 10
112.914768716
 20
161.8479317228
 10
113.0716406905
 20
161.691058817
 10
113.1667771541
 20
161.5959232847
 10
113.1986581885
 20
161.564041319
  0
LINE
  5
F7
330
1F
100
AcDbEntity
  8
0
  6
Continuous
 62
     7
370
    15
100
AcDbLine
 10
109.9986561738
 20
162.064041401
 30
0.0
 11
112.6986571752
 21
162.064041401
 31
0.0
  0
LINE
  5
F8
330
1F
100
AcDbEntity
  8
0
  6
Continuous
 62
     7
370
    15
100
AcDbLine
 10
112.6986571752
 20
169.0640417335
 30
0.0
 11
109.9986561738
 21
169.0640417335
 31
0.0
  0
LWPOLYLINE
  5
F9
330
1F
100
AcDbEntity
  8
0
  6
Continuous
 62
     7
370
    15
100
AcDbPolyline
 90
        5
 70
   128
 43
0.0
 10
113.1986581885
 20
169.5640417572
 10
113.1667771541
 20
169.5321605482
 10
113.0716406905
 20
169.4370251323
 10
112.914768716
 20
169.2801519937
 10
112.6986571752
 20
169.0640417335
  0
LINE
  5
FA
330
1F
100
AcDbEntity
  8
0
  6
Continuous
 62
     7
370
    15
100
AcDbLine
 10
135.1986580693
 20
183.5640421311
 30
0.0
 11
131.1986574136
 21
183.5640421311
 31
0.0
  0
LINE
  5
FB
330
1F
100
AcDbEntity
  8
0
  6
Continuous
 62
     7
370
    15
100
AcDbLine
 10
135.1986580693
 20
156.5640414308
 30
0.0
 11
135.1986580693
 21
183.5640421311
 31
0.0
  0
LINE
  5
FC
330
1F
100
AcDbEntity
  8
0
  6
Continuous
 62
     7
370
    15
100
AcDbLine
 10
131.1986574136
 20
156.5640414308
 30
0.0
 11
135.1986580693
 21
156.5640414308
 31
0.0
  0
LINE
  5
FD
330
1F
100
AcDbEntity
  8
0
  6
Continuous
 62
     7
370
    15
100
AcDbLine
 10
131.1986574136
 20
156.5640414308
 30
0.0
 11
131.1986574136
 21
162.6749466348
 31
0.0
  0
LINE
  5
FE
330
1F
100
AcDbEntity
  8
0
  6
Continuous
 62
     7
370
    15
100
AcDbLine
 10
131.1986574136
 20
162.6749466348
 30
0.0
 11
128.1986587845
 21
162.6749466348
 31
0.0
  0
LINE
  5
FF
330
1F
100
AcDbEntity
  8
0
  6
Continuous
 62
     7
370
    15
100
AcDbLine
 10
128.1986587845
 20
162.6749466348
 30
0.0
 11
128.1986587845
 21
177.4531369272
 31
0.0
  0
LINE
  5
100
330
1F
100
AcDbEntity
  8
0
  6
Continuous
 62
     7
370
    15
100
AcDbLine
 10
131.1986574136
 20
177.4531369272
 30
0.0
 11
128.1986587845
 21
177.4531369272
 31
0.0
  0
LINE
  5
101
330
1F
100
AcDbEntity
  8
0
  6
Continuous
 62
     7
370
    15
100
AcDbLine
 10
131.1986574136
 20
177.4531369272
 30
0.0
 11
131.1986574136
 21
183.5640421311
 31
0.0
  0
LINE
  5
102
330
1F
100
AcDbEntity
  8
0
  6
Continuous
 62
     7
370
    15
100
AcDbLine
 10
131.1986574136
 20
187.5640418555
 30
0.0
 11
135.1986580693
 21
187.5640418555
 31
0.0
  0
LINE
  5
103
330
1F
100
AcDbEntity
  8
0
  6
Continuous
 62
     7
370
    15
100
AcDbLine
 10
135.1986580693
 20
187.5640418555
 30
0.0
 11
135.1986580693
 21
183.5640421311
 31
0.0
  0
LINE
  5
104
330
1F
100
AcDbEntity
  8
0
  6
Continuous
 62
     7
370
    15
100
AcDbLine
 10
131.1986574136
 20
183.5640421311
 30
0.0
 11
131.1986574136
 21
187.5640418555
 31
0.0
  0
LINE
  5
105
330
1F
100
AcDbEntity
  8
0
  6
Continuous
 62
     7
370
    15
100
AcDbLine
 10
135.1986580693
 20
156.5640414308
 30
0.0
 11
135.1986580693
 21
152.5640417065
 31
0.0
  0
LINE
  5
106
330
1F
100
AcDbEntity
  8
0
  6
Continuous
 62
     7
370
    15
100
AcDbLine
 10
135.1986580693
 20
152.5640417065
 30
0.0
 11
131.1986574136
 21
152.5640417065
 31
0.0
  0
LINE
  5
107
330
1F
100
AcDbEntity
  8
0
  6
Continuous
 62
     7
370
    15
100
AcDbLine
 10
131.1986574136
 20
152.5640417065
 30
0.0
 11
131.1986574136
 21
156.5640414308
 31
0.0
  0
LINE
  5
108
330
1F
100
AcDbEntity
  8
0
  6
Continuous
 62
     7
370
    15
100
AcDbLine
 10
131.1986574136
 20
159.7633449535
 30
0.0
 11
128.1986587845
 21
159.7633449535
 31
0.0
  0
LINE
  5
109
330
1F
100
AcDbEntity
  8
0
  6
Continuous
 62
     7
370
    15
100
AcDbLine
 10
128.1986587845
 20
162.6749466348
 30
0.0
 11
128.1986587845
 21
159.7633449535
 31
0.0
  0
LINE
  5
10A
330
1F
100
AcDbEntity
  8
0
  6
Continuous
 62
     7
370
    15
100
AcDbLine
 10
131.1986574136
 20
180.3647386084
 30
0.0
 11
128.1986587845
 21
180.3647386084
 31
0.0
  0
LINE
  5
10B
330
1F
100
AcDbEntity
  8
0
  6
Continuous
 62
     7
370
    15
100
AcDbLine
 10
128.1986587845
 20
180.3647386084
 30
0.0
 11
128.1986587845
 21
177.4531369272
 31
0.0
  0
LINE
  5
10C
330
1F
100
AcDbEntity
  8
0
  6
Continuous
 62
     7
370
    15
100
AcDbLine
 10
128.1986587845
 20
159.7633449535
 30
0.0
 11
128.1986587845
 21
159.1640416707
 31
0.0
  0
LINE
  5
10D
330
1F
100
AcDbEntity
  8
0
  6
Continuous
 62
     7
370
    15
100
AcDbLine
 10
128.1986587845
 20
180.9640418912
 30
0.0
 11
128.1986587845
 21
180.3647386084
 31
0.0
  0
LINE
  5
10E
330
1F
100
AcDbEntity
  8
0
  6
Continuous
 62
     7
370
    15
100
AcDbLine
 10
113.6986592018
 20
165.5640419747
 30
0.0
 11
113.6986592018
 21
175.5640417512
 31
0.0
  0
LINE
  5
10F
330
1F
100
AcDbEntity
  8
0
  6
Continuous
 62
     7
370
    15
100
AcDbLine
 10
113.6986592018
 20
155.5640421982
 30
0.0
 11
113.6986592018
 21
165.5640419747
 31
0.0
  0
LINE
  5
110
330
1F
100
AcDbEntity
  8
0
  6
Continuous
 62
     7
370
    15
100
AcDbLine
 10
131.1986574136
 20
152.5640417065
 30
0.0
 11
128.1986587845
 21
152.5640417065
 31
0.0
  0
SPLINE
  5
111
330
1F
100
AcDbEntity
  8
0
  6
Continuous
 62
     7
370
    15
100
AcDbSpline
210
0.0
220
0.0
230
1.0
 70
    24
 71
     3
 72
    11
 73
     7
 74
     0
 42
0.00000001
 43
0.00000001
 12
1.0
 22
0.0
 32
0.0
 13
1.0
 23
0.0
 33
0.0
 40
0.0
 40
0.0
 40
0.0
 40
0.0
 40
0.2536027224292522
 40
0.4839284228989782
 40
0.7355668660786313
 40
0.9999999999999999
 40
0.9999999999999999
 40
0.9999999999999999
 40
0.9999999999999999
 10
128.1986587845252
 20
153.9207570429036
 30
0.0
 10
128.1986587845252
 20
153.7401272939573
 30
0.0
 10
128.1986587845252
 20
153.3954469660061
 30
0.0
 10
128.1986587845252
 20
153.0669942801885
 30
0.0
 10
128.1986587845252
 20
152.8008015853979
 30
0.0
 10
128.1986587845252
 20
152.6442553885699
 30
0.0
 10
128.1986587845252
 20
152.5640417064616
 30
0.0
  0
LINE
  5
112
330
1F
100
AcDbEntity
  8
0
  6
Continuous
 62
     7
370
    15
100
AcDbLine
 10
131.1986574136
 20
187.5640418555
 30
0.0
 11
128.1986587845
 21
187.5640418555
 31
0.0
  0
SPLINE
  5
113
330
1F
100
AcDbEntity
  8
0
  6
Continuous
 62
     7
370
    15
100
AcDbSpline
210
0.0
220
0.0
230
1.0
 70
    24
 71
     3
 72
    11
 73
     7
 74
     0
 42
0.00000001
 43
0.00000001
 12
1.0
 22
0.0
 32
0.0
 13
1.0
 23
0.0
 33
0.0
 40
0.0
 40
0.0
 40
0.0
 40
0.0
 40
0.3403612626946448
 40
0.6550608911929107
 40
0.9348894017185301
 40
1.0
 40
1.0
 40
1.0
 40
1.0
 10
128.1986587845249
 20
187.5640418554732
 30
0.0
 10
128.1986587845249
 20
187.462608915652
 30
0.0
 10
128.1986587845249
 20
187.2673906013539
 30
0.0
 10
128.1986587845249
 20
186.9112576049755
 30
0.0
 10
128.1986587845249
 20
186.553937476562
 30
0.0
 10
128.1986587845249
 20
186.2908858007301
 30
0.0
 10
128.1986587845249
 20
186.2412322486827
 30
0.0
  0
LINE
  5
114
330
1F
100
AcDbEntity
  8
0
  6
Continuous
 62
     7
370
    15
100
AcDbLine
 10
137.1986583971
 20
183.5640421311
 30
0.0
 11
135.1986580693
 21
183.5640421311
 31
0.0
  0
LINE
  5
115
330
1F
100
AcDbEntity
  8
0
  6
Continuous
 62
     7
370
    15
100
AcDbLine
 10
135.1986580693
 20
156.5640414308
 30
0.0
 11
137.1986583971
 21
156.5640414308
 31
0.0
  0
LINE
  5
116
330
1F
100
AcDbEntity
  8
0
  6
Continuous
 62
     7
370
    15
100
AcDbLine
 10
137.1986583971
 20
156.5640414308
 30
0.0
 11
137.1986583971
 21
183.5640421311
 31
0.0
  0
LINE
  5
117
330
1F
100
AcDbEntity
  8
0
  6
Continuous
 62
     7
370
    15
100
AcDbLine
 10
137.1986583971
 20
152.5640417065
 30
0.0
 11
135.1986580693
 21
152.5640417065
 31
0.0
  0
LINE
  5
118
330
1F
100
AcDbEntity
  8
0
  6
Continuous
 62
     7
370
    15
100
AcDbLine
 10
137.1986583971
 20
156.5640414308
 30
0.0
 11
137.1986583971
 21
152.5640417065
 31
0.0
  0
LINE
  5
119
330
1F
100
AcDbEntity
  8
0
  6
Continuous
 62
     7
370
    15
100
AcDbLine
 10
135.1986580693
 20
187.5640418555
 30
0.0
 11
137.1986583971
 21
187.5640418555
 31
0.0
  0
LINE
  5
11A
330
1F
100
AcDbEntity
  8
0
  6
Continuous
 62
     7
370
    15
100
AcDbLine
 10
137.1986583971
 20
187.5640418555
 30
0.0
 11
137.1986583971
 21
183.5640421311
 31
0.0
  0
LINE
  5
11B
330
1F
100
AcDbEntity
  8
0
  6
Continuous
 62
     7
370
    15
100
AcDbLine
 10
137.1986583971
 20
183.0640420492
 30
0.0
 11
137.6986594104
 21
183.0640420492
 31
0.0
  0
LINE
  5
11C
330
1F
100
AcDbEntity
  8
0
  6
Continuous
 62
     7
370
    15
100
AcDbLine
 10
137.1986583971
 20
187.0640427048
 30
0.0
 11
137.6986594104
 21
187.0640427048
 31
0.0
  0
LINE
  5
11D
330
1F
100
AcDbEntity
  8
0
  6
Continuous
 62
     7
370
    15
100
AcDbLine
 10
137.1986583971
 20
157.0640415127
 30
0.0
 11
137.6986594104
 21
157.0640415127
 31
0.0
  0
LINE
  5
11E
330
1F
100
AcDbEntity
  8
0
  6
Continuous
 62
     7
370
    15
100
AcDbLine
 10
137.1986583971
 20
153.0640408571
 30
0.0
 11
137.6986594104
 21
153.0640408571
 31
0.0
  0
LINE
  5
11F
330
1F
100
AcDbEntity
  8
0
  6
Continuous
 62
     7
370
    15
100
AcDbLine
 10
137.6986594104
 20
156.5640414308
 30
0.0
 11
175.6986581885
 21
156.5640414308
 31
0.0
  0
LINE
  5
120
330
1F
100
AcDbEntity
  8
0
  6
Continuous
 62
     7
370
    15
100
AcDbLine
 10
175.6986581885
 20
152.5640417065
 30
0.0
 11
174.274144082
 21
152.5640417065
 31
0.0
  0
LINE
  5
121
330
1F
100
AcDbEntity
  8
0
  6
Continuous
 62
     7
370
    15
100
AcDbLine
 10
160.1231719532
 20
152.5640417065
 30
0.0
 11
137.6986594104
 21
152.5640417065
 31
0.0
  0
LINE
  5
122
330
1F
100
AcDbEntity
  8
0
  6
Continuous
 62
     7
370
    15
100
AcDbLine
 10
137.6986594104
 20
152.5640417065
 30
0.0
 11
137.6986594104
 21
156.5640414308
 31
0.0
  0
LINE
  5
123
330
1F
100
AcDbEntity
  8
0
  6
Continuous
 62
     7
370
    15
100
AcDbLine
 10
137.6986594104
 20
187.5640418555
 30
0.0
 11
175.6986581885
 21
187.5640418555
 31
0.0
  0
LINE
  5
124
330
1F
100
AcDbEntity
  8
0
  6
Continuous
 62
     7
370
    15
100
AcDbLine
 10
175.6986581885
 20
183.5640421311
 30
0.0
 11
137.6986594104
 21
183.5640421311
 31
0.0
  0
LINE
  5
125
330
1F
100
AcDbEntity
  8
0
  6
Continuous
 62
     7
370
    15
100
AcDbLine
 10
137.6986594104
 20
183.5640421311
 30
0.0
 11
137.6986594104
 21
187.5640418555
 31
0.0
  0
LINE
  5
126
330
1F
100
AcDbEntity
  8
0
  6
Continuous
 62
     7
370
    15
100
AcDbLine
 10
137.6986594104
 20
156.5640414308
 30
0.0
 11
137.6986594104
 21
183.5640421311
 31
0.0
  0
LINE
  5
127
330
1F
100
AcDbEntity
  8
0
  6
Continuous
 62
     7
370
    15
100
AcDbLine
 10
175.6986581885
 20
156.5640414308
 30
0.0
 11
175.6986581885
 21
183.5640421311
 31
0.0
  0
LINE
  5
128
330
1F
100
AcDbEntity
  8
0
  6
Continuous
 62
     8
370
    15
100
AcDbLine
 10
184.9986582228
 20
163.7640417728
 30
0.0
 11
184.9986582228
 21
161.4025816496
 31
0.0
  0
LINE
  5
129
330
1F
100
AcDbEntity
  8
0
  6
Continuous
 62
     8
370
    15
100
AcDbLine
 10
178.5986581516
 20
197.7964233781
 30
0.0
 11
178.2986581956
 21
197.7964215155
 31
0.0
  0
LINE
  5
12A
330
1F
100
AcDbEntity
  8
0
  6
Continuous
 62
     8
370
    15
100
AcDbLine
 10
128.3486575984
 20
159.3140414159
 30
0.0
 11
128.3486575984
 21
153.814042377
 31
0.0
  0
LINE
  5
12B
330
1F
100
AcDbEntity
  8
0
  6
Continuous
 62
     8
370
    15
100
AcDbLine
 10
128.3486575984
 20
186.3140411849
 30
0.0
 11
128.3486575984
 21
180.814042146
 31
0.0
  0
LINE
  5
12C
330
1F
100
AcDbEntity
  8
0
  6
CENTERX2
 62
     7
370
     0
100
AcDbLine
 10
174.7986581885
 20
217.5138820445
 30
0.0
 11
174.7986581885
 21
197.7964699398
 31
0.0
  0
LINE
  5
12D
330
1F
100
AcDbEntity
  8
0
  6
CENTERX2
 62
     7
370
     0
100
AcDbLine
 10
174.7986581885
 20
217.5138820445
 30
0.0
 11
175.8193232519
 21
217.5138820445
 31
0.0
  0
ELLIPSE
  5
12E
330
1F
100
AcDbEntity
  8
0
  6
Continuous
 62
     7
370
     0
100
AcDbEllipse
 10
159.3384942629
 20
201.674021781
 30
0.0
 11
-9.495047879652786
 21
29.01358961832383
 31
0.0
210
0.0
220
0.0
230
1.0
 40
0.8035403212
 41
4.912556190041288
 42
5.011480922641842
  0
ELLIPSE
  5
12F
330
1F
100
AcDbEntity
  8
0
  6
CENTERX2
 62
     7
370
     0
100
AcDbEllipse
 10
156.3384942629
 20
201.674021781
 30
0.0
 11
-9.495047879652759
 21
29.01358961832386
 31
0.0
210
0.0
220
0.0
230
1.0
 40
0.8035403212
 41
4.912556190041288
 42
5.011480922641843
  0
DIMENSION
  5
130
330
1F
100
AcDbEntity
  8
0
  6
Continuous
 62
     7
370
     0
100
AcDbDimension
  2
_D
 10
149.6986581885
 20
237.4349167925
 30
0.0
 11
162.2486581885
 21
237.4349167925
 31
0.0
 70
   160
  1
<>
 71
     2
 42
-1.0
  3
SLDDIMSTYLE0
100
AcDbAlignedDimension
 13
174.7986581885
 23
217.5138820445
 33
0.0
 14
149.6986581885
 24
151.364041781
 34
0.0
 50
0.0
100
AcDbRotatedDimension
  0
DIMENSION
  5
13B
330
1F
100
AcDbEntity
  8
0
  6
Continuous
 62
     7
370
     0
100
AcDbDimension
  2
_D_1
 10
177.7986581885
 20
237.4349167925
 30
0.0
 11
176.2986581885
 21
237.4349167925
 31
0.0
 70
   160
  1
Maxストローク  <>
 71
     2
 42
-1.0
  3
SLDDIMSTYLE1
100
AcDbAlignedDimension
 13
174.7986581885
 23
217.5138820445
 33
0.0
 14
177.7986581885
 24
217.6710932296
 34
0.0
 50
0.0
100
AcDbRotatedDimension
  0
DIMENSION
  5
153
330
1F
100
AcDbEntity
  8
0
  6
Continuous
 62
     7
370
     0
100
AcDbDimension
  2
_D_2
 10
187.3986581885
 20
120.3533058065
 30
0.0
 11
139.9986581885
 21
120.3533058065
 31
0.0
 70
   160
  1
(<>)
 71
     2
 42
-1.0
  3
SLDDIMSTYLE0
100
AcDbAlignedDimension
 13
92.5986581885
 23
161.714041781
 33
0.0
 14
187.3986581885
 24
163.764041781
 34
0.0
 50
0.0
100
AcDbRotatedDimension
  0
DIMENSION
  5
15F
330
1F
100
AcDbEntity
  8
0
  6
Continuous
 62
     7
370
     0
100
AcDbDimension
  2
_D_3
 10
187.3986581885
 20
130.864041781
 30
0.0
 11
147.2986581885
 21
130.864041781
 31
0.0
 70
   160
  1
(<>)
 71
     2
 42
-1.0
  3
SLDDIMSTYLE0
100
AcDbAlignedDimension
 13
107.1986581885
 23
150.364041781
 33
0.0
 14
187.3986581885
 24
163.764041781
 34
0.0
 50
0.0
100
AcDbRotatedDimension
  0
DIMENSION
  5
16B
330
1F
100
AcDbEntity
  8
0
  6
Continuous
 62
     7
370
     0
100
AcDbDimension
  2
_D_4
 10
85.4387932513
 20
146.864041781
 30
0.0
 11
85.4387932513
 21
156.214041781
 31
0.0
 70
   160
  1
<>
 71
     2
 42
-1.0
  3
SLDDIMSTYLE0
100
AcDbAlignedDimension
 13
90.0122839676
 23
165.564041781
 33
0.0
 14
110.6986581885
 24
146.864041781
 34
0.0
 50
90.0
100
AcDbRotatedDimension
  0
DIMENSION
  5
175
330
1F
100
AcDbEntity
  8
0
  6
Continuous
 62
     7
370
     0
100
AcDbDimension
  2
_D_5
 10
79.2495955821
 20
146.864041781
 30
0.0
 11
79.2495955821
 21
164.214041781
 31
0.0
 70
   160
  1
<>
 71
     2
 42
-1.0
  3
SLDDIMSTYLE0
100
AcDbAlignedDimension
 13
116.6926286277
 23
181.564041781
 33
0.0
 14
110.6986581885
 24
146.864041781
 34
0.0
 50
90.0
100
AcDbRotatedDimension
  0
DIMENSION
  5
17F
330
1F
100
AcDbEntity
  8
0
  6
Continuous
 62
     7
370
     0
100
AcDbDimension
  2
_D_6
 10
149.6986581885
 20
139.783468824
 30
0.0
 11
144.6986581885
 21
139.783468824
 31
0.0
 70
   160
  1
<>
 71
     2
 42
-1.0
  3
SLDDIMSTYLE0
100
AcDbAlignedDimension
 13
139.6986581885
 23
144.864041781
 33
0.0
 14
149.6986581885
 24
144.864041781
 34
0.0
 50
0.0
100
AcDbRotatedDimension
  0
DIMENSION
  5
189
330
1F
100
AcDbEntity
  8
0
  6
Continuous
 62
     7
370
     0
100
AcDbDimension
  2
_D_7
 10
187.3986581885
 20
139.783468824
 30
0.0
 11
168.5486581885
 21
139.783468824
 31
0.0
 70
   160
  1
<>
 71
     2
 42
-1.0
  3
SLDDIMSTYLE0
100
AcDbAlignedDimension
 13
149.6986581885
 23
144.864041781
 33
0.0
 14
187.3986581885
 24
163.764041781
 34
0.0
 50
0.0
100
AcDbRotatedDimension
  0
DIMENSION
  5
193
330
1F
100
AcDbEntity
  8
0
  6
Continuous
 62
     7
370
     0
100
AcDbDimension
  2
_D_8
 10
187.3986581885
 20
237.4349167925
 30
0.0
 11
182.5986581885
 21
237.4349167925
 31
0.0
 70
   160
  1
<>
 71
     2
 42
-1.0
  3
SLDDIMSTYLE2
100
AcDbAlignedDimension
 13
177.7986581885
 23
217.6710932296
 33
0.0
 14
187.3986581885
 24
199.564041781
 34
0.0
 50
0.0
100
AcDbRotatedDimension
  0
DIMENSION
  5
19E
330
1F
100
AcDbEntity
  8
0
  6
Continuous
 62
     7
370
     0
100
AcDbDimension
  2
_D_9
 10
193.7099859661
 20
146.864041781
 30
0.0
 11
193.7099859661
 21
182.2675675053
 31
0.0
 70
   160
  1
<>
 71
     2
 42
-1.0
  3
SLDDIMSTYLE0
100
AcDbAlignedDimension
 13
177.7986581885
 23
217.6710932296
 33
0.0
 14
153.6865751405
 24
146.864041781
 34
0.0
 50
90.0
100
AcDbRotatedDimension
  0
DIMENSION
  5
1A8
330
1F
100
AcDbEntity
  8
0
  6
Continuous
 62
     7
370
     0
100
AcDbDimension
  2
_D_10
 10
177.7986581885
 20
227.6712048601
 30
0.0
 11
168.4841906416
 21
227.6712048601
 31
0.0
 70
   160
  1
<>
 71
     2
 42
-1.0
  3
SLDDIMSTYLE3
100
AcDbAlignedDimension
 13
180.2986581885
 23
214.9202019372
 33
0.0
 14
177.7986581885
 24
217.6710932296
 34
0.0
 50
0.0
100
AcDbRotatedDimension
  0
MTEXT
  5
1B5
330
1F
100
AcDbEntity
  8
0
  6
Continuous
 62
     7
370
     0
100
AcDbMText
 10
102.6916761997
 20
200.6405354354
 30
0.0
 40
2.9104166667
 41
0.0
 71
     1
 72
     1
  1
KQ2S04-M5N
  7
SLDTEXTSTYLE0
 73
     1
 44
1.0
  0
INSERT
  5
1C0
330
1F
100
AcDbEntity
  8
0
  6
Continuous
 62
     7
370
     0
100
AcDbBlockReference
  2
SW_NOTE_0
 10
126.611957796
 20
200.937866354
 30
0.0
  0
LEADER
  5
1C2
330
1F
100
AcDbEntity
  8
0
  6
Continuous
 62
     7
370
     0
100
AcDbLeader
  3
SLDDIMSTYLE4
 76
     2
 10
126.4938031164
 20
183.4947800531
 30
0.0
 10
126.611957796
 20
200.937866354
 30
0.0
  0
INSERT
  5
1CD
330
1F
100
AcDbEntity
  8
0
  6
Continuous
 62
     7
370
     0
100
AcDbBlockReference
  2
SW_NOTE_1
 10
83.2900449253
 20
211.4924836552
 30
0.0
  0
INSERT
  5
1CE
330
1F
100
AcDbEntity
  8
0
  6
Continuous
 62
     7
370
     0
100
AcDbBlockReference
  2
_DOT
 10
100.7104981242
 20
168.0457736583
 30
3.1370379164
 41
3.0
 42
3.0
 50
270.0092883602
  0
LINE
  5
1CF
330
1F
100
AcDbEntity
  8
0
  6
Continuous
 62
     7
370
     0
100
AcDbLine
 10
100.7104981242
 20
168.0457736583
 30
0.0
 11
100.7033997655
 21
211.8324032825
 31
0.0
  0
LINE
  5
1D0
330
1F
100
AcDbEntity
  8
0
  6
CENTERX2
 62
     7
370
     0
100
AcDbLine
 10
99.6314223366
 20
165.564041781
 30
0.0
 11
90.0122839676
 21
165.564041781
 31
0.0
  0
LINE
  5
1D1
330
1F
100
AcDbEntity
  8
0
  6
CENTERX2
 62
     7
370
     0
100
AcDbLine
 10
139.6986581885
 20
151.364041781
 30
0.0
 11
139.6986581885
 21
144.864041781
 31
0.0
  0
LINE
  5
1D2
330
1F
100
AcDbEntity
  8
0
  6
CENTERX2
 62
     7
370
     0
100
AcDbLine
 10
149.6986581885
 20
144.864041781
 30
0.0
 11
149.6986581885
 21
151.364041781
 31
0.0
  0
CIRCLE
  5
1D3
330
1F
100
AcDbEntity
  8
0
  6
Continuous
 62
     7
370
    15
100
AcDbCircle
 10
45.746113508
 20
165.564041781
 30
0.0
 40
2.049999999999983
  0
CIRCLE
  5
1D4
330
1F
100
AcDbEntity
  8
0
  6
Continuous
 62
     7
370
    15
100
AcDbCircle
 10
45.746113508
 20
165.564041781
 30
0.0
 40
3.850000000000001
  0
CIRCLE
  5
1D5
330
1F
100
AcDbEntity
  8
0
  6
Continuous
 62
     7
370
    15
100
AcDbCircle
 10
45.746113508
 20
165.564041781
 30
0.0
 40
4.0
  0
LINE
  5
1D6
330
1F
100
AcDbEntity
  8
0
  6
Continuous
 62
     7
370
    15
100
AcDbLine
 10
46.9008140349
 20
165.5640419747
 30
0.0
 11
46.3234637714
 21
166.5640416729
 31
0.0
  0
LINE
  5
1D7
330
1F
100
AcDbEntity
  8
0
  6
Continuous
 62
     7
370
    15
100
AcDbLine
 10
45.1687632445
 20
166.5640416729
 30
0.0
 11
46.3234637714
 21
166.5640416729
 31
0.0
  0
LINE
  5
1D8
330
1F
100
AcDbEntity
  8
0
  6
Continuous
 62
     7
370
    15
100
AcDbLine
 10
45.1687632445
 20
166.5640416729
 30
0.0
 11
44.591412981
 21
165.5640419747
 31
0.0
  0
LINE
  5
1D9
330
1F
100
AcDbEntity
  8
0
  6
Continuous
 62
     7
370
    15
100
AcDbLine
 10
44.591412981
 20
165.5640419747
 30
0.0
 11
45.1687632445
 21
164.5640418108
 31
0.0
  0
LINE
  5
1DA
330
1F
100
AcDbEntity
  8
0
  6
Continuous
 62
     7
370
    15
100
AcDbLine
 10
45.1687632445
 20
164.5640418108
 30
0.0
 11
46.3234637714
 21
164.5640418108
 31
0.0
  0
LINE
  5
1DB
330
1F
100
AcDbEntity
  8
0
  6
Continuous
 62
     7
370
    15
100
AcDbLine
 10
46.3234637714
 20
164.5640418108
 30
0.0
 11
46.9008140349
 21
165.5640419747
 31
0.0
  0
CIRCLE
  5
1DC
330
1F
100
AcDbEntity
  8
0
  6
Continuous
 62
     7
370
    15
100
AcDbCircle
 10
45.746113508
 20
181.564041781
 30
0.0
 40
3.850000000000001
  0
CIRCLE
  5
1DD
330
1F
100
AcDbEntity
  8
0
  6
Continuous
 62
     7
370
    15
100
AcDbCircle
 10
45.746113508
 20
181.564041781
 30
0.0
 40
2.049999999999983
  0
CIRCLE
  5
1DE
330
1F
100
AcDbEntity
  8
0
  6
Continuous
 62
     7
370
    15
100
AcDbCircle
 10
45.746113508
 20
181.564041781
 30
0.0
 40
4.0
  0
LINE
  5
1DF
330
1F
100
AcDbEntity
  8
0
  6
Continuous
 62
     7
370
    15
100
AcDbLine
 10
46.9008140349
 20
181.5640418033
 30
0.0
 11
46.3234637714
 21
182.5640419672
 31
0.0
  0
LINE
  5
1E0
330
1F
100
AcDbEntity
  8
0
  6
Continuous
 62
     7
370
    15
100
AcDbLine
 10
45.1687632445
 20
182.5640419672
 30
0.0
 11
46.3234637714
 21
182.5640419672
 31
0.0
  0
LINE
  5
1E1
330
1F
100
AcDbEntity
  8
0
  6
Continuous
 62
     7
370
    15
100
AcDbLine
 10
45.1687632445
 20
182.5640419672
 30
0.0
 11
44.591412981
 21
181.5640418033
 31
0.0
  0
LINE
  5
1E2
330
1F
100
AcDbEntity
  8
0
  6
Continuous
 62
     7
370
    15
100
AcDbLine
 10
44.591412981
 20
181.5640418033
 30
0.0
 11
45.1687632445
 21
180.5640416394
 31
0.0
  0
LINE
  5
1E3
330
1F
100
AcDbEntity
  8
0
  6
Continuous
 62
     7
370
    15
100
AcDbLine
 10
45.1687632445
 20
180.5640416394
 30
0.0
 11
46.3234637714
 21
180.5640416394
 31
0.0
  0
LINE
  5
1E4
330
1F
100
AcDbEntity
  8
0
  6
Continuous
 62
     7
370
    15
100
AcDbLine
 10
46.3234637714
 20
180.5640416394
 30
0.0
 11
46.9008140349
 21
181.5640418033
 31
0.0
  0
LINE
  5
1E5
330
1F
100
AcDbEntity
  8
0
  6
Continuous
 62
     7
370
    15
100
AcDbLine
 10
59.7461139401
 20
188.5640420194
 30
0.0
 11
58.1461138641
 21
188.5640420194
 31
0.0
  0
LINE
  5
1E6
330
1F
100
AcDbEntity
  8
0
  6
Continuous
 62
     7
370
    15
100
AcDbLine
 10
59.7461139401
 20
183.5640421311
 30
0.0
 11
59.7461139401
 21
188.5640420194
 31
0.0
  0
LINE
  5
1E7
330
1F
100
AcDbEntity
  8
0
  6
Continuous
 62
     7
370
    15
100
AcDbLine
 10
58.1461138641
 20
186.7640413518
 30
0.0
 11
58.1461138641
 21
188.5640420194
 31
0.0
  0
LINE
  5
1E8
330
1F
100
AcDbEntity
  8
0
  6
Continuous
 62
     7
370
    15
100
AcDbLine
 10
31.7461130758
 20
188.5640420194
 30
0.0
 11
33.3461131518
 21
188.5640420194
 31
0.0
  0
LINE
  5
1E9
330
1F
100
AcDbEntity
  8
0
  6
Continuous
 62
     7
370
    15
100
AcDbLine
 10
33.3461131518
 20
188.5640420194
 30
0.0
 11
33.3461131518
 21
186.7640413518
 31
0.0
  0
LINE
  5
1EA
330
1F
100
AcDbEntity
  8
0
  6
Continuous
 62
     7
370
    15
100
AcDbLine
 10
31.7461130758
 20
188.5640420194
 30
0.0
 11
31.7461130758
 21
183.5640421311
 31
0.0
  0
LINE
  5
1EB
330
1F
100
AcDbEntity
  8
0
  6
Continuous
 62
     7
370
    15
100
AcDbLine
 10
44.7121028406
 20
202.7969382878
 30
0.0
 11
44.5886507947
 21
203.7440411921
 31
0.0
  0
ARC
  5
1EC
330
1F
100
AcDbEntity
  8
0
  6
Continuous
 62
     7
370
    15
100
AcDbCircle
 10
45.746113508
 20
194.864041781
 30
0.0
 40
8.00000000000354
100
AcDbArc
 50
356.3182066025
 51
97.4263317143
  0
LINE
  5
1ED
330
1F
100
AcDbEntity
  8
0
  6
Continuous
 62
     7
370
    15
100
AcDbLine
 10
53.3117720475
 20
187.5640418555
 30
0.0
 11
53.72960247
 21
194.3503193732
 31
0.0
  0
ARC
  5
1EE
330
1F
100
AcDbEntity
  8
0
  6
Continuous
 62
     7
370
    15
100
AcDbCircle
 10
45.746113508
 20
194.864041781
 30
0.0
 40
8.000000000001922
100
AcDbArc
 50
187.4687086365
 51
245.8531520036
  0
LINE
  5
1EF
330
1F
100
AcDbEntity
  8
0
  6
Continuous
 62
     7
370
    15
100
AcDbLine
 10
37.813834249
 20
193.8253179367
 30
0.0
 11
37.2962209945
 21
197.7964718069
 31
0.0
  0
ARC
  5
1F0
330
1F
100
AcDbEntity
  8
0
  6
Continuous
 62
     7
370
    15
100
AcDbCircle
 10
67.044573508
 20
201.674021781
 30
0.0
 40
30.00000000002566
100
AcDbArc
 50
148.129861179
 51
187.4263523016
  0
LINE
  5
1F1
330
1F
100
AcDbEntity
  8
0
  6
Continuous
 62
     7
370
    15
100
AcDbLine
 10
41.5671638762
 20
217.5138950522
 30
0.0
 11
42.7733034445
 21
217.6711023028
 31
0.0
  0
LINE
  5
1F2
330
1F
100
AcDbEntity
  8
0
  6
Continuous
 62
     7
370
    15
100
AcDbLine
 10
42.7733034445
 20
217.6711023028
 30
0.0
 11
44.5886507947
 21
203.7440411921
 31
0.0
  0
CIRCLE
  5
1F3
330
1F
100
AcDbEntity
  8
0
  6
Continuous
 62
     7
370
    15
100
AcDbCircle
 10
45.746113508
 20
194.864041781
 30
0.0
 40
5.150000000002507
  0
SPLINE
  5
1F4
330
1F
100
AcDbEntity
  8
0
  6
Continuous
 62
     7
370
    15
100
AcDbSpline
210
0.0
220
0.0
230
1.0
 70
     8
 71
     3
 72
    15
 73
    11
 74
     0
 42
0.00000001
 43
0.00000001
 12
1.0
 22
0.0
 32
0.0
 13
1.0
 23
0.0
 33
0.0
 40
0.0
 40
0.0
 40
0.0
 40
0.0
 40
0.1249999622378695
 40
0.2499999302584896
 40
0.3750000385807265
 40
0.5000000174818715
 40
0.6249999178893691
 40
0.7499999736688406
 40
0.8749998813037878
 40
1.0
 40
1.0
 40
1.0
 40
1.0
 10
54.19603768638519
 20
197.7964699442579
 30
0.0
 10
54.2857959133466
 20
198.6493386437947
 30
0.0
 10
54.46531237142185
 20
200.3550760823237
 30
0.0
 10
54.45552841218788
 20
202.9309925294899
 30
0.0
 10
54.24108025671175
 20
205.4956739145729
 30
0.0
 10
53.80332731211696
 20
208.0326707643843
 30
0.0
 10
53.15203518677909
 20
210.5234130839835
 30
0.0
 10
52.28599780836694
 20
212.9469541648243
 30
0.0
 10
51.22898998507647
 20
215.296034183527
 30
0.0
 10
50.35973112227452
 20
216.7746002293137
 30
0.0
 10
49.92510132393983
 20
217.513883876343
 30
0.0
  0
LINE
  5
1F5
330
1F
100
AcDbEntity
  8
0
  6
Continuous
 62
     7
370
    15
100
AcDbLine
 10
54.1960367551
 20
197.7964699443
 30
0.0
 11
53.7002136549
 21
197.8610925551
 31
0.0
  0
SPLINE
  5
1F6
330
1F
100
AcDbEntity
  8
0
  6
Continuous
 62
     7
370
    15
100
AcDbSpline
210
0.0
220
0.0
230
1.0
 70
     8
 71
     3
 72
    15
 73
    11
 74
     0
 42
0.00000001
 43
0.00000001
 12
1.0
 22
0.0
 32
0.0
 13
1.0
 23
0.0
 33
0.0
 40
0.0
 40
0.0
 40
0.0
 40
0.0
 40
0.1250000067672026
 40
0.2499998927233537
 40
0.3749999278107832
 40
0.500000015894714
 40
0.6249999893916088
 40
0.7500000152255711
 40
0.874999970518179
 40
1.0
 40
1.0
 40
1.0
 40
1.0
 10
53.70021365485338
 20
197.8610925550653
 30
0.0
 10
53.55124963800657
 20
198.2140335277504
 30
0.0
 10
53.25332174828494
 20
198.9199151320071
 30
0.0
 10
52.63076025199017
 20
199.8901665547352
 30
0.0
 10
51.89313772164373
 20
200.7727925026755
 30
0.0
 10
51.04066558290142
 20
201.5464657482189
 30
0.0
 10
50.09254641366518
 20
202.1994196296335
 30
0.0
 10
49.06462659571604
 20
202.7156525052023
 30
0.0
 10
47.97771432415365
 20
203.0998305349436
 30
0.0
 10
47.22240658735952
 20
203.2284399150307
 30
0.0
 10
46.84475260689107
 20
203.2927446241571
 30
0.0
  0
LINE
  5
1F7
330
1F
100
AcDbEntity
  8
0
  6
Continuous
 62
     7
370
    15
100
AcDbLine
 10
46.8447526069
 20
203.2927446242
 30
0.0
 11
46.9035782003
 21
203.7440411921
 31
0.0
  0
LINE
  5
1F8
330
1F
100
AcDbEntity
  8
0
  6
Continuous
 62
     7
370
    15
100
AcDbLine
 10
48.7189224073
 20
217.6710948522
 30
0.0
 11
46.9035762213
 21
203.7440411921
 31
0.0
  0
LINE
  5
1F9
330
1F
100
AcDbEntity
  8
0
  6
Continuous
 62
     7
370
    15
100
AcDbLine
 10
49.9251013239
 20
217.5138838763
 30
0.0
 11
48.7189224073
 21
217.6710948522
 31
0.0
  0
ARC
  5
1FA
330
1F
100
AcDbEntity
  8
0
  6
Continuous
 62
     7
370
    15
100
AcDbCircle
 10
45.7461135079
 20
194.8640417809
 30
0.0
 40
8.499999999982819
100
AcDbArc
 50
203.2726864701
 51
239.1847443655
  0
LINE
  5
1FB
330
1F
100
AcDbEntity
  8
0
  6
Continuous
 62
     7
370
    15
100
AcDbLine
 10
38.1803935011
 20
187.5640418555
 30
0.0
 11
37.9377173809
 21
191.505626234
 31
0.0
  0
LINE
  5
1FC
330
1F
100
AcDbEntity
  8
0
  6
Continuous
 62
     7
370
    15
100
AcDbLine
 10
53.7141853561
 20
194.0999202604
 30
0.0
 11
54.1960283732
 21
197.7964215155
 31
0.0
  0
LINE
  5
1FD
330
1F
100
AcDbEntity
  8
0
  6
Continuous
 62
     7
370
    15
100
AcDbLine
 10
46.7801254559
 20
202.7969382878
 30
0.0
 11
46.8447526069
 21
203.2927446242
 31
0.0
  0
SPLINE
  5
1FE
330
1F
100
AcDbEntity
  8
0
  6
Continuous
 62
     7
370
    15
100
AcDbSpline
210
0.0
220
0.0
230
1.0
 70
     8
 71
     3
 72
    23
 73
    19
 74
     0
 42
0.00000001
 43
0.00000001
 12
1.0
 22
0.0
 32
0.0
 13
1.0
 23
0.0
 33
0.0
 40
0.0
 40
0.0
 40
0.0
 40
0.0
 40
0.0625000990717287
 40
0.1250000617834719
 40
0.1874999811541119
 40
0.2500000533596313
 40
0.3125000277195718
 40
0.3750000294879156
 40
0.4375000143981257
 40
0.5000000000000854
 40
0.5624999856018743
 40
0.6249999705120844
 40
0.6874999722804284
 40
0.7499999466403688
 40
0.8125000188458882
 40
0.8749999382165282
 40
0.9374999009282714
 40
1.0
 40
1.0
 40
1.0
 40
1.0
 10
41.74611331797389
 20
194.8640424932434
 30
0.0
 10
41.76100033165067
 20
194.6022448477183
 30
0.0
 10
41.7907743265244
 20
194.0786501278467
 30
0.0
 10
42.0286240583848
 20
193.3234402357201
 30
0.0
 10
42.39830066021527
 20
192.6274361117931
 30
0.0
 10
42.89958602826256
 20
192.0173813335994
 30
0.0
 10
43.5094719941654
 20
191.5167238409641
 30
0.0
 10
44.20552163403374
 20
191.1447006673021
 30
0.0
 10
44.96071951883216
 20
190.9156107369723
 30
0.0
 10
45.74611350796405
 20
190.8382573877596
 30
0.0
 10
46.53150749709591
 20
190.9156107369725
 30
0.0
 10
47.28670538189363
 20
191.1447006673021
 30
0.0
 10
47.98275502176197
 20
191.5167238409641
 30
0.0
 10
48.59264098766482
 20
192.0173813335994
 30
0.0
 10
49.09392635571211
 20
192.6274361117931
 30
0.0
 10
49.46360295754258
 20
193.3234402357201
 30
0.0
 10
49.70145268940298
 20
194.0786501278467
 30
0.0
 10
49.73122668427671
 20
194.6022448477183
 30
0.0
 10
49.7461136979535
 20
194.8640424932434
 30
0.0
  0
SPLINE
  5
1FF
330
1F
100
AcDbEntity
  8
0
  6
Continuous
 62
     7
370
    15
100
AcDbSpline
210
0.0
220
0.0
230
1.0
 70
     8
 71
     3
 72
    23
 73
    19
 74
     0
 42
0.00000001
 43
0.00000001
 12
1.0
 22
0.0
 32
0.0
 13
1.0
 23
0.0
 33
0.0
 40
0.0
 40
0.0
 40
0.0
 40
0.0
 40
0.0624999677710372
 40
0.1249999469301349
 40
0.1875000136807571
 40
0.2499999875701881
 40
0.3124999783774862
 40
0.3749999965931947
 40
0.4374999979507653
 40
0.5000000000002545
 40
0.5625000020492348
 40
0.6250000034068054
 40
0.687500021622514
 40
0.7500000124298121
 40
0.812499986319243
 40
0.8750000530698652
 40
0.9375000322289628
 40
1.0
 40
1.0
 40
1.0
 40
1.0
 10
49.7461136979535
 20
194.8640424932434
 30
0.0
 10
49.73122666479123
 20
195.1258395307222
 30
0.0
 10
49.70145259575416
 20
195.6494336533816
 30
0.0
 10
49.46360238689081
 20
196.4046431722213
 30
0.0
 10
49.09392754412229
 20
197.100648448209
 30
0.0
 10
48.59264023422258
 20
197.7107018067813
 30
0.0
 10
47.9827551235875
 20
198.2113593605826
 30
0.0
 10
47.28670535474016
 20
198.5833824356191
 30
0.0
 10
46.53150750388291
 20
198.8124723928469
 30
0.0
 10
45.74611350796258
 20
198.8898257330934
 30
0.0
 10
44.96071951204243
 20
198.8124723928463
 30
0.0
 10
44.20552166118722
 20
198.5833824356191
 30
0.0
 10
43.50947189233987
 20
198.2113593605826
 30
0.0
 10
42.8995867817048
 20
197.7107018067813
 30
0.0
 10
42.39829947180509
 20
197.100648448209
 30
0.0
 10
42.02862462903656
 20
196.4046431722213
 30
0.0
 10
41.79077442017323
 20
195.6494336533816
 30
0.0
 10
41.76100035113615
 20
195.1258395307222
 30
0.0
 10
41.74611331797389
 20
194.8640424932434
 30
0.0
  0
SPLINE
  5
200
330
1F
100
AcDbEntity
  8
0
  6
Continuous
 62
     7
370
    15
100
AcDbSpline
210
0.0
220
0.0
230
1.0
 70
     8
 71
     3
 72
    23
 73
    19
 74
     0
 42
0.00000001
 43
0.00000001
 12
1.0
 22
0.0
 32
0.0
 13
1.0
 23
0.0
 33
0.0
 40
0.0
 40
0.0
 40
0.0
 40
0.0
 40
0.0624999898679807
 40
0.1249999017631845
 40
0.1874999367372354
 40
0.2499999395767543
 40
0.3124999847869145
 40
0.3749999722745812
 40
0.4374999821492513
 40
0.4999999999999992
 40
0.5625000178507487
 40
0.6250000277254187
 40
0.6875000152130855
 40
0.7500000604232455
 40
0.8125000632627645
 40
0.8750000982368153
 40
0.9375000101320192
 40
1.0
 40
1.0
 40
1.0
 40
1.0
 10
48.64611347108332
 20
194.8640424932434
 30
0.0
 10
48.63532055155552
 20
195.053845410125
 30
0.0
 10
48.6137347259648
 20
195.4334510070969
 30
0.0
 10
48.44129267975553
 20
195.9809773731822
 30
0.0
 10
48.17327872090986
 20
196.485581025011
 30
0.0
 10
47.8098450014808
 20
196.927869332387
 30
0.0
 10
47.36767924629479
 20
197.2908474334373
 30
0.0
 10
46.86304219050682
 20
197.5605625312629
 30
0.0
 10
46.31552417906569
 20
197.7266531376261
 30
0.0
 10
45.7461135079637
 20
197.7827353706945
 30
0.0
 10
45.1767028368617
 20
197.7266531376262
 30
0.0
 10
44.62918482542055
 20
197.5605625312629
 30
0.0
 10
44.12454776963258
 20
197.2908474334374
 30
0.0
 10
43.68238201444658
 20
196.927869332387
 30
0.0
 10
43.31894829501751
 20
196.485581025011
 30
0.0
 10
43.05093433617185
 20
195.9809773731822
 30
0.0
 10
42.87849228996259
 20
195.4334510070969
 30
0.0
 10
42.85690646437186
 20
195.053845410125
 30
0.0
 10
42.84611354484407
 20
194.8640424932434
 30
0.0
  0
SPLINE
  5
201
330
1F
100
AcDbEntity
  8
0
  6
Continuous
 62
     7
370
    15
100
AcDbSpline
210
0.0
220
0.0
230
1.0
 70
     8
 71
     3
 72
    23
 73
    19
 74
     0
 42
0.00000001
 43
0.00000001
 12
1.0
 22
0.0
 32
0.0
 13
1.0
 23
0.0
 33
0.0
 40
0.0
 40
0.0
 40
0.0
 40
0.0
 40
0.062500168184602
 40
0.1250000546060392
 40
0.1875000641062734
 40
0.2500000414719887
 40
0.312500061208328
 40
0.3750000232221974
 40
0.437500007623061
 40
0.4999999999989815
 40
0.562499992376939
 40
0.6249999767778026
 40
0.687499938791672
 40
0.7499999585280113
 40
0.8124999358937265
 40
0.8749999453939608
 40
0.9374998318153981
 40
1.0
 40
1.0
 40
1.0
 40
1.0
 10
42.84611354484407
 20
194.8640424932434
 30
0.0
 10
42.85690641099643
 20
194.6742389480782
 30
0.0
 10
42.87849209464478
 20
194.2946327134197
 30
0.0
 10
43.0509343382869
 20
193.7471057502368
 30
0.0
 10
43.31894829445079
 20
193.2425020989439
 30
0.0
 10
43.68238201459843
 20
192.8002137914244
 30
0.0
 10
44.12454776959192
 20
192.4372356904125
 30
0.0
 10
44.62918482543139
 20
192.1675205925766
 30
0.0
 10
45.17670283685602
 20
192.0014299862171
 30
0.0
 10
45.74611350796049
 20
191.9453477531469
 30
0.0
 10
46.31552417906544
 20
192.0014299862153
 30
0.0
 10
46.86304219049598
 20
192.1675205925766
 30
0.0
 10
47.36767924633546
 20
192.4372356904125
 30
0.0
 10
47.80984500132895
 20
192.8002137914244
 30
0.0
 10
48.17327872147659
 20
193.2425020989439
 30
0.0
 10
48.44129267764048
 20
193.7471057502368
 30
0.0
 10
48.61373492128261
 20
194.2946327134197
 30
0.0
 10
48.63532060493095
 20
194.6742389480782
 30
0.0
 10
48.64611347108332
 20
194.8640424932434
 30
0.0
  0
LINE
  5
202
330
1F
100
AcDbEntity
  8
0
  6
Continuous
 62
     7
370
    15
100
AcDbLine
 10
37.7779466649
 20
194.1006485547
 30
0.0
 11
37.9377173809
 21
191.505626234
 31
0.0
  0
SPLINE
  5
203
330
1F
100
AcDbEntity
  8
0
  6
Continuous
 62
     7
370
    15
100
AcDbSpline
210
0.0
220
0.0
230
1.0
 70
     8
 71
     3
 72
    15
 73
    11
 74
     0
 42
0.00000001
 43
0.00000001
 12
1.0
 22
0.0
 32
0.0
 13
1.0
 23
0.0
 33
0.0
 40
0.0
 40
0.0
 40
0.0
 40
0.0
 40
0.1249999733298793
 40
0.2500001877597287
 40
0.3749999314783668
 40
0.499999999996518
 40
0.6250000685216333
 40
0.7499998122402713
 40
0.8750000266701208
 40
1.0
 40
1.0
 40
1.0
 40
1.0
 10
46.87748440443722
 20
195.2640418137505
 30
0.0
 10
46.82606217156027
 20
195.3764179620966
 30
0.0
 10
46.72321760662314
 20
195.60117047554
 30
0.0
 10
46.44867106746244
 20
195.8589674269629
 30
0.0
 10
46.11570348202627
 20
196.0259895319932
 30
0.0
 10
45.74611350796742
 20
196.0830687348365
 30
0.0
 10
45.37652353390722
 20
196.0259895319963
 30
0.0
 10
45.04355594846496
 20
195.8589674269629
 30
0.0
 10
44.76900940930422
 20
195.60117047554
 30
0.0
 10
44.66616484436711
 20
195.3764179620966
 30
0.0
 10
44.61474261149016
 20
195.2640418137505
 30
0.0
  0
LINE
  5
204
330
1F
100
AcDbEntity
  8
0
  6
Continuous
 62
     7
370
    15
100
AcDbLine
 10
44.6147426115
 20
195.2640418138
 30
0.0
 11
43.0759076112
 21
195.2640418138
 31
0.0
  0
SPLINE
  5
205
330
1F
100
AcDbEntity
  8
0
  6
Continuous
 62
     7
370
    15
100
AcDbSpline
210
0.0
220
0.0
230
1.0
 70
     8
 71
     3
 72
    23
 73
    19
 74
     0
 42
0.00000001
 43
0.00000001
 12
1.0
 22
0.0
 32
0.0
 13
1.0
 23
0.0
 33
0.0
 40
0.0
 40
0.0
 40
0.0
 40
0.0
 40
0.0625000880927028
 40
0.1250000823392322
 40
0.1874999706158791
 40
0.2499999817924834
 40
0.3125000107170781
 40
0.3750000200595508
 40
0.437500011769676
 40
0.4999999999999258
 40
0.562499988230324
 40
0.6249999799404492
 40
0.687499989282922
 40
0.7500000182075166
 40
0.812500029384121
 40
0.8749999176607679
 40
0.9374999119072973
 40
1.0
 40
1.0
 40
1.0
 40
1.0
 10
48.41631940468398
 20
195.2640418137505
 30
0.0
 10
48.38447725982294
 20
195.4210426199046
 30
0.0
 10
48.32079301791301
 20
195.7350439964702
 30
0.0
 10
48.12157292975665
 20
196.1752171316796
 30
0.0
 10
47.8535277461835
 20
196.5749708426234
 30
0.0
 10
47.51744646079409
 20
196.9205603869715
 30
0.0
 10
47.12597280433699
 20
197.201401395241
 30
0.0
 10
46.69089462684371
 20
197.4085596552179
 30
0.0
 10
46.22607116104841
 20
197.535528120864
 30
0.0
 10
45.74611350796388
 20
197.5782983871055
 30
0.0
 10
45.26615585487934
 20
197.5355281208641
 30
0.0
 10
44.80133238908368
 20
197.4085596552179
 30
0.0
 10
44.36625421159039
 20
197.201401395241
 30
0.0
 10
43.97478055513329
 20
196.9205603869715
 30
0.0
 10
43.63869926974388
 20
196.5749708426234
 30
0.0
 10
43.37065408617073
 20
196.1752171316796
 30
0.0
 10
43.17143399801436
 20
195.7350439964702
 30
0.0
 10
43.10774975610444
 20
195.4210426199046
 30
0.0
 10
43.0759076112434
 20
195.2640418137505
 30
0.0
  0
LINE
  5
206
330
1F
100
AcDbEntity
  8
0
  6
Continuous
 62
     7
370
    15
100
AcDbLine
 10
48.4163194047
 20
195.2640418138
 30
0.0
 11
46.8774844044
 21
195.2640418138
 31
0.0
  0
LINE
  5
207
330
1F
100
AcDbEntity
  8
0
  6
Continuous
 62
     7
370
    15
100
AcDbLine
 10
43.0759076112
 20
194.4640413101
 30
0.0
 11
44.6147426115
 21
194.4640413101
 31
0.0
  0
LINE
  5
208
330
1F
100
AcDbEntity
  8
0
  6
Continuous
 62
     7
370
    15
100
AcDbLine
 10
46.8774844044
 20
194.4640413101
 30
0.0
 11
48.4163194047
 21
194.4640413101
 31
0.0
  0
SPLINE
  5
209
330
1F
100
AcDbEntity
  8
0
  6
Continuous
 62
     7
370
    15
100
AcDbSpline
210
0.0
220
0.0
230
1.0
 70
     8
 71
     3
 72
    23
 73
    19
 74
     0
 42
0.00000001
 43
0.00000001
 12
1.0
 22
0.0
 32
0.0
 13
1.0
 23
0.0
 33
0.0
 40
0.0
 40
0.0
 40
0.0
 40
0.0
 40
0.0624998614271581
 40
0.1249998650584128
 40
0.1874999641120798
 40
0.2499999846734121
 40
0.3125000229827373
 40
0.374999937294012
 40
0.4375000023849514
 40
0.4999999999999993
 40
0.5624999976150485
 40
0.6250000627059881
 40
0.6874999770172627
 40
0.7500000153265879
 40
0.8125000358879202
 40
0.8750001349415871
 40
0.9375001385728419
 40
1.0
 40
1.0
 40
1.0
 40
1.0
 10
43.0759076112434
 20
194.4640413100912
 30
0.0
 10
43.1077497973719
 20
194.3070411234347
 30
0.0
 10
43.17143424207848
 20
193.9930403929036
 30
0.0
 10
43.37065462262998
 20
193.5528676182346
 30
0.0
 10
43.63869859934289
 20
193.1531124049324
 30
0.0
 10
43.97478071707693
 20
192.807522988556
 30
0.0
 10
44.36625365522887
 20
192.5266811257348
 30
0.0
 10
44.80133323234157
 20
192.3195263934871
 30
0.0
 10
45.26615546628316
 20
192.1925541905673
 30
0.0
 10
45.74611350796369
 20
192.1497851502401
 30
0.0
 10
46.22607154964422
 20
192.1925541905673
 30
0.0
 10
46.69089378358581
 20
192.3195263934871
 30
0.0
 10
47.12597336069851
 20
192.5266811257348
 30
0.0
 10
47.51744629885046
 20
192.807522988556
 30
0.0
 10
47.8535284165845
 20
193.1531124049325
 30
0.0
 10
48.12157239329741
 20
193.5528676182346
 30
0.0
 10
48.32079277384889
 20
193.9930403929037
 30
0.0
 10
48.38447721855548
 20
194.3070411234347
 30
0.0
 10
48.41631940468398
 20
194.4640413100912
 30
0.0
  0
SPLINE
  5
20A
330
1F
100
AcDbEntity
  8
0
  6
Continuous
 62
     7
370
    15
100
AcDbSpline
210
0.0
220
0.0
230
1.0
 70
     8
 71
     3
 72
    15
 73
    11
 74
     0
 42
0.00000001
 43
0.00000001
 12
1.0
 22
0.0
 32
0.0
 13
1.0
 23
0.0
 33
0.0
 40
0.0
 40
0.0
 40
0.0
 40
0.0
 40
0.1250000371888811
 40
0.2499998751333376
 40
0.3749999646329509
 40
0.4999999999999999
 40
0.6250000353670492
 40
0.7500001248666626
 40
0.874999962811119
 40
1.0
 40
1.0
 40
1.0
 40
1.0
 10
44.61474261149016
 20
194.4640413100912
 30
0.0
 10
44.666164701814
 20
194.3516649764302
 30
0.0
 10
44.76900880049718
 20
194.126912488231
 30
0.0
 10
45.04355715010902
 20
193.869118285704
 30
0.0
 10
45.37652277263103
 20
193.7020921802068
 30
0.0
 10
45.74611350796369
 20
193.6450179176317
 30
0.0
 10
46.11570424329636
 20
193.7020921802068
 30
0.0
 10
46.44866986581836
 20
193.8691182857041
 30
0.0
 10
46.72321821543021
 20
194.126912488231
 30
0.0
 10
46.82606231411339
 20
194.3516649764302
 30
0.0
 10
46.87748440443722
 20
194.4640413100912
 30
0.0
  0
LINE
  5
20B
330
1F
100
AcDbEntity
  8
0
  6
Continuous
 62
     7
370
    15
100
AcDbLine
 10
43.0461134379
 20
194.8640424932
 30
0.0
 11
43.0759076112
 21
195.2640418138
 31
0.0
  0
LINE
  5
20C
330
1F
100
AcDbEntity
  8
0
  6
Continuous
 62
     7
370
    15
100
AcDbLine
 10
43.0759076112
 20
194.4640413101
 30
0.0
 11
43.0461134379
 21
194.8640424932
 31
0.0
  0
LINE
  5
20D
330
1F
100
AcDbEntity
  8
0
  6
Continuous
 62
     7
370
    15
100
AcDbLine
 10
44.546113451
 20
194.8640424932
 30
0.0
 11
44.6147426115
 21
194.4640413101
 31
0.0
  0
LINE
  5
20E
330
1F
100
AcDbEntity
  8
0
  6
Continuous
 62
     7
370
    15
100
AcDbLine
 10
44.546113451
 20
194.8640424932
 30
0.0
 11
44.6147426115
 21
195.2640418138
 31
0.0
  0
LINE
  5
20F
330
1F
100
AcDbEntity
  8
0
  6
Continuous
 62
     7
370
    15
100
AcDbLine
 10
48.446113578
 20
194.8640424932
 30
0.0
 11
48.4163194047
 21
194.4640413101
 31
0.0
  0
LINE
  5
210
330
1F
100
AcDbEntity
  8
0
  6
Continuous
 62
     7
370
    15
100
AcDbLine
 10
48.4163194047
 20
195.2640418138
 30
0.0
 11
48.446113578
 21
194.8640424932
 31
0.0
  0
LINE
  5
211
330
1F
100
AcDbEntity
  8
0
  6
Continuous
 62
     7
370
    15
100
AcDbLine
 10
46.8774844044
 20
195.2640418138
 30
0.0
 11
46.946113565
 21
194.8640424932
 31
0.0
  0
LINE
  5
212
330
1F
100
AcDbEntity
  8
0
  6
Continuous
 62
     7
370
    15
100
AcDbLine
 10
46.946113565
 20
194.8640424932
 30
0.0
 11
46.8774844044
 21
194.4640413101
 31
0.0
  0
ARC
  5
213
330
1F
100
AcDbEntity
  8
0
  6
Continuous
 62
     7
370
    15
100
AcDbCircle
 10
45.7500257217
 20
190.5640417809
 30
0.0
 40
14.0039122137581
100
AcDbArc
 50
140.0082313012
 51
180.0
  0
LINE
  5
214
330
1F
100
AcDbEntity
  8
0
  6
Continuous
 62
     7
370
    15
100
AcDbLine
 10
36.246932446
 20
198.5357575293
 30
0.0
 11
35.0211135661
 21
199.5640419598
 31
0.0
  0
ARC
  5
215
330
1F
100
AcDbEntity
  8
0
  6
Continuous
 62
     7
370
    15
100
AcDbCircle
 10
45.7500257217
 20
190.5640417809
 30
0.0
 40
12.4039122137738
100
AcDbArc
 50
140.0082313012
 51
179.9999999999
  0
LINE
  5
216
330
1F
100
AcDbEntity
  8
0
  6
Continuous
 62
     7
370
    15
100
AcDbLine
 10
33.3461131518
 20
190.5640423472
 30
0.0
 11
33.3461131518
 21
188.5640420194
 31
0.0
  0
LINE
  5
217
330
1F
100
AcDbEntity
  8
0
  6
Continuous
 62
     7
370
    15
100
AcDbLine
 10
31.7461130758
 20
190.5640423472
 30
0.0
 11
31.7461130758
 21
188.5640420194
 31
0.0
  0
ARC
  5
218
330
1F
100
AcDbEntity
  8
0
  6
Continuous
 62
     7
370
    15
100
AcDbCircle
 10
45.7422012942
 20
190.5640417809
 30
0.0
 40
14.0039122137581
100
AcDbArc
 50
0.0
 51
39.9917686988
  0
ARC
  5
219
330
1F
100
AcDbEntity
  8
0
  6
Continuous
 62
     7
370
    15
100
AcDbCircle
 10
45.7422012942
 20
190.5640417809
 30
0.0
 40
12.40391221377523
100
AcDbArc
 50
0.0000000001
 51
39.9917686989
  0
LINE
  5
21A
330
1F
100
AcDbEntity
  8
0
  6
Continuous
 62
     7
370
    15
100
AcDbLine
 10
55.2452945699
 20
198.5357575293
 30
0.0
 11
56.4711134498
 21
199.5640419598
 31
0.0
  0
LINE
  5
21B
330
1F
100
AcDbEntity
  8
0
  6
Continuous
 62
     7
370
    15
100
AcDbLine
 10
58.1461138641
 20
188.5640420194
 30
0.0
 11
58.1461138641
 21
190.5640423472
 31
0.0
  0
LINE
  5
21C
330
1F
100
AcDbEntity
  8
0
  6
Continuous
 62
     7
370
    15
100
AcDbLine
 10
59.7461139401
 20
188.5640420194
 30
0.0
 11
59.7461139401
 21
190.5640423472
 31
0.0
  0
ARC
  5
21D
330
1F
100
AcDbEntity
  8
0
  6
Continuous
 62
     7
370
    15
100
AcDbCircle
 10
45.7500257217
 20
190.564041781
 30
0.0
 40
13.86665391351923
100
AcDbArc
 50
139.5308098777
 51
140.0082313012
  0
ARC
  5
21E
330
1F
100
AcDbEntity
  8
0
  6
Continuous
 62
     7
370
    15
100
AcDbCircle
 10
45.7422012942
 20
190.564041781
 30
0.0
 40
13.86665391352292
100
AcDbArc
 50
39.9917686989
 51
40.4691901223
  0
LINE
  5
21F
330
1F
100
AcDbEntity
  8
0
  6
Continuous
 62
     7
370
    15
100
AcDbLine
 10
56.2913290774
 20
199.5640419598
 30
0.0
 11
54.3733913069
 21
199.5640419598
 31
0.0
  0
LINE
  5
220
330
1F
100
AcDbEntity
  8
0
  6
Continuous
 62
     7
370
    15
100
AcDbLine
 10
37.1188655113
 20
199.5640419598
 30
0.0
 11
35.2008979385
 21
199.5640419598
 31
0.0
  0
CIRCLE
  5
221
330
1F
100
AcDbEntity
  8
0
  6
Continuous
 62
     7
370
    15
100
AcDbCircle
 10
55.246113508
 20
165.564041781
 30
0.0
 40
1.61000000000001
  0
CIRCLE
  5
222
330
1F
100
AcDbEntity
  8
0
  6
Continuous
 62
     7
370
    15
100
AcDbCircle
 10
55.246113508
 20
165.564041781
 30
0.0
 40
2.000000000000024
  0
LINE
  5
223
330
1F
100
AcDbEntity
  8
0
  6
Continuous
 62
     7
370
    15
100
AcDbLine
 10
56.3710409766
 20
165.3035207826
 30
0.0
 11
56.0341946398
 21
166.4079971786
 31
0.0
  0
LINE
  5
224
330
1F
100
AcDbEntity
  8
0
  6
Continuous
 62
     7
370
    15
100
AcDbLine
 10
54.9092677971
 20
166.6685181378
 30
0.0
 11
56.0341946398
 21
166.4079971786
 31
0.0
  0
LINE
  5
225
330
1F
100
AcDbEntity
  8
0
  6
Continuous
 62
     7
370
    15
100
AcDbLine
 10
54.1211854284
 20
165.8245627011
 30
0.0
 11
54.9092677971
 21
166.6685181378
 31
0.0
  0
LINE
  5
226
330
1F
100
AcDbEntity
  8
0
  6
Continuous
 62
     7
370
    15
100
AcDbLine
 10
54.1211854284
 20
165.8245627011
 30
0.0
 11
54.4580317651
 21
164.7200863051
 31
0.0
  0
LINE
  5
227
330
1F
100
AcDbEntity
  8
0
  6
Continuous
 62
     7
370
    15
100
AcDbLine
 10
55.5829595392
 20
164.4595655787
 30
0.0
 11
54.4580317651
 21
164.7200863051
 31
0.0
  0
LINE
  5
228
330
1F
100
AcDbEntity
  8
0
  6
Continuous
 62
     7
370
    15
100
AcDbLine
 10
55.5829595392
 20
164.4595655787
 30
0.0
 11
56.3710409766
 21
165.3035207826
 31
0.0
  0
CIRCLE
  5
229
330
1F
100
AcDbEntity
  8
0
  6
Continuous
 62
     7
370
    15
100
AcDbCircle
 10
35.746113508
 20
183.564041781
 30
0.0
 40
2.600000000000006
  0
CIRCLE
  5
22A
330
1F
100
AcDbEntity
  8
0
  6
Continuous
 62
     7
370
    15
100
AcDbCircle
 10
35.746113508
 20
183.564041781
 30
0.0
 40
2.750000000000008
  0
LINE
  5
22B
330
1F
100
AcDbEntity
  8
0
  6
Continuous
 62
     7
370
    15
100
AcDbLine
 10
35.6137532359
 20
182.0919638674
 30
0.0
 11
36.9547906881
 21
182.7133758168
 31
0.0
  0
LINE
  5
22C
330
1F
100
AcDbEntity
  8
0
  6
Continuous
 62
     7
370
    15
100
AcDbLine
 10
36.9547906881
 20
182.7133758168
 30
0.0
 11
37.0871502524
 21
184.1854540805
 31
0.0
  0
LINE
  5
22D
330
1F
100
AcDbEntity
  8
0
  6
Continuous
 62
     7
370
    15
100
AcDbLine
 10
35.8784732958
 20
185.0361203949
 30
0.0
 11
37.0871502524
 21
184.1854540805
 31
0.0
  0
LINE
  5
22E
330
1F
100
AcDbEntity
  8
0
  6
Continuous
 62
     7
370
    15
100
AcDbLine
 10
34.5374367749
 20
184.4147084455
 30
0.0
 11
35.8784732958
 21
185.0361203949
 31
0.0
  0
LINE
  5
22F
330
1F
100
AcDbEntity
  8
0
  6
Continuous
 62
     7
370
    15
100
AcDbLine
 10
34.5374367749
 20
184.4147084455
 30
0.0
 11
34.4050762793
 21
182.9426301817
 31
0.0
  0
LINE
  5
230
330
1F
100
AcDbEntity
  8
0
  6
Continuous
 62
     7
370
    15
100
AcDbLine
 10
35.6137532359
 20
182.0919638674
 30
0.0
 11
34.4050762793
 21
182.9426301817
 31
0.0
  0
ARC
  5
231
330
1F
100
AcDbEntity
  8
0
  6
Continuous
 62
     7
370
    15
100
AcDbCircle
 10
35.746113508
 20
183.564041781
 30
0.0
 40
1.279999999999999
100
AcDbArc
 50
114.8621378469
 51
174.8621378469
  0
ARC
  5
232
330
1F
100
AcDbEntity
  8
0
  6
Continuous
 62
     7
370
    15
100
AcDbCircle
 10
35.746113508
 20
183.564041781
 30
0.0
 40
1.280000000000004
100
AcDbArc
 50
54.8621378469
 51
114.8621378469
  0
ARC
  5
233
330
1F
100
AcDbEntity
  8
0
  6
Continuous
 62
     7
370
    15
100
AcDbCircle
 10
35.746113508
 20
183.564041781
 30
0.0
 40
1.280000000000004
100
AcDbArc
 50
354.8621378469
 51
54.8621378469
  0
ARC
  5
234
330
1F
100
AcDbEntity
  8
0
  6
Continuous
 62
     7
370
    15
100
AcDbCircle
 10
35.746113508
 20
183.564041781
 30
0.0
 40
1.279999999999996
100
AcDbArc
 50
294.8621378469
 51
354.8621378469
  0
ARC
  5
235
330
1F
100
AcDbEntity
  8
0
  6
Continuous
 62
     7
370
    15
100
AcDbCircle
 10
35.746113508
 20
183.564041781
 30
0.0
 40
1.280000000000004
100
AcDbArc
 50
234.8621378469
 51
294.8621378469
  0
ARC
  5
236
330
1F
100
AcDbEntity
  8
0
  6
Continuous
 62
     7
370
    15
100
AcDbCircle
 10
35.746113508
 20
183.564041781
 30
0.0
 40
1.280000000000004
100
AcDbArc
 50
174.8621378469
 51
234.8621378469
  0
ARC
  5
237
330
1F
100
AcDbEntity
  8
0
  6
Continuous
 62
     7
370
    15
100
AcDbCircle
 10
35.746113508
 20
156.564041781
 30
0.0
 40
2.750000000000004
100
AcDbArc
 50
137.8110212786
 51
194.7779030418
  0
CIRCLE
  5
238
330
1F
100
AcDbEntity
  8
0
  6
Continuous
 62
     7
370
    15
100
AcDbCircle
 10
55.746113508
 20
183.564041781
 30
0.0
 40
2.600000000000024
  0
LINE
  5
239
330
1F
100
AcDbEntity
  8
0
  6
Continuous
 62
     7
370
    15
100
AcDbLine
 10
54.2798408856
 20
183.378088678
 30
0.0
 11
55.174016728
 21
182.2012359451
 31
0.0
  0
LINE
  5
23A
330
1F
100
AcDbEntity
  8
0
  6
Continuous
 62
     7
370
    15
100
AcDbLine
 10
55.174016728
 20
182.2012359451
 30
0.0
 11
56.6402891269
 21
182.3871893982
 31
0.0
  0
LINE
  5
23B
330
1F
100
AcDbEntity
  8
0
  6
Continuous
 62
     7
370
    15
100
AcDbLine
 10
57.2123856833
 20
183.749994653
 30
0.0
 11
56.6402891269
 21
182.3871893982
 31
0.0
  0
LINE
  5
23C
330
1F
100
AcDbEntity
  8
0
  6
Continuous
 62
     7
370
    15
100
AcDbLine
 10
56.3182098409
 20
184.9268473859
 30
0.0
 11
57.2123856833
 21
183.749994653
 31
0.0
  0
LINE
  5
23D
330
1F
100
AcDbEntity
  8
0
  6
Continuous
 62
     7
370
    15
100
AcDbLine
 10
56.3182098409
 20
184.9268473859
 30
0.0
 11
54.851937442
 21
184.740894864
 31
0.0
  0
LINE
  5
23E
330
1F
100
AcDbEntity
  8
0
  6
Continuous
 62
     7
370
    15
100
AcDbLine
 10
54.2798408856
 20
183.378088678
 30
0.0
 11
54.851937442
 21
184.740894864
 31
0.0
  0
CIRCLE
  5
23F
330
1F
100
AcDbEntity
  8
0
  6
Continuous
 62
     7
370
    15
100
AcDbCircle
 10
55.746113508
 20
183.564041781
 30
0.0
 40
2.749999999999988
  0
ARC
  5
240
330
1F
100
AcDbEntity
  8
0
  6
Continuous
 62
     7
370
    15
100
AcDbCircle
 10
55.746113508
 20
183.564041781
 30
0.0
 40
1.279999999999981
100
AcDbArc
 50
97.2276683999
 51
157.2276683999
  0
ARC
  5
241
330
1F
100
AcDbEntity
  8
0
  6
Continuous
 62
     7
370
    15
100
AcDbCircle
 10
55.746113508
 20
183.564041781
 30
0.0
 40
1.280000000000008
100
AcDbArc
 50
37.2276683999
 51
97.2276683999
  0
ARC
  5
242
330
1F
100
AcDbEntity
  8
0
  6
Continuous
 62
     7
370
    15
100
AcDbCircle
 10
55.746113508
 20
183.564041781
 30
0.0
 40
1.280000000000016
100
AcDbArc
 50
337.2276683999
 51
37.2276683999
  0
ARC
  5
243
330
1F
100
AcDbEntity
  8
0
  6
Continuous
 62
     7
370
    15
100
AcDbCircle
 10
55.746113508
 20
183.564041781
 30
0.0
 40
1.280000000000032
100
AcDbArc
 50
277.2276683999
 51
337.2276683999
  0
ARC
  5
244
330
1F
100
AcDbEntity
  8
0
  6
Continuous
 62
     7
370
    15
100
AcDbCircle
 10
55.746113508
 20
183.564041781
 30
0.0
 40
1.280000000000032
100
AcDbArc
 50
217.2276683999
 51
277.2276683999
  0
ARC
  5
245
330
1F
100
AcDbEntity
  8
0
  6
Continuous
 62
     7
370
    15
100
AcDbCircle
 10
55.746113508
 20
183.564041781
 30
0.0
 40
1.280000000000002
100
AcDbArc
 50
157.2276683999
 51
217.2276683999
  0
SPLINE
  5
246
330
1F
100
AcDbEntity
  8
0
  6
Continuous
 62
     7
370
    15
100
AcDbSpline
210
0.0
220
0.0
230
1.0
 70
    24
 71
     3
 72
    10
 73
     6
 74
     0
 42
0.00000001
 43
0.00000001
 12
1.0
 22
0.0
 32
0.0
 13
1.0
 23
0.0
 33
0.0
 40
0.0
 40
0.0
 40
0.0
 40
0.0
 40
0.2572431768452554
 40
0.6263799428923559
 40
1.0
 40
1.0
 40
1.0
 40
1.0
 10
53.22538768775014
 20
169.0640417334697
 30
0.0
 10
53.39507930691206
 20
169.0640417334697
 30
0.0
 10
53.80827365485737
 20
169.0640417334697
 30
0.0
 10
54.48266367421103
 20
169.0640417334697
 30
0.0
 10
54.99060803985403
 20
169.0640417334697
 30
0.0
 10
55.24611320248989
 20
169.0640417334697
 30
0.0
  0
ARC
  5
247
330
1F
100
AcDbEntity
  8
0
  6
Continuous
 62
     7
370
    15
100
AcDbCircle
 10
55.246113508
 20
165.564041781
 30
0.0
 40
3.499999999999992
100
AcDbArc
 50
90.0
 51
150.0
  0
SPLINE
  5
248
330
1F
100
AcDbEntity
  8
0
  6
Continuous
 62
     7
370
    15
100
AcDbSpline
210
0.0
220
0.0
230
1.0
 70
     8
 71
     3
 72
    10
 73
     6
 74
     0
 42
0.00000001
 43
0.00000001
 12
1.0
 22
0.0
 32
0.0
 13
1.0
 23
0.0
 33
0.0
 40
0.0
 40
0.0
 40
0.0
 40
0.0
 40
0.0700363610398951
 40
0.5307570939997404
 40
1.0
 40
1.0
 40
1.0
 40
1.0
 10
52.21502469754962
 20
167.3140417958683
 30
0.0
 10
52.23895514837305
 20
167.3554906941628
 30
0.0
 10
52.42030746806191
 20
167.6696031991763
 30
0.0
 10
52.76225781956843
 20
168.2618766892137
 30
0.0
 10
53.07007080048725
 20
168.7950247982543
 30
0.0
 10
53.22538768775014
 20
169.0640417334697
 30
0.0
  0
ARC
  5
249
330
1F
100
AcDbEntity
  8
0
  6
Continuous
 62
     7
370
    15
100
AcDbCircle
 10
55.246113508
 20
165.564041781
 30
0.0
 40
3.500000000000012
100
AcDbArc
 50
330.0
 51
30.0
  0
ARC
  5
24A
330
1F
100
AcDbEntity
  8
0
  6
Continuous
 62
     7
370
    15
100
AcDbCircle
 10
55.246113508
 20
165.564041781
 30
0.0
 40
3.500000000000028
100
AcDbArc
 50
270.0
 51
330.0
  0
ARC
  5
24B
330
1F
100
AcDbEntity
  8
0
  6
Continuous
 62
     7
370
    15
100
AcDbCircle
 10
55.246113508
 20
165.564041781
 30
0.0
 40
3.500000000000028
100
AcDbArc
 50
210.0
 51
270.0
  0
ARC
  5
24C
330
1F
100
AcDbEntity
  8
0
  6
Continuous
 62
     7
370
    15
100
AcDbCircle
 10
55.246113508
 20
165.564041781
 30
0.0
 40
3.500000000000006
100
AcDbArc
 50
150.0
 51
210.0
  0
ARC
  5
24D
330
1F
100
AcDbEntity
  8
0
  6
Continuous
 62
     7
370
    15
100
AcDbCircle
 10
55.246113508
 20
165.564041781
 30
0.0
 40
3.499999999999998
100
AcDbArc
 50
30.0
 51
90.0
  0
SPLINE
  5
24E
330
1F
100
AcDbEntity
  8
0
  6
Continuous
 62
     7
370
    15
100
AcDbSpline
210
0.0
220
0.0
230
1.0
 70
     8
 71
     3
 72
    10
 73
     6
 74
     0
 42
0.00000001
 43
0.00000001
 12
1.0
 22
0.0
 32
0.0
 13
1.0
 23
0.0
 33
0.0
 40
0.0
 40
0.0
 40
0.0
 40
0.0
 40
0.0700365626465201
 40
0.5307571149786066
 40
1.0
 40
1.0
 40
1.0
 40
1.0
 10
52.21502469754962
 20
163.8140416878349
 30
0.0
 10
52.19109408379232
 20
163.8554906592985
 30
0.0
 10
52.00974104421505
 20
164.1696028270229
 30
0.0
 10
51.66779185527084
 20
164.7618770972228
 30
0.0
 10
51.3599787061905
 20
165.2950250646364
 30
0.0
 10
51.2046617073491
 20
165.5640419746822
 30
0.0
  0
SPLINE
  5
24F
330
1F
100
AcDbEntity
  8
0
  6
Continuous
 62
     7
370
    15
100
AcDbSpline
210
0.0
220
0.0
230
1.0
 70
     8
 71
     3
 72
     9
 73
     5
 74
     0
 42
0.00000001
 43
0.00000001
 12
1.0
 22
0.0
 32
0.0
 13
1.0
 23
0.0
 33
0.0
 40
0.0
 40
0.0
 40
0.0
 40
0.0
 40
0.4954577454629549
 40
1.0
 40
1.0
 40
1.0
 40
1.0
 10
51.2046617073491
 20
165.5640419746822
 30
0.0
 10
51.36874914402249
 20
165.8482496021462
 30
0.0
 10
51.69993265699809
 20
166.4218759710275
 30
0.0
 10
52.04229063265363
 20
167.0148575387771
 30
0.0
 10
52.21502469754962
 20
167.3140417958683
 30
0.0
  0
SPLINE
  5
250
330
1F
100
AcDbEntity
  8
0
  6
Continuous
 62
     7
370
    15
100
AcDbSpline
210
0.0
220
0.0
230
1.0
 70
     8
 71
     3
 72
     9
 73
     5
 74
     0
 42
0.00000001
 43
0.00000001
 12
1.0
 22
0.0
 32
0.0
 13
1.0
 23
0.0
 33
0.0
 40
0.0
 40
0.0
 40
0.0
 40
0.0
 40
0.4954578181211137
 40
1.0
 40
1.0
 40
1.0
 40
1.0
 10
57.26683918289093
 20
169.0640417334697
 30
0.0
 10
57.43092660728366
 20
168.7798340209998
 30
0.0
 10
57.76211004690521
 20
168.2062075646697
 30
0.0
 10
58.10446809601154
 20
167.6132260055304
 30
0.0
 10
58.27720217309145
 20
167.3140417958683
 30
0.0
  0
SPLINE
  5
251
330
1F
100
AcDbEntity
  8
0
  6
Continuous
 62
     7
370
    15
100
AcDbSpline
210
0.0
220
0.0
230
1.0
 70
    24
 71
     3
 72
    10
 73
     6
 74
     0
 42
0.00000001
 43
0.00000001
 12
1.0
 22
0.0
 32
0.0
 13
1.0
 23
0.0
 33
0.0
 40
0.0
 40
0.0
 40
0.0
 40
0.0
 40
0.2684068207404545
 40
0.6323733358689111
 40
1.0
 40
1.0
 40
1.0
 40
1.0
 10
55.24611320248989
 20
169.0640417334697
 30
0.0
 10
55.42962504612793
 20
169.0640417334697
 30
0.0
 10
55.86198364421684
 20
169.0640417334697
 30
0.0
 10
56.54029577837613
 20
169.0640417334697
 30
0.0
 10
57.02385164063156
 20
169.0640417334697
 30
0.0
 10
57.26683918289093
 20
169.0640417334697
 30
0.0
  0
SPLINE
  5
252
330
1F
100
AcDbEntity
  8
0
  6
Continuous
 62
     7
370
    15
100
AcDbSpline
210
0.0
220
0.0
230
1.0
 70
     8
 71
     3
 72
     9
 73
     5
 74
     0
 42
0.00000001
 43
0.00000001
 12
1.0
 22
0.0
 32
0.0
 13
1.0
 23
0.0
 33
0.0
 40
0.0
 40
0.0
 40
0.0
 40
0.0
 40
0.4954578422127281
 40
1.0
 40
1.0
 40
1.0
 40
1.0
 10
59.28756516329197
 20
165.5640419746822
 30
0.0
 10
59.12347774297118
 20
165.2798341818688
 30
0.0
 10
58.79229432767198
 20
164.7062075912709
 30
0.0
 10
58.44993625421122
 20
164.113225933151
 30
0.0
 10
58.27720217309145
 20
163.8140416878349
 30
0.0
  0
SPLINE
  5
253
330
1F
100
AcDbEntity
  8
0
  6
Continuous
 62
     7
370
    15
100
AcDbSpline
210
0.0
220
0.0
230
1.0
 70
     8
 71
     3
 72
    10
 73
     6
 74
     0
 42
0.00000001
 43
0.00000001
 12
1.0
 22
0.0
 32
0.0
 13
1.0
 23
0.0
 33
0.0
 40
0.0
 40
0.0
 40
0.0
 40
0.0
 40
0.0700365914175321
 40
0.5307571199293314
 40
1.0
 40
1.0
 40
1.0
 40
1.0
 10
58.27720217309145
 20
167.3140417958683
 30
0.0
 10
58.30113295488411
 20
167.2725929094129
 30
0.0
 10
58.48248719507281
 20
166.9584815120124
 30
0.0
 10
58.82443448278276
 20
166.3662062975648
 30
0.0
 10
59.13224798373553
 20
165.8330587023884
 30
0.0
 10
59.28756516329197
 20
165.5640419746822
 30
0.0
  0
SPLINE
  5
254
330
1F
100
AcDbEntity
  8
0
  6
Continuous
 62
     7
370
    15
100
AcDbSpline
210
0.0
220
0.0
230
1.0
 70
    24
 71
     3
 72
    10
 73
     6
 74
     0
 42
0.00000001
 43
0.00000001
 12
1.0
 22
0.0
 32
0.0
 13
1.0
 23
0.0
 33
0.0
 40
0.0
 40
0.0
 40
0.0
 40
0.0
 40
0.2572431768452554
 40
0.6263799428923559
 40
1.0
 40
1.0
 40
1.0
 40
1.0
 10
53.22538768775014
 20
162.0640414009875
 30
0.0
 10
53.39507930691206
 20
162.0640414009875
 30
0.0
 10
53.80827365485737
 20
162.0640414009875
 30
0.0
 10
54.48266367421103
 20
162.0640414009875
 30
0.0
 10
54.99060803985403
 20
162.0640414009875
 30
0.0
 10
55.24611320248989
 20
162.0640414009875
 30
0.0
  0
SPLINE
  5
255
330
1F
100
AcDbEntity
  8
0
  6
Continuous
 62
     7
370
    15
100
AcDbSpline
210
0.0
220
0.0
230
1.0
 70
     8
 71
     3
 72
     9
 73
     5
 74
     0
 42
0.00000001
 43
0.00000001
 12
1.0
 22
0.0
 32
0.0
 13
1.0
 23
0.0
 33
0.0
 40
0.0
 40
0.0
 40
0.0
 40
0.0
 40
0.4954578422127281
 40
1.0
 40
1.0
 40
1.0
 40
1.0
 10
53.22538768775014
 20
162.0640414009875
 30
0.0
 10
53.06130026742935
 20
162.348249193801
 30
0.0
 10
52.73011685213016
 20
162.9218757843988
 30
0.0
 10
52.3877587786694
 20
163.5148574425187
 30
0.0
 10
52.21502469754962
 20
163.8140416878349
 30
0.0
  0
SPLINE
  5
256
330
1F
100
AcDbEntity
  8
0
  6
Continuous
 62
     7
370
    15
100
AcDbSpline
210
0.0
220
0.0
230
1.0
 70
    24
 71
     3
 72
    10
 73
     6
 74
     0
 42
0.00000001
 43
0.00000001
 12
1.0
 22
0.0
 32
0.0
 13
1.0
 23
0.0
 33
0.0
 40
0.0
 40
0.0
 40
0.0
 40
0.0
 40
0.2684068207404545
 40
0.6323733358689111
 40
1.0
 40
1.0
 40
1.0
 40
1.0
 10
55.24611320248989
 20
162.0640414009875
 30
0.0
 10
55.42962504612793
 20
162.0640414009875
 30
0.0
 10
55.86198364421684
 20
162.0640414009875
 30
0.0
 10
56.54029577837613
 20
162.0640414009875
 30
0.0
 10
57.02385164063156
 20
162.0640414009875
 30
0.0
 10
57.26683918289093
 20
162.0640414009875
 30
0.0
  0
SPLINE
  5
257
330
1F
100
AcDbEntity
  8
0
  6
Continuous
 62
     7
370
    15
100
AcDbSpline
210
0.0
220
0.0
230
1.0
 70
     8
 71
     3
 72
    10
 73
     6
 74
     0
 42
0.00000001
 43
0.00000001
 12
1.0
 22
0.0
 32
0.0
 13
1.0
 23
0.0
 33
0.0
 40
0.0
 40
0.0
 40
0.0
 40
0.0
 40
0.0700362528189455
 40
0.5307569207574331
 40
1.0
 40
1.0
 40
1.0
 40
1.0
 10
58.27720217309145
 20
163.8140416878349
 30
0.0
 10
58.25327171999731
 20
163.7725928684247
 30
0.0
 10
58.07191916206697
 20
163.4584805783794
 30
0.0
 10
57.72996898653601
 20
162.8662068853288
 30
0.0
 10
57.42215607460943
 20
162.333058528996
 30
0.0
 10
57.26683918289093
 20
162.0640414009875
 30
0.0
  0
ARC
  5
258
330
1F
100
AcDbEntity
  8
0
  6
Continuous
 62
     7
370
    15
100
AcDbCircle
 10
45.746113508
 20
165.564041781
 30
0.0
 40
10.00000000000001
100
AcDbArc
 50
90.0
 51
166.2944621602
  0
LINE
  5
259
330
1F
100
AcDbEntity
  8
0
  6
Continuous
 62
     7
370
    15
100
AcDbLine
 10
47.746113603
 20
175.5640417512
 30
0.0
 11
45.746113508
 21
175.5640417512
 31
0.0
  0
ARC
  5
25A
330
1F
100
AcDbEntity
  8
0
  6
Continuous
 62
     7
370
    15
100
AcDbCircle
 10
47.746113508
 20
163.564041781
 30
0.0
 40
12.0
100
AcDbArc
 50
9.5940682269
 51
90.0
  0
LINE
  5
25B
330
1F
100
AcDbEntity
  8
0
  6
Continuous
 62
     7
370
    15
100
AcDbLine
 10
59.5782728483
 20
165.5640419747
 30
0.0
 11
59.7461139401
 21
165.5640419747
 31
0.0
  0
LINE
  5
25C
330
1F
100
AcDbEntity
  8
0
  6
Continuous
 62
     7
370
    15
100
AcDbLine
 10
59.7461139401
 20
165.5640419747
 30
0.0
 11
59.7461139401
 21
150.3640417184
 31
0.0
  0
LINE
  5
25D
330
1F
100
AcDbEntity
  8
0
  6
Continuous
 62
     7
370
    15
100
AcDbLine
 10
31.7461130758
 20
150.3640417184
 30
0.0
 11
59.7461139401
 21
150.3640417184
 31
0.0
  0
LINE
  5
25E
330
1F
100
AcDbEntity
  8
0
  6
Continuous
 62
     7
370
    15
100
AcDbLine
 10
35.4530302425
 20
165.5640419747
 30
0.0
 11
31.7461130758
 21
150.3640417184
 31
0.0
  0
LINE
  5
25F
330
1F
100
AcDbEntity
  8
0
  6
Continuous
 62
     7
370
    15
100
AcDbLine
 10
36.0308516388
 20
167.9333622276
 30
0.0
 11
35.4530302425
 21
165.5640419747
 31
0.0
  0
LINE
  5
260
330
1F
100
AcDbEntity
  8
0
  6
Continuous
 62
     7
370
    15
100
AcDbLine
 10
31.7461130758
 20
146.864042076
 30
0.0
 11
59.7461139401
 21
146.864042076
 31
0.0
  0
LINE
  5
261
330
1F
100
AcDbEntity
  8
0
  6
Continuous
 62
     7
370
    15
100
AcDbLine
 10
31.7461130758
 20
150.3640417184
 30
0.0
 11
31.7461130758
 21
146.864042076
 31
0.0
  0
LINE
  5
262
330
1F
100
AcDbEntity
  8
0
  6
Continuous
 62
     7
370
    15
100
AcDbLine
 10
59.7461139401
 20
150.3640417184
 30
0.0
 11
59.7461139401
 21
146.864042076
 31
0.0
  0
LINE
  5
263
330
1F
100
AcDbEntity
  8
0
  6
Continuous
 62
     7
370
    15
100
AcDbLine
 10
31.7461130758
 20
150.3640417184
 30
0.0
 11
31.7461130758
 21
150.783708709
 31
0.0
  0
LINE
  5
264
330
1F
100
AcDbEntity
  8
0
  6
Continuous
 62
     7
370
    15
100
AcDbLine
 10
31.7461130758
 20
150.783708709
 30
0.0
 11
31.7461130758
 21
151.0619413282
 31
0.0
  0
LINE
  5
265
330
1F
100
AcDbEntity
  8
0
  6
Continuous
 62
     7
370
    15
100
AcDbLine
 10
31.7461130758
 20
151.0619413282
 30
0.0
 11
31.916314139
 21
151.0619413282
 31
0.0
  0
LINE
  5
266
330
1F
100
AcDbEntity
  8
0
  6
Continuous
 62
     7
370
    15
100
AcDbLine
 10
31.7461130758
 20
151.0619413282
 30
0.0
 11
31.7461130758
 21
156.5640414308
 31
0.0
  0
LINE
  5
267
330
1F
100
AcDbEntity
  8
0
  6
Continuous
 62
     7
370
    15
100
AcDbLine
 10
50.6613374305
 20
187.5640418555
 30
0.0
 11
40.8308895854
 21
187.5640418555
 31
0.0
  0
SPLINE
  5
268
330
1F
100
AcDbEntity
  8
0
  6
Continuous
 62
     7
370
    15
100
AcDbSpline
210
0.0
220
0.0
230
1.0
 70
     8
 71
     3
 72
    13
 73
     9
 74
     0
 42
0.00000001
 43
0.00000001
 12
1.0
 22
0.0
 32
0.0
 13
1.0
 23
0.0
 33
0.0
 40
0.0
 40
0.0
 40
0.0
 40
0.0
 40
0.2066236378736374
 40
0.3976688278079883
 40
0.5675447542509966
 40
0.6995726686623813
 40
0.8446908559654156
 40
1.0
 40
1.0
 40
1.0
 40
1.0
 10
50.66133743054417
 20
187.5640418554732
 30
0.0
 10
50.91146007289009
 20
187.4620921839764
 30
0.0
 10
51.39284728982975
 20
187.2658793654589
 30
0.0
 10
52.04792094396793
 20
186.9165220149896
 30
0.0
 10
52.52918397949695
 20
186.4556540695494
 30
0.0
 10
52.71157633981471
 20
185.8843707840395
 30
0.0
 10
52.72447708859428
 20
185.3171700625409
 30
0.0
 10
52.69401564350918
 20
184.9258861081218
 30
0.0
 10
52.67826827145365
 20
184.7236076544115
 30
0.0
  0
LINE
  5
269
330
1F
100
AcDbEntity
  8
0
  6
Continuous
 62
     7
370
    15
100
AcDbLine
 10
52.6782682715
 20
184.7236076544
 30
0.0
 11
52.6782682715
 21
184.6307538624
 31
0.0
  0
ARC
  5
26A
330
1F
100
AcDbEntity
  8
0
  6
Continuous
 62
     7
370
    15
100
AcDbCircle
 10
55.746113508
 20
183.564041781
 30
0.0
 40
3.248007215816017
100
AcDbArc
 50
160.8270595738
 51
279.9346943189
  0
LINE
  5
26B
330
1F
100
AcDbEntity
  8
0
  6
Continuous
 62
     7
370
    15
100
AcDbLine
 10
56.3064779704
 20
180.3647386084
 30
0.0
 11
57.1030037095
 21
180.3647386084
 31
0.0
  0
ARC
  5
26C
330
1F
100
AcDbEntity
  8
0
  6
Continuous
 62
     7
370
    15
100
AcDbCircle
 10
56.7769219327
 20
177.413236768
 30
0.0
 40
2.969459650929002
100
AcDbArc
 50
0.769893905
 51
83.6955340404
  0
LINE
  5
26D
330
1F
100
AcDbEntity
  8
0
  6
Continuous
 62
     7
370
    15
100
AcDbLine
 10
59.7461139401
 20
165.5640419747
 30
0.0
 11
59.7461139401
 21
177.4531369272
 31
0.0
  0
ARC
  5
26E
330
1F
100
AcDbEntity
  8
0
  6
Continuous
 62
     7
370
    15
100
AcDbCircle
 10
34.7153050832
 20
162.7148467939
 30
0.0
 40
2.969459650929005
100
AcDbArc
 50
180.769893905
 51
257.0982042662
  0
LINE
  5
26F
330
1F
100
AcDbEntity
  8
0
  6
Continuous
 62
     7
370
    15
100
AcDbLine
 10
31.7461130758
 20
177.4531369272
 30
0.0
 11
31.7461130758
 21
162.6749466348
 31
0.0
  0
ARC
  5
270
330
1F
100
AcDbEntity
  8
0
  6
Continuous
 62
     7
370
    15
100
AcDbCircle
 10
34.7153050832
 20
177.413236768
 30
0.0
 40
2.969459650929002
100
AcDbArc
 50
96.3044659596
 51
179.230106095
  0
LINE
  5
271
330
1F
100
AcDbEntity
  8
0
  6
Continuous
 62
     7
370
    15
100
AcDbLine
 10
34.3892233064
 20
180.3647386084
 30
0.0
 11
35.1857490455
 21
180.3647386084
 31
0.0
  0
ARC
  5
272
330
1F
100
AcDbEntity
  8
0
  6
Continuous
 62
     7
370
    15
100
AcDbCircle
 10
35.746113508
 20
183.564041781
 30
0.0
 40
3.248007215816019
100
AcDbArc
 50
260.0653056811
 51
19.1729404262
  0
LINE
  5
273
330
1F
100
AcDbEntity
  8
0
  6
Continuous
 62
     7
370
    15
100
AcDbLine
 10
38.8139587445
 20
184.6307538624
 30
0.0
 11
38.8139587445
 21
184.7236076544
 31
0.0
  0
SPLINE
  5
274
330
1F
100
AcDbEntity
  8
0
  6
Continuous
 62
     7
370
    15
100
AcDbSpline
210
0.0
220
0.0
230
1.0
 70
     8
 71
     3
 72
    13
 73
     9
 74
     0
 42
0.00000001
 43
0.00000001
 12
1.0
 22
0.0
 32
0.0
 13
1.0
 23
0.0
 33
0.0
 40
0.0
 40
0.0
 40
0.0
 40
0.0
 40
0.1962825596096509
 40
0.3734497957646644
 40
0.5391744027104453
 40
0.6813774649128472
 40
0.8367390121262692
 40
1.0
 40
1.0
 40
1.0
 40
1.0
 10
38.81395874447373
 20
184.7236076544115
 30
0.0
 10
38.79393842974922
 20
184.9782941349076
 30
0.0
 10
38.75584751398021
 20
185.4628640035421
 30
0.0
 10
38.81816481566663
 20
186.1832898518558
 30
0.0
 10
39.20264016706201
 20
186.7209270509795
 30
0.0
 10
39.706368847199
 20
187.0624888660717
 30
0.0
 10
40.24794178835047
 20
187.3268977594086
 30
0.0
 10
40.6333882625789
 20
187.4836980015185
 30
0.0
 10
40.83088958538321
 20
187.5640418554732
 30
0.0
  0
ARC
  5
275
330
1F
100
AcDbEntity
  8
0
  6
Continuous
 62
     7
370
    15
100
AcDbCircle
 10
35.746113508
 20
183.564041781
 30
0.0
 40
4.0
100
AcDbArc
 50
90.0
 51
180.0
  0
LINE
  5
276
330
1F
100
AcDbEntity
  8
0
  6
Continuous
 62
     7
370
    15
100
AcDbLine
 10
31.7461130758
 20
183.5640421311
 30
0.0
 11
31.7461130758
 21
177.4531369272
 31
0.0
  0
LINE
  5
277
330
1F
100
AcDbEntity
  8
0
  6
Continuous
 62
     7
370
    15
100
AcDbLine
 10
40.8308895854
 20
187.5640418555
 30
0.0
 11
35.7461137315
 21
187.5640418555
 31
0.0
  0
ARC
  5
278
330
1F
100
AcDbEntity
  8
0
  6
Continuous
 62
     7
370
    15
100
AcDbCircle
 10
55.746113508
 20
183.564041781
 30
0.0
 40
4.000000000000007
100
AcDbArc
 50
0.0
 51
90.0
  0
LINE
  5
279
330
1F
100
AcDbEntity
  8
0
  6
Continuous
 62
     7
370
    15
100
AcDbLine
 10
59.7461139401
 20
177.4531369272
 30
0.0
 11
59.7461139401
 21
183.5640421311
 31
0.0
  0
LINE
  5
27A
330
1F
100
AcDbEntity
  8
0
  6
Continuous
 62
     7
370
    15
100
AcDbLine
 10
55.7461132844
 20
187.5640418555
 30
0.0
 11
50.6613374305
 21
187.5640418555
 31
0.0
  0
ARC
  5
27B
330
1F
100
AcDbEntity
  8
0
  6
Continuous
 62
     7
370
    15
100
AcDbCircle
 10
35.746113508
 20
156.564041781
 30
0.0
 40
4.000000000000004
100
AcDbArc
 50
180.0
 51
219.1173017795
  0
LINE
  5
27C
330
1F
100
AcDbEntity
  8
0
  6
Continuous
 62
     7
370
    15
100
AcDbLine
 10
31.7461130758
 20
162.6749466348
 30
0.0
 11
31.7461130758
 21
156.5640414308
 31
0.0
  0
ARC
  5
27D
330
1F
100
AcDbEntity
  8
0
  6
Continuous
 62
     8
370
    15
100
AcDbCircle
 10
35.746113508
 20
156.564041781
 30
0.0
 40
2.600000000000002
100
AcDbArc
 50
144.6769491027
 51
187.9119752177
  0
LINE
  5
27E
330
1F
100
AcDbEntity
  8
0
  6
Continuous
 62
     8
370
    15
100
AcDbLine
 10
31.7461130758
 20
150.783708709
 30
0.0
 11
31.8484598388
 21
150.783708709
 31
0.0
  0
DIMENSION
  5
27F
330
1F
100
AcDbEntity
  8
0
  6
Continuous
 62
     7
370
     0
100
AcDbDimension
  2
_D_11
 10
48.7189149427
 20
229.0300200124
 30
0.0
 11
45.7461055
 21
229.0300180624
 31
0.0
 70
   160
  1
<>
 71
     2
 42
-1.0
  3
SLDDIMSTYLE3
100
AcDbAlignedDimension
 13
42.773303508
 23
217.6711017808
 33
0.0
 14
48.7189223933
 24
217.6710932296
 34
0.0
 50
0.000037582
100
AcDbRotatedDimension
  0
DIMENSION
  5
28B
330
1F
100
AcDbEntity
  8
0
  6
Continuous
 62
     7
370
     0
100
AcDbDimension
  2
_D_12
 10
59.746113508
 20
136.864041781
 30
0.0
 11
45.746113508
 21
136.864041781
 31
0.0
 70
   160
  1
<>
 71
     2
 42
-1.0
  3
SLDDIMSTYLE0
100
AcDbAlignedDimension
 13
31.746113508
 23
146.864041781
 33
0.0
 14
59.746113508
 24
146.864041781
 34
0.0
100
AcDbRotatedDimension
  0
DIMENSION
  5
295
330
1F
100
AcDbEntity
  8
0
  6
Continuous
 62
     7
370
     0
100
AcDbDimension
  2
_D_13
 10
65.5865403031
 20
146.864041781
 30
0.0
 11
65.5865403031
 21
163.3925413475
 31
0.0
 70
   160
  1
<>
 71
     2
 42
-1.0
  3
SLDDIMSTYLE0
100
AcDbAlignedDimension
 13
55.746113508
 23
187.564041781
 33
0.0
 14
59.746113508
 24
146.864041781
 34
0.0
 50
90.0
100
AcDbRotatedDimension
  0
DIMENSION
  5
29F
330
1F
100
AcDbEntity
  8
0
  6
Continuous
 62
     7
370
     0
100
AcDbDimension
  2
_D_14
 10
71.9605934826
 20
146.864041781
 30
0.0
 11
71.9605934826
 21
167.4286547025
 31
0.0
 70
   160
  1
<>
 71
     2
 42
-1.0
  3
SLDDIMSTYLE0
100
AcDbAlignedDimension
 13
56.2913287822
 23
199.564041781
 33
0.0
 14
59.746113508
 24
146.864041781
 34
0.0
 50
90.0
100
AcDbRotatedDimension
  0
DIMENSION
  5
2A9
330
1F
100
AcDbEntity
  8
0
  6
Continuous
 62
     7
370
     0
100
AcDbDimension
  2
_D_15
 10
71.9605934826
 20
217.6710932296
 30
0.0
 11
71.9605934826
 21
208.6175675053
 31
0.0
 70
   160
  1
(<>)
 71
     2
 42
-1.0
  3
SLDDIMSTYLE0
100
AcDbAlignedDimension
 13
56.471113508
 23
199.564041781
 33
0.0
 14
48.7189223933
 24
217.6710932296
 34
0.0
 50
90.0
100
AcDbRotatedDimension
  0
DIMENSION
  5
2B5
330
1F
100
AcDbEntity
  8
0
  6
Continuous
 62
     7
370
     0
100
AcDbDimension
  2
_D_16
 10
54.447683508
 20
239.6712048601
 30
0.0
 11
45.7461055
 21
239.6712048601
 31
0.0
 70
   160
  1
(<>)
 71
     2
 42
-1.0
  3
SLDDIMSTYLE3
100
AcDbAlignedDimension
 13
37.0445758269
 23
201.674021781
 33
0.0
 14
54.447683508
 24
201.674021781
 34
0.0
 50
0.0
100
AcDbRotatedDimension
  0
DIMENSION
  5
2C1
330
1F
100
AcDbEntity
  8
0
  6
Continuous
 62
     7
370
     0
100
AcDbDimension
  2
_D_17
 10
26.2627526052
 20
146.864041781
 30
0.0
 11
26.2627526052
 21
171.3564888496
 31
0.0
 70
   160
  1
<>
 71
     2
 42
-1.0
  3
SLDDIMSTYLE0
100
AcDbAlignedDimension
 13
38.096113508
 23
194.864041781
 33
0.0
 14
31.746113508
 24
146.864041781
 34
0.0
 50
90.0
100
AcDbRotatedDimension
  0
INSERT
  5
2D6
330
1F
100
AcDbEntity
  8
0
  6
Continuous
 62
     7
370
     0
100
AcDbBlockReference
  2
SW_CENTERMARKSYMBOL_0
 10
35.746113508
 20
183.564041781
 30
0.0
  0
INSERT
  5
2E2
330
1F
100
AcDbEntity
  8
0
  6
Continuous
 62
     7
370
     0
100
AcDbBlockReference
  2
SW_CENTERMARKSYMBOL_1
 10
55.746113508
 20
183.564041781
 30
0.0
  0
INSERT
  5
2EE
330
1F
100
AcDbEntity
  8
0
  6
Continuous
 62
     7
370
     0
100
AcDbBlockReference
  2
SW_CENTERMARKSYMBOL_2
 10
55.246113508
 20
165.564041781
 30
0.0
  0
INSERT
  5
2FA
330
1F
100
AcDbEntity
  8
0
  6
Continuous
 62
     7
370
     0
100
AcDbBlockReference
  2
SW_CENTERMARKSYMBOL_3
 10
45.746113508
 20
181.564041781
 30
0.0
  0
INSERT
  5
306
330
1F
100
AcDbEntity
  8
0
  6
Continuous
 62
     7
370
     0
100
AcDbBlockReference
  2
SW_CENTERMARKSYMBOL_4
 10
45.746113508
 20
194.864041781
 30
0.0
  0
INSERT
  5
312
330
1F
100
AcDbEntity
  8
0
  6
Continuous
 62
     7
370
     0
100
AcDbBlockReference
  2
SW_CENTERMARKSYMBOL_5
 10
45.746113508
 20
165.564041781
 30
0.0
  0
LINE
  5
313
330
1F
100
AcDbEntity
  8
0
  6
Continuous
 62
     7
370
    15
100
AcDbLine
 10
94.9986555778
 20
80.6629528909
 30
0.0
 11
107.1986609303
 21
80.6629528909
 31
0.0
  0
LINE
  5
314
330
1F
100
AcDbEntity
  8
0
  6
Continuous
 62
     7
370
    15
100
AcDbLine
 10
107.1986609303
 20
88.6629532708
 30
0.0
 11
94.9986555778
 21
88.6629532708
 31
0.0
  0
LINE
  5
315
330
1F
100
AcDbEntity
  8
0
  6
Continuous
 62
     7
370
    15
100
AcDbLine
 10
92.5986596548
 20
80.8129531017
 30
0.0
 11
94.098655244
 21
80.8129531017
 31
0.0
  0
LINE
  5
316
330
1F
100
AcDbEntity
  8
0
  6
Continuous
 62
     7
370
    15
100
AcDbLine
 10
94.098655244
 20
88.51295306
 30
0.0
 11
92.5986596548
 21
88.51295306
 31
0.0
  0
LINE
  5
317
330
1F
100
AcDbEntity
  8
0
  6
Continuous
 62
     7
370
    15
100
AcDbLine
 10
94.098655244
 20
82.2629529669
 30
0.0
 11
94.9986555778
 21
82.2629529669
 31
0.0
  0
LINE
  5
318
330
1F
100
AcDbEntity
  8
0
  6
Continuous
 62
     7
370
    15
100
AcDbLine
 10
94.9986555778
 20
87.0629531949
 30
0.0
 11
94.098655244
 21
87.0629531949
 31
0.0
  0
LINE
  5
319
330
1F
100
AcDbEntity
  8
0
  6
Continuous
 62
     7
370
    15
100
AcDbLine
 10
181.1986581587
 20
97.4129528424
 30
0.0
 11
178.4986580886
 21
97.4129528424
 31
0.0
  0
LINE
  5
31A
330
1F
100
AcDbEntity
  8
0
  6
Continuous
 62
     7
370
    15
100
AcDbLine
 10
178.4986580886
 20
91.9129528722
 30
0.0
 11
181.1986581587
 21
91.9129528722
 31
0.0
  0
LINE
  5
31B
330
1F
100
AcDbEntity
  8
0
  6
Continuous
 62
     7
370
    15
100
AcDbLine
 10
181.1986581587
 20
91.9129528722
 30
0.0
 11
181.4986581147
 21
92.4129529542
 31
0.0
  0
LINE
  5
31C
330
1F
100
AcDbEntity
  8
0
  6
Continuous
 62
     7
370
    15
100
AcDbLine
 10
181.4986581147
 20
96.9129527605
 30
0.0
 11
181.1986581587
 21
97.4129528424
 31
0.0
  0
LINE
  5
31D
330
1F
100
AcDbEntity
  8
0
  6
Continuous
 62
     7
370
    15
100
AcDbLine
 10
181.1986581587
 20
77.4129532895
 30
0.0
 11
178.4986580886
 21
77.4129532895
 31
0.0
  0
LINE
  5
31E
330
1F
100
AcDbEntity
  8
0
  6
Continuous
 62
     7
370
    15
100
AcDbLine
 10
178.4986580886
 20
71.9129533193
 30
0.0
 11
181.1986581587
 21
71.9129533193
 31
0.0
  0
LINE
  5
31F
330
1F
100
AcDbEntity
  8
0
  6
Continuous
 62
     7
370
    15
100
AcDbLine
 10
181.1986581587
 20
71.9129533193
 30
0.0
 11
181.4986581147
 21
72.4129534012
 31
0.0
  0
LINE
  5
320
330
1F
100
AcDbEntity
  8
0
  6
Continuous
 62
     7
370
    15
100
AcDbLine
 10
181.4986581147
 20
76.9129532075
 30
0.0
 11
181.1986581587
 21
77.4129532895
 31
0.0
  0
SPLINE
  5
321
330
1F
100
AcDbEntity
  8
0
  6
Continuous
 62
     7
370
    15
100
AcDbSpline
210
0.0
220
0.0
230
1.0
 70
     8
 71
     3
 72
    15
 73
    11
 74
     0
 42
0.00000001
 43
0.00000001
 12
1.0
 22
0.0
 32
0.0
 13
1.0
 23
0.0
 33
0.0
 40
0.0
 40
0.0
 40
0.0
 40
0.0
 40
0.1212258224921532
 40
0.2487264478951261
 40
0.3796040806113289
 40
0.5108475516082818
 40
0.63986370038098
 40
0.7648474770852369
 40
0.8849123429376806
 40
0.9999999999999999
 40
0.9999999999999999
 40
0.9999999999999999
 40
0.9999999999999999
 10
184.9986582227513
 20
70.70158577176566
 30
0.0
 10
185.1505767044069
 20
70.71453378689925
 30
0.0
 10
185.4622771617436
 20
70.7411000229145
 30
0.0
 10
185.9262477000504
 20
70.88842568507728
 30
0.0
 10
186.363817147142
 20
71.11801979448198
 30
0.0
 10
186.7439992387946
 20
71.42842114547325
 30
0.0
 10
187.0452340438351
 20
71.8002854633303
 30
0.0
 10
187.2549478023127
 20
72.21384957116777
 30
0.0
 10
187.380236678471
 20
72.6485228787398
 30
0.0
 10
187.3924865533399
 20
72.94628394179544
 30
0.0
 10
187.3984818511173
 20
73.09201328667636
 30
0.0
  0
SPLINE
  5
322
330
1F
100
AcDbEntity
  8
0
  6
Continuous
 62
     7
370
    15
100
AcDbSpline
210
0.0
220
0.0
230
1.0
 70
     8
 71
     3
 72
    15
 73
    11
 74
     0
 42
0.00000001
 43
0.00000001
 12
1.0
 22
0.0
 32
0.0
 13
1.0
 23
0.0
 33
0.0
 40
0.0
 40
0.0
 40
0.0
 40
0.0
 40
0.1150876570623193
 40
0.235152522914763
 40
0.36013629961902
 40
0.4891524483917182
 40
0.6203959193886712
 40
0.751273552104874
 40
0.8787741775078469
 40
1.0
 40
1.0
 40
1.0
 40
1.0
 10
187.3984818511173
 20
96.23389287504192
 30
0.0
 10
187.3924865533399
 20
96.37962221992281
 30
0.0
 10
187.380236678471
 20
96.67738328297848
 30
0.0
 10
187.2549478023127
 20
97.11205659055048
 30
0.0
 10
187.0452340438351
 20
97.52562069838798
 30
0.0
 10
186.7439992387946
 20
97.89748501624503
 30
0.0
 10
186.363817147142
 20
98.20788636723628
 30
0.0
 10
185.9262477000504
 20
98.43748047664099
 30
0.0
 10
185.4622771617436
 20
98.58480613880377
 30
0.0
 10
185.1505767044069
 20
98.61137237481901
 30
0.0
 10
184.9986582227513
 20
98.62432038995262
 30
0.0
  0
LINE
  5
323
330
1F
100
AcDbEntity
  8
0
  6
Continuous
 62
     7
370
    15
100
AcDbLine
 10
103.1238266431
 20
96.1629531032
 30
0.0
 11
102.8986551963
 21
95.7729533932
 31
0.0
  0
LINE
  5
324
330
1F
100
AcDbEntity
  8
0
  6
Continuous
 62
     7
370
    15
100
AcDbLine
 10
102.8986551963
 20
92.5529530889
 30
0.0
 11
103.1238266431
 21
92.1629529132
 31
0.0
  0
LINE
  5
325
330
1F
100
AcDbEntity
  8
0
  6
Continuous
 62
     7
370
    15
100
AcDbLine
 10
103.1238266431
 20
92.1629529132
 30
0.0
 11
103.9986589157
 21
92.1629529132
 31
0.0
  0
LINE
  5
326
330
1F
100
AcDbEntity
  8
0
  6
Continuous
 62
     7
370
    15
100
AcDbLine
 10
103.9986589157
 20
96.1629531032
 30
0.0
 11
103.1238266431
 21
96.1629531032
 31
0.0
  0
LINE
  5
327
330
1F
100
AcDbEntity
  8
0
  6
Continuous
 62
     7
370
    15
100
AcDbLine
 10
179.5986580827
 20
97.4129528424
 30
0.0
 11
178.4986580886
 21
97.4129528424
 31
0.0
  0
LINE
  5
328
330
1F
100
AcDbEntity
  8
0
  6
Continuous
 62
     7
370
    15
100
AcDbLine
 10
178.4986580886
 20
91.9129528722
 30
0.0
 11
179.5986580827
 21
91.9129528722
 31
0.0
  0
LINE
  5
329
330
1F
100
AcDbEntity
  8
0
  6
Continuous
 62
     7
370
    15
100
AcDbLine
 10
103.9986589157
 20
90.662953133
 30
0.0
 11
104.3112629258
 21
90.1215012802
 31
0.0
  0
LINE
  5
32A
330
1F
100
AcDbEntity
  8
0
  6
Continuous
 62
     7
370
    15
100
AcDbLine
 10
104.3112629258
 20
98.2044047362
 30
0.0
 11
103.9986589157
 21
97.6629533491
 31
0.0
  0
LINE
  5
32B
330
1F
100
AcDbEntity
  8
0
  6
Continuous
 62
     7
370
    15
100
AcDbLine
 10
94.9986555778
 20
84.6629530809
 30
0.0
 11
94.9986555778
 21
88.6629532708
 31
0.0
  0
LINE
  5
32C
330
1F
100
AcDbEntity
  8
0
  6
Continuous
 62
     7
370
    15
100
AcDbLine
 10
94.9986555778
 20
80.6629528909
 30
0.0
 11
94.9986555778
 21
84.6629530809
 31
0.0
  0
LINE
  5
32D
330
1F
100
AcDbEntity
  8
0
  6
Continuous
 62
     7
370
    15
100
AcDbLine
 10
94.098655244
 20
80.8129531017
 30
0.0
 11
94.098655244
 21
88.51295306
 31
0.0
  0
LINE
  5
32E
330
1F
100
AcDbEntity
  8
0
  6
Continuous
 62
     7
370
    15
100
AcDbLine
 10
92.5986596548
 20
80.8129531017
 30
0.0
 11
92.5986596548
 21
88.51295306
 31
0.0
  0
LINE
  5
32F
330
1F
100
AcDbEntity
  8
0
  6
Continuous
 62
     7
370
    15
100
AcDbLine
 10
178.4986580886
 20
96.6629531852
 30
0.0
 11
176.8986582455
 21
96.6629531852
 31
0.0
  0
LINE
  5
330
330
1F
100
AcDbEntity
  8
0
  6
Continuous
 62
     7
370
    15
100
AcDbLine
 10
178.4986580886
 20
72.6629529766
 30
0.0
 11
178.4986580886
 21
96.6629531852
 31
0.0
  0
LINE
  5
331
330
1F
100
AcDbEntity
  8
0
  6
Continuous
 62
     7
370
    15
100
AcDbLine
 10
176.8986582455
 20
72.6629529766
 30
0.0
 11
178.4986580886
 21
72.6629529766
 31
0.0
  0
LINE
  5
332
330
1F
100
AcDbEntity
  8
0
  6
Continuous
 62
     7
370
    15
100
AcDbLine
 10
176.8986582455
 20
98.662953513
 30
0.0
 11
178.4986580886
 21
98.662953513
 31
0.0
  0
LINE
  5
333
330
1F
100
AcDbEntity
  8
0
  6
Continuous
 62
     7
370
    15
100
AcDbLine
 10
178.4986580886
 20
96.6629531852
 30
0.0
 11
178.4986580886
 21
98.662953513
 31
0.0
  0
LINE
  5
334
330
1F
100
AcDbEntity
  8
0
  6
Continuous
 62
     7
370
    15
100
AcDbLine
 10
176.8986582455
 20
70.6629526487
 30
0.0
 11
178.4986580886
 21
70.6629526487
 31
0.0
  0
LINE
  5
335
330
1F
100
AcDbEntity
  8
0
  6
Continuous
 62
     7
370
    15
100
AcDbLine
 10
178.4986580886
 20
70.6629526487
 30
0.0
 11
178.4986580886
 21
72.6629529766
 31
0.0
  0
LINE
  5
336
330
1F
100
AcDbEntity
  8
0
  6
Continuous
 62
     7
370
    15
100
AcDbLine
 10
181.1986581587
 20
97.4129528424
 30
0.0
 11
181.1986581587
 21
91.9129528722
 31
0.0
  0
LINE
  5
337
330
1F
100
AcDbEntity
  8
0
  6
Continuous
 62
     7
370
    15
100
AcDbLine
 10
181.4986581147
 20
96.9129527605
 30
0.0
 11
181.4986581147
 21
92.4129529542
 31
0.0
  0
LINE
  5
338
330
1F
100
AcDbEntity
  8
0
  6
Continuous
 62
     7
370
    15
100
AcDbLine
 10
181.1986581587
 20
77.4129532895
 30
0.0
 11
181.1986581587
 21
71.9129533193
 31
0.0
  0
LINE
  5
339
330
1F
100
AcDbEntity
  8
0
  6
Continuous
 62
     7
370
    15
100
AcDbLine
 10
181.4986581147
 20
76.9129532075
 30
0.0
 11
181.4986581147
 21
72.4129534012
 31
0.0
  0
SPLINE
  5
33A
330
1F
100
AcDbEntity
  8
0
  6
Continuous
 62
     7
370
    15
100
AcDbSpline
210
0.0
220
0.0
230
1.0
 70
    24
 71
     3
 72
    11
 73
     7
 74
     0
 42
0.00000001
 43
0.00000001
 12
1.0
 22
0.0
 32
0.0
 13
1.0
 23
0.0
 33
0.0
 40
0.0
 40
0.0
 40
0.0
 40
0.0
 40
0.3133618072204102
 40
0.6516791566984372
 40
0.9957126931829565
 40
1.0
 40
1.0
 40
1.0
 40
1.0
 10
178.4986585543022
 20
70.66295264872547
 30
0.0
 10
178.5255086604255
 20
70.66295264872547
 30
0.0
 10
178.581347164393
 20
70.66295264872548
 30
0.0
 10
178.9070292934585
 20
70.66295264872538
 30
0.0
 10
179.1643439332625
 20
70.66295264872562
 30
0.0
 10
179.2970250215711
 20
70.66295264872547
 30
0.0
 10
179.2986581266389
 20
70.66295264872547
 30
0.0
  0
SPLINE
  5
33B
330
1F
100
AcDbEntity
  8
0
  6
Continuous
 62
     7
370
    15
100
AcDbSpline
210
0.0
220
0.0
230
1.0
 70
    24
 71
     3
 72
    11
 73
     7
 74
     0
 42
0.00000001
 43
0.00000001
 12
1.0
 22
0.0
 32
0.0
 13
1.0
 23
0.0
 33
0.0
 40
0.0
 40
0.0
 40
0.0
 40
0.0
 40
0.0042868972112061
 40
0.3543730001178573
 40
0.7076561576196725
 40
1.0
 40
1.0
 40
1.0
 40
1.0
 10
179.2986581266389
 20
98.66295351299281
 30
0.0
 10
179.2970250241959
 20
98.66295351299281
 30
0.0
 10
179.1620258899307
 20
98.66295351299277
 30
0.0
 10
178.8967788068395
 20
98.66295351299283
 30
0.0
 10
178.5744060507655
 20
98.6629535129928
 30
0.0
 10
178.5222669784935
 20
98.66295351299281
 30
0.0
 10
178.4986580886409
 20
98.66295351299281
 30
0.0
  0
LINE
  5
33C
330
1F
100
AcDbEntity
  8
0
  6
Continuous
 62
     7
370
    15
100
AcDbLine
 10
184.9986582228
 20
70.7014926395
 30
0.0
 11
184.9986582228
 21
70.6629526487
 31
0.0
  0
LINE
  5
33D
330
1F
100
AcDbEntity
  8
0
  6
Continuous
 62
     7
370
    15
100
AcDbLine
 10
187.3986578711
 20
73.0629532284
 30
0.0
 11
184.9986582228
 21
73.0629532284
 31
0.0
  0
LINE
  5
33E
330
1F
100
AcDbEntity
  8
0
  6
Continuous
 62
     7
370
    15
100
AcDbLine
 10
187.3986578711
 20
96.2629529333
 30
0.0
 11
184.9986582228
 21
96.2629529333
 31
0.0
  0
LINE
  5
33F
330
1F
100
AcDbEntity
  8
0
  6
Continuous
 62
     7
370
    15
100
AcDbLine
 10
184.9986582228
 20
98.662953513
 30
0.0
 11
184.9986582228
 21
98.6242319143
 31
0.0
  0
LINE
  5
340
330
1F
100
AcDbEntity
  8
0
  6
Continuous
 62
     7
370
    15
100
AcDbLine
 10
184.9986582228
 20
96.2629529333
 30
0.0
 11
184.9986582228
 21
73.0629532284
 31
0.0
  0
LINE
  5
341
330
1F
100
AcDbEntity
  8
0
  6
Continuous
 62
     7
370
    15
100
AcDbLine
 10
184.9986582228
 20
98.662953513
 30
0.0
 11
179.2986581266
 21
98.662953513
 31
0.0
  0
LINE
  5
342
330
1F
100
AcDbEntity
  8
0
  6
Continuous
 62
     7
370
    15
100
AcDbLine
 10
179.2986581266
 20
70.6629526487
 30
0.0
 11
184.9986582228
 21
70.6629526487
 31
0.0
  0
LINE
  5
343
330
1F
100
AcDbEntity
  8
0
  6
Continuous
 62
     7
370
    15
100
AcDbLine
 10
187.3986578711
 20
73.0629532284
 30
0.0
 11
187.3986578711
 21
96.2629529333
 31
0.0
  0
LINE
  5
344
330
1F
100
AcDbEntity
  8
0
  6
Continuous
 62
     7
370
    15
100
AcDbLine
 10
102.8986551963
 20
93.0641299731
 30
0.0
 11
102.8986551963
 21
95.7729533932
 31
0.0
  0
LINE
  5
345
330
1F
100
AcDbEntity
  8
0
  6
Continuous
 62
     7
370
    15
100
AcDbLine
 10
102.8986551963
 20
92.5529530889
 30
0.0
 11
102.8986551963
 21
93.0641299731
 31
0.0
  0
LINE
  5
346
330
1F
100
AcDbEntity
  8
0
  6
Continuous
 62
     7
370
    15
100
AcDbLine
 10
103.1238266431
 20
92.7979561186
 30
0.0
 11
103.1238266431
 21
96.1629531032
 31
0.0
  0
LINE
  5
347
330
1F
100
AcDbEntity
  8
0
  6
Continuous
 62
     7
370
    15
100
AcDbLine
 10
103.1238266431
 20
92.1629529132
 30
0.0
 11
103.1238266431
 21
92.7979561186
 31
0.0
  0
LINE
  5
348
330
1F
100
AcDbEntity
  8
0
  6
Continuous
 62
     7
370
    15
100
AcDbLine
 10
179.5986580827
 20
97.4129528424
 30
0.0
 11
179.5986580827
 21
91.9129528722
 31
0.0
  0
LINE
  5
349
330
1F
100
AcDbEntity
  8
0
  6
Continuous
 62
     7
370
    15
100
AcDbLine
 10
107.1986609303
 20
90.1215012802
 30
0.0
 11
104.3112629258
 21
90.1215012802
 31
0.0
  0
SPLINE
  5
34A
330
1F
100
AcDbEntity
  8
0
  6
Continuous
 62
     7
370
    15
100
AcDbSpline
210
0.0
220
0.0
230
1.0
 70
     8
 71
     3
 72
    10
 73
     6
 74
     0
 42
0.00000001
 43
0.00000001
 12
1.0
 22
0.0
 32
0.0
 13
1.0
 23
0.0
 33
0.0
 40
0.0
 40
0.0
 40
0.0
 40
0.0
 40
0.0700365626465201
 40
0.5307571149786066
 40
1.0
 40
1.0
 40
1.0
 40
1.0
 10
103.9986589156554
 20
91.13186427044506
 30
0.0
 10
103.9990312176493
 20
91.10793365668776
 30
0.0
 10
104.0018526287055
 20
90.92658061711049
 30
0.0
 10
104.0701248102365
 20
90.58463142816628
 30
0.0
 10
104.2303939765514
 20
90.27681827908594
 30
0.0
 10
104.3112629257604
 20
90.12150128024454
 30
0.0
  0
SPLINE
  5
34B
330
1F
100
AcDbEntity
  8
0
  6
Continuous
 62
     7
370
    15
100
AcDbSpline
210
0.0
220
0.0
230
1.0
 70
     8
 71
     3
 72
     9
 73
     5
 74
     0
 42
0.00000001
 43
0.00000001
 12
1.0
 22
0.0
 32
0.0
 13
1.0
 23
0.0
 33
0.0
 40
0.0
 40
0.0
 40
0.0
 40
0.0
 40
0.4954578422127281
 40
1.0
 40
1.0
 40
1.0
 40
1.0
 10
104.3112629257605
 20
92.14222726064558
 30
0.0
 10
104.2238908722934
 20
91.9781398403248
 30
0.0
 10
104.047544781823
 20
91.64695642502559
 30
0.0
 10
104.0150525941401
 20
91.30459835156483
 30
0.0
 10
103.9986589156554
 20
91.13186427044506
 30
0.0
  0
LINE
  5
34C
330
1F
100
AcDbEntity
  8
0
  6
Continuous
 62
     7
370
    15
100
AcDbLine
 10
107.1986609303
 20
92.1422272606
 30
0.0
 11
104.3112629258
 21
92.1422272606
 31
0.0
  0
SPLINE
  5
34D
330
1F
100
AcDbEntity
  8
0
  6
Continuous
 62
     7
370
    15
100
AcDbSpline
210
0.0
220
0.0
230
1.0
 70
     8
 71
     3
 72
    10
 73
     6
 74
     0
 42
0.00000001
 43
0.00000001
 12
1.0
 22
0.0
 32
0.0
 13
1.0
 23
0.0
 33
0.0
 40
0.0
 40
0.0
 40
0.0
 40
0.0
 40
0.2572431768452554
 40
0.6263799428923559
 40
1.0
 40
1.0
 40
1.0
 40
1.0
 10
104.3112629257605
 20
92.14222726064558
 30
0.0
 10
104.2651964541519
 20
92.3119188798075
 30
0.0
 10
104.1530258838403
 20
92.72511322775281
 30
0.0
 10
104.0274631841515
 20
93.39950324710648
 30
0.0
 10
104.0082988971264
 20
93.90744761274948
 30
0.0
 10
103.9986589156554
 20
94.16295277538534
 30
0.0
  0
LINE
  5
34E
330
1F
100
AcDbEntity
  8
0
  6
Continuous
 62
     7
370
    15
100
AcDbLine
 10
103.9986589157
 20
94.1629527754
 30
0.0
 11
103.9986589157
 21
91.1318642704
 31
0.0
  0
SPLINE
  5
34F
330
1F
100
AcDbEntity
  8
0
  6
Continuous
 62
     7
370
    15
100
AcDbSpline
210
0.0
220
0.0
230
1.0
 70
     8
 71
     3
 72
    10
 73
     6
 74
     0
 42
0.00000001
 43
0.00000001
 12
1.0
 22
0.0
 32
0.0
 13
1.0
 23
0.0
 33
0.0
 40
0.0
 40
0.0
 40
0.0
 40
0.0
 40
0.2684068207404545
 40
0.6323733358689111
 40
1.0
 40
1.0
 40
1.0
 40
1.0
 10
103.9986589156554
 20
94.16295277538534
 30
0.0
 10
104.0037365562767
 20
94.34646461902338
 30
0.0
 10
104.0156996074735
 20
94.77882321711229
 30
0.0
 10
104.1184907415628
 20
95.45713535127156
 30
0.0
 10
104.2467915686976
 20
95.940691213527
 30
0.0
 10
104.3112629257605
 20
96.18367875578637
 30
0.0
  0
LINE
  5
350
330
1F
100
AcDbEntity
  8
0
  6
Continuous
 62
     7
370
    15
100
AcDbLine
 10
107.1986609303
 20
96.1836787558
 30
0.0
 11
104.3112629258
 21
96.1836787558
 31
0.0
  0
SPLINE
  5
351
330
1F
100
AcDbEntity
  8
0
  6
Continuous
 62
     7
370
    15
100
AcDbSpline
210
0.0
220
0.0
230
1.0
 70
     8
 71
     3
 72
    10
 73
     6
 74
     0
 42
0.00000001
 43
0.00000001
 12
1.0
 22
0.0
 32
0.0
 13
1.0
 23
0.0
 33
0.0
 40
0.0
 40
0.0
 40
0.0
 40
0.0
 40
0.0700362528189455
 40
0.5307569207574331
 40
1.0
 40
1.0
 40
1.0
 40
1.0
 10
103.9986589156553
 20
97.1940417459869
 30
0.0
 10
103.9990312194845
 20
97.17011129289276
 30
0.0
 10
104.0018526558975
 20
96.98875873496242
 30
0.0
 10
104.0701248253881
 20
96.64680855943145
 30
0.0
 10
104.230393977293
 20
96.33899564750486
 30
0.0
 10
104.3112629257605
 20
96.18367875578637
 30
0.0
  0
LINE
  5
352
330
1F
100
AcDbEntity
  8
0
  6
Continuous
 62
     7
370
    15
100
AcDbLine
 10
103.9986589157
 20
94.1629527754
 30
0.0
 11
103.9986589157
 21
97.194041746
 31
0.0
  0
SPLINE
  5
353
330
1F
100
AcDbEntity
  8
0
  6
Continuous
 62
     7
370
    15
100
AcDbSpline
210
0.0
220
0.0
230
1.0
 70
     8
 71
     3
 72
     9
 73
     5
 74
     0
 42
0.00000001
 43
0.00000001
 12
1.0
 22
0.0
 32
0.0
 13
1.0
 23
0.0
 33
0.0
 40
0.0
 40
0.0
 40
0.0
 40
0.0
 40
0.4954578422127281
 40
1.0
 40
1.0
 40
1.0
 40
1.0
 10
104.3112629257605
 20
98.20440473618741
 30
0.0
 10
104.2238908722934
 20
98.04031731586663
 30
0.0
 10
104.047544781823
 20
97.70913390056742
 30
0.0
 10
104.0150525941401
 20
97.36677582710666
 30
0.0
 10
103.9986589156554
 20
97.1940417459869
 30
0.0
  0
LINE
  5
354
330
1F
100
AcDbEntity
  8
0
  6
Continuous
 62
     7
370
    15
100
AcDbLine
 10
107.1986609303
 20
98.2044047362
 30
0.0
 11
104.3112629258
 21
98.2044047362
 31
0.0
  0
LINE
  5
355
330
1F
100
AcDbEntity
  8
0
  6
Continuous
 62
     7
370
    15
100
AcDbLine
 10
103.9986589157
 20
91.1318642704
 30
0.0
 11
103.9986589157
 21
90.662953133
 31
0.0
  0
LINE
  5
356
330
1F
100
AcDbEntity
  8
0
  6
Continuous
 62
     7
370
    15
100
AcDbLine
 10
103.9986589157
 20
97.6629533491
 30
0.0
 11
103.9986589157
 21
97.194041746
 31
0.0
  0
CIRCLE
  5
357
330
1F
100
AcDbEntity
  8
0
  6
Continuous
 62
     7
370
    15
100
AcDbCircle
 10
167.1986581885
 20
84.6629530809
 30
0.0
 40
2.0
  0
ARC
  5
358
330
1F
100
AcDbEntity
  8
0
  6
Continuous
 62
     7
370
    15
100
AcDbCircle
 10
167.1986581885
 20
84.6629530809
 30
0.0
 40
4.000000000000026
100
AcDbArc
 50
145.5884913302
 51
214.4115086698
  0
LINE
  5
359
330
1F
100
AcDbEntity
  8
0
  6
Continuous
 62
     7
370
    15
100
AcDbLine
 10
159.1986582779
 20
88.1270546618
 30
0.0
 11
159.1986582779
 21
81.1988515
 31
0.0
  0
LINE
  5
35A
330
1F
100
AcDbEntity
  8
0
  6
Continuous
 62
     7
370
    15
100
AcDbLine
 10
110.6986605727
 20
70.6629526487
 30
0.0
 11
110.6986605727
 21
98.662953513
 31
0.0
  0
LINE
  5
35B
330
1F
100
AcDbEntity
  8
0
  6
Continuous
 62
     7
370
    15
100
AcDbLine
 10
107.1986609303
 20
70.6629526487
 30
0.0
 11
110.6986605727
 21
70.6629526487
 31
0.0
  0
LINE
  5
35C
330
1F
100
AcDbEntity
  8
0
  6
Continuous
 62
     7
370
    15
100
AcDbLine
 10
107.1986609303
 20
70.6629526487
 30
0.0
 11
107.1986609303
 21
98.662953513
 31
0.0
  0
LINE
  5
35D
330
1F
100
AcDbEntity
  8
0
  6
Continuous
 62
     7
370
    15
100
AcDbLine
 10
107.1986609303
 20
98.662953513
 30
0.0
 11
110.6986605727
 21
98.662953513
 31
0.0
  0
LINE
  5
35E
330
1F
100
AcDbEntity
  8
0
  6
Continuous
 62
     7
370
    15
100
AcDbLine
 10
153.6865753286
 20
70.6629526487
 30
0.0
 11
153.6865753286
 21
98.662953513
 31
0.0
  0
LINE
  5
35F
330
1F
100
AcDbEntity
  8
0
  6
Continuous
 62
     7
370
    15
100
AcDbLine
 10
110.6986605727
 20
70.6629526487
 30
0.0
 11
153.6865753286
 21
70.6629526487
 31
0.0
  0
LINE
  5
360
330
1F
100
AcDbEntity
  8
0
  6
Continuous
 62
     7
370
    15
100
AcDbLine
 10
110.6986605727
 20
98.662953513
 30
0.0
 11
153.6865753286
 21
98.662953513
 31
0.0
  0
CIRCLE
  5
361
330
1F
100
AcDbEntity
  8
0
  6
Continuous
 62
     7
370
    15
100
AcDbCircle
 10
139.6986581885
 20
94.6629530809
 30
0.0
 40
1.649999999999977
  0
CIRCLE
  5
362
330
1F
100
AcDbEntity
  8
0
  6
Continuous
 62
     7
370
    15
100
AcDbCircle
 10
149.6986581885
 20
94.6629530809
 30
0.0
 40
1.649999999999977
  0
CIRCLE
  5
363
330
1F
100
AcDbEntity
  8
0
  6
Continuous
 62
     7
370
    15
100
AcDbCircle
 10
139.6986581885
 20
74.6629530809
 30
0.0
 40
1.649999999999991
  0
CIRCLE
  5
364
330
1F
100
AcDbEntity
  8
0
  6
Continuous
 62
     7
370
    15
100
AcDbCircle
 10
149.6986581885
 20
74.6629530809
 30
0.0
 40
1.649999999999991
  0
CIRCLE
  5
365
330
1F
100
AcDbEntity
  8
0
  6
Continuous
 62
     7
370
    15
100
AcDbCircle
 10
149.6986581885
 20
84.6629530809
 30
0.0
 40
1.649999999999991
  0
CIRCLE
  5
366
330
1F
100
AcDbEntity
  8
0
  6
Continuous
 62
     7
370
    15
100
AcDbCircle
 10
129.6986581885
 20
84.6629530809
 30
0.0
 40
1.649999999999991
  0
LINE
  5
367
330
1F
100
AcDbEntity
  8
0
  6
Continuous
 62
     7
370
    15
100
AcDbLine
 10
155.0541349851
 20
70.6629526487
 30
0.0
 11
155.0541349851
 21
98.662953513
 31
0.0
  0
LINE
  5
368
330
1F
100
AcDbEntity
  8
0
  6
Continuous
 62
     7
370
    15
100
AcDbLine
 10
153.6865753286
 20
70.6629526487
 30
0.0
 11
155.0541349851
 21
70.6629526487
 31
0.0
  0
LINE
  5
369
330
1F
100
AcDbEntity
  8
0
  6
Continuous
 62
     7
370
    15
100
AcDbLine
 10
153.6865753286
 20
98.662953513
 30
0.0
 11
155.0541349851
 21
98.662953513
 31
0.0
  0
LINE
  5
36A
330
1F
100
AcDbEntity
  8
0
  6
Continuous
 62
     7
370
    15
100
AcDbLine
 10
155.0541349851
 20
98.662953513
 30
0.0
 11
158.2113799803
 21
98.662953513
 31
0.0
  0
LINE
  5
36B
330
1F
100
AcDbEntity
  8
0
  6
Continuous
 62
     7
370
    15
100
AcDbLine
 10
158.2113799803
 20
87.3230592499
 30
0.0
 11
158.2113799803
 21
98.662953513
 31
0.0
  0
ARC
  5
36C
330
1F
100
AcDbEntity
  8
0
  6
Continuous
 62
     7
370
    15
100
AcDbCircle
 10
161.1986581885
 20
84.6629530809
 30
0.0
 40
4.000000000000012
100
AcDbArc
 50
138.3156370023
 51
221.6843629977
  0
LINE
  5
36D
330
1F
100
AcDbEntity
  8
0
  6
Continuous
 62
     7
370
    15
100
AcDbLine
 10
158.2113799803
 20
70.6629526487
 30
0.0
 11
158.2113799803
 21
82.0028469118
 31
0.0
  0
LINE
  5
36E
330
1F
100
AcDbEntity
  8
0
  6
Continuous
 62
     7
370
    15
100
AcDbLine
 10
155.0541349851
 20
70.6629526487
 30
0.0
 11
158.2113799803
 21
70.6629526487
 31
0.0
  0
LINE
  5
36F
330
1F
100
AcDbEntity
  8
0
  6
Continuous
 62
     7
370
    15
100
AcDbLine
 10
158.2113799803
 20
98.662953513
 30
0.0
 11
158.6021107786
 21
98.662953513
 31
0.0
  0
LINE
  5
370
330
1F
100
AcDbEntity
  8
0
  6
Continuous
 62
     7
370
    15
100
AcDbLine
 10
158.6021107786
 20
87.7056393458
 30
0.0
 11
158.6021107786
 21
98.662953513
 31
0.0
  0
SPLINE
  5
371
330
1F
100
AcDbEntity
  8
0
  6
Continuous
 62
     7
370
    15
100
AcDbSpline
210
0.0
220
0.0
230
1.0
 70
     8
 71
     3
 72
    10
 73
     6
 74
     0
 42
0.00000001
 43
0.00000001
 12
1.0
 22
0.0
 32
0.0
 13
1.0
 23
0.0
 33
0.0
 40
0.0
 40
0.0
 40
0.0
 40
0.0
 40
0.4937150385427715
 40
0.7461768085231779
 40
1.0
 40
1.0
 40
1.0
 40
1.0
 10
158.6021107785867
 20
87.7056393458211
 30
0.0
 10
158.5338163693191
 20
87.64500833293805
 30
0.0
 10
158.4305995329477
 20
87.5533735797733
 30
0.0
 10
158.3028081662333
 20
87.42359494429336
 30
0.0
 10
158.2419106276511
 20
87.35663117084228
 30
0.0
 10
158.2113799803423
 20
87.32305924991901
 30
0.0
  0
LINE
  5
372
330
1F
100
AcDbEntity
  8
0
  6
Continuous
 62
     7
370
    15
100
AcDbLine
 10
158.2113799803
 20
70.6629526487
 30
0.0
 11
158.6021107786
 21
70.6629526487
 31
0.0
  0
SPLINE
  5
373
330
1F
100
AcDbEntity
  8
0
  6
Continuous
 62
     7
370
    15
100
AcDbSpline
210
0.0
220
0.0
230
1.0
 70
     8
 71
     3
 72
    10
 73
     6
 74
     0
 42
0.00000001
 43
0.00000001
 12
1.0
 22
0.0
 32
0.0
 13
1.0
 23
0.0
 33
0.0
 40
0.0
 40
0.0
 40
0.0
 40
0.0
 40
0.4941693131587601
 40
0.7462474354110195
 40
1.0
 40
1.0
 40
1.0
 40
1.0
 10
158.2113799803423
 20
82.00284691179927
 30
0.0
 10
158.2716843193501
 20
81.93763509373126
 30
0.0
 10
158.362750189145
 20
81.83915841641459
 30
0.0
 10
158.4962971108525
 20
81.71252847927833
 30
0.0
 10
158.5667618033354
 20
81.65108849825013
 30
0.0
 10
158.6021107785867
 20
81.62026681589718
 30
0.0
  0
LINE
  5
374
330
1F
100
AcDbEntity
  8
0
  6
Continuous
 62
     7
370
    15
100
AcDbLine
 10
158.6021107786
 20
70.6629526487
 30
0.0
 11
158.6021107786
 21
81.6202668159
 31
0.0
  0
LINE
  5
375
330
1F
100
AcDbEntity
  8
0
  6
Continuous
 62
     7
370
    15
100
AcDbLine
 10
158.6021107786
 20
70.6629526487
 30
0.0
 11
164.8986579083
 21
70.6629526487
 31
0.0
  0
ARC
  5
376
330
1F
100
AcDbEntity
  8
0
  6
Continuous
 62
     7
370
    15
100
AcDbCircle
 10
161.1986581885
 20
84.6629530809
 30
0.0
 40
4.000000000000004
100
AcDbArc
 50
229.5234387067
 51
270.0
  0
LINE
  5
377
330
1F
100
AcDbEntity
  8
0
  6
Continuous
 62
     7
370
    15
100
AcDbLine
 10
161.1986586057
 20
80.6629528909
 30
0.0
 11
163.8986577444
 21
80.6629528909
 31
0.0
  0
LINE
  5
378
330
1F
100
AcDbEntity
  8
0
  6
Continuous
 62
     7
370
    15
100
AcDbLine
 10
163.8986577444
 20
88.6629532708
 30
0.0
 11
161.1986586057
 21
88.6629532708
 31
0.0
  0
LINE
  5
379
330
1F
100
AcDbEntity
  8
0
  6
Continuous
 62
     7
370
    15
100
AcDbLine
 10
158.6021107786
 20
98.662953513
 30
0.0
 11
164.8986579083
 21
98.662953513
 31
0.0
  0
ARC
  5
37A
330
1F
100
AcDbEntity
  8
0
  6
Continuous
 62
     7
370
    15
100
AcDbCircle
 10
161.1986581885
 20
84.6629530809
 30
0.0
 40
4.000000000000004
100
AcDbArc
 50
90.0
 51
130.4765612933
  0
LINE
  5
37B
330
1F
100
AcDbEntity
  8
0
  6
Continuous
 62
     7
370
    15
100
AcDbLine
 10
174.698658141
 20
98.662953513
 30
0.0
 11
174.698658141
 21
70.6629526487
 31
0.0
  0
LINE
  5
37C
330
1F
100
AcDbEntity
  8
0
  6
Continuous
 62
     7
370
    15
100
AcDbLine
 10
164.8986579083
 20
70.6629526487
 30
0.0
 11
174.698658141
 21
70.6629526487
 31
0.0
  0
LINE
  5
37D
330
1F
100
AcDbEntity
  8
0
  6
Continuous
 62
     7
370
    15
100
AcDbLine
 10
163.8986577444
 20
71.6629528126
 30
0.0
 11
164.8986579083
 21
70.6629526487
 31
0.0
  0
LINE
  5
37E
330
1F
100
AcDbEntity
  8
0
  6
Continuous
 62
     7
370
    15
100
AcDbLine
 10
163.8986577444
 20
97.6629533491
 30
0.0
 11
163.8986577444
 21
71.6629528126
 31
0.0
  0
LINE
  5
37F
330
1F
100
AcDbEntity
  8
0
  6
Continuous
 62
     7
370
    15
100
AcDbLine
 10
164.8986579083
 20
98.662953513
 30
0.0
 11
163.8986577444
 21
97.6629533491
 31
0.0
  0
LINE
  5
380
330
1F
100
AcDbEntity
  8
0
  6
Continuous
 62
     7
370
    15
100
AcDbLine
 10
164.8986579083
 20
98.662953513
 30
0.0
 11
174.698658141
 21
98.662953513
 31
0.0
  0
CIRCLE
  5
381
330
1F
100
AcDbEntity
  8
0
  6
Continuous
 62
     7
370
    15
100
AcDbCircle
 10
167.1986581885
 20
84.6629530809
 30
0.0
 40
2.100000000000009
  0
LINE
  5
382
330
1F
100
AcDbEntity
  8
0
  6
Continuous
 62
     7
370
    15
100
AcDbLine
 10
174.698658141
 20
98.662953513
 30
0.0
 11
176.8986582455
 21
98.662953513
 31
0.0
  0
LINE
  5
383
330
1F
100
AcDbEntity
  8
0
  6
Continuous
 62
     7
370
    15
100
AcDbLine
 10
176.8986582455
 20
98.662953513
 30
0.0
 11
176.8986582455
 21
70.6629526487
 31
0.0
  0
LINE
  5
384
330
1F
100
AcDbEntity
  8
0
  6
Continuous
 62
     7
370
    15
100
AcDbLine
 10
174.698658141
 20
70.6629526487
 30
0.0
 11
176.8986582455
 21
70.6629526487
 31
0.0
  0
LINE
  5
385
330
1F
100
AcDbEntity
  8
0
  6
Continuous
 62
     7
370
    15
100
AcDbLine
 10
128.1986587845
 20
83.9755667059
 30
0.0
 11
128.1986587845
 21
85.3503394558
 31
0.0
  0
LINE
  5
386
330
1F
100
AcDbEntity
  8
0
  6
Continuous
 62
     8
370
    15
100
AcDbLine
 10
179.2986581266
 20
71.9129533193
 30
0.0
 11
179.2986581266
 21
70.6629526487
 31
0.0
  0
LINE
  5
387
330
1F
100
AcDbEntity
  8
0
  6
Continuous
 62
     8
370
    15
100
AcDbLine
 10
179.2986581266
 20
91.9129528722
 30
0.0
 11
179.2986581266
 21
77.4129532895
 31
0.0
  0
LINE
  5
388
330
1F
100
AcDbEntity
  8
0
  6
Continuous
 62
     8
370
    15
100
AcDbLine
 10
179.2986581266
 20
98.662953513
 30
0.0
 11
179.2986581266
 21
97.4129528424
 31
0.0
  0
LINE
  5
389
330
1F
100
AcDbEntity
  8
0
  6
Continuous
 62
     8
370
    15
100
AcDbLine
 10
184.9986582228
 20
73.0629532284
 30
0.0
 11
184.9986582228
 21
70.7014926395
 31
0.0
  0
LINE
  5
38A
330
1F
100
AcDbEntity
  8
0
  6
Continuous
 62
     8
370
    15
100
AcDbLine
 10
184.9986582228
 20
98.6242319143
 30
0.0
 11
184.9986582228
 21
96.2629529333
 31
0.0
  0
LINE
  5
38B
330
1F
100
AcDbEntity
  8
0
  6
Continuous
 62
     8
370
    15
100
AcDbLine
 10
184.9986582228
 20
73.0629532284
 30
0.0
 11
181.4986581147
 21
73.0629532284
 31
0.0
  0
LINE
  5
38C
330
1F
100
AcDbEntity
  8
0
  6
Continuous
 62
     8
370
    15
100
AcDbLine
 10
184.9986582228
 20
96.2629529333
 30
0.0
 11
181.4986581147
 21
96.2629529333
 31
0.0
  0
LINE
  5
38D
330
1F
100
AcDbEntity
  8
0
  6
Continuous
 62
     8
370
    15
100
AcDbLine
 10
138.0486578845
 20
74.6629533044
 30
0.0
 11
141.3486578666
 21
74.6629533044
 31
0.0
  0
LINE
  5
38E
330
1F
100
AcDbEntity
  8
0
  6
Continuous
 62
     8
370
    15
100
AcDbLine
 10
148.048657661
 20
74.6629533044
 30
0.0
 11
151.3486576431
 21
74.6629533044
 31
0.0
  0
LINE
  5
38F
330
1F
100
AcDbEntity
  8
0
  6
Continuous
 62
     8
370
    15
100
AcDbLine
 10
151.3486576431
 20
94.6629528573
 30
0.0
 11
148.048657661
 21
94.6629528573
 31
0.0
  0
LINE
  5
390
330
1F
100
AcDbEntity
  8
0
  6
Continuous
 62
     8
370
    15
100
AcDbLine
 10
141.3486578666
 20
94.6629528573
 30
0.0
 11
138.0486578845
 21
94.6629528573
 31
0.0
  0
DIMENSION
  5
391
330
1F
100
AcDbEntity
  8
0
  6
Continuous
 62
     7
370
     0
100
AcDbDimension
  2
_D_18
 10
149.6986581885
 20
109.4663239377
 30
0.0
 11
128.4486581885
 21
109.4663239377
 31
0.0
 70
   160
  1
<>
 71
     2
 42
-1.0
  3
SLDDIMSTYLE0
100
AcDbAlignedDimension
 13
107.1986581885
 23
98.6629530809
 33
0.0
 14
149.6986581885
 24
98.8129530809
 34
0.0
100
AcDbRotatedDimension
  0
DIMENSION
  5
39B
330
1F
100
AcDbEntity
  8
0
  6
Continuous
 62
     7
370
     0
100
AcDbDimension
  2
_D_19
 10
149.6986581885
 20
102.9361694713
 30
0.0
 11
144.4238957345
 21
102.9361694713
 31
0.0
 70
   160
  1
<>
 71
     2
 42
-1.0
  3
SLDDIMSTYLE3
100
AcDbAlignedDimension
 13
139.6986581885
 23
98.8129530809
 33
0.0
 14
149.6986581885
 24
98.8129530809
 34
0.0
100
AcDbRotatedDimension
  0
DIMENSION
  5
3A7
330
1F
100
AcDbEntity
  8
0
  6
Continuous
 62
     7
370
     0
100
AcDbDimension
  2
_D_20
 10
187.3986581885
 20
109.4663239377
 30
0.0
 11
168.2082399693
 21
109.4663239377
 31
0.0
 70
   160
  1
<>
 71
     2
 42
-1.0
  3
SLDDIMSTYLE0
100
AcDbAlignedDimension
 13
149.6986581885
 23
98.8129530809
 33
0.0
 14
187.3986581885
 24
96.2629530809
 34
0.0
 50
0.0
100
AcDbRotatedDimension
  0
DIMENSION
  5
3B1
330
1F
100
AcDbEntity
  8
0
  6
Continuous
 62
     7
370
     0
100
AcDbDimension
  2
_D_21
 10
120.8855491555
 20
74.6629530809
 30
0.0
 11
120.8855491555
 21
84.8892854655
 31
0.0
 70
   160
  1
<>
 71
     2
 42
-1.0
  3
SLDDIMSTYLE0
100
AcDbAlignedDimension
 13
135.5486581885
 23
94.6629530809
 33
0.0
 14
135.5486581885
 24
74.6629530809
 34
0.0
 50
90.0
100
AcDbRotatedDimension
  0
DIMENSION
  5
3BB
330
1F
100
AcDbEntity
  8
0
  6
Continuous
 62
     7
370
     0
100
AcDbDimension
  2
_D_22
 10
149.6986581885
 20
63.1195290752
 30
0.0
 11
139.6986581885
 21
63.1195290752
 31
0.0
 70
   160
  1
<>
 71
     2
 42
-1.0
  3
SLDDIMSTYLE0
100
AcDbAlignedDimension
 13
129.6986581885
 23
80.5129530809
 33
0.0
 14
149.6986581885
 24
70.5129530809
 34
0.0
100
AcDbRotatedDimension
  0
DIMENSION
  5
3C5
330
1F
100
AcDbEntity
  8
0
  6
Continuous
 62
     7
370
     0
100
AcDbDimension
  2
_D_23
 10
107.1986581885
 20
54.6509703926
 30
0.0
 11
131.1263961393
 21
54.6509703926
 31
0.0
 70
   160
  1
<>
 71
     2
 42
-1.0
  3
SLDDIMSTYLE0
100
AcDbAlignedDimension
 13
155.0541340902
 23
70.6629530809
 33
0.0
 14
107.1986581885
 24
70.6629530809
 34
0.0
100
AcDbRotatedDimension
  0
MTEXT
  5
3CF
330
1F
100
AcDbEntity
  8
0
  6
Continuous
 62
     7
370
     0
100
AcDbMText
 10
60.2827988171
 20
98.551836767
 30
0.0
 40
3.5
 41
0.0
 71
     1
 72
     1
  1
ストローク調整
  7
SLDTEXTSTYLE0
 73
     1
 44
1.0
  0
LEADER
  5
3D0
330
1F
100
AcDbEntity
  8
0
  6
Continuous
 62
     7
370
     0
100
AcDbLeader
  3
SLDDIMSTYLE4
 76
     3
 10
102.8986581885
 20
94.1513319992
 30
0.0
 10
88.7766705744
 20
94.1383352872
 30
0.0
 10
60.2579132474
 20
94.1383352872
 30
0.0
  0
MTEXT
  5
3D1
330
1F
100
AcDbEntity
  8
0
  6
Continuous
 62
     7
370
     0
100
AcDbMText
 10
65.0352885521
 20
113.967310295
 30
0.0
 40
3.5
 41
0.0
 71
     1
 72
     1
  1
6-M4 取付用
  7
SLDTEXTSTYLE0
 73
     1
 44
1.0
  0
LEADER
  5
3D3
330
1F
100
AcDbEntity
  8
0
  6
Continuous
 62
     7
370
     0
100
AcDbLeader
  3
SLDDIMSTYLE5
 76
     3
 10
138.4938423233
 20
95.790303395
 30
0.0
 10
92.5281359906
 20
109.3786635404
 30
0.0
 10
64.9472450176
 20
109.3786635404
 30
0.0
  0
INSERT
  5
3DF
330
1F
100
AcDbEntity
  8
0
  6
Continuous
 62
     7
370
     0
100
AcDbBlockReference
  2
SW_CENTERMARKSYMBOL_6
 10
129.6986581885
 20
84.6629530809
 30
0.0
  0
INSERT
  5
3EB
330
1F
100
AcDbEntity
  8
0
  6
Continuous
 62
     7
370
     0
100
AcDbBlockReference
  2
SW_CENTERMARKSYMBOL_7
 10
139.6986581885
 20
94.6629530809
 30
0.0
  0
INSERT
  5
3F7
330
1F
100
AcDbEntity
  8
0
  6
Continuous
 62
     7
370
     0
100
AcDbBlockReference
  2
SW_CENTERMARKSYMBOL_8
 10
139.6986581885
 20
74.6629530809
 30
0.0
  0
INSERT
  5
403
330
1F
100
AcDbEntity
  8
0
  6
Continuous
 62
     7
370
     0
100
AcDbBlockReference
  2
SW_CENTERMARKSYMBOL_9
 10
149.6986581885
 20
74.6629530809
 30
0.0
  0
INSERT
  5
40F
330
1F
100
AcDbEntity
  8
0
  6
Continuous
 62
     7
370
     0
100
AcDbBlockReference
  2
SW_CENTERMARKSYMBOL_10
 10
149.6986581885
 20
84.6629530809
 30
0.0
  0
INSERT
  5
41B
330
1F
100
AcDbEntity
  8
0
  6
Continuous
 62
     7
370
     0
100
AcDbBlockReference
  2
SW_CENTERMARKSYMBOL_11
 10
149.6986581885
 20
94.6629530809
 30
0.0
  0
LINE
  5
41C
330
1F
100
AcDbEntity
  8
0
  6
CENTERX2
 62
     7
370
     0
100
AcDbLine
 10
90.5986581885
 20
84.6629530809
 30
0.0
 11
112.1986581885
 21
84.6629530809
 31
0.0
  0
LINE
  5
41D
330
1F
100
AcDbEntity
  8
0
  6
CENTERX2
 62
     7
370
     0
100
AcDbLine
 10
92.9986581885
 20
84.6629530809
 30
0.0
 11
109.1986581885
 21
84.6629530809
 31
0.0
  0
LINE
  5
41E
330
1F
100
AcDbEntity
  8
0
  6
CENTERX2
 62
     7
370
     0
100
AcDbLine
 10
109.1986581885
 20
94.1629530809
 30
0.0
 11
102.3112655796
 21
94.1629530809
 31
0.0
  0
ENDSEC
  0
SECTION
  2
OBJECTS
  0
DICTIONARY
  5
C
330
0
100
AcDbDictionary
281
     1
  3
ACAD_GROUP
350
D
  3
ACAD_LAYOUT
350
1A
  3
ACAD_MLINESTYLE
350
17
  3
ACAD_PLOTSETTINGS
350
19
  3
ACAD_PLOTSTYLENAME
350
E
  0
DICTIONARY
  5
D
102
{ACAD_REACTORS
330
C
102
}
330
C
100
AcDbDictionary
281
     1
  0
DICTIONARY
  5
1A
102
{ACAD_REACTORS
330
C
102
}
330
C
100
AcDbDictionary
281
     1
  3
Layout1
350
1E
  3
Layout2
350
26
  3
Model
350
22
  0
DICTIONARY
  5
17
102
{ACAD_REACTORS
330
C
102
}
330
C
100
AcDbDictionary
281
     1
  3
Standard
350
18
  0
DICTIONARY
  5
19
102
{ACAD_REACTORS
330
C
102
}
330
C
100
AcDbDictionary
281
     1
  0
ACDBDICTIONARYWDFLT
  5
E
102
{ACAD_REACTORS
330
C
102
}
330
C
100
AcDbDictionary
281
     1
  3
Normal
350
F
100
AcDbDictionaryWithDefault
340
F
  0
LAYOUT
  5
1E
102
{ACAD_REACTORS
330
1A
102
}
330
1A
100
AcDbPlotSettings
  1

  2
none_device
  4

  6

 40
0.0
 41
0.0
 42
0.0
 43
0.0
 44
0.0
 45
0.0
 46
0.0
 47
0.0
 48
0.0
 49
0.0
140
0.0
141
0.0
142
1.0
143
1.0
 70
   688
 72
     0
 73
     0
 74
     5
  7

 75
    16
147
1.0
148
0.0
149
0.0
100
AcDbLayout
  1
Layout1
 70
     1
 71
     1
 10
0.0
 20
0.0
 11
420.0
 21
297.0
 12
0.0
 22
0.0
 32
0.0
 14
1.0000000000E+20
 24
1.0000000000E+20
 34
1.0000000000E+20
 15
-1.0000000000E+20
 25
-1.0000000000E+20
 35
-1.0000000000E+20
146
0.0
 13
0.0
 23
0.0
 33
0.0
 16
1.0
 26
0.0
 36
0.0
 17
0.0
 27
1.0
 37
0.0
 76
     0
330
1B
  0
LAYOUT
  5
26
102
{ACAD_REACTORS
330
1A
102
}
330
1A
100
AcDbPlotSettings
  1

  2
none_device
  4

  6

 40
0.0
 41
0.0
 42
0.0
 43
0.0
 44
0.0
 45
0.0
 46
0.0
 47
0.0
 48
0.0
 49
0.0
140
0.0
141
0.0
142
1.0
143
1.0
 70
   688
 72
     0
 73
     0
 74
     5
  7

 75
    16
147
1.0
148
0.0
149
0.0
100
AcDbLayout
  1
Layout2
 70
     1
 71
     2
 10
0.0
 20
0.0
 11
0.0
 21
0.0
 12
0.0
 22
0.0
 32
0.0
 14
0.0
 24
0.0
 34
0.0
 15
0.0
 25
0.0
 35
0.0
146
0.0
 13
0.0
 23
0.0
 33
0.0
 16
1.0
 26
0.0
 36
0.0
 17
0.0
 27
1.0
 37
0.0
 76
     0
330
23
  0
LAYOUT
  5
22
102
{ACAD_REACTORS
330
1A
102
}
330
1A
100
AcDbPlotSettings
  1

  2
none_device
  4

  6

 40
0.0
 41
0.0
 42
0.0
 43
0.0
 44
0.0
 45
0.0
 46
0.0
 47
0.0
 48
0.0
 49
0.0
140
0.0
141
0.0
142
1.0
143
1.0
 70
  1712
 72
     0
 73
     0
 74
     0
  7

 75
     0
147
1.0
148
0.0
149
0.0
100
AcDbLayout
  1
Model
 70
     1
 71
     0
 10
0.0
 20
0.0
 11
210.0
 21
297.0
 12
0.0
 22
0.0
 32
0.0
 14
0.0
 24
0.0
 34
0.0
 15
210.0
 25
297.0
 35
0.0
146
0.0
 13
0.0
 23
0.0
 33
0.0
 16
1.0
 26
0.0
 36
0.0
 17
0.0
 27
1.0
 37
0.0
 76
     0
330
1F
331
29
  0
MLINESTYLE
  5
18
102
{ACAD_REACTORS
330
17
102
}
330
17
100
AcDbMlineStyle
  2
Standard
 70
     0
  3

 62
   256
 51
90.0
 52
90.0
 71
     2
 49
0.5
 62
   256
  6
BYLAYER
 49
-0.5
 62
   256
  6
BYLAYER
  0
ACDBPLACEHOLDER
  5
F
102
{ACAD_REACTORS
330
E
102
}
330
E
  0
ENDSEC
  0
EOF
