  0
SECTION
  2
HEADER
  9
$ACADVER
  1
AC1015
  9
$ACADMAINTVER
 70
     6
  9
$DWGCODEPAGE
  3
DOS932
  9
$INSBASE
 10
0.0
 20
0.0
 30
0.0
  9
$EXTMIN
 10
0.0
 20
0.0
 30
0.0
  9
$EXTMAX
 10
210.0
 20
297.0
 30
0.0
  9
$LIMMIN
 10
0.0
 20
0.0
  9
$LIMMAX
 10
210.0
 20
297.0
  9
$ORTHOMODE
 70
     0
  9
$REGENMODE
 70
     1
  9
$FILLMODE
 70
     1
  9
$QTEXTMODE
 70
     0
  9
$MIRRTEXT
 70
     1
  9
$LTSCALE
 40
1.0
  9
$ATTMODE
 70
     1
  9
$TEXTSIZE
 40
3.5
  9
$TRACEWID
 40
1.0
  9
$TEXTSTYLE
  7
Standard
  9
$CLAYER
  8
0
  9
$CELTYPE
  6
ByLayer
  9
$CECOLOR
 62
   256
  9
$CELTSCALE
 40
1.0
  9
$DISPSILH
 70
     0
  9
$DIMSCALE
 40
1.0
  9
$DIMASZ
 40
3.302
  9
$DIMEXO
 40
1.0
  9
$DIMDLI
 40
3.75
  9
$DIMRND
 40
0.0
  9
$DIMDLE
 40
0.0
  9
$DIMEXE
 40
1.0
  9
$DIMTP
 40
0.0
  9
$DIMTM
 40
0.0
  9
$DIMTXT
 40
3.5
  9
$DIMCEN
 40
2.5
  9
$DIMTSZ
 40
0.0
  9
$DIMTOL
 70
     0
  9
$DIMLIM
 70
     0
  9
$DIMTIH
 70
     1
  9
$DIMTOH
 70
     1
  9
$DIMSE1
 70
     0
  9
$DIMSE2
 70
     0
  9
$DIMTAD
 70
     1
  9
$DIMZIN
 70
     0
  9
$DIMBLK
  1

  9
$DIMASO
 70
     1
  9
$DIMSHO
 70
     1
  9
$DIMPOST
  1

  9
$DIMAPOST
  1

  9
$DIMALT
 70
     0
  9
$DIMALTD
 70
     3
  9
$DIMALTF
 40
0.0393700787
  9
$DIMLFAC
 40
1.0
  9
$DIMTOFL
 70
     1
  9
$DIMTVP
 40
0.0
  9
$DIMTIX
 70
     0
  9
$DIMSOXD
 70
     0
  9
$DIMSAH
 70
     0
  9
$DIMBLK1
  1

  9
$DIMBLK2
  1

  9
$DIMSTYLE
  2
ISO-25
  9
$DIMCLRD
 70
     0
  9
$DIMCLRE
 70
     0
  9
$DIMCLRT
 70
     0
  9
$DIMTFAC
 40
1.0
  9
$DIMGAP
 40
1.524
  9
$DIMJUST
 70
     0
  9
$DIMSD1
 70
     0
  9
$DIMSD2
 70
     0
  9
$DIMTOLJ
 70
     0
  9
$DIMTZIN
 70
     0
  9
$DIMALTZ
 70
     0
  9
$DIMALTTZ
 70
     0
  9
$DIMUPT
 70
     0
  9
$DIMDEC
 70
     2
  9
$DIMTDEC
 70
     2
  9
$DIMALTU
 70
     2
  9
$DIMALTTD
 70
     3
  9
$DIMTXSTY
  7
Standard
  9
$DIMAUNIT
 70
     0
  9
$DIMADEC
 70
     2
  9
$DIMALTRND
 40
0.0
  9
$DIMAZIN
 70
     0
  9
$DIMDSEP
 70
    44
  9
$DIMATFIT
 70
     3
  9
$DIMFRAC
 70
     0
  9
$DIMLDRBLK
  1

  9
$DIMLUNIT
 70
     2
  9
$DIMLWD
 70
    -2
  9
$DIMLWE
 70
    -2
  9
$DIMTMOVE
 70
     0
  9
$LUNITS
 70
     2
  9
$LUPREC
 70
     2
  9
$SKETCHINC
 40
1.0
  9
$FILLETRAD
 40
10.0
  9
$AUNITS
 70
     0
  9
$AUPREC
 70
     2
  9
$MENU
  1
.
  9
$ELEVATION
 40
0.0
  9
$PELEVATION
 40
0.0
  9
$THICKNESS
 40
0.0
  9
$LIMCHECK
 70
     0
  9
$CHAMFERA
 40
10.0
  9
$CHAMFERB
 40
10.0
  9
$CHAMFERC
 40
20.0
  9
$CHAMFERD
 40
0.0
  9
$SKPOLY
 70
     0
  9
$TDCREATE
 40
2456892.63531162
  9
$TDUCREATE
 40
2456892.26031162
  9
$TDUPDATE
 40
2456892.635315232
  9
$TDUUPDATE
 40
2456892.260315232
  9
$TDINDWG
 40
0.0000000116
  9
$TDUSRTIMER
 40
0.0000000116
  9
$USRTIMER
 70
     1
  9
$ANGBASE
 50
0.0
  9
$ANGDIR
 70
     0
  9
$PDMODE
 70
     0
  9
$PDSIZE
 40
-1.0
  9
$PLINEWID
 40
0.0
  9
$SPLFRAME
 70
     0
  9
$SPLINETYPE
 70
     6
  9
$SPLINESEGS
 70
     8
  9
$HANDSEED
  5
4A6
  9
$SURFTAB1
 70
     6
  9
$SURFTAB2
 70
     6
  9
$SURFTYPE
 70
     6
  9
$SURFU
 70
     6
  9
$SURFV
 70
     6
  9
$UCSBASE
  2

  9
$UCSNAME
  2

  9
$UCSORG
 10
0.0
 20
0.0
 30
0.0
  9
$UCSXDIR
 10
1.0
 20
0.0
 30
0.0
  9
$UCSYDIR
 10
0.0
 20
1.0
 30
0.0
  9
$UCSORTHOREF
  2

  9
$UCSORTHOVIEW
 70
     0
  9
$UCSORGTOP
 10
0.0
 20
0.0
 30
0.0
  9
$UCSORGBOTTOM
 10
0.0
 20
0.0
 30
0.0
  9
$UCSORGLEFT
 10
0.0
 20
0.0
 30
0.0
  9
$UCSORGRIGHT
 10
0.0
 20
0.0
 30
0.0
  9
$UCSORGFRONT
 10
0.0
 20
0.0
 30
0.0
  9
$UCSORGBACK
 10
0.0
 20
0.0
 30
0.0
  9
$PUCSBASE
  2

  9
$PUCSNAME
  2

  9
$PUCSORG
 10
0.0
 20
0.0
 30
0.0
  9
$PUCSXDIR
 10
1.0
 20
0.0
 30
0.0
  9
$PUCSYDIR
 10
0.0
 20
1.0
 30
0.0
  9
$PUCSORTHOREF
  2

  9
$PUCSORTHOVIEW
 70
     0
  9
$PUCSORGTOP
 10
0.0
 20
0.0
 30
0.0
  9
$PUCSORGBOTTOM
 10
0.0
 20
0.0
 30
0.0
  9
$PUCSORGLEFT
 10
0.0
 20
0.0
 30
0.0
  9
$PUCSORGRIGHT
 10
0.0
 20
0.0
 30
0.0
  9
$PUCSORGFRONT
 10
0.0
 20
0.0
 30
0.0
  9
$PUCSORGBACK
 10
0.0
 20
0.0
 30
0.0
  9
$USERI1
 70
     0
  9
$USERI2
 70
     0
  9
$USERI3
 70
     0
  9
$USERI4
 70
     0
  9
$USERI5
 70
     0
  9
$USERR1
 40
0.0
  9
$USERR2
 40
0.0
  9
$USERR3
 40
0.0
  9
$USERR4
 40
0.0
  9
$USERR5
 40
0.0
  9
$WORLDVIEW
 70
     1
  9
$SHADEDGE
 70
     3
  9
$SHADEDIF
 70
    70
  9
$TILEMODE
 70
     1
  9
$MAXACTVP
 70
    64
  9
$PINSBASE
 10
0.0
 20
0.0
 30
0.0
  9
$PLIMCHECK
 70
     0
  9
$PEXTMIN
 10
1.0000000000E+20
 20
1.0000000000E+20
 30
1.0000000000E+20
  9
$PEXTMAX
 10
-1.0000000000E+20
 20
-1.0000000000E+20
 30
-1.0000000000E+20
  9
$PLIMMIN
 10
0.0
 20
0.0
  9
$PLIMMAX
 10
420.0
 20
297.0
  9
$UNITMODE
 70
     0
  9
$VISRETAIN
 70
     1
  9
$PLINEGEN
 70
     0
  9
$PSLTSCALE
 70
     1
  9
$TREEDEPTH
 70
  3020
  9
$CMLSTYLE
  2
Standard
  9
$CMLJUST
 70
     0
  9
$CMLSCALE
 40
20.0
  9
$PROXYGRAPHICS
 70
     1
  9
$MEASUREMENT
 70
     1
  9
$CELWEIGHT
370
    -1
  9
$ENDCAPS
280
     0
  9
$JOINSTYLE
280
     0
  9
$LWDISPLAY
290
     1
  9
$INSUNITS
 70
     4
  9
$HYPERLINKBASE
  1

  9
$STYLESHEET
  1

  9
$XEDIT
290
     1
  9
$CEPSNTYPE
380
     0
  9
$PSTYLEMODE
290
     1
  9
$FINGERPRINTGUID
  2
{0CAB9760-F1C8-4030-9DA5-4D81DD316724}
  9
$VERSIONGUID
  2
{FAEB1C32-E019-11D5-929B-00C0DF256EC4}
  9
$EXTNAMES
290
     1
  9
$PSVPSCALE
 40
0.0
  9
$OLESTARTUP
290
     0
  0
ENDSEC
  0
SECTION
  2
CLASSES
  0
CLASS
  1
ACDBDICTIONARYWDFLT
  2
AcDbDictionaryWithDefault
  3
ObjectDBX Classes
 90
        0
280
     0
281
     0
  0
CLASS
  1
VISUALSTYLE
  2
AcDbVisualStyle
  3
ObjectDBX Classes
 90
     4095
280
     0
281
     0
  0
CLASS
  1
MATERIAL
  2
AcDbMaterial
  3
ObjectDBX Classes
 90
     1153
280
     0
281
     0
  0
CLASS
  1
ACDBPLACEHOLDER
  2
AcDbPlaceHolder
  3
ObjectDBX Classes
 90
        0
280
     0
281
     0
  0
CLASS
  1
LAYOUT
  2
AcDbLayout
  3
ObjectDBX Classes
 90
        0
280
     0
281
     0
  0
ENDSEC
  0
SECTION
  2
TABLES
  0
TABLE
  2
VPORT
  5
8
330
0
100
AcDbSymbolTable
 70
     1
  0
VPORT
  5
29
330
8
100
AcDbSymbolTableRecord
100
AcDbViewportTableRecord
  2
*Active
 70
     0
 10
0.0
 20
0.0
 11
1.0
 21
1.0
 12
105.0
 22
148.5
 13
0.0
 23
0.0
 14
10.0
 24
10.0
 15
10.0
 25
10.0
 16
0.0
 26
0.0
 36
1.0
 17
0.0
 27
0.0
 37
0.0
 40
297.0
 41
0.7070707071
 42
50.0
 43
0.0
 44
0.0
 50
0.0
 51
0.0
 71
     0
 72
  2000
 73
     1
 74
     3
 75
     0
 76
     0
 77
     0
 78
     0
281
     0
 65
     1
110
0.0
120
0.0
130
0.0
111
1.0
121
0.0
131
0.0
112
0.0
122
1.0
132
0.0
 79
     0
146
0.0
  0
ENDTAB
  0
TABLE
  2
LTYPE
  5
5
330
0
100
AcDbSymbolTable
 70
     6
  0
LTYPE
  5
14
330
5
100
AcDbSymbolTableRecord
100
AcDbLinetypeTableRecord
  2
ByBlock
 70
     0
  3

 72
    65
 73
     0
 40
0.0
  0
LTYPE
  5
15
330
5
100
AcDbSymbolTableRecord
100
AcDbLinetypeTableRecord
  2
ByLayer
 70
     0
  3

 72
    65
 73
     0
 40
0.0
  0
LTYPE
  5
16
330
5
100
AcDbSymbolTableRecord
100
AcDbLinetypeTableRecord
  2
Continuous
 70
     0
  3
Solid line
 72
    65
 73
     0
 40
0.0
  0
LTYPE
  5
3F
330
5
100
AcDbSymbolTableRecord
100
AcDbLinetypeTableRecord
  2
HIDDEN
 70
     0
  3
Hidden __ __ __ __ __ __ __ __ __ __ __ __ __ __
 72
    65
 73
     2
 40
1.905
 49
1.27
 74
     0
 49
-0.635
 74
     0
  0
LTYPE
  5
40
330
5
100
AcDbSymbolTableRecord
100
AcDbLinetypeTableRecord
  2
PHANTOM
 70
     0
  3
Phantom ______  __  __  ______  __  __  ______
 72
    65
 73
     6
 40
12.7
 49
6.35
 74
     0
 49
-1.27
 74
     0
 49
1.27
 74
     0
 49
-1.27
 74
     0
 49
1.27
 74
     0
 49
-1.27
 74
     0
  0
LTYPE
  5
41
330
5
100
AcDbSymbolTableRecord
100
AcDbLinetypeTableRecord
  2
CENTER
 70
     0
  3
Center ____ _ ____ _ ____ _ ____ _ ____ _ ____
 72
    65
 73
     4
 40
10.16
 49
6.35
 74
     0
 49
-1.27
 74
     0
 49
1.27
 74
     0
 49
-1.27
 74
     0
  0
LTYPE
  5
42
330
5
100
AcDbSymbolTableRecord
100
AcDbLinetypeTableRecord
  2
CENTERX2
 70
     0
  3
Center (2x) ________  __  ________  __  _____
 72
    65
 73
     4
 40
20.32
 49
12.7
 74
     0
 49
-2.54
 74
     0
 49
2.54
 74
     0
 49
-2.54
 74
     0
  0
LTYPE
  5
43
330
5
100
AcDbSymbolTableRecord
100
AcDbLinetypeTableRecord
  2
DOT2
 70
     0
  3
Dot (.5x) ........................................
 72
    65
 73
     2
 40
0.635
 49
0.0
 74
     0
 49
-0.635
 74
     0
  0
ENDTAB
  0
TABLE
  2
LAYER
  5
2
330
0
100
AcDbSymbolTable
 70
     1
  0
LAYER
  5
10
330
2
100
AcDbSymbolTableRecord
100
AcDbLayerTableRecord
  2
0
 70
     0
 62
     7
  6
Continuous
370
    -3
390
F
  0
ENDTAB
  0
TABLE
  2
STYLE
  5
3
330
0
100
AcDbSymbolTable
 70
     3
  0
STYLE
  5
11
330
3
100
AcDbSymbolTableRecord
100
AcDbTextStyleTableRecord
  2
Standard
 70
     0
 40
0.0
 41
1.0
 50
0.0
 71
     0
 42
3.5
  3
txt
  4
bigfont
  0
STYLE
  5
4C
330
3
100
AcDbSymbolTableRecord
100
AcDbTextStyleTableRecord
  2
SLDTEXTSTYLE0
 70
     0
 40
0.0
 41
0.75
 50
0.0
 71
     0
 42
0.2
  3
TXT
  4
bigfont
  0
STYLE
  5
4E
330
3
100
AcDbSymbolTableRecord
100
AcDbTextStyleTableRecord
  2
SLDTEXTSTYLE1
 70
     0
 40
0.0
 41
0.7
 50
0.0
 71
     0
 42
0.2
  3
TXT
  4
bigfont
  0
ENDTAB
  0
TABLE
  2
VIEW
  5
6
330
0
100
AcDbSymbolTable
 70
     0
  0
ENDTAB
  0
TABLE
  2
UCS
  5
7
330
0
100
AcDbSymbolTable
 70
     0
  0
ENDTAB
  0
TABLE
  2
APPID
  5
9
330
0
100
AcDbSymbolTable
 70
     1
  0
APPID
  5
12
330
9
100
AcDbSymbolTableRecord
100
AcDbRegAppTableRecord
  2
ACAD
 70
     0
  0
ENDTAB
  0
TABLE
  2
DIMSTYLE
  5
A
330
0
100
AcDbSymbolTable
 70
     5
100
AcDbDimStyleTable
  0
DIMSTYLE
105
27
330
A
100
AcDbSymbolTableRecord
100
AcDbDimStyleTableRecord
  2
ISO-25
 70
     0
 41
2.5
 42
0.625
 43
3.75
 44
1.25
 73
     0
 74
     0
 77
     1
 78
     8
140
2.5
141
2.5
143
0.0393700787
147
0.625
171
     3
172
     1
178
     0
271
     2
272
     2
274
     3
278
    44
283
     0
284
     8
340
11
  0
DIMSTYLE
105
15A
102
{ACAD_REACTORS
330
159
330
172
330
17C
330
188
330
192
330
19C
330
1A6
330
2D5
330
2DF
330
2E9
330
2F3
330
2FD
330
413
330
41D
330
427
330
431
330
43B
330
445
330
44F
102
}
330
A
100
AcDbSymbolTableRecord
100
AcDbDimStyleTableRecord
  2
SLDDIMSTYLE0
 70
     0
 41
3.302
 44
0.0
 45
0.000000001
 73
     0
 74
     0
 77
     3
 78
    12
 79
     3
140
3.5
147
0.875
173
     1
178
     0
271
     1
272
     2
276
     2
284
    12
340
4C
  0
DIMSTYLE
105
165
102
{ACAD_REACTORS
330
164
330
309
330
315
330
407
102
}
330
A
100
AcDbSymbolTableRecord
100
AcDbDimStyleTableRecord
  2
SLDDIMSTYLE1
 70
     0
 41
3.302
 44
0.0
 45
0.000000001
 73
     0
 74
     0
 77
     3
 78
    12
 79
     3
140
3.5
147
0.875
172
     1
173
     1
178
     0
271
     1
272
     2
276
     2
284
    12
289
     0
340
4C
  0
DIMSTYLE
105
1BE
330
A
100
AcDbSymbolTableRecord
100
AcDbDimStyleTableRecord
  2
SLDDIMSTYLE2
 70
     0
 41
3.0
 44
0.0
 45
0.000000001
140
0.0
146
3.0
147
0.0
173
     1
178
     0
271
     0
272
     0
276
     2
340
11
341
1BF
343
1BF
344
1BF
  0
DIMSTYLE
105
45A
330
A
100
AcDbSymbolTableRecord
100
AcDbDimStyleTableRecord
  2
SLDDIMSTYLE3
 70
     0
 41
3.302
 44
0.0
 45
0.000000001
140
0.0
146
3.302
147
0.0
173
     1
178
     0
271
     0
272
     0
276
     2
340
11
  0
ENDTAB
  0
TABLE
  2
BLOCK_RECORD
  5
1
330
0
100
AcDbSymbolTable
 70
    40
  0
BLOCK_RECORD
  5
1F
330
1
100
AcDbSymbolTableRecord
100
AcDbBlockTableRecord
  2
*Model_Space
340
22
  0
BLOCK_RECORD
  5
1B
330
1
100
AcDbSymbolTableRecord
100
AcDbBlockTableRecord
  2
*Paper_Space
340
1E
  0
BLOCK_RECORD
  5
23
330
1
100
AcDbSymbolTableRecord
100
AcDbBlockTableRecord
  2
*Paper_Space0
340
26
  0
BLOCK_RECORD
  5
15B
330
1
100
AcDbSymbolTableRecord
100
AcDbBlockTableRecord
  2
_D
340
0
  0
BLOCK_RECORD
  5
166
330
1
100
AcDbSymbolTableRecord
100
AcDbBlockTableRecord
  2
_D_1
340
0
  0
BLOCK_RECORD
  5
173
330
1
100
AcDbSymbolTableRecord
100
AcDbBlockTableRecord
  2
_D_2
340
0
  0
BLOCK_RECORD
  5
17D
330
1
100
AcDbSymbolTableRecord
100
AcDbBlockTableRecord
  2
_D_3
340
0
  0
BLOCK_RECORD
  5
189
330
1
100
AcDbSymbolTableRecord
100
AcDbBlockTableRecord
  2
_D_4
340
0
  0
BLOCK_RECORD
  5
193
330
1
100
AcDbSymbolTableRecord
100
AcDbBlockTableRecord
  2
_D_5
340
0
  0
BLOCK_RECORD
  5
19D
330
1
100
AcDbSymbolTableRecord
100
AcDbBlockTableRecord
  2
_D_6
340
0
  0
BLOCK_RECORD
  5
1A7
330
1
100
AcDbSymbolTableRecord
100
AcDbBlockTableRecord
  2
_D_7
340
0
  0
BLOCK_RECORD
  5
1B2
330
1
100
AcDbSymbolTableRecord
100
AcDbBlockTableRecord
  2
SW_NOTE_0
340
0
102
{BLKREFS
331
1BC
102
}
  0
BLOCK_RECORD
  5
1BF
330
1
100
AcDbSymbolTableRecord
100
AcDbBlockTableRecord
  2
_DOT
340
0
102
{BLKREFS
331
1CA
102
}
  0
BLOCK_RECORD
  5
2D6
330
1
100
AcDbSymbolTableRecord
100
AcDbBlockTableRecord
  2
_D_8
340
0
  0
BLOCK_RECORD
  5
2E0
330
1
100
AcDbSymbolTableRecord
100
AcDbBlockTableRecord
  2
_D_9
340
0
  0
BLOCK_RECORD
  5
2EA
330
1
100
AcDbSymbolTableRecord
100
AcDbBlockTableRecord
  2
_D_10
340
0
  0
BLOCK_RECORD
  5
2F4
330
1
100
AcDbSymbolTableRecord
100
AcDbBlockTableRecord
  2
_D_11
340
0
  0
BLOCK_RECORD
  5
2FE
330
1
100
AcDbSymbolTableRecord
100
AcDbBlockTableRecord
  2
_D_12
340
0
  0
BLOCK_RECORD
  5
30A
330
1
100
AcDbSymbolTableRecord
100
AcDbBlockTableRecord
  2
_D_13
340
0
  0
BLOCK_RECORD
  5
316
330
1
100
AcDbSymbolTableRecord
100
AcDbBlockTableRecord
  2
_D_14
340
0
  0
BLOCK_RECORD
  5
323
330
1
100
AcDbSymbolTableRecord
100
AcDbBlockTableRecord
  2
SW_CENTERMARKSYMBOL_0
340
0
102
{BLKREFS
331
32E
102
}
  0
BLOCK_RECORD
  5
32F
330
1
100
AcDbSymbolTableRecord
100
AcDbBlockTableRecord
  2
SW_CENTERMARKSYMBOL_1
340
0
102
{BLKREFS
331
33A
102
}
  0
BLOCK_RECORD
  5
33B
330
1
100
AcDbSymbolTableRecord
100
AcDbBlockTableRecord
  2
SW_CENTERMARKSYMBOL_2
340
0
102
{BLKREFS
331
346
102
}
  0
BLOCK_RECORD
  5
347
330
1
100
AcDbSymbolTableRecord
100
AcDbBlockTableRecord
  2
SW_CENTERMARKSYMBOL_3
340
0
102
{BLKREFS
331
352
102
}
  0
BLOCK_RECORD
  5
353
330
1
100
AcDbSymbolTableRecord
100
AcDbBlockTableRecord
  2
SW_CENTERMARKSYMBOL_4
340
0
102
{BLKREFS
331
35E
102
}
  0
BLOCK_RECORD
  5
35F
330
1
100
AcDbSymbolTableRecord
100
AcDbBlockTableRecord
  2
SW_CENTERMARKSYMBOL_5
340
0
102
{BLKREFS
331
36A
102
}
  0
BLOCK_RECORD
  5
36B
330
1
100
AcDbSymbolTableRecord
100
AcDbBlockTableRecord
  2
SW_CENTERMARKSYMBOL_6
340
0
102
{BLKREFS
331
376
102
}
  0
BLOCK_RECORD
  5
377
330
1
100
AcDbSymbolTableRecord
100
AcDbBlockTableRecord
  2
SW_CENTERMARKSYMBOL_7
340
0
102
{BLKREFS
331
382
102
}
  0
BLOCK_RECORD
  5
408
330
1
100
AcDbSymbolTableRecord
100
AcDbBlockTableRecord
  2
_D_15
340
0
  0
BLOCK_RECORD
  5
414
330
1
100
AcDbSymbolTableRecord
100
AcDbBlockTableRecord
  2
_D_16
340
0
  0
BLOCK_RECORD
  5
41E
330
1
100
AcDbSymbolTableRecord
100
AcDbBlockTableRecord
  2
_D_17
340
0
  0
BLOCK_RECORD
  5
428
330
1
100
AcDbSymbolTableRecord
100
AcDbBlockTableRecord
  2
_D_18
340
0
  0
BLOCK_RECORD
  5
432
330
1
100
AcDbSymbolTableRecord
100
AcDbBlockTableRecord
  2
_D_19
340
0
  0
BLOCK_RECORD
  5
43C
330
1
100
AcDbSymbolTableRecord
100
AcDbBlockTableRecord
  2
_D_20
340
0
  0
BLOCK_RECORD
  5
446
330
1
100
AcDbSymbolTableRecord
100
AcDbBlockTableRecord
  2
_D_21
340
0
  0
BLOCK_RECORD
  5
450
330
1
100
AcDbSymbolTableRecord
100
AcDbBlockTableRecord
  2
_D_22
340
0
  0
BLOCK_RECORD
  5
45E
330
1
100
AcDbSymbolTableRecord
100
AcDbBlockTableRecord
  2
SW_CENTERMARKSYMBOL_8
340
0
102
{BLKREFS
331
469
102
}
  0
BLOCK_RECORD
  5
46A
330
1
100
AcDbSymbolTableRecord
100
AcDbBlockTableRecord
  2
SW_CENTERMARKSYMBOL_9
340
0
102
{BLKREFS
331
475
102
}
  0
BLOCK_RECORD
  5
476
330
1
100
AcDbSymbolTableRecord
100
AcDbBlockTableRecord
  2
SW_CENTERMARKSYMBOL_10
340
0
102
{BLKREFS
331
481
102
}
  0
BLOCK_RECORD
  5
482
330
1
100
AcDbSymbolTableRecord
100
AcDbBlockTableRecord
  2
SW_CENTERMARKSYMBOL_11
340
0
102
{BLKREFS
331
48D
102
}
  0
BLOCK_RECORD
  5
48E
330
1
100
AcDbSymbolTableRecord
100
AcDbBlockTableRecord
  2
SW_CENTERMARKSYMBOL_12
340
0
102
{BLKREFS
331
499
102
}
  0
BLOCK_RECORD
  5
49A
330
1
100
AcDbSymbolTableRecord
100
AcDbBlockTableRecord
  2
SW_CENTERMARKSYMBOL_13
340
0
102
{BLKREFS
331
4A5
102
}
  0
ENDTAB
  0
ENDSEC
  0
SECTION
  2
BLOCKS
  0
BLOCK
  5
20
330
1F
100
AcDbEntity
  8
0
100
AcDbBlockBegin
  2
*Model_Space
 70
     0
 10
0.0
 20
0.0
 30
0.0
  3
*Model_Space
  1

  0
ENDBLK
  5
21
330
1F
100
AcDbEntity
  8
0
100
AcDbBlockEnd
  0
BLOCK
  5
1C
330
1B
100
AcDbEntity
 67
     1
  8
0
100
AcDbBlockBegin
  2
*Paper_Space
 70
     0
 10
0.0
 20
0.0
 30
0.0
  3
*Paper_Space
  1

  0
ENDBLK
  5
1D
330
1B
100
AcDbEntity
 67
     1
  8
0
100
AcDbBlockEnd
  0
BLOCK
  5
24
330
23
100
AcDbEntity
  8
0
100
AcDbBlockBegin
  2
*Paper_Space0
 70
     0
 10
0.0
 20
0.0
 30
0.0
  3
*Paper_Space0
  1

  0
ENDBLK
  5
25
330
23
100
AcDbEntity
  8
0
100
AcDbBlockEnd
  0
BLOCK
  5
15C
330
15B
100
AcDbEntity
  8
0
100
AcDbBlockBegin
  2
_D
 70
     0
 10
0.0
 20
0.0
 30
0.0
  3
_D
  1

  0
SOLID
  5
15E
330
15B
100
AcDbEntity
  8
0
  6
Continuous
 62
     7
370
     0
100
AcDbTrace
 10
195.7545509831
 20
254.4622052912
 30
0.0
 11
195.0045509831
 21
252.4622052912
 31
0.0
 12
196.5045509831
 22
252.4622052912
 32
0.0
 13
196.5045509831
 23
252.4622052912
 33
0.0
  0
SOLID
  5
15F
330
15B
100
AcDbEntity
  8
0
  6
Continuous
 62
     7
370
     0
100
AcDbTrace
 10
195.7545509831
 20
178.5822052912
 30
0.0
 11
196.5045509831
 21
180.5822052912
 31
0.0
 12
195.0045509831
 22
180.5822052912
 32
0.0
 13
195.0045509831
 23
180.5822052912
 33
0.0
  0
LINE
  5
160
330
15B
100
AcDbEntity
  8
0
  6
Continuous
 62
     7
370
     0
100
AcDbLine
 10
193.1257939186
 20
254.4622052912
 30
0.0
 11
196.7545509831
 21
254.4622052912
 31
0.0
  0
LINE
  5
161
330
15B
100
AcDbEntity
  8
0
  6
Continuous
 62
     7
370
     0
100
AcDbLine
 10
162.6972728494
 20
178.5822052912
 30
0.0
 11
196.7545509831
 21
178.5822052912
 31
0.0
  0
LINE
  5
162
330
15B
100
AcDbEntity
  8
0
  6
Continuous
 62
     7
370
     0
100
AcDbLine
 10
195.7545509831
 20
254.4622052912
 30
0.0
 11
195.7545509831
 21
178.5822052912
 31
0.0
  0
MTEXT
  5
163
330
15B
100
AcDbEntity
  8
0
  6
Continuous
 62
     7
370
     0
100
AcDbMText
 10
191.2428140685
 20
211.9965107607
 30
0.1
 40
3.5
 41
0.0
 71
     1
 72
     1
  1
75.9
  7
SLDTEXTSTYLE0
 11
-9.708730276744010E-15
 21
1.0
 31
0.0
 73
     1
 44
1.0
  0
ENDBLK
  5
15D
330
15B
100
AcDbEntity
  8
0
100
AcDbBlockEnd
  0
BLOCK
  5
167
330
166
100
AcDbEntity
  8
0
100
AcDbBlockBegin
  2
_D_1
 70
     0
 10
0.0
 20
0.0
 30
0.0
  3
_D_1
  1

  0
SOLID
  5
169
330
166
100
AcDbEntity
  8
0
  6
Continuous
 62
     7
370
     0
100
AcDbTrace
 10
192.1257939186
 20
262.2951804713
 30
0.0
 11
194.1257939186
 21
261.5451804713
 31
0.0
 12
194.1257939186
 22
263.0451804713
 32
0.0
 13
194.1257939186
 23
263.0451804713
 33
0.0
  0
SOLID
  5
16A
330
166
100
AcDbEntity
  8
0
  6
Continuous
 62
     7
370
     0
100
AcDbTrace
 10
189.1257939186
 20
262.2951804713
 30
0.0
 11
187.1257939186
 21
263.0451804713
 31
0.0
 12
187.1257939186
 22
261.5451804713
 32
0.0
 13
187.1257939186
 23
261.5451804713
 33
0.0
  0
LINE
  5
16B
330
166
100
AcDbEntity
  8
0
  6
Continuous
 62
     7
370
     0
100
AcDbLine
 10
192.1257939186
 20
255.4622052912
 30
0.0
 11
192.1257939186
 21
263.2951804713
 31
0.0
  0
LINE
  5
16C
330
166
100
AcDbEntity
  8
0
  6
Continuous
 62
     7
370
     0
100
AcDbLine
 10
189.1257939186
 20
255.4622052912
 30
0.0
 11
189.1257939186
 21
263.2951804713
 31
0.0
  0
LINE
  5
16D
330
166
100
AcDbEntity
  8
0
  6
Continuous
 62
     7
370
     0
100
AcDbLine
 10
192.1257939186
 20
262.2951804713
 30
0.0
 11
197.1257939186
 21
262.2951804713
 31
0.0
  0
LINE
  5
16E
330
166
100
AcDbEntity
  8
0
  6
Continuous
 62
     7
370
     0
100
AcDbLine
 10
192.1257939186
 20
262.2951804713
 30
0.0
 11
189.1257939186
 21
262.2951804713
 31
0.0
  0
LINE
  5
16F
330
166
100
AcDbEntity
  8
0
  6
Continuous
 62
     7
370
     0
100
AcDbLine
 10
189.1257939186
 20
262.2951804713
 30
0.0
 11
119.1788123632
 21
262.2951804713
 31
0.0
  0
MTEXT
  5
170
330
166
100
AcDbEntity
  8
0
  6
Continuous
 62
     7
370
     0
100
AcDbMText
 10
119.1788123632
 20
266.8069173858
 30
0.1
 40
3.5
 41
0.0
 71
     1
 72
     1
  1
Maxストローク
  7
SLDTEXTSTYLE0
 73
     1
 44
1.0
  0
MTEXT
  5
171
330
166
100
AcDbEntity
  8
0
  6
Continuous
 62
     7
370
     0
100
AcDbMText
 10
148.3697848106
 20
266.8069173858
 30
0.1
 40
3.5
 41
0.0
 71
     1
 72
     1
  1
3
  7
SLDTEXTSTYLE0
 73
     1
 44
1.0
  0
ENDBLK
  5
168
330
166
100
AcDbEntity
  8
0
100
AcDbBlockEnd
  0
BLOCK
  5
174
330
173
100
AcDbEntity
  8
0
100
AcDbBlockBegin
  2
_D_2
 70
     0
 10
0.0
 20
0.0
 30
0.0
  3
_D_2
  1

  0
SOLID
  5
176
330
173
100
AcDbEntity
  8
0
  6
Continuous
 62
     7
370
     0
100
AcDbTrace
 10
179.1257939186
 20
270.4622302912
 30
0.0
 11
181.1257939186
 21
269.7122302912
 31
0.0
 12
181.1257939186
 22
271.2122302912
 32
0.0
 13
181.1257939186
 23
271.2122302912
 33
0.0
  0
SOLID
  5
177
330
173
100
AcDbEntity
  8
0
  6
Continuous
 62
     7
370
     0
100
AcDbTrace
 10
189.1257939186
 20
270.4622302912
 30
0.0
 11
187.1257939186
 21
271.2122302912
 31
0.0
 12
187.1257939186
 22
269.7122302912
 32
0.0
 13
187.1257939186
 23
269.7122302912
 33
0.0
  0
LINE
  5
178
330
173
100
AcDbEntity
  8
0
  6
Continuous
 62
     7
370
     0
100
AcDbLine
 10
179.1257939186
 20
238.3922052912
 30
0.0
 11
179.1257939186
 21
271.4622302912
 31
0.0
  0
LINE
  5
179
330
173
100
AcDbEntity
  8
0
  6
Continuous
 62
     7
370
     0
100
AcDbLine
 10
189.1257939186
 20
255.4622052912
 30
0.0
 11
189.1257939186
 21
271.4622302912
 31
0.0
  0
LINE
  5
17A
330
173
100
AcDbEntity
  8
0
  6
Continuous
 62
     7
370
     0
100
AcDbLine
 10
179.1257939186
 20
270.4622302912
 30
0.0
 11
189.1257939186
 21
270.4622302912
 31
0.0
  0
MTEXT
  5
17B
330
173
100
AcDbEntity
  8
0
  6
Continuous
 62
     7
370
     0
100
AcDbMText
 10
181.539682725
 20
274.9739672058
 30
0.1
 40
3.5
 41
0.0
 71
     1
 72
     1
  1
10
  7
SLDTEXTSTYLE0
 73
     1
 44
1.0
  0
ENDBLK
  5
175
330
173
100
AcDbEntity
  8
0
100
AcDbBlockEnd
  0
BLOCK
  5
17E
330
17D
100
AcDbEntity
  8
0
100
AcDbBlockBegin
  2
_D_3
 70
     0
 10
0.0
 20
0.0
 30
0.0
  3
_D_3
  1

  0
ARC
  5
180
330
17D
100
AcDbEntity
  8
0
  6
Continuous
 62
     7
370
     0
100
AcDbCircle
 10
168.1920890192
 20
273.2403552867
 30
0.0
 40
6.212076339995626
100
AcDbArc
 50
153.4349488229
 51
206.5650511771
  0
ARC
  5
181
330
17D
100
AcDbEntity
  8
0
  6
Continuous
 62
     7
370
     0
100
AcDbCircle
 10
166.130978098
 20
273.2403552867
 30
0.0
 40
6.2120763399956
100
AcDbArc
 50
333.4349488229
 51
26.5650511771
  0
SOLID
  5
182
330
17D
100
AcDbEntity
  8
0
  6
Continuous
 62
     7
370
     0
100
AcDbTrace
 10
179.1257939186
 20
270.4622302912
 30
0.0
 11
177.1257939186
 21
271.2122302912
 31
0.0
 12
177.1257939186
 22
269.7122302912
 32
0.0
 13
177.1257939186
 23
269.7122302912
 33
0.0
  0
SOLID
  5
183
330
17D
100
AcDbEntity
  8
0
  6
Continuous
 62
     7
370
     0
100
AcDbTrace
 10
155.1972728494
 20
270.4622302912
 30
0.0
 11
157.1972728494
 21
269.7122302912
 31
0.0
 12
157.1972728494
 22
271.2122302912
 32
0.0
 13
157.1972728494
 23
271.2122302912
 33
0.0
  0
LINE
  5
184
330
17D
100
AcDbEntity
  8
0
  6
Continuous
 62
     7
370
     0
100
AcDbLine
 10
179.1257939186
 20
238.3922052912
 30
0.0
 11
179.1257939186
 21
271.4622302912
 31
0.0
  0
LINE
  5
185
330
17D
100
AcDbEntity
  8
0
  6
Continuous
 62
     7
370
     0
100
AcDbLine
 10
155.1972728494
 20
186.0822052912
 30
0.0
 11
155.1972728494
 21
271.4622302912
 31
0.0
  0
LINE
  5
186
330
17D
100
AcDbEntity
  8
0
  6
Continuous
 62
     7
370
     0
100
AcDbLine
 10
179.1257939186
 20
270.4622302912
 30
0.0
 11
155.1972728494
 21
270.4622302912
 31
0.0
  0
MTEXT
  5
187
330
17D
100
AcDbEntity
  8
0
  6
Continuous
 62
     7
370
     0
100
AcDbMText
 10
162.6358390281
 20
274.9739672058
 30
0.1
 40
3.5
 41
0.0
 71
     1
 72
     1
  1
23.9
  7
SLDTEXTSTYLE0
 73
     1
 44
1.0
  0
ENDBLK
  5
17F
330
17D
100
AcDbEntity
  8
0
100
AcDbBlockEnd
  0
BLOCK
  5
18A
330
189
100
AcDbEntity
  8
0
100
AcDbBlockBegin
  2
_D_4
 70
     0
 10
0.0
 20
0.0
 30
0.0
  3
_D_4
  1

  0
SOLID
  5
18C
330
189
100
AcDbEntity
  8
0
  6
Continuous
 62
     7
370
     0
100
AcDbTrace
 10
90.5972728494
 20
213.5821728404
 30
0.0
 11
89.8472728494
 21
211.5821728404
 31
0.0
 12
91.3472728494
 22
211.5821728404
 32
0.0
 13
91.3472728494
 23
211.5821728404
 33
0.0
  0
SOLID
  5
18D
330
189
100
AcDbEntity
  8
0
  6
Continuous
 62
     7
370
     0
100
AcDbTrace
 10
90.5972728494
 20
178.5822052912
 30
0.0
 11
91.3472728494
 21
180.5822052912
 31
0.0
 12
89.8472728494
 22
180.5822052912
 32
0.0
 13
89.8472728494
 23
180.5822052912
 33
0.0
  0
LINE
  5
18E
330
189
100
AcDbEntity
  8
0
  6
Continuous
 62
     7
370
     0
100
AcDbLine
 10
118.7257939186
 20
213.5821728404
 30
0.0
 11
89.5972728494
 21
213.5821728404
 31
0.0
  0
LINE
  5
18F
330
189
100
AcDbEntity
  8
0
  6
Continuous
 62
     7
370
     0
100
AcDbLine
 10
130.6972728494
 20
178.5822052912
 30
0.0
 11
89.5972728494
 21
178.5822052912
 31
0.0
  0
LINE
  5
190
330
189
100
AcDbEntity
  8
0
  6
Continuous
 62
     7
370
     0
100
AcDbLine
 10
90.5972728494
 20
213.5821728404
 30
0.0
 11
90.5972728494
 21
178.5822052912
 31
0.0
  0
MTEXT
  5
191
330
189
100
AcDbEntity
  8
0
  6
Continuous
 62
     7
370
     0
100
AcDbMText
 10
86.0855359348
 20
193.4960778723
 30
0.1
 40
3.5
 41
0.0
 71
     1
 72
     1
  1
35
  7
SLDTEXTSTYLE0
 11
-1.059690869644414E-14
 21
1.0
 31
0.0
 73
     1
 44
1.0
  0
ENDBLK
  5
18B
330
189
100
AcDbEntity
  8
0
100
AcDbBlockEnd
  0
BLOCK
  5
194
330
193
100
AcDbEntity
  8
0
100
AcDbBlockBegin
  2
_D_5
 70
     0
 10
0.0
 20
0.0
 30
0.0
  3
_D_5
  1

  0
SOLID
  5
196
330
193
100
AcDbEntity
  8
0
  6
Continuous
 62
     7
370
     0
100
AcDbTrace
 10
96.3018960916
 20
197.5822052912
 30
0.0
 11
95.5518960916
 21
195.5822052912
 31
0.0
 12
97.0518960916
 22
195.5822052912
 32
0.0
 13
97.0518960916
 23
195.5822052912
 33
0.0
  0
SOLID
  5
197
330
193
100
AcDbEntity
  8
0
  6
Continuous
 62
     7
370
     0
100
AcDbTrace
 10
96.3018960916
 20
178.5822052912
 30
0.0
 11
97.0518960916
 21
180.5822052912
 31
0.0
 12
95.5518960916
 22
180.5822052912
 32
0.0
 13
95.5518960916
 23
180.5822052912
 33
0.0
  0
LINE
  5
198
330
193
100
AcDbEntity
  8
0
  6
Continuous
 62
     7
370
     0
100
AcDbLine
 10
97.5972728494
 20
197.5822052912
 30
0.0
 11
95.3018960916
 21
197.5822052912
 31
0.0
  0
LINE
  5
199
330
193
100
AcDbEntity
  8
0
  6
Continuous
 62
     7
370
     0
100
AcDbLine
 10
130.6972728494
 20
178.5822052912
 30
0.0
 11
95.3018960916
 21
178.5822052912
 31
0.0
  0
LINE
  5
19A
330
193
100
AcDbEntity
  8
0
  6
Continuous
 62
     7
370
     0
100
AcDbLine
 10
96.3018960916
 20
197.5822052912
 30
0.0
 11
96.3018960916
 21
178.5822052912
 31
0.0
  0
MTEXT
  5
19B
330
193
100
AcDbEntity
  8
0
  6
Continuous
 62
     7
370
     0
100
AcDbMText
 10
91.7901591771
 20
185.4960940977
 30
0.1
 40
3.5
 41
0.0
 71
     1
 72
     1
  1
19
  7
SLDTEXTSTYLE0
 11
-1.059690869644414E-14
 21
1.0
 31
0.0
 73
     1
 44
1.0
  0
ENDBLK
  5
195
330
193
100
AcDbEntity
  8
0
100
AcDbBlockEnd
  0
BLOCK
  5
19E
330
19D
100
AcDbEntity
  8
0
100
AcDbBlockBegin
  2
_D_6
 70
     0
 10
0.0
 20
0.0
 30
0.0
  3
_D_6
  1

  0
SOLID
  5
1A0
330
19D
100
AcDbEntity
  8
0
  6
Continuous
 62
     7
370
     0
100
AcDbTrace
 10
115.1972728494
 20
168.5822052912
 30
0.0
 11
117.1972728494
 21
167.8322052912
 31
0.0
 12
117.1972728494
 22
169.3322052912
 32
0.0
 13
117.1972728494
 23
169.3322052912
 33
0.0
  0
SOLID
  5
1A1
330
19D
100
AcDbEntity
  8
0
  6
Continuous
 62
     7
370
     0
100
AcDbTrace
 10
188.6257939186
 20
168.5822052912
 30
0.0
 11
186.6257939186
 21
169.3322052912
 31
0.0
 12
186.6257939186
 22
167.8322052912
 32
0.0
 13
186.6257939186
 23
167.8322052912
 33
0.0
  0
LINE
  5
1A2
330
19D
100
AcDbEntity
  8
0
  6
Continuous
 62
     7
370
     0
100
AcDbLine
 10
115.1972728494
 20
182.0822052912
 30
0.0
 11
115.1972728494
 21
167.5822052912
 31
0.0
  0
LINE
  5
1A3
330
19D
100
AcDbEntity
  8
0
  6
Continuous
 62
     7
370
     0
100
AcDbLine
 10
188.6257939186
 20
190.082205291
 30
0.0
 11
188.6257939186
 21
167.5822052912
 31
0.0
  0
LINE
  5
1A4
330
19D
100
AcDbEntity
  8
0
  6
Continuous
 62
     7
370
     0
100
AcDbLine
 10
115.1972728494
 20
168.5822052912
 30
0.0
 11
188.6257939186
 21
168.5822052912
 31
0.0
  0
MTEXT
  5
1A5
330
19D
100
AcDbEntity
  8
0
  6
Continuous
 62
     7
370
     0
100
AcDbMText
 10
147.3858388535
 20
173.0939422058
 30
0.1
 40
3.5
 41
0.0
 71
     1
 72
     1
  1
73.4
  7
SLDTEXTSTYLE0
 73
     1
 44
1.0
  0
ENDBLK
  5
19F
330
19D
100
AcDbEntity
  8
0
100
AcDbBlockEnd
  0
BLOCK
  5
1A8
330
1A7
100
AcDbEntity
  8
0
100
AcDbBlockBegin
  2
_D_7
 70
     0
 10
0.0
 20
0.0
 30
0.0
  3
_D_7
  1

  0
ARC
  5
1AA
330
1A7
100
AcDbEntity
  8
0
  6
Continuous
 62
     7
370
     0
100
AcDbCircle
 10
147.5816721233
 20
162.7794383482
 30
0.0
 40
6.212076339995588
100
AcDbArc
 50
153.4349488229
 51
206.5650511771
  0
ARC
  5
1AB
330
1A7
100
AcDbEntity
  8
0
  6
Continuous
 62
     7
370
     0
100
AcDbCircle
 10
141.6413945282
 20
162.7794383482
 30
0.0
 40
6.212076339995614
100
AcDbArc
 50
333.4349488229
 51
26.5650511771
  0
SOLID
  5
1AC
330
1A7
100
AcDbEntity
  8
0
  6
Continuous
 62
     7
370
     0
100
AcDbTrace
 10
100.5972728494
 20
160.0013133527
 30
0.0
 11
102.5972728494
 21
159.2513133527
 31
0.0
 12
102.5972728494
 22
160.7513133527
 32
0.0
 13
102.5972728494
 23
160.7513133527
 33
0.0
  0
SOLID
  5
1AD
330
1A7
100
AcDbEntity
  8
0
  6
Continuous
 62
     7
370
     0
100
AcDbTrace
 10
188.6257939186
 20
160.0013133527
 30
0.0
 11
186.6257939186
 21
160.7513133527
 31
0.0
 12
186.6257939186
 22
159.2513133527
 32
0.0
 13
186.6257939186
 23
159.2513133527
 33
0.0
  0
LINE
  5
1AE
330
1A7
100
AcDbEntity
  8
0
  6
Continuous
 62
     7
370
     0
100
AcDbLine
 10
100.5972728494
 20
192.7322052912
 30
0.0
 11
100.5972728494
 21
159.0013133527
 31
0.0
  0
LINE
  5
1AF
330
1A7
100
AcDbEntity
  8
0
  6
Continuous
 62
     7
370
     0
100
AcDbLine
 10
188.6257939186
 20
190.082205291
 30
0.0
 11
188.6257939186
 21
159.0013133527
 31
0.0
  0
LINE
  5
1B0
330
1A7
100
AcDbEntity
  8
0
  6
Continuous
 62
     7
370
     0
100
AcDbLine
 10
100.5972728494
 20
160.0013133527
 30
0.0
 11
188.6257939186
 21
160.0013133527
 31
0.0
  0
MTEXT
  5
1B1
330
1A7
100
AcDbEntity
  8
0
  6
Continuous
 62
     7
370
     0
100
AcDbMText
 10
142.0254221322
 20
164.5130502673
 30
0.1
 40
3.5
 41
0.0
 71
     1
 72
     1
  1
88
  7
SLDTEXTSTYLE0
 73
     1
 44
1.0
  0
ENDBLK
  5
1A9
330
1A7
100
AcDbEntity
  8
0
100
AcDbBlockEnd
  0
BLOCK
  5
1B3
330
1B2
100
AcDbEntity
  8
0
100
AcDbBlockBegin
  2
SW_NOTE_0
 70
     0
 10
0.0
 20
0.0
 30
0.0
  3
SW_NOTE_0
  1

  0
LINE
  5
1B5
330
1B2
100
AcDbEntity
  8
0
  6
Continuous
 62
     0
370
     0
100
AcDbLine
 10
-0.0705935279
 20
0.342732372
 30
0.0
 11
23.4932986175
 21
0.342732372
 31
0.0
  0
LINE
  5
1B6
330
1B2
100
AcDbEntity
  8
0
  6
Continuous
 62
     0
370
     0
100
AcDbLine
 10
23.4932986175
 20
0.342732372
 30
0.0
 11
-0.0705935279
 21
0.342732372
 31
0.0
  0
LINE
  5
1B7
330
1B2
100
AcDbEntity
  8
0
  6
Continuous
 62
     0
370
     0
100
AcDbLine
 10
-0.0705935279
 20
0.342732372
 30
0.0
 11
23.4932986175
 21
0.342732372
 31
0.0
  0
LINE
  5
1B8
330
1B2
100
AcDbEntity
  8
0
  6
Continuous
 62
     0
370
     0
100
AcDbLine
 10
23.4932986175
 20
0.342732372
 30
0.0
 11
-0.0705935279
 21
0.342732372
 31
0.0
  0
LINE
  5
1B9
330
1B2
100
AcDbEntity
  8
0
  6
Continuous
 62
     0
370
     0
100
AcDbLine
 10
-0.0705935279
 20
0.342732372
 30
0.0
 11
23.4932986175
 21
0.342732372
 31
0.0
  0
LINE
  5
1BA
330
1B2
100
AcDbEntity
  8
0
  6
Continuous
 62
     0
370
     0
100
AcDbLine
 10
23.4932986175
 20
0.342732372
 30
0.0
 11
-0.0705935279
 21
0.342732372
 31
0.0
  0
MTEXT
  5
1BB
330
1B2
100
AcDbEntity
  8
0
  6
Continuous
 62
     0
370
     0
100
AcDbMText
 10
0.0
 20
4.5117370892
 30
0.0
 40
3.5
 41
0.0
 71
     1
 72
     1
  1
プッシュ配管
  7
SLDTEXTSTYLE0
 73
     1
 44
1.0
  0
ENDBLK
  5
1B4
330
1B2
100
AcDbEntity
  8
0
100
AcDbBlockEnd
  0
BLOCK
  5
1C0
330
1BF
100
AcDbEntity
  8
0
100
AcDbBlockBegin
  2
_DOT
 70
     0
 10
0.0
 20
0.0
 30
0.0
  3
_DOT
  1

  0
POLYLINE
  5
1C2
330
1BF
100
AcDbEntity
  8
0
  6
ByBlock
 62
     0
100
AcDb2dPolyline
 66
     1
 10
0.0
 20
0.0
 30
0.0
 70
     1
 40
0.5
 41
0.5
  0
VERTEX
  5
1C4
330
1C2
100
AcDbEntity
  8
0
  6
ByBlock
 62
     0
100
AcDbVertex
100
AcDb2dVertex
 10
-0.25
 20
0.0
 30
0.0
 42
1.0
  0
VERTEX
  5
1C5
330
1C2
100
AcDbEntity
  8
0
  6
ByBlock
 62
     0
100
AcDbVertex
100
AcDb2dVertex
 10
0.25
 20
0.0
 30
0.0
 42
1.0
  0
SEQEND
  5
1C6
330
1C2
100
AcDbEntity
  8
0
  6
ByBlock
 62
     0
  0
LINE
  5
1C3
330
1BF
100
AcDbEntity
  8
0
  6
ByBlock
 62
     0
370
    -2
100
AcDbLine
 10
-0.5
 20
0.0
 30
0.0
 11
-1.0
 21
0.0
 31
0.0
  0
ENDBLK
  5
1C1
330
1BF
100
AcDbEntity
  8
0
100
AcDbBlockEnd
  0
BLOCK
  5
2D7
330
2D6
100
AcDbEntity
  8
0
100
AcDbBlockBegin
  2
_D_8
 70
     0
 10
0.0
 20
0.0
 30
0.0
  3
_D_8
  1

  0
SOLID
  5
2D9
330
2D6
100
AcDbEntity
  8
0
  6
Continuous
 62
     7
370
     0
100
AcDbTrace
 10
25.1375956863
 20
226.5822052912
 30
0.0
 11
24.3875956863
 21
224.5822052912
 31
0.0
 12
25.8875956863
 22
224.5822052912
 32
0.0
 13
25.8875956863
 23
224.5822052912
 33
0.0
  0
SOLID
  5
2DA
330
2D6
100
AcDbEntity
  8
0
  6
Continuous
 62
     7
370
     0
100
AcDbTrace
 10
25.1375956863
 20
178.5822052912
 30
0.0
 11
25.8875956863
 21
180.5822052912
 31
0.0
 12
24.3875956863
 22
180.5822052912
 32
0.0
 13
24.3875956863
 23
180.5822052912
 33
0.0
  0
LINE
  5
2DB
330
2D6
100
AcDbEntity
  8
0
  6
Continuous
 62
     7
370
     0
100
AcDbLine
 10
40.5819963804
 20
226.5822052912
 30
0.0
 11
24.1375956863
 21
226.5822052912
 31
0.0
  0
LINE
  5
2DC
330
2D6
100
AcDbEntity
  8
0
  6
Continuous
 62
     7
370
     0
100
AcDbLine
 10
26.2319963804
 20
178.5822052912
 30
0.0
 11
24.1375956863
 21
178.5822052912
 31
0.0
  0
LINE
  5
2DD
330
2D6
100
AcDbEntity
  8
0
  6
Continuous
 62
     7
370
     0
100
AcDbLine
 10
25.1375956863
 20
226.5822052912
 30
0.0
 11
25.1375956863
 21
178.5822052912
 31
0.0
  0
MTEXT
  5
2DE
330
2D6
100
AcDbEntity
  8
0
  6
Continuous
 62
     7
370
     0
100
AcDbMText
 10
20.6258587717
 20
199.9960940977
 30
35.6313718718
 40
3.5
 41
0.0
 71
     1
 72
     1
  1
48
  7
SLDTEXTSTYLE0
 11
-6.156016597943509E-15
 21
1.0
 31
0.0
 73
     1
 44
1.0
  0
ENDBLK
  5
2D8
330
2D6
100
AcDbEntity
  8
0
100
AcDbBlockEnd
  0
BLOCK
  5
2E1
330
2E0
100
AcDbEntity
  8
0
100
AcDbBlockBegin
  2
_D_9
 70
     0
 10
0.0
 20
0.0
 30
0.0
  3
_D_9
  1

  0
SOLID
  5
2E3
330
2E0
100
AcDbEntity
  8
0
  6
Continuous
 62
     7
370
     0
100
AcDbTrace
 10
26.7319963804
 20
172.3953586792
 30
0.0
 11
28.7319963804
 21
171.6453586792
 31
0.0
 12
28.7319963804
 22
173.1453586792
 32
0.0
 13
28.7319963804
 23
173.1453586792
 33
0.0
  0
SOLID
  5
2E4
330
2E0
100
AcDbEntity
  8
0
  6
Continuous
 62
     7
370
     0
100
AcDbTrace
 10
71.7319963804
 20
172.3953586792
 30
0.0
 11
69.7319963804
 21
173.1453586792
 31
0.0
 12
69.7319963804
 22
171.6453586792
 32
0.0
 13
69.7319963804
 23
171.6453586792
 33
0.0
  0
LINE
  5
2E5
330
2E0
100
AcDbEntity
  8
0
  6
Continuous
 62
     7
370
     0
100
AcDbLine
 10
26.7319963804
 20
178.0822052912
 30
0.0
 11
26.7319963804
 21
171.3953586792
 31
0.0
  0
LINE
  5
2E6
330
2E0
100
AcDbEntity
  8
0
  6
Continuous
 62
     7
370
     0
100
AcDbLine
 10
71.7319963804
 20
178.0822052912
 30
0.0
 11
71.7319963804
 21
171.3953586792
 31
0.0
  0
LINE
  5
2E7
330
2E0
100
AcDbEntity
  8
0
  6
Continuous
 62
     7
370
     0
100
AcDbLine
 10
26.7319963804
 20
172.3953586792
 30
0.0
 11
71.7319963804
 21
172.3953586792
 31
0.0
  0
MTEXT
  5
2E8
330
2E0
100
AcDbEntity
  8
0
  6
Continuous
 62
     7
370
     0
100
AcDbMText
 10
46.6458851869
 20
176.9070955937
 30
35.6313718718
 40
3.5
 41
0.0
 71
     1
 72
     1
  1
45
  7
SLDTEXTSTYLE0
 73
     1
 44
1.0
  0
ENDBLK
  5
2E2
330
2E0
100
AcDbEntity
  8
0
100
AcDbBlockEnd
  0
BLOCK
  5
2EB
330
2EA
100
AcDbEntity
  8
0
100
AcDbBlockBegin
  2
_D_10
 70
     0
 10
0.0
 20
0.0
 30
0.0
  3
_D_10
  1

  0
SOLID
  5
2ED
330
2EA
100
AcDbEntity
  8
0
  6
Continuous
 62
     7
370
     0
100
AcDbTrace
 10
78.7429105091
 20
219.5822052912
 30
0.0
 11
77.9929105091
 21
217.5822052912
 31
0.0
 12
79.4929105091
 22
217.5822052912
 32
0.0
 13
79.4929105091
 23
217.5822052912
 33
0.0
  0
SOLID
  5
2EE
330
2EA
100
AcDbEntity
  8
0
  6
Continuous
 62
     7
370
     0
100
AcDbTrace
 10
78.7429105091
 20
178.5822052912
 30
0.0
 11
79.4929105091
 21
180.5822052912
 31
0.0
 12
77.9929105091
 22
180.5822052912
 32
0.0
 13
77.9929105091
 23
180.5822052912
 33
0.0
  0
LINE
  5
2EF
330
2EA
100
AcDbEntity
  8
0
  6
Continuous
 62
     7
370
     0
100
AcDbLine
 10
68.2319963804
 20
219.5822052912
 30
0.0
 11
79.7429105091
 21
219.5822052912
 31
0.0
  0
LINE
  5
2F0
330
2EA
100
AcDbEntity
  8
0
  6
Continuous
 62
     7
370
     0
100
AcDbLine
 10
72.2319963804
 20
178.5822052912
 30
0.0
 11
79.7429105091
 21
178.5822052912
 31
0.0
  0
LINE
  5
2F1
330
2EA
100
AcDbEntity
  8
0
  6
Continuous
 62
     7
370
     0
100
AcDbLine
 10
78.7429105091
 20
219.5822052912
 30
0.0
 11
78.7429105091
 21
178.5822052912
 31
0.0
  0
MTEXT
  5
2F2
330
2EA
100
AcDbEntity
  8
0
  6
Continuous
 62
     7
370
     0
100
AcDbMText
 10
74.2311735945
 20
194.2298946023
 30
35.6313718718
 40
3.5
 41
0.0
 71
     1
 72
     1
  1
41
  7
SLDTEXTSTYLE0
 11
-6.156016597943509E-15
 21
1.0
 31
0.0
 73
     1
 44
1.0
  0
ENDBLK
  5
2EC
330
2EA
100
AcDbEntity
  8
0
100
AcDbBlockEnd
  0
BLOCK
  5
2F5
330
2F4
100
AcDbEntity
  8
0
100
AcDbBlockBegin
  2
_D_11
 70
     0
 10
0.0
 20
0.0
 30
0.0
  3
_D_11
  1

  0
SOLID
  5
2F7
330
2F4
100
AcDbEntity
  8
0
  6
Continuous
 62
     7
370
     0
100
AcDbTrace
 10
84.9005698559
 20
231.1622052912
 30
0.0
 11
84.1505698559
 21
229.1622052912
 31
0.0
 12
85.6505698559
 22
229.1622052912
 32
0.0
 13
85.6505698559
 23
229.1622052912
 33
0.0
  0
SOLID
  5
2F8
330
2F4
100
AcDbEntity
  8
0
  6
Continuous
 62
     7
370
     0
100
AcDbTrace
 10
84.9005698559
 20
178.5822052912
 30
0.0
 11
85.6505698559
 21
180.5822052912
 31
0.0
 12
84.1505698559
 22
180.5822052912
 32
0.0
 13
84.1505698559
 23
180.5822052912
 33
0.0
  0
LINE
  5
2F9
330
2F4
100
AcDbEntity
  8
0
  6
Continuous
 62
     7
370
     0
100
AcDbLine
 10
60.2319963804
 20
231.1622052912
 30
0.0
 11
85.9005698559
 21
231.1622052912
 31
0.0
  0
LINE
  5
2FA
330
2F4
100
AcDbEntity
  8
0
  6
Continuous
 62
     7
370
     0
100
AcDbLine
 10
72.2319963804
 20
178.5822052912
 30
0.0
 11
85.9005698559
 21
178.5822052912
 31
0.0
  0
LINE
  5
2FB
330
2F4
100
AcDbEntity
  8
0
  6
Continuous
 62
     7
370
     0
100
AcDbLine
 10
84.9005698559
 20
231.1622052912
 30
0.0
 11
84.9005698559
 21
178.5822052912
 31
0.0
  0
MTEXT
  5
2FC
330
2F4
100
AcDbEntity
  8
0
  6
Continuous
 62
     7
370
     0
100
AcDbMText
 10
80.3888329413
 20
200.3465107608
 30
35.6313718718
 40
3.5
 41
0.0
 71
     1
 72
     1
  1
52.6
  7
SLDTEXTSTYLE0
 11
-6.156016597943509E-15
 21
1.0
 31
0.0
 73
     1
 44
1.0
  0
ENDBLK
  5
2F6
330
2F4
100
AcDbEntity
  8
0
100
AcDbBlockEnd
  0
BLOCK
  5
2FF
330
2FE
100
AcDbEntity
  8
0
100
AcDbBlockBegin
  2
_D_12
 70
     0
 10
0.0
 20
0.0
 30
0.0
  3
_D_12
  1

  0
ARC
  5
301
330
2FE
100
AcDbEntity
  8
0
  6
Continuous
 62
     7
370
     0
100
AcDbCircle
 10
82.1224448603
 20
243.8427609264
 30
0.0
 40
6.2120763399956
100
AcDbArc
 50
243.4349488229
 51
296.5650511771
  0
ARC
  5
302
330
2FE
100
AcDbEntity
  8
0
  6
Continuous
 62
     7
370
     0
100
AcDbCircle
 10
82.1224448603
 20
241.7816500052
 30
0.0
 40
6.2120763399956
100
AcDbArc
 50
63.4349488229
 51
116.5650511771
  0
SOLID
  5
303
330
2FE
100
AcDbEntity
  8
0
  6
Continuous
 62
     7
370
     0
100
AcDbTrace
 10
84.9005698559
 20
231.1622052912
 30
0.0
 11
85.6505698559
 21
233.1622052912
 31
0.0
 12
84.1505698559
 22
233.1622052912
 32
0.0
 13
84.1505698559
 23
233.1622052912
 33
0.0
  0
SOLID
  5
304
330
2FE
100
AcDbEntity
  8
0
  6
Continuous
 62
     7
370
     0
100
AcDbTrace
 10
84.9005698559
 20
254.4622052912
 30
0.0
 11
84.1505698559
 21
252.4622052912
 31
0.0
 12
85.6505698559
 22
252.4622052912
 32
0.0
 13
85.6505698559
 23
252.4622052912
 33
0.0
  0
LINE
  5
305
330
2FE
100
AcDbEntity
  8
0
  6
Continuous
 62
     7
370
     0
100
AcDbLine
 10
60.2319963804
 20
231.1622052912
 30
0.0
 11
85.9005698559
 21
231.1622052912
 31
0.0
  0
LINE
  5
306
330
2FE
100
AcDbEntity
  8
0
  6
Continuous
 62
     7
370
     0
100
AcDbLine
 10
54.7319963804
 20
254.4622052912
 30
0.0
 11
85.9005698559
 21
254.4622052912
 31
0.0
  0
LINE
  5
307
330
2FE
100
AcDbEntity
  8
0
  6
Continuous
 62
     7
370
     0
100
AcDbLine
 10
84.9005698559
 20
231.1622052912
 30
0.0
 11
84.9005698559
 21
254.4622052912
 31
0.0
  0
MTEXT
  5
308
330
2FE
100
AcDbEntity
  8
0
  6
Continuous
 62
     7
370
     0
100
AcDbMText
 10
80.3888329413
 20
238.2865109354
 30
35.6313718718
 40
3.5
 41
0.0
 71
     1
 72
     1
  1
23.3
  7
SLDTEXTSTYLE0
 11
6.123233995736766E-17
 21
1.0
 31
0.0
 73
     1
 44
1.0
  0
ENDBLK
  5
300
330
2FE
100
AcDbEntity
  8
0
100
AcDbBlockEnd
  0
BLOCK
  5
30B
330
30A
100
AcDbEntity
  8
0
100
AcDbBlockBegin
  2
_D_13
 70
     0
 10
0.0
 20
0.0
 30
0.0
  3
_D_13
  1

  0
SOLID
  5
30D
330
30A
100
AcDbEntity
  8
0
  6
Continuous
 62
     7
370
     0
100
AcDbTrace
 10
53.7319963804
 20
258.8508803307
 30
0.0
 11
55.7319963804
 21
258.1008803307
 31
0.0
 12
55.7319963804
 22
259.6008803307
 32
0.0
 13
55.7319963804
 23
259.6008803307
 33
0.0
  0
SOLID
  5
30E
330
30A
100
AcDbEntity
  8
0
  6
Continuous
 62
     7
370
     0
100
AcDbTrace
 10
44.7319963804
 20
258.8508803307
 30
0.0
 11
42.7319963804
 21
259.6008803307
 31
0.0
 12
42.7319963804
 22
258.1008803307
 32
0.0
 13
42.7319963804
 23
258.1008803307
 33
0.0
  0
LINE
  5
30F
330
30A
100
AcDbEntity
  8
0
  6
Continuous
 62
     7
370
     0
100
AcDbLine
 10
53.7319963804
 20
255.4622052912
 30
0.0
 11
53.7319963804
 21
259.8508803307
 31
0.0
  0
LINE
  5
310
330
30A
100
AcDbEntity
  8
0
  6
Continuous
 62
     7
370
     0
100
AcDbLine
 10
44.7319963804
 20
255.4622052912
 30
0.0
 11
44.7319963804
 21
259.8508803307
 31
0.0
  0
LINE
  5
311
330
30A
100
AcDbEntity
  8
0
  6
Continuous
 62
     7
370
     0
100
AcDbLine
 10
53.7319963804
 20
258.8508803307
 30
0.0
 11
58.7319963804
 21
258.8508803307
 31
0.0
  0
LINE
  5
312
330
30A
100
AcDbEntity
  8
0
  6
Continuous
 62
     7
370
     0
100
AcDbLine
 10
53.7319963804
 20
258.8508803307
 30
0.0
 11
44.7319963804
 21
258.8508803307
 31
0.0
  0
LINE
  5
313
330
30A
100
AcDbEntity
  8
0
  6
Continuous
 62
     7
370
     0
100
AcDbLine
 10
44.7319963804
 20
258.8508803307
 30
0.0
 11
39.7319963804
 21
258.8508803307
 31
0.0
  0
MTEXT
  5
314
330
30A
100
AcDbEntity
  8
0
  6
Continuous
 62
     7
370
     0
100
AcDbMText
 10
47.9389407836
 20
263.3626172453
 30
35.6313718718
 40
3.5
 41
0.0
 71
     1
 72
     1
  1
9
  7
SLDTEXTSTYLE0
 73
     1
 44
1.0
  0
ENDBLK
  5
30C
330
30A
100
AcDbEntity
  8
0
100
AcDbBlockEnd
  0
BLOCK
  5
317
330
316
100
AcDbEntity
  8
0
100
AcDbBlockBegin
  2
_D_14
 70
     0
 10
0.0
 20
0.0
 30
0.0
  3
_D_14
  1

  0
ARC
  5
319
330
316
100
AcDbEntity
  8
0
  6
Continuous
 62
     7
370
     0
100
AcDbCircle
 10
50.2625520156
 20
271.9554052988
 30
0.0
 40
6.2120763399956
100
AcDbArc
 50
153.4349488229
 51
206.5650511771
  0
ARC
  5
31A
330
316
100
AcDbEntity
  8
0
  6
Continuous
 62
     7
370
     0
100
AcDbCircle
 10
48.2014410944
 20
271.9554052988
 30
0.0
 40
6.2120763399956
100
AcDbArc
 50
333.4349488229
 51
26.5650511771
  0
SOLID
  5
31B
330
316
100
AcDbEntity
  8
0
  6
Continuous
 62
     7
370
     0
100
AcDbTrace
 10
39.5996776554
 20
269.1772803032
 30
0.0
 11
37.5996776554
 21
269.9272803032
 31
0.0
 12
37.5996776554
 22
268.4272803032
 32
0.0
 13
37.5996776554
 23
268.4272803032
 33
0.0
  0
SOLID
  5
31C
330
316
100
AcDbEntity
  8
0
  6
Continuous
 62
     7
370
     0
100
AcDbTrace
 10
58.8643151054
 20
269.1772803032
 30
0.0
 11
60.8643151054
 21
268.4272803032
 31
0.0
 12
60.8643151054
 22
269.9272803032
 32
0.0
 13
60.8643151054
 23
269.9272803032
 33
0.0
  0
LINE
  5
31D
330
316
100
AcDbEntity
  8
0
  6
Continuous
 62
     7
370
     0
100
AcDbLine
 10
39.5996776554
 20
240.0869515371
 30
0.0
 11
39.5996776554
 21
270.1772803032
 31
0.0
  0
LINE
  5
31E
330
316
100
AcDbEntity
  8
0
  6
Continuous
 62
     7
370
     0
100
AcDbLine
 10
58.8643151054
 20
240.0869515371
 30
0.0
 11
58.8643151054
 21
270.1772803032
 31
0.0
  0
LINE
  5
31F
330
316
100
AcDbEntity
  8
0
  6
Continuous
 62
     7
370
     0
100
AcDbLine
 10
39.5996776554
 20
269.1772803032
 30
0.0
 11
34.5996776554
 21
269.1772803032
 31
0.0
  0
LINE
  5
320
330
316
100
AcDbEntity
  8
0
  6
Continuous
 62
     7
370
     0
100
AcDbLine
 10
39.5996776554
 20
269.1772803032
 30
0.0
 11
58.8643151054
 21
269.1772803032
 31
0.0
  0
LINE
  5
321
330
316
100
AcDbEntity
  8
0
  6
Continuous
 62
     7
370
     0
100
AcDbLine
 10
58.8643151054
 20
269.1772803032
 30
0.0
 11
63.8643151054
 21
269.1772803032
 31
0.0
  0
MTEXT
  5
322
330
316
100
AcDbEntity
  8
0
  6
Continuous
 62
     7
370
     0
100
AcDbMText
 10
44.7063020246
 20
273.6890172178
 30
35.6313718718
 40
3.5
 41
0.0
 71
     1
 72
     1
  1
19.3
  7
SLDTEXTSTYLE0
 73
     1
 44
1.0
  0
ENDBLK
  5
318
330
316
100
AcDbEntity
  8
0
100
AcDbBlockEnd
  0
BLOCK
  5
324
330
323
100
AcDbEntity
  8
0
100
AcDbBlockBegin
  2
SW_CENTERMARKSYMBOL_0
 70
     0
 10
0.0
 20
0.0
 30
0.0
  3
SW_CENTERMARKSYMBOL_0
  1

  0
LINE
  5
326
330
323
100
AcDbEntity
  8
0
  6
Continuous
 62
     0
370
     0
100
AcDbLine
 10
0.0
 20
0.0
 30
0.0
 11
0.0
 21
2.5
 31
0.0
  0
LINE
  5
327
330
323
100
AcDbEntity
  8
0
  6
Continuous
 62
     0
370
     0
100
AcDbLine
 10
0.0
 20
0.0
 30
0.0
 11
-2.5
 21
0.0
 31
0.0
  0
LINE
  5
328
330
323
100
AcDbEntity
  8
0
  6
Continuous
 62
     0
370
     0
100
AcDbLine
 10
0.0
 20
0.0
 30
0.0
 11
0.0
 21
-2.5
 31
0.0
  0
LINE
  5
329
330
323
100
AcDbEntity
  8
0
  6
Continuous
 62
     0
370
     0
100
AcDbLine
 10
0.0
 20
0.0
 30
0.0
 11
2.5
 21
0.0
 31
0.0
  0
LINE
  5
32A
330
323
100
AcDbEntity
  8
0
  6
Continuous
 62
     0
370
     0
100
AcDbLine
 10
0.0
 20
5.0
 30
0.0
 11
0.0
 21
6.35
 31
0.0
  0
LINE
  5
32B
330
323
100
AcDbEntity
  8
0
  6
Continuous
 62
     0
370
     0
100
AcDbLine
 10
-5.0
 20
0.0
 30
0.0
 11
-6.35
 21
0.0
 31
0.0
  0
LINE
  5
32C
330
323
100
AcDbEntity
  8
0
  6
Continuous
 62
     0
370
     0
100
AcDbLine
 10
0.0
 20
-5.0
 30
0.0
 11
0.0
 21
-6.35
 31
0.0
  0
LINE
  5
32D
330
323
100
AcDbEntity
  8
0
  6
Continuous
 62
     0
370
     0
100
AcDbLine
 10
5.0
 20
0.0
 30
0.0
 11
6.35
 21
0.0
 31
0.0
  0
ENDBLK
  5
325
330
323
100
AcDbEntity
  8
0
100
AcDbBlockEnd
  0
BLOCK
  5
330
330
32F
100
AcDbEntity
  8
0
100
AcDbBlockBegin
  2
SW_CENTERMARKSYMBOL_1
 70
     0
 10
0.0
 20
0.0
 30
0.0
  3
SW_CENTERMARKSYMBOL_1
  1

  0
LINE
  5
332
330
32F
100
AcDbEntity
  8
0
  6
Continuous
 62
     0
370
     0
100
AcDbLine
 10
0.0
 20
0.0
 30
0.0
 11
0.0
 21
2.5
 31
0.0
  0
LINE
  5
333
330
32F
100
AcDbEntity
  8
0
  6
Continuous
 62
     0
370
     0
100
AcDbLine
 10
0.0
 20
0.0
 30
0.0
 11
-2.5
 21
0.0
 31
0.0
  0
LINE
  5
334
330
32F
100
AcDbEntity
  8
0
  6
Continuous
 62
     0
370
     0
100
AcDbLine
 10
0.0
 20
0.0
 30
0.0
 11
0.0
 21
-2.5
 31
0.0
  0
LINE
  5
335
330
32F
100
AcDbEntity
  8
0
  6
Continuous
 62
     0
370
     0
100
AcDbLine
 10
0.0
 20
0.0
 30
0.0
 11
2.5
 21
0.0
 31
0.0
  0
LINE
  5
336
330
32F
100
AcDbEntity
  8
0
  6
Continuous
 62
     0
370
     0
100
AcDbLine
 10
0.0
 20
5.0
 30
0.0
 11
0.0
 21
6.35
 31
0.0
  0
LINE
  5
337
330
32F
100
AcDbEntity
  8
0
  6
Continuous
 62
     0
370
     0
100
AcDbLine
 10
-5.0
 20
0.0
 30
0.0
 11
-6.35
 21
0.0
 31
0.0
  0
LINE
  5
338
330
32F
100
AcDbEntity
  8
0
  6
Continuous
 62
     0
370
     0
100
AcDbLine
 10
0.0
 20
-5.0
 30
0.0
 11
0.0
 21
-20.112117927
 31
0.0
  0
LINE
  5
339
330
32F
100
AcDbEntity
  8
0
  6
Continuous
 62
     0
370
     0
100
AcDbLine
 10
5.0
 20
0.0
 30
0.0
 11
6.35
 21
0.0
 31
0.0
  0
ENDBLK
  5
331
330
32F
100
AcDbEntity
  8
0
100
AcDbBlockEnd
  0
BLOCK
  5
33C
330
33B
100
AcDbEntity
  8
0
100
AcDbBlockBegin
  2
SW_CENTERMARKSYMBOL_2
 70
     0
 10
0.0
 20
0.0
 30
0.0
  3
SW_CENTERMARKSYMBOL_2
  1

  0
LINE
  5
33E
330
33B
100
AcDbEntity
  8
0
  6
Continuous
 62
     0
370
     0
100
AcDbLine
 10
0.0
 20
0.0
 30
0.0
 11
0.0
 21
2.5
 31
0.0
  0
LINE
  5
33F
330
33B
100
AcDbEntity
  8
0
  6
Continuous
 62
     0
370
     0
100
AcDbLine
 10
0.0
 20
0.0
 30
0.0
 11
-2.5
 21
0.0
 31
0.0
  0
LINE
  5
340
330
33B
100
AcDbEntity
  8
0
  6
Continuous
 62
     0
370
     0
100
AcDbLine
 10
0.0
 20
0.0
 30
0.0
 11
0.0
 21
-2.5
 31
0.0
  0
LINE
  5
341
330
33B
100
AcDbEntity
  8
0
  6
Continuous
 62
     0
370
     0
100
AcDbLine
 10
0.0
 20
0.0
 30
0.0
 11
2.5
 21
0.0
 31
0.0
  0
LINE
  5
342
330
33B
100
AcDbEntity
  8
0
  6
Continuous
 62
     0
370
     0
100
AcDbLine
 10
0.0
 20
2.5
 30
0.0
 11
0.0
 21
4.5
 31
0.0
  0
LINE
  5
343
330
33B
100
AcDbEntity
  8
0
  6
Continuous
 62
     0
370
     0
100
AcDbLine
 10
-2.5
 20
0.0
 30
0.0
 11
-4.5
 21
0.0
 31
0.0
  0
LINE
  5
344
330
33B
100
AcDbEntity
  8
0
  6
Continuous
 62
     0
370
     0
100
AcDbLine
 10
0.0
 20
-2.5
 30
0.0
 11
0.0
 21
-4.5
 31
0.0
  0
LINE
  5
345
330
33B
100
AcDbEntity
  8
0
  6
Continuous
 62
     0
370
     0
100
AcDbLine
 10
2.5
 20
0.0
 30
0.0
 11
4.5
 21
0.0
 31
0.0
  0
ENDBLK
  5
33D
330
33B
100
AcDbEntity
  8
0
100
AcDbBlockEnd
  0
BLOCK
  5
348
330
347
100
AcDbEntity
  8
0
100
AcDbBlockBegin
  2
SW_CENTERMARKSYMBOL_3
 70
     0
 10
0.0
 20
0.0
 30
0.0
  3
SW_CENTERMARKSYMBOL_3
  1

  0
LINE
  5
34A
330
347
100
AcDbEntity
  8
0
  6
Continuous
 62
     0
370
     0
100
AcDbLine
 10
0.0
 20
0.0
 30
0.0
 11
0.0
 21
2.5
 31
0.0
  0
LINE
  5
34B
330
347
100
AcDbEntity
  8
0
  6
Continuous
 62
     0
370
     0
100
AcDbLine
 10
0.0
 20
0.0
 30
0.0
 11
-2.5
 21
0.0
 31
0.0
  0
LINE
  5
34C
330
347
100
AcDbEntity
  8
0
  6
Continuous
 62
     0
370
     0
100
AcDbLine
 10
0.0
 20
0.0
 30
0.0
 11
0.0
 21
-2.5
 31
0.0
  0
LINE
  5
34D
330
347
100
AcDbEntity
  8
0
  6
Continuous
 62
     0
370
     0
100
AcDbLine
 10
0.0
 20
0.0
 30
0.0
 11
2.5
 21
0.0
 31
0.0
  0
LINE
  5
34E
330
347
100
AcDbEntity
  8
0
  6
Continuous
 62
     0
370
     0
100
AcDbLine
 10
0.0
 20
5.0
 30
0.0
 11
0.0
 21
5.8
 31
0.0
  0
LINE
  5
34F
330
347
100
AcDbEntity
  8
0
  6
Continuous
 62
     0
370
     0
100
AcDbLine
 10
-5.0
 20
0.0
 30
0.0
 11
-5.8
 21
0.0
 31
0.0
  0
LINE
  5
350
330
347
100
AcDbEntity
  8
0
  6
Continuous
 62
     0
370
     0
100
AcDbLine
 10
0.0
 20
-5.0
 30
0.0
 11
0.0
 21
-5.8
 31
0.0
  0
LINE
  5
351
330
347
100
AcDbEntity
  8
0
  6
Continuous
 62
     0
370
     0
100
AcDbLine
 10
5.0
 20
0.0
 30
0.0
 11
5.8
 21
0.0
 31
0.0
  0
ENDBLK
  5
349
330
347
100
AcDbEntity
  8
0
100
AcDbBlockEnd
  0
BLOCK
  5
354
330
353
100
AcDbEntity
  8
0
100
AcDbBlockBegin
  2
SW_CENTERMARKSYMBOL_4
 70
     0
 10
0.0
 20
0.0
 30
0.0
  3
SW_CENTERMARKSYMBOL_4
  1

  0
LINE
  5
356
330
353
100
AcDbEntity
  8
0
  6
Continuous
 62
     0
370
     0
100
AcDbLine
 10
0.0
 20
0.0
 30
0.0
 11
0.0
 21
2.5
 31
0.0
  0
LINE
  5
357
330
353
100
AcDbEntity
  8
0
  6
Continuous
 62
     0
370
     0
100
AcDbLine
 10
0.0
 20
0.0
 30
0.0
 11
-2.5
 21
0.0
 31
0.0
  0
LINE
  5
358
330
353
100
AcDbEntity
  8
0
  6
Continuous
 62
     0
370
     0
100
AcDbLine
 10
0.0
 20
0.0
 30
0.0
 11
0.0
 21
-2.5
 31
0.0
  0
LINE
  5
359
330
353
100
AcDbEntity
  8
0
  6
Continuous
 62
     0
370
     0
100
AcDbLine
 10
0.0
 20
0.0
 30
0.0
 11
2.5
 21
0.0
 31
0.0
  0
LINE
  5
35A
330
353
100
AcDbEntity
  8
0
  6
Continuous
 62
     0
370
     0
100
AcDbLine
 10
0.0
 20
5.0
 30
0.0
 11
0.0
 21
5.8
 31
0.0
  0
LINE
  5
35B
330
353
100
AcDbEntity
  8
0
  6
Continuous
 62
     0
370
     0
100
AcDbLine
 10
-5.0
 20
0.0
 30
0.0
 11
-5.8
 21
0.0
 31
0.0
  0
LINE
  5
35C
330
353
100
AcDbEntity
  8
0
  6
Continuous
 62
     0
370
     0
100
AcDbLine
 10
0.0
 20
-5.0
 30
0.0
 11
0.0
 21
-5.8
 31
0.0
  0
LINE
  5
35D
330
353
100
AcDbEntity
  8
0
  6
Continuous
 62
     0
370
     0
100
AcDbLine
 10
5.0
 20
0.0
 30
0.0
 11
5.8
 21
0.0
 31
0.0
  0
ENDBLK
  5
355
330
353
100
AcDbEntity
  8
0
100
AcDbBlockEnd
  0
BLOCK
  5
360
330
35F
100
AcDbEntity
  8
0
100
AcDbBlockBegin
  2
SW_CENTERMARKSYMBOL_5
 70
     0
 10
0.0
 20
0.0
 30
0.0
  3
SW_CENTERMARKSYMBOL_5
  1

  0
LINE
  5
362
330
35F
100
AcDbEntity
  8
0
  6
Continuous
 62
     0
370
     0
100
AcDbLine
 10
0.0
 20
0.0
 30
0.0
 11
0.0
 21
2.5
 31
0.0
  0
LINE
  5
363
330
35F
100
AcDbEntity
  8
0
  6
Continuous
 62
     0
370
     0
100
AcDbLine
 10
0.0
 20
0.0
 30
0.0
 11
-2.5
 21
0.0
 31
0.0
  0
LINE
  5
364
330
35F
100
AcDbEntity
  8
0
  6
Continuous
 62
     0
370
     0
100
AcDbLine
 10
0.0
 20
0.0
 30
0.0
 11
0.0
 21
-2.5
 31
0.0
  0
LINE
  5
365
330
35F
100
AcDbEntity
  8
0
  6
Continuous
 62
     0
370
     0
100
AcDbLine
 10
0.0
 20
0.0
 30
0.0
 11
2.5
 21
0.0
 31
0.0
  0
LINE
  5
366
330
35F
100
AcDbEntity
  8
0
  6
Continuous
 62
     0
370
     0
100
AcDbLine
 10
0.0
 20
5.0
 30
0.0
 11
0.0
 21
6.0
 31
0.0
  0
LINE
  5
367
330
35F
100
AcDbEntity
  8
0
  6
Continuous
 62
     0
370
     0
100
AcDbLine
 10
-5.0
 20
0.0
 30
0.0
 11
-6.0
 21
0.0
 31
0.0
  0
LINE
  5
368
330
35F
100
AcDbEntity
  8
0
  6
Continuous
 62
     0
370
     0
100
AcDbLine
 10
0.0
 20
-5.0
 30
0.0
 11
0.0
 21
-6.0
 31
0.0
  0
LINE
  5
369
330
35F
100
AcDbEntity
  8
0
  6
Continuous
 62
     0
370
     0
100
AcDbLine
 10
5.0
 20
0.0
 30
0.0
 11
6.0
 21
0.0
 31
0.0
  0
ENDBLK
  5
361
330
35F
100
AcDbEntity
  8
0
100
AcDbBlockEnd
  0
BLOCK
  5
36C
330
36B
100
AcDbEntity
  8
0
100
AcDbBlockBegin
  2
SW_CENTERMARKSYMBOL_6
 70
     0
 10
0.0
 20
0.0
 30
0.0
  3
SW_CENTERMARKSYMBOL_6
  1

  0
LINE
  5
36E
330
36B
100
AcDbEntity
  8
0
  6
Continuous
 62
     0
370
     0
100
AcDbLine
 10
0.0
 20
0.0
 30
0.0
 11
0.0
 21
2.5
 31
0.0
  0
LINE
  5
36F
330
36B
100
AcDbEntity
  8
0
  6
Continuous
 62
     0
370
     0
100
AcDbLine
 10
0.0
 20
0.0
 30
0.0
 11
-2.5
 21
0.0
 31
0.0
  0
LINE
  5
370
330
36B
100
AcDbEntity
  8
0
  6
Continuous
 62
     0
370
     0
100
AcDbLine
 10
0.0
 20
0.0
 30
0.0
 11
0.0
 21
-2.5
 31
0.0
  0
LINE
  5
371
330
36B
100
AcDbEntity
  8
0
  6
Continuous
 62
     0
370
     0
100
AcDbLine
 10
0.0
 20
0.0
 30
0.0
 11
2.5
 21
0.0
 31
0.0
  0
LINE
  5
372
330
36B
100
AcDbEntity
  8
0
  6
Continuous
 62
     0
370
     0
100
AcDbLine
 10
0.0
 20
5.0
 30
0.0
 11
0.0
 21
5.8
 31
0.0
  0
LINE
  5
373
330
36B
100
AcDbEntity
  8
0
  6
Continuous
 62
     0
370
     0
100
AcDbLine
 10
-5.0
 20
0.0
 30
0.0
 11
-5.8
 21
0.0
 31
0.0
  0
LINE
  5
374
330
36B
100
AcDbEntity
  8
0
  6
Continuous
 62
     0
370
     0
100
AcDbLine
 10
0.0
 20
-5.0
 30
0.0
 11
0.0
 21
-5.8
 31
0.0
  0
LINE
  5
375
330
36B
100
AcDbEntity
  8
0
  6
Continuous
 62
     0
370
     0
100
AcDbLine
 10
5.0
 20
0.0
 30
0.0
 11
5.8
 21
0.0
 31
0.0
  0
ENDBLK
  5
36D
330
36B
100
AcDbEntity
  8
0
100
AcDbBlockEnd
  0
BLOCK
  5
378
330
377
100
AcDbEntity
  8
0
100
AcDbBlockBegin
  2
SW_CENTERMARKSYMBOL_7
 70
     0
 10
0.0
 20
0.0
 30
0.0
  3
SW_CENTERMARKSYMBOL_7
  1

  0
LINE
  5
37A
330
377
100
AcDbEntity
  8
0
  6
Continuous
 62
     0
370
     0
100
AcDbLine
 10
0.0
 20
0.0
 30
0.0
 11
0.0
 21
2.5
 31
0.0
  0
LINE
  5
37B
330
377
100
AcDbEntity
  8
0
  6
Continuous
 62
     0
370
     0
100
AcDbLine
 10
0.0
 20
0.0
 30
0.0
 11
-2.5
 21
0.0
 31
0.0
  0
LINE
  5
37C
330
377
100
AcDbEntity
  8
0
  6
Continuous
 62
     0
370
     0
100
AcDbLine
 10
0.0
 20
0.0
 30
0.0
 11
0.0
 21
-2.5
 31
0.0
  0
LINE
  5
37D
330
377
100
AcDbEntity
  8
0
  6
Continuous
 62
     0
370
     0
100
AcDbLine
 10
0.0
 20
0.0
 30
0.0
 11
2.5
 21
0.0
 31
0.0
  0
LINE
  5
37E
330
377
100
AcDbEntity
  8
0
  6
Continuous
 62
     0
370
     0
100
AcDbLine
 10
0.0
 20
5.0
 30
0.0
 11
0.0
 21
7.65
 31
0.0
  0
LINE
  5
37F
330
377
100
AcDbEntity
  8
0
  6
Continuous
 62
     0
370
     0
100
AcDbLine
 10
-5.0
 20
0.0
 30
0.0
 11
-7.65
 21
0.0
 31
0.0
  0
LINE
  5
380
330
377
100
AcDbEntity
  8
0
  6
Continuous
 62
     0
370
     0
100
AcDbLine
 10
0.0
 20
-5.0
 30
0.0
 11
0.0
 21
-7.65
 31
0.0
  0
LINE
  5
381
330
377
100
AcDbEntity
  8
0
  6
Continuous
 62
     0
370
     0
100
AcDbLine
 10
5.0
 20
0.0
 30
0.0
 11
7.65
 21
0.0
 31
0.0
  0
ENDBLK
  5
379
330
377
100
AcDbEntity
  8
0
100
AcDbBlockEnd
  0
BLOCK
  5
409
330
408
100
AcDbEntity
  8
0
100
AcDbBlockBegin
  2
_D_15
 70
     0
 10
0.0
 20
0.0
 30
0.0
  3
_D_15
  1

  0
SOLID
  5
40B
330
408
100
AcDbEntity
  8
0
  6
Continuous
 62
     7
370
     0
100
AcDbTrace
 10
153.1972728494
 20
127.9084050344
 30
0.0
 11
151.1972728494
 21
128.6584050344
 31
0.0
 12
151.1972728494
 22
127.1584050344
 32
0.0
 13
151.1972728494
 23
127.1584050344
 33
0.0
  0
SOLID
  5
40C
330
408
100
AcDbEntity
  8
0
  6
Continuous
 62
     7
370
     0
100
AcDbTrace
 10
155.1972728494
 20
127.9084050344
 30
0.0
 11
157.1972728494
 21
127.1584050344
 31
0.0
 12
157.1972728494
 22
128.6584050344
 32
0.0
 13
157.1972728494
 23
128.6584050344
 33
0.0
  0
LINE
  5
40D
330
408
100
AcDbEntity
  8
0
  6
Continuous
 62
     7
370
     0
100
AcDbLine
 10
153.1972728494
 20
111.5717672794
 30
0.0
 11
153.1972728494
 21
128.9084050344
 31
0.0
  0
LINE
  5
40E
330
408
100
AcDbEntity
  8
0
  6
Continuous
 62
     7
370
     0
100
AcDbLine
 10
155.1972728494
 20
119.7328046001
 30
0.0
 11
155.1972728494
 21
128.9084050344
 31
0.0
  0
LINE
  5
40F
330
408
100
AcDbEntity
  8
0
  6
Continuous
 62
     7
370
     0
100
AcDbLine
 10
153.1972728494
 20
127.9084050344
 30
0.0
 11
146.1358504744
 21
127.9084050344
 31
0.0
  0
LINE
  5
410
330
408
100
AcDbEntity
  8
0
  6
Continuous
 62
     7
370
     0
100
AcDbLine
 10
153.1972728494
 20
127.9084050344
 30
0.0
 11
155.1972728494
 21
127.9084050344
 31
0.0
  0
LINE
  5
411
330
408
100
AcDbEntity
  8
0
  6
Continuous
 62
     7
370
     0
100
AcDbLine
 10
155.1972728494
 20
127.9084050344
 30
0.0
 11
160.1972728494
 21
127.9084050344
 31
0.0
  0
MTEXT
  5
412
330
408
100
AcDbEntity
  8
0
  6
Continuous
 62
     7
370
     0
100
AcDbMText
 10
146.1358504744
 20
132.420141949
 30
-12.1035862266
 40
3.5
 41
0.0
 71
     1
 72
     1
  1
2
  7
SLDTEXTSTYLE0
 73
     1
 44
1.0
  0
ENDBLK
  5
40A
330
408
100
AcDbEntity
  8
0
100
AcDbBlockEnd
  0
BLOCK
  5
415
330
414
100
AcDbEntity
  8
0
100
AcDbBlockBegin
  2
_D_16
 70
     0
 10
0.0
 20
0.0
 30
0.0
  3
_D_16
  1

  0
SOLID
  5
417
330
414
100
AcDbEntity
  8
0
  6
Continuous
 62
     7
370
     0
100
AcDbTrace
 10
115.1972728494
 20
136.4664791674
 30
0.0
 11
117.1972728494
 21
135.7164791674
 31
0.0
 12
117.1972728494
 22
137.2164791674
 32
0.0
 13
117.1972728494
 23
137.2164791674
 33
0.0
  0
SOLID
  5
418
330
414
100
AcDbEntity
  8
0
  6
Continuous
 62
     7
370
     0
100
AcDbTrace
 10
155.1972728494
 20
136.4664791674
 30
0.0
 11
153.1972728494
 21
137.2164791674
 31
0.0
 12
153.1972728494
 22
135.7164791674
 32
0.0
 13
153.1972728494
 23
135.7164791674
 33
0.0
  0
LINE
  5
419
330
414
100
AcDbEntity
  8
0
  6
Continuous
 62
     7
370
     0
100
AcDbLine
 10
115.1972728494
 20
113.0828046001
 30
0.0
 11
115.1972728494
 21
137.4664791674
 31
0.0
  0
LINE
  5
41A
330
414
100
AcDbEntity
  8
0
  6
Continuous
 62
     7
370
     0
100
AcDbLine
 10
155.1972728494
 20
119.7328046001
 30
0.0
 11
155.1972728494
 21
137.4664791674
 31
0.0
  0
LINE
  5
41B
330
414
100
AcDbEntity
  8
0
  6
Continuous
 62
     7
370
     0
100
AcDbLine
 10
115.1972728494
 20
136.4664791674
 30
0.0
 11
155.1972728494
 21
136.4664791674
 31
0.0
  0
MTEXT
  5
41C
330
414
100
AcDbEntity
  8
0
  6
Continuous
 62
     7
370
     0
100
AcDbMText
 10
132.6111616559
 20
140.978216082
 30
-12.1035862266
 40
3.5
 41
0.0
 71
     1
 72
     1
  1
40
  7
SLDTEXTSTYLE0
 73
     1
 44
1.0
  0
ENDBLK
  5
416
330
414
100
AcDbEntity
  8
0
100
AcDbBlockEnd
  0
BLOCK
  5
41F
330
41E
100
AcDbEntity
  8
0
100
AcDbBlockBegin
  2
_D_17
 70
     0
 10
0.0
 20
0.0
 30
0.0
  3
_D_17
  1

  0
SOLID
  5
421
330
41E
100
AcDbEntity
  8
0
  6
Continuous
 62
     7
370
     0
100
AcDbTrace
 10
155.1972728494
 20
136.4664791674
 30
0.0
 11
157.1972728494
 21
135.7164791674
 31
0.0
 12
157.1972728494
 22
137.2164791674
 32
0.0
 13
157.1972728494
 23
137.2164791674
 33
0.0
  0
SOLID
  5
422
330
41E
100
AcDbEntity
  8
0
  6
Continuous
 62
     7
370
     0
100
AcDbTrace
 10
189.1257939186
 20
136.4664791674
 30
0.0
 11
187.1257939186
 21
137.2164791674
 31
0.0
 12
187.1257939186
 22
135.7164791674
 32
0.0
 13
187.1257939186
 23
135.7164791674
 33
0.0
  0
LINE
  5
423
330
41E
100
AcDbEntity
  8
0
  6
Continuous
 62
     7
370
     0
100
AcDbLine
 10
155.1972728494
 20
119.7328046001
 30
0.0
 11
155.1972728494
 21
137.4664791674
 31
0.0
  0
LINE
  5
424
330
41E
100
AcDbEntity
  8
0
  6
Continuous
 62
     7
370
     0
100
AcDbLine
 10
189.1257939186
 20
107.167002107
 30
0.0
 11
189.1257939186
 21
137.4664791674
 31
0.0
  0
LINE
  5
425
330
41E
100
AcDbEntity
  8
0
  6
Continuous
 62
     7
370
     0
100
AcDbLine
 10
155.1972728494
 20
136.4664791674
 30
0.0
 11
189.1257939186
 21
136.4664791674
 31
0.0
  0
MTEXT
  5
426
330
41E
100
AcDbEntity
  8
0
  6
Continuous
 62
     7
370
     0
100
AcDbMText
 10
167.6358388535
 20
140.978216082
 30
-12.1035862266
 40
3.5
 41
0.0
 71
     1
 72
     1
  1
33.9
  7
SLDTEXTSTYLE0
 73
     1
 44
1.0
  0
ENDBLK
  5
420
330
41E
100
AcDbEntity
  8
0
100
AcDbBlockEnd
  0
BLOCK
  5
429
330
428
100
AcDbEntity
  8
0
100
AcDbBlockBegin
  2
_D_18
 70
     0
 10
0.0
 20
0.0
 30
0.0
  3
_D_18
  1

  0
SOLID
  5
42B
330
428
100
AcDbEntity
  8
0
  6
Continuous
 62
     7
370
     0
100
AcDbTrace
 10
161.6972728494
 20
55.7691116567
 30
0.0
 11
163.6972728494
 21
55.0191116567
 31
0.0
 12
163.6972728494
 22
56.5191116567
 32
0.0
 13
163.6972728494
 23
56.5191116567
 33
0.0
  0
SOLID
  5
42C
330
428
100
AcDbEntity
  8
0
  6
Continuous
 62
     7
370
     0
100
AcDbTrace
 10
189.1257939186
 20
55.7691116567
 30
0.0
 11
187.1257939186
 21
56.5191116567
 31
0.0
 12
187.1257939186
 22
55.0191116567
 32
0.0
 13
187.1257939186
 23
55.0191116567
 33
0.0
  0
LINE
  5
42D
330
428
100
AcDbEntity
  8
0
  6
Continuous
 62
     7
370
     0
100
AcDbLine
 10
161.6972728494
 20
74.5828046001
 30
0.0
 11
161.6972728494
 21
54.7691116567
 31
0.0
  0
LINE
  5
42E
330
428
100
AcDbEntity
  8
0
  6
Continuous
 62
     7
370
     0
100
AcDbLine
 10
189.1257939186
 20
85.9986070933
 30
0.0
 11
189.1257939186
 21
54.7691116567
 31
0.0
  0
LINE
  5
42F
330
428
100
AcDbEntity
  8
0
  6
Continuous
 62
     7
370
     0
100
AcDbLine
 10
161.6972728494
 20
55.7691116567
 30
0.0
 11
189.1257939186
 21
55.7691116567
 31
0.0
  0
MTEXT
  5
430
330
428
100
AcDbEntity
  8
0
  6
Continuous
 62
     7
370
     0
100
AcDbMText
 10
167.6358388535
 20
60.2808485713
 30
-12.1035862266
 40
3.5
 41
0.0
 71
     1
 72
     1
  1
27.4
  7
SLDTEXTSTYLE0
 73
     1
 44
1.0
  0
ENDBLK
  5
42A
330
428
100
AcDbEntity
  8
0
100
AcDbBlockEnd
  0
BLOCK
  5
433
330
432
100
AcDbEntity
  8
0
100
AcDbBlockBegin
  2
_D_19
 70
     0
 10
0.0
 20
0.0
 30
0.0
  3
_D_19
  1

  0
SOLID
  5
435
330
432
100
AcDbEntity
  8
0
  6
Continuous
 62
     7
370
     0
100
AcDbTrace
 10
131.6972728494
 20
55.7691116567
 30
0.0
 11
133.6972728494
 21
55.0191116567
 31
0.0
 12
133.6972728494
 22
56.5191116567
 32
0.0
 13
133.6972728494
 23
56.5191116567
 33
0.0
  0
SOLID
  5
436
330
432
100
AcDbEntity
  8
0
  6
Continuous
 62
     7
370
     0
100
AcDbTrace
 10
161.6972728494
 20
55.7691116567
 30
0.0
 11
159.6972728494
 21
56.5191116567
 31
0.0
 12
159.6972728494
 22
55.0191116567
 32
0.0
 13
159.6972728494
 23
55.0191116567
 33
0.0
  0
LINE
  5
437
330
432
100
AcDbEntity
  8
0
  6
Continuous
 62
     7
370
     0
100
AcDbLine
 10
131.6972728494
 20
74.5828046001
 30
0.0
 11
131.6972728494
 21
54.7691116567
 31
0.0
  0
LINE
  5
438
330
432
100
AcDbEntity
  8
0
  6
Continuous
 62
     7
370
     0
100
AcDbLine
 10
161.6972728494
 20
74.5828046001
 30
0.0
 11
161.6972728494
 21
54.7691116567
 31
0.0
  0
LINE
  5
439
330
432
100
AcDbEntity
  8
0
  6
Continuous
 62
     7
370
     0
100
AcDbLine
 10
131.6972728494
 20
55.7691116567
 30
0.0
 11
161.6972728494
 21
55.7691116567
 31
0.0
  0
MTEXT
  5
43A
330
432
100
AcDbEntity
  8
0
  6
Continuous
 62
     7
370
     0
100
AcDbMText
 10
144.5659919119
 20
60.2808485713
 30
-12.1035862266
 40
3.5
 41
0.0
 71
     1
 72
     1
  1
30
  7
SLDTEXTSTYLE0
 73
     1
 44
1.0
  0
ENDBLK
  5
434
330
432
100
AcDbEntity
  8
0
100
AcDbBlockEnd
  0
BLOCK
  5
43D
330
43C
100
AcDbEntity
  8
0
100
AcDbBlockBegin
  2
_D_20
 70
     0
 10
0.0
 20
0.0
 30
0.0
  3
_D_20
  1

  0
SOLID
  5
43F
330
43C
100
AcDbEntity
  8
0
  6
Continuous
 62
     7
370
     0
100
AcDbTrace
 10
135.1972728494
 20
64.5371413143
 30
0.0
 11
137.1972728494
 21
63.7871413143
 31
0.0
 12
137.1972728494
 22
65.2871413143
 32
0.0
 13
137.1972728494
 23
65.2871413143
 33
0.0
  0
SOLID
  5
440
330
43C
100
AcDbEntity
  8
0
  6
Continuous
 62
     7
370
     0
100
AcDbTrace
 10
155.1972728494
 20
64.5371413143
 30
0.0
 11
153.1972728494
 21
65.2871413143
 31
0.0
 12
153.1972728494
 22
63.7871413143
 32
0.0
 13
153.1972728494
 23
63.7871413143
 33
0.0
  0
LINE
  5
441
330
43C
100
AcDbEntity
  8
0
  6
Continuous
 62
     7
370
     0
100
AcDbLine
 10
135.1972728494
 20
91.4328046001
 30
0.0
 11
135.1972728494
 21
63.5371413143
 31
0.0
  0
LINE
  5
442
330
43C
100
AcDbEntity
  8
0
  6
Continuous
 62
     7
370
     0
100
AcDbLine
 10
155.1972728494
 20
73.4328046001
 30
0.0
 11
155.1972728494
 21
63.5371413143
 31
0.0
  0
LINE
  5
443
330
43C
100
AcDbEntity
  8
0
  6
Continuous
 62
     7
370
     0
100
AcDbLine
 10
135.1972728494
 20
64.5371413143
 30
0.0
 11
155.1972728494
 21
64.5371413143
 31
0.0
  0
MTEXT
  5
444
330
43C
100
AcDbEntity
  8
0
  6
Continuous
 62
     7
370
     0
100
AcDbMText
 10
142.6111616559
 20
69.0488782288
 30
-12.1035862266
 40
3.5
 41
0.0
 71
     1
 72
     1
  1
20
  7
SLDTEXTSTYLE0
 73
     1
 44
1.0
  0
ENDBLK
  5
43E
330
43C
100
AcDbEntity
  8
0
100
AcDbBlockEnd
  0
BLOCK
  5
447
330
446
100
AcDbEntity
  8
0
100
AcDbBlockBegin
  2
_D_21
 70
     0
 10
0.0
 20
0.0
 30
0.0
  3
_D_21
  1

  0
SOLID
  5
449
330
446
100
AcDbEntity
  8
0
  6
Continuous
 62
     7
370
     0
100
AcDbTrace
 10
144.1639384127
 20
106.4217672794
 30
0.0
 11
143.4139384127
 21
104.4217672794
 31
0.0
 12
144.9139384127
 22
104.4217672794
 32
0.0
 13
144.9139384127
 23
104.4217672794
 33
0.0
  0
SOLID
  5
44A
330
446
100
AcDbEntity
  8
0
  6
Continuous
 62
     7
370
     0
100
AcDbTrace
 10
144.1639384127
 20
86.4217672794
 30
0.0
 11
144.9139384127
 21
88.4217672794
 31
0.0
 12
143.4139384127
 22
88.4217672794
 32
0.0
 13
143.4139384127
 23
88.4217672794
 33
0.0
  0
LINE
  5
44B
330
446
100
AcDbEntity
  8
0
  6
Continuous
 62
     7
370
     0
100
AcDbLine
 10
148.0472728494
 20
106.4217672794
 30
0.0
 11
143.1639384127
 21
106.4217672794
 31
0.0
  0
LINE
  5
44C
330
446
100
AcDbEntity
  8
0
  6
Continuous
 62
     7
370
     0
100
AcDbLine
 10
148.0472728494
 20
86.4217672794
 30
0.0
 11
143.1639384127
 21
86.4217672794
 31
0.0
  0
LINE
  5
44D
330
446
100
AcDbEntity
  8
0
  6
Continuous
 62
     7
370
     0
100
AcDbLine
 10
144.1639384127
 20
106.4217672794
 30
0.0
 11
144.1639384127
 21
86.4217672794
 31
0.0
  0
MTEXT
  5
44E
330
446
100
AcDbEntity
  8
0
  6
Continuous
 62
     7
370
     0
100
AcDbMText
 10
139.6522014981
 20
93.7350139247
 30
-12.1035862266
 40
3.5
 41
0.0
 71
     1
 72
     1
  1
20
  7
SLDTEXTSTYLE0
 11
-7.044195017643634E-15
 21
1.0
 31
0.0
 73
     1
 44
1.0
  0
ENDBLK
  5
448
330
446
100
AcDbEntity
  8
0
100
AcDbBlockEnd
  0
BLOCK
  5
451
330
450
100
AcDbEntity
  8
0
100
AcDbBlockBegin
  2
_D_22
 70
     0
 10
0.0
 20
0.0
 30
0.0
  3
_D_22
  1

  0
SOLID
  5
453
330
450
100
AcDbEntity
  8
0
  6
Continuous
 62
     7
370
     0
100
AcDbTrace
 10
130.4311491454
 20
114.5828046001
 30
0.0
 11
129.6811491454
 21
112.5828046001
 31
0.0
 12
131.1811491454
 22
112.5828046001
 32
0.0
 13
131.1811491454
 23
112.5828046001
 33
0.0
  0
SOLID
  5
454
330
450
100
AcDbEntity
  8
0
  6
Continuous
 62
     7
370
     0
100
AcDbTrace
 10
130.4311491454
 20
78.5828046001
 30
0.0
 11
131.1811491454
 21
80.5828046001
 31
0.0
 12
129.6811491454
 22
80.5828046001
 32
0.0
 13
129.6811491454
 23
80.5828046001
 33
0.0
  0
LINE
  5
455
330
450
100
AcDbEntity
  8
0
  6
Continuous
 62
     7
370
     0
100
AcDbLine
 10
150.0472728494
 20
114.5828046001
 30
0.0
 11
129.4311491454
 21
114.5828046001
 31
0.0
  0
LINE
  5
456
330
450
100
AcDbEntity
  8
0
  6
Continuous
 62
     7
370
     0
100
AcDbLine
 10
150.0472728494
 20
78.5828046001
 30
0.0
 11
129.4311491454
 21
78.5828046001
 31
0.0
  0
LINE
  5
457
330
450
100
AcDbEntity
  8
0
  6
Continuous
 62
     7
370
     0
100
AcDbLine
 10
130.4311491454
 20
114.5828046001
 30
0.0
 11
130.4311491454
 21
78.5828046001
 31
0.0
  0
MTEXT
  5
458
330
450
100
AcDbEntity
  8
0
  6
Continuous
 62
     7
370
     0
100
AcDbMText
 10
125.9194122308
 20
93.7350139247
 30
-12.1035862266
 40
3.5
 41
0.0
 71
     1
 72
     1
  1
36
  7
SLDTEXTSTYLE0
 11
-7.044195017643634E-15
 21
1.0
 31
0.0
 73
     1
 44
1.0
  0
ENDBLK
  5
452
330
450
100
AcDbEntity
  8
0
100
AcDbBlockEnd
  0
BLOCK
  5
45F
330
45E
100
AcDbEntity
  8
0
100
AcDbBlockBegin
  2
SW_CENTERMARKSYMBOL_8
 70
     0
 10
0.0
 20
0.0
 30
0.0
  3
SW_CENTERMARKSYMBOL_8
  1

  0
LINE
  5
461
330
45E
100
AcDbEntity
  8
0
  6
Continuous
 62
     0
370
     0
100
AcDbLine
 10
0.0
 20
0.0
 30
0.0
 11
0.0
 21
2.5
 31
0.0
  0
LINE
  5
462
330
45E
100
AcDbEntity
  8
0
  6
Continuous
 62
     0
370
     0
100
AcDbLine
 10
0.0
 20
0.0
 30
0.0
 11
-2.5
 21
0.0
 31
0.0
  0
LINE
  5
463
330
45E
100
AcDbEntity
  8
0
  6
Continuous
 62
     0
370
     0
100
AcDbLine
 10
0.0
 20
0.0
 30
0.0
 11
0.0
 21
-2.5
 31
0.0
  0
LINE
  5
464
330
45E
100
AcDbEntity
  8
0
  6
Continuous
 62
     0
370
     0
100
AcDbLine
 10
0.0
 20
0.0
 30
0.0
 11
2.5
 21
0.0
 31
0.0
  0
LINE
  5
465
330
45E
100
AcDbEntity
  8
0
  6
Continuous
 62
     0
370
     0
100
AcDbLine
 10
0.0
 20
2.5
 30
0.0
 11
0.0
 21
4.15
 31
0.0
  0
LINE
  5
466
330
45E
100
AcDbEntity
  8
0
  6
Continuous
 62
     0
370
     0
100
AcDbLine
 10
-2.5
 20
0.0
 30
0.0
 11
-4.15
 21
0.0
 31
0.0
  0
LINE
  5
467
330
45E
100
AcDbEntity
  8
0
  6
Continuous
 62
     0
370
     0
100
AcDbLine
 10
0.0
 20
-2.5
 30
0.0
 11
0.0
 21
-4.15
 31
0.0
  0
LINE
  5
468
330
45E
100
AcDbEntity
  8
0
  6
Continuous
 62
     0
370
     0
100
AcDbLine
 10
2.5
 20
0.0
 30
0.0
 11
4.15
 21
0.0
 31
0.0
  0
ENDBLK
  5
460
330
45E
100
AcDbEntity
  8
0
100
AcDbBlockEnd
  0
BLOCK
  5
46B
330
46A
100
AcDbEntity
  8
0
100
AcDbBlockBegin
  2
SW_CENTERMARKSYMBOL_9
 70
     0
 10
0.0
 20
0.0
 30
0.0
  3
SW_CENTERMARKSYMBOL_9
  1

  0
LINE
  5
46D
330
46A
100
AcDbEntity
  8
0
  6
Continuous
 62
     0
370
     0
100
AcDbLine
 10
0.0
 20
0.0
 30
0.0
 11
0.0
 21
2.5
 31
0.0
  0
LINE
  5
46E
330
46A
100
AcDbEntity
  8
0
  6
Continuous
 62
     0
370
     0
100
AcDbLine
 10
0.0
 20
0.0
 30
0.0
 11
-2.5
 21
0.0
 31
0.0
  0
LINE
  5
46F
330
46A
100
AcDbEntity
  8
0
  6
Continuous
 62
     0
370
     0
100
AcDbLine
 10
0.0
 20
0.0
 30
0.0
 11
0.0
 21
-2.5
 31
0.0
  0
LINE
  5
470
330
46A
100
AcDbEntity
  8
0
  6
Continuous
 62
     0
370
     0
100
AcDbLine
 10
0.0
 20
0.0
 30
0.0
 11
2.5
 21
0.0
 31
0.0
  0
LINE
  5
471
330
46A
100
AcDbEntity
  8
0
  6
Continuous
 62
     0
370
     0
100
AcDbLine
 10
0.0
 20
2.5
 30
0.0
 11
0.0
 21
4.15
 31
0.0
  0
LINE
  5
472
330
46A
100
AcDbEntity
  8
0
  6
Continuous
 62
     0
370
     0
100
AcDbLine
 10
-2.5
 20
0.0
 30
0.0
 11
-4.15
 21
0.0
 31
0.0
  0
LINE
  5
473
330
46A
100
AcDbEntity
  8
0
  6
Continuous
 62
     0
370
     0
100
AcDbLine
 10
0.0
 20
-2.5
 30
0.0
 11
0.0
 21
-4.15
 31
0.0
  0
LINE
  5
474
330
46A
100
AcDbEntity
  8
0
  6
Continuous
 62
     0
370
     0
100
AcDbLine
 10
2.5
 20
0.0
 30
0.0
 11
4.15
 21
0.0
 31
0.0
  0
ENDBLK
  5
46C
330
46A
100
AcDbEntity
  8
0
100
AcDbBlockEnd
  0
BLOCK
  5
477
330
476
100
AcDbEntity
  8
0
100
AcDbBlockBegin
  2
SW_CENTERMARKSYMBOL_10
 70
     0
 10
0.0
 20
0.0
 30
0.0
  3
SW_CENTERMARKSYMBOL_10
  1

  0
LINE
  5
479
330
476
100
AcDbEntity
  8
0
  6
Continuous
 62
     0
370
     0
100
AcDbLine
 10
0.0
 20
0.0
 30
0.0
 11
0.0
 21
2.5
 31
0.0
  0
LINE
  5
47A
330
476
100
AcDbEntity
  8
0
  6
Continuous
 62
     0
370
     0
100
AcDbLine
 10
0.0
 20
0.0
 30
0.0
 11
-2.5
 21
0.0
 31
0.0
  0
LINE
  5
47B
330
476
100
AcDbEntity
  8
0
  6
Continuous
 62
     0
370
     0
100
AcDbLine
 10
0.0
 20
0.0
 30
0.0
 11
0.0
 21
-2.5
 31
0.0
  0
LINE
  5
47C
330
476
100
AcDbEntity
  8
0
  6
Continuous
 62
     0
370
     0
100
AcDbLine
 10
0.0
 20
0.0
 30
0.0
 11
2.5
 21
0.0
 31
0.0
  0
LINE
  5
47D
330
476
100
AcDbEntity
  8
0
  6
Continuous
 62
     0
370
     0
100
AcDbLine
 10
0.0
 20
2.5
 30
0.0
 11
0.0
 21
4.15
 31
0.0
  0
LINE
  5
47E
330
476
100
AcDbEntity
  8
0
  6
Continuous
 62
     0
370
     0
100
AcDbLine
 10
-2.5
 20
0.0
 30
0.0
 11
-4.15
 21
0.0
 31
0.0
  0
LINE
  5
47F
330
476
100
AcDbEntity
  8
0
  6
Continuous
 62
     0
370
     0
100
AcDbLine
 10
0.0
 20
-2.5
 30
0.0
 11
0.0
 21
-4.15
 31
0.0
  0
LINE
  5
480
330
476
100
AcDbEntity
  8
0
  6
Continuous
 62
     0
370
     0
100
AcDbLine
 10
2.5
 20
0.0
 30
0.0
 11
4.15
 21
0.0
 31
0.0
  0
ENDBLK
  5
478
330
476
100
AcDbEntity
  8
0
100
AcDbBlockEnd
  0
BLOCK
  5
483
330
482
100
AcDbEntity
  8
0
100
AcDbBlockBegin
  2
SW_CENTERMARKSYMBOL_11
 70
     0
 10
0.0
 20
0.0
 30
0.0
  3
SW_CENTERMARKSYMBOL_11
  1

  0
LINE
  5
485
330
482
100
AcDbEntity
  8
0
  6
Continuous
 62
     0
370
     0
100
AcDbLine
 10
0.0
 20
0.0
 30
0.0
 11
0.0
 21
2.5
 31
0.0
  0
LINE
  5
486
330
482
100
AcDbEntity
  8
0
  6
Continuous
 62
     0
370
     0
100
AcDbLine
 10
0.0
 20
0.0
 30
0.0
 11
-2.5
 21
0.0
 31
0.0
  0
LINE
  5
487
330
482
100
AcDbEntity
  8
0
  6
Continuous
 62
     0
370
     0
100
AcDbLine
 10
0.0
 20
0.0
 30
0.0
 11
0.0
 21
-2.5
 31
0.0
  0
LINE
  5
488
330
482
100
AcDbEntity
  8
0
  6
Continuous
 62
     0
370
     0
100
AcDbLine
 10
0.0
 20
0.0
 30
0.0
 11
2.5
 21
0.0
 31
0.0
  0
LINE
  5
489
330
482
100
AcDbEntity
  8
0
  6
Continuous
 62
     0
370
     0
100
AcDbLine
 10
0.0
 20
2.5
 30
0.0
 11
0.0
 21
4.15
 31
0.0
  0
LINE
  5
48A
330
482
100
AcDbEntity
  8
0
  6
Continuous
 62
     0
370
     0
100
AcDbLine
 10
-2.5
 20
0.0
 30
0.0
 11
-4.15
 21
0.0
 31
0.0
  0
LINE
  5
48B
330
482
100
AcDbEntity
  8
0
  6
Continuous
 62
     0
370
     0
100
AcDbLine
 10
0.0
 20
-2.5
 30
0.0
 11
0.0
 21
-4.15
 31
0.0
  0
LINE
  5
48C
330
482
100
AcDbEntity
  8
0
  6
Continuous
 62
     0
370
     0
100
AcDbLine
 10
2.5
 20
0.0
 30
0.0
 11
4.15
 21
0.0
 31
0.0
  0
ENDBLK
  5
484
330
482
100
AcDbEntity
  8
0
100
AcDbBlockEnd
  0
BLOCK
  5
48F
330
48E
100
AcDbEntity
  8
0
100
AcDbBlockBegin
  2
SW_CENTERMARKSYMBOL_12
 70
     0
 10
0.0
 20
0.0
 30
0.0
  3
SW_CENTERMARKSYMBOL_12
  1

  0
LINE
  5
491
330
48E
100
AcDbEntity
  8
0
  6
Continuous
 62
     0
370
     0
100
AcDbLine
 10
0.0
 20
0.0
 30
0.0
 11
0.0
 21
2.5
 31
0.0
  0
LINE
  5
492
330
48E
100
AcDbEntity
  8
0
  6
Continuous
 62
     0
370
     0
100
AcDbLine
 10
0.0
 20
0.0
 30
0.0
 11
-2.5
 21
0.0
 31
0.0
  0
LINE
  5
493
330
48E
100
AcDbEntity
  8
0
  6
Continuous
 62
     0
370
     0
100
AcDbLine
 10
0.0
 20
0.0
 30
0.0
 11
0.0
 21
-2.5
 31
0.0
  0
LINE
  5
494
330
48E
100
AcDbEntity
  8
0
  6
Continuous
 62
     0
370
     0
100
AcDbLine
 10
0.0
 20
0.0
 30
0.0
 11
2.5
 21
0.0
 31
0.0
  0
LINE
  5
495
330
48E
100
AcDbEntity
  8
0
  6
Continuous
 62
     0
370
     0
100
AcDbLine
 10
0.0
 20
2.5
 30
0.0
 11
0.0
 21
4.15
 31
0.0
  0
LINE
  5
496
330
48E
100
AcDbEntity
  8
0
  6
Continuous
 62
     0
370
     0
100
AcDbLine
 10
-2.5
 20
0.0
 30
0.0
 11
-4.15
 21
0.0
 31
0.0
  0
LINE
  5
497
330
48E
100
AcDbEntity
  8
0
  6
Continuous
 62
     0
370
     0
100
AcDbLine
 10
0.0
 20
-2.5
 30
0.0
 11
0.0
 21
-4.15
 31
0.0
  0
LINE
  5
498
330
48E
100
AcDbEntity
  8
0
  6
Continuous
 62
     0
370
     0
100
AcDbLine
 10
2.5
 20
0.0
 30
0.0
 11
4.15
 21
0.0
 31
0.0
  0
ENDBLK
  5
490
330
48E
100
AcDbEntity
  8
0
100
AcDbBlockEnd
  0
BLOCK
  5
49B
330
49A
100
AcDbEntity
  8
0
100
AcDbBlockBegin
  2
SW_CENTERMARKSYMBOL_13
 70
     0
 10
0.0
 20
0.0
 30
0.0
  3
SW_CENTERMARKSYMBOL_13
  1

  0
LINE
  5
49D
330
49A
100
AcDbEntity
  8
0
  6
Continuous
 62
     0
370
     0
100
AcDbLine
 10
0.0
 20
0.0
 30
0.0
 11
0.0
 21
2.5
 31
0.0
  0
LINE
  5
49E
330
49A
100
AcDbEntity
  8
0
  6
Continuous
 62
     0
370
     0
100
AcDbLine
 10
0.0
 20
0.0
 30
0.0
 11
-2.5
 21
0.0
 31
0.0
  0
LINE
  5
49F
330
49A
100
AcDbEntity
  8
0
  6
Continuous
 62
     0
370
     0
100
AcDbLine
 10
0.0
 20
0.0
 30
0.0
 11
0.0
 21
-2.5
 31
0.0
  0
LINE
  5
4A0
330
49A
100
AcDbEntity
  8
0
  6
Continuous
 62
     0
370
     0
100
AcDbLine
 10
0.0
 20
0.0
 30
0.0
 11
2.5
 21
0.0
 31
0.0
  0
LINE
  5
4A1
330
49A
100
AcDbEntity
  8
0
  6
Continuous
 62
     0
370
     0
100
AcDbLine
 10
0.0
 20
2.5
 30
0.0
 11
0.0
 21
4.15
 31
0.0
  0
LINE
  5
4A2
330
49A
100
AcDbEntity
  8
0
  6
Continuous
 62
     0
370
     0
100
AcDbLine
 10
-2.5
 20
0.0
 30
0.0
 11
-4.15
 21
0.0
 31
0.0
  0
LINE
  5
4A3
330
49A
100
AcDbEntity
  8
0
  6
Continuous
 62
     0
370
     0
100
AcDbLine
 10
0.0
 20
-2.5
 30
0.0
 11
0.0
 21
-4.15
 31
0.0
  0
LINE
  5
4A4
330
49A
100
AcDbEntity
  8
0
  6
Continuous
 62
     0
370
     0
100
AcDbLine
 10
2.5
 20
0.0
 30
0.0
 11
4.15
 21
0.0
 31
0.0
  0
ENDBLK
  5
49C
330
49A
100
AcDbEntity
  8
0
100
AcDbBlockEnd
  0
ENDSEC
  0
SECTION
  2
ENTITIES
  0
LINE
  5
44
330
1F
100
AcDbEntity
  8
0
  6
Continuous
 62
     7
370
     0
100
AcDbLine
 10
20.2604743903
 20
285.0
 30
0.0
 11
196.7604743903
 21
285.0
 31
0.0
  0
LINE
  5
45
330
1F
100
AcDbEntity
  8
0
  6
Continuous
 62
     7
370
     0
100
AcDbLine
 10
20.2604743903
 20
285.0
 30
0.0
 11
20.2604743903
 21
10.0
 31
0.0
  0
LINE
  5
46
330
1F
100
AcDbEntity
  8
0
  6
Continuous
 62
     7
370
     0
100
AcDbLine
 10
20.2604743903
 20
10.0
 30
0.0
 11
196.7604743903
 21
10.0
 31
0.0
  0
LINE
  5
47
330
1F
100
AcDbEntity
  8
0
  6
Continuous
 62
     7
370
     0
100
AcDbLine
 10
196.7604743903
 20
285.0
 30
0.0
 11
196.7604743903
 21
10.0
 31
0.0
  0
LINE
  5
48
330
1F
100
AcDbEntity
  8
0
  6
Continuous
 62
     7
370
     0
100
AcDbLine
 10
127.0104743903
 20
50.75
 30
0.0
 11
196.7604743903
 21
50.75
 31
0.0
  0
LINE
  5
49
330
1F
100
AcDbEntity
  8
0
  6
Continuous
 62
     7
370
     0
100
AcDbLine
 10
127.0104743903
 20
50.75
 30
0.0
 11
127.0104743903
 21
10.0
 31
0.0
  0
LINE
  5
4A
330
1F
100
AcDbEntity
  8
0
  6
Continuous
 62
     7
370
     0
100
AcDbLine
 10
127.0104743903
 20
22.75
 30
0.0
 11
196.7604743903
 21
22.75
 31
0.0
  0
LINE
  5
4B
330
1F
100
AcDbEntity
  8
0
  6
Continuous
 62
     7
370
     0
100
AcDbLine
 10
127.0104743903
 20
36.75
 30
0.0
 11
196.7604743903
 21
36.75
 31
0.0
  0
MTEXT
  5
4D
330
1F
100
AcDbEntity
  8
0
  6
Continuous
 62
     7
370
     0
100
AcDbMText
 10
67.0000455491
 20
103.3133453074
 30
0.0
 40
3.5
 41
0.0
 71
     1
 72
     1
  1
ストッパーネジ
  7
SLDTEXTSTYLE0
 73
     1
 44
1.0
  0
MTEXT
  5
4F
330
1F
100
AcDbEntity
  8
0
  6
Continuous
 62
     7
370
     0
100
AcDbMText
 10
162.3401618231
 20
30.4171582345
 30
0.0
 40
4.2333333333
 41
0.0
 71
     2
 72
     1
  1
NW2-35R
  7
SLDTEXTSTYLE1
 73
     1
 44
1.0
  0
MTEXT
  5
50
330
1F
100
AcDbEntity
  8
0
  6
Continuous
 62
     7
370
     0
100
AcDbMText
 10
158.8415010543
 20
45.3285902962
 30
0.0
 40
3.175
 41
0.0
 71
     2
 72
     1
  1
ミニエアーニッパー・本体・逆刃付
  7
SLDTEXTSTYLE1
 73
     1
 44
1.0
  0
MTEXT
  5
51
330
1F
100
AcDbEntity
  8
0
  6
Continuous
 62
     7
370
     0
100
AcDbMText
 10
162.658400441
 20
16.8228189052
 30
0.0
 40
4.2333333333
 41
0.0
 71
     2
 72
     1
  1
131547
  7
SLDTEXTSTYLE1
 73
     1
 44
1.0
  0
LINE
  5
52
330
1F
100
AcDbEntity
  8
0
  6
Continuous
 62
     7
370
    15
100
AcDbLine
 10
102.9972694959
 20
193.5822049038
 30
0.0
 11
112.2932322468
 21
193.5822049038
 31
0.0
  0
LINE
  5
53
330
1F
100
AcDbEntity
  8
0
  6
Continuous
 62
     7
370
    15
100
AcDbLine
 10
112.2923083748
 20
201.5822062151
 30
0.0
 11
102.9972694959
 21
201.5822062151
 31
0.0
  0
LINE
  5
54
330
1F
100
AcDbEntity
  8
0
  6
Continuous
 62
     7
370
    15
100
AcDbLine
 10
100.5972735729
 20
193.7322055803
 30
0.0
 11
102.0972691621
 21
193.7322055803
 31
0.0
  0
LINE
  5
55
330
1F
100
AcDbEntity
  8
0
  6
Continuous
 62
     7
370
    15
100
AcDbLine
 10
102.0972691621
 20
201.4322055386
 30
0.0
 11
100.5972735729
 21
201.4322055386
 31
0.0
  0
LINE
  5
56
330
1F
100
AcDbEntity
  8
0
  6
Continuous
 62
     7
370
    15
100
AcDbLine
 10
102.0972691621
 20
195.1822049798
 30
0.0
 11
102.9972694959
 21
195.1822049798
 31
0.0
  0
LINE
  5
57
330
1F
100
AcDbEntity
  8
0
  6
Continuous
 62
     7
370
    15
100
AcDbLine
 10
102.9972694959
 20
199.9822052078
 30
0.0
 11
102.0972691621
 21
199.9822052078
 31
0.0
  0
LINE
  5
58
330
1F
100
AcDbEntity
  8
0
  6
Continuous
 62
     7
370
    15
100
AcDbLine
 10
121.7257939424
 20
209.5821721361
 30
0.0
 11
133.9257955696
 21
209.5821721361
 31
0.0
  0
LINE
  5
59
330
1F
100
AcDbEntity
  8
0
  6
Continuous
 62
     7
370
    15
100
AcDbLine
 10
133.9257955696
 20
217.5821715848
 30
0.0
 11
121.7257939424
 21
217.5821715848
 31
0.0
  0
LINE
  5
5A
330
1F
100
AcDbEntity
  8
0
  6
Continuous
 62
     7
370
    15
100
AcDbLine
 10
119.3257905688
 20
209.7321728126
 30
0.0
 11
120.8257936086
 21
209.7321728126
 31
0.0
  0
LINE
  5
5B
330
1F
100
AcDbEntity
  8
0
  6
Continuous
 62
     7
370
    15
100
AcDbLine
 10
120.8257936086
 20
217.4321727709
 30
0.0
 11
119.3257905688
 21
217.4321727709
 31
0.0
  0
LINE
  5
5C
330
1F
100
AcDbEntity
  8
0
  6
Continuous
 62
     7
370
    15
100
AcDbLine
 10
120.8257936086
 20
211.1821731434
 30
0.0
 11
121.7257939424
 21
211.1821731434
 31
0.0
  0
LINE
  5
5D
330
1F
100
AcDbEntity
  8
0
  6
Continuous
 62
     7
370
    15
100
AcDbLine
 10
121.7257939424
 20
215.9821743028
 30
0.0
 11
120.8257936086
 21
215.9821743028
 31
0.0
  0
LINE
  5
5E
330
1F
100
AcDbEntity
  8
0
  6
Continuous
 62
     7
370
    15
100
AcDbLine
 10
182.9257938224
 20
192.5822056712
 30
0.0
 11
179.2257940542
 21
192.5822056712
 31
0.0
  0
LINE
  5
5F
330
1F
100
AcDbEntity
  8
0
  6
Continuous
 62
     7
370
    15
100
AcDbLine
 10
179.2257940542
 20
185.5822053387
 30
0.0
 11
182.9257938224
 21
185.5822053387
 31
0.0
  0
LINE
  5
60
330
1F
100
AcDbEntity
  8
0
  6
Continuous
 62
     7
370
    15
100
AcDbLine
 10
182.9257938224
 20
185.5822053387
 30
0.0
 11
183.2257937785
 21
185.8822052948
 31
0.0
  0
LINE
  5
61
330
1F
100
AcDbEntity
  8
0
  6
Continuous
 62
     7
370
    15
100
AcDbLine
 10
183.2257937785
 20
192.2822052495
 30
0.0
 11
182.9257938224
 21
192.5822056712
 31
0.0
  0
LINE
  5
62
330
1F
100
AcDbEntity
  8
0
  6
Continuous
 62
     7
370
    15
100
AcDbLine
 10
182.9257938224
 20
211.5822059916
 30
0.0
 11
183.2257937785
 21
211.8822054819
 31
0.0
  0
LINE
  5
63
330
1F
100
AcDbEntity
  8
0
  6
Continuous
 62
     7
370
    15
100
AcDbLine
 10
183.2257937785
 20
218.2822057859
 30
0.0
 11
182.9257938224
 21
218.582207139
 31
0.0
  0
LINE
  5
64
330
1F
100
AcDbEntity
  8
0
  6
Continuous
 62
     7
370
    15
100
AcDbLine
 10
182.9257938224
 20
218.582207139
 30
0.0
 11
179.2257940542
 21
218.582207139
 31
0.0
  0
LINE
  5
65
330
1F
100
AcDbEntity
  8
0
  6
Continuous
 62
     7
370
    15
100
AcDbLine
 10
179.2257940542
 20
211.5822059916
 30
0.0
 11
182.9257938224
 21
211.5822059916
 31
0.0
  0
LINE
  5
66
330
1F
100
AcDbEntity
  8
0
  6
Continuous
 62
     7
370
    15
100
AcDbLine
 10
108.8509597029
 20
195.5822052316
 30
0.0
 11
111.9972728338
 21
195.5822052316
 31
0.0
  0
LINE
  5
67
330
1F
100
AcDbEntity
  8
0
  6
Continuous
 62
     7
370
    15
100
AcDbLine
 10
117.6972724642
 20
195.5822052316
 30
0.0
 11
117.8757958259
 21
195.5822052316
 31
0.0
  0
LINE
  5
68
330
1F
100
AcDbEntity
  8
0
  6
Continuous
 62
     7
370
    15
100
AcDbLine
 10
117.8757958259
 20
199.5822049559
 30
0.0
 11
117.6972724642
 21
199.5822049559
 31
0.0
  0
LINE
  5
69
330
1F
100
AcDbEntity
  8
0
  6
Continuous
 62
     7
370
    15
100
AcDbLine
 10
111.9972728338
 20
199.5822049559
 30
0.0
 11
108.8509597029
 21
199.5822049559
 31
0.0
  0
LINE
  5
6A
330
1F
100
AcDbEntity
  8
0
  6
Continuous
 62
     7
370
    15
100
AcDbLine
 10
108.8509597029
 20
199.5822049559
 30
0.0
 11
108.6257957067
 21
199.1922052459
 31
0.0
  0
LINE
  5
6B
330
1F
100
AcDbEntity
  8
0
  6
Continuous
 62
     7
370
    15
100
AcDbLine
 10
108.6257957067
 20
195.9722049416
 30
0.0
 11
108.8509597029
 21
195.5822052316
 31
0.0
  0
LINE
  5
6C
330
1F
100
AcDbEntity
  8
0
  6
Continuous
 62
     7
370
    15
100
AcDbLine
 10
117.8757958259
 20
195.5822052316
 30
0.0
 11
118.6257936205
 21
196.3322048889
 31
0.0
  0
LINE
  5
6D
330
1F
100
AcDbEntity
  8
0
  6
Continuous
 62
     7
370
    15
100
AcDbLine
 10
118.6257936205
 20
198.8322052987
 30
0.0
 11
117.8757958259
 21
199.5822049559
 31
0.0
  0
ARC
  5
6E
330
1F
100
AcDbEntity
  8
0
  6
Continuous
 62
     7
370
    15
100
AcDbCircle
 10
134.1257939186
 20
185.7822052912
 30
0.0
 40
0.2000000000000171
100
AcDbArc
 50
180.0
 51
270.0
  0
ARC
  5
6F
330
1F
100
AcDbEntity
  8
0
  6
Continuous
 62
     7
370
    15
100
AcDbCircle
 10
134.1257939186
 20
192.3822052912
 30
0.0
 40
0.2000000000000171
100
AcDbArc
 50
90.0
 51
180.0
  0
LINE
  5
70
330
1F
100
AcDbEntity
  8
0
  6
Continuous
 62
     7
370
    15
100
AcDbLine
 10
134.1257952299
 20
185.5822053387
 30
0.0
 11
137.9257925
 21
185.5822053387
 31
0.0
  0
LINE
  5
71
330
1F
100
AcDbEntity
  8
0
  6
Continuous
 62
     7
370
    15
100
AcDbLine
 10
137.9257925
 20
192.5822056712
 30
0.0
 11
134.1257952299
 21
192.5822056712
 31
0.0
  0
ARC
  5
72
330
1F
100
AcDbEntity
  8
0
  6
Continuous
 62
     7
370
    15
100
AcDbCircle
 10
134.1257939186
 20
211.7822052912
 30
0.0
 40
0.2000000000000171
100
AcDbArc
 50
180.0
 51
270.0
  0
ARC
  5
73
330
1F
100
AcDbEntity
  8
0
  6
Continuous
 62
     7
370
    15
100
AcDbCircle
 10
134.1257939186
 20
218.3822052912
 30
0.0
 40
0.1999999999999886
100
AcDbArc
 50
90.0
 51
180.0
  0
LINE
  5
74
330
1F
100
AcDbEntity
  8
0
  6
Continuous
 62
     7
370
    15
100
AcDbLine
 10
134.1257952299
 20
211.5822059916
 30
0.0
 11
137.9257925
 21
211.5822059916
 31
0.0
  0
LINE
  5
75
330
1F
100
AcDbEntity
  8
0
  6
Continuous
 62
     7
370
    15
100
AcDbLine
 10
137.9257925
 20
218.582207139
 30
0.0
 11
134.1257952299
 21
218.582207139
 31
0.0
  0
LINE
  5
76
330
1F
100
AcDbEntity
  8
0
  6
Continuous
 62
     7
370
    15
100
AcDbLine
 10
111.9972728338
 20
194.0822049857
 30
0.0
 11
112.2160218801
 21
193.7033261986
 31
0.0
  0
LINE
  5
77
330
1F
100
AcDbEntity
  8
0
  6
Continuous
 62
     7
370
    15
100
AcDbLine
 10
112.2160218801
 20
201.461083989
 30
0.0
 11
111.9972728338
 21
201.0822052018
 31
0.0
  0
LINE
  5
78
330
1F
100
AcDbEntity
  8
0
  6
Continuous
 62
     7
370
    15
100
AcDbLine
 10
160.2257937338
 20
183.7822053114
 30
0.0
 11
160.425793394
 21
183.5822052437
 31
0.0
  0
LINE
  5
79
330
1F
100
AcDbEntity
  8
0
  6
Continuous
 62
     7
370
    15
100
AcDbLine
 10
176.0257939022
 20
183.5822052437
 30
0.0
 11
176.2257935624
 21
183.7822053114
 31
0.0
  0
LINE
  5
7A
330
1F
100
AcDbEntity
  8
0
  6
Continuous
 62
     7
370
    15
100
AcDbLine
 10
176.2257935624
 20
184.3822052963
 30
0.0
 11
176.0257939022
 21
184.5822052912
 31
0.0
  0
LINE
  5
7B
330
1F
100
AcDbEntity
  8
0
  6
Continuous
 62
     7
370
    15
100
AcDbLine
 10
160.425793394
 20
184.5822052912
 30
0.0
 11
160.2257937338
 21
184.3822052963
 31
0.0
  0
LINE
  5
7C
330
1F
100
AcDbEntity
  8
0
  6
Continuous
 62
     7
370
    15
100
AcDbLine
 10
160.2257937338
 20
184.3822052963
 30
0.0
 11
160.2257937338
 21
183.7822053114
 31
0.0
  0
LINE
  5
7D
330
1F
100
AcDbEntity
  8
0
  6
Continuous
 62
     7
370
    15
100
AcDbLine
 10
176.2257935624
 20
183.7822053114
 30
0.0
 11
176.2257935624
 21
184.3822052963
 31
0.0
  0
LINE
  5
7E
330
1F
100
AcDbEntity
  8
0
  6
Continuous
 62
     7
370
    15
100
AcDbLine
 10
164.2257943894
 20
183.5822052437
 30
0.0
 11
164.2257943894
 21
183.0822052782
 31
0.0
  0
LINE
  5
7F
330
1F
100
AcDbEntity
  8
0
  6
Continuous
 62
     7
370
    15
100
AcDbLine
 10
172.2257938381
 20
183.0822052782
 30
0.0
 11
172.2257938381
 21
183.5822052437
 31
0.0
  0
LINE
  5
80
330
1F
100
AcDbEntity
  8
0
  6
Continuous
 62
     7
370
    15
100
AcDbLine
 10
166.2257947173
 20
180.5822051012
 30
0.0
 11
166.2257947173
 21
180.2822051452
 31
0.0
  0
LINE
  5
81
330
1F
100
AcDbEntity
  8
0
  6
Continuous
 62
     7
370
    15
100
AcDbLine
 10
166.2257947173
 20
179.082205321
 30
0.0
 11
166.2257947173
 21
178.9822054909
 31
0.0
  0
LINE
  5
82
330
1F
100
AcDbEntity
  8
0
  6
Continuous
 62
     7
370
    15
100
AcDbLine
 10
170.2257935103
 20
178.9822054909
 30
0.0
 11
170.2257935103
 21
179.082205321
 31
0.0
  0
LINE
  5
83
330
1F
100
AcDbEntity
  8
0
  6
Continuous
 62
     7
370
    15
100
AcDbLine
 10
170.2257935103
 20
180.2822051452
 30
0.0
 11
170.2257935103
 21
180.5822051012
 31
0.0
  0
LINE
  5
84
330
1F
100
AcDbEntity
  8
0
  6
Continuous
 62
     7
370
    15
100
AcDbLine
 10
119.4257922615
 20
199.5822049559
 30
0.0
 11
118.6257936205
 21
199.5822049559
 31
0.0
  0
LINE
  5
85
330
1F
100
AcDbEntity
  8
0
  6
Continuous
 62
     7
370
    15
100
AcDbLine
 10
118.6257936205
 20
195.5822052316
 30
0.0
 11
119.4257922615
 21
195.5822052316
 31
0.0
  0
LINE
  5
86
330
1F
100
AcDbEntity
  8
0
  6
Continuous
 62
     7
370
    15
100
AcDbLine
 10
133.9257955696
 20
193.8131049157
 30
0.0
 11
137.9257925
 21
193.8131049157
 31
0.0
  0
LINE
  5
87
330
1F
100
AcDbEntity
  8
0
  6
Continuous
 62
     7
370
    15
100
AcDbLine
 10
137.9257925
 20
210.3513048844
 30
0.0
 11
133.9257955696
 21
210.3513048844
 31
0.0
  0
ARC
  5
88
330
1F
100
AcDbEntity
  8
0
  6
Continuous
 62
     7
370
    15
100
AcDbCircle
 10
132.9257939186
 20
186.0822052912
 30
0.0
 40
1.0
100
AcDbArc
 50
0.0
 51
90.0
  0
ARC
  5
89
330
1F
100
AcDbEntity
  8
0
  6
Continuous
 62
     7
370
    15
100
AcDbCircle
 10
132.9257939186
 20
209.0822052912
 30
0.0
 40
1.0
100
AcDbArc
 50
270.0
 51
0.0
  0
LINE
  5
8A
330
1F
100
AcDbEntity
  8
0
  6
Continuous
 62
     7
370
    15
100
AcDbLine
 10
132.925793543
 20
208.0822044865
 30
0.0
 11
119.4257922615
 21
208.0822044865
 31
0.0
  0
LINE
  5
8B
330
1F
100
AcDbEntity
  8
0
  6
Continuous
 62
     7
370
    15
100
AcDbLine
 10
119.4257922615
 20
187.0822052353
 30
0.0
 11
132.925793543
 21
187.0822052353
 31
0.0
  0
LINE
  5
8C
330
1F
100
AcDbEntity
  8
0
  6
Continuous
 62
     7
370
    15
100
AcDbLine
 10
118.425790235
 20
200.5822060512
 30
0.0
 11
117.6972724642
 21
200.5822060512
 31
0.0
  0
LINE
  5
8D
330
1F
100
AcDbEntity
  8
0
  6
Continuous
 62
     7
370
    15
100
AcDbLine
 10
117.6972724642
 20
194.5822050677
 30
0.0
 11
118.425790235
 21
194.5822050677
 31
0.0
  0
LINE
  5
8E
330
1F
100
AcDbEntity
  8
0
  6
Continuous
 62
     7
370
    15
100
AcDbLine
 10
102.9972694959
 20
193.5822049038
 30
0.0
 11
102.9972694959
 21
201.5822062151
 31
0.0
  0
LINE
  5
8F
330
1F
100
AcDbEntity
  8
0
  6
Continuous
 62
     7
370
    15
100
AcDbLine
 10
102.0972691621
 20
193.7322055803
 30
0.0
 11
102.0972691621
 21
201.4322055386
 31
0.0
  0
LINE
  5
90
330
1F
100
AcDbEntity
  8
0
  6
Continuous
 62
     7
370
    15
100
AcDbLine
 10
100.5972735729
 20
193.7322055803
 30
0.0
 11
100.5972735729
 21
201.4322055386
 31
0.0
  0
LINE
  5
91
330
1F
100
AcDbEntity
  8
0
  6
Continuous
 62
     7
370
    15
100
AcDbLine
 10
121.7257939424
 20
209.5821721361
 30
0.0
 11
121.7257939424
 21
217.5821715848
 31
0.0
  0
LINE
  5
92
330
1F
100
AcDbEntity
  8
0
  6
Continuous
 62
     7
370
    15
100
AcDbLine
 10
120.8257936086
 20
209.7321728126
 30
0.0
 11
120.8257936086
 21
217.4321727709
 31
0.0
  0
LINE
  5
93
330
1F
100
AcDbEntity
  8
0
  6
Continuous
 62
     7
370
    15
100
AcDbLine
 10
119.3257905688
 20
209.7321728126
 30
0.0
 11
119.3257905688
 21
217.4321727709
 31
0.0
  0
LINE
  5
94
330
1F
100
AcDbEntity
  8
0
  6
Continuous
 62
     7
370
    15
100
AcDbLine
 10
179.2257940542
 20
215.5822047846
 30
0.0
 11
179.2257940542
 21
188.2822052923
 31
0.0
  0
LINE
  5
95
330
1F
100
AcDbEntity
  8
0
  6
Continuous
 62
     7
370
    15
100
AcDbLine
 10
177.6257939782
 20
188.2822052923
 30
0.0
 11
179.2257940542
 21
188.2822052923
 31
0.0
  0
LINE
  5
96
330
1F
100
AcDbEntity
  8
0
  6
Continuous
 62
     7
370
    15
100
AcDbLine
 10
177.6257939782
 20
215.5822047846
 30
0.0
 11
177.6257939782
 21
188.2822052923
 31
0.0
  0
LINE
  5
97
330
1F
100
AcDbEntity
  8
0
  6
Continuous
 62
     7
370
    15
100
AcDbLine
 10
177.6257939782
 20
215.5822047846
 30
0.0
 11
179.2257940542
 21
215.5822047846
 31
0.0
  0
LINE
  5
98
330
1F
100
AcDbEntity
  8
0
  6
Continuous
 62
     7
370
    15
100
AcDbLine
 10
177.6257939782
 20
219.5822054402
 30
0.0
 11
177.6257939782
 21
215.5822047846
 31
0.0
  0
LINE
  5
99
330
1F
100
AcDbEntity
  8
0
  6
Continuous
 62
     7
370
    15
100
AcDbLine
 10
177.6257939782
 20
219.5822054402
 30
0.0
 11
179.2257940542
 21
219.5822054402
 31
0.0
  0
LINE
  5
9A
330
1F
100
AcDbEntity
  8
0
  6
Continuous
 62
     7
370
    15
100
AcDbLine
 10
179.2257940542
 20
215.5822047846
 30
0.0
 11
179.2257940542
 21
219.5822054402
 31
0.0
  0
LINE
  5
9B
330
1F
100
AcDbEntity
  8
0
  6
Continuous
 62
     7
370
    15
100
AcDbLine
 10
179.2257940542
 20
184.282205277
 30
0.0
 11
177.6257939782
 21
184.282205277
 31
0.0
  0
LINE
  5
9C
330
1F
100
AcDbEntity
  8
0
  6
Continuous
 62
     7
370
    15
100
AcDbLine
 10
179.2257940542
 20
184.282205277
 30
0.0
 11
179.2257940542
 21
188.2822052923
 31
0.0
  0
LINE
  5
9D
330
1F
100
AcDbEntity
  8
0
  6
Continuous
 62
     7
370
    15
100
AcDbLine
 10
182.9257938224
 20
189.0822050975
 30
0.0
 11
182.9257938224
 21
185.5822053387
 31
0.0
  0
LINE
  5
9E
330
1F
100
AcDbEntity
  8
0
  6
Continuous
 62
     7
370
    15
100
AcDbLine
 10
182.9257938224
 20
192.5822056712
 30
0.0
 11
182.9257938224
 21
189.0822050975
 31
0.0
  0
LINE
  5
9F
330
1F
100
AcDbEntity
  8
0
  6
Continuous
 62
     7
370
    15
100
AcDbLine
 10
183.2257937785
 20
189.0822050975
 30
0.0
 11
183.2257937785
 21
185.8822052948
 31
0.0
  0
LINE
  5
A0
330
1F
100
AcDbEntity
  8
0
  6
Continuous
 62
     7
370
    15
100
AcDbLine
 10
183.2257937785
 20
192.2822052495
 30
0.0
 11
183.2257937785
 21
189.0822050975
 31
0.0
  0
LINE
  5
A1
330
1F
100
AcDbEntity
  8
0
  6
Continuous
 62
     7
370
    15
100
AcDbLine
 10
183.2257937785
 20
215.0822056339
 30
0.0
 11
183.2257937785
 21
211.8822054819
 31
0.0
  0
LINE
  5
A2
330
1F
100
AcDbEntity
  8
0
  6
Continuous
 62
     7
370
    15
100
AcDbLine
 10
183.2257937785
 20
218.2822057859
 30
0.0
 11
183.2257937785
 21
215.0822056339
 31
0.0
  0
LINE
  5
A3
330
1F
100
AcDbEntity
  8
0
  6
Continuous
 62
     7
370
    15
100
AcDbLine
 10
182.9257938224
 20
215.0822056339
 30
0.0
 11
182.9257938224
 21
211.5822059916
 31
0.0
  0
LINE
  5
A4
330
1F
100
AcDbEntity
  8
0
  6
Continuous
 62
     7
370
    15
100
AcDbLine
 10
182.9257938224
 20
218.582207139
 30
0.0
 11
182.9257938224
 21
215.0822056339
 31
0.0
  0
LINE
  5
A5
330
1F
100
AcDbEntity
  8
0
  6
Continuous
 62
     7
370
    15
100
AcDbLine
 10
180.2257942181
 20
219.5822054402
 30
0.0
 11
179.2257940542
 21
219.5822054402
 31
0.0
  0
LINE
  5
A6
330
1F
100
AcDbEntity
  8
0
  6
Continuous
 62
     7
370
    15
100
AcDbLine
 10
187.6257938711
 20
231.1622070031
 30
0.0
 11
187.1257939055
 21
231.1622070031
 31
0.0
  0
LINE
  5
A7
330
1F
100
AcDbEntity
  8
0
  6
Continuous
 62
     7
370
    15
100
AcDbLine
 10
187.6257938711
 20
231.1622070031
 30
0.0
 11
187.6257938711
 21
225.4176417248
 31
0.0
  0
LINE
  5
A8
330
1F
100
AcDbEntity
  8
0
  6
Continuous
 62
     7
370
    15
100
AcDbLine
 10
179.3257938843
 20
225.4176417248
 30
0.0
 11
187.6257938711
 21
225.4176417248
 31
0.0
  0
LINE
  5
A9
330
1F
100
AcDbEntity
  8
0
  6
Continuous
 62
     7
370
    15
100
AcDbLine
 10
179.3257938843
 20
231.1622070031
 30
0.0
 11
179.3257938843
 21
225.4176417248
 31
0.0
  0
LINE
  5
AA
330
1F
100
AcDbEntity
  8
0
  6
Continuous
 62
     7
370
    15
100
AcDbLine
 10
187.1257939055
 20
231.1622070031
 30
0.0
 11
179.3257938843
 21
231.1622070031
 31
0.0
  0
SPLINE
  5
AB
330
1F
100
AcDbEntity
  8
0
  6
Continuous
 62
     7
370
    15
100
AcDbSpline
210
0.0
220
0.0
230
1.0
 70
    24
 71
     3
 72
    13
 73
     9
 74
     0
 42
0.00000001
 43
0.00000001
 12
1.0
 22
0.0
 32
0.0
 13
1.0
 23
0.0
 33
0.0
 40
0.0
 40
0.0
 40
0.0
 40
0.0
 40
0.0650501638000627
 40
0.1334187120095892
 40
0.2207739750873639
 40
0.3193287118146665
 40
0.5983482502963049
 40
1.0
 40
1.0
 40
1.0
 40
1.0
 10
187.6257938710565
 20
231.1622070030578
 30
0.0
 10
187.6845159391791
 20
231.1622070030578
 30
0.0
 10
187.8049556465955
 20
231.1622070030578
 30
0.0
 10
187.9856608524729
 20
231.1622070030578
 30
0.0
 10
188.1589972861233
 20
231.1622070030578
 30
0.0
 10
188.3982379332707
 20
231.1622070030579
 30
0.0
 10
188.6044535313357
 20
231.1622070030578
 30
0.0
 10
188.6178744679211
 20
231.1622070030578
 30
0.0
 10
188.6257939185513
 20
231.1622070030578
 30
0.0
  0
SPLINE
  5
AC
330
1F
100
AcDbEntity
  8
0
  6
Continuous
 62
     7
370
    15
100
AcDbSpline
210
0.0
220
0.0
230
1.0
 70
    24
 71
     3
 72
    15
 73
    11
 74
     0
 42
0.00000001
 43
0.00000001
 12
1.0
 22
0.0
 32
0.0
 13
1.0
 23
0.0
 33
0.0
 40
0.0
 40
0.0
 40
0.0
 40
0.0
 40
0.1249998851915609
 40
0.2500001042618818
 40
0.3749999911205442
 40
0.4999998216167211
 40
0.6250000388235549
 40
0.7499999027251669
 40
0.8750000109886256
 40
1.0
 40
1.0
 40
1.0
 40
1.0
 10
188.625793918552
 20
225.4176417247661
 30
0.0
 10
188.625793918552
 20
225.7371294639146
 30
0.0
 10
188.625793918552
 20
226.3761057955735
 30
0.0
 10
188.625793918552
 20
227.3101502961107
 30
0.0
 10
188.625793918552
 20
228.1960575815347
 30
0.0
 10
188.625793918552
 20
229.0110122798485
 30
0.0
 10
188.625793918552
 20
229.7352222369818
 30
0.0
 10
188.625793918552
 20
230.3466712459665
 30
0.0
 10
188.625793918552
 20
230.8431159177291
 30
0.0
 10
188.625793918552
 20
231.0558433417725
 30
0.0
 10
188.625793918552
 20
231.1622070030578
 30
0.0
  0
LINE
  5
AD
330
1F
100
AcDbEntity
  8
0
  6
Continuous
 62
     7
370
    15
100
AcDbLine
 10
188.6257939185
 20
225.4176417248
 30
0.0
 11
187.6257938711
 21
225.4176417248
 31
0.0
  0
LINE
  5
AE
330
1F
100
AcDbEntity
  8
0
  6
Continuous
 62
     7
370
    15
100
AcDbLine
 10
188.6257939186
 20
225.4176417248
 30
0.0
 11
188.6257939186
 21
191.0822054253
 31
0.0
  0
LINE
  5
AF
330
1F
100
AcDbEntity
  8
0
  6
Continuous
 62
     7
370
    15
100
AcDbLine
 10
187.6257938711
 20
191.0822054253
 30
0.0
 11
188.6257939185
 21
191.0822054253
 31
0.0
  0
LINE
  5
B0
330
1F
100
AcDbEntity
  8
0
  6
Continuous
 62
     7
370
    15
100
AcDbLine
 10
187.6257938711
 20
225.4176417248
 30
0.0
 11
187.6257938711
 21
191.0822054253
 31
0.0
  0
SPLINE
  5
B1
330
1F
100
AcDbEntity
  8
0
  6
Continuous
 62
     7
370
    15
100
AcDbSpline
210
0.0
220
0.0
230
1.0
 70
    24
 71
     3
 72
    11
 73
     7
 74
     0
 42
0.00000001
 43
0.00000001
 12
1.0
 22
0.0
 32
0.0
 13
1.0
 23
0.0
 33
0.0
 40
0.0
 40
0.0
 40
0.0
 40
0.0
 40
0.2500002114124868
 40
0.5000000222751139
 40
0.7500000812171597
 40
1.0
 40
1.0
 40
1.0
 40
1.0
 10
188.6257939185448
 20
191.0822054253229
 30
0.0
 10
188.6257939185448
 20
190.9511682745637
 30
0.0
 10
188.6257939185448
 20
190.6890941829928
 30
0.0
 10
188.6257939185448
 20
190.3585494047582
 30
0.0
 10
188.6257939185448
 20
190.1273003306084
 30
0.0
 10
188.6257939185448
 20
190.0972369483338
 30
0.0
 10
188.6257939185448
 20
190.0822052614101
 30
0.0
  0
ARC
  5
B2
330
1F
100
AcDbEntity
  8
0
  6
Continuous
 62
     7
370
    15
100
AcDbCircle
 10
187.6257939186
 20
190.0822052912
 30
0.0
 40
0.999999999997101
100
AcDbArc
 50
270.0000000002
 51
0.0000000004
  0
LINE
  5
B3
330
1F
100
AcDbEntity
  8
0
  6
Continuous
 62
     7
370
    15
100
AcDbLine
 10
187.6257938711
 20
191.0822054253
 30
0.0
 11
187.6257938711
 21
189.0822050975
 31
0.0
  0
LINE
  5
B4
330
1F
100
AcDbEntity
  8
0
  6
Continuous
 62
     7
370
    15
100
AcDbLine
 10
179.3257938843
 20
219.5822054402
 30
0.0
 11
179.3257938843
 21
225.4176417248
 31
0.0
  0
LINE
  5
B5
330
1F
100
AcDbEntity
  8
0
  6
Continuous
 62
     7
370
    15
100
AcDbLine
 10
183.2257937785
 20
189.0822050975
 30
0.0
 11
187.6257938711
 21
189.0822050975
 31
0.0
  0
LINE
  5
B6
330
1F
100
AcDbEntity
  8
0
  6
Continuous
 62
     7
370
    15
100
AcDbLine
 10
189.1257939423
 20
254.3028609709
 30
0.0
 11
189.1257939423
 21
237.3884336905
 31
0.0
  0
LINE
  5
B7
330
1F
100
AcDbEntity
  8
0
  6
Continuous
 62
     7
370
    15
100
AcDbLine
 10
188.6257939186
 20
237.3884336905
 30
0.0
 11
189.1257939423
 21
237.3884336905
 31
0.0
  0
SPLINE
  5
B8
330
1F
100
AcDbEntity
  8
0
  6
Continuous
 62
     7
370
    15
100
AcDbSpline
210
0.0
220
0.0
230
1.0
 70
     8
 71
     3
 72
    13
 73
     9
 74
     0
 42
0.00000001
 43
0.00000001
 12
1.0
 22
0.0
 32
0.0
 13
1.0
 23
0.0
 33
0.0
 40
0.0
 40
0.0
 40
0.0
 40
0.0
 40
0.1300283928242483
 40
0.2567097784629518
 40
0.4989918386674193
 40
0.7418898038161259
 40
0.8691705730488589
 40
1.0
 40
1.0
 40
1.0
 40
1.0
 10
188.6257939185539
 20
237.3884336904892
 30
0.0
 10
188.5236707529974
 20
237.3823696455327
 30
0.0
 10
188.3220531321337
 20
237.3703976476977
 30
0.0
 10
187.9467824754327
 20
237.2488619934067
 30
0.0
 10
187.5382786924197
 20
236.9759469371081
 30
0.0
 10
187.2654753627573
 20
236.5676898267658
 30
0.0
 10
187.1438374500196
 20
236.1922792496337
 30
0.0
 10
187.1318632963597
 20
235.9906400869129
 30
0.0
 10
187.1257939055154
 20
235.8884343759426
 30
0.0
  0
LINE
  5
B9
330
1F
100
AcDbEntity
  8
0
  6
Continuous
 62
     7
370
    15
100
AcDbLine
 10
187.1257939055
 20
234.3066388623
 30
0.0
 11
187.1257939055
 21
235.8884343759
 31
0.0
  0
LINE
  5
BA
330
1F
100
AcDbEntity
  8
0
  6
Continuous
 62
     7
370
    15
100
AcDbLine
 10
179.125794224
 20
234.3066388623
 30
0.0
 11
187.1257939055
 21
234.3066388623
 31
0.0
  0
LINE
  5
BB
330
1F
100
AcDbEntity
  8
0
  6
Continuous
 62
     7
370
    15
100
AcDbLine
 10
179.125794224
 20
234.3066388623
 30
0.0
 11
179.125794224
 21
237.3922036843
 31
0.0
  0
LINE
  5
BC
330
1F
100
AcDbEntity
  8
0
  6
Continuous
 62
     7
370
    15
100
AcDbLine
 10
179.625794306
 20
237.3922036843
 30
0.0
 11
179.125794224
 21
237.3922036843
 31
0.0
  0
SPLINE
  5
BD
330
1F
100
AcDbEntity
  8
0
  6
Continuous
 62
     7
370
    15
100
AcDbSpline
210
0.0
220
0.0
230
1.0
 70
     8
 71
     3
 72
    20
 73
    16
 74
     0
 42
0.00000001
 43
0.00000001
 12
1.0
 22
0.0
 32
0.0
 13
1.0
 23
0.0
 33
0.0
 40
0.0
 40
0.0
 40
0.0
 40
0.0
 40
0.0582938300554247
 40
0.1194806485707497
 40
0.1835615565952861
 40
0.2505374009225113
 40
0.3048861788152901
 40
0.3754040413081007
 40
0.4503736951112707
 40
0.5003770756324211
 40
0.592541134056262
 40
0.6760581034616837
 40
0.7509290362310216
 40
0.876799998837015
 40
1.0
 40
1.0
 40
1.0
 40
1.0
 10
179.6257943059841
 20
237.3922036842712
 30
0.0
 10
179.7173363472662
 20
237.3946334823206
 30
0.0
 10
179.9049634504
 20
237.3996136636976
 30
0.0
 10
180.1907525889586
 20
237.4412925896551
 30
0.0
 10
180.4845041499315
 20
237.5120971556983
 30
0.0
 10
180.7593039058442
 20
237.6096915354904
 30
0.0
 10
181.0325248451253
 20
237.7369881603556
 30
0.0
 10
181.3030366952222
 20
237.8969888489197
 30
0.0
 10
181.5481911769672
 20
238.0827337692608
 30
0.0
 10
181.7985768701782
 20
238.3143257235292
 30
0.0
 10
182.031044401399
 20
238.5833613110124
 30
0.0
 10
182.2456678951167
 20
238.9144535928468
 30
0.0
 10
182.4393337699406
 20
239.3170002217758
 30
0.0
 10
182.5930857681404
 20
239.8073528717666
 30
0.0
 10
182.6149693914254
 20
240.1986537135252
 30
0.0
 10
182.6257938663998
 20
240.3922060386547
 30
0.0
  0
LINE
  5
BE
330
1F
100
AcDbEntity
  8
0
  6
Continuous
 62
     7
370
    15
100
AcDbLine
 10
182.6257938664
 20
241.5103705482
 30
0.0
 11
182.6257938664
 21
240.3922060387
 31
0.0
  0
LINE
  5
BF
330
1F
100
AcDbEntity
  8
0
  6
Continuous
 62
     7
370
    15
100
AcDbLine
 10
187.9627690795
 20
254.3028609709
 30
0.0
 11
189.1257939423
 21
254.3028609709
 31
0.0
  0
SPLINE
  5
C0
330
1F
100
AcDbEntity
  8
0
  6
Continuous
 62
     7
370
    15
100
AcDbSpline
210
0.0
220
0.0
230
1.0
 70
     8
 71
     3
 72
    20
 73
    16
 74
     0
 42
0.00000001
 43
0.00000001
 12
1.0
 22
0.0
 32
0.0
 13
1.0
 23
0.0
 33
0.0
 40
0.0
 40
0.0
 40
0.0
 40
0.0
 40
0.1129294377100826
 40
0.2276327495310726
 40
0.3052758867502842
 40
0.3850925779223984
 40
0.467166195325761
 40
0.527562101481813
 40
0.5906665367993472
 40
0.6565020878984624
 40
0.7250885553849462
 40
0.7906145629536866
 40
0.862319554233629
 40
0.92462097806422
 40
1.0
 40
1.0
 40
1.0
 40
1.0
 10
182.6257938663998
 20
241.5103705481895
 30
0.0
 10
182.6407653794251
 20
242.0672841000237
 30
0.0
 10
182.6709435751522
 20
243.1898590957532
 30
0.0
 10
182.8876828828691
 20
244.6694305868874
 30
0.0
 10
183.1712563873204
 20
245.9582082483337
 30
0.0
 10
183.4914748939676
 20
247.0659160048725
 30
0.0
 10
183.8510589257206
 20
248.0643688687084
 30
0.0
 10
184.2321313735461
 20
248.9603926463132
 30
0.0
 10
184.6203379068824
 20
249.7626419592369
 30
0.0
 10
185.064289848763
 20
250.5732004402147
 30
0.0
 10
185.5530706764518
 20
251.364389385648
 30
0.0
 10
186.0945029494535
 20
252.1474828777381
 30
0.0
 10
186.6569846913639
 20
252.8741334670386
 30
0.0
 10
187.2808491127109
 20
253.6053663591321
 30
0.0
 10
187.721510332898
 20
254.056092018525
 30
0.0
 10
187.9627690795401
 20
254.3028609709152
 30
0.0
  0
LINE
  5
C1
330
1F
100
AcDbEntity
  8
0
  6
Continuous
 62
     7
370
    15
100
AcDbLine
 10
179.3257938843
 20
229.2671965317
 30
0.0
 11
179.125794224
 21
229.2671965317
 31
0.0
  0
LINE
  5
C2
330
1F
100
AcDbEntity
  8
0
  6
Continuous
 62
     7
370
    15
100
AcDbLine
 10
187.1257939055
 20
234.3066388623
 30
0.0
 11
187.1257939055
 21
231.1622070031
 31
0.0
  0
LINE
  5
C3
330
1F
100
AcDbEntity
  8
0
  6
Continuous
 62
     7
370
    15
100
AcDbLine
 10
179.125794224
 20
229.2671965317
 30
0.0
 11
179.125794224
 21
234.3066388623
 31
0.0
  0
LINE
  5
C4
330
1F
100
AcDbEntity
  8
0
  6
Continuous
 62
     7
370
    15
100
AcDbLine
 10
179.125794224
 20
229.2671965317
 30
0.0
 11
179.125794224
 21
226.0779568807
 31
0.0
  0
LINE
  5
C5
330
1F
100
AcDbEntity
  8
0
  6
Continuous
 62
     7
370
    15
100
AcDbLine
 10
179.125794224
 20
219.5822054402
 30
0.0
 11
179.125794224
 21
226.0779568807
 31
0.0
  0
LINE
  5
C6
330
1F
100
AcDbEntity
  8
0
  6
Continuous
 62
     7
370
    15
100
AcDbLine
 10
188.9257939328
 20
254.4622065381
 30
0.0
 11
189.1257939423
 21
254.4622065381
 31
0.0
  0
LINE
  5
C7
330
1F
100
AcDbEntity
  8
0
  6
Continuous
 62
     7
370
    15
100
AcDbLine
 10
189.1257939423
 20
254.3028609709
 30
0.0
 11
189.1257939423
 21
254.4622065381
 31
0.0
  0
LINE
  5
C8
330
1F
100
AcDbEntity
  8
0
  6
Continuous
 62
     7
370
    15
100
AcDbLine
 10
187.9627690795
 20
254.3028609709
 30
0.0
 11
187.9986045096
 21
254.3382363276
 31
0.0
  0
LINE
  5
C9
330
1F
100
AcDbEntity
  8
0
  6
Continuous
 62
     7
370
    15
100
AcDbLine
 10
188.9257939328
 20
254.4622065381
 30
0.0
 11
187.9986045096
 21
254.3382363276
 31
0.0
  0
LINE
  5
CA
330
1F
100
AcDbEntity
  8
0
  6
Continuous
 62
     7
370
    15
100
AcDbLine
 10
108.8509597029
 20
195.5822052316
 30
0.0
 11
108.8509597029
 21
199.5822049559
 31
0.0
  0
LINE
  5
CB
330
1F
100
AcDbEntity
  8
0
  6
Continuous
 62
     7
370
    15
100
AcDbLine
 10
117.8757958259
 20
195.5822052316
 30
0.0
 11
117.8757958259
 21
199.5822049559
 31
0.0
  0
LINE
  5
CC
330
1F
100
AcDbEntity
  8
0
  6
Continuous
 62
     7
370
    15
100
AcDbLine
 10
108.6257957067
 20
195.9722049416
 30
0.0
 11
108.6257957067
 21
199.1922052459
 31
0.0
  0
LINE
  5
CD
330
1F
100
AcDbEntity
  8
0
  6
Continuous
 62
     7
370
    15
100
AcDbLine
 10
117.6972724642
 20
180.5822051012
 30
0.0
 11
132.3972717072
 21
180.5822051012
 31
0.0
  0
LINE
  5
CE
330
1F
100
AcDbEntity
  8
0
  6
Continuous
 62
     7
370
    15
100
AcDbLine
 10
117.6972724642
 20
184.0822052675
 30
0.0
 11
117.6972724642
 21
180.5822051012
 31
0.0
  0
ARC
  5
CF
330
1F
100
AcDbEntity
  8
0
  6
Continuous
 62
     7
370
    15
100
AcDbCircle
 10
118.6972728494
 20
184.0822052912
 30
0.0
 40
1.0
100
AcDbArc
 50
180.0
 51
270.0
  0
LINE
  5
D0
330
1F
100
AcDbEntity
  8
0
  6
Continuous
 62
     7
370
    15
100
AcDbLine
 10
118.6972744908
 20
183.0822052782
 30
0.0
 11
132.3972717072
 21
183.0822052782
 31
0.0
  0
LINE
  5
D1
330
1F
100
AcDbEntity
  8
0
  6
Continuous
 62
     7
370
    15
100
AcDbLine
 10
132.3972717072
 20
183.0822052782
 30
0.0
 11
132.3972717072
 21
180.5822051012
 31
0.0
  0
LINE
  5
D2
330
1F
100
AcDbEntity
  8
0
  6
Continuous
 62
     7
370
    15
100
AcDbLine
 10
132.3972717072
 20
183.0822052782
 30
0.0
 11
173.1972731795
 21
183.0822052782
 31
0.0
  0
LINE
  5
D3
330
1F
100
AcDbEntity
  8
0
  6
Continuous
 62
     7
370
    15
100
AcDbLine
 10
173.1972731795
 20
180.5822051012
 30
0.0
 11
173.1972731795
 21
183.0822052782
 31
0.0
  0
LINE
  5
D4
330
1F
100
AcDbEntity
  8
0
  6
Continuous
 62
     7
370
    15
100
AcDbLine
 10
132.3972717072
 20
180.5822051012
 30
0.0
 11
173.1972731795
 21
180.5822051012
 31
0.0
  0
LINE
  5
D5
330
1F
100
AcDbEntity
  8
0
  6
Continuous
 62
     7
370
    15
100
AcDbLine
 10
174.1972724121
 20
183.0822052782
 30
0.0
 11
174.1972724121
 21
180.5822051012
 31
0.0
  0
LINE
  5
D6
330
1F
100
AcDbEntity
  8
0
  6
Continuous
 62
     7
370
    15
100
AcDbLine
 10
174.1972724121
 20
180.5822051012
 30
0.0
 11
173.1972731795
 21
180.5822051012
 31
0.0
  0
LINE
  5
D7
330
1F
100
AcDbEntity
  8
0
  6
Continuous
 62
     7
370
    15
100
AcDbLine
 10
173.1972731795
 20
183.0822052782
 30
0.0
 11
174.1972724121
 21
183.0822052782
 31
0.0
  0
LINE
  5
D8
330
1F
100
AcDbEntity
  8
0
  6
Continuous
 62
     7
370
    15
100
AcDbLine
 10
131.6972710337
 20
178.5822052391
 30
0.0
 11
131.6972710337
 21
180.5822051012
 31
0.0
  0
LINE
  5
D9
330
1F
100
AcDbEntity
  8
0
  6
Continuous
 62
     7
370
    15
100
AcDbLine
 10
132.6972730603
 20
180.5822051012
 30
0.0
 11
132.6972730603
 21
178.5822052391
 31
0.0
  0
LINE
  5
DA
330
1F
100
AcDbEntity
  8
0
  6
Continuous
 62
     7
370
    15
100
AcDbLine
 10
132.6972730603
 20
178.5822052391
 30
0.0
 11
131.6972710337
 21
178.5822052391
 31
0.0
  0
LINE
  5
DB
330
1F
100
AcDbEntity
  8
0
  6
Continuous
 62
     7
370
    15
100
AcDbLine
 10
160.6972720619
 20
178.5822052391
 30
0.0
 11
160.6972720619
 21
180.5822051012
 31
0.0
  0
LINE
  5
DC
330
1F
100
AcDbEntity
  8
0
  6
Continuous
 62
     7
370
    15
100
AcDbLine
 10
161.6972722258
 20
180.5822051012
 30
0.0
 11
161.6972722258
 21
178.5822052391
 31
0.0
  0
LINE
  5
DD
330
1F
100
AcDbEntity
  8
0
  6
Continuous
 62
     7
370
    15
100
AcDbLine
 10
161.6972722258
 20
178.5822052391
 30
0.0
 11
160.6972720619
 21
178.5822052391
 31
0.0
  0
LINE
  5
DE
330
1F
100
AcDbEntity
  8
0
  6
Continuous
 62
     7
370
    15
100
AcDbLine
 10
160.6972720619
 20
178.5822052391
 30
0.0
 11
132.6972730603
 21
178.5822052391
 31
0.0
  0
LINE
  5
DF
330
1F
100
AcDbEntity
  8
0
  6
Continuous
 62
     7
370
    15
100
AcDbLine
 10
117.6972724642
 20
208.0822044865
 30
0.0
 11
115.1972748484
 21
208.0822044865
 31
0.0
  0
LINE
  5
E0
330
1F
100
AcDbEntity
  8
0
  6
Continuous
 62
     7
370
    15
100
AcDbLine
 10
117.6972724642
 20
196.0822053136
 30
0.0
 11
115.1972748484
 21
196.0822053136
 31
0.0
  0
LINE
  5
E1
330
1F
100
AcDbEntity
  8
0
  6
Continuous
 62
     7
370
    15
100
AcDbLine
 10
117.6972724642
 20
208.0822044865
 30
0.0
 11
117.6972724642
 21
196.0822053136
 31
0.0
  0
LINE
  5
E2
330
1F
100
AcDbEntity
  8
0
  6
Continuous
 62
     7
370
    15
100
AcDbLine
 10
115.1972748484
 20
208.0822044865
 30
0.0
 11
115.1972748484
 21
196.0822053136
 31
0.0
  0
ARC
  5
E3
330
1F
100
AcDbEntity
  8
0
  6
Continuous
 62
     7
370
    15
100
AcDbCircle
 10
117.6972728494
 20
183.0822052912
 30
0.0
 40
2.5
100
AcDbArc
 50
180.0
 51
270.0
  0
LINE
  5
E4
330
1F
100
AcDbEntity
  8
0
  6
Continuous
 62
     7
370
    15
100
AcDbLine
 10
117.6972724642
 20
196.0822053136
 30
0.0
 11
117.6972724642
 21
184.0822052675
 31
0.0
  0
LINE
  5
E5
330
1F
100
AcDbEntity
  8
0
  6
Continuous
 62
     7
370
    15
100
AcDbLine
 10
115.1972748484
 20
196.0822053136
 30
0.0
 11
115.1972748484
 21
183.0822052782
 31
0.0
  0
LINE
  5
E6
330
1F
100
AcDbEntity
  8
0
  6
Continuous
 62
     7
370
    15
100
AcDbLine
 10
133.9257955696
 20
189.2082712495
 30
0.0
 11
133.9257955696
 21
192.3822050796
 31
0.0
  0
LINE
  5
E7
330
1F
100
AcDbEntity
  8
0
  6
Continuous
 62
     7
370
    15
100
AcDbLine
 10
133.9257955696
 20
185.7822053482
 30
0.0
 11
133.9257955696
 21
189.2082712495
 31
0.0
  0
LINE
  5
E8
330
1F
100
AcDbEntity
  8
0
  6
Continuous
 62
     7
370
    15
100
AcDbLine
 10
133.9257955696
 20
211.7822056518
 30
0.0
 11
133.9257955696
 21
218.3822037534
 31
0.0
  0
LINE
  5
E9
330
1F
100
AcDbEntity
  8
0
  6
Continuous
 62
     7
370
    15
100
AcDbLine
 10
115.1972748484
 20
195.8400912465
 30
0.0
 11
112.3098768439
 21
195.8400912465
 31
0.0
  0
SPLINE
  5
EA
330
1F
100
AcDbEntity
  8
0
  6
Continuous
 62
     7
370
    15
100
AcDbSpline
210
0.0
220
0.0
230
1.0
 70
     8
 71
     3
 72
    10
 73
     6
 74
     0
 42
0.00000001
 43
0.00000001
 12
1.0
 22
0.0
 32
0.0
 13
1.0
 23
0.0
 33
0.0
 40
0.0
 40
0.0
 40
0.0
 40
0.0
 40
0.0700366167008002
 40
0.5307572520436757
 40
1.0
 40
1.0
 40
1.0
 40
1.0
 10
111.9972728337684
 20
197.8546844677337
 30
0.0
 10
111.9976451356401
 20
197.8069685270774
 30
0.0
 10
112.0004665443206
 20
197.4453636590176
 30
0.0
 10
112.06873867878
 20
196.7635400764598
 30
0.0
 10
112.2290078906164
 20
196.1497823326633
 30
0.0
 10
112.3098768438736
 20
195.8400912464865
 30
0.0
  0
SPLINE
  5
EB
330
1F
100
AcDbEntity
  8
0
  6
Continuous
 62
     7
370
    15
100
AcDbSpline
210
0.0
220
0.0
230
1.0
 70
     8
 71
     3
 72
     9
 73
     5
 74
     0
 42
0.00000001
 43
0.00000001
 12
1.0
 22
0.0
 32
0.0
 13
1.0
 23
0.0
 33
0.0
 40
0.0
 40
0.0
 40
0.0
 40
0.0
 40
0.4954579119477857
 40
1.0
 40
1.0
 40
1.0
 40
1.0
 10
112.3098768438736
 20
199.8692776889809
 30
0.0
 10
112.2225047906906
 20
199.5420987768108
 30
0.0
 10
112.0461587256142
 20
198.8817421566411
 30
0.0
 10
112.0136665193582
 20
198.1991040988138
 30
0.0
 10
111.9972728337684
 20
197.8546844677337
 30
0.0
  0
LINE
  5
EC
330
1F
100
AcDbEntity
  8
0
  6
Continuous
 62
     7
370
    15
100
AcDbLine
 10
115.1972748484
 20
199.869277689
 30
0.0
 11
112.3098768439
 21
199.869277689
 31
0.0
  0
SPLINE
  5
ED
330
1F
100
AcDbEntity
  8
0
  6
Continuous
 62
     7
370
    15
100
AcDbSpline
210
0.0
220
0.0
230
1.0
 70
     8
 71
     3
 72
     9
 73
     5
 74
     0
 42
0.00000001
 43
0.00000001
 12
1.0
 22
0.0
 32
0.0
 13
1.0
 23
0.0
 33
0.0
 40
0.0
 40
0.0
 40
0.0
 40
0.0
 40
0.4954576426148432
 40
1.0
 40
1.0
 40
1.0
 40
1.0
 10
112.3098768438736
 20
195.8400912464865
 30
0.0
 10
112.2225047895932
 20
195.6543761124221
 30
0.0
 10
112.0461586264393
 20
195.2795405703072
 30
0.0
 10
112.0136664919169
 20
194.8920573465405
 30
0.0
 10
111.9972728337684
 20
194.696555647374
 30
0.0
  0
LINE
  5
EE
330
1F
100
AcDbEntity
  8
0
  6
Continuous
 62
     7
370
    15
100
AcDbLine
 10
111.9972728338
 20
197.8546844677
 30
0.0
 11
111.9972728338
 21
194.6965556474
 31
0.0
  0
SPLINE
  5
EF
330
1F
100
AcDbEntity
  8
0
  6
Continuous
 62
     7
370
    15
100
AcDbSpline
210
0.0
220
0.0
230
1.0
 70
     8
 71
     3
 72
    10
 73
     6
 74
     0
 42
0.00000001
 43
0.00000001
 12
1.0
 22
0.0
 32
0.0
 13
1.0
 23
0.0
 33
0.0
 40
0.0
 40
0.0
 40
0.0
 40
0.0
 40
0.2684063670123963
 40
0.6323734557754812
 40
1.0
 40
1.0
 40
1.0
 40
1.0
 10
111.9972728337684
 20
200.7403353111156
 30
0.0
 10
112.0023505020551
 20
200.6612305330986
 30
0.0
 10
112.0143136409235
 20
200.4748573020914
 30
0.0
 10
112.1171044810109
 20
200.1824614689249
 30
0.0
 10
112.2454054676649
 20
199.9740198262841
 30
0.0
 10
112.3098768438736
 20
199.8692776889809
 30
0.0
  0
LINE
  5
F0
330
1F
100
AcDbEntity
  8
0
  6
Continuous
 62
     7
370
    15
100
AcDbLine
 10
111.9972728338
 20
200.7403353111
 30
0.0
 11
111.9972728338
 21
197.8546844677
 31
0.0
  0
LINE
  5
F1
330
1F
100
AcDbEntity
  8
0
  6
Continuous
 62
     7
370
    15
100
AcDbLine
 10
115.1972748484
 20
193.5530191169
 30
0.0
 11
112.3098768439
 21
193.5530191169
 31
0.0
  0
SPLINE
  5
F2
330
1F
100
AcDbEntity
  8
0
  6
Continuous
 62
     7
370
    15
100
AcDbSpline
210
0.0
220
0.0
230
1.0
 70
     8
 71
     3
 72
    10
 73
     6
 74
     0
 42
0.00000001
 43
0.00000001
 12
1.0
 22
0.0
 32
0.0
 13
1.0
 23
0.0
 33
0.0
 40
0.0
 40
0.0
 40
0.0
 40
0.0
 40
0.0700363846358932
 40
0.5307571334864373
 40
1.0
 40
1.0
 40
1.0
 40
1.0
 10
111.9972728337684
 20
194.696555647374
 30
0.0
 10
111.9976451370663
 20
194.6694709083955
 30
0.0
 10
112.0004665652736
 20
194.4642144763825
 30
0.0
 10
112.0687386778869
 20
194.0771934728749
 30
0.0
 10
112.2290078901495
 20
193.7288080948475
 30
0.0
 10
112.3098768438736
 20
193.5530191169389
 30
0.0
  0
SPLINE
  5
F3
330
1F
100
AcDbEntity
  8
0
  6
Continuous
 62
     7
370
    15
100
AcDbSpline
210
0.0
220
0.0
230
1.0
 70
     8
 71
     3
 72
    10
 73
     6
 74
     0
 42
0.00000001
 43
0.00000001
 12
1.0
 22
0.0
 32
0.0
 13
1.0
 23
0.0
 33
0.0
 40
0.0
 40
0.0
 40
0.0
 40
0.0
 40
0.2572432437777108
 40
0.6263795308634822
 40
1.0
 40
1.0
 40
1.0
 40
1.0
 10
112.3098768438736
 20
201.6113920019277
 30
0.0
 10
112.2638098103553
 20
201.5382441929395
 30
0.0
 10
112.1516379747817
 20
201.3601314868297
 30
0.0
 10
112.0260890307746
 20
201.0694279399364
 30
0.0
 10
112.0069168150318
 20
200.8504734790901
 30
0.0
 10
111.9972728337684
 20
200.7403353111156
 30
0.0
  0
LINE
  5
F4
330
1F
100
AcDbEntity
  8
0
  6
Continuous
 62
     7
370
    15
100
AcDbLine
 10
115.1972748484
 20
201.6113920019
 30
0.0
 11
112.3098768439
 21
201.6113920019
 31
0.0
  0
LINE
  5
F5
330
1F
100
AcDbEntity
  8
0
  6
Continuous
 62
     7
370
    15
100
AcDbLine
 10
112.2211255278
 20
193.708625424
 30
0.0
 11
112.3098768439
 21
193.5530191169
 31
0.0
  0
LINE
  5
F6
330
1F
100
AcDbEntity
  8
0
  6
Continuous
 62
     7
370
    15
100
AcDbLine
 10
111.9972728338
 20
194.0822049857
 30
0.0
 11
111.9972728338
 21
194.6965556474
 31
0.0
  0
LINE
  5
F7
330
1F
100
AcDbEntity
  8
0
  6
Continuous
 62
     7
370
    15
100
AcDbLine
 10
111.9972728338
 20
201.0822052018
 30
0.0
 11
111.9972728338
 21
200.7403353111
 31
0.0
  0
LINE
  5
F8
330
1F
100
AcDbEntity
  8
0
  6
Continuous
 62
     7
370
    15
100
AcDbLine
 10
177.6257939782
 20
215.5822047846
 30
0.0
 11
176.425794154
 21
215.5822047846
 31
0.0
  0
LINE
  5
F9
330
1F
100
AcDbEntity
  8
0
  6
Continuous
 62
     7
370
    15
100
AcDbLine
 10
176.425794154
 20
215.5822047846
 30
0.0
 11
176.425794154
 21
219.5822054402
 31
0.0
  0
LINE
  5
FA
330
1F
100
AcDbEntity
  8
0
  6
Continuous
 62
     7
370
    15
100
AcDbLine
 10
176.425794154
 20
219.5822054402
 30
0.0
 11
177.6257939782
 21
219.5822054402
 31
0.0
  0
LINE
  5
FB
330
1F
100
AcDbEntity
  8
0
  6
Continuous
 62
     7
370
    15
100
AcDbLine
 10
176.425794154
 20
181.2822053091
 30
0.0
 11
177.6257939782
 21
181.2822053091
 31
0.0
  0
LINE
  5
FC
330
1F
100
AcDbEntity
  8
0
  6
Continuous
 62
     7
370
    15
100
AcDbLine
 10
176.425794154
 20
215.5822047846
 30
0.0
 11
176.425794154
 21
181.2822053091
 31
0.0
  0
LINE
  5
FD
330
1F
100
AcDbEntity
  8
0
  6
Continuous
 62
     7
370
    15
100
AcDbLine
 10
177.6257939782
 20
215.5822047846
 30
0.0
 11
177.6257939782
 21
181.2822053091
 31
0.0
  0
LINE
  5
FE
330
1F
100
AcDbEntity
  8
0
  6
Continuous
 62
     7
370
    15
100
AcDbLine
 10
175.4257939901
 20
179.082205321
 30
0.0
 11
175.4257939901
 21
180.2822051452
 31
0.0
  0
LINE
  5
FF
330
1F
100
AcDbEntity
  8
0
  6
Continuous
 62
     7
370
    15
100
AcDbLine
 10
175.4257939901
 20
179.082205321
 30
0.0
 11
165.4257942136
 21
179.082205321
 31
0.0
  0
LINE
  5
100
330
1F
100
AcDbEntity
  8
0
  6
Continuous
 62
     7
370
    15
100
AcDbLine
 10
165.4257942136
 20
180.2822051452
 30
0.0
 11
165.4257942136
 21
179.082205321
 31
0.0
  0
LINE
  5
101
330
1F
100
AcDbEntity
  8
0
  6
Continuous
 62
     7
370
    15
100
AcDbLine
 10
175.4257939901
 20
180.2822051452
 30
0.0
 11
165.4257942136
 21
180.2822051452
 31
0.0
  0
LINE
  5
102
330
1F
100
AcDbEntity
  8
0
  6
Continuous
 62
     7
370
    15
100
AcDbLine
 10
164.4257940497
 20
179.082205321
 30
0.0
 11
164.4257940497
 21
180.2822051452
 31
0.0
  0
LINE
  5
103
330
1F
100
AcDbEntity
  8
0
  6
Continuous
 62
     7
370
    15
100
AcDbLine
 10
164.4257940497
 20
180.2822051452
 30
0.0
 11
165.4257942136
 21
180.2822051452
 31
0.0
  0
LINE
  5
104
330
1F
100
AcDbEntity
  8
0
  6
Continuous
 62
     7
370
    15
100
AcDbLine
 10
165.4257942136
 20
179.082205321
 30
0.0
 11
164.4257940497
 21
179.082205321
 31
0.0
  0
ARC
  5
105
330
1F
100
AcDbEntity
  8
0
  6
Continuous
 62
     7
370
    15
100
AcDbCircle
 10
175.4257939186
 20
181.2822052912
 30
0.0
 40
1.0
100
AcDbArc
 50
270.0
 51
0.0
  0
ARC
  5
106
330
1F
100
AcDbEntity
  8
0
  6
Continuous
 62
     7
370
    15
100
AcDbCircle
 10
175.4257939186
 20
181.2822052912
 30
0.0
 40
2.200000000000017
100
AcDbArc
 50
270.0
 51
0.0
  0
LINE
  5
107
330
1F
100
AcDbEntity
  8
0
  6
Continuous
 62
     7
370
    15
100
AcDbLine
 10
175.4777524765
 20
183.5822052437
 30
0.0
 11
160.425793394
 21
183.5822052437
 31
0.0
  0
LINE
  5
108
330
1F
100
AcDbEntity
  8
0
  6
Continuous
 62
     7
370
    15
100
AcDbLine
 10
176.0257939022
 20
183.5822052437
 30
0.0
 11
175.4777524765
 21
183.5822052437
 31
0.0
  0
LINE
  5
109
330
1F
100
AcDbEntity
  8
0
  6
Continuous
 62
     7
370
    15
100
AcDbLine
 10
175.6637003418
 20
183.7822053114
 30
0.0
 11
176.2257935624
 21
183.7822053114
 31
0.0
  0
LINE
  5
10A
330
1F
100
AcDbEntity
  8
0
  6
Continuous
 62
     7
370
    15
100
AcDbLine
 10
160.2257937338
 20
183.7822053114
 30
0.0
 11
175.6637003418
 21
183.7822053114
 31
0.0
  0
LINE
  5
10B
330
1F
100
AcDbEntity
  8
0
  6
Continuous
 62
     7
370
    15
100
AcDbLine
 10
175.6637003418
 20
184.3822052963
 30
0.0
 11
160.2257937338
 21
184.3822052963
 31
0.0
  0
LINE
  5
10C
330
1F
100
AcDbEntity
  8
0
  6
Continuous
 62
     7
370
    15
100
AcDbLine
 10
176.2257935624
 20
184.3822052963
 30
0.0
 11
175.6637003418
 21
184.3822052963
 31
0.0
  0
LINE
  5
10D
330
1F
100
AcDbEntity
  8
0
  6
Continuous
 62
     7
370
    15
100
AcDbLine
 10
162.2391417767
 20
184.5822052912
 30
0.0
 11
174.2124455195
 21
184.5822052912
 31
0.0
  0
LINE
  5
10E
330
1F
100
AcDbEntity
  8
0
  6
Continuous
 62
     7
370
    15
100
AcDbLine
 10
170.0852699723
 20
178.9822054909
 30
0.0
 11
166.2257947173
 21
178.9822054909
 31
0.0
  0
LINE
  5
10F
330
1F
100
AcDbEntity
  8
0
  6
Continuous
 62
     7
370
    15
100
AcDbLine
 10
170.2257935103
 20
178.9822054909
 30
0.0
 11
170.0852699723
 21
178.9822054909
 31
0.0
  0
LINE
  5
110
330
1F
100
AcDbEntity
  8
0
  6
Continuous
 62
     7
370
    15
100
AcDbLine
 10
118.6257936205
 20
197.5801966966
 30
0.0
 11
118.6257936205
 21
199.5822049559
 31
0.0
  0
LINE
  5
111
330
1F
100
AcDbEntity
  8
0
  6
Continuous
 62
     7
370
    15
100
AcDbLine
 10
118.6257936205
 20
195.5822052316
 30
0.0
 11
118.6257936205
 21
197.5801966966
 31
0.0
  0
LINE
  5
112
330
1F
100
AcDbEntity
  8
0
  6
Continuous
 62
     7
370
    15
100
AcDbLine
 10
140.9257948543
 20
215.0822056339
 30
0.0
 11
137.9257925
 21
215.0822056339
 31
0.0
  0
LINE
  5
113
330
1F
100
AcDbEntity
  8
0
  6
Continuous
 62
     7
370
    15
100
AcDbLine
 10
140.9257948543
 20
189.0822050975
 30
0.0
 11
140.9257948543
 21
215.0822056339
 31
0.0
  0
LINE
  5
114
330
1F
100
AcDbEntity
  8
0
  6
Continuous
 62
     7
370
    15
100
AcDbLine
 10
137.9257925
 20
189.0822050975
 30
0.0
 11
140.9257948543
 21
189.0822050975
 31
0.0
  0
LINE
  5
115
330
1F
100
AcDbEntity
  8
0
  6
Continuous
 62
     7
370
    15
100
AcDbLine
 10
137.9257925
 20
189.0822050975
 30
0.0
 11
137.9257925
 21
195.5689664812
 31
0.0
  0
LINE
  5
116
330
1F
100
AcDbEntity
  8
0
  6
Continuous
 62
     7
370
    15
100
AcDbLine
 10
137.9257925
 20
195.5689664812
 30
0.0
 11
133.9257955696
 21
195.5689664812
 31
0.0
  0
LINE
  5
117
330
1F
100
AcDbEntity
  8
0
  6
Continuous
 62
     7
370
    15
100
AcDbLine
 10
133.9257955696
 20
195.5689664812
 30
0.0
 11
133.9257955696
 21
208.5954433189
 31
0.0
  0
LINE
  5
118
330
1F
100
AcDbEntity
  8
0
  6
Continuous
 62
     7
370
    15
100
AcDbLine
 10
137.9257925
 20
208.5954433189
 30
0.0
 11
133.9257955696
 21
208.5954433189
 31
0.0
  0
LINE
  5
119
330
1F
100
AcDbEntity
  8
0
  6
Continuous
 62
     7
370
    15
100
AcDbLine
 10
137.9257925
 20
208.5954433189
 30
0.0
 11
137.9257925
 21
215.0822056339
 31
0.0
  0
LINE
  5
11A
330
1F
100
AcDbEntity
  8
0
  6
Continuous
 62
     7
370
    15
100
AcDbLine
 10
137.9257925
 20
219.5822054402
 30
0.0
 11
140.9257948543
 21
219.5822054402
 31
0.0
  0
LINE
  5
11B
330
1F
100
AcDbEntity
  8
0
  6
Continuous
 62
     7
370
    15
100
AcDbLine
 10
137.9257925
 20
215.0822056339
 30
0.0
 11
137.9257925
 21
219.5822054402
 31
0.0
  0
LINE
  5
11C
330
1F
100
AcDbEntity
  8
0
  6
Continuous
 62
     7
370
    15
100
AcDbLine
 10
140.9257948543
 20
184.5822052912
 30
0.0
 11
137.9257925
 21
184.5822052912
 31
0.0
  0
LINE
  5
11D
330
1F
100
AcDbEntity
  8
0
  6
Continuous
 62
     7
370
    15
100
AcDbLine
 10
137.9257925
 20
184.5822052912
 30
0.0
 11
137.9257925
 21
189.0822050975
 31
0.0
  0
LINE
  5
11E
330
1F
100
AcDbEntity
  8
0
  6
Continuous
 62
     7
370
    15
100
AcDbLine
 10
133.9257955696
 20
195.5689664812
 30
0.0
 11
133.9257955696
 21
193.8131049157
 31
0.0
  0
LINE
  5
11F
330
1F
100
AcDbEntity
  8
0
  6
Continuous
 62
     7
370
    15
100
AcDbLine
 10
133.9257955696
 20
210.3513048844
 30
0.0
 11
133.9257955696
 21
208.5954433189
 31
0.0
  0
LINE
  5
120
330
1F
100
AcDbEntity
  8
0
  6
Continuous
 62
     7
370
    15
100
AcDbLine
 10
133.9257955696
 20
193.8131049157
 30
0.0
 11
133.9257955696
 21
192.3822050796
 31
0.0
  0
LINE
  5
121
330
1F
100
AcDbEntity
  8
0
  6
Continuous
 62
     7
370
    15
100
AcDbLine
 10
133.9257955696
 20
211.7822056518
 30
0.0
 11
133.9257955696
 21
210.3513048844
 31
0.0
  0
LINE
  5
122
330
1F
100
AcDbEntity
  8
0
  6
Continuous
 62
     7
370
    15
100
AcDbLine
 10
137.9257925
 20
184.5822052912
 30
0.0
 11
133.9257955696
 21
184.5822052912
 31
0.0
  0
LINE
  5
123
330
1F
100
AcDbEntity
  8
0
  6
Continuous
 62
     7
370
    15
100
AcDbLine
 10
133.9257955696
 20
185.7822053482
 30
0.0
 11
133.9257955696
 21
184.5822052912
 31
0.0
  0
LINE
  5
124
330
1F
100
AcDbEntity
  8
0
  6
Continuous
 62
     7
370
    15
100
AcDbLine
 10
137.9257925
 20
219.5822054402
 30
0.0
 11
133.9257955696
 21
219.5822054402
 31
0.0
  0
LINE
  5
125
330
1F
100
AcDbEntity
  8
0
  6
Continuous
 62
     7
370
    15
100
AcDbLine
 10
133.9257955696
 20
219.5822054402
 30
0.0
 11
133.9257955696
 21
218.3822037534
 31
0.0
  0
LINE
  5
126
330
1F
100
AcDbEntity
  8
0
  6
Continuous
 62
     7
370
    15
100
AcDbLine
 10
119.4257922615
 20
197.5822055594
 30
0.0
 11
119.4257922615
 21
208.0822044865
 31
0.0
  0
LINE
  5
127
330
1F
100
AcDbEntity
  8
0
  6
Continuous
 62
     7
370
    15
100
AcDbLine
 10
119.4257922615
 20
187.0822052353
 30
0.0
 11
119.4257922615
 21
197.5822055594
 31
0.0
  0
LINE
  5
128
330
1F
100
AcDbEntity
  8
0
  6
Continuous
 62
     7
370
    15
100
AcDbLine
 10
118.425790235
 20
194.0822049857
 30
0.0
 11
118.425790235
 21
196.1322052286
 31
0.0
  0
LINE
  5
129
330
1F
100
AcDbEntity
  8
0
  6
Continuous
 62
     7
370
    15
100
AcDbLine
 10
118.425790235
 20
199.0322049589
 30
0.0
 11
118.425790235
 21
201.0822052018
 31
0.0
  0
LINE
  5
12A
330
1F
100
AcDbEntity
  8
0
  6
Continuous
 62
     7
370
    15
100
AcDbLine
 10
118.425790235
 20
201.0822052018
 30
0.0
 11
118.7257953133
 21
201.0822052018
 31
0.0
  0
LINE
  5
12B
330
1F
100
AcDbEntity
  8
0
  6
Continuous
 62
     7
370
    15
100
AcDbLine
 10
118.7257953133
 20
201.0822052018
 30
0.0
 11
118.7257953133
 21
199.5822049559
 31
0.0
  0
LINE
  5
12C
330
1F
100
AcDbEntity
  8
0
  6
Continuous
 62
     7
370
    15
100
AcDbLine
 10
118.7257953133
 20
195.5822052316
 30
0.0
 11
118.7257953133
 21
194.0822049857
 31
0.0
  0
LINE
  5
12D
330
1F
100
AcDbEntity
  8
0
  6
Continuous
 62
     7
370
    15
100
AcDbLine
 10
118.7257953133
 20
194.0822049857
 30
0.0
 11
118.425790235
 21
194.0822049857
 31
0.0
  0
LINE
  5
12E
330
1F
100
AcDbEntity
  8
0
  6
Continuous
 62
     7
370
    15
100
AcDbLine
 10
118.7257953133
 20
194.0822049857
 30
0.0
 11
119.4257922615
 21
194.0822049857
 31
0.0
  0
LINE
  5
12F
330
1F
100
AcDbEntity
  8
0
  6
Continuous
 62
     7
370
    15
100
AcDbLine
 10
119.4257922615
 20
201.0822052018
 30
0.0
 11
118.7257953133
 21
201.0822052018
 31
0.0
  0
LINE
  5
130
330
1F
100
AcDbEntity
  8
0
  6
Continuous
 62
     7
370
    15
100
AcDbLine
 10
142.9257951822
 20
215.0822056339
 30
0.0
 11
143.4257924702
 21
215.0822056339
 31
0.0
  0
LINE
  5
131
330
1F
100
AcDbEntity
  8
0
  6
Continuous
 62
     7
370
    15
100
AcDbLine
 10
142.9257951822
 20
219.0822044269
 30
0.0
 11
143.4257924702
 21
219.0822044269
 31
0.0
  0
LINE
  5
132
330
1F
100
AcDbEntity
  8
0
  6
Continuous
 62
     7
370
    15
100
AcDbLine
 10
142.9257951822
 20
189.0822050975
 30
0.0
 11
143.4257924702
 21
189.0822050975
 31
0.0
  0
LINE
  5
133
330
1F
100
AcDbEntity
  8
0
  6
Continuous
 62
     7
370
    15
100
AcDbLine
 10
142.9257951822
 20
185.082205315
 30
0.0
 11
143.4257924702
 21
185.082205315
 31
0.0
  0
LINE
  5
134
330
1F
100
AcDbEntity
  8
0
  6
Continuous
 62
     7
370
    15
100
AcDbLine
 10
140.9257948543
 20
188.5822054812
 30
0.0
 11
142.9257951822
 21
188.5822054812
 31
0.0
  0
LINE
  5
135
330
1F
100
AcDbEntity
  8
0
  6
Continuous
 62
     7
370
    15
100
AcDbLine
 10
140.9257948543
 20
215.5822047846
 30
0.0
 11
142.9257951822
 21
215.5822047846
 31
0.0
  0
LINE
  5
136
330
1F
100
AcDbEntity
  8
0
  6
Continuous
 62
     7
370
    15
100
AcDbLine
 10
142.9257951822
 20
188.5822054812
 30
0.0
 11
142.9257951822
 21
215.5822047846
 31
0.0
  0
LINE
  5
137
330
1F
100
AcDbEntity
  8
0
  6
Continuous
 62
     7
370
    15
100
AcDbLine
 10
140.9257948543
 20
188.5822054812
 30
0.0
 11
140.9257948543
 21
215.5822047846
 31
0.0
  0
LINE
  5
138
330
1F
100
AcDbEntity
  8
0
  6
Continuous
 62
     7
370
    15
100
AcDbLine
 10
140.9257948543
 20
184.5822052912
 30
0.0
 11
142.9257951822
 21
184.5822052912
 31
0.0
  0
LINE
  5
139
330
1F
100
AcDbEntity
  8
0
  6
Continuous
 62
     7
370
    15
100
AcDbLine
 10
142.9257951822
 20
184.5822052912
 30
0.0
 11
142.9257951822
 21
188.5822054812
 31
0.0
  0
LINE
  5
13A
330
1F
100
AcDbEntity
  8
0
  6
Continuous
 62
     7
370
    15
100
AcDbLine
 10
140.9257948543
 20
184.5822052912
 30
0.0
 11
140.9257948543
 21
188.5822054812
 31
0.0
  0
LINE
  5
13B
330
1F
100
AcDbEntity
  8
0
  6
Continuous
 62
     7
370
    15
100
AcDbLine
 10
140.9257948543
 20
219.5822054402
 30
0.0
 11
142.9257951822
 21
219.5822054402
 31
0.0
  0
LINE
  5
13C
330
1F
100
AcDbEntity
  8
0
  6
Continuous
 62
     7
370
    15
100
AcDbLine
 10
142.9257951822
 20
215.5822047846
 30
0.0
 11
142.9257951822
 21
219.5822054402
 31
0.0
  0
LINE
  5
13D
330
1F
100
AcDbEntity
  8
0
  6
Continuous
 62
     7
370
    15
100
AcDbLine
 10
140.9257948543
 20
215.5822047846
 30
0.0
 11
140.9257948543
 21
219.5822054402
 31
0.0
  0
LINE
  5
13E
330
1F
100
AcDbEntity
  8
0
  6
Continuous
 62
     7
370
    15
100
AcDbLine
 10
143.4257924702
 20
215.5822047846
 30
0.0
 11
176.425794154
 21
215.5822047846
 31
0.0
  0
LINE
  5
13F
330
1F
100
AcDbEntity
  8
0
  6
Continuous
 62
     7
370
    15
100
AcDbLine
 10
143.4257924702
 20
215.5822047846
 30
0.0
 11
143.4257924702
 21
219.5822054402
 31
0.0
  0
LINE
  5
140
330
1F
100
AcDbEntity
  8
0
  6
Continuous
 62
     7
370
    15
100
AcDbLine
 10
143.4257924702
 20
219.5822054402
 30
0.0
 11
176.425794154
 21
219.5822054402
 31
0.0
  0
LINE
  5
141
330
1F
100
AcDbEntity
  8
0
  6
Continuous
 62
     7
370
    15
100
AcDbLine
 10
143.4257924702
 20
188.5822054812
 30
0.0
 11
176.425794154
 21
188.5822054812
 31
0.0
  0
LINE
  5
142
330
1F
100
AcDbEntity
  8
0
  6
Continuous
 62
     7
370
    15
100
AcDbLine
 10
143.4257924702
 20
188.5822054812
 30
0.0
 11
143.4257924702
 21
215.5822047846
 31
0.0
  0
LINE
  5
143
330
1F
100
AcDbEntity
  8
0
  6
Continuous
 62
     7
370
    15
100
AcDbLine
 10
176.425794154
 20
188.5822054812
 30
0.0
 11
176.425794154
 21
215.5822047846
 31
0.0
  0
LINE
  5
144
330
1F
100
AcDbEntity
  8
0
  6
Continuous
 62
     7
370
    15
100
AcDbLine
 10
143.4257924702
 20
184.5822052912
 30
0.0
 11
162.2391417767
 21
184.5822052912
 31
0.0
  0
LINE
  5
145
330
1F
100
AcDbEntity
  8
0
  6
Continuous
 62
     7
370
    15
100
AcDbLine
 10
174.2124455195
 20
184.5822052912
 30
0.0
 11
176.425794154
 21
184.5822052912
 31
0.0
  0
LINE
  5
146
330
1F
100
AcDbEntity
  8
0
  6
Continuous
 62
     7
370
    15
100
AcDbLine
 10
143.4257924702
 20
184.5822052912
 30
0.0
 11
143.4257924702
 21
188.5822054812
 31
0.0
  0
LINE
  5
147
330
1F
100
AcDbEntity
  8
0
  6
Continuous
 62
     8
370
    15
100
AcDbLine
 10
180.2257942181
 20
219.5822054402
 30
0.0
 11
180.2257942181
 21
218.582207139
 31
0.0
  0
LINE
  5
148
330
1F
100
AcDbEntity
  8
0
  6
Continuous
 62
     8
370
    15
100
AcDbLine
 10
180.2257942181
 20
211.5822059916
 30
0.0
 11
180.2257942181
 21
192.5822056712
 31
0.0
  0
LINE
  5
149
330
1F
100
AcDbEntity
  8
0
  6
Continuous
 62
     8
370
    15
100
AcDbLine
 10
183.2257937785
 20
191.0822054253
 30
0.0
 11
187.6257938711
 21
191.0822054253
 31
0.0
  0
LINE
  5
14A
330
1F
100
AcDbEntity
  8
0
  6
Continuous
 62
     8
370
    15
100
AcDbLine
 10
179.125794224
 20
226.0779568807
 30
0.0
 11
179.3257938843
 21
226.0779568807
 31
0.0
  0
LINE
  5
14B
330
1F
100
AcDbEntity
  8
0
  6
Continuous
 62
     8
370
    15
100
AcDbLine
 10
134.1257952299
 20
189.2159113542
 30
0.0
 11
134.1257952299
 21
185.5822053387
 31
0.0
  0
LINE
  5
14C
330
1F
100
AcDbEntity
  8
0
  6
Continuous
 62
     8
370
    15
100
AcDbLine
 10
134.1257952299
 20
192.5822056712
 30
0.0
 11
134.1257952299
 21
189.2159113542
 31
0.0
  0
LINE
  5
14D
330
1F
100
AcDbEntity
  8
0
  6
Continuous
 62
     8
370
    15
100
AcDbLine
 10
134.1257952299
 20
218.582207139
 30
0.0
 11
134.1257952299
 21
211.5822059916
 31
0.0
  0
LINE
  5
14E
330
1F
100
AcDbEntity
  8
0
  6
Continuous
 62
     8
370
    15
100
AcDbLine
 10
132.925793543
 20
197.5822055594
 30
0.0
 11
132.925793543
 21
208.0822044865
 31
0.0
  0
LINE
  5
14F
330
1F
100
AcDbEntity
  8
0
  6
Continuous
 62
     8
370
    15
100
AcDbLine
 10
132.925793543
 20
187.0822052353
 30
0.0
 11
132.925793543
 21
197.5822055594
 31
0.0
  0
LINE
  5
150
330
1F
100
AcDbEntity
  8
0
  6
CENTERX2
 62
     7
370
     0
100
AcDbLine
 10
191.6257939186
 20
237.3884352912
 30
0.0
 11
192.1257939186
 21
237.3884352912
 31
0.0
  0
LINE
  5
151
330
1F
100
AcDbEntity
  8
0
  6
Continuous
 62
     7
370
     0
100
AcDbLine
 10
187.9627691005
 20
254.3028615246
 30
0.0
 11
189.1257939186
 21
254.3028615246
 31
0.0
  0
LINE
  5
152
330
1F
100
AcDbEntity
  8
0
  6
CENTERX2
 62
     7
370
     0
100
AcDbLine
 10
190.9627691005
 20
254.3028615246
 30
0.0
 11
192.1257939186
 21
254.3028615246
 31
0.0
  0
LINE
  5
153
330
1F
100
AcDbEntity
  8
0
  6
CENTERX2
 62
     7
370
     0
100
AcDbLine
 10
190.9627691005
 20
254.3028615246
 30
0.0
 11
192.1257939186
 21
254.4622052912
 31
0.0
  0
LINE
  5
154
330
1F
100
AcDbEntity
  8
0
  6
CENTERX2
 62
     7
370
     0
100
AcDbLine
 10
192.1257939186
 20
254.4622052912
 30
0.0
 11
192.1257939186
 21
237.3884352912
 31
0.0
  0
LINE
  5
155
330
1F
100
AcDbEntity
  8
0
  6
CENTERX2
 62
     7
370
     0
100
AcDbLine
 10
190.1257939186
 20
231.1622052573
 30
0.0
 11
190.1257939186
 21
235.8884352912
 31
0.0
  0
ARC
  5
156
330
1F
100
AcDbEntity
  8
0
  6
Continuous
 62
     7
370
     0
100
AcDbCircle
 10
188.6257939186
 20
235.8884352912
 30
0.0
 40
1.499999999995623
100
AcDbArc
 50
89.9999999999
 51
180.0
  0
ARC
  5
157
330
1F
100
AcDbEntity
  8
0
  6
CENTERX2
 62
     7
370
     0
100
AcDbCircle
 10
191.6257939185
 20
235.8884352912
 30
0.0
 40
1.499999999995595
100
AcDbArc
 50
89.9999999999
 51
180.0
  0
ARC
  5
158
330
1F
100
AcDbEntity
  8
0
  6
CENTERX2
 62
     7
370
     0
100
AcDbCircle
 10
203.6257939185
 20
241.5103714442
 30
0.0
 40
17.9999999999861
100
AcDbArc
 50
134.7085995235
 51
143.6639424854
  0
DIMENSION
  5
159
330
1F
100
AcDbEntity
  8
0
  6
Continuous
 62
     7
370
     0
100
AcDbDimension
  2
_D
 10
195.7545509831
 20
178.5822052912
 30
0.0
 11
195.7545509831
 21
216.5222052912
 31
0.0
 70
   160
  1
<>
 71
     2
 42
-1.0
  3
SLDDIMSTYLE0
100
AcDbAlignedDimension
 13
192.1257939186
 23
254.4622052912
 33
0.0
 14
161.6972728494
 24
178.5822052912
 34
0.0
 50
90.0
100
AcDbRotatedDimension
  0
DIMENSION
  5
164
330
1F
100
AcDbEntity
  8
0
  6
Continuous
 62
     7
370
     0
100
AcDbDimension
  2
_D_1
 10
189.1257939186
 20
262.2951804713
 30
0.0
 11
135.0673524374
 21
262.2951804713
 31
0.0
 70
   160
  1
Maxストローク <>
 71
     2
 42
-1.0
  3
SLDDIMSTYLE1
100
AcDbAlignedDimension
 13
192.1257939186
 23
254.4622052912
 33
0.0
 14
189.1257939186
 24
254.4622052912
 34
0.0
 50
0.0
100
AcDbRotatedDimension
  0
DIMENSION
  5
172
330
1F
100
AcDbEntity
  8
0
  6
Continuous
 62
     7
370
     0
100
AcDbDimension
  2
_D_2
 10
189.1257939186
 20
270.4622302912
 30
0.0
 11
184.1257939186
 21
270.4622302912
 31
0.0
 70
   160
  1
<>
 71
     2
 42
-1.0
  3
SLDDIMSTYLE0
100
AcDbAlignedDimension
 13
179.1257939186
 23
237.3922052912
 33
0.0
 14
189.1257939186
 24
254.4622052912
 34
0.0
100
AcDbRotatedDimension
  0
DIMENSION
  5
17C
330
1F
100
AcDbEntity
  8
0
  6
Continuous
 62
     7
370
     0
100
AcDbDimension
  2
_D_3
 10
155.1972728494
 20
270.4622302912
 30
0.0
 11
167.161533384
 21
270.4622302912
 31
0.0
 70
   160
  1
(<>)
 71
     2
 42
-1.0
  3
SLDDIMSTYLE0
100
AcDbAlignedDimension
 13
179.1257939186
 23
237.3922052912
 33
0.0
 14
155.1972728494
 24
185.0822052912
 34
0.0
 50
0.0
100
AcDbRotatedDimension
  0
DIMENSION
  5
188
330
1F
100
AcDbEntity
  8
0
  6
Continuous
 62
     7
370
     0
100
AcDbDimension
  2
_D_4
 10
90.5972728494
 20
178.5822052912
 30
0.0
 11
90.5972728494
 21
196.0821890658
 31
0.0
 70
   160
  1
<>
 71
     2
 42
-1.0
  3
SLDDIMSTYLE0
100
AcDbAlignedDimension
 13
119.7257939186
 23
213.5821728404
 33
0.0
 14
131.6972728494
 24
178.5822052912
 34
0.0
 50
90.0
100
AcDbRotatedDimension
  0
DIMENSION
  5
192
330
1F
100
AcDbEntity
  8
0
  6
Continuous
 62
     7
370
     0
100
AcDbDimension
  2
_D_5
 10
96.3018960916
 20
178.5822052912
 30
0.0
 11
96.3018960916
 21
188.0822052912
 31
0.0
 70
   160
  1
<>
 71
     2
 42
-1.0
  3
SLDDIMSTYLE0
100
AcDbAlignedDimension
 13
98.5972728494
 23
197.5822052912
 33
0.0
 14
131.6972728494
 24
178.5822052912
 34
0.0
 50
90.0
100
AcDbRotatedDimension
  0
DIMENSION
  5
19C
330
1F
100
AcDbEntity
  8
0
  6
Continuous
 62
     7
370
     0
100
AcDbDimension
  2
_D_6
 10
188.6257939186
 20
168.5822052912
 30
0.0
 11
151.911533384
 21
168.5822052912
 31
0.0
 70
   160
  1
<>
 71
     2
 42
-1.0
  3
SLDDIMSTYLE0
100
AcDbAlignedDimension
 13
115.1972728494
 23
183.0822052912
 33
0.0
 14
188.6257939186
 24
191.082205291
 34
0.0
 50
0.0
100
AcDbRotatedDimension
  0
DIMENSION
  5
1A6
330
1F
100
AcDbEntity
  8
0
  6
Continuous
 62
     7
370
     0
100
AcDbDimension
  2
_D_7
 10
188.6257939186
 20
160.0013133527
 30
0.0
 11
144.611533384
 21
160.0013133527
 31
0.0
 70
   160
  1
(<>)
 71
     2
 42
-1.0
  3
SLDDIMSTYLE0
100
AcDbAlignedDimension
 13
100.5972728494
 23
193.7322052912
 33
0.0
 14
188.6257939186
 24
191.082205291
 34
0.0
 50
0.0
100
AcDbRotatedDimension
  0
INSERT
  5
1BC
330
1F
100
AcDbEntity
  8
0
  6
Continuous
 62
     7
370
     0
100
AcDbBlockReference
  2
SW_NOTE_0
 10
87.1749311598
 20
230.2469979914
 30
0.0
  0
MTEXT
  5
1BD
330
1F
100
AcDbEntity
  8
0
  6
Continuous
 62
     7
370
     0
100
AcDbMText
 10
110.4061274435
 20
246.989832541
 30
0.0
 40
3.5
 41
0.0
 71
     1
 72
     1
  1
カット配管
  7
SLDTEXTSTYLE0
 73
     1
 44
1.0
  0
LEADER
  5
1C7
330
1F
100
AcDbEntity
  8
0
  6
Continuous
 62
     7
370
     0
100
AcDbLeader
  3
SLDDIMSTYLE2
 76
     3
 10
130.6294039909
 20
215.6696513846
 30
0.0
 10
130.5117233294
 20
242.4384525205
 30
0.0
 10
110.3165298945
 20
242.4384525205
 30
0.0
  0
MTEXT
  5
1C8
330
1F
100
AcDbEntity
  8
0
  6
Continuous
 62
     7
370
     0
100
AcDbMText
 10
106.1845116044
 20
241.4961392925
 30
0.0
 40
2.9104166667
 41
0.0
 71
     1
 72
     1
  1
KQ2S04-M5N
  7
SLDTEXTSTYLE0
 73
     1
 44
1.0
  0
MTEXT
  5
1C9
330
1F
100
AcDbEntity
  8
0
  6
Continuous
 62
     7
370
     0
100
AcDbMText
 10
85.9541258309
 20
230.2108983415
 30
0.0
 40
2.9104166667
 41
0.0
 71
     1
 72
     1
  1
KQ2S04-M5N
  7
SLDTEXTSTYLE0
 73
     1
 44
1.0
  0
INSERT
  5
1CA
330
1F
100
AcDbEntity
  8
0
  6
Continuous
 62
     7
370
     0
100
AcDbBlockReference
  2
_DOT
 10
110.6250325259
 20
200.3287998268
 30
-2.9079577812
 41
3.0
 42
3.0
 50
269.91821076
  0
LINE
  5
1CB
330
1F
100
AcDbEntity
  8
0
  6
Continuous
 62
     7
370
     0
100
AcDbLine
 10
110.6250325259
 20
200.3287998268
 30
0.0
 11
110.6682297773
 21
230.5897303634
 31
0.0
  0
LINE
  5
1CC
330
1F
100
AcDbEntity
  8
0
  6
CENTERX2
 62
     7
370
     0
100
AcDbLine
 10
138.9257939186
 20
215.0822052912
 30
0.0
 11
142.9257939186
 21
215.0822052912
 31
0.0
  0
LINE
  5
1CD
330
1F
100
AcDbEntity
  8
0
  6
CENTERX2
 62
     7
370
     0
100
AcDbLine
 10
142.9257939186
 20
215.0822052912
 30
0.0
 11
145.4257939186
 21
215.0822052912
 31
0.0
  0
LINE
  5
1CE
330
1F
100
AcDbEntity
  8
0
  6
CENTERX2
 62
     7
370
     0
100
AcDbLine
 10
166.1972728494
 20
185.0822052912
 30
0.0
 11
166.1972728494
 21
178.5822052912
 31
0.0
  0
LINE
  5
1CF
330
1F
100
AcDbEntity
  8
0
  6
CENTERX2
 62
     7
370
     0
100
AcDbLine
 10
155.1972728494
 20
185.0822052912
 30
0.0
 11
155.1972728494
 21
176.5822052912
 31
0.0
  0
LINE
  5
1D0
330
1F
100
AcDbEntity
  8
0
  6
CENTERX2
 62
     7
370
     0
100
AcDbLine
 10
153.1972728494
 20
185.0822052912
 30
0.0
 11
153.1972728494
 21
176.5822052912
 31
0.0
  0
LINE
  5
1D1
330
1F
100
AcDbEntity
  8
0
  6
CENTERX2
 62
     7
370
     0
100
AcDbLine
 10
119.6972728494
 20
196.0822052912
 30
0.0
 11
113.1972728494
 21
196.0822052912
 31
0.0
  0
LINE
  5
1D2
330
1F
100
AcDbEntity
  8
0
  6
CENTERX2
 62
     7
370
     0
100
AcDbLine
 10
135.1972728494
 20
185.0822052912
 30
0.0
 11
135.1972728494
 21
176.5822052912
 31
0.0
  0
LINE
  5
1D3
330
1F
100
AcDbEntity
  8
0
  6
CENTERX2
 62
     7
370
     0
100
AcDbLine
 10
119.7257939186
 20
213.5821728404
 30
0.0
 11
135.9257939186
 21
213.5821728404
 31
0.0
  0
LINE
  5
1D4
330
1F
100
AcDbEntity
  8
0
  6
CENTERX2
 62
     7
370
     0
100
AcDbLine
 10
98.5972728494
 20
197.5822052912
 30
0.0
 11
120.1972728494
 21
197.5822052912
 31
0.0
  0
LINE
  5
1D5
330
1F
100
AcDbEntity
  8
0
  6
Continuous
 62
     7
370
    15
100
AcDbLine
 10
70.7319971106
 20
184.3822052963
 30
0.0
 11
70.5319955877
 21
184.5822052912
 31
0.0
  0
LINE
  5
1D6
330
1F
100
AcDbEntity
  8
0
  6
Continuous
 62
     7
370
    15
100
AcDbLine
 10
70.7319971106
 20
183.7822053114
 30
0.0
 11
70.7319971106
 21
184.3822052963
 31
0.0
  0
LINE
  5
1D7
330
1F
100
AcDbEntity
  8
0
  6
Continuous
 62
     7
370
    15
100
AcDbLine
 10
70.5319955877
 20
183.5822052437
 30
0.0
 11
70.7319971106
 21
183.7822053114
 31
0.0
  0
LINE
  5
1D8
330
1F
100
AcDbEntity
  8
0
  6
Continuous
 62
     7
370
    15
100
AcDbLine
 10
66.7319964549
 20
183.0822052782
 30
0.0
 11
66.7319964549
 21
183.5822052437
 31
0.0
  0
LINE
  5
1D9
330
1F
100
AcDbEntity
  8
0
  6
Continuous
 62
     7
370
    15
100
AcDbLine
 10
27.9319971732
 20
184.5822052912
 30
0.0
 11
27.7319956503
 21
184.3822052963
 31
0.0
  0
LINE
  5
1DA
330
1F
100
AcDbEntity
  8
0
  6
Continuous
 62
     7
370
    15
100
AcDbLine
 10
27.7319956503
 20
184.3822052963
 30
0.0
 11
27.7319956503
 21
183.7822053114
 31
0.0
  0
LINE
  5
1DB
330
1F
100
AcDbEntity
  8
0
  6
Continuous
 62
     7
370
    15
100
AcDbLine
 10
27.7319956503
 20
183.7822053114
 30
0.0
 11
27.9319971732
 21
183.5822052437
 31
0.0
  0
LINE
  5
1DC
330
1F
100
AcDbEntity
  8
0
  6
Continuous
 62
     7
370
    15
100
AcDbLine
 10
31.7319963059
 20
183.5822052437
 30
0.0
 11
31.7319963059
 21
183.0822052782
 31
0.0
  0
CIRCLE
  5
1DD
330
1F
100
AcDbEntity
  8
0
  6
Continuous
 62
     7
370
    15
100
AcDbCircle
 10
49.2319963804
 20
197.5822052912
 30
0.0
 40
2.050000000000006
  0
CIRCLE
  5
1DE
330
1F
100
AcDbEntity
  8
0
  6
Continuous
 62
     7
370
    15
100
AcDbCircle
 10
49.2319963804
 20
197.5822052912
 30
0.0
 40
3.849999999999993
  0
CIRCLE
  5
1DF
330
1F
100
AcDbEntity
  8
0
  6
Continuous
 62
     7
370
    15
100
AcDbCircle
 10
49.2319963804
 20
197.5822052912
 30
0.0
 40
4.000000000000013
  0
LINE
  5
1E0
330
1F
100
AcDbEntity
  8
0
  6
Continuous
 62
     7
370
    15
100
AcDbLine
 10
50.2481374123
 20
197.0337618024
 30
0.0
 11
50.2150332021
 21
198.1879871221
 31
0.0
  0
LINE
  5
1E1
330
1F
100
AcDbEntity
  8
0
  6
Continuous
 62
     7
370
    15
100
AcDbLine
 10
49.198892203
 20
198.7364308791
 30
0.0
 11
50.2150332021
 21
198.1879871221
 31
0.0
  0
LINE
  5
1E2
330
1F
100
AcDbEntity
  8
0
  6
Continuous
 62
     7
370
    15
100
AcDbLine
 10
48.2489595587
 20
196.9764230655
 30
0.0
 11
49.2651005578
 21
196.4279793085
 31
0.0
  0
LINE
  5
1E3
330
1F
100
AcDbEntity
  8
0
  6
Continuous
 62
     7
370
    15
100
AcDbLine
 10
49.2651005578
 20
196.4279793085
 30
0.0
 11
50.2481374123
 21
197.0337618024
 31
0.0
  0
LINE
  5
1E4
330
1F
100
AcDbEntity
  8
0
  6
Continuous
 62
     7
370
    15
100
AcDbLine
 10
48.2158553485
 20
198.1306493164
 30
0.0
 11
48.2489595587
 21
196.9764230655
 31
0.0
  0
LINE
  5
1E5
330
1F
100
AcDbEntity
  8
0
  6
Continuous
 62
     7
370
    15
100
AcDbLine
 10
49.198892203
 20
198.7364308791
 30
0.0
 11
48.2158553485
 21
198.1306493164
 31
0.0
  0
CIRCLE
  5
1E6
330
1F
100
AcDbEntity
  8
0
  6
Continuous
 62
     7
370
    15
100
AcDbCircle
 10
49.1997717567
 20
213.5821728404
 30
0.0
 40
2.049999999999979
  0
CIRCLE
  5
1E7
330
1F
100
AcDbEntity
  8
0
  6
Continuous
 62
     7
370
    15
100
AcDbCircle
 10
49.1997717567
 20
213.5821728404
 30
0.0
 40
3.849999999999987
  0
CIRCLE
  5
1E8
330
1F
100
AcDbEntity
  8
0
  6
Continuous
 62
     7
370
    15
100
AcDbCircle
 10
49.1997717567
 20
213.5821728404
 30
0.0
 40
4.000000000000013
  0
LINE
  5
1E9
330
1F
100
AcDbEntity
  8
0
  6
Continuous
 62
     7
370
    15
100
AcDbLine
 10
50.2159128363
 20
213.0337281035
 30
0.0
 11
50.1828086261
 21
214.1879552857
 31
0.0
  0
LINE
  5
1EA
330
1F
100
AcDbEntity
  8
0
  6
Continuous
 62
     7
370
    15
100
AcDbLine
 10
49.1666675797
 20
214.7363981114
 30
0.0
 11
50.1828086261
 21
214.1879552857
 31
0.0
  0
LINE
  5
1EB
330
1F
100
AcDbEntity
  8
0
  6
Continuous
 62
     7
370
    15
100
AcDbLine
 10
48.1836306561
 20
214.1306174801
 30
0.0
 11
48.2167348663
 21
212.9763902978
 31
0.0
  0
LINE
  5
1EC
330
1F
100
AcDbEntity
  8
0
  6
Continuous
 62
     7
370
    15
100
AcDbLine
 10
48.2167348663
 20
212.9763902978
 30
0.0
 11
49.2328759331
 21
212.4279474722
 31
0.0
  0
LINE
  5
1ED
330
1F
100
AcDbEntity
  8
0
  6
Continuous
 62
     7
370
    15
100
AcDbLine
 10
49.2328759331
 20
212.4279474722
 30
0.0
 11
50.2159128363
 21
213.0337281035
 31
0.0
  0
LINE
  5
1EE
330
1F
100
AcDbEntity
  8
0
  6
Continuous
 62
     7
370
    15
100
AcDbLine
 10
49.1666675797
 20
214.7363981114
 30
0.0
 11
48.1836306561
 21
214.1306174801
 31
0.0
  0
ARC
  5
1EF
330
1F
100
AcDbEntity
  8
0
  6
Continuous
 62
     7
370
    15
100
AcDbCircle
 10
49.2319963804
 20
226.5822052912
 30
0.0
 40
8.000000000001593
100
AcDbArc
 50
356.3861822775
 51
106.3866597792
  0
LINE
  5
1F0
330
1F
100
AcDbEntity
  8
0
  6
Continuous
 62
     7
370
    15
100
AcDbLine
 10
56.8161765976
 20
219.5822054402
 30
0.0
 11
57.2160888395
 21
226.0779568807
 31
0.0
  0
ARC
  5
1F1
330
1F
100
AcDbEntity
  8
0
  6
Continuous
 62
     7
370
    15
100
AcDbCircle
 10
49.2319963804
 20
226.5822052912
 30
0.0
 40
8.000000000003345
100
AcDbArc
 50
180.1000866038
 51
241.0449756281
  0
LINE
  5
1F2
330
1F
100
AcDbEntity
  8
0
  6
Continuous
 62
     7
370
    15
100
AcDbLine
 10
41.2320090389
 20
226.5682311611
 30
0.0
 11
39.9829825318
 21
234.3066388623
 31
0.0
  0
ARC
  5
1F3
330
1F
100
AcDbEntity
  8
0
  6
Continuous
 62
     7
370
    15
100
AcDbCircle
 10
49.2319963804
 20
226.5822052912
 30
0.0
 40
5.150000000000254
100
AcDbArc
 50
180.0000000001
 51
359.9999999999
  0
ARC
  5
1F4
330
1F
100
AcDbEntity
  8
0
  6
Continuous
 62
     7
370
    15
100
AcDbCircle
 10
49.2319963804
 20
226.5822052912
 30
0.0
 40
5.150000000000254
100
AcDbArc
 50
359.9999999999
 51
180.0000000001
  0
LINE
  5
1F5
330
1F
100
AcDbEntity
  8
0
  6
Continuous
 62
     7
370
    15
100
AcDbLine
 10
46.4850464767
 20
237.2805455582
 30
0.0
 11
46.9750516048
 21
234.257241513
 31
0.0
  0
LINE
  5
1F6
330
1F
100
AcDbEntity
  8
0
  6
Continuous
 62
     7
370
    15
100
AcDbLine
 10
46.4850464767
 20
237.2805455582
 30
0.0
 11
47.1739758203
 21
237.3922036843
 31
0.0
  0
LINE
  5
1F7
330
1F
100
AcDbEntity
  8
0
  6
Continuous
 62
     7
370
    15
100
AcDbLine
 10
39.647585333
 20
237.3922036843
 30
0.0
 11
47.1739758203
 21
237.3922036843
 31
0.0
  0
ARC
  5
1F8
330
1F
100
AcDbEntity
  8
0
  6
Continuous
 62
     7
370
    15
100
AcDbCircle
 10
69.5996776554
 20
239.0869515371
 30
0.0
 40
30.00000000000846
100
AcDbArc
 50
183.2384509428
 51
189.1688081499
  0
LINE
  5
1F9
330
1F
100
AcDbEntity
  8
0
  6
Continuous
 62
     7
370
    15
100
AcDbLine
 10
57.6676135814
 20
229.2671965317
 30
0.0
 11
58.481010229
 21
234.3066388623
 31
0.0
  0
LINE
  5
1FA
330
1F
100
AcDbEntity
  8
0
  6
Continuous
 62
     7
370
    15
100
AcDbLine
 10
57.6676135814
 20
229.2671965317
 30
0.0
 11
57.275343307
 21
229.3307611601
 31
0.0
  0
ARC
  5
1FB
330
1F
100
AcDbEntity
  8
0
  6
Continuous
 62
     7
370
    15
100
AcDbCircle
 10
49.2319963804
 20
226.5822052912
 30
0.0
 40
8.499999999991756
100
AcDbArc
 50
18.8662258716
 51
74.037641301
  0
LINE
  5
1FC
330
1F
100
AcDbEntity
  8
0
  6
Continuous
 62
     7
370
    15
100
AcDbLine
 10
51.569545495
 20
234.754467185
 30
0.0
 11
51.9789467497
 21
237.2805083053
 31
0.0
  0
LINE
  5
1FD
330
1F
100
AcDbEntity
  8
0
  6
Continuous
 62
     7
370
    15
100
AcDbLine
 10
51.2897801517
 20
237.3922036843
 30
0.0
 11
58.8164074278
 21
237.3922036843
 31
0.0
  0
LINE
  5
1FE
330
1F
100
AcDbEntity
  8
0
  6
Continuous
 62
     7
370
    15
100
AcDbLine
 10
51.2897801517
 20
237.3922036843
 30
0.0
 11
51.9789467497
 21
237.2805083053
 31
0.0
  0
ARC
  5
1FF
330
1F
100
AcDbEntity
  8
0
  6
Continuous
 62
     7
370
    15
100
AcDbCircle
 10
28.8643151054
 20
239.0869515371
 30
0.0
 40
30.00000000000832
100
AcDbArc
 50
350.8311918501
 51
356.7615490572
  0
ARC
  5
200
330
1F
100
AcDbEntity
  8
0
  6
Continuous
 62
     7
370
    15
100
AcDbCircle
 10
49.2319963804
 20
226.5822052912
 30
0.0
 40
8.50000000002765
100
AcDbArc
 50
201.4929653077
 51
235.4396782199
  0
LINE
  5
201
330
1F
100
AcDbEntity
  8
0
  6
Continuous
 62
     7
370
    15
100
AcDbLine
 10
41.441349399
 20
219.5822054402
 30
0.0
 11
41.3230644471
 21
223.4679141895
 31
0.0
  0
LINE
  5
202
330
1F
100
AcDbEntity
  8
0
  6
Continuous
 62
     7
370
    15
100
AcDbLine
 10
36.2319961122
 20
225.4176417248
 30
0.0
 11
36.2319961122
 21
219.5822054402
 31
0.0
  0
ARC
  5
203
330
1F
100
AcDbEntity
  8
0
  6
Continuous
 62
     7
370
    15
100
AcDbCircle
 10
43.2319963804
 20
225.4176426447
 30
0.0
 40
7.000000000008406
100
AcDbArc
 50
124.849904579
 51
179.9999999999
  0
LINE
  5
204
330
1F
100
AcDbEntity
  8
0
  6
Continuous
 62
     7
370
    15
100
AcDbLine
 10
39.2319966039
 20
229.1925603406
 30
0.0
 11
39.2319966039
 21
231.1622070031
 31
0.0
  0
ARC
  5
205
330
1F
100
AcDbEntity
  8
0
  6
Continuous
 62
     7
370
    15
100
AcDbCircle
 10
43.2319963804
 20
225.4176426447
 30
0.0
 40
5.500000000006058
100
AcDbArc
 50
136.6582417725
 51
179.9999999998
  0
LINE
  5
206
330
1F
100
AcDbEntity
  8
0
  6
Continuous
 62
     7
370
    15
100
AcDbLine
 10
37.7319963581
 20
219.5822054402
 30
0.0
 11
37.7319963581
 21
225.4176417248
 31
0.0
  0
ARC
  5
207
330
1F
100
AcDbEntity
  8
0
  6
Continuous
 62
     7
370
    15
100
AcDbCircle
 10
55.2319963804
 20
225.4176426447
 30
0.0
 40
7.00000000000841
100
AcDbArc
 50
0.0000000001
 51
55.150095421
  0
LINE
  5
208
330
1F
100
AcDbEntity
  8
0
  6
Continuous
 62
     7
370
    15
100
AcDbLine
 10
62.2319966486
 20
219.5822054402
 30
0.0
 11
62.2319966486
 21
225.4176417248
 31
0.0
  0
LINE
  5
209
330
1F
100
AcDbEntity
  8
0
  6
Continuous
 62
     7
370
    15
100
AcDbLine
 10
60.7319964028
 20
225.4176417248
 30
0.0
 11
60.7319964028
 21
219.5822054402
 31
0.0
  0
ARC
  5
20A
330
1F
100
AcDbEntity
  8
0
  6
Continuous
 62
     7
370
    15
100
AcDbCircle
 10
55.2319963804
 20
225.4176426447
 30
0.0
 40
5.500000000005614
100
AcDbArc
 50
0.0000000002
 51
43.3417582275
  0
LINE
  5
20B
330
1F
100
AcDbEntity
  8
0
  6
Continuous
 62
     7
370
    15
100
AcDbLine
 10
59.2319961569
 20
229.1925603406
 30
0.0
 11
59.2319961569
 21
231.1622070031
 31
0.0
  0
LINE
  5
20C
330
1F
100
AcDbEntity
  8
0
  6
Continuous
 62
     7
370
    15
100
AcDbLine
 10
41.235670068
 20
226.3388687627
 30
0.0
 11
41.3230644471
 21
223.4679141895
 31
0.0
  0
SPLINE
  5
20D
330
1F
100
AcDbEntity
  8
0
  6
Continuous
 62
     7
370
    15
100
AcDbSpline
210
0.0
220
0.0
230
1.0
 70
     8
 71
     3
 72
    11
 73
     7
 74
     0
 42
0.00000001
 43
0.00000001
 12
1.0
 22
0.0
 32
0.0
 13
1.0
 23
0.0
 33
0.0
 40
0.0
 40
0.0
 40
0.0
 40
0.0
 40
0.2605508079302947
 40
0.5004107502574865
 40
0.7591684021083067
 40
1.0
 40
1.0
 40
1.0
 40
1.0
 10
47.12215284133489
 20
239.6538572267898
 30
0.0
 10
47.16743065242295
 20
239.3733353363525
 30
0.0
 10
47.25439067222322
 20
238.8345683650563
 30
0.0
 10
47.36266335858208
 20
238.1637646692181
 30
0.0
 10
47.44360230887157
 20
237.6623012059422
 30
0.0
 10
47.46762957343667
 20
237.5134369329324
 30
0.0
 10
47.47921213755543
 20
237.4416755394348
 30
0.0
  0
LINE
  5
20E
330
1F
100
AcDbEntity
  8
0
  6
Continuous
 62
     7
370
    15
100
AcDbLine
 10
39.6280862323
 20
240.3922060387
 30
0.0
 11
41.6482347927
 21
240.3922060387
 31
0.0
  0
SPLINE
  5
20F
330
1F
100
AcDbEntity
  8
0
  6
Continuous
 62
     7
370
    15
100
AcDbSpline
210
0.0
220
0.0
230
1.0
 70
     8
 71
     3
 72
     9
 73
     5
 74
     0
 42
0.00000001
 43
0.00000001
 12
1.0
 22
0.0
 32
0.0
 13
1.0
 23
0.0
 33
0.0
 40
0.0
 40
0.0
 40
0.0
 40
0.0
 40
0.4992867131461834
 40
0.9999999999999999
 40
0.9999999999999999
 40
0.9999999999999999
 40
0.9999999999999999
 10
41.64823479266996
 20
240.3922060386547
 30
0.0
 10
41.67644146426647
 20
240.0956612700966
 30
0.0
 10
41.73293540022315
 20
239.5017244383122
 30
0.0
 10
41.57481049935826
 20
238.9979491919714
 30
0.0
 10
41.49563526051278
 20
238.7457022325405
 30
0.0
  0
SPLINE
  5
210
330
1F
100
AcDbEntity
  8
0
  6
Continuous
 62
     7
370
    15
100
AcDbSpline
210
0.0
220
0.0
230
1.0
 70
     8
 71
     3
 72
     9
 73
     5
 74
     0
 42
0.00000001
 43
0.00000001
 12
1.0
 22
0.0
 32
0.0
 13
1.0
 23
0.0
 33
0.0
 40
0.0
 40
0.0
 40
0.0
 40
0.0
 40
0.4821044057179045
 40
1.0
 40
1.0
 40
1.0
 40
1.0
 10
41.49563526051278
 20
238.7457022325405
 30
0.0
 10
42.39828212862996
 20
238.8913949625344
 30
0.0
 10
44.27058791428865
 20
239.1935965775081
 30
0.0
 10
46.14921839308315
 20
239.4968194414623
 30
0.0
 10
47.12215284133489
 20
239.6538572267898
 30
0.0
  0
SPLINE
  5
211
330
1F
100
AcDbEntity
  8
0
  6
Continuous
 62
     7
370
    15
100
AcDbSpline
210
0.0
220
0.0
230
1.0
 70
     8
 71
     3
 72
    10
 73
     6
 74
     0
 42
0.00000001
 43
0.00000001
 12
1.0
 22
0.0
 32
0.0
 13
1.0
 23
0.0
 33
0.0
 40
0.0
 40
0.0
 40
0.0
 40
0.0
 40
0.2142023814066706
 40
0.4445976784275296
 40
0.9999999999999999
 40
0.9999999999999999
 40
0.9999999999999999
 40
0.9999999999999999
 10
47.17397582033808
 20
237.3922036842712
 30
0.0
 10
47.17791777279966
 20
237.3928409845375
 30
0.0
 10
47.18609967489326
 20
237.3941637626362
 30
0.0
 10
47.27483282174208
 20
237.4085378271958
 30
0.0
 10
47.394576921668
 20
237.42795293048
 30
0.0
 10
47.47921213755543
 20
237.4416755394348
 30
0.0
  0
SPLINE
  5
212
330
1F
100
AcDbEntity
  8
0
  6
Continuous
 62
     7
370
    15
100
AcDbSpline
210
0.0
220
0.0
230
1.0
 70
     8
 71
     3
 72
    19
 73
    15
 74
     0
 42
0.00000001
 43
0.00000001
 12
1.0
 22
0.0
 32
0.0
 13
1.0
 23
0.0
 33
0.0
 40
0.0
 40
0.0
 40
0.0
 40
0.0
 40
0.0819008215629005
 40
0.1649893680873297
 40
0.2492784340189877
 40
0.3046372662232682
 40
0.3648664471010366
 40
0.4299686387043568
 40
0.4999441853767883
 40
0.5721488599470619
 40
0.6736718602121166
 40
0.7497344774552068
 40
0.8806295536164448
 40
1.0
 40
1.0
 40
1.0
 40
1.0
 10
39.62808623226518
 20
240.3922060386547
 30
0.0
 10
39.62299062910191
 20
240.2636574929358
 30
0.0
 10
39.61272552638511
 20
240.0046961916695
 30
0.0
 10
39.60374368019461
 20
239.6197412349032
 30
0.0
 10
39.59977263961927
 20
239.2874279264098
 30
0.0
 10
39.59955452642765
 20
239.00256776877
 30
0.0
 10
39.6013184654304
 20
238.7568564192791
 30
0.0
 10
39.60501457976356
 20
238.5076587046812
 30
0.0
 10
39.61059252020532
 20
238.2647439999093
 30
0.0
 10
39.61875291042202
 20
238.009516055049
 30
0.0
 10
39.62749460757618
 20
237.7892536404698
 30
0.0
 10
39.637476121699
 20
237.5779115805444
 30
0.0
 10
39.6456187098776
 20
237.4238487892147
 30
0.0
 10
39.64695023063648
 20
237.4024231721471
 30
0.0
 10
39.64758533300991
 20
237.3922036842712
 30
0.0
  0
SPLINE
  5
213
330
1F
100
AcDbEntity
  8
0
  6
Continuous
 62
     7
370
    15
100
AcDbSpline
210
0.0
220
0.0
230
1.0
 70
     8
 71
     3
 72
    11
 73
     7
 74
     0
 42
0.00000001
 43
0.00000001
 12
1.0
 22
0.0
 32
0.0
 13
1.0
 23
0.0
 33
0.0
 40
0.0
 40
0.0
 40
0.0
 40
0.0
 40
0.2408269609272032
 40
0.4995892524549768
 40
0.739448271654226
 40
1.0
 40
1.0
 40
1.0
 40
1.0
 10
50.98477456966574
 20
237.4416382865318
 30
0.0
 10
50.99635483144229
 20
237.5133841337705
 30
0.0
 10
51.02037778261813
 20
237.6622190235633
 30
0.0
 10
51.10131668976324
 20
238.1636852539789
 30
0.0
 10
51.20959395965613
 20
238.8345190964662
 30
0.0
 10
51.29655921972275
 20
239.3733178142445
 30
0.0
 10
51.34183991948301
 20
239.6538572267898
 30
0.0
  0
SPLINE
  5
214
330
1F
100
AcDbEntity
  8
0
  6
Continuous
 62
     7
370
    15
100
AcDbSpline
210
0.0
220
0.0
230
1.0
 70
     8
 71
     3
 72
     9
 73
     5
 74
     0
 42
0.00000001
 43
0.00000001
 12
1.0
 22
0.0
 32
0.0
 13
1.0
 23
0.0
 33
0.0
 40
0.0
 40
0.0
 40
0.0
 40
0.0
 40
0.5178955140434758
 40
1.0
 40
1.0
 40
1.0
 40
1.0
 10
51.34183991948301
 20
239.6538572267898
 30
0.0
 10
52.31477420979073
 20
239.4968194284452
 30
0.0
 10
54.19340467467256
 20
239.1935964923774
 30
0.0
 10
56.0657104749223
 20
238.8913949512034
 30
0.0
 10
56.96835750030512
 20
238.7457022325405
 30
0.0
  0
SPLINE
  5
215
330
1F
100
AcDbEntity
  8
0
  6
Continuous
 62
     7
370
    15
100
AcDbSpline
210
0.0
220
0.0
230
1.0
 70
     8
 71
     3
 72
     9
 73
     5
 74
     0
 42
0.00000001
 43
0.00000001
 12
1.0
 22
0.0
 32
0.0
 13
1.0
 23
0.0
 33
0.0
 40
0.0
 40
0.0
 40
0.0
 40
0.0
 40
0.5007132868538164
 40
0.9999999999999999
 40
0.9999999999999999
 40
0.9999999999999999
 40
0.9999999999999999
 10
56.96835750030512
 20
238.7457022325405
 30
0.0
 10
56.88918226145964
 20
238.9979491919714
 30
0.0
 10
56.73105736059476
 20
239.5017244383122
 30
0.0
 10
56.78755129655144
 20
240.0956612700966
 30
0.0
 10
56.81575796814794
 20
240.3922060386547
 30
0.0
  0
LINE
  5
216
330
1F
100
AcDbEntity
  8
0
  6
Continuous
 62
     7
370
    15
100
AcDbLine
 10
56.8157579681
 20
240.3922060387
 30
0.0
 11
58.8359065286
 21
240.3922060387
 31
0.0
  0
SPLINE
  5
217
330
1F
100
AcDbEntity
  8
0
  6
Continuous
 62
     7
370
    15
100
AcDbSpline
210
0.0
220
0.0
230
1.0
 70
     8
 71
     3
 72
    10
 73
     6
 74
     0
 42
0.00000001
 43
0.00000001
 12
1.0
 22
0.0
 32
0.0
 13
1.0
 23
0.0
 33
0.0
 40
0.0
 40
0.0
 40
0.0
 40
0.0
 40
0.214983152726218
 40
0.445428404251068
 40
1.0
 40
1.0
 40
1.0
 40
1.0
 10
51.28978015171523
 20
237.3922036842712
 30
0.0
 10
51.28573172077717
 20
237.3928599036315
 30
0.0
 10
51.27734368613542
 20
237.3942195392064
 30
0.0
 10
51.18861307986344
 20
237.408600838367
 30
0.0
 10
51.06916097092518
 20
237.4279612273995
 30
0.0
 10
50.98477456966574
 20
237.4416382865318
 30
0.0
  0
SPLINE
  5
218
330
1F
100
AcDbEntity
  8
0
  6
Continuous
 62
     7
370
    15
100
AcDbSpline
210
0.0
220
0.0
230
1.0
 70
     8
 71
     3
 72
    20
 73
    16
 74
     0
 42
0.00000001
 43
0.00000001
 12
1.0
 22
0.0
 32
0.0
 13
1.0
 23
0.0
 33
0.0
 40
0.0
 40
0.0
 40
0.0
 40
0.0
 40
0.0582938300554247
 40
0.1194806485707497
 40
0.1835615565952861
 40
0.2505374009225113
 40
0.3048861788152901
 40
0.3754040413081007
 40
0.4503736951112707
 40
0.5003770756324211
 40
0.592541134056262
 40
0.6760581034616837
 40
0.7509290362310216
 40
0.876799998837015
 40
1.0
 40
1.0
 40
1.0
 40
1.0
 10
58.816407427808
 20
237.3922036842712
 30
0.0
 10
58.81656065671419
 20
237.3946334823206
 30
0.0
 10
58.8168747189241
 20
237.3996136636976
 30
0.0
 10
58.8192711601807
 20
237.4412925896551
 30
0.0
 10
58.82304893262703
 20
237.5120971556983
 30
0.0
 10
58.82796988497029
 20
237.6096915354904
 30
0.0
 10
58.83405738828203
 20
237.7369881603556
 30
0.0
 10
58.8408895500416
 20
237.8969888489197
 30
0.0
 10
58.84763145553045
 20
238.0827337692608
 30
0.0
 10
58.85473294450297
 20
238.3143257235292
 30
0.0
 10
58.86054647364642
 20
238.5833613110124
 30
0.0
 10
58.86429258450886
 20
238.9144535928468
 30
0.0
 10
58.86451432731739
 20
239.3170002217758
 30
0.0
 10
58.85793172299486
 20
239.8073528717666
 30
0.0
 10
58.84319558474162
 20
240.1986537135252
 30
0.0
 10
58.83590652855272
 20
240.3922060386547
 30
0.0
  0
ARC
  5
219
330
1F
100
AcDbEntity
  8
0
  6
Continuous
 62
     7
370
    15
100
AcDbCircle
 10
49.2319963804
 20
226.5822052912
 30
0.0
 40
2.500000000000149
100
AcDbArc
 50
180.0
 51
0.0
  0
ARC
  5
21A
330
1F
100
AcDbEntity
  8
0
  6
Continuous
 62
     7
370
    15
100
AcDbCircle
 10
49.2319963804
 20
226.5822052912
 30
0.0
 40
2.500000000000149
100
AcDbArc
 50
0.0
 51
180.0
  0
ARC
  5
21B
330
1F
100
AcDbEntity
  8
0
  6
Continuous
 62
     7
370
    15
100
AcDbCircle
 10
49.2319963804
 20
226.5822052912
 30
0.0
 40
3.999999999999972
100
AcDbArc
 50
360.0
 51
180.0
  0
ARC
  5
21C
330
1F
100
AcDbEntity
  8
0
  6
Continuous
 62
     7
370
    15
100
AcDbCircle
 10
49.2319963804
 20
226.5822052912
 30
0.0
 40
3.999999999999972
100
AcDbArc
 50
180.0
 51
360.0
  0
LINE
  5
21D
330
1F
100
AcDbEntity
  8
0
  6
Continuous
 62
     7
370
    15
100
AcDbLine
 10
57.2319837219
 20
226.5682311611
 30
0.0
 11
57.6676135814
 21
229.2671965317
 31
0.0
  0
LINE
  5
21E
330
1F
100
AcDbEntity
  8
0
  6
Continuous
 62
     7
370
    15
100
AcDbLine
 10
51.4889583855
 20
234.2572377877
 30
0.0
 11
51.569545495
 21
234.754467185
 31
0.0
  0
ARC
  5
21F
330
1F
100
AcDbEntity
  8
0
  6
Continuous
 62
     7
370
    15
100
AcDbCircle
 10
49.2319963804
 20
226.5822052912
 30
0.0
 40
1.300000000000615
100
AcDbArc
 50
180.0000000004
 51
359.9999999997
  0
ARC
  5
220
330
1F
100
AcDbEntity
  8
0
  6
Continuous
 62
     7
370
    15
100
AcDbCircle
 10
49.2319963804
 20
226.5822052912
 30
0.0
 40
1.300000000000615
100
AcDbArc
 50
359.9999999997
 51
180.0000000004
  0
CIRCLE
  5
221
330
1F
100
AcDbEntity
  8
0
  6
Continuous
 62
     7
370
    15
100
AcDbCircle
 10
49.2319963804
 20
226.5822052912
 30
0.0
 40
1.499999999997712
  0
SPLINE
  5
222
330
1F
100
AcDbEntity
  8
0
  6
Continuous
 62
     7
370
    15
100
AcDbSpline
210
0.0
220
0.0
230
1.0
 70
     8
 71
     3
 72
    16
 73
    12
 74
     0
 42
0.00000001
 43
0.00000001
 12
1.0
 22
0.0
 32
0.0
 13
1.0
 23
0.0
 33
0.0
 40
0.0
 40
0.0
 40
0.0
 40
0.0
 40
0.1313106387855745
 40
0.2591856074479277
 40
0.3819335296022876
 40
0.5023122529124944
 40
0.583238368077275
 40
0.6634556392704213
 40
0.7435539872940639
 40
0.8713125940992897
 40
0.9999999999999999
 40
0.9999999999999999
 40
0.9999999999999999
 40
0.9999999999999999
 10
43.96393251853222
 20
254.3382363275894
 30
0.0
 10
43.68799660552536
 20
253.9176274715853
 30
0.0
 10
43.14334448981848
 20
253.0874147572946
 30
0.0
 10
42.47470662791552
 20
251.6795539831617
 30
0.0
 10
41.9366647630173
 20
250.1946316779499
 30
0.0
 10
41.5826281082045
 20
248.7959738052228
 30
0.0
 10
41.36440205044408
 20
247.5234504293591
 30
0.0
 10
41.24203111803676
 20
246.3987309418301
 30
0.0
 10
41.17702707251668
 20
245.0254183906129
 30
0.0
 10
41.21217450381516
 20
243.3866005095788
 30
0.0
 10
41.3823567913824
 20
242.1372887924642
 30
0.0
 10
41.46775611924166
 20
241.5103705481895
 30
0.0
  0
LINE
  5
223
330
1F
100
AcDbEntity
  8
0
  6
Continuous
 62
     7
370
    15
100
AcDbLine
 10
44.7319965741
 20
254.4622065381
 30
0.0
 11
43.9639325185
 21
254.3382363276
 31
0.0
  0
LINE
  5
224
330
1F
100
AcDbEntity
  8
0
  6
Continuous
 62
     7
370
    15
100
AcDbLine
 10
41.6482347927
 20
240.3922060387
 30
0.0
 11
41.4677561192
 21
241.5103705482
 31
0.0
  0
LINE
  5
225
330
1F
100
AcDbEntity
  8
0
  6
Continuous
 62
     7
370
    15
100
AcDbLine
 10
47.1221528413
 20
239.6538572268
 30
0.0
 11
44.7319965741
 21
254.4622065381
 31
0.0
  0
LINE
  5
226
330
1F
100
AcDbEntity
  8
0
  6
Continuous
 62
     7
370
    15
100
AcDbLine
 10
53.7319961867
 20
254.4622065381
 30
0.0
 11
54.5000602423
 21
254.3382363276
 31
0.0
  0
SPLINE
  5
227
330
1F
100
AcDbEntity
  8
0
  6
Continuous
 62
     7
370
    15
100
AcDbSpline
210
0.0
220
0.0
230
1.0
 70
     8
 71
     3
 72
    16
 73
    12
 74
     0
 42
0.00000001
 43
0.00000001
 12
1.0
 22
0.0
 32
0.0
 13
1.0
 23
0.0
 33
0.0
 40
0.0
 40
0.0
 40
0.0
 40
0.0
 40
0.0860336627491358
 40
0.1713106109752566
 40
0.2565526953772003
 40
0.3766220948842605
 40
0.497697765288088
 40
0.6180370726516259
 40
0.7408194492310023
 40
0.8686726878763412
 40
1.0
 40
1.0
 40
1.0
 40
1.0
 10
56.99623664157624
 20
241.5103705481895
 30
0.0
 10
57.05671053089569
 20
241.9287611039688
 30
0.0
 10
57.17712640761562
 20
242.7618622349274
 30
0.0
 10
57.26362399190432
 20
244.0142252592111
 30
0.0
 10
57.2808392320234
 20
245.4212081900311
 30
0.0
 10
57.18256046874886
 20
246.9728129467252
 30
0.0
 10
56.92526567598959
 20
248.6227649756979
 30
0.0
 10
56.52737602708181
 20
250.1944071728459
 30
0.0
 10
55.98937207805189
 20
251.6793530731277
 30
0.0
 10
55.32071208589199
 20
253.0873772999398
 30
0.0
 10
54.77604444401676
 20
253.9175739810492
 30
0.0
 10
54.50006024228568
 20
254.3382363275894
 30
0.0
  0
LINE
  5
228
330
1F
100
AcDbEntity
  8
0
  6
Continuous
 62
     7
370
    15
100
AcDbLine
 10
56.8157579681
 20
240.3922060387
 30
0.0
 11
56.9962366416
 21
241.5103705482
 31
0.0
  0
LINE
  5
229
330
1F
100
AcDbEntity
  8
0
  6
Continuous
 62
     7
370
    15
100
AcDbLine
 10
53.7319961867
 20
254.4622065381
 30
0.0
 11
51.3418399195
 21
239.6538572268
 31
0.0
  0
LINE
  5
22A
330
1F
100
AcDbEntity
  8
0
  6
Continuous
 62
     7
370
    15
100
AcDbLine
 10
43.7447732246
 20
254.3028609709
 30
0.0
 11
43.9639325185
 21
254.3382363276
 31
0.0
  0
LINE
  5
22B
330
1F
100
AcDbEntity
  8
0
  6
Continuous
 62
     7
370
    15
100
AcDbLine
 10
41.4677561192
 20
241.5103705482
 30
0.0
 11
39.6977202898
 21
241.5103705482
 31
0.0
  0
SPLINE
  5
22C
330
1F
100
AcDbEntity
  8
0
  6
Continuous
 62
     7
370
    15
100
AcDbSpline
210
0.0
220
0.0
230
1.0
 70
     8
 71
     3
 72
    19
 73
    15
 74
     0
 42
0.00000001
 43
0.00000001
 12
1.0
 22
0.0
 32
0.0
 13
1.0
 23
0.0
 33
0.0
 40
0.0
 40
0.0
 40
0.0
 40
0.0
 40
0.0613530065436333
 40
0.1143362425329413
 40
0.1671145794000154
 40
0.2229990270113457
 40
0.27493350281957
 40
0.3657677734848844
 40
0.4517252262980757
 40
0.5328554854726901
 40
0.655091427829845
 40
0.7723483867925777
 40
0.8870600837446616
 40
1.0
 40
1.0
 40
1.0
 40
1.0
 10
43.74477322461242
 20
254.3028609709152
 30
0.0
 10
43.62876617033304
 20
254.1026467487017
 30
0.0
 10
43.41257773164282
 20
253.7295315069366
 30
0.0
 10
43.09989451666664
 20
253.1538107685905
 30
0.0
 10
42.80158879059029
 20
252.5778566858369
 30
0.0
 10
42.51096715835346
 20
251.9844359057436
 30
0.0
 10
42.15997821998086
 20
251.2258029002502
 30
0.0
 10
41.77225078546583
 20
250.3148178650646
 30
0.0
 10
41.362307899282
 20
249.2387605064443
 30
0.0
 10
40.93722902456455
 20
247.9833416818867
 30
0.0
 10
40.52097553643267
 20
246.5308456815679
 30
0.0
 10
40.14539701295173
 20
244.8613148634268
 30
0.0
 10
39.86148576464564
 20
243.1899070021785
 30
0.0
 10
39.75202480833682
 20
242.0673036779139
 30
0.0
 10
39.69772028984661
 20
241.5103705481895
 30
0.0
  0
ARC
  5
22D
330
1F
100
AcDbEntity
  8
0
  6
Continuous
 62
     7
370
    15
100
AcDbCircle
 10
69.5996776554
 20
239.0869515371
 30
0.0
 40
30.00000000000778
100
AcDbArc
 50
175.3665602988
 51
177.5063617971
  0
LINE
  5
22E
330
1F
100
AcDbEntity
  8
0
  6
Continuous
 62
     7
370
    15
100
AcDbLine
 10
58.766272471
 20
241.5103705482
 30
0.0
 11
56.9962366416
 21
241.5103705482
 31
0.0
  0
LINE
  5
22F
330
1F
100
AcDbEntity
  8
0
  6
Continuous
 62
     7
370
    15
100
AcDbLine
 10
54.7192195362
 20
254.3028609709
 30
0.0
 11
54.5000602423
 21
254.3382363276
 31
0.0
  0
SPLINE
  5
230
330
1F
100
AcDbEntity
  8
0
  6
Continuous
 62
     7
370
    15
100
AcDbSpline
210
0.0
220
0.0
230
1.0
 70
     8
 71
     3
 72
    20
 73
    16
 74
     0
 42
0.00000001
 43
0.00000001
 12
1.0
 22
0.0
 32
0.0
 13
1.0
 23
0.0
 33
0.0
 40
0.0
 40
0.0
 40
0.0
 40
0.0
 40
0.1129294377100826
 40
0.2276327495310726
 40
0.3052758867502842
 40
0.3850925779223984
 40
0.467166195325761
 40
0.527562101481813
 40
0.5906665367993472
 40
0.6565020878984624
 40
0.7250885553849462
 40
0.7906145629536866
 40
0.862319554233629
 40
0.92462097806422
 40
1.0
 40
1.0
 40
1.0
 40
1.0
 10
58.76627247097129
 20
241.5103705481895
 30
0.0
 10
58.71199063437711
 20
242.0672841000237
 30
0.0
 10
58.60257431243232
 20
243.1898590957532
 30
0.0
 10
58.35097316401389
 20
244.6694305868874
 30
0.0
 10
58.07419378965924
 20
245.9582082483337
 30
0.0
 10
57.79115831942425
 20
247.0659160048725
 30
0.0
 10
57.49544595491334
 20
248.0643688687084
 30
0.0
 10
57.1969759367234
 20
248.9603926463132
 30
0.0
 10
56.90450473921765
 20
249.7626419592369
 30
0.0
 10
56.5827356743208
 20
250.5732004402147
 30
0.0
 10
56.24156231065265
 20
251.364389385648
 30
0.0
 10
55.87649092551344
 20
252.1474828777381
 30
0.0
 10
55.51227211168537
 20
252.8741334670386
 30
0.0
 10
55.12198923834676
 20
253.6053663591321
 30
0.0
 10
54.86171677671872
 20
254.056092018525
 30
0.0
 10
54.71921953620548
 20
254.3028609709152
 30
0.0
  0
ARC
  5
231
330
1F
100
AcDbEntity
  8
0
  6
Continuous
 62
     7
370
    15
100
AcDbCircle
 10
28.8643151054
 20
239.0869515371
 30
0.0
 40
30.00000000000778
100
AcDbArc
 50
2.4936382029
 51
4.6334397012
  0
LINE
  5
232
330
1F
100
AcDbEntity
  8
0
  6
Continuous
 62
     7
370
    15
100
AcDbLine
 10
40.4905132881
 20
231.1622070031
 30
0.0
 11
39.2319966039
 21
231.1622070031
 31
0.0
  0
LINE
  5
233
330
1F
100
AcDbEntity
  8
0
  6
Continuous
 62
     7
370
    15
100
AcDbLine
 10
59.2319961569
 20
231.1622070031
 30
0.0
 11
57.9734794727
 21
231.1622070031
 31
0.0
  0
CIRCLE
  5
234
330
1F
100
AcDbEntity
  8
0
  6
Continuous
 62
     7
370
    15
100
AcDbCircle
 10
58.1319963804
 20
197.5822052912
 30
0.0
 40
1.610000000000021
  0
CIRCLE
  5
235
330
1F
100
AcDbEntity
  8
0
  6
Continuous
 62
     7
370
    15
100
AcDbCircle
 10
58.1319963804
 20
197.5822052912
 30
0.0
 40
2.000000000000001
  0
LINE
  5
236
330
1F
100
AcDbEntity
  8
0
  6
Continuous
 62
     7
370
    15
100
AcDbLine
 10
59.0595962411
 20
198.2698773847
 30
0.0
 11
58.0002549967
 21
198.729365866
 31
0.0
  0
LINE
  5
237
330
1F
100
AcDbEntity
  8
0
  6
Continuous
 62
     7
370
    15
100
AcDbLine
 10
57.2043970159
 20
196.8945337341
 30
0.0
 11
57.0726549185
 21
198.0416940407
 31
0.0
  0
LINE
  5
238
330
1F
100
AcDbEntity
  8
0
  6
Continuous
 62
     7
370
    15
100
AcDbLine
 10
57.2043970159
 20
196.8945337341
 30
0.0
 11
58.2637382603
 21
196.4350443215
 31
0.0
  0
LINE
  5
239
330
1F
100
AcDbEntity
  8
0
  6
Continuous
 62
     7
370
    15
100
AcDbLine
 10
59.1913374073
 20
197.1227161468
 30
0.0
 11
58.2637382603
 21
196.4350443215
 31
0.0
  0
LINE
  5
23A
330
1F
100
AcDbEntity
  8
0
  6
Continuous
 62
     7
370
    15
100
AcDbLine
 10
59.1913374073
 20
197.1227161468
 30
0.0
 11
59.0595962411
 21
198.2698773847
 31
0.0
  0
LINE
  5
23B
330
1F
100
AcDbEntity
  8
0
  6
Continuous
 62
     7
370
    15
100
AcDbLine
 10
57.0726549185
 20
198.0416940407
 30
0.0
 11
58.0002549967
 21
198.729365866
 31
0.0
  0
LINE
  5
23C
330
1F
100
AcDbEntity
  8
0
  6
Continuous
 62
     7
370
    15
100
AcDbLine
 10
33.7319966337
 20
183.0822052782
 30
0.0
 11
64.7319961271
 21
183.0822052782
 31
0.0
  0
LINE
  5
23D
330
1F
100
AcDbEntity
  8
0
  6
Continuous
 62
     7
370
    15
100
AcDbLine
 10
33.7319966337
 20
183.0822052782
 30
0.0
 11
39.2047861523
 21
200.697498198
 31
0.0
  0
ARC
  5
23E
330
1F
100
AcDbEntity
  8
0
  6
Continuous
 62
     7
370
    15
100
AcDbCircle
 10
49.2319963804
 20
197.5822052912
 30
0.0
 40
10.5
100
AcDbArc
 50
90.0
 51
162.7408168397
  0
LINE
  5
23F
330
1F
100
AcDbEntity
  8
0
  6
Continuous
 62
     7
370
    15
100
AcDbLine
 10
49.2319963804
 20
208.0822044865
 30
0.0
 11
52.7319964884
 21
208.0822044865
 31
0.0
  0
ARC
  5
240
330
1F
100
AcDbEntity
  8
0
  6
Continuous
 62
     7
370
    15
100
AcDbCircle
 10
52.7319963804
 20
196.0822052912
 30
0.0
 40
12.0
100
AcDbArc
 50
0.0
 51
90.0
  0
LINE
  5
241
330
1F
100
AcDbEntity
  8
0
  6
Continuous
 62
     7
370
    15
100
AcDbLine
 10
64.7319961271
 20
196.0822053136
 30
0.0
 11
64.7319961271
 21
183.0822052782
 31
0.0
  0
LINE
  5
242
330
1F
100
AcDbEntity
  8
0
  6
Continuous
 62
     7
370
    15
100
AcDbLine
 10
64.7319961271
 20
183.0822052782
 30
0.0
 11
64.7319961271
 21
180.5822051012
 31
0.0
  0
LINE
  5
243
330
1F
100
AcDbEntity
  8
0
  6
Continuous
 62
     7
370
    15
100
AcDbLine
 10
33.7319966337
 20
180.5822051012
 30
0.0
 11
64.7319961271
 21
180.5822051012
 31
0.0
  0
LINE
  5
244
330
1F
100
AcDbEntity
  8
0
  6
Continuous
 62
     7
370
    15
100
AcDbLine
 10
33.7319966337
 20
183.0822052782
 30
0.0
 11
33.7319966337
 21
180.5822051012
 31
0.0
  0
LINE
  5
245
330
1F
100
AcDbEntity
  8
0
  6
Continuous
 62
     7
370
    15
100
AcDbLine
 10
26.7319954863
 20
183.0822052782
 30
0.0
 11
26.7319954863
 21
180.5822051012
 31
0.0
  0
LINE
  5
246
330
1F
100
AcDbEntity
  8
0
  6
Continuous
 62
     7
370
    15
100
AcDbLine
 10
26.7319954863
 20
183.0822052782
 30
0.0
 11
33.7319966337
 21
183.0822052782
 31
0.0
  0
LINE
  5
247
330
1F
100
AcDbEntity
  8
0
  6
Continuous
 62
     7
370
    15
100
AcDbLine
 10
26.7319954863
 20
180.5822051012
 30
0.0
 11
33.7319966337
 21
180.5822051012
 31
0.0
  0
ELLIPSE
  5
248
330
1F
100
AcDbEntity
  8
0
  6
Continuous
 62
     7
370
    15
100
AcDbEllipse
 10
65.2081868566
 20
184.0822052912
 30
0.0
 11
0.0
 21
1.0
 31
0.0
210
0.0
220
0.0
230
1.0
 40
0.4761904762
 41
1.570796326794897
 42
3.141592653589793
  0
LINE
  5
249
330
1F
100
AcDbEntity
  8
0
  6
Continuous
 62
     7
370
    15
100
AcDbLine
 10
71.7319972745
 20
183.0822052782
 30
0.0
 11
71.7319972745
 21
180.5822051012
 31
0.0
  0
LINE
  5
24A
330
1F
100
AcDbEntity
  8
0
  6
Continuous
 62
     7
370
    15
100
AcDbLine
 10
65.2081869474
 20
183.0822052782
 30
0.0
 11
71.7319972745
 21
183.0822052782
 31
0.0
  0
LINE
  5
24B
330
1F
100
AcDbEntity
  8
0
  6
Continuous
 62
     7
370
    15
100
AcDbLine
 10
64.7319961271
 20
180.5822051012
 30
0.0
 11
71.7319972745
 21
180.5822051012
 31
0.0
  0
LINE
  5
24C
330
1F
100
AcDbEntity
  8
0
  6
Continuous
 62
     7
370
    15
100
AcDbLine
 10
28.2319966635
 20
180.5822051012
 30
0.0
 11
28.2319966635
 21
178.5822052391
 31
0.0
  0
LINE
  5
24D
330
1F
100
AcDbEntity
  8
0
  6
Continuous
 62
     7
370
    15
100
AcDbLine
 10
70.2319960973
 20
178.5822052391
 30
0.0
 11
70.2319960973
 21
180.5822051012
 31
0.0
  0
LINE
  5
24E
330
1F
100
AcDbEntity
  8
0
  6
Continuous
 62
     7
370
    15
100
AcDbLine
 10
70.2319960973
 20
178.5822052391
 30
0.0
 11
28.2319966635
 21
178.5822052391
 31
0.0
  0
LINE
  5
24F
330
1F
100
AcDbEntity
  8
0
  6
Continuous
 62
     7
370
    15
100
AcDbLine
 10
27.2319964996
 20
178.5822052391
 30
0.0
 11
27.2319964996
 21
180.5822051012
 31
0.0
  0
LINE
  5
250
330
1F
100
AcDbEntity
  8
0
  6
Continuous
 62
     7
370
    15
100
AcDbLine
 10
28.2319966635
 20
178.5822052391
 30
0.0
 11
27.2319964996
 21
178.5822052391
 31
0.0
  0
LINE
  5
251
330
1F
100
AcDbEntity
  8
0
  6
Continuous
 62
     7
370
    15
100
AcDbLine
 10
71.2319962612
 20
180.5822051012
 30
0.0
 11
71.2319962612
 21
178.5822052391
 31
0.0
  0
LINE
  5
252
330
1F
100
AcDbEntity
  8
0
  6
Continuous
 62
     7
370
    15
100
AcDbLine
 10
71.2319962612
 20
178.5822052391
 30
0.0
 11
70.2319960973
 21
178.5822052391
 31
0.0
  0
CIRCLE
  5
253
330
1F
100
AcDbEntity
  8
0
  6
Continuous
 62
     7
370
    15
100
AcDbCircle
 10
31.2319963804
 20
189.0822052912
 30
0.0
 40
3.299999999999998
  0
CIRCLE
  5
254
330
1F
100
AcDbEntity
  8
0
  6
Continuous
 62
     7
370
    15
100
AcDbCircle
 10
31.2319963804
 20
189.0822052912
 30
0.0
 40
3.500000000000013
  0
LINE
  5
255
330
1F
100
AcDbEntity
  8
0
  6
Continuous
 62
     7
370
    15
100
AcDbLine
 10
32.0974156192
 20
187.5347139196
 30
0.0
 11
33.0048721215
 21
189.0579343655
 31
0.0
  0
LINE
  5
256
330
1F
100
AcDbEntity
  8
0
  6
Continuous
 62
     7
370
    15
100
AcDbLine
 10
33.0048721215
 20
189.0579343655
 30
0.0
 11
32.1394536576
 21
190.6054260091
 31
0.0
  0
LINE
  5
257
330
1F
100
AcDbEntity
  8
0
  6
Continuous
 62
     7
370
    15
100
AcDbLine
 10
30.3665768287
 20
190.6296967411
 30
0.0
 11
32.1394536576
 21
190.6054260091
 31
0.0
  0
LINE
  5
258
330
1F
100
AcDbEntity
  8
0
  6
Continuous
 62
     7
370
    15
100
AcDbLine
 10
29.4591203264
 20
189.1064758295
 30
0.0
 11
30.3665768287
 21
190.6296967411
 31
0.0
  0
LINE
  5
259
330
1F
100
AcDbEntity
  8
0
  6
Continuous
 62
     7
370
    15
100
AcDbLine
 10
29.4591203264
 20
189.1064758295
 30
0.0
 11
30.3245387903
 21
187.5589844187
 31
0.0
  0
LINE
  5
25A
330
1F
100
AcDbEntity
  8
0
  6
Continuous
 62
     7
370
    15
100
AcDbLine
 10
32.0974156192
 20
187.5347139196
 30
0.0
 11
30.3245387903
 21
187.5589844187
 31
0.0
  0
ARC
  5
25B
330
1F
100
AcDbEntity
  8
0
  6
Continuous
 62
     7
370
    15
100
AcDbCircle
 10
31.2319963804
 20
189.0822052912
 30
0.0
 40
1.535500000000013
100
AcDbArc
 50
149.2156688771
 51
209.2156688771
  0
ARC
  5
25C
330
1F
100
AcDbEntity
  8
0
  6
Continuous
 62
     7
370
    15
100
AcDbCircle
 10
31.2319963804
 20
189.0822052912
 30
0.0
 40
1.535500000000013
100
AcDbArc
 50
89.2156688771
 51
149.2156688771
  0
ARC
  5
25D
330
1F
100
AcDbEntity
  8
0
  6
Continuous
 62
     7
370
    15
100
AcDbCircle
 10
31.2319963804
 20
189.0822052912
 30
0.0
 40
1.535499999999999
100
AcDbArc
 50
29.2156688771
 51
89.2156688771
  0
ARC
  5
25E
330
1F
100
AcDbEntity
  8
0
  6
Continuous
 62
     7
370
    15
100
AcDbCircle
 10
31.2319963804
 20
189.0822052912
 30
0.0
 40
1.535500000000011
100
AcDbArc
 50
329.2156688771
 51
29.2156688771
  0
ARC
  5
25F
330
1F
100
AcDbEntity
  8
0
  6
Continuous
 62
     7
370
    15
100
AcDbCircle
 10
31.2319963804
 20
189.0822052912
 30
0.0
 40
1.535500000000011
100
AcDbArc
 50
269.2156688771
 51
329.2156688771
  0
ARC
  5
260
330
1F
100
AcDbEntity
  8
0
  6
Continuous
 62
     7
370
    15
100
AcDbCircle
 10
31.2319963804
 20
189.0822052912
 30
0.0
 40
1.535500000000001
100
AcDbArc
 50
209.2156688771
 51
269.2156688771
  0
CIRCLE
  5
261
330
1F
100
AcDbEntity
  8
0
  6
Continuous
 62
     7
370
    15
100
AcDbCircle
 10
31.2319963804
 20
215.0822052912
 30
0.0
 40
3.299999999999986
  0
LINE
  5
262
330
1F
100
AcDbEntity
  8
0
  6
Continuous
 62
     7
370
    15
100
AcDbLine
 10
32.9846717349
 20
215.3501732157
 30
0.0
 11
31.8762674859
 21
216.7340496437
 31
0.0
  0
LINE
  5
263
330
1F
100
AcDbEntity
  8
0
  6
Continuous
 62
     7
370
    15
100
AcDbLine
 10
31.8762674859
 20
216.7340496437
 30
0.0
 11
30.1235910437
 21
216.4660820619
 31
0.0
  0
LINE
  5
264
330
1F
100
AcDbEntity
  8
0
  6
Continuous
 62
     7
370
    15
100
AcDbLine
 10
29.479320713
 20
214.8142380522
 30
0.0
 11
30.1235910437
 21
216.4660820619
 31
0.0
  0
LINE
  5
265
330
1F
100
AcDbEntity
  8
0
  6
Continuous
 62
     7
370
    15
100
AcDbLine
 10
30.587724962
 20
213.4303597615
 30
0.0
 11
29.479320713
 21
214.8142380522
 31
0.0
  0
LINE
  5
266
330
1F
100
AcDbEntity
  8
0
  6
Continuous
 62
     7
370
    15
100
AcDbLine
 10
30.587724962
 20
213.4303597615
 30
0.0
 11
32.3404014042
 21
213.6983273433
 31
0.0
  0
LINE
  5
267
330
1F
100
AcDbEntity
  8
0
  6
Continuous
 62
     7
370
    15
100
AcDbLine
 10
32.9846717349
 20
215.3501732157
 30
0.0
 11
32.3404014042
 21
213.6983273433
 31
0.0
  0
CIRCLE
  5
268
330
1F
100
AcDbEntity
  8
0
  6
Continuous
 62
     7
370
    15
100
AcDbCircle
 10
31.2319963804
 20
215.0822052912
 30
0.0
 40
3.499999999999989
  0
ARC
  5
269
330
1F
100
AcDbEntity
  8
0
  6
Continuous
 62
     7
370
    15
100
AcDbCircle
 10
31.2319963804
 20
215.0822052912
 30
0.0
 40
1.535500000000014
100
AcDbArc
 50
218.6926605053
 51
278.6926605053
  0
ARC
  5
26A
330
1F
100
AcDbEntity
  8
0
  6
Continuous
 62
     7
370
    15
100
AcDbCircle
 10
31.2319963804
 20
215.0822052912
 30
0.0
 40
1.535500000000014
100
AcDbArc
 50
158.6926605053
 51
218.6926605053
  0
ARC
  5
26B
330
1F
100
AcDbEntity
  8
0
  6
Continuous
 62
     7
370
    15
100
AcDbCircle
 10
31.2319963804
 20
215.0822052912
 30
0.0
 40
1.535500000000011
100
AcDbArc
 50
98.6926605053
 51
158.6926605053
  0
ARC
  5
26C
330
1F
100
AcDbEntity
  8
0
  6
Continuous
 62
     7
370
    15
100
AcDbCircle
 10
31.2319963804
 20
215.0822052912
 30
0.0
 40
1.535500000000007
100
AcDbArc
 50
38.6926605053
 51
98.6926605053
  0
ARC
  5
26D
330
1F
100
AcDbEntity
  8
0
  6
Continuous
 62
     7
370
    15
100
AcDbCircle
 10
31.2319963804
 20
215.0822052912
 30
0.0
 40
1.535500000000006
100
AcDbArc
 50
338.6926605053
 51
38.6926605053
  0
ARC
  5
26E
330
1F
100
AcDbEntity
  8
0
  6
Continuous
 62
     7
370
    15
100
AcDbCircle
 10
31.2319963804
 20
215.0822052912
 30
0.0
 40
1.535499999999997
100
AcDbArc
 50
278.6926605053
 51
338.6926605053
  0
LINE
  5
26F
330
1F
100
AcDbEntity
  8
0
  6
Continuous
 62
     7
370
    15
100
AcDbLine
 10
67.1642623773
 20
190.8539536291
 30
0.0
 11
65.6637508354
 21
189.9094207094
 31
0.0
  0
LINE
  5
270
330
1F
100
AcDbEntity
  8
0
  6
Continuous
 62
     7
370
    15
100
AcDbLine
 10
65.6637508354
 20
189.9094207094
 30
0.0
 11
65.7314840636
 21
188.1376721778
 31
0.0
  0
LINE
  5
271
330
1F
100
AcDbEntity
  8
0
  6
Continuous
 62
     7
370
    15
100
AcDbLine
 10
67.2997306964
 20
187.3104567987
 30
0.0
 11
65.7314840636
 21
188.1376721778
 31
0.0
  0
LINE
  5
272
330
1F
100
AcDbEntity
  8
0
  6
Continuous
 62
     7
370
    15
100
AcDbLine
 10
68.8002422384
 20
188.2549899512
 30
0.0
 11
67.2997306964
 21
187.3104567987
 31
0.0
  0
LINE
  5
273
330
1F
100
AcDbEntity
  8
0
  6
Continuous
 62
     7
370
    15
100
AcDbLine
 10
68.8002422384
 20
188.2549899512
 30
0.0
 11
68.7325090102
 21
190.0267384828
 31
0.0
  0
LINE
  5
274
330
1F
100
AcDbEntity
  8
0
  6
Continuous
 62
     7
370
    15
100
AcDbLine
 10
67.1642623773
 20
190.8539536291
 30
0.0
 11
68.7325090102
 21
190.0267384828
 31
0.0
  0
ARC
  5
275
330
1F
100
AcDbEntity
  8
0
  6
Continuous
 62
     7
370
    15
100
AcDbCircle
 10
67.2319963804
 20
189.0822052912
 30
0.0
 40
3.500000000000015
100
AcDbArc
 50
224.4153085972
 51
2.1893345058
  0
ARC
  5
276
330
1F
100
AcDbEntity
  8
0
  6
Continuous
 62
     7
370
    15
100
AcDbCircle
 10
67.2319963804
 20
189.0822052912
 30
0.0
 40
3.500000000000015
100
AcDbArc
 50
2.1893345058
 51
135.5846914028
  0
ARC
  5
277
330
1F
100
AcDbEntity
  8
0
  6
Continuous
 62
     7
370
    15
100
AcDbCircle
 10
67.2319963804
 20
189.0822052912
 30
0.0
 40
1.535500000000005
100
AcDbArc
 50
62.1893345058
 51
122.1893345058
  0
ARC
  5
278
330
1F
100
AcDbEntity
  8
0
  6
Continuous
 62
     7
370
    15
100
AcDbCircle
 10
67.2319963804
 20
189.0822052912
 30
0.0
 40
1.53550000000001
100
AcDbArc
 50
122.1893345058
 51
182.1893345058
  0
ARC
  5
279
330
1F
100
AcDbEntity
  8
0
  6
Continuous
 62
     7
370
    15
100
AcDbCircle
 10
67.2319963804
 20
189.0822052912
 30
0.0
 40
1.535500000000029
100
AcDbArc
 50
302.1893345058
 51
2.1893345058
  0
ARC
  5
27A
330
1F
100
AcDbEntity
  8
0
  6
Continuous
 62
     7
370
    15
100
AcDbCircle
 10
67.2319963804
 20
189.0822052912
 30
0.0
 40
1.535500000000029
100
AcDbArc
 50
242.1893345058
 51
302.1893345058
  0
ARC
  5
27B
330
1F
100
AcDbEntity
  8
0
  6
Continuous
 62
     7
370
    15
100
AcDbCircle
 10
67.2319963804
 20
189.0822052912
 30
0.0
 40
1.53550000000001
100
AcDbArc
 50
182.1893345058
 51
242.1893345058
  0
ARC
  5
27C
330
1F
100
AcDbEntity
  8
0
  6
Continuous
 62
     7
370
    15
100
AcDbCircle
 10
67.2319963804
 20
189.0822052912
 30
0.0
 40
1.535499999999999
100
AcDbArc
 50
2.1893345058
 51
62.1893345058
  0
CIRCLE
  5
27D
330
1F
100
AcDbEntity
  8
0
  6
Continuous
 62
     7
370
    15
100
AcDbCircle
 10
67.2319963804
 20
215.0822052912
 30
0.0
 40
3.299999999999996
  0
CIRCLE
  5
27E
330
1F
100
AcDbEntity
  8
0
  6
Continuous
 62
     7
370
    15
100
AcDbCircle
 10
67.2319963804
 20
215.0822052912
 30
0.0
 40
3.5
  0
LINE
  5
27F
330
1F
100
AcDbEntity
  8
0
  6
Continuous
 62
     7
370
    15
100
AcDbLine
 10
65.7848171821
 20
214.0578271703
 30
0.0
 11
67.3955433002
 21
213.3167216436
 31
0.0
  0
LINE
  5
280
330
1F
100
AcDbEntity
  8
0
  6
Continuous
 62
     7
370
    15
100
AcDbLine
 10
67.3955433002
 20
213.3167216436
 30
0.0
 11
68.8427235863
 21
214.3411001073
 31
0.0
  0
LINE
  5
281
330
1F
100
AcDbEntity
  8
0
  6
Continuous
 62
     7
370
    15
100
AcDbLine
 10
68.6791758916
 20
216.1065840976
 30
0.0
 11
68.8427235863
 21
214.3411001073
 31
0.0
  0
LINE
  5
282
330
1F
100
AcDbEntity
  8
0
  6
Continuous
 62
     7
370
    15
100
AcDbLine
 10
67.0684497735
 20
216.8476896243
 30
0.0
 11
68.6791758916
 21
216.1065840976
 31
0.0
  0
LINE
  5
283
330
1F
100
AcDbEntity
  8
0
  6
Continuous
 62
     7
370
    15
100
AcDbLine
 10
67.0684497735
 20
216.8476896243
 30
0.0
 11
65.6212694875
 21
215.8233111606
 31
0.0
  0
LINE
  5
284
330
1F
100
AcDbEntity
  8
0
  6
Continuous
 62
     7
370
    15
100
AcDbLine
 10
65.7848171821
 20
214.0578271703
 30
0.0
 11
65.6212694875
 21
215.8233111606
 31
0.0
  0
ARC
  5
285
330
1F
100
AcDbEntity
  8
0
  6
Continuous
 62
     7
370
    15
100
AcDbCircle
 10
67.2319963804
 20
215.0822052912
 30
0.0
 40
1.535500000000006
100
AcDbArc
 50
125.2925523075
 51
185.2925523075
  0
ARC
  5
286
330
1F
100
AcDbEntity
  8
0
  6
Continuous
 62
     7
370
    15
100
AcDbCircle
 10
67.2319963804
 20
215.0822052912
 30
0.0
 40
1.535500000000011
100
AcDbArc
 50
65.2925523075
 51
125.2925523075
  0
ARC
  5
287
330
1F
100
AcDbEntity
  8
0
  6
Continuous
 62
     7
370
    15
100
AcDbCircle
 10
67.2319963804
 20
215.0822052912
 30
0.0
 40
1.535500000000011
100
AcDbArc
 50
5.2925523075
 51
65.2925523075
  0
ARC
  5
288
330
1F
100
AcDbEntity
  8
0
  6
Continuous
 62
     7
370
    15
100
AcDbCircle
 10
67.2319963804
 20
215.0822052912
 30
0.0
 40
1.535499999999994
100
AcDbArc
 50
305.2925523075
 51
5.2925523075
  0
ARC
  5
289
330
1F
100
AcDbEntity
  8
0
  6
Continuous
 62
     7
370
    15
100
AcDbCircle
 10
67.2319963804
 20
215.0822052912
 30
0.0
 40
1.535499999999983
100
AcDbArc
 50
245.2925523075
 51
305.2925523075
  0
ARC
  5
28A
330
1F
100
AcDbEntity
  8
0
  6
Continuous
 62
     7
370
    15
100
AcDbCircle
 10
67.2319963804
 20
215.0822052912
 30
0.0
 40
1.535500000000006
100
AcDbArc
 50
185.2925523075
 51
245.2925523075
  0
ARC
  5
28B
330
1F
100
AcDbEntity
  8
0
  6
Continuous
 62
     7
370
    15
100
AcDbCircle
 10
58.1319963804
 20
197.5822052912
 30
0.0
 40
3.500000000000004
100
AcDbArc
 50
304.4650621653
 51
4.4650621653
  0
ARC
  5
28C
330
1F
100
AcDbEntity
  8
0
  6
Continuous
 62
     7
370
    15
100
AcDbCircle
 10
58.1319963804
 20
197.5822052912
 30
0.0
 40
3.500000000000008
100
AcDbArc
 50
244.4650621653
 51
304.4650621653
  0
ARC
  5
28D
330
1F
100
AcDbEntity
  8
0
  6
Continuous
 62
     7
370
    15
100
AcDbCircle
 10
58.1319963804
 20
197.5822052912
 30
0.0
 40
3.500000000000008
100
AcDbArc
 50
184.4650621653
 51
244.4650621653
  0
ARC
  5
28E
330
1F
100
AcDbEntity
  8
0
  6
Continuous
 62
     7
370
    15
100
AcDbCircle
 10
58.1319963804
 20
197.5822052912
 30
0.0
 40
3.500000000000004
100
AcDbArc
 50
124.4650621653
 51
184.4650621653
  0
ARC
  5
28F
330
1F
100
AcDbEntity
  8
0
  6
Continuous
 62
     7
370
    15
100
AcDbCircle
 10
58.1319963804
 20
197.5822052912
 30
0.0
 40
3.499999999999986
100
AcDbArc
 50
64.4650621653
 51
124.4650621653
  0
ARC
  5
290
330
1F
100
AcDbEntity
  8
0
  6
Continuous
 62
     7
370
    15
100
AcDbCircle
 10
58.1319963804
 20
197.5822052912
 30
0.0
 40
3.500000000000004
100
AcDbArc
 50
4.4650621653
 51
64.4650621653
  0
SPLINE
  5
291
330
1F
100
AcDbEntity
  8
0
  6
Continuous
 62
     7
370
    15
100
AcDbSpline
210
0.0
220
0.0
230
1.0
 70
     8
 71
     3
 72
    10
 73
     6
 74
     0
 42
0.00000001
 43
0.00000001
 12
1.0
 22
0.0
 32
0.0
 13
1.0
 23
0.0
 33
0.0
 40
0.0
 40
0.0
 40
0.0
 40
0.0
 40
0.070036597820826
 40
0.5307572428636391
 40
1.0
 40
1.0
 40
1.0
 40
1.0
 10
54.64261872010464
 20
197.3097257198104
 30
0.0
 10
54.63889278707852
 20
197.3574416614941
 30
0.0
 10
54.61065660768695
 20
197.7190466285638
 30
0.0
 10
54.55741351205966
 20
198.4008700762389
 30
0.0
 10
54.50948621830042
 20
199.0146278433469
 30
0.0
 10
54.48530297042961
 20
199.3243189410576
 30
0.0
  0
SPLINE
  5
292
330
1F
100
AcDbEntity
  8
0
  6
Continuous
 62
     7
370
    15
100
AcDbSpline
210
0.0
220
0.0
230
1.0
 70
     8
 71
     3
 72
     9
 73
     5
 74
     0
 42
0.00000001
 43
0.00000001
 12
1.0
 22
0.0
 32
0.0
 13
1.0
 23
0.0
 33
0.0
 40
0.0
 40
0.0
 40
0.0
 40
0.0
 40
0.4954580805799105
 40
1.0
 40
1.0
 40
1.0
 40
1.0
 10
54.48530297042961
 20
199.3243189410576
 30
0.0
 10
54.75587376607419
 20
199.510034454207
 30
0.0
 10
55.30197606261537
 20
199.8848704301022
 30
0.0
 10
55.86650520160924
 20
200.2723532263892
 30
0.0
 10
56.15133381696577
 20
200.4678545401701
 30
0.0
  0
SPLINE
  5
293
330
1F
100
AcDbEntity
  8
0
  6
Continuous
 62
     7
370
    15
100
AcDbSpline
210
0.0
220
0.0
230
1.0
 70
     8
 71
     3
 72
     9
 73
     5
 74
     0
 42
0.00000001
 43
0.00000001
 12
1.0
 22
0.0
 32
0.0
 13
1.0
 23
0.0
 33
0.0
 40
0.0
 40
0.0
 40
0.0
 40
0.0
 40
0.4954576891918449
 40
1.0
 40
1.0
 40
1.0
 40
1.0
 10
54.79993493544097
 20
195.2951334298857
 30
0.0
 10
54.77438618135375
 20
195.6223120297816
 30
0.0
 10
54.72282021589484
 20
196.2826683165707
 30
0.0
 10
54.66951397437936
 20
196.9653060834594
 30
0.0
 10
54.64261872010464
 20
197.3097257198104
 30
0.0
  0
SPLINE
  5
294
330
1F
100
AcDbEntity
  8
0
  6
Continuous
 62
     7
370
    15
100
AcDbSpline
210
0.0
220
0.0
230
1.0
 70
     8
 71
     3
 72
    10
 73
     6
 74
     0
 42
0.00000001
 43
0.00000001
 12
1.0
 22
0.0
 32
0.0
 13
1.0
 23
0.0
 33
0.0
 40
0.0
 40
0.0
 40
0.0
 40
0.0
 40
0.2572434453121736
 40
0.6263795352940458
 40
1.0
 40
1.0
 40
1.0
 40
1.0
 10
54.79993493544097
 20
195.2951334298857
 30
0.0
 10
54.95305147221833
 20
195.2219856331894
 30
0.0
 10
55.3258853262979
 20
195.0438730952905
 30
0.0
 10
55.93440491840834
 20
194.7531694798085
 30
0.0
 10
56.39273361110738
 20
194.5342143438817
 30
0.0
 10
56.62328153165216
 20
194.4240758077511
 30
0.0
  0
SPLINE
  5
295
330
1F
100
AcDbEntity
  8
0
  6
Continuous
 62
     7
370
    15
100
AcDbSpline
210
0.0
220
0.0
230
1.0
 70
     8
 71
     3
 72
    10
 73
     6
 74
     0
 42
0.00000001
 43
0.00000001
 12
1.0
 22
0.0
 32
0.0
 13
1.0
 23
0.0
 33
0.0
 40
0.0
 40
0.0
 40
0.0
 40
0.0
 40
0.0700365981207636
 40
0.5307570604975081
 40
1.0
 40
1.0
 40
1.0
 40
1.0
 10
56.15133381696577
 20
200.4678545401701
 30
0.0
 10
56.19079385209203
 20
200.4949396048129
 30
0.0
 10
56.48983310889078
 20
200.7001978509146
 30
0.0
 10
57.05368964429892
 20
201.0872173819397
 30
0.0
 10
57.56125582505744
 20
201.4356028904712
 30
0.0
 10
57.81736466350193
 20
201.6113920019278
 30
0.0
  0
SPLINE
  5
296
330
1F
100
AcDbEntity
  8
0
  6
Continuous
 62
     7
370
    15
100
AcDbSpline
210
0.0
220
0.0
230
1.0
 70
     8
 71
     3
 72
    10
 73
     6
 74
     0
 42
0.00000001
 43
0.00000001
 12
1.0
 22
0.0
 32
0.0
 13
1.0
 23
0.0
 33
0.0
 40
0.0
 40
0.0
 40
0.0
 40
0.0
 40
0.2572432437777108
 40
0.6263795308634822
 40
1.0
 40
1.0
 40
1.0
 40
1.0
 10
57.81736466350193
 20
201.6113920019277
 30
0.0
 10
57.97048103699319
 20
201.5382441929395
 30
0.0
 10
58.34331478293153
 20
201.3601314868297
 30
0.0
 10
58.95183445639172
 20
201.0694279399364
 30
0.0
 10
59.41016362517282
 20
200.8504734790901
 30
0.0
 10
59.64071172537441
 20
200.7403353111156
 30
0.0
  0
SPLINE
  5
297
330
1F
100
AcDbEntity
  8
0
  6
Continuous
 62
     7
370
    15
100
AcDbSpline
210
0.0
220
0.0
230
1.0
 70
     8
 71
     3
 72
    10
 73
     6
 74
     0
 42
0.00000001
 43
0.00000001
 12
1.0
 22
0.0
 32
0.0
 13
1.0
 23
0.0
 33
0.0
 40
0.0
 40
0.0
 40
0.0
 40
0.0
 40
0.0700363846358932
 40
0.5307571334864373
 40
1.0
 40
1.0
 40
1.0
 40
1.0
 10
60.11265850873823
 20
194.696555647374
 30
0.0
 10
60.07319846320411
 20
194.6694709083955
 30
0.0
 10
59.7741581748766
 20
194.4642144763825
 30
0.0
 10
59.21030314927937
 20
194.0771934728749
 30
0.0
 10
58.70273721099255
 20
193.7288080948475
 30
0.0
 10
58.44662859352464
 20
193.5530191169389
 30
0.0
  0
SPLINE
  5
298
330
1F
100
AcDbEntity
  8
0
  6
Continuous
 62
     7
370
    15
100
AcDbSpline
210
0.0
220
0.0
230
1.0
 70
     8
 71
     3
 72
    10
 73
     6
 74
     0
 42
0.00000001
 43
0.00000001
 12
1.0
 22
0.0
 32
0.0
 13
1.0
 23
0.0
 33
0.0
 40
0.0
 40
0.0
 40
0.0
 40
0.0
 40
0.2684065243836542
 40
0.6323733429564042
 40
1.0
 40
1.0
 40
1.0
 40
1.0
 10
56.62328153165216
 20
194.4240758077511
 30
0.0
 10
56.78886841021887
 20
194.3449713612609
 30
0.0
 10
57.17899576718008
 20
194.1585990538641
 30
0.0
 10
57.79105184230075
 20
193.8662040702552
 30
0.0
 10
58.2273754318265
 20
193.6577616830575
 30
0.0
 10
58.44662859352464
 20
193.5530191169389
 30
0.0
  0
SPLINE
  5
299
330
1F
100
AcDbEntity
  8
0
  6
Continuous
 62
     7
370
    15
100
AcDbSpline
210
0.0
220
0.0
230
1.0
 70
     8
 71
     3
 72
     9
 73
     5
 74
     0
 42
0.00000001
 43
0.00000001
 12
1.0
 22
0.0
 32
0.0
 13
1.0
 23
0.0
 33
0.0
 40
0.0
 40
0.0
 40
0.0
 40
0.0
 40
0.4954579119477857
 40
1.0
 40
1.0
 40
1.0
 40
1.0
 10
61.46405785592432
 20
199.8692776889809
 30
0.0
 10
61.48960660414928
 20
199.5420987768108
 30
0.0
 10
61.54117253459235
 20
198.8817421566411
 30
0.0
 10
61.59447881116991
 20
198.1991040988138
 30
0.0
 10
61.62137407126064
 20
197.8546844677337
 30
0.0
  0
SPLINE
  5
29A
330
1F
100
AcDbEntity
  8
0
  6
Continuous
 62
     7
370
    15
100
AcDbSpline
210
0.0
220
0.0
230
1.0
 70
     8
 71
     3
 72
    10
 73
     6
 74
     0
 42
0.00000001
 43
0.00000001
 12
1.0
 22
0.0
 32
0.0
 13
1.0
 23
0.0
 33
0.0
 40
0.0
 40
0.0
 40
0.0
 40
0.0
 40
0.2684063670123963
 40
0.6323734557754812
 40
1.0
 40
1.0
 40
1.0
 40
1.0
 10
59.64071172537441
 20
200.7403353111156
 30
0.0
 10
59.80629828190201
 20
200.6612305330986
 30
0.0
 10
60.19642517846884
 20
200.4748573020914
 30
0.0
 10
60.80848071432819
 20
200.1824614689249
 30
0.0
 10
61.24480463984087
 20
199.9740198262841
 30
0.0
 10
61.46405785592432
 20
199.8692776889809
 30
0.0
  0
SPLINE
  5
29B
330
1F
100
AcDbEntity
  8
0
  6
Continuous
 62
     7
370
    15
100
AcDbSpline
210
0.0
220
0.0
230
1.0
 70
     8
 71
     3
 72
     9
 73
     5
 74
     0
 42
0.00000001
 43
0.00000001
 12
1.0
 22
0.0
 32
0.0
 13
1.0
 23
0.0
 33
0.0
 40
0.0
 40
0.0
 40
0.0
 40
0.0
 40
0.4954576426148432
 40
1.0
 40
1.0
 40
1.0
 40
1.0
 10
61.77868935527439
 20
195.8400912464865
 30
0.0
 10
61.5081186690005
 20
195.6543761124221
 30
0.0
 10
60.96201611047317
 20
195.2795405703072
 30
0.0
 10
60.3974872372475
 20
194.8920573465405
 30
0.0
 10
60.11265850873823
 20
194.696555647374
 30
0.0
  0
SPLINE
  5
29C
330
1F
100
AcDbEntity
  8
0
  6
Continuous
 62
     7
370
    15
100
AcDbSpline
210
0.0
220
0.0
230
1.0
 70
     8
 71
     3
 72
    10
 73
     6
 74
     0
 42
0.00000001
 43
0.00000001
 12
1.0
 22
0.0
 32
0.0
 13
1.0
 23
0.0
 33
0.0
 40
0.0
 40
0.0
 40
0.0
 40
0.0
 40
0.0700366167008002
 40
0.5307572520436757
 40
1.0
 40
1.0
 40
1.0
 40
1.0
 10
61.62137407126064
 20
197.8546844677337
 30
0.0
 10
61.62510017265398
 20
197.8069685270774
 30
0.0
 10
61.65333762085641
 20
197.4453636590176
 30
0.0
 10
61.70657883848448
 20
196.7635400764598
 30
0.0
 10
61.75450611572219
 20
196.1497823326633
 30
0.0
 10
61.77868935527439
 20
195.8400912464865
 30
0.0
  0
LINE
  5
29D
330
1F
100
AcDbEntity
  8
0
  6
Continuous
 62
     7
370
    15
100
AcDbLine
 10
27.2319964996
 20
179.082205321
 30
0.0
 11
26.7319954863
 21
179.082205321
 31
0.0
  0
LINE
  5
29E
330
1F
100
AcDbEntity
  8
0
  6
Continuous
 62
     7
370
    15
100
AcDbLine
 10
26.7319954863
 20
179.082205321
 30
0.0
 11
26.7319954863
 21
180.2822051452
 31
0.0
  0
LINE
  5
29F
330
1F
100
AcDbEntity
  8
0
  6
Continuous
 62
     7
370
    15
100
AcDbLine
 10
26.7319954863
 20
180.2822051452
 30
0.0
 11
27.2319964996
 21
180.2822051452
 31
0.0
  0
LINE
  5
2A0
330
1F
100
AcDbEntity
  8
0
  6
Continuous
 62
     7
370
    15
100
AcDbLine
 10
71.7319972745
 20
180.2822051452
 30
0.0
 11
71.7319972745
 21
179.082205321
 31
0.0
  0
LINE
  5
2A1
330
1F
100
AcDbEntity
  8
0
  6
Continuous
 62
     7
370
    15
100
AcDbLine
 10
71.7319972745
 20
179.082205321
 30
0.0
 11
71.2319962612
 21
179.082205321
 31
0.0
  0
LINE
  5
2A2
330
1F
100
AcDbEntity
  8
0
  6
Continuous
 62
     7
370
    15
100
AcDbLine
 10
71.2319962612
 20
180.2822051452
 30
0.0
 11
71.7319972745
 21
180.2822051452
 31
0.0
  0
LINE
  5
2A3
330
1F
100
AcDbEntity
  8
0
  6
Continuous
 62
     7
370
    15
100
AcDbLine
 10
71.7319972745
 20
180.5822051012
 30
0.0
 11
71.7319972745
 21
180.2822051452
 31
0.0
  0
LINE
  5
2A4
330
1F
100
AcDbEntity
  8
0
  6
Continuous
 62
     7
370
    15
100
AcDbLine
 10
26.7319954863
 20
180.5822051012
 30
0.0
 11
26.7319954863
 21
180.2822051452
 31
0.0
  0
LINE
  5
2A5
330
1F
100
AcDbEntity
  8
0
  6
Continuous
 62
     7
370
    15
100
AcDbLine
 10
71.7319972745
 20
188.5822054812
 30
0.0
 11
71.7319972745
 21
183.0822052782
 31
0.0
  0
LINE
  5
2A6
330
1F
100
AcDbEntity
  8
0
  6
Continuous
 62
     7
370
    15
100
AcDbLine
 10
26.7319954863
 20
188.5822054812
 30
0.0
 11
26.7319954863
 21
183.0822052782
 31
0.0
  0
LINE
  5
2A7
330
1F
100
AcDbEntity
  8
0
  6
Continuous
 62
     7
370
    15
100
AcDbLine
 10
70.7319971106
 20
184.3822052963
 30
0.0
 11
64.7319961271
 21
184.3822052963
 31
0.0
  0
LINE
  5
2A8
330
1F
100
AcDbEntity
  8
0
  6
Continuous
 62
     7
370
    15
100
AcDbLine
 10
67.7319966188
 20
184.5822052912
 30
0.0
 11
70.5319955877
 21
184.5822052912
 31
0.0
  0
LINE
  5
2A9
330
1F
100
AcDbEntity
  8
0
  6
Continuous
 62
     7
370
    15
100
AcDbLine
 10
64.753929705
 20
183.7822053114
 30
0.0
 11
70.7319971106
 21
183.7822053114
 31
0.0
  0
LINE
  5
2AA
330
1F
100
AcDbEntity
  8
0
  6
Continuous
 62
     7
370
    15
100
AcDbLine
 10
70.5319955877
 20
183.5822052437
 30
0.0
 11
64.7957935861
 21
183.5822052437
 31
0.0
  0
LINE
  5
2AB
330
1F
100
AcDbEntity
  8
0
  6
Continuous
 62
     7
370
    15
100
AcDbLine
 10
34.1358851573
 20
184.3822052963
 30
0.0
 11
27.7319956503
 21
184.3822052963
 31
0.0
  0
LINE
  5
2AC
330
1F
100
AcDbEntity
  8
0
  6
Continuous
 62
     7
370
    15
100
AcDbLine
 10
27.9319971732
 20
184.5822052912
 30
0.0
 11
30.731996142
 21
184.5822052912
 31
0.0
  0
LINE
  5
2AD
330
1F
100
AcDbEntity
  8
0
  6
Continuous
 62
     7
370
    15
100
AcDbLine
 10
27.7319956503
 20
183.7822053114
 30
0.0
 11
33.9494753561
 21
183.7822053114
 31
0.0
  0
LINE
  5
2AE
330
1F
100
AcDbEntity
  8
0
  6
Continuous
 62
     7
370
    15
100
AcDbLine
 10
33.8873384452
 20
183.5822052437
 30
0.0
 11
27.9319971732
 21
183.5822052437
 31
0.0
  0
LINE
  5
2AF
330
1F
100
AcDbEntity
  8
0
  6
Continuous
 62
     7
370
    15
100
AcDbLine
 10
60.904386074
 20
219.5822054402
 30
0.0
 11
37.5596066869
 21
219.5822054402
 31
0.0
  0
ARC
  5
2B0
330
1F
100
AcDbEntity
  8
0
  6
Continuous
 62
     7
370
    15
100
AcDbCircle
 10
60.7211750918
 20
217.5906144976
 30
0.0
 40
2.000000000000007
100
AcDbArc
 50
0.0
 51
84.7440354767
  0
LINE
  5
2B1
330
1F
100
AcDbEntity
  8
0
  6
Continuous
 62
     7
370
    15
100
AcDbLine
 10
62.7211747623
 20
217.5906130926
 30
0.0
 11
62.7211747623
 21
214.8442285017
 31
0.0
  0
ARC
  5
2B2
330
1F
100
AcDbEntity
  8
0
  6
Continuous
 62
     7
370
    15
100
AcDbCircle
 10
67.2211750918
 20
214.8442288875
 30
0.0
 40
4.500000000000014
100
AcDbArc
 50
180.0
 51
270.0
  0
LINE
  5
2B3
330
1F
100
AcDbEntity
  8
0
  6
Continuous
 62
     7
370
    15
100
AcDbLine
 10
67.2211754999
 20
210.3442286955
 30
0.0
 11
69.5632114938
 21
210.3442286955
 31
0.0
  0
ARC
  5
2B4
330
1F
100
AcDbEntity
  8
0
  6
Continuous
 62
     7
370
    15
100
AcDbCircle
 10
69.7320207265
 20
208.3343605721
 30
0.0
 40
2.016944985804784
100
AcDbArc
 50
7.4375164072
 51
94.8010049114
  0
LINE
  5
2B5
330
1F
100
AcDbEntity
  8
0
  6
Continuous
 62
     7
370
    15
100
AcDbLine
 10
71.7319972745
 20
195.5689664812
 30
0.0
 11
71.7319972745
 21
208.5954433189
 31
0.0
  0
ARC
  5
2B6
330
1F
100
AcDbEntity
  8
0
  6
Continuous
 62
     7
370
    15
100
AcDbCircle
 10
69.7320207265
 20
195.8300500103
 30
0.0
 40
2.016944985804786
100
AcDbArc
 50
265.1989950886
 51
352.5624835928
  0
LINE
  5
2B7
330
1F
100
AcDbEntity
  8
0
  6
Continuous
 62
     7
370
    15
100
AcDbLine
 10
69.5632114938
 20
193.820182036
 30
0.0
 11
67.2211754999
 21
193.820182036
 31
0.0
  0
ARC
  5
2B8
330
1F
100
AcDbEntity
  8
0
  6
Continuous
 62
     7
370
    15
100
AcDbCircle
 10
67.2211750918
 20
189.3201816949
 30
0.0
 40
4.500000000000014
100
AcDbArc
 50
90.0
 51
123.5834424044
  0
ARC
  5
2B9
330
1F
100
AcDbEntity
  8
0
  6
Continuous
 62
     7
370
    15
100
AcDbCircle
 10
31.242817669
 20
189.3201816949
 30
0.0
 40
4.5
100
AcDbArc
 50
2.768557237
 51
90.0
  0
LINE
  5
2BA
330
1F
100
AcDbEntity
  8
0
  6
Continuous
 62
     7
370
    15
100
AcDbLine
 10
31.2428172609
 20
193.820182036
 30
0.0
 11
28.900781267
 21
193.820182036
 31
0.0
  0
ARC
  5
2BB
330
1F
100
AcDbEntity
  8
0
  6
Continuous
 62
     7
370
    15
100
AcDbCircle
 10
28.7319720343
 20
195.8300500103
 30
0.0
 40
2.016944985804785
100
AcDbArc
 50
187.4375164072
 51
274.8010049114
  0
LINE
  5
2BC
330
1F
100
AcDbEntity
  8
0
  6
Continuous
 62
     7
370
    15
100
AcDbLine
 10
26.7319954863
 20
208.5954433189
 30
0.0
 11
26.7319954863
 21
195.5689664812
 31
0.0
  0
ARC
  5
2BD
330
1F
100
AcDbEntity
  8
0
  6
Continuous
 62
     7
370
    15
100
AcDbCircle
 10
28.7319720343
 20
208.3343605721
 30
0.0
 40
2.016944985804786
100
AcDbArc
 50
85.1989950886
 51
172.5624835928
  0
LINE
  5
2BE
330
1F
100
AcDbEntity
  8
0
  6
Continuous
 62
     7
370
    15
100
AcDbLine
 10
28.900781267
 20
210.3442286955
 30
0.0
 11
31.2428172609
 21
210.3442286955
 31
0.0
  0
ARC
  5
2BF
330
1F
100
AcDbEntity
  8
0
  6
Continuous
 62
     7
370
    15
100
AcDbCircle
 10
31.242817669
 20
214.8442288875
 30
0.0
 40
4.500000000000028
100
AcDbArc
 50
270.0
 51
0.0
  0
LINE
  5
2C0
330
1F
100
AcDbEntity
  8
0
  6
Continuous
 62
     7
370
    15
100
AcDbLine
 10
35.7428179985
 20
214.8442285017
 30
0.0
 11
35.7428179985
 21
217.5906130926
 31
0.0
  0
ARC
  5
2C1
330
1F
100
AcDbEntity
  8
0
  6
Continuous
 62
     7
370
    15
100
AcDbCircle
 10
37.742817669
 20
217.5906144976
 30
0.0
 40
2.000000000000007
100
AcDbArc
 50
95.2559645233
 51
180.0
  0
ARC
  5
2C2
330
1F
100
AcDbEntity
  8
0
  6
Continuous
 62
     7
370
    15
100
AcDbCircle
 10
31.2319963804
 20
215.0822052912
 30
0.0
 40
4.5
100
AcDbArc
 50
90.0
 51
180.0
  0
LINE
  5
2C3
330
1F
100
AcDbEntity
  8
0
  6
Continuous
 62
     7
370
    15
100
AcDbLine
 10
26.7319954863
 20
215.0822056339
 30
0.0
 11
26.7319954863
 21
208.5954433189
 31
0.0
  0
LINE
  5
2C4
330
1F
100
AcDbEntity
  8
0
  6
Continuous
 62
     7
370
    15
100
AcDbLine
 10
37.5596066869
 20
219.5822054402
 30
0.0
 11
31.2319971553
 21
219.5822054402
 31
0.0
  0
ARC
  5
2C5
330
1F
100
AcDbEntity
  8
0
  6
Continuous
 62
     7
370
    15
100
AcDbCircle
 10
31.2319963804
 20
189.0822052912
 30
0.0
 40
4.500000000000028
100
AcDbArc
 50
180.0
 51
270.0
  0
LINE
  5
2C6
330
1F
100
AcDbEntity
  8
0
  6
Continuous
 62
     7
370
    15
100
AcDbLine
 10
31.2319971553
 20
184.5822052912
 30
0.0
 11
34.1980220682
 21
184.5822052912
 31
0.0
  0
LINE
  5
2C7
330
1F
100
AcDbEntity
  8
0
  6
Continuous
 62
     7
370
    15
100
AcDbLine
 10
26.7319954863
 20
195.5689664812
 30
0.0
 11
26.7319954863
 21
189.0822050975
 31
0.0
  0
ARC
  5
2C8
330
1F
100
AcDbEntity
  8
0
  6
Continuous
 62
     7
370
    15
100
AcDbCircle
 10
67.2319963804
 20
215.0822052912
 30
0.0
 40
4.500000000000028
100
AcDbArc
 50
0.0
 51
90.0
  0
LINE
  5
2C9
330
1F
100
AcDbEntity
  8
0
  6
Continuous
 62
     7
370
    15
100
AcDbLine
 10
71.7319972745
 20
208.5954433189
 30
0.0
 11
71.7319972745
 21
215.0822056339
 31
0.0
  0
LINE
  5
2CA
330
1F
100
AcDbEntity
  8
0
  6
Continuous
 62
     7
370
    15
100
AcDbLine
 10
67.2319956055
 20
219.5822054402
 30
0.0
 11
60.904386074
 21
219.5822054402
 31
0.0
  0
ARC
  5
2CB
330
1F
100
AcDbEntity
  8
0
  6
Continuous
 62
     7
370
    15
100
AcDbCircle
 10
67.2319963804
 20
189.0822052912
 30
0.0
 40
4.500000000000028
100
AcDbArc
 50
270.0
 51
0.0
  0
LINE
  5
2CC
330
1F
100
AcDbEntity
  8
0
  6
Continuous
 62
     7
370
    15
100
AcDbLine
 10
71.7319972745
 20
189.0822050975
 30
0.0
 11
71.7319972745
 21
195.5689664812
 31
0.0
  0
LINE
  5
2CD
330
1F
100
AcDbEntity
  8
0
  6
Continuous
 62
     7
370
    15
100
AcDbLine
 10
64.7319961271
 20
184.5822052912
 30
0.0
 11
67.2319956055
 21
184.5822052912
 31
0.0
  0
ARC
  5
2CE
330
1F
100
AcDbEntity
  8
0
  6
Continuous
 62
     7
370
    15
100
AcDbCircle
 10
67.7319963804
 20
215.5822052912
 30
0.0
 40
4.0
100
AcDbArc
 50
0.0
 51
90.0
  0
ARC
  5
2CF
330
1F
100
AcDbEntity
  8
0
  6
Continuous
 62
     7
370
    15
100
AcDbCircle
 10
67.7319963804
 20
188.5822052912
 30
0.0
 40
4.0
100
AcDbArc
 50
270.0
 51
0.0
  0
ARC
  5
2D0
330
1F
100
AcDbEntity
  8
0
  6
Continuous
 62
     7
370
    15
100
AcDbCircle
 10
30.7319963804
 20
188.5822052912
 30
0.0
 40
4.0
100
AcDbArc
 50
180.0
 51
270.0
  0
ARC
  5
2D1
330
1F
100
AcDbEntity
  8
0
  6
Continuous
 62
     7
370
    15
100
AcDbCircle
 10
30.7319963804
 20
215.5822052912
 30
0.0
 40
4.0
100
AcDbArc
 50
90.0
 51
180.0
  0
ARC
  5
2D2
330
1F
100
AcDbEntity
  8
0
  6
Continuous
 62
     8
370
    15
100
AcDbCircle
 10
67.2319963804
 20
189.0822052912
 30
0.0
 40
3.3
100
AcDbArc
 50
2.1893345058
 51
139.2509456225
  0
ARC
  5
2D3
330
1F
100
AcDbEntity
  8
0
  6
Continuous
 62
     8
370
    15
100
AcDbCircle
 10
67.2319963804
 20
189.0822052912
 30
0.0
 40
3.300000000000015
100
AcDbArc
 50
220.7490543775
 51
2.1893345058
  0
ARC
  5
2D4
330
1F
100
AcDbEntity
  8
0
  6
Continuous
 62
     8
370
    15
100
AcDbCircle
 10
49.2319963804
 20
197.5822052912
 30
0.0
 40
11.5
100
AcDbArc
 50
65.0020626767
 51
186.8114314622
  0
DIMENSION
  5
2D5
330
1F
100
AcDbEntity
  8
0
  6
Continuous
 62
     7
370
     0
100
AcDbDimension
  2
_D_8
 10
25.1375956863
 20
178.5822052912
 30
0.0
 11
25.1375956863
 21
202.5822052912
 31
0.0
 70
   160
  1
<>
 71
     2
 42
-1.0
  3
SLDDIMSTYLE0
100
AcDbAlignedDimension
 13
41.5819963804
 23
226.5822052912
 33
0.0
 14
27.2319963804
 24
178.5822052912
 34
0.0
 50
90.0
100
AcDbRotatedDimension
  0
DIMENSION
  5
2DF
330
1F
100
AcDbEntity
  8
0
  6
Continuous
 62
     7
370
     0
100
AcDbDimension
  2
_D_9
 10
71.7319963804
 20
172.3953586792
 30
0.0
 11
49.2319963804
 21
172.3953586792
 31
0.0
 70
   160
  1
<>
 71
     2
 42
-1.0
  3
SLDDIMSTYLE0
100
AcDbAlignedDimension
 13
26.7319963804
 23
179.0822052912
 33
0.0
 14
71.7319963804
 24
179.0822052912
 34
0.0
100
AcDbRotatedDimension
  0
DIMENSION
  5
2E9
330
1F
100
AcDbEntity
  8
0
  6
Continuous
 62
     7
370
     0
100
AcDbDimension
  2
_D_10
 10
78.7429105091
 20
178.5822052912
 30
0.0
 11
78.7429105091
 21
196.8160057958
 31
0.0
 70
   160
  1
<>
 71
     2
 42
-1.0
  3
SLDDIMSTYLE0
100
AcDbAlignedDimension
 13
67.2319963804
 23
219.5822052912
 33
0.0
 14
71.2319963804
 24
178.5822052912
 34
0.0
 50
90.0
100
AcDbRotatedDimension
  0
DIMENSION
  5
2F3
330
1F
100
AcDbEntity
  8
0
  6
Continuous
 62
     7
370
     0
100
AcDbDimension
  2
_D_11
 10
84.9005698559
 20
178.5822052912
 30
0.0
 11
84.9005698559
 21
204.8722052912
 31
0.0
 70
   160
  1
<>
 71
     2
 42
-1.0
  3
SLDDIMSTYLE0
100
AcDbAlignedDimension
 13
59.2319963804
 23
231.1622052912
 33
0.0
 14
71.2319963804
 24
178.5822052912
 34
0.0
 50
90.0
100
AcDbRotatedDimension
  0
DIMENSION
  5
2FD
330
1F
100
AcDbEntity
  8
0
  6
Continuous
 62
     7
370
     0
100
AcDbDimension
  2
_D_12
 10
84.9005698559
 20
254.4622052912
 30
0.0
 11
84.9005698559
 21
242.8122052912
 31
0.0
 70
   160
  1
(<>)
 71
     2
 42
-1.0
  3
SLDDIMSTYLE0
100
AcDbAlignedDimension
 13
59.2319963804
 23
231.1622052912
 33
0.0
 14
53.7319963804
 24
254.4622052912
 34
0.0
 50
90.0
100
AcDbRotatedDimension
  0
DIMENSION
  5
309
330
1F
100
AcDbEntity
  8
0
  6
Continuous
 62
     7
370
     0
100
AcDbDimension
  2
_D_13
 10
44.7319963804
 20
258.8508803307
 30
0.0
 11
49.2319963804
 21
258.8508803307
 31
0.0
 70
   160
  1
<>
 71
     2
 42
-1.0
  3
SLDDIMSTYLE1
100
AcDbAlignedDimension
 13
53.7319963804
 23
254.4622052912
 33
0.0
 14
44.7319963804
 24
254.4622052912
 34
0.0
 50
0.0
100
AcDbRotatedDimension
  0
DIMENSION
  5
315
330
1F
100
AcDbEntity
  8
0
  6
Continuous
 62
     7
370
     0
100
AcDbDimension
  2
_D_14
 10
58.8643151054
 20
269.1772803032
 30
0.0
 11
49.2319963804
 21
269.1772803032
 31
0.0
 70
   160
  1
(<>)
 71
     2
 42
-1.0
  3
SLDDIMSTYLE1
100
AcDbAlignedDimension
 13
39.5996776554
 23
239.0869515371
 33
0.0
 14
58.8643151054
 24
239.0869515371
 34
0.0
100
AcDbRotatedDimension
  0
INSERT
  5
32E
330
1F
100
AcDbEntity
  8
0
  6
Continuous
 62
     7
370
     0
100
AcDbBlockReference
  2
SW_CENTERMARKSYMBOL_0
 10
49.1997717567
 20
213.5821728404
 30
0.0
  0
INSERT
  5
33A
330
1F
100
AcDbEntity
  8
0
  6
Continuous
 62
     7
370
     0
100
AcDbBlockReference
  2
SW_CENTERMARKSYMBOL_1
 10
49.2319963804
 20
197.5822052912
 30
0.0
  0
INSERT
  5
346
330
1F
100
AcDbEntity
  8
0
  6
Continuous
 62
     7
370
     0
100
AcDbBlockReference
  2
SW_CENTERMARKSYMBOL_2
 10
58.1319963804
 20
197.5822052912
 30
0.0
  0
INSERT
  5
352
330
1F
100
AcDbEntity
  8
0
  6
Continuous
 62
     7
370
     0
100
AcDbBlockReference
  2
SW_CENTERMARKSYMBOL_3
 10
67.2319963804
 20
189.0822052912
 30
0.0
  0
INSERT
  5
35E
330
1F
100
AcDbEntity
  8
0
  6
Continuous
 62
     7
370
     0
100
AcDbBlockReference
  2
SW_CENTERMARKSYMBOL_4
 10
67.2319963804
 20
215.0822052912
 30
0.0
  0
INSERT
  5
36A
330
1F
100
AcDbEntity
  8
0
  6
Continuous
 62
     7
370
     0
100
AcDbBlockReference
  2
SW_CENTERMARKSYMBOL_5
 10
31.2319963804
 20
215.0822052912
 30
0.0
  0
INSERT
  5
376
330
1F
100
AcDbEntity
  8
0
  6
Continuous
 62
     7
370
     0
100
AcDbBlockReference
  2
SW_CENTERMARKSYMBOL_6
 10
31.2319963804
 20
189.0822052912
 30
0.0
  0
INSERT
  5
382
330
1F
100
AcDbEntity
  8
0
  6
Continuous
 62
     7
370
     0
100
AcDbBlockReference
  2
SW_CENTERMARKSYMBOL_7
 10
49.2319963804
 20
226.5822052912
 30
0.0
  0
LINE
  5
383
330
1F
100
AcDbEntity
  8
0
  6
Continuous
 62
     7
370
    15
100
AcDbLine
 10
102.9972694959
 20
92.5828044102
 30
0.0
 11
115.1972748484
 21
92.5828044102
 31
0.0
  0
LINE
  5
384
330
1F
100
AcDbEntity
  8
0
  6
Continuous
 62
     7
370
    15
100
AcDbLine
 10
115.1972748484
 20
100.5828047901
 30
0.0
 11
102.9972694959
 21
100.5828047901
 31
0.0
  0
LINE
  5
385
330
1F
100
AcDbEntity
  8
0
  6
Continuous
 62
     7
370
    15
100
AcDbLine
 10
100.5972735729
 20
92.732804621
 30
0.0
 11
102.0972691621
 21
92.732804621
 31
0.0
  0
LINE
  5
386
330
1F
100
AcDbEntity
  8
0
  6
Continuous
 62
     7
370
    15
100
AcDbLine
 10
102.0972691621
 20
100.4328045793
 30
0.0
 11
100.5972735729
 21
100.4328045793
 31
0.0
  0
LINE
  5
387
330
1F
100
AcDbEntity
  8
0
  6
Continuous
 62
     7
370
    15
100
AcDbLine
 10
102.0972691621
 20
94.1828044862
 30
0.0
 11
102.9972694959
 21
94.1828044862
 31
0.0
  0
LINE
  5
388
330
1F
100
AcDbEntity
  8
0
  6
Continuous
 62
     7
370
    15
100
AcDbLine
 10
102.9972694959
 20
98.9828047141
 30
0.0
 11
102.0972691621
 21
98.9828047141
 31
0.0
  0
LINE
  5
389
330
1F
100
AcDbEntity
  8
0
  6
Continuous
 62
     7
370
    15
100
AcDbLine
 10
182.9257938224
 20
82.0828050174
 30
0.0
 11
179.2257940542
 21
82.0828050174
 31
0.0
  0
LINE
  5
38A
330
1F
100
AcDbEntity
  8
0
  6
Continuous
 62
     7
370
    15
100
AcDbLine
 10
179.2257940542
 20
75.08280387
 30
0.0
 11
182.9257938224
 21
75.08280387
 31
0.0
  0
LINE
  5
38B
330
1F
100
AcDbEntity
  8
0
  6
Continuous
 62
     7
370
    15
100
AcDbLine
 10
182.9257938224
 20
75.08280387
 30
0.0
 11
183.2257937785
 21
75.382805223
 31
0.0
  0
LINE
  5
38C
330
1F
100
AcDbEntity
  8
0
  6
Continuous
 62
     7
370
    15
100
AcDbLine
 10
183.2257937785
 20
81.7828045957
 30
0.0
 11
182.9257938224
 21
82.0828050174
 31
0.0
  0
LINE
  5
38D
330
1F
100
AcDbEntity
  8
0
  6
Continuous
 62
     7
370
    15
100
AcDbLine
 10
182.9257938224
 20
118.0828053303
 30
0.0
 11
179.2257940542
 21
118.0828053303
 31
0.0
  0
LINE
  5
38E
330
1F
100
AcDbEntity
  8
0
  6
Continuous
 62
     7
370
    15
100
AcDbLine
 10
179.2257940542
 20
111.0828041829
 30
0.0
 11
182.9257938224
 21
111.0828041829
 31
0.0
  0
LINE
  5
38F
330
1F
100
AcDbEntity
  8
0
  6
Continuous
 62
     7
370
    15
100
AcDbLine
 10
182.9257938224
 20
111.0828041829
 30
0.0
 11
183.2257937785
 21
111.3828046046
 31
0.0
  0
LINE
  5
390
330
1F
100
AcDbEntity
  8
0
  6
Continuous
 62
     7
370
    15
100
AcDbLine
 10
183.2257937785
 20
117.7828039773
 30
0.0
 11
182.9257938224
 21
118.0828053303
 31
0.0
  0
LINE
  5
391
330
1F
100
AcDbEntity
  8
0
  6
Continuous
 62
     7
370
    15
100
AcDbLine
 10
188.6257939186
 20
86.9504863195
 30
0.0
 11
189.1257939423
 21
86.9504863195
 31
0.0
  0
LINE
  5
392
330
1F
100
AcDbEntity
  8
0
  6
Continuous
 62
     7
370
    15
100
AcDbLine
 10
189.1257939423
 20
106.2151228808
 30
0.0
 11
188.6257939186
 21
106.2151228808
 31
0.0
  0
LINE
  5
393
330
1F
100
AcDbEntity
  8
0
  6
Continuous
 62
     7
370
    15
100
AcDbLine
 10
108.8509597029
 20
103.4828045204
 30
0.0
 11
111.9972728338
 21
103.4828045204
 31
0.0
  0
LINE
  5
394
330
1F
100
AcDbEntity
  8
0
  6
Continuous
 62
     7
370
    15
100
AcDbLine
 10
111.9972728338
 20
107.4828047104
 30
0.0
 11
108.8509597029
 21
107.4828047104
 31
0.0
  0
LINE
  5
395
330
1F
100
AcDbEntity
  8
0
  6
Continuous
 62
     7
370
    15
100
AcDbLine
 10
108.8509597029
 20
107.4828047104
 30
0.0
 11
108.6257957067
 21
107.0928050004
 31
0.0
  0
LINE
  5
396
330
1F
100
AcDbEntity
  8
0
  6
Continuous
 62
     7
370
    15
100
AcDbLine
 10
108.6257957067
 20
103.8728046961
 30
0.0
 11
108.8509597029
 21
103.4828045204
 31
0.0
  0
LINE
  5
397
330
1F
100
AcDbEntity
  8
0
  6
Continuous
 62
     7
370
    15
100
AcDbLine
 10
102.9972694959
 20
94.6829392606
 30
0.0
 11
102.9972694959
 21
100.5828047901
 31
0.0
  0
LINE
  5
398
330
1F
100
AcDbEntity
  8
0
  6
Continuous
 62
     7
370
    15
100
AcDbLine
 10
102.9972694959
 20
92.5828044102
 30
0.0
 11
102.9972694959
 21
94.6829392606
 31
0.0
  0
LINE
  5
399
330
1F
100
AcDbEntity
  8
0
  6
Continuous
 62
     7
370
    15
100
AcDbLine
 10
102.0972691621
 20
92.732804621
 30
0.0
 11
102.0972691621
 21
100.4328045793
 31
0.0
  0
LINE
  5
39A
330
1F
100
AcDbEntity
  8
0
  6
Continuous
 62
     7
370
    15
100
AcDbLine
 10
100.5972735729
 20
92.732804621
 30
0.0
 11
100.5972735729
 21
100.4328045793
 31
0.0
  0
LINE
  5
39B
330
1F
100
AcDbEntity
  8
0
  6
Continuous
 62
     7
370
    15
100
AcDbLine
 10
179.2257940542
 20
78.0828043617
 30
0.0
 11
177.6257939782
 21
78.0828043617
 31
0.0
  0
LINE
  5
39C
330
1F
100
AcDbEntity
  8
0
  6
Continuous
 62
     7
370
    15
100
AcDbLine
 10
179.2257940542
 20
74.0828037061
 30
0.0
 11
179.2257940542
 21
78.0828043617
 31
0.0
  0
LINE
  5
39D
330
1F
100
AcDbEntity
  8
0
  6
Continuous
 62
     7
370
    15
100
AcDbLine
 10
179.2257940542
 20
74.0828037061
 30
0.0
 11
177.6257939782
 21
74.0828037061
 31
0.0
  0
LINE
  5
39E
330
1F
100
AcDbEntity
  8
0
  6
Continuous
 62
     7
370
    15
100
AcDbLine
 10
179.2257940542
 20
115.0828048386
 30
0.0
 11
177.6257939782
 21
115.0828048386
 31
0.0
  0
LINE
  5
39F
330
1F
100
AcDbEntity
  8
0
  6
Continuous
 62
     7
370
    15
100
AcDbLine
 10
179.2257940542
 20
78.0828043617
 30
0.0
 11
179.2257940542
 21
115.0828048386
 31
0.0
  0
LINE
  5
3A0
330
1F
100
AcDbEntity
  8
0
  6
Continuous
 62
     7
370
    15
100
AcDbLine
 10
177.6257939782
 20
119.0828054942
 30
0.0
 11
179.2257940542
 21
119.0828054942
 31
0.0
  0
LINE
  5
3A1
330
1F
100
AcDbEntity
  8
0
  6
Continuous
 62
     7
370
    15
100
AcDbLine
 10
179.2257940542
 20
115.0828048386
 30
0.0
 11
179.2257940542
 21
119.0828054942
 31
0.0
  0
LINE
  5
3A2
330
1F
100
AcDbEntity
  8
0
  6
Continuous
 62
     7
370
    15
100
AcDbLine
 10
182.9257938224
 20
82.0828050174
 30
0.0
 11
182.9257938224
 21
75.08280387
 31
0.0
  0
LINE
  5
3A3
330
1F
100
AcDbEntity
  8
0
  6
Continuous
 62
     7
370
    15
100
AcDbLine
 10
183.2257937785
 20
81.7828045957
 30
0.0
 11
183.2257937785
 21
75.382805223
 31
0.0
  0
LINE
  5
3A4
330
1F
100
AcDbEntity
  8
0
  6
Continuous
 62
     7
370
    15
100
AcDbLine
 10
182.9257938224
 20
118.0828053303
 30
0.0
 11
182.9257938224
 21
111.0828041829
 31
0.0
  0
LINE
  5
3A5
330
1F
100
AcDbEntity
  8
0
  6
Continuous
 62
     7
370
    15
100
AcDbLine
 10
183.2257937785
 20
117.7828039773
 30
0.0
 11
183.2257937785
 21
111.3828046046
 31
0.0
  0
LINE
  5
3A6
330
1F
100
AcDbEntity
  8
0
  6
Continuous
 62
     7
370
    15
100
AcDbLine
 10
179.2257940542
 20
85.5828046598
 30
0.0
 11
180.2257942181
 21
85.5828046598
 31
0.0
  0
LINE
  5
3A7
330
1F
100
AcDbEntity
  8
0
  6
Continuous
 62
     7
370
    15
100
AcDbLine
 10
179.2257940542
 20
107.5828045405
 30
0.0
 11
180.2257942181
 21
107.5828045405
 31
0.0
  0
LINE
  5
3A8
330
1F
100
AcDbEntity
  8
0
  6
Continuous
 62
     7
370
    15
100
AcDbLine
 10
180.2257942181
 20
107.5828045405
 30
0.0
 11
180.2257942181
 21
85.5828046598
 31
0.0
  0
ARC
  5
3A9
330
1F
100
AcDbEntity
  8
0
  6
Continuous
 62
     7
370
    15
100
AcDbCircle
 10
180.2257939186
 20
110.5828046001
 30
0.0
 40
1.000000000003359
100
AcDbArc
 50
180.0000060253
 51
269.9999999998
  0
LINE
  5
3AA
330
1F
100
AcDbEntity
  8
0
  6
Continuous
 62
     7
370
    15
100
AcDbLine
 10
180.2257942181
 20
109.5828048684
 30
0.0
 11
180.2257942181
 21
107.5828045405
 31
0.0
  0
ARC
  5
3AB
330
1F
100
AcDbEntity
  8
0
  6
Continuous
 62
     7
370
    15
100
AcDbCircle
 10
180.2257939185
 20
82.5828046001
 30
0.0
 40
1.000000000002203
100
AcDbArc
 50
89.9999999996
 51
179.9999939745
  0
LINE
  5
3AC
330
1F
100
AcDbEntity
  8
0
  6
Continuous
 62
     7
370
    15
100
AcDbLine
 10
180.2257942181
 20
85.5828046598
 30
0.0
 11
180.2257942181
 21
83.5828043319
 31
0.0
  0
LINE
  5
3AD
330
1F
100
AcDbEntity
  8
0
  6
Continuous
 62
     7
370
    15
100
AcDbLine
 10
187.6257938711
 20
85.5828046598
 30
0.0
 11
188.6257939185
 21
85.5828046598
 31
0.0
  0
SPLINE
  5
3AE
330
1F
100
AcDbEntity
  8
0
  6
Continuous
 62
     7
370
    15
100
AcDbSpline
210
0.0
220
0.0
230
1.0
 70
    24
 71
     3
 72
    11
 73
     7
 74
     0
 42
0.00000001
 43
0.00000001
 12
1.0
 22
0.0
 32
0.0
 13
1.0
 23
0.0
 33
0.0
 40
0.0
 40
0.0
 40
0.0
 40
0.0
 40
0.2499999187828403
 40
0.4999999777248861
 40
0.7499997885875133
 40
1.0
 40
1.0
 40
1.0
 40
1.0
 10
188.6257939185391
 20
85.58280465975183
 30
0.0
 10
188.6257939185391
 20
85.45176768484477
 30
0.0
 10
188.6257939185391
 20
85.18969366156642
 30
0.0
 10
188.6257939185391
 20
84.85914884923916
 30
0.0
 10
188.6257939185391
 20
84.62789937644423
 30
0.0
 10
188.6257939185391
 20
84.59783613073535
 30
0.0
 10
188.6257939185391
 20
84.58280449583906
 30
0.0
  0
ARC
  5
3AF
330
1F
100
AcDbEntity
  8
0
  6
Continuous
 62
     7
370
    15
100
AcDbCircle
 10
187.6257939186
 20
84.5828046001
 30
0.0
 40
0.9999999999967883
100
AcDbArc
 50
269.9999999999
 51
0.0000000001
  0
LINE
  5
3B0
330
1F
100
AcDbEntity
  8
0
  6
Continuous
 62
     7
370
    15
100
AcDbLine
 10
187.6257938711
 20
85.5828046598
 30
0.0
 11
187.6257938711
 21
83.5828043319
 31
0.0
  0
LINE
  5
3B1
330
1F
100
AcDbEntity
  8
0
  6
Continuous
 62
     7
370
    15
100
AcDbLine
 10
187.6257938711
 20
107.5828045405
 30
0.0
 11
188.6257939185
 21
107.5828045405
 31
0.0
  0
LINE
  5
3B2
330
1F
100
AcDbEntity
  8
0
  6
Continuous
 62
     7
370
    15
100
AcDbLine
 10
188.6257939186
 20
107.5828045405
 30
0.0
 11
188.6257939186
 21
85.5828046598
 31
0.0
  0
LINE
  5
3B3
330
1F
100
AcDbEntity
  8
0
  6
Continuous
 62
     7
370
    15
100
AcDbLine
 10
187.6257938711
 20
107.5828045405
 30
0.0
 11
187.6257938711
 21
85.5828046598
 31
0.0
  0
ARC
  5
3B4
330
1F
100
AcDbEntity
  8
0
  6
Continuous
 62
     7
370
    15
100
AcDbCircle
 10
187.6257939185
 20
108.5828046002
 30
0.0
 40
0.9999999999984968
100
AcDbArc
 50
359.9999954835
 51
89.9999999996
  0
SPLINE
  5
3B5
330
1F
100
AcDbEntity
  8
0
  6
Continuous
 62
     7
370
    15
100
AcDbSpline
210
0.0
220
0.0
230
1.0
 70
    24
 71
     3
 72
    11
 73
     7
 74
     0
 42
0.00000001
 43
0.00000001
 12
1.0
 22
0.0
 32
0.0
 13
1.0
 23
0.0
 33
0.0
 40
0.0
 40
0.0
 40
0.0
 40
0.0
 40
0.2500002114124868
 40
0.5000000222751139
 40
0.7500000812171597
 40
1.0
 40
1.0
 40
1.0
 40
1.0
 10
188.6257939185448
 20
108.5828047044553
 30
0.0
 10
188.6257939185448
 20
108.567773069559
 30
0.0
 10
188.6257939185448
 20
108.5377098238502
 30
0.0
 10
188.6257939185448
 20
108.3064603510552
 30
0.0
 10
188.6257939185448
 20
107.975915538728
 30
0.0
 10
188.6257939185448
 20
107.7138415154496
 30
0.0
 10
188.6257939185448
 20
107.5828045405426
 30
0.0
  0
LINE
  5
3B6
330
1F
100
AcDbEntity
  8
0
  6
Continuous
 62
     7
370
    15
100
AcDbLine
 10
187.6257938711
 20
109.5828048684
 30
0.0
 11
187.6257938711
 21
107.5828045405
 31
0.0
  0
LINE
  5
3B7
330
1F
100
AcDbEntity
  8
0
  6
Continuous
 62
     7
370
    15
100
AcDbLine
 10
180.2257942181
 20
83.5828043319
 30
0.0
 11
187.6257938711
 21
83.5828043319
 31
0.0
  0
LINE
  5
3B8
330
1F
100
AcDbEntity
  8
0
  6
Continuous
 62
     7
370
    15
100
AcDbLine
 10
180.2257942181
 20
85.5828046598
 30
0.0
 11
187.6257938711
 21
85.5828046598
 31
0.0
  0
LINE
  5
3B9
330
1F
100
AcDbEntity
  8
0
  6
Continuous
 62
     7
370
    15
100
AcDbLine
 10
180.2257942181
 20
107.5828045405
 30
0.0
 11
187.6257938711
 21
107.5828045405
 31
0.0
  0
LINE
  5
3BA
330
1F
100
AcDbEntity
  8
0
  6
Continuous
 62
     7
370
    15
100
AcDbLine
 10
180.2257942181
 20
109.5828048684
 30
0.0
 11
187.6257938711
 21
109.5828048684
 31
0.0
  0
LINE
  5
3BB
330
1F
100
AcDbEntity
  8
0
  6
Continuous
 62
     7
370
    15
100
AcDbLine
 10
189.1257939423
 20
86.9986068256
 30
0.0
 11
188.6257939186
 21
86.9986068256
 31
0.0
  0
LINE
  5
3BC
330
1F
100
AcDbEntity
  8
0
  6
Continuous
 62
     7
370
    15
100
AcDbLine
 10
189.1257939423
 20
86.9986068256
 30
0.0
 11
189.1257939423
 21
86.9504863195
 31
0.0
  0
LINE
  5
3BD
330
1F
100
AcDbEntity
  8
0
  6
Continuous
 62
     7
370
    15
100
AcDbLine
 10
189.1257939423
 20
106.2151228808
 30
0.0
 11
189.1257939423
 21
106.1670023747
 31
0.0
  0
LINE
  5
3BE
330
1F
100
AcDbEntity
  8
0
  6
Continuous
 62
     7
370
    15
100
AcDbLine
 10
188.6257939186
 20
106.1670023747
 30
0.0
 11
189.1257939423
 21
106.1670023747
 31
0.0
  0
LINE
  5
3BF
330
1F
100
AcDbEntity
  8
0
  6
Continuous
 62
     7
370
    15
100
AcDbLine
 10
188.6257939186
 20
94.8300203573
 30
0.0
 11
189.1257939423
 21
94.8300203573
 31
0.0
  0
LINE
  5
3C0
330
1F
100
AcDbEntity
  8
0
  6
Continuous
 62
     7
370
    15
100
AcDbLine
 10
189.1257939423
 20
94.8300203573
 30
0.0
 11
189.1257939423
 21
94.5015235603
 31
0.0
  0
LINE
  5
3C1
330
1F
100
AcDbEntity
  8
0
  6
Continuous
 62
     7
370
    15
100
AcDbLine
 10
189.1257939423
 20
94.5015235603
 30
0.0
 11
188.6257939186
 21
94.5015235603
 31
0.0
  0
LINE
  5
3C2
330
1F
100
AcDbEntity
  8
0
  6
Continuous
 62
     7
370
    15
100
AcDbLine
 10
188.6257939186
 20
98.6638488512
 30
0.0
 11
189.1257939423
 21
98.6638488512
 31
0.0
  0
LINE
  5
3C3
330
1F
100
AcDbEntity
  8
0
  6
Continuous
 62
     7
370
    15
100
AcDbLine
 10
189.1257939423
 20
98.3355827894
 30
0.0
 11
189.1257939423
 21
98.6638488512
 31
0.0
  0
LINE
  5
3C4
330
1F
100
AcDbEntity
  8
0
  6
Continuous
 62
     7
370
    15
100
AcDbLine
 10
189.1257939423
 20
98.3355827894
 30
0.0
 11
188.6257939186
 21
98.3355827894
 31
0.0
  0
LINE
  5
3C5
330
1F
100
AcDbEntity
  8
0
  6
Continuous
 62
     7
370
    15
100
AcDbLine
 10
189.1257939423
 20
98.6638488512
 30
0.0
 11
189.1257939423
 21
106.1670023747
 31
0.0
  0
LINE
  5
3C6
330
1F
100
AcDbEntity
  8
0
  6
Continuous
 62
     7
370
    15
100
AcDbLine
 10
189.1257939423
 20
86.9986068256
 30
0.0
 11
189.1257939423
 21
94.5015235603
 31
0.0
  0
LINE
  5
3C7
330
1F
100
AcDbEntity
  8
0
  6
Continuous
 62
     7
370
    15
100
AcDbLine
 10
108.8509597029
 20
105.7109877266
 30
0.0
 11
108.8509597029
 21
107.4828047104
 31
0.0
  0
LINE
  5
3C8
330
1F
100
AcDbEntity
  8
0
  6
Continuous
 62
     7
370
    15
100
AcDbLine
 10
108.8509597029
 20
103.4828045204
 30
0.0
 11
108.8509597029
 21
105.7109877266
 31
0.0
  0
LINE
  5
3C9
330
1F
100
AcDbEntity
  8
0
  6
Continuous
 62
     7
370
    15
100
AcDbLine
 10
108.6257957067
 20
105.6664919279
 30
0.0
 11
108.6257957067
 21
107.0928050004
 31
0.0
  0
LINE
  5
3CA
330
1F
100
AcDbEntity
  8
0
  6
Continuous
 62
     7
370
    15
100
AcDbLine
 10
108.6257957067
 20
103.8728046961
 30
0.0
 11
108.6257957067
 21
105.6664919279
 31
0.0
  0
LINE
  5
3CB
330
1F
100
AcDbEntity
  8
0
  6
Continuous
 62
     7
370
    15
100
AcDbLine
 10
131.6972710337
 20
75.5828048833
 30
0.0
 11
132.6972730603
 21
74.5828047194
 31
0.0
  0
LINE
  5
3CC
330
1F
100
AcDbEntity
  8
0
  6
Continuous
 62
     7
370
    15
100
AcDbLine
 10
131.6972710337
 20
117.582804317
 30
0.0
 11
131.6972710337
 21
75.5828048833
 31
0.0
  0
LINE
  5
3CD
330
1F
100
AcDbEntity
  8
0
  6
Continuous
 62
     7
370
    15
100
AcDbLine
 10
132.6972730603
 20
118.5828044809
 30
0.0
 11
131.6972710337
 21
117.582804317
 31
0.0
  0
LINE
  5
3CE
330
1F
100
AcDbEntity
  8
0
  6
Continuous
 62
     7
370
    15
100
AcDbLine
 10
160.6972720619
 20
118.5828044809
 30
0.0
 11
132.6972730603
 21
118.5828044809
 31
0.0
  0
LINE
  5
3CF
330
1F
100
AcDbEntity
  8
0
  6
Continuous
 62
     7
370
    15
100
AcDbLine
 10
161.6972722258
 20
117.582804317
 30
0.0
 11
160.6972720619
 21
118.5828044809
 31
0.0
  0
LINE
  5
3D0
330
1F
100
AcDbEntity
  8
0
  6
Continuous
 62
     7
370
    15
100
AcDbLine
 10
161.6972722258
 20
75.5828048833
 30
0.0
 11
161.6972722258
 21
117.582804317
 31
0.0
  0
LINE
  5
3D1
330
1F
100
AcDbEntity
  8
0
  6
Continuous
 62
     7
370
    15
100
AcDbLine
 10
160.6972720619
 20
74.5828047194
 30
0.0
 11
161.6972722258
 21
75.5828048833
 31
0.0
  0
LINE
  5
3D2
330
1F
100
AcDbEntity
  8
0
  6
Continuous
 62
     7
370
    15
100
AcDbLine
 10
132.6972730603
 20
74.5828047194
 30
0.0
 11
160.6972720619
 21
74.5828047194
 31
0.0
  0
CIRCLE
  5
3D3
330
1F
100
AcDbEntity
  8
0
  6
Continuous
 62
     7
370
    15
100
AcDbCircle
 10
155.1972728494
 20
114.5828046001
 30
0.0
 40
1.649999999999991
  0
CIRCLE
  5
3D4
330
1F
100
AcDbEntity
  8
0
  6
Continuous
 62
     7
370
    15
100
AcDbCircle
 10
153.1972728494
 20
106.4217672794
 30
0.0
 40
1.649999999999991
  0
CIRCLE
  5
3D5
330
1F
100
AcDbEntity
  8
0
  6
Continuous
 62
     7
370
    15
100
AcDbCircle
 10
153.1972728494
 20
86.4217672794
 30
0.0
 40
1.650000000000006
  0
CIRCLE
  5
3D6
330
1F
100
AcDbEntity
  8
0
  6
Continuous
 62
     7
370
    15
100
AcDbCircle
 10
155.1972728494
 20
78.5828046001
 30
0.0
 40
1.650000000000006
  0
CIRCLE
  5
3D7
330
1F
100
AcDbEntity
  8
0
  6
Continuous
 62
     7
370
    15
100
AcDbCircle
 10
155.1972728494
 20
96.5828046001
 30
0.0
 40
1.649999999999991
  0
CIRCLE
  5
3D8
330
1F
100
AcDbEntity
  8
0
  6
Continuous
 62
     7
370
    15
100
AcDbCircle
 10
135.1972728494
 20
96.5828046001
 30
0.0
 40
1.649999999999991
  0
ARC
  5
3D9
330
1F
100
AcDbEntity
  8
0
  6
Continuous
 62
     7
370
    15
100
AcDbCircle
 10
166.1972728494
 20
110.0828046001
 30
0.0
 40
3.999999999999987
100
AcDbArc
 50
116.2871252272
 51
243.7128747728
  0
ARC
  5
3DA
330
1F
100
AcDbEntity
  8
0
  6
Continuous
 62
     7
370
    15
100
AcDbCircle
 10
166.1972728494
 20
83.0828046001
 30
0.0
 40
3.999999999999987
100
AcDbArc
 50
116.2871252272
 51
243.7128747728
  0
LINE
  5
3DB
330
1F
100
AcDbEntity
  8
0
  6
Continuous
 62
     7
370
    15
100
AcDbLine
 10
132.3972717072
 20
74.0828037061
 30
0.0
 11
165.4257942136
 21
74.0828037061
 31
0.0
  0
LINE
  5
3DC
330
1F
100
AcDbEntity
  8
0
  6
Continuous
 62
     7
370
    15
100
AcDbLine
 10
132.3972717072
 20
74.0828037061
 30
0.0
 11
117.6972724642
 21
81.0828048535
 31
0.0
  0
LINE
  5
3DD
330
1F
100
AcDbEntity
  8
0
  6
Continuous
 62
     7
370
    15
100
AcDbLine
 10
117.6972724642
 20
81.0828048535
 30
0.0
 11
117.6972724642
 21
112.0828043468
 31
0.0
  0
LINE
  5
3DE
330
1F
100
AcDbEntity
  8
0
  6
Continuous
 62
     7
370
    15
100
AcDbLine
 10
117.6972724642
 20
112.0828043468
 30
0.0
 11
132.3972717072
 21
119.0828054942
 31
0.0
  0
LINE
  5
3DF
330
1F
100
AcDbEntity
  8
0
  6
Continuous
 62
     7
370
    15
100
AcDbLine
 10
132.3972717072
 20
119.0828054942
 30
0.0
 11
165.4257942136
 21
119.0828054942
 31
0.0
  0
LINE
  5
3E0
330
1F
100
AcDbEntity
  8
0
  6
Continuous
 62
     7
370
    15
100
AcDbLine
 10
115.1972748484
 20
81.0828048535
 30
0.0
 11
115.1972748484
 21
112.0828043468
 31
0.0
  0
LINE
  5
3E1
330
1F
100
AcDbEntity
  8
0
  6
Continuous
 62
     7
370
    15
100
AcDbLine
 10
115.1972748484
 20
112.0828043468
 30
0.0
 11
117.6972724642
 21
112.0828043468
 31
0.0
  0
LINE
  5
3E2
330
1F
100
AcDbEntity
  8
0
  6
Continuous
 62
     7
370
    15
100
AcDbLine
 10
115.1972748484
 20
81.0828048535
 30
0.0
 11
117.6972724642
 21
81.0828048535
 31
0.0
  0
LINE
  5
3E3
330
1F
100
AcDbEntity
  8
0
  6
Continuous
 62
     7
370
    15
100
AcDbLine
 10
115.1972748484
 20
105.7974368133
 30
0.0
 11
112.3098768439
 21
105.7974368133
 31
0.0
  0
SPLINE
  5
3E4
330
1F
100
AcDbEntity
  8
0
  6
Continuous
 62
     7
370
    15
100
AcDbSpline
210
0.0
220
0.0
230
1.0
 70
     8
 71
     3
 72
    10
 73
     6
 74
     0
 42
0.00000001
 43
0.00000001
 12
1.0
 22
0.0
 32
0.0
 13
1.0
 23
0.0
 33
0.0
 40
0.0
 40
0.0
 40
0.0
 40
0.0
 40
0.0700363846358932
 40
0.5307571334864373
 40
1.0
 40
1.0
 40
1.0
 40
1.0
 10
111.9972728337684
 20
107.4634667284765
 30
0.0
 10
111.9976451370663
 20
107.4240066829424
 30
0.0
 10
112.0004665652736
 20
107.1249663946148
 30
0.0
 10
112.0687386778869
 20
106.5611113690176
 30
0.0
 10
112.2290078901495
 20
106.0535454307308
 30
0.0
 10
112.3098768438736
 20
105.7974368132629
 30
0.0
  0
SPLINE
  5
3E5
330
1F
100
AcDbEntity
  8
0
  6
Continuous
 62
     7
370
    15
100
AcDbSpline
210
0.0
220
0.0
230
1.0
 70
     8
 71
     3
 72
     9
 73
     5
 74
     0
 42
0.00000001
 43
0.00000001
 12
1.0
 22
0.0
 32
0.0
 13
1.0
 23
0.0
 33
0.0
 40
0.0
 40
0.0
 40
0.0
 40
0.0
 40
0.4954576426148432
 40
1.0
 40
1.0
 40
1.0
 40
1.0
 10
112.3098768438736
 20
109.1294975750126
 30
0.0
 10
112.2225047895932
 20
108.8589268887388
 30
0.0
 10
112.0461586264393
 20
108.3128243302114
 30
0.0
 10
112.0136664919169
 20
107.7482954569857
 30
0.0
 10
111.9972728337684
 20
107.4634667284765
 30
0.0
  0
LINE
  5
3E6
330
1F
100
AcDbEntity
  8
0
  6
Continuous
 62
     7
370
    15
100
AcDbLine
 10
115.1972748484
 20
109.129497575
 30
0.0
 11
112.3098768439
 21
109.129497575
 31
0.0
  0
SPLINE
  5
3E7
330
1F
100
AcDbEntity
  8
0
  6
Continuous
 62
     7
370
    15
100
AcDbSpline
210
0.0
220
0.0
230
1.0
 70
     8
 71
     3
 72
    13
 73
     9
 74
     0
 42
0.00000001
 43
0.00000001
 12
1.0
 22
0.0
 32
0.0
 13
1.0
 23
0.0
 33
0.0
 40
0.0
 40
0.0
 40
0.0
 40
0.0
 40
0.1340640117286122
 40
0.2683984185423465
 40
0.4501240487836216
 40
0.6323951235127636
 40
0.8160261210966138
 40
1.0
 40
1.0
 40
1.0
 40
1.0
 10
111.9972728337684
 20
103.9740897513904
 30
0.0
 10
111.998479712113
 20
104.0568192460652
 30
0.0
 10
112.0008959029674
 20
104.222445093384
 30
0.0
 10
112.0224789142132
 20
104.4996368864035
 30
0.0
 10
112.0625582371856
 20
104.8051433328215
 30
0.0
 10
112.12726372562
 20
105.1381060738467
 30
0.0
 10
112.2089968149979
 20
105.4694453932378
 30
0.0
 10
112.2762292640226
 20
105.6880383761416
 30
0.0
 10
112.3098768438736
 20
105.7974368132629
 30
0.0
  0
LINE
  5
3E8
330
1F
100
AcDbEntity
  8
0
  6
Continuous
 62
     7
370
    15
100
AcDbLine
 10
111.9972728338
 20
103.9740897514
 30
0.0
 11
111.9972728338
 21
107.4634667285
 31
0.0
  0
LINE
  5
3E9
330
1F
100
AcDbEntity
  8
0
  6
Continuous
 62
     7
370
    15
100
AcDbLine
 10
115.1972748484
 20
102.1507431552
 30
0.0
 11
112.3098768439
 21
102.1507431552
 31
0.0
  0
SPLINE
  5
3EA
330
1F
100
AcDbEntity
  8
0
  6
Continuous
 62
     7
370
    15
100
AcDbSpline
210
0.0
220
0.0
230
1.0
 70
     8
 71
     3
 72
    11
 73
     7
 74
     0
 42
0.00000001
 43
0.00000001
 12
1.0
 22
0.0
 32
0.0
 13
1.0
 23
0.0
 33
0.0
 40
0.0
 40
0.0
 40
0.0
 40
0.0
 40
0.1285813829329598
 40
0.2572622224707043
 40
0.6263889805566312
 40
1.0
 40
1.0
 40
1.0
 40
1.0
 10
112.3098768438736
 20
102.1507431551792
 30
0.0
 10
112.2860959161507
 20
102.227110661743
 30
0.0
 10
112.23851566636
 20
102.3799047444867
 30
0.0
 10
112.1374416399516
 20
102.7553181652335
 30
0.0
 10
112.0254127597855
 20
103.285076181246
 30
0.0
 10
112.0066904875293
 20
103.7434959951647
 30
0.0
 10
111.9972728337684
 20
103.9740897513904
 30
0.0
  0
SPLINE
  5
3EB
330
1F
100
AcDbEntity
  8
0
  6
Continuous
 62
     7
370
    15
100
AcDbSpline
210
0.0
220
0.0
230
1.0
 70
     8
 71
     3
 72
    10
 73
     6
 74
     0
 42
0.00000001
 43
0.00000001
 12
1.0
 22
0.0
 32
0.0
 13
1.0
 23
0.0
 33
0.0
 40
0.0
 40
0.0
 40
0.0
 40
0.0
 40
0.0700366167008002
 40
0.5307572520436757
 40
1.0
 40
1.0
 40
1.0
 40
1.0
 10
111.9972728337684
 20
108.9721822909989
 30
0.0
 10
111.9976451356401
 20
108.9759083923922
 30
0.0
 10
112.0004665443206
 20
109.0041458405947
 30
0.0
 10
112.06873867878
 20
109.0573870582227
 30
0.0
 10
112.2290078906164
 20
109.1053143354604
 30
0.0
 10
112.3098768438736
 20
109.1294975750126
 30
0.0
  0
LINE
  5
3EC
330
1F
100
AcDbEntity
  8
0
  6
Continuous
 62
     7
370
    15
100
AcDbLine
 10
111.9972728338
 20
107.4634667285
 30
0.0
 11
111.9972728338
 21
108.977895955
 31
0.0
  0
SPLINE
  5
3ED
330
1F
100
AcDbEntity
  8
0
  6
Continuous
 62
     7
370
    15
100
AcDbSpline
210
0.0
220
0.0
230
1.0
 70
     8
 71
     3
 72
     9
 73
     5
 74
     0
 42
0.00000001
 43
0.00000001
 12
1.0
 22
0.0
 32
0.0
 13
1.0
 23
0.0
 33
0.0
 40
0.0
 40
0.0
 40
0.0
 40
0.0
 40
0.4954576891918449
 40
1.0
 40
1.0
 40
1.0
 40
1.0
 10
112.3098768438736
 20
102.1507431551792
 30
0.0
 10
112.2225047897829
 20
102.125194401092
 30
0.0
 10
112.04615864359
 20
102.0736284356331
 30
0.0
 10
112.0136664966624
 20
102.0203221941176
 30
0.0
 10
111.9972728337684
 20
101.9934269398429
 30
0.0
  0
LINE
  5
3EE
330
1F
100
AcDbEntity
  8
0
  6
Continuous
 62
     7
370
    15
100
AcDbLine
 10
111.9972728338
 20
103.9740897514
 30
0.0
 11
111.9972728338
 21
101.9934269398
 31
0.0
  0
LINE
  5
3EF
330
1F
100
AcDbEntity
  8
0
  6
Continuous
 62
     7
370
    15
100
AcDbLine
 10
115.1972748484
 20
101.8361111902
 30
0.0
 11
112.3098768439
 21
101.8361111902
 31
0.0
  0
SPLINE
  5
3F0
330
1F
100
AcDbEntity
  8
0
  6
Continuous
 62
     7
370
    15
100
AcDbSpline
210
0.0
220
0.0
230
1.0
 70
     8
 71
     3
 72
    10
 73
     6
 74
     0
 42
0.00000001
 43
0.00000001
 12
1.0
 22
0.0
 32
0.0
 13
1.0
 23
0.0
 33
0.0
 40
0.0
 40
0.0
 40
0.0
 40
0.0
 40
0.070036597820826
 40
0.5307572428636391
 40
1.0
 40
1.0
 40
1.0
 40
1.0
 10
111.9972728337684
 20
101.9934269398429
 30
0.0
 10
111.997645135757
 20
101.9897010068168
 30
0.0
 10
112.0004665460354
 20
101.9614648274252
 30
0.0
 10
112.0687386784957
 20
101.9082217317979
 30
0.0
 10
112.2290078905608
 20
101.8602944380387
 30
0.0
 10
112.3098768438736
 20
101.8361111901678
 30
0.0
  0
ARC
  5
3F1
330
1F
100
AcDbEntity
  8
0
  6
Continuous
 62
     7
370
    15
100
AcDbCircle
 10
165.4257939186
 20
118.0828046001
 30
0.0
 40
1.0
100
AcDbArc
 50
90.0
 51
180.0
  0
LINE
  5
3F2
330
1F
100
AcDbEntity
  8
0
  6
Continuous
 62
     7
370
    15
100
AcDbLine
 10
175.4257939901
 20
119.0828054942
 30
0.0
 11
165.4257942136
 21
119.0828054942
 31
0.0
  0
LINE
  5
3F3
330
1F
100
AcDbEntity
  8
0
  6
Continuous
 62
     7
370
    15
100
AcDbLine
 10
175.4257939901
 20
74.0828037061
 30
0.0
 11
175.4257939901
 21
119.0828054942
 31
0.0
  0
LINE
  5
3F4
330
1F
100
AcDbEntity
  8
0
  6
Continuous
 62
     7
370
    15
100
AcDbLine
 10
175.4257939901
 20
74.0828037061
 30
0.0
 11
165.4257942136
 21
74.0828037061
 31
0.0
  0
ARC
  5
3F5
330
1F
100
AcDbEntity
  8
0
  6
Continuous
 62
     7
370
    15
100
AcDbCircle
 10
165.4257939186
 20
75.0828046001
 30
0.0
 40
1.0
100
AcDbArc
 50
180.0
 51
270.0
  0
LINE
  5
3F6
330
1F
100
AcDbEntity
  8
0
  6
Continuous
 62
     7
370
    15
100
AcDbLine
 10
164.4257940497
 20
75.08280387
 30
0.0
 11
164.4257940497
 21
118.0828053303
 31
0.0
  0
CIRCLE
  5
3F7
330
1F
100
AcDbEntity
  8
0
  6
Continuous
 62
     7
370
    15
100
AcDbCircle
 10
168.2257939186
 20
110.0828046001
 30
0.0
 40
2.049999999999983
  0
CIRCLE
  5
3F8
330
1F
100
AcDbEntity
  8
0
  6
Continuous
 62
     7
370
    15
100
AcDbCircle
 10
168.2257939186
 20
83.0828046001
 30
0.0
 40
2.049999999999983
  0
LINE
  5
3F9
330
1F
100
AcDbEntity
  8
0
  6
Continuous
 62
     7
370
    15
100
AcDbLine
 10
177.6257939782
 20
74.0828037061
 30
0.0
 11
177.6257939782
 21
119.0828054942
 31
0.0
  0
LINE
  5
3FA
330
1F
100
AcDbEntity
  8
0
  6
Continuous
 62
     7
370
    15
100
AcDbLine
 10
177.6257939782
 20
119.0828054942
 30
0.0
 11
175.4257939901
 21
119.0828054942
 31
0.0
  0
LINE
  5
3FB
330
1F
100
AcDbEntity
  8
0
  6
Continuous
 62
     7
370
    15
100
AcDbLine
 10
177.6257939782
 20
74.0828037061
 30
0.0
 11
175.4257939901
 21
74.0828037061
 31
0.0
  0
CIRCLE
  5
3FC
330
1F
100
AcDbEntity
  8
0
  6
Continuous
 62
     7
370
    15
100
AcDbCircle
 10
168.2257939186
 20
110.0828046001
 30
0.0
 40
1.588675134594811
  0
CIRCLE
  5
3FD
330
1F
100
AcDbEntity
  8
0
  6
Continuous
 62
     7
370
    15
100
AcDbCircle
 10
168.2257939186
 20
110.0828046001
 30
0.0
 40
1.999999999999996
  0
CIRCLE
  5
3FE
330
1F
100
AcDbEntity
  8
0
  6
Continuous
 62
     7
370
    15
100
AcDbCircle
 10
168.2257939186
 20
110.0828046001
 30
0.0
 40
1.299999999999985
  0
ARC
  5
3FF
330
1F
100
AcDbEntity
  8
0
  6
Continuous
 62
     7
370
    15
100
AcDbCircle
 10
168.2257939186
 20
110.0828046001
 30
0.0
 40
4.00000000000001
100
AcDbArc
 50
161.8051276612
 51
198.1948723388
  0
CIRCLE
  5
400
330
1F
100
AcDbEntity
  8
0
  6
Continuous
 62
     7
370
    15
100
AcDbCircle
 10
168.2257939186
 20
83.0828046001
 30
0.0
 40
1.588675134594798
  0
CIRCLE
  5
401
330
1F
100
AcDbEntity
  8
0
  6
Continuous
 62
     7
370
    15
100
AcDbCircle
 10
168.2257939186
 20
83.0828046001
 30
0.0
 40
1.999999999999983
  0
CIRCLE
  5
402
330
1F
100
AcDbEntity
  8
0
  6
Continuous
 62
     7
370
    15
100
AcDbCircle
 10
168.2257939186
 20
83.0828046001
 30
0.0
 40
1.300000000000007
  0
ARC
  5
403
330
1F
100
AcDbEntity
  8
0
  6
Continuous
 62
     7
370
    15
100
AcDbCircle
 10
168.2257939186
 20
83.0828046001
 30
0.0
 40
4.000000000000019
100
AcDbArc
 50
161.8051276612
 51
198.1948723388
  0
LINE
  5
404
330
1F
100
AcDbEntity
  8
0
  6
Continuous
 62
     7
370
    15
100
AcDbLine
 10
133.9257955696
 20
95.5312146371
 30
0.0
 11
133.9257955696
 21
97.6343945632
 31
0.0
  0
LINE
  5
405
330
1F
100
AcDbEntity
  8
0
  6
Continuous
 62
     8
370
    15
100
AcDbLine
 10
153.6248549964
 20
78.0828043617
 30
0.0
 11
156.7696929123
 21
78.0828043617
 31
0.0
  0
LINE
  5
406
330
1F
100
AcDbEntity
  8
0
  6
Continuous
 62
     8
370
    15
100
AcDbLine
 10
153.6248549964
 20
115.0828048386
 30
0.0
 11
156.7696929123
 21
115.0828048386
 31
0.0
  0
DIMENSION
  5
407
330
1F
100
AcDbEntity
  8
0
  6
Continuous
 62
     7
370
     0
100
AcDbDimension
  2
_D_15
 10
155.1972728494
 20
127.9084050344
 30
0.0
 11
147.4289060711
 21
127.9084050344
 31
0.0
 70
   160
  1
<>
 71
     2
 42
-1.0
  3
SLDDIMSTYLE1
100
AcDbAlignedDimension
 13
153.1972728494
 23
110.5717672794
 33
0.0
 14
155.1972728494
 24
118.7328046001
 34
0.0
100
AcDbRotatedDimension
  0
DIMENSION
  5
413
330
1F
100
AcDbEntity
  8
0
  6
Continuous
 62
     7
370
     0
100
AcDbDimension
  2
_D_16
 10
155.1972728494
 20
136.4664791674
 30
0.0
 11
135.1972728494
 21
136.4664791674
 31
0.0
 70
   160
  1
<>
 71
     2
 42
-1.0
  3
SLDDIMSTYLE0
100
AcDbAlignedDimension
 13
115.1972728494
 23
112.0828046001
 33
0.0
 14
155.1972728494
 24
118.7328046001
 34
0.0
100
AcDbRotatedDimension
  0
DIMENSION
  5
41D
330
1F
100
AcDbEntity
  8
0
  6
Continuous
 62
     7
370
     0
100
AcDbDimension
  2
_D_17
 10
189.1257939186
 20
136.4664791674
 30
0.0
 11
172.161533384
 21
136.4664791674
 31
0.0
 70
   160
  1
<>
 71
     2
 42
-1.0
  3
SLDDIMSTYLE0
100
AcDbAlignedDimension
 13
155.1972728494
 23
118.7328046001
 33
0.0
 14
189.1257939186
 24
106.167002107
 34
0.0
100
AcDbRotatedDimension
  0
DIMENSION
  5
427
330
1F
100
AcDbEntity
  8
0
  6
Continuous
 62
     7
370
     0
100
AcDbDimension
  2
_D_18
 10
189.1257939186
 20
55.7691116567
 30
0.0
 11
172.161533384
 21
55.7691116567
 31
0.0
 70
   160
  1
<>
 71
     2
 42
-1.0
  3
SLDDIMSTYLE0
100
AcDbAlignedDimension
 13
161.6972728494
 23
75.5828046001
 33
0.0
 14
189.1257939186
 24
86.9986070933
 34
0.0
100
AcDbRotatedDimension
  0
DIMENSION
  5
431
330
1F
100
AcDbEntity
  8
0
  6
Continuous
 62
     7
370
     0
100
AcDbDimension
  2
_D_19
 10
161.6972728494
 20
55.7691116567
 30
0.0
 11
147.1521031054
 21
55.7691116567
 31
0.0
 70
   160
  1
<>
 71
     2
 42
-1.0
  3
SLDDIMSTYLE0
100
AcDbAlignedDimension
 13
131.6972728494
 23
75.5828046001
 33
0.0
 14
161.6972728494
 24
75.5828046001
 34
0.0
100
AcDbRotatedDimension
  0
DIMENSION
  5
43B
330
1F
100
AcDbEntity
  8
0
  6
Continuous
 62
     7
370
     0
100
AcDbDimension
  2
_D_20
 10
155.1972728494
 20
64.5371413143
 30
0.0
 11
145.1972728494
 21
64.5371413143
 31
0.0
 70
   160
  1
<>
 71
     2
 42
-1.0
  3
SLDDIMSTYLE0
100
AcDbAlignedDimension
 13
135.1972728494
 23
92.4328046001
 33
0.0
 14
155.1972728494
 24
74.4328046001
 34
0.0
100
AcDbRotatedDimension
  0
DIMENSION
  5
445
330
1F
100
AcDbEntity
  8
0
  6
Continuous
 62
     7
370
     0
100
AcDbDimension
  2
_D_21
 10
144.1639384127
 20
86.4217672794
 30
0.0
 11
144.1639384127
 21
96.3211251183
 31
0.0
 70
   160
  1
<>
 71
     2
 42
-1.0
  3
SLDDIMSTYLE0
100
AcDbAlignedDimension
 13
149.0472728494
 23
106.4217672794
 33
0.0
 14
149.0472728494
 24
86.4217672794
 34
0.0
 50
90.0
100
AcDbRotatedDimension
  0
DIMENSION
  5
44F
330
1F
100
AcDbEntity
  8
0
  6
Continuous
 62
     7
370
     0
100
AcDbDimension
  2
_D_22
 10
130.4311491454
 20
78.5828046001
 30
0.0
 11
130.4311491454
 21
96.3211251183
 31
0.0
 70
   160
  1
<>
 71
     2
 42
-1.0
  3
SLDDIMSTYLE0
100
AcDbAlignedDimension
 13
151.0472728494
 23
114.5828046001
 33
0.0
 14
151.0472728494
 24
78.5828046001
 34
0.0
 50
90.0
100
AcDbRotatedDimension
  0
MTEXT
  5
459
330
1F
100
AcDbEntity
  8
0
  6
Continuous
 62
     7
370
     0
100
AcDbMText
 10
81.8826344185
 20
141.3567590256
 30
0.0
 40
3.5
 41
0.0
 71
     1
 72
     1
  1
6-M4 取付用
  7
SLDTEXTSTYLE0
 73
     1
 44
1.0
  0
LEADER
  5
45B
330
1F
100
AcDbEntity
  8
0
  6
Continuous
 62
     7
370
     0
100
AcDbLeader
  3
SLDDIMSTYLE3
 76
     3
 10
151.5488011911
 20
106.4927686297
 30
0.0
 10
109.4097303634
 20
136.8112543962
 30
0.0
 10
81.8288393904
 20
136.8112543962
 30
0.0
  0
MTEXT
  5
45C
330
1F
100
AcDbEntity
  8
0
  6
Continuous
 62
     7
370
     0
100
AcDbMText
 10
66.8012366636
 20
109.6234066498
 30
0.0
 40
3.5
 41
0.0
 71
     1
 72
     1
  1
ストローク調整
  7
SLDTEXTSTYLE0
 73
     1
 44
1.0
  0
LEADER
  5
45D
330
1F
100
AcDbEntity
  8
0
  6
Continuous
 62
     7
370
     0
100
AcDbLeader
  3
SLDDIMSTYLE2
 76
     3
 10
113.4438934363
 20
104.8501998555
 30
0.0
 10
95.2245017585
 20
105.041031653
 30
0.0
 10
66.7057444314
 20
105.041031653
 30
0.0
  0
INSERT
  5
469
330
1F
100
AcDbEntity
  8
0
  6
Continuous
 62
     7
370
     0
100
AcDbBlockReference
  2
SW_CENTERMARKSYMBOL_8
 10
155.1972728494
 20
114.5828046001
 30
0.0
  0
INSERT
  5
475
330
1F
100
AcDbEntity
  8
0
  6
Continuous
 62
     7
370
     0
100
AcDbBlockReference
  2
SW_CENTERMARKSYMBOL_9
 10
153.1972728494
 20
106.4217672794
 30
0.0
  0
INSERT
  5
481
330
1F
100
AcDbEntity
  8
0
  6
Continuous
 62
     7
370
     0
100
AcDbBlockReference
  2
SW_CENTERMARKSYMBOL_10
 10
155.1972728494
 20
96.5828046001
 30
0.0
  0
INSERT
  5
48D
330
1F
100
AcDbEntity
  8
0
  6
Continuous
 62
     7
370
     0
100
AcDbBlockReference
  2
SW_CENTERMARKSYMBOL_11
 10
153.1972728494
 20
86.4217672794
 30
0.0
  0
INSERT
  5
499
330
1F
100
AcDbEntity
  8
0
  6
Continuous
 62
     7
370
     0
100
AcDbBlockReference
  2
SW_CENTERMARKSYMBOL_12
 10
155.1972728494
 20
78.5828046001
 30
0.0
  0
INSERT
  5
4A5
330
1F
100
AcDbEntity
  8
0
  6
Continuous
 62
     7
370
     0
100
AcDbBlockReference
  2
SW_CENTERMARKSYMBOL_13
 10
135.1972728494
 20
96.5828046001
 30
0.0
  0
ENDSEC
  0
SECTION
  2
OBJECTS
  0
DICTIONARY
  5
C
330
0
100
AcDbDictionary
281
     1
  3
ACAD_GROUP
350
D
  3
ACAD_LAYOUT
350
1A
  3
ACAD_MLINESTYLE
350
17
  3
ACAD_PLOTSETTINGS
350
19
  3
ACAD_PLOTSTYLENAME
350
E
  0
DICTIONARY
  5
D
102
{ACAD_REACTORS
330
C
102
}
330
C
100
AcDbDictionary
281
     1
  0
DICTIONARY
  5
1A
102
{ACAD_REACTORS
330
C
102
}
330
C
100
AcDbDictionary
281
     1
  3
Layout1
350
1E
  3
Layout2
350
26
  3
Model
350
22
  0
DICTIONARY
  5
17
102
{ACAD_REACTORS
330
C
102
}
330
C
100
AcDbDictionary
281
     1
  3
Standard
350
18
  0
DICTIONARY
  5
19
102
{ACAD_REACTORS
330
C
102
}
330
C
100
AcDbDictionary
281
     1
  0
ACDBDICTIONARYWDFLT
  5
E
102
{ACAD_REACTORS
330
C
102
}
330
C
100
AcDbDictionary
281
     1
  3
Normal
350
F
100
AcDbDictionaryWithDefault
340
F
  0
LAYOUT
  5
1E
102
{ACAD_REACTORS
330
1A
102
}
330
1A
100
AcDbPlotSettings
  1

  2
none_device
  4

  6

 40
0.0
 41
0.0
 42
0.0
 43
0.0
 44
0.0
 45
0.0
 46
0.0
 47
0.0
 48
0.0
 49
0.0
140
0.0
141
0.0
142
1.0
143
1.0
 70
   688
 72
     0
 73
     0
 74
     5
  7

 75
    16
147
1.0
148
0.0
149
0.0
100
AcDbLayout
  1
Layout1
 70
     1
 71
     1
 10
0.0
 20
0.0
 11
420.0
 21
297.0
 12
0.0
 22
0.0
 32
0.0
 14
1.0000000000E+20
 24
1.0000000000E+20
 34
1.0000000000E+20
 15
-1.0000000000E+20
 25
-1.0000000000E+20
 35
-1.0000000000E+20
146
0.0
 13
0.0
 23
0.0
 33
0.0
 16
1.0
 26
0.0
 36
0.0
 17
0.0
 27
1.0
 37
0.0
 76
     0
330
1B
  0
LAYOUT
  5
26
102
{ACAD_REACTORS
330
1A
102
}
330
1A
100
AcDbPlotSettings
  1

  2
none_device
  4

  6

 40
0.0
 41
0.0
 42
0.0
 43
0.0
 44
0.0
 45
0.0
 46
0.0
 47
0.0
 48
0.0
 49
0.0
140
0.0
141
0.0
142
1.0
143
1.0
 70
   688
 72
     0
 73
     0
 74
     5
  7

 75
    16
147
1.0
148
0.0
149
0.0
100
AcDbLayout
  1
Layout2
 70
     1
 71
     2
 10
0.0
 20
0.0
 11
0.0
 21
0.0
 12
0.0
 22
0.0
 32
0.0
 14
0.0
 24
0.0
 34
0.0
 15
0.0
 25
0.0
 35
0.0
146
0.0
 13
0.0
 23
0.0
 33
0.0
 16
1.0
 26
0.0
 36
0.0
 17
0.0
 27
1.0
 37
0.0
 76
     0
330
23
  0
LAYOUT
  5
22
102
{ACAD_REACTORS
330
1A
102
}
330
1A
100
AcDbPlotSettings
  1

  2
none_device
  4

  6

 40
0.0
 41
0.0
 42
0.0
 43
0.0
 44
0.0
 45
0.0
 46
0.0
 47
0.0
 48
0.0
 49
0.0
140
0.0
141
0.0
142
1.0
143
1.0
 70
  1712
 72
     0
 73
     0
 74
     0
  7

 75
     0
147
1.0
148
0.0
149
0.0
100
AcDbLayout
  1
Model
 70
     1
 71
     0
 10
0.0
 20
0.0
 11
210.0
 21
297.0
 12
0.0
 22
0.0
 32
0.0
 14
0.0
 24
0.0
 34
0.0
 15
210.0
 25
297.0
 35
0.0
146
0.0
 13
0.0
 23
0.0
 33
0.0
 16
1.0
 26
0.0
 36
0.0
 17
0.0
 27
1.0
 37
0.0
 76
     0
330
1F
331
29
  0
MLINESTYLE
  5
18
102
{ACAD_REACTORS
330
17
102
}
330
17
100
AcDbMlineStyle
  2
Standard
 70
     0
  3

 62
   256
 51
90.0
 52
90.0
 71
     2
 49
0.5
 62
   256
  6
BYLAYER
 49
-0.5
 62
   256
  6
BYLAYER
  0
ACDBPLACEHOLDER
  5
F
102
{ACAD_REACTORS
330
E
102
}
330
E
  0
ENDSEC
  0
EOF
