  0
SECTION
  2
HEADER
  9
$ACADVER
  1
AC1015
  9
$ACADMAINTVER
 70
     6
  9
$DWGCODEPAGE
  3
DOS932
  9
$INSBASE
 10
0.0
 20
0.0
 30
0.0
  9
$EXTMIN
 10
0.0
 20
0.0
 30
0.0
  9
$EXTMAX
 10
210.0
 20
297.0
 30
0.0
  9
$LIMMIN
 10
0.0
 20
0.0
  9
$LIMMAX
 10
210.0
 20
297.0
  9
$ORTHOMODE
 70
     0
  9
$REGENMODE
 70
     1
  9
$FILLMODE
 70
     1
  9
$QTEXTMODE
 70
     0
  9
$MIRRTEXT
 70
     1
  9
$LTSCALE
 40
1.0
  9
$ATTMODE
 70
     1
  9
$TEXTSIZE
 40
3.5
  9
$TRACEWID
 40
1.0
  9
$TEXTSTYLE
  7
Standard
  9
$CLAYER
  8
0
  9
$CELTYPE
  6
ByLayer
  9
$CECOLOR
 62
   256
  9
$CELTSCALE
 40
1.0
  9
$DISPSILH
 70
     0
  9
$DIMSCALE
 40
1.0
  9
$DIMASZ
 40
3.302
  9
$DIMEXO
 40
1.0
  9
$DIMDLI
 40
3.75
  9
$DIMRND
 40
0.0
  9
$DIMDLE
 40
0.0
  9
$DIMEXE
 40
1.0
  9
$DIMTP
 40
0.0
  9
$DIMTM
 40
0.0
  9
$DIMTXT
 40
3.5
  9
$DIMCEN
 40
2.5
  9
$DIMTSZ
 40
0.0
  9
$DIMTOL
 70
     0
  9
$DIMLIM
 70
     0
  9
$DIMTIH
 70
     1
  9
$DIMTOH
 70
     1
  9
$DIMSE1
 70
     0
  9
$DIMSE2
 70
     0
  9
$DIMTAD
 70
     1
  9
$DIMZIN
 70
     0
  9
$DIMBLK
  1

  9
$DIMASO
 70
     1
  9
$DIMSHO
 70
     1
  9
$DIMPOST
  1

  9
$DIMAPOST
  1

  9
$DIMALT
 70
     0
  9
$DIMALTD
 70
     3
  9
$DIMALTF
 40
0.0393700787
  9
$DIMLFAC
 40
1.0
  9
$DIMTOFL
 70
     1
  9
$DIMTVP
 40
0.0
  9
$DIMTIX
 70
     0
  9
$DIMSOXD
 70
     0
  9
$DIMSAH
 70
     0
  9
$DIMBLK1
  1

  9
$DIMBLK2
  1

  9
$DIMSTYLE
  2
ISO-25
  9
$DIMCLRD
 70
     0
  9
$DIMCLRE
 70
     0
  9
$DIMCLRT
 70
     0
  9
$DIMTFAC
 40
1.0
  9
$DIMGAP
 40
1.524
  9
$DIMJUST
 70
     0
  9
$DIMSD1
 70
     0
  9
$DIMSD2
 70
     0
  9
$DIMTOLJ
 70
     0
  9
$DIMTZIN
 70
     0
  9
$DIMALTZ
 70
     0
  9
$DIMALTTZ
 70
     0
  9
$DIMUPT
 70
     0
  9
$DIMDEC
 70
     2
  9
$DIMTDEC
 70
     2
  9
$DIMALTU
 70
     2
  9
$DIMALTTD
 70
     3
  9
$DIMTXSTY
  7
Standard
  9
$DIMAUNIT
 70
     0
  9
$DIMADEC
 70
     2
  9
$DIMALTRND
 40
0.0
  9
$DIMAZIN
 70
     0
  9
$DIMDSEP
 70
    44
  9
$DIMATFIT
 70
     3
  9
$DIMFRAC
 70
     0
  9
$DIMLDRBLK
  1

  9
$DIMLUNIT
 70
     2
  9
$DIMLWD
 70
    -2
  9
$DIMLWE
 70
    -2
  9
$DIMTMOVE
 70
     0
  9
$LUNITS
 70
     2
  9
$LUPREC
 70
     2
  9
$SKETCHINC
 40
1.0
  9
$FILLETRAD
 40
10.0
  9
$AUNITS
 70
     0
  9
$AUPREC
 70
     2
  9
$MENU
  1
.
  9
$ELEVATION
 40
0.0
  9
$PELEVATION
 40
0.0
  9
$THICKNESS
 40
0.0
  9
$LIMCHECK
 70
     0
  9
$CHAMFERA
 40
10.0
  9
$CHAMFERB
 40
10.0
  9
$CHAMFERC
 40
20.0
  9
$CHAMFERD
 40
0.0
  9
$SKPOLY
 70
     0
  9
$TDCREATE
 40
2456892.561257789
  9
$TDUCREATE
 40
2456892.186257789
  9
$TDUPDATE
 40
2456892.561261227
  9
$TDUUPDATE
 40
2456892.186261227
  9
$TDINDWG
 40
0.0000000116
  9
$TDUSRTIMER
 40
0.0000000116
  9
$USRTIMER
 70
     1
  9
$ANGBASE
 50
0.0
  9
$ANGDIR
 70
     0
  9
$PDMODE
 70
     0
  9
$PDSIZE
 40
-1.0
  9
$PLINEWID
 40
0.0
  9
$SPLFRAME
 70
     0
  9
$SPLINETYPE
 70
     6
  9
$SPLINESEGS
 70
     8
  9
$HANDSEED
  5
4B4
  9
$SURFTAB1
 70
     6
  9
$SURFTAB2
 70
     6
  9
$SURFTYPE
 70
     6
  9
$SURFU
 70
     6
  9
$SURFV
 70
     6
  9
$UCSBASE
  2

  9
$UCSNAME
  2

  9
$UCSORG
 10
0.0
 20
0.0
 30
0.0
  9
$UCSXDIR
 10
1.0
 20
0.0
 30
0.0
  9
$UCSYDIR
 10
0.0
 20
1.0
 30
0.0
  9
$UCSORTHOREF
  2

  9
$UCSORTHOVIEW
 70
     0
  9
$UCSORGTOP
 10
0.0
 20
0.0
 30
0.0
  9
$UCSORGBOTTOM
 10
0.0
 20
0.0
 30
0.0
  9
$UCSORGLEFT
 10
0.0
 20
0.0
 30
0.0
  9
$UCSORGRIGHT
 10
0.0
 20
0.0
 30
0.0
  9
$UCSORGFRONT
 10
0.0
 20
0.0
 30
0.0
  9
$UCSORGBACK
 10
0.0
 20
0.0
 30
0.0
  9
$PUCSBASE
  2

  9
$PUCSNAME
  2

  9
$PUCSORG
 10
0.0
 20
0.0
 30
0.0
  9
$PUCSXDIR
 10
1.0
 20
0.0
 30
0.0
  9
$PUCSYDIR
 10
0.0
 20
1.0
 30
0.0
  9
$PUCSORTHOREF
  2

  9
$PUCSORTHOVIEW
 70
     0
  9
$PUCSORGTOP
 10
0.0
 20
0.0
 30
0.0
  9
$PUCSORGBOTTOM
 10
0.0
 20
0.0
 30
0.0
  9
$PUCSORGLEFT
 10
0.0
 20
0.0
 30
0.0
  9
$PUCSORGRIGHT
 10
0.0
 20
0.0
 30
0.0
  9
$PUCSORGFRONT
 10
0.0
 20
0.0
 30
0.0
  9
$PUCSORGBACK
 10
0.0
 20
0.0
 30
0.0
  9
$USERI1
 70
     0
  9
$USERI2
 70
     0
  9
$USERI3
 70
     0
  9
$USERI4
 70
     0
  9
$USERI5
 70
     0
  9
$USERR1
 40
0.0
  9
$USERR2
 40
0.0
  9
$USERR3
 40
0.0
  9
$USERR4
 40
0.0
  9
$USERR5
 40
0.0
  9
$WORLDVIEW
 70
     1
  9
$SHADEDGE
 70
     3
  9
$SHADEDIF
 70
    70
  9
$TILEMODE
 70
     1
  9
$MAXACTVP
 70
    64
  9
$PINSBASE
 10
0.0
 20
0.0
 30
0.0
  9
$PLIMCHECK
 70
     0
  9
$PEXTMIN
 10
1.0000000000E+20
 20
1.0000000000E+20
 30
1.0000000000E+20
  9
$PEXTMAX
 10
-1.0000000000E+20
 20
-1.0000000000E+20
 30
-1.0000000000E+20
  9
$PLIMMIN
 10
0.0
 20
0.0
  9
$PLIMMAX
 10
420.0
 20
297.0
  9
$UNITMODE
 70
     0
  9
$VISRETAIN
 70
     1
  9
$PLINEGEN
 70
     0
  9
$PSLTSCALE
 70
     1
  9
$TREEDEPTH
 70
  3020
  9
$CMLSTYLE
  2
Standard
  9
$CMLJUST
 70
     0
  9
$CMLSCALE
 40
20.0
  9
$PROXYGRAPHICS
 70
     1
  9
$MEASUREMENT
 70
     1
  9
$CELWEIGHT
370
    -1
  9
$ENDCAPS
280
     0
  9
$JOINSTYLE
280
     0
  9
$LWDISPLAY
290
     1
  9
$INSUNITS
 70
     4
  9
$HYPERLINKBASE
  1

  9
$STYLESHEET
  1

  9
$XEDIT
290
     1
  9
$CEPSNTYPE
380
     0
  9
$PSTYLEMODE
290
     1
  9
$FINGERPRINTGUID
  2
{FE5B8788-334E-4E7D-BDB2-BE71F9CAD7FF}
  9
$VERSIONGUID
  2
{FAEB1C32-E019-11D5-929B-00C0DF256EC4}
  9
$EXTNAMES
290
     1
  9
$PSVPSCALE
 40
0.0
  9
$OLESTARTUP
290
     0
  0
ENDSEC
  0
SECTION
  2
CLASSES
  0
CLASS
  1
ACDBDICTIONARYWDFLT
  2
AcDbDictionaryWithDefault
  3
ObjectDBX Classes
 90
        0
280
     0
281
     0
  0
CLASS
  1
VISUALSTYLE
  2
AcDbVisualStyle
  3
ObjectDBX Classes
 90
     4095
280
     0
281
     0
  0
CLASS
  1
MATERIAL
  2
AcDbMaterial
  3
ObjectDBX Classes
 90
     1153
280
     0
281
     0
  0
CLASS
  1
ACDBPLACEHOLDER
  2
AcDbPlaceHolder
  3
ObjectDBX Classes
 90
        0
280
     0
281
     0
  0
CLASS
  1
LAYOUT
  2
AcDbLayout
  3
ObjectDBX Classes
 90
        0
280
     0
281
     0
  0
ENDSEC
  0
SECTION
  2
TABLES
  0
TABLE
  2
VPORT
  5
8
330
0
100
AcDbSymbolTable
 70
     1
  0
VPORT
  5
29
330
8
100
AcDbSymbolTableRecord
100
AcDbViewportTableRecord
  2
*Active
 70
     0
 10
0.0
 20
0.0
 11
1.0
 21
1.0
 12
105.0
 22
148.5
 13
0.0
 23
0.0
 14
10.0
 24
10.0
 15
10.0
 25
10.0
 16
0.0
 26
0.0
 36
1.0
 17
0.0
 27
0.0
 37
0.0
 40
297.0
 41
0.7070707071
 42
50.0
 43
0.0
 44
0.0
 50
0.0
 51
0.0
 71
     0
 72
  2000
 73
     1
 74
     3
 75
     0
 76
     0
 77
     0
 78
     0
281
     0
 65
     1
110
0.0
120
0.0
130
0.0
111
1.0
121
0.0
131
0.0
112
0.0
122
1.0
132
0.0
 79
     0
146
0.0
  0
ENDTAB
  0
TABLE
  2
LTYPE
  5
5
330
0
100
AcDbSymbolTable
 70
     6
  0
LTYPE
  5
14
330
5
100
AcDbSymbolTableRecord
100
AcDbLinetypeTableRecord
  2
ByBlock
 70
     0
  3

 72
    65
 73
     0
 40
0.0
  0
LTYPE
  5
15
330
5
100
AcDbSymbolTableRecord
100
AcDbLinetypeTableRecord
  2
ByLayer
 70
     0
  3

 72
    65
 73
     0
 40
0.0
  0
LTYPE
  5
16
330
5
100
AcDbSymbolTableRecord
100
AcDbLinetypeTableRecord
  2
Continuous
 70
     0
  3
Solid line
 72
    65
 73
     0
 40
0.0
  0
LTYPE
  5
3F
330
5
100
AcDbSymbolTableRecord
100
AcDbLinetypeTableRecord
  2
HIDDEN
 70
     0
  3
Hidden __ __ __ __ __ __ __ __ __ __ __ __ __ __
 72
    65
 73
     2
 40
1.905
 49
1.27
 74
     0
 49
-0.635
 74
     0
  0
LTYPE
  5
40
330
5
100
AcDbSymbolTableRecord
100
AcDbLinetypeTableRecord
  2
PHANTOM
 70
     0
  3
Phantom ______  __  __  ______  __  __  ______
 72
    65
 73
     6
 40
12.7
 49
6.35
 74
     0
 49
-1.27
 74
     0
 49
1.27
 74
     0
 49
-1.27
 74
     0
 49
1.27
 74
     0
 49
-1.27
 74
     0
  0
LTYPE
  5
41
330
5
100
AcDbSymbolTableRecord
100
AcDbLinetypeTableRecord
  2
CENTER
 70
     0
  3
Center ____ _ ____ _ ____ _ ____ _ ____ _ ____
 72
    65
 73
     4
 40
10.16
 49
6.35
 74
     0
 49
-1.27
 74
     0
 49
1.27
 74
     0
 49
-1.27
 74
     0
  0
LTYPE
  5
42
330
5
100
AcDbSymbolTableRecord
100
AcDbLinetypeTableRecord
  2
CENTERX2
 70
     0
  3
Center (2x) ________  __  ________  __  _____
 72
    65
 73
     4
 40
20.32
 49
12.7
 74
     0
 49
-2.54
 74
     0
 49
2.54
 74
     0
 49
-2.54
 74
     0
  0
LTYPE
  5
43
330
5
100
AcDbSymbolTableRecord
100
AcDbLinetypeTableRecord
  2
DOT2
 70
     0
  3
Dot (.5x) ........................................
 72
    65
 73
     2
 40
0.635
 49
0.0
 74
     0
 49
-0.635
 74
     0
  0
ENDTAB
  0
TABLE
  2
LAYER
  5
2
330
0
100
AcDbSymbolTable
 70
     1
  0
LAYER
  5
10
330
2
100
AcDbSymbolTableRecord
100
AcDbLayerTableRecord
  2
0
 70
     0
 62
     7
  6
Continuous
370
    -3
390
F
  0
ENDTAB
  0
TABLE
  2
STYLE
  5
3
330
0
100
AcDbSymbolTable
 70
     3
  0
STYLE
  5
11
330
3
100
AcDbSymbolTableRecord
100
AcDbTextStyleTableRecord
  2
Standard
 70
     0
 40
0.0
 41
1.0
 50
0.0
 71
     0
 42
3.5
  3
txt
  4
bigfont
  0
STYLE
  5
4C
330
3
100
AcDbSymbolTableRecord
100
AcDbTextStyleTableRecord
  2
SLDTEXTSTYLE0
 70
     0
 40
0.0
 41
0.75
 50
0.0
 71
     0
 42
0.2
  3
TXT
  4
bigfont
  0
STYLE
  5
4F
330
3
100
AcDbSymbolTableRecord
100
AcDbTextStyleTableRecord
  2
SLDTEXTSTYLE1
 70
     0
 40
0.0
 41
0.7
 50
0.0
 71
     0
 42
0.2
  3
TXT
  4
bigfont
  0
ENDTAB
  0
TABLE
  2
VIEW
  5
6
330
0
100
AcDbSymbolTable
 70
     0
  0
ENDTAB
  0
TABLE
  2
UCS
  5
7
330
0
100
AcDbSymbolTable
 70
     0
  0
ENDTAB
  0
TABLE
  2
APPID
  5
9
330
0
100
AcDbSymbolTable
 70
     1
  0
APPID
  5
12
330
9
100
AcDbSymbolTableRecord
100
AcDbRegAppTableRecord
  2
ACAD
 70
     0
  0
ENDTAB
  0
TABLE
  2
DIMSTYLE
  5
A
330
0
100
AcDbSymbolTable
 70
     5
100
AcDbDimStyleTable
  0
DIMSTYLE
105
27
330
A
100
AcDbSymbolTableRecord
100
AcDbDimStyleTableRecord
  2
ISO-25
 70
     0
 41
2.5
 42
0.625
 43
3.75
 44
1.25
 73
     0
 74
     0
 77
     1
 78
     8
140
2.5
141
2.5
143
0.0393700787
147
0.625
171
     3
172
     1
178
     0
271
     2
272
     2
274
     3
278
    44
283
     0
284
     8
340
11
  0
DIMSTYLE
105
162
102
{ACAD_REACTORS
330
161
330
19C
330
2FB
330
307
330
445
102
}
330
A
100
AcDbSymbolTableRecord
100
AcDbDimStyleTableRecord
  2
SLDDIMSTYLE0
 70
     0
 41
3.302
 44
0.0
 45
0.000000001
 73
     0
 74
     0
 77
     3
 78
    12
 79
     3
140
3.5
147
0.875
172
     1
173
     1
178
     0
271
     1
272
     2
276
     2
284
    12
289
     0
340
4C
  0
DIMSTYLE
105
170
102
{ACAD_REACTORS
330
16F
330
17A
330
186
330
190
330
1A8
330
1B2
330
2E7
330
2F1
330
313
330
31F
330
329
330
413
330
41D
330
427
330
431
330
43B
330
451
330
45B
102
}
330
A
100
AcDbSymbolTableRecord
100
AcDbDimStyleTableRecord
  2
SLDDIMSTYLE1
 70
     0
 41
3.302
 44
0.0
 45
0.000000001
 73
     0
 74
     0
 77
     3
 78
    12
 79
     3
140
3.5
147
0.875
173
     1
178
     0
271
     1
272
     2
276
     2
284
    12
340
4C
  0
DIMSTYLE
105
466
330
A
100
AcDbSymbolTableRecord
100
AcDbDimStyleTableRecord
  2
SLDDIMSTYLE2
 70
     0
 41
3.0
 44
0.0
 45
0.000000001
140
0.0
146
3.0
147
0.0
173
     1
178
     0
271
     0
272
     0
276
     2
340
11
341
1D3
343
1D3
344
1D3
  0
DIMSTYLE
105
469
330
A
100
AcDbSymbolTableRecord
100
AcDbDimStyleTableRecord
  2
SLDDIMSTYLE3
 70
     0
 41
3.302
 44
0.0
 45
0.000000001
140
0.0
146
3.302
147
0.0
173
     1
178
     0
271
     0
272
     0
276
     2
340
11
  0
ENDTAB
  0
TABLE
  2
BLOCK_RECORD
  5
1
330
0
100
AcDbSymbolTable
 70
    41
  0
BLOCK_RECORD
  5
1F
330
1
100
AcDbSymbolTableRecord
100
AcDbBlockTableRecord
  2
*Model_Space
340
22
  0
BLOCK_RECORD
  5
1B
330
1
100
AcDbSymbolTableRecord
100
AcDbBlockTableRecord
  2
*Paper_Space
340
1E
  0
BLOCK_RECORD
  5
23
330
1
100
AcDbSymbolTableRecord
100
AcDbBlockTableRecord
  2
*Paper_Space0
340
26
  0
BLOCK_RECORD
  5
163
330
1
100
AcDbSymbolTableRecord
100
AcDbBlockTableRecord
  2
_D
340
0
  0
BLOCK_RECORD
  5
171
330
1
100
AcDbSymbolTableRecord
100
AcDbBlockTableRecord
  2
_D_1
340
0
  0
BLOCK_RECORD
  5
17B
330
1
100
AcDbSymbolTableRecord
100
AcDbBlockTableRecord
  2
_D_2
340
0
  0
BLOCK_RECORD
  5
187
330
1
100
AcDbSymbolTableRecord
100
AcDbBlockTableRecord
  2
_D_3
340
0
  0
BLOCK_RECORD
  5
191
330
1
100
AcDbSymbolTableRecord
100
AcDbBlockTableRecord
  2
_D_4
340
0
  0
BLOCK_RECORD
  5
19D
330
1
100
AcDbSymbolTableRecord
100
AcDbBlockTableRecord
  2
_D_5
340
0
  0
BLOCK_RECORD
  5
1A9
330
1
100
AcDbSymbolTableRecord
100
AcDbBlockTableRecord
  2
_D_6
340
0
  0
BLOCK_RECORD
  5
1B3
330
1
100
AcDbSymbolTableRecord
100
AcDbBlockTableRecord
  2
_D_7
340
0
  0
BLOCK_RECORD
  5
1BD
330
1
100
AcDbSymbolTableRecord
100
AcDbBlockTableRecord
  2
SW_NOTE_0
340
0
102
{BLKREFS
331
1C7
102
}
  0
BLOCK_RECORD
  5
1C8
330
1
100
AcDbSymbolTableRecord
100
AcDbBlockTableRecord
  2
SW_NOTE_1
340
0
102
{BLKREFS
331
1D2
102
}
  0
BLOCK_RECORD
  5
1D3
330
1
100
AcDbSymbolTableRecord
100
AcDbBlockTableRecord
  2
_DOT
340
0
102
{BLKREFS
331
1DB
331
1DD
102
}
  0
BLOCK_RECORD
  5
2E8
330
1
100
AcDbSymbolTableRecord
100
AcDbBlockTableRecord
  2
_D_8
340
0
  0
BLOCK_RECORD
  5
2F2
330
1
100
AcDbSymbolTableRecord
100
AcDbBlockTableRecord
  2
_D_9
340
0
  0
BLOCK_RECORD
  5
2FC
330
1
100
AcDbSymbolTableRecord
100
AcDbBlockTableRecord
  2
_D_10
340
0
  0
BLOCK_RECORD
  5
308
330
1
100
AcDbSymbolTableRecord
100
AcDbBlockTableRecord
  2
_D_11
340
0
  0
BLOCK_RECORD
  5
314
330
1
100
AcDbSymbolTableRecord
100
AcDbBlockTableRecord
  2
_D_12
340
0
  0
BLOCK_RECORD
  5
320
330
1
100
AcDbSymbolTableRecord
100
AcDbBlockTableRecord
  2
_D_13
340
0
  0
BLOCK_RECORD
  5
32A
330
1
100
AcDbSymbolTableRecord
100
AcDbBlockTableRecord
  2
_D_14
340
0
  0
BLOCK_RECORD
  5
333
330
1
100
AcDbSymbolTableRecord
100
AcDbBlockTableRecord
  2
SW_CENTERMARKSYMBOL_0
340
0
102
{BLKREFS
331
33E
102
}
  0
BLOCK_RECORD
  5
33F
330
1
100
AcDbSymbolTableRecord
100
AcDbBlockTableRecord
  2
SW_CENTERMARKSYMBOL_1
340
0
102
{BLKREFS
331
34A
102
}
  0
BLOCK_RECORD
  5
34B
330
1
100
AcDbSymbolTableRecord
100
AcDbBlockTableRecord
  2
SW_CENTERMARKSYMBOL_2
340
0
102
{BLKREFS
331
356
102
}
  0
BLOCK_RECORD
  5
357
330
1
100
AcDbSymbolTableRecord
100
AcDbBlockTableRecord
  2
SW_CENTERMARKSYMBOL_3
340
0
102
{BLKREFS
331
362
102
}
  0
BLOCK_RECORD
  5
363
330
1
100
AcDbSymbolTableRecord
100
AcDbBlockTableRecord
  2
SW_CENTERMARKSYMBOL_4
340
0
102
{BLKREFS
331
36E
102
}
  0
BLOCK_RECORD
  5
36F
330
1
100
AcDbSymbolTableRecord
100
AcDbBlockTableRecord
  2
SW_CENTERMARKSYMBOL_5
340
0
102
{BLKREFS
331
37A
102
}
  0
BLOCK_RECORD
  5
37B
330
1
100
AcDbSymbolTableRecord
100
AcDbBlockTableRecord
  2
SW_CENTERMARKSYMBOL_6
340
0
102
{BLKREFS
331
386
102
}
  0
BLOCK_RECORD
  5
387
330
1
100
AcDbSymbolTableRecord
100
AcDbBlockTableRecord
  2
SW_CENTERMARKSYMBOL_7
340
0
102
{BLKREFS
331
392
102
}
  0
BLOCK_RECORD
  5
414
330
1
100
AcDbSymbolTableRecord
100
AcDbBlockTableRecord
  2
_D_15
340
0
  0
BLOCK_RECORD
  5
41E
330
1
100
AcDbSymbolTableRecord
100
AcDbBlockTableRecord
  2
_D_16
340
0
  0
BLOCK_RECORD
  5
428
330
1
100
AcDbSymbolTableRecord
100
AcDbBlockTableRecord
  2
_D_17
340
0
  0
BLOCK_RECORD
  5
432
330
1
100
AcDbSymbolTableRecord
100
AcDbBlockTableRecord
  2
_D_18
340
0
  0
BLOCK_RECORD
  5
43C
330
1
100
AcDbSymbolTableRecord
100
AcDbBlockTableRecord
  2
_D_19
340
0
  0
BLOCK_RECORD
  5
446
330
1
100
AcDbSymbolTableRecord
100
AcDbBlockTableRecord
  2
_D_20
340
0
  0
BLOCK_RECORD
  5
452
330
1
100
AcDbSymbolTableRecord
100
AcDbBlockTableRecord
  2
_D_21
340
0
  0
BLOCK_RECORD
  5
45C
330
1
100
AcDbSymbolTableRecord
100
AcDbBlockTableRecord
  2
_D_22
340
0
  0
BLOCK_RECORD
  5
46B
330
1
100
AcDbSymbolTableRecord
100
AcDbBlockTableRecord
  2
SW_CENTERMARKSYMBOL_8
340
0
102
{BLKREFS
331
476
102
}
  0
BLOCK_RECORD
  5
477
330
1
100
AcDbSymbolTableRecord
100
AcDbBlockTableRecord
  2
SW_CENTERMARKSYMBOL_9
340
0
102
{BLKREFS
331
482
102
}
  0
BLOCK_RECORD
  5
483
330
1
100
AcDbSymbolTableRecord
100
AcDbBlockTableRecord
  2
SW_CENTERMARKSYMBOL_10
340
0
102
{BLKREFS
331
48E
102
}
  0
BLOCK_RECORD
  5
48F
330
1
100
AcDbSymbolTableRecord
100
AcDbBlockTableRecord
  2
SW_CENTERMARKSYMBOL_11
340
0
102
{BLKREFS
331
49A
102
}
  0
BLOCK_RECORD
  5
49B
330
1
100
AcDbSymbolTableRecord
100
AcDbBlockTableRecord
  2
SW_CENTERMARKSYMBOL_12
340
0
102
{BLKREFS
331
4A6
102
}
  0
BLOCK_RECORD
  5
4A7
330
1
100
AcDbSymbolTableRecord
100
AcDbBlockTableRecord
  2
SW_CENTERMARKSYMBOL_13
340
0
102
{BLKREFS
331
4B2
102
}
  0
ENDTAB
  0
ENDSEC
  0
SECTION
  2
BLOCKS
  0
BLOCK
  5
20
330
1F
100
AcDbEntity
  8
0
100
AcDbBlockBegin
  2
*Model_Space
 70
     0
 10
0.0
 20
0.0
 30
0.0
  3
*Model_Space
  1

  0
ENDBLK
  5
21
330
1F
100
AcDbEntity
  8
0
100
AcDbBlockEnd
  0
BLOCK
  5
1C
330
1B
100
AcDbEntity
 67
     1
  8
0
100
AcDbBlockBegin
  2
*Paper_Space
 70
     0
 10
0.0
 20
0.0
 30
0.0
  3
*Paper_Space
  1

  0
ENDBLK
  5
1D
330
1B
100
AcDbEntity
 67
     1
  8
0
100
AcDbBlockEnd
  0
BLOCK
  5
24
330
23
100
AcDbEntity
  8
0
100
AcDbBlockBegin
  2
*Paper_Space0
 70
     0
 10
0.0
 20
0.0
 30
0.0
  3
*Paper_Space0
  1

  0
ENDBLK
  5
25
330
23
100
AcDbEntity
  8
0
100
AcDbBlockEnd
  0
BLOCK
  5
164
330
163
100
AcDbEntity
  8
0
100
AcDbBlockBegin
  2
_D
 70
     0
 10
0.0
 20
0.0
 30
0.0
  3
_D
  1

  0
SOLID
  5
166
330
163
100
AcDbEntity
  8
0
  6
Continuous
 62
     7
370
     0
100
AcDbTrace
 10
188.7352696256
 20
250.2963163423
 30
0.0
 11
186.7352696256
 21
251.0463163423
 31
0.0
 12
186.7352696256
 22
249.5463163423
 32
0.0
 13
186.7352696256
 23
249.5463163423
 33
0.0
  0
SOLID
  5
167
330
163
100
AcDbEntity
  8
0
  6
Continuous
 62
     7
370
     0
100
AcDbTrace
 10
191.7352696256
 20
250.2963163423
 30
0.0
 11
193.7352696256
 21
249.5463163423
 31
0.0
 12
193.7352696256
 22
251.0463163423
 32
0.0
 13
193.7352696256
 23
251.0463163423
 33
0.0
  0
LINE
  5
168
330
163
100
AcDbEntity
  8
0
  6
Continuous
 62
     7
370
     0
100
AcDbLine
 10
188.7352696256
 20
241.2963163423
 30
0.0
 11
188.7352696256
 21
251.2963163423
 31
0.0
  0
LINE
  5
169
330
163
100
AcDbEntity
  8
0
  6
Continuous
 62
     7
370
     0
100
AcDbLine
 10
191.7352696256
 20
241.2963163423
 30
0.0
 11
191.7352696256
 21
251.2963163423
 31
0.0
  0
LINE
  5
16A
330
163
100
AcDbEntity
  8
0
  6
Continuous
 62
     7
370
     0
100
AcDbLine
 10
188.7352696256
 20
250.2963163423
 30
0.0
 11
113.4618413445
 21
250.2963163423
 31
0.0
  0
LINE
  5
16B
330
163
100
AcDbEntity
  8
0
  6
Continuous
 62
     7
370
     0
100
AcDbLine
 10
188.7352696256
 20
250.2963163423
 30
0.0
 11
191.7352696256
 21
250.2963163423
 31
0.0
  0
LINE
  5
16C
330
163
100
AcDbEntity
  8
0
  6
Continuous
 62
     7
370
     0
100
AcDbLine
 10
191.7352696256
 20
250.2963163423
 30
0.0
 11
196.7352696256
 21
250.2963163423
 31
0.0
  0
MTEXT
  5
16D
330
163
100
AcDbEntity
  8
0
  6
Continuous
 62
     7
370
     0
100
AcDbMText
 10
113.4618413445
 20
254.8080532568
 30
0.1
 40
3.5
 41
0.0
 71
     1
 72
     1
  1
Maxストローク
  7
SLDTEXTSTYLE0
 73
     1
 44
1.0
  0
MTEXT
  5
16E
330
163
100
AcDbEntity
  8
0
  6
Continuous
 62
     7
370
     0
100
AcDbMText
 10
142.6528137919
 20
254.8080532568
 30
0.1
 40
3.5
 41
0.0
 71
     1
 72
     1
  1
3
  7
SLDTEXTSTYLE0
 73
     1
 44
1.0
  0
ENDBLK
  5
165
330
163
100
AcDbEntity
  8
0
100
AcDbBlockEnd
  0
BLOCK
  5
172
330
171
100
AcDbEntity
  8
0
100
AcDbBlockBegin
  2
_D_1
 70
     0
 10
0.0
 20
0.0
 30
0.0
  3
_D_1
  1

  0
SOLID
  5
174
330
171
100
AcDbEntity
  8
0
  6
Continuous
 62
     7
370
     0
100
AcDbTrace
 10
195.9633701545
 20
240.2963163423
 30
0.0
 11
195.2133701545
 21
238.2963163423
 31
0.0
 12
196.7133701545
 22
238.2963163423
 32
0.0
 13
196.7133701545
 23
238.2963163423
 33
0.0
  0
SOLID
  5
175
330
171
100
AcDbEntity
  8
0
  6
Continuous
 62
     7
370
     0
100
AcDbTrace
 10
195.9633701545
 20
156.2963163423
 30
0.0
 11
196.7133701545
 21
158.2963163423
 31
0.0
 12
195.2133701545
 22
158.2963163423
 32
0.0
 13
195.2133701545
 23
158.2963163423
 33
0.0
  0
LINE
  5
176
330
171
100
AcDbEntity
  8
0
  6
Continuous
 62
     7
370
     0
100
AcDbLine
 10
192.7352696256
 20
240.2963163423
 30
0.0
 11
196.9633701545
 21
240.2963163423
 31
0.0
  0
LINE
  5
177
330
171
100
AcDbEntity
  8
0
  6
Continuous
 62
     7
370
     0
100
AcDbLine
 10
165.0352696256
 20
156.2963163423
 30
0.0
 11
196.9633701545
 21
156.2963163423
 31
0.0
  0
LINE
  5
178
330
171
100
AcDbEntity
  8
0
  6
Continuous
 62
     7
370
     0
100
AcDbLine
 10
195.9633701545
 20
240.2963163423
 30
0.0
 11
195.9633701545
 21
156.2963163423
 31
0.0
  0
MTEXT
  5
179
330
171
100
AcDbEntity
  8
0
  6
Continuous
 62
     7
370
     0
100
AcDbMText
 10
191.45163324
 20
195.7102051487
 30
0.1
 40
3.5
 41
0.0
 71
     1
 72
     1
  1
84
  7
SLDTEXTSTYLE0
 11
-1.770233605404514E-14
 21
1.0
 31
0.0
 73
     1
 44
1.0
  0
ENDBLK
  5
173
330
171
100
AcDbEntity
  8
0
100
AcDbBlockEnd
  0
BLOCK
  5
17C
330
17B
100
AcDbEntity
  8
0
100
AcDbBlockBegin
  2
_D_2
 70
     0
 10
0.0
 20
0.0
 30
0.0
  3
_D_2
  1

  0
ARC
  5
17E
330
17B
100
AcDbEntity
  8
0
  6
Continuous
 62
     7
370
     0
100
AcDbCircle
 10
147.6158252608
 20
143.0744413378
 30
0.0
 40
6.2120763399956
100
AcDbArc
 50
153.4349488229
 51
206.5650511771
  0
ARC
  5
17F
330
17B
100
AcDbEntity
  8
0
  6
Continuous
 62
     7
370
     0
100
AcDbCircle
 10
145.5547143396
 20
143.0744413378
 30
0.0
 40
6.2120763399956
100
AcDbArc
 50
333.4349488229
 51
26.5650511771
  0
SOLID
  5
180
330
17B
100
AcDbEntity
  8
0
  6
Continuous
 62
     7
370
     0
100
AcDbTrace
 10
102.9352696256
 20
140.2963163423
 30
0.0
 11
104.9352696256
 21
139.5463163423
 31
0.0
 12
104.9352696256
 22
141.0463163423
 32
0.0
 13
104.9352696256
 23
141.0463163423
 33
0.0
  0
SOLID
  5
181
330
17B
100
AcDbEntity
  8
0
  6
Continuous
 62
     7
370
     0
100
AcDbTrace
 10
190.2352696256
 20
140.2963163423
 30
0.0
 11
188.2352696256
 21
141.0463163423
 31
0.0
 12
188.2352696256
 22
139.5463163423
 32
0.0
 13
188.2352696256
 23
139.5463163423
 33
0.0
  0
LINE
  5
182
330
17B
100
AcDbEntity
  8
0
  6
Continuous
 62
     7
370
     0
100
AcDbLine
 10
102.9352696256
 20
170.4463163423
 30
0.0
 11
102.9352696256
 21
139.2963163423
 31
0.0
  0
LINE
  5
183
330
17B
100
AcDbEntity
  8
0
  6
Continuous
 62
     7
370
     0
100
AcDbLine
 10
190.2352696256
 20
167.7963163422
 30
0.0
 11
190.2352696256
 21
139.2963163423
 31
0.0
  0
LINE
  5
184
330
17B
100
AcDbEntity
  8
0
  6
Continuous
 62
     7
370
     0
100
AcDbLine
 10
102.9352696256
 20
140.2963163423
 30
0.0
 11
190.2352696256
 21
140.2963163423
 31
0.0
  0
MTEXT
  5
185
330
17B
100
AcDbEntity
  8
0
  6
Continuous
 62
     7
370
     0
100
AcDbMText
 10
142.0595752697
 20
144.8080532569
 30
0.1
 40
3.5
 41
0.0
 71
     1
 72
     1
  1
87.3
  7
SLDTEXTSTYLE0
 73
     1
 44
1.0
  0
ENDBLK
  5
17D
330
17B
100
AcDbEntity
  8
0
100
AcDbBlockEnd
  0
BLOCK
  5
188
330
187
100
AcDbEntity
  8
0
100
AcDbBlockBegin
  2
_D_3
 70
     0
 10
0.0
 20
0.0
 30
0.0
  3
_D_3
  1

  0
SOLID
  5
18A
330
187
100
AcDbEntity
  8
0
  6
Continuous
 62
     7
370
     0
100
AcDbTrace
 10
117.5352696256
 20
148.8723428698
 30
0.0
 11
119.5352696256
 21
148.1223428698
 31
0.0
 12
119.5352696256
 22
149.6223428698
 32
0.0
 13
119.5352696256
 23
149.6223428698
 33
0.0
  0
SOLID
  5
18B
330
187
100
AcDbEntity
  8
0
  6
Continuous
 62
     7
370
     0
100
AcDbTrace
 10
190.2352696256
 20
148.8723428698
 30
0.0
 11
188.2352696256
 21
149.6223428698
 31
0.0
 12
188.2352696256
 22
148.1223428698
 32
0.0
 13
188.2352696256
 23
148.1223428698
 33
0.0
  0
LINE
  5
18C
330
187
100
AcDbEntity
  8
0
  6
Continuous
 62
     7
370
     0
100
AcDbLine
 10
117.5352696256
 20
159.7963163423
 30
0.0
 11
117.5352696256
 21
147.8723428698
 31
0.0
  0
LINE
  5
18D
330
187
100
AcDbEntity
  8
0
  6
Continuous
 62
     7
370
     0
100
AcDbLine
 10
190.2352696256
 20
167.7963163422
 30
0.0
 11
190.2352696256
 21
147.8723428698
 31
0.0
  0
LINE
  5
18E
330
187
100
AcDbEntity
  8
0
  6
Continuous
 62
     7
370
     0
100
AcDbLine
 10
117.5352696256
 20
148.8723428698
 30
0.0
 11
190.2352696256
 21
148.8723428698
 31
0.0
  0
MTEXT
  5
18F
330
187
100
AcDbEntity
  8
0
  6
Continuous
 62
     7
370
     0
100
AcDbMText
 10
149.3595750951
 20
153.3840797844
 30
0.1
 40
3.5
 41
0.0
 71
     1
 72
     1
  1
72.7
  7
SLDTEXTSTYLE0
 73
     1
 44
1.0
  0
ENDBLK
  5
189
330
187
100
AcDbEntity
  8
0
100
AcDbBlockEnd
  0
BLOCK
  5
192
330
191
100
AcDbEntity
  8
0
100
AcDbBlockBegin
  2
_D_4
 70
     0
 10
0.0
 20
0.0
 30
0.0
  3
_D_4
  1

  0
ARC
  5
194
330
191
100
AcDbEntity
  8
0
  6
Continuous
 62
     7
370
     0
100
AcDbCircle
 10
170.1658252608
 20
263.4919466236
 30
0.0
 40
6.2120763399956
100
AcDbArc
 50
153.4349488229
 51
206.5650511771
  0
ARC
  5
195
330
191
100
AcDbEntity
  8
0
  6
Continuous
 62
     7
370
     0
100
AcDbCircle
 10
168.1047143396
 20
263.4919466236
 30
0.0
 40
6.2120763399956
100
AcDbArc
 50
333.4349488229
 51
26.5650511771
  0
SOLID
  5
196
330
191
100
AcDbEntity
  8
0
  6
Continuous
 62
     7
370
     0
100
AcDbTrace
 10
157.5352696256
 20
260.7138216281
 30
0.0
 11
159.5352696256
 21
259.9638216281
 31
0.0
 12
159.5352696256
 22
261.4638216281
 32
0.0
 13
159.5352696256
 23
261.4638216281
 33
0.0
  0
SOLID
  5
197
330
191
100
AcDbEntity
  8
0
  6
Continuous
 62
     7
370
     0
100
AcDbTrace
 10
180.7352696256
 20
260.7138216281
 30
0.0
 11
178.7352696256
 21
261.4638216281
 31
0.0
 12
178.7352696256
 22
259.9638216281
 32
0.0
 13
178.7352696256
 23
259.9638216281
 33
0.0
  0
LINE
  5
198
330
191
100
AcDbEntity
  8
0
  6
Continuous
 62
     7
370
     0
100
AcDbLine
 10
157.5352696256
 20
163.7963163423
 30
0.0
 11
157.5352696256
 21
261.7138216281
 31
0.0
  0
LINE
  5
199
330
191
100
AcDbEntity
  8
0
  6
Continuous
 62
     7
370
     0
100
AcDbLine
 10
180.7352696256
 20
215.2963163423
 30
0.0
 11
180.7352696256
 21
261.7138216281
 31
0.0
  0
LINE
  5
19A
330
191
100
AcDbEntity
  8
0
  6
Continuous
 62
     7
370
     0
100
AcDbLine
 10
157.5352696256
 20
260.7138216281
 30
0.0
 11
180.7352696256
 21
260.7138216281
 31
0.0
  0
MTEXT
  5
19B
330
191
100
AcDbEntity
  8
0
  6
Continuous
 62
     7
370
     0
100
AcDbMText
 10
164.6095752697
 20
265.2255585426
 30
0.1
 40
3.5
 41
0.0
 71
     1
 72
     1
  1
23.2
  7
SLDTEXTSTYLE0
 73
     1
 44
1.0
  0
ENDBLK
  5
193
330
191
100
AcDbEntity
  8
0
100
AcDbBlockEnd
  0
BLOCK
  5
19E
330
19D
100
AcDbEntity
  8
0
100
AcDbBlockBegin
  2
_D_5
 70
     0
 10
0.0
 20
0.0
 30
0.0
  3
_D_5
  1

  0
SOLID
  5
1A0
330
19D
100
AcDbEntity
  8
0
  6
Continuous
 62
     7
370
     0
100
AcDbTrace
 10
188.7352696256
 20
260.7138216281
 30
0.0
 11
190.7352696256
 21
259.9638216281
 31
0.0
 12
190.7352696256
 22
261.4638216281
 32
0.0
 13
190.7352696256
 23
261.4638216281
 33
0.0
  0
SOLID
  5
1A1
330
19D
100
AcDbEntity
  8
0
  6
Continuous
 62
     7
370
     0
100
AcDbTrace
 10
180.7352696256
 20
260.7138216281
 30
0.0
 11
178.7352696256
 21
261.4638216281
 31
0.0
 12
178.7352696256
 22
259.9638216281
 32
0.0
 13
178.7352696256
 23
259.9638216281
 33
0.0
  0
LINE
  5
1A2
330
19D
100
AcDbEntity
  8
0
  6
Continuous
 62
     7
370
     0
100
AcDbLine
 10
188.7352696256
 20
241.2963163423
 30
0.0
 11
188.7352696256
 21
261.7138216281
 31
0.0
  0
LINE
  5
1A3
330
19D
100
AcDbEntity
  8
0
  6
Continuous
 62
     7
370
     0
100
AcDbLine
 10
180.7352696256
 20
215.2963163423
 30
0.0
 11
180.7352696256
 21
261.7138216281
 31
0.0
  0
LINE
  5
1A4
330
19D
100
AcDbEntity
  8
0
  6
Continuous
 62
     7
370
     0
100
AcDbLine
 10
188.7352696256
 20
260.7138216281
 30
0.0
 11
193.7352696256
 21
260.7138216281
 31
0.0
  0
LINE
  5
1A5
330
19D
100
AcDbEntity
  8
0
  6
Continuous
 62
     7
370
     0
100
AcDbLine
 10
188.7352696256
 20
260.7138216281
 30
0.0
 11
180.7352696256
 21
260.7138216281
 31
0.0
  0
LINE
  5
1A6
330
19D
100
AcDbEntity
  8
0
  6
Continuous
 62
     7
370
     0
100
AcDbLine
 10
180.7352696256
 20
260.7138216281
 30
0.0
 11
175.7352696256
 21
260.7138216281
 31
0.0
  0
MTEXT
  5
1A7
330
19D
100
AcDbEntity
  8
0
  6
Continuous
 62
     7
370
     0
100
AcDbMText
 10
183.1314501743
 20
265.2255585426
 30
0.1
 40
3.5
 41
0.0
 71
     1
 72
     1
  1
8
  7
SLDTEXTSTYLE0
 73
     1
 44
1.0
  0
ENDBLK
  5
19F
330
19D
100
AcDbEntity
  8
0
100
AcDbBlockEnd
  0
BLOCK
  5
1AA
330
1A9
100
AcDbEntity
  8
0
100
AcDbBlockBegin
  2
_D_6
 70
     0
 10
0.0
 20
0.0
 30
0.0
  3
_D_6
  1

  0
SOLID
  5
1AC
330
1A9
100
AcDbEntity
  8
0
  6
Continuous
 62
     7
370
     0
100
AcDbTrace
 10
92.9352696256
 20
191.2962838914
 30
0.0
 11
92.1852696256
 21
189.2962838914
 31
0.0
 12
93.6852696256
 22
189.2962838914
 32
0.0
 13
93.6852696256
 23
189.2962838914
 33
0.0
  0
SOLID
  5
1AD
330
1A9
100
AcDbEntity
  8
0
  6
Continuous
 62
     7
370
     0
100
AcDbTrace
 10
92.9352696256
 20
156.2963163423
 30
0.0
 11
93.6852696256
 21
158.2963163423
 31
0.0
 12
92.1852696256
 22
158.2963163423
 32
0.0
 13
92.1852696256
 23
158.2963163423
 33
0.0
  0
LINE
  5
1AE
330
1A9
100
AcDbEntity
  8
0
  6
Continuous
 62
     7
370
     0
100
AcDbLine
 10
117.9352696256
 20
191.2962838914
 30
0.0
 11
91.9352696256
 21
191.2962838914
 31
0.0
  0
LINE
  5
1AF
330
1A9
100
AcDbEntity
  8
0
  6
Continuous
 62
     7
370
     0
100
AcDbLine
 10
133.0352696256
 20
156.2963163423
 30
0.0
 11
91.9352696256
 21
156.2963163423
 31
0.0
  0
LINE
  5
1B0
330
1A9
100
AcDbEntity
  8
0
  6
Continuous
 62
     7
370
     0
100
AcDbLine
 10
92.9352696256
 20
191.2962838914
 30
0.0
 11
92.9352696256
 21
156.2963163423
 31
0.0
  0
MTEXT
  5
1B1
330
1A9
100
AcDbEntity
  8
0
  6
Continuous
 62
     7
370
     0
100
AcDbMText
 10
88.423532711
 20
169.424756958
 30
0.1
 40
3.5
 41
0.0
 71
     1
 72
     1
  1
35
  7
SLDTEXTSTYLE0
 11
-1.770233605404514E-14
 21
1.0
 31
0.0
 73
     1
 44
1.0
  0
ENDBLK
  5
1AB
330
1A9
100
AcDbEntity
  8
0
100
AcDbBlockEnd
  0
BLOCK
  5
1B4
330
1B3
100
AcDbEntity
  8
0
100
AcDbBlockBegin
  2
_D_7
 70
     0
 10
0.0
 20
0.0
 30
0.0
  3
_D_7
  1

  0
SOLID
  5
1B6
330
1B3
100
AcDbEntity
  8
0
  6
Continuous
 62
     7
370
     0
100
AcDbTrace
 10
98.232244118
 20
175.2963163423
 30
0.0
 11
97.482244118
 21
173.2963163423
 31
0.0
 12
98.982244118
 22
173.2963163423
 32
0.0
 13
98.982244118
 23
173.2963163423
 33
0.0
  0
SOLID
  5
1B7
330
1B3
100
AcDbEntity
  8
0
  6
Continuous
 62
     7
370
     0
100
AcDbTrace
 10
98.232244118
 20
156.2963163423
 30
0.0
 11
98.982244118
 21
158.2963163423
 31
0.0
 12
97.482244118
 22
158.2963163423
 32
0.0
 13
97.482244118
 23
158.2963163423
 33
0.0
  0
LINE
  5
1B8
330
1B3
100
AcDbEntity
  8
0
  6
Continuous
 62
     7
370
     0
100
AcDbLine
 10
102.3352696256
 20
175.2963163423
 30
0.0
 11
97.232244118
 21
175.2963163423
 31
0.0
  0
LINE
  5
1B9
330
1B3
100
AcDbEntity
  8
0
  6
Continuous
 62
     7
370
     0
100
AcDbLine
 10
133.0352696256
 20
156.2963163423
 30
0.0
 11
97.232244118
 21
156.2963163423
 31
0.0
  0
LINE
  5
1BA
330
1B3
100
AcDbEntity
  8
0
  6
Continuous
 62
     7
370
     0
100
AcDbLine
 10
98.232244118
 20
175.2963163423
 30
0.0
 11
98.232244118
 21
156.2963163423
 31
0.0
  0
MTEXT
  5
1BB
330
1B3
100
AcDbEntity
  8
0
  6
Continuous
 62
     7
370
     0
100
AcDbMText
 10
93.7205072034
 20
163.598683458
 30
0.1
 40
3.5
 41
0.0
 71
     1
 72
     1
  1
19
  7
SLDTEXTSTYLE0
 11
-1.770233605404514E-14
 21
1.0
 31
0.0
 73
     1
 44
1.0
  0
ENDBLK
  5
1B5
330
1B3
100
AcDbEntity
  8
0
100
AcDbBlockEnd
  0
BLOCK
  5
1BE
330
1BD
100
AcDbEntity
  8
0
100
AcDbBlockBegin
  2
SW_NOTE_0
 70
     0
 10
0.0
 20
0.0
 30
0.0
  3
SW_NOTE_0
  1

  0
LINE
  5
1C0
330
1BD
100
AcDbEntity
  8
0
  6
Continuous
 62
     0
370
     0
100
AcDbLine
 10
-0.0260978517
 20
0.2859090192
 30
0.0
 11
23.5377942936
 21
0.2859090192
 31
0.0
  0
LINE
  5
1C1
330
1BD
100
AcDbEntity
  8
0
  6
Continuous
 62
     0
370
     0
100
AcDbLine
 10
23.5377942936
 20
0.2859090192
 30
0.0
 11
-0.0260978517
 21
0.2859090192
 31
0.0
  0
LINE
  5
1C2
330
1BD
100
AcDbEntity
  8
0
  6
Continuous
 62
     0
370
     0
100
AcDbLine
 10
-0.0260978517
 20
0.2859090192
 30
0.0
 11
23.5377942936
 21
0.2859090192
 31
0.0
  0
LINE
  5
1C3
330
1BD
100
AcDbEntity
  8
0
  6
Continuous
 62
     0
370
     0
100
AcDbLine
 10
23.5377942936
 20
0.2859090192
 30
0.0
 11
-0.0260978517
 21
0.2859090192
 31
0.0
  0
LINE
  5
1C4
330
1BD
100
AcDbEntity
  8
0
  6
Continuous
 62
     0
370
     0
100
AcDbLine
 10
-0.0260978517
 20
0.2859090192
 30
0.0
 11
23.5377942936
 21
0.2859090192
 31
0.0
  0
LINE
  5
1C5
330
1BD
100
AcDbEntity
  8
0
  6
Continuous
 62
     0
370
     0
100
AcDbLine
 10
23.5377942936
 20
0.2859090192
 30
0.0
 11
-0.0260978517
 21
0.2859090192
 31
0.0
  0
MTEXT
  5
1C6
330
1BD
100
AcDbEntity
  8
0
  6
Continuous
 62
     0
370
     0
100
AcDbMText
 10
0.0
 20
4.5117370892
 30
0.0
 40
3.5
 41
0.0
 71
     1
 72
     1
  1
プッシュ配管
  7
SLDTEXTSTYLE0
 73
     1
 44
1.0
  0
ENDBLK
  5
1BF
330
1BD
100
AcDbEntity
  8
0
100
AcDbBlockEnd
  0
BLOCK
  5
1C9
330
1C8
100
AcDbEntity
  8
0
100
AcDbBlockBegin
  2
SW_NOTE_1
 70
     0
 10
0.0
 20
0.0
 30
0.0
  3
SW_NOTE_1
  1

  0
LINE
  5
1CB
330
1C8
100
AcDbEntity
  8
0
  6
Continuous
 62
     0
370
     0
100
AcDbLine
 10
-0.0193679224
 20
0.3399536978
 30
0.0
 11
19.5585922183
 21
0.3399536978
 31
0.0
  0
LINE
  5
1CC
330
1C8
100
AcDbEntity
  8
0
  6
Continuous
 62
     0
370
     0
100
AcDbLine
 10
19.5585922183
 20
0.3399536978
 30
0.0
 11
-0.0193679224
 21
0.3399536978
 31
0.0
  0
LINE
  5
1CD
330
1C8
100
AcDbEntity
  8
0
  6
Continuous
 62
     0
370
     0
100
AcDbLine
 10
-0.0193679224
 20
0.3399536978
 30
0.0
 11
19.5585922183
 21
0.3399536978
 31
0.0
  0
LINE
  5
1CE
330
1C8
100
AcDbEntity
  8
0
  6
Continuous
 62
     0
370
     0
100
AcDbLine
 10
19.5585922183
 20
0.3399536978
 30
0.0
 11
-0.0193679224
 21
0.3399536978
 31
0.0
  0
LINE
  5
1CF
330
1C8
100
AcDbEntity
  8
0
  6
Continuous
 62
     0
370
     0
100
AcDbLine
 10
-0.0193679224
 20
0.3399536978
 30
0.0
 11
19.5585922183
 21
0.3399536978
 31
0.0
  0
LINE
  5
1D0
330
1C8
100
AcDbEntity
  8
0
  6
Continuous
 62
     0
370
     0
100
AcDbLine
 10
19.5585922183
 20
0.3399536978
 30
0.0
 11
-0.0193679224
 21
0.3399536978
 31
0.0
  0
MTEXT
  5
1D1
330
1C8
100
AcDbEntity
  8
0
  6
Continuous
 62
     0
370
     0
100
AcDbMText
 10
0.0
 20
4.5117370892
 30
0.0
 40
3.5
 41
0.0
 71
     1
 72
     1
  1
カット配管
  7
SLDTEXTSTYLE0
 73
     1
 44
1.0
  0
ENDBLK
  5
1CA
330
1C8
100
AcDbEntity
  8
0
100
AcDbBlockEnd
  0
BLOCK
  5
1D4
330
1D3
100
AcDbEntity
  8
0
100
AcDbBlockBegin
  2
_DOT
 70
     0
 10
0.0
 20
0.0
 30
0.0
  3
_DOT
  1

  0
POLYLINE
  5
1D6
330
1D3
100
AcDbEntity
  8
0
  6
ByBlock
 62
     0
100
AcDb2dPolyline
 66
     1
 10
0.0
 20
0.0
 30
0.0
 70
     1
 40
0.5
 41
0.5
  0
VERTEX
  5
1D8
330
1D6
100
AcDbEntity
  8
0
  6
ByBlock
 62
     0
100
AcDbVertex
100
AcDb2dVertex
 10
-0.25
 20
0.0
 30
0.0
 42
1.0
  0
VERTEX
  5
1D9
330
1D6
100
AcDbEntity
  8
0
  6
ByBlock
 62
     0
100
AcDbVertex
100
AcDb2dVertex
 10
0.25
 20
0.0
 30
0.0
 42
1.0
  0
SEQEND
  5
1DA
330
1D6
100
AcDbEntity
  8
0
  6
ByBlock
 62
     0
  0
LINE
  5
1D7
330
1D3
100
AcDbEntity
  8
0
  6
ByBlock
 62
     0
370
    -2
100
AcDbLine
 10
-0.5
 20
0.0
 30
0.0
 11
-1.0
 21
0.0
 31
0.0
  0
ENDBLK
  5
1D5
330
1D3
100
AcDbEntity
  8
0
100
AcDbBlockEnd
  0
BLOCK
  5
2E9
330
2E8
100
AcDbEntity
  8
0
100
AcDbBlockBegin
  2
_D_8
 70
     0
 10
0.0
 20
0.0
 30
0.0
  3
_D_8
  1

  0
SOLID
  5
2EB
330
2E8
100
AcDbEntity
  8
0
  6
Continuous
 62
     7
370
     0
100
AcDbTrace
 10
27.2237314685
 20
146.2963163423
 30
0.0
 11
29.2237314685
 21
145.5463163423
 31
0.0
 12
29.2237314685
 22
147.0463163423
 32
0.0
 13
29.2237314685
 23
147.0463163423
 33
0.0
  0
SOLID
  5
2EC
330
2E8
100
AcDbEntity
  8
0
  6
Continuous
 62
     7
370
     0
100
AcDbTrace
 10
72.2237314685
 20
146.2963163423
 30
0.0
 11
70.2237314685
 21
147.0463163423
 31
0.0
 12
70.2237314685
 22
145.5463163423
 32
0.0
 13
70.2237314685
 23
145.5463163423
 33
0.0
  0
LINE
  5
2ED
330
2E8
100
AcDbEntity
  8
0
  6
Continuous
 62
     7
370
     0
100
AcDbLine
 10
27.2237314685
 20
155.7963163423
 30
0.0
 11
27.2237314685
 21
145.2963163423
 31
0.0
  0
LINE
  5
2EE
330
2E8
100
AcDbEntity
  8
0
  6
Continuous
 62
     7
370
     0
100
AcDbLine
 10
72.2237314685
 20
155.7963163423
 30
0.0
 11
72.2237314685
 21
145.2963163423
 31
0.0
  0
LINE
  5
2EF
330
2E8
100
AcDbEntity
  8
0
  6
Continuous
 62
     7
370
     0
100
AcDbLine
 10
27.2237314685
 20
146.2963163423
 30
0.0
 11
72.2237314685
 21
146.2963163423
 31
0.0
  0
MTEXT
  5
2F0
330
2E8
100
AcDbEntity
  8
0
  6
Continuous
 62
     7
370
     0
100
AcDbMText
 10
47.137620275
 20
150.8080532568
 30
-35.4313718718
 40
3.5
 41
0.0
 71
     1
 72
     1
  1
45
  7
SLDTEXTSTYLE0
 73
     1
 44
1.0
  0
ENDBLK
  5
2EA
330
2E8
100
AcDbEntity
  8
0
100
AcDbBlockEnd
  0
BLOCK
  5
2F3
330
2F2
100
AcDbEntity
  8
0
100
AcDbBlockBegin
  2
_D_9
 70
     0
 10
0.0
 20
0.0
 30
0.0
  3
_D_9
  1

  0
SOLID
  5
2F5
330
2F2
100
AcDbEntity
  8
0
  6
Continuous
 62
     7
370
     0
100
AcDbTrace
 10
24.7955607722
 20
204.2963163423
 30
0.0
 11
24.0455607722
 21
202.2963163423
 31
0.0
 12
25.5455607722
 22
202.2963163423
 32
0.0
 13
25.5455607722
 23
202.2963163423
 33
0.0
  0
SOLID
  5
2F6
330
2F2
100
AcDbEntity
  8
0
  6
Continuous
 62
     7
370
     0
100
AcDbTrace
 10
24.7955607722
 20
156.2963163423
 30
0.0
 11
25.5455607722
 21
158.2963163423
 31
0.0
 12
24.0455607722
 22
158.2963163423
 32
0.0
 13
24.0455607722
 23
158.2963163423
 33
0.0
  0
LINE
  5
2F7
330
2F2
100
AcDbEntity
  8
0
  6
Continuous
 62
     7
370
     0
100
AcDbLine
 10
41.0737314685
 20
204.2963163423
 30
0.0
 11
23.7955607722
 21
204.2963163423
 31
0.0
  0
LINE
  5
2F8
330
2F2
100
AcDbEntity
  8
0
  6
Continuous
 62
     7
370
     0
100
AcDbLine
 10
26.7237314685
 20
156.2963163423
 30
0.0
 11
23.7955607722
 21
156.2963163423
 31
0.0
  0
LINE
  5
2F9
330
2F2
100
AcDbEntity
  8
0
  6
Continuous
 62
     7
370
     0
100
AcDbLine
 10
24.7955607722
 20
204.2963163423
 30
0.0
 11
24.7955607722
 21
156.2963163423
 31
0.0
  0
MTEXT
  5
2FA
330
2F2
100
AcDbEntity
  8
0
  6
Continuous
 62
     7
370
     0
100
AcDbMText
 10
20.2838238576
 20
176.6342718293
 30
-35.4313718718
 40
3.5
 41
0.0
 71
     1
 72
     1
  1
48
  7
SLDTEXTSTYLE0
 11
-7.044195017643634E-15
 21
1.0
 31
0.0
 73
     1
 44
1.0
  0
ENDBLK
  5
2F4
330
2F2
100
AcDbEntity
  8
0
100
AcDbBlockEnd
  0
BLOCK
  5
2FD
330
2FC
100
AcDbEntity
  8
0
100
AcDbBlockBegin
  2
_D_10
 70
     0
 10
0.0
 20
0.0
 30
0.0
  3
_D_10
  1

  0
SOLID
  5
2FF
330
2FC
100
AcDbEntity
  8
0
  6
Continuous
 62
     7
370
     0
100
AcDbTrace
 10
44.7237314685
 20
250.2963163423
 30
0.0
 11
42.7237314685
 21
251.0463163423
 31
0.0
 12
42.7237314685
 22
249.5463163423
 32
0.0
 13
42.7237314685
 23
249.5463163423
 33
0.0
  0
SOLID
  5
300
330
2FC
100
AcDbEntity
  8
0
  6
Continuous
 62
     7
370
     0
100
AcDbTrace
 10
54.7237314685
 20
250.2963163423
 30
0.0
 11
56.7237314685
 21
249.5463163423
 31
0.0
 12
56.7237314685
 22
251.0463163423
 32
0.0
 13
56.7237314685
 23
251.0463163423
 33
0.0
  0
LINE
  5
301
330
2FC
100
AcDbEntity
  8
0
  6
Continuous
 62
     7
370
     0
100
AcDbLine
 10
44.7237314685
 20
241.2963163423
 30
0.0
 11
44.7237314685
 21
251.2963163423
 31
0.0
  0
LINE
  5
302
330
2FC
100
AcDbEntity
  8
0
  6
Continuous
 62
     7
370
     0
100
AcDbLine
 10
54.7237314685
 20
241.2963163423
 30
0.0
 11
54.7237314685
 21
251.2963163423
 31
0.0
  0
LINE
  5
303
330
2FC
100
AcDbEntity
  8
0
  6
Continuous
 62
     7
370
     0
100
AcDbLine
 10
44.7237314685
 20
250.2963163423
 30
0.0
 11
39.7237314685
 21
250.2963163423
 31
0.0
  0
LINE
  5
304
330
2FC
100
AcDbEntity
  8
0
  6
Continuous
 62
     7
370
     0
100
AcDbLine
 10
44.7237314685
 20
250.2963163423
 30
0.0
 11
54.7237314685
 21
250.2963163423
 31
0.0
  0
LINE
  5
305
330
2FC
100
AcDbEntity
  8
0
  6
Continuous
 62
     7
370
     0
100
AcDbLine
 10
54.7237314685
 20
250.2963163423
 30
0.0
 11
59.7237314685
 21
250.2963163423
 31
0.0
  0
MTEXT
  5
306
330
2FC
100
AcDbEntity
  8
0
  6
Continuous
 62
     7
370
     0
100
AcDbMText
 10
47.137620275
 20
254.8080532568
 30
-35.4313718718
 40
3.5
 41
0.0
 71
     1
 72
     1
  1
10
  7
SLDTEXTSTYLE0
 73
     1
 44
1.0
  0
ENDBLK
  5
2FE
330
2FC
100
AcDbEntity
  8
0
100
AcDbBlockEnd
  0
BLOCK
  5
309
330
308
100
AcDbEntity
  8
0
100
AcDbBlockBegin
  2
_D_11
 70
     0
 10
0.0
 20
0.0
 30
0.0
  3
_D_11
  1

  0
ARC
  5
30B
330
308
100
AcDbEntity
  8
0
  6
Continuous
 62
     7
370
     0
100
AcDbCircle
 10
50.7542871038
 20
263.3425624358
 30
0.0
 40
6.2120763399956
100
AcDbArc
 50
153.4349488229
 51
206.5650511771
  0
ARC
  5
30C
330
308
100
AcDbEntity
  8
0
  6
Continuous
 62
     7
370
     0
100
AcDbCircle
 10
48.6931761826
 20
263.3425624358
 30
0.0
 40
6.2120763399956
100
AcDbArc
 50
333.4349488229
 51
26.5650511771
  0
SOLID
  5
30D
330
308
100
AcDbEntity
  8
0
  6
Continuous
 62
     7
370
     0
100
AcDbTrace
 10
38.7491030818
 20
260.5644374403
 30
0.0
 11
40.7491030818
 21
259.8144374403
 31
0.0
 12
40.7491030818
 22
261.3144374403
 32
0.0
 13
40.7491030818
 23
261.3144374403
 33
0.0
  0
SOLID
  5
30E
330
308
100
AcDbEntity
  8
0
  6
Continuous
 62
     7
370
     0
100
AcDbTrace
 10
60.6983598553
 20
260.5644374403
 30
0.0
 11
58.6983598553
 21
261.3144374403
 31
0.0
 12
58.6983598553
 22
259.8144374403
 32
0.0
 13
58.6983598553
 23
259.8144374403
 33
0.0
  0
LINE
  5
30F
330
308
100
AcDbEntity
  8
0
  6
Continuous
 62
     7
370
     0
100
AcDbLine
 10
38.7491030818
 20
224.599564597
 30
0.0
 11
38.7491030818
 21
261.5644374403
 31
0.0
  0
LINE
  5
310
330
308
100
AcDbEntity
  8
0
  6
Continuous
 62
     7
370
     0
100
AcDbLine
 10
60.6983598553
 20
224.599564597
 30
0.0
 11
60.6983598553
 21
261.5644374403
 31
0.0
  0
LINE
  5
311
330
308
100
AcDbEntity
  8
0
  6
Continuous
 62
     7
370
     0
100
AcDbLine
 10
38.7491030818
 20
260.5644374403
 30
0.0
 11
60.6983598553
 21
260.5644374403
 31
0.0
  0
MTEXT
  5
312
330
308
100
AcDbEntity
  8
0
  6
Continuous
 62
     7
370
     0
100
AcDbMText
 10
45.1980371127
 20
265.0761743549
 30
-35.4313718718
 40
3.5
 41
0.0
 71
     1
 72
     1
  1
21.9
  7
SLDTEXTSTYLE0
 73
     1
 44
1.0
  0
ENDBLK
  5
30A
330
308
100
AcDbEntity
  8
0
100
AcDbBlockEnd
  0
BLOCK
  5
315
330
314
100
AcDbEntity
  8
0
100
AcDbBlockBegin
  2
_D_12
 70
     0
 10
0.0
 20
0.0
 30
0.0
  3
_D_12
  1

  0
ARC
  5
317
330
314
100
AcDbEntity
  8
0
  6
Continuous
 62
     7
370
     0
100
AcDbCircle
 10
80.8292810402
 20
224.1362234055
 30
0.0
 40
6.2120763399956
100
AcDbArc
 50
243.4349488229
 51
296.5650511771
  0
ARC
  5
318
330
314
100
AcDbEntity
  8
0
  6
Continuous
 62
     7
370
     0
100
AcDbCircle
 10
80.8292810402
 20
222.0751124843
 30
0.0
 40
6.2120763399956
100
AcDbArc
 50
63.4349488229
 51
116.5650511771
  0
SOLID
  5
319
330
314
100
AcDbEntity
  8
0
  6
Continuous
 62
     7
370
     0
100
AcDbTrace
 10
83.6074060358
 20
240.2963163423
 30
0.0
 11
82.8574060358
 21
238.2963163423
 31
0.0
 12
84.3574060358
 22
238.2963163423
 32
0.0
 13
84.3574060358
 23
238.2963163423
 33
0.0
  0
SOLID
  5
31A
330
314
100
AcDbEntity
  8
0
  6
Continuous
 62
     7
370
     0
100
AcDbTrace
 10
83.6074060358
 20
208.4963163423
 30
0.0
 11
84.3574060358
 21
210.4963163423
 31
0.0
 12
82.8574060358
 22
210.4963163423
 32
0.0
 13
82.8574060358
 23
210.4963163423
 33
0.0
  0
LINE
  5
31B
330
314
100
AcDbEntity
  8
0
  6
Continuous
 62
     7
370
     0
100
AcDbLine
 10
55.7237314685
 20
240.2963163423
 30
0.0
 11
84.6074060358
 21
240.2963163423
 31
0.0
  0
LINE
  5
31C
330
314
100
AcDbEntity
  8
0
  6
Continuous
 62
     7
370
     0
100
AcDbLine
 10
60.7237314685
 20
208.4963163423
 30
0.0
 11
84.6074060358
 21
208.4963163423
 31
0.0
  0
LINE
  5
31D
330
314
100
AcDbEntity
  8
0
  6
Continuous
 62
     7
370
     0
100
AcDbLine
 10
83.6074060358
 20
240.2963163423
 30
0.0
 11
83.6074060358
 21
208.4963163423
 31
0.0
  0
MTEXT
  5
31E
330
314
100
AcDbEntity
  8
0
  6
Continuous
 62
     7
370
     0
100
AcDbMText
 10
79.0956691212
 20
218.5799734144
 30
-35.4313718718
 40
3.5
 41
0.0
 71
     1
 72
     1
  1
31.8
  7
SLDTEXTSTYLE0
 11
9.494107596574928E-16
 21
1.0
 31
0.0
 73
     1
 44
1.0
  0
ENDBLK
  5
316
330
314
100
AcDbEntity
  8
0
100
AcDbBlockEnd
  0
BLOCK
  5
321
330
320
100
AcDbEntity
  8
0
100
AcDbBlockBegin
  2
_D_13
 70
     0
 10
0.0
 20
0.0
 30
0.0
  3
_D_13
  1

  0
SOLID
  5
323
330
320
100
AcDbEntity
  8
0
  6
Continuous
 62
     7
370
     0
100
AcDbTrace
 10
83.6074060358
 20
208.4963163423
 30
0.0
 11
82.8574060358
 21
206.4963163423
 31
0.0
 12
84.3574060358
 22
206.4963163423
 32
0.0
 13
84.3574060358
 23
206.4963163423
 33
0.0
  0
SOLID
  5
324
330
320
100
AcDbEntity
  8
0
  6
Continuous
 62
     7
370
     0
100
AcDbTrace
 10
83.6074060358
 20
156.2963163423
 30
0.0
 11
84.3574060358
 21
158.2963163423
 31
0.0
 12
82.8574060358
 22
158.2963163423
 32
0.0
 13
82.8574060358
 23
158.2963163423
 33
0.0
  0
LINE
  5
325
330
320
100
AcDbEntity
  8
0
  6
Continuous
 62
     7
370
     0
100
AcDbLine
 10
60.7237314685
 20
208.4963163423
 30
0.0
 11
84.6074060358
 21
208.4963163423
 31
0.0
  0
LINE
  5
326
330
320
100
AcDbEntity
  8
0
  6
Continuous
 62
     7
370
     0
100
AcDbLine
 10
72.7237314685
 20
156.2963163423
 30
0.0
 11
84.6074060358
 21
156.2963163423
 31
0.0
  0
LINE
  5
327
330
320
100
AcDbEntity
  8
0
  6
Continuous
 62
     7
370
     0
100
AcDbLine
 10
83.6074060358
 20
208.4963163423
 30
0.0
 11
83.6074060358
 21
156.2963163423
 31
0.0
  0
MTEXT
  5
328
330
320
100
AcDbEntity
  8
0
  6
Continuous
 62
     7
370
     0
100
AcDbMText
 10
79.0956691212
 20
169.9812577396
 30
-35.4313718718
 40
3.5
 41
0.0
 71
     1
 72
     1
  1
52.2
  7
SLDTEXTSTYLE0
 11
-7.044195017643634E-15
 21
1.0
 31
0.0
 73
     1
 44
1.0
  0
ENDBLK
  5
322
330
320
100
AcDbEntity
  8
0
100
AcDbBlockEnd
  0
BLOCK
  5
32B
330
32A
100
AcDbEntity
  8
0
100
AcDbBlockBegin
  2
_D_14
 70
     0
 10
0.0
 20
0.0
 30
0.0
  3
_D_14
  1

  0
SOLID
  5
32D
330
32A
100
AcDbEntity
  8
0
  6
Continuous
 62
     7
370
     0
100
AcDbTrace
 10
77.5996339679
 20
197.2963163423
 30
0.0
 11
76.8496339679
 21
195.2963163423
 31
0.0
 12
78.3496339679
 22
195.2963163423
 32
0.0
 13
78.3496339679
 23
195.2963163423
 33
0.0
  0
SOLID
  5
32E
330
32A
100
AcDbEntity
  8
0
  6
Continuous
 62
     7
370
     0
100
AcDbTrace
 10
77.5996339679
 20
156.2963163423
 30
0.0
 11
78.3496339679
 21
158.2963163423
 31
0.0
 12
76.8496339679
 22
158.2963163423
 32
0.0
 13
76.8496339679
 23
158.2963163423
 33
0.0
  0
LINE
  5
32F
330
32A
100
AcDbEntity
  8
0
  6
Continuous
 62
     7
370
     0
100
AcDbLine
 10
68.7237314685
 20
197.2963163423
 30
0.0
 11
78.5996339679
 21
197.2963163423
 31
0.0
  0
LINE
  5
330
330
32A
100
AcDbEntity
  8
0
  6
Continuous
 62
     7
370
     0
100
AcDbLine
 10
72.7237314685
 20
156.2963163423
 30
0.0
 11
78.5996339679
 21
156.2963163423
 31
0.0
  0
LINE
  5
331
330
32A
100
AcDbEntity
  8
0
  6
Continuous
 62
     7
370
     0
100
AcDbLine
 10
77.5996339679
 20
197.2963163423
 30
0.0
 11
77.5996339679
 21
156.2963163423
 31
0.0
  0
MTEXT
  5
332
330
32A
100
AcDbEntity
  8
0
  6
Continuous
 62
     7
370
     0
100
AcDbMText
 10
73.0878970533
 20
171.9208410766
 30
-35.4313718718
 40
3.5
 41
0.0
 71
     1
 72
     1
  1
41
  7
SLDTEXTSTYLE0
 11
-7.044195017643634E-15
 21
1.0
 31
0.0
 73
     1
 44
1.0
  0
ENDBLK
  5
32C
330
32A
100
AcDbEntity
  8
0
100
AcDbBlockEnd
  0
BLOCK
  5
334
330
333
100
AcDbEntity
  8
0
100
AcDbBlockBegin
  2
SW_CENTERMARKSYMBOL_0
 70
     0
 10
0.0
 20
0.0
 30
0.0
  3
SW_CENTERMARKSYMBOL_0
  1

  0
LINE
  5
336
330
333
100
AcDbEntity
  8
0
  6
Continuous
 62
     0
370
     0
100
AcDbLine
 10
0.0
 20
0.0
 30
0.0
 11
0.0
 21
2.5
 31
0.0
  0
LINE
  5
337
330
333
100
AcDbEntity
  8
0
  6
Continuous
 62
     0
370
     0
100
AcDbLine
 10
0.0
 20
0.0
 30
0.0
 11
-2.5
 21
0.0
 31
0.0
  0
LINE
  5
338
330
333
100
AcDbEntity
  8
0
  6
Continuous
 62
     0
370
     0
100
AcDbLine
 10
0.0
 20
0.0
 30
0.0
 11
0.0
 21
-2.5
 31
0.0
  0
LINE
  5
339
330
333
100
AcDbEntity
  8
0
  6
Continuous
 62
     0
370
     0
100
AcDbLine
 10
0.0
 20
0.0
 30
0.0
 11
2.5
 21
0.0
 31
0.0
  0
LINE
  5
33A
330
333
100
AcDbEntity
  8
0
  6
Continuous
 62
     0
370
     0
100
AcDbLine
 10
0.0
 20
5.0
 30
0.0
 11
0.0
 21
6.35
 31
0.0
  0
LINE
  5
33B
330
333
100
AcDbEntity
  8
0
  6
Continuous
 62
     0
370
     0
100
AcDbLine
 10
-5.0
 20
0.0
 30
0.0
 11
-6.35
 21
0.0
 31
0.0
  0
LINE
  5
33C
330
333
100
AcDbEntity
  8
0
  6
Continuous
 62
     0
370
     0
100
AcDbLine
 10
0.0
 20
-5.0
 30
0.0
 11
0.0
 21
-6.35
 31
0.0
  0
LINE
  5
33D
330
333
100
AcDbEntity
  8
0
  6
Continuous
 62
     0
370
     0
100
AcDbLine
 10
5.0
 20
0.0
 30
0.0
 11
6.35
 21
0.0
 31
0.0
  0
ENDBLK
  5
335
330
333
100
AcDbEntity
  8
0
100
AcDbBlockEnd
  0
BLOCK
  5
340
330
33F
100
AcDbEntity
  8
0
100
AcDbBlockBegin
  2
SW_CENTERMARKSYMBOL_1
 70
     0
 10
0.0
 20
0.0
 30
0.0
  3
SW_CENTERMARKSYMBOL_1
  1

  0
LINE
  5
342
330
33F
100
AcDbEntity
  8
0
  6
Continuous
 62
     0
370
     0
100
AcDbLine
 10
0.0
 20
0.0
 30
0.0
 11
0.0
 21
2.5
 31
0.0
  0
LINE
  5
343
330
33F
100
AcDbEntity
  8
0
  6
Continuous
 62
     0
370
     0
100
AcDbLine
 10
0.0
 20
0.0
 30
0.0
 11
-2.5
 21
0.0
 31
0.0
  0
LINE
  5
344
330
33F
100
AcDbEntity
  8
0
  6
Continuous
 62
     0
370
     0
100
AcDbLine
 10
0.0
 20
0.0
 30
0.0
 11
0.0
 21
-2.5
 31
0.0
  0
LINE
  5
345
330
33F
100
AcDbEntity
  8
0
  6
Continuous
 62
     0
370
     0
100
AcDbLine
 10
0.0
 20
0.0
 30
0.0
 11
2.5
 21
0.0
 31
0.0
  0
LINE
  5
346
330
33F
100
AcDbEntity
  8
0
  6
Continuous
 62
     0
370
     0
100
AcDbLine
 10
0.0
 20
5.0
 30
0.0
 11
0.0
 21
6.35
 31
0.0
  0
LINE
  5
347
330
33F
100
AcDbEntity
  8
0
  6
Continuous
 62
     0
370
     0
100
AcDbLine
 10
-5.0
 20
0.0
 30
0.0
 11
-6.35
 21
0.0
 31
0.0
  0
LINE
  5
348
330
33F
100
AcDbEntity
  8
0
  6
Continuous
 62
     0
370
     0
100
AcDbLine
 10
0.0
 20
-5.0
 30
0.0
 11
0.0
 21
-20.575304492
 31
0.0
  0
LINE
  5
349
330
33F
100
AcDbEntity
  8
0
  6
Continuous
 62
     0
370
     0
100
AcDbLine
 10
5.0
 20
0.0
 30
0.0
 11
6.35
 21
0.0
 31
0.0
  0
ENDBLK
  5
341
330
33F
100
AcDbEntity
  8
0
100
AcDbBlockEnd
  0
BLOCK
  5
34C
330
34B
100
AcDbEntity
  8
0
100
AcDbBlockBegin
  2
SW_CENTERMARKSYMBOL_2
 70
     0
 10
0.0
 20
0.0
 30
0.0
  3
SW_CENTERMARKSYMBOL_2
  1

  0
LINE
  5
34E
330
34B
100
AcDbEntity
  8
0
  6
Continuous
 62
     0
370
     0
100
AcDbLine
 10
0.0
 20
0.0
 30
0.0
 11
0.0
 21
2.5
 31
0.0
  0
LINE
  5
34F
330
34B
100
AcDbEntity
  8
0
  6
Continuous
 62
     0
370
     0
100
AcDbLine
 10
0.0
 20
0.0
 30
0.0
 11
-2.5
 21
0.0
 31
0.0
  0
LINE
  5
350
330
34B
100
AcDbEntity
  8
0
  6
Continuous
 62
     0
370
     0
100
AcDbLine
 10
0.0
 20
0.0
 30
0.0
 11
0.0
 21
-2.5
 31
0.0
  0
LINE
  5
351
330
34B
100
AcDbEntity
  8
0
  6
Continuous
 62
     0
370
     0
100
AcDbLine
 10
0.0
 20
0.0
 30
0.0
 11
2.5
 21
0.0
 31
0.0
  0
LINE
  5
352
330
34B
100
AcDbEntity
  8
0
  6
Continuous
 62
     0
370
     0
100
AcDbLine
 10
0.0
 20
5.0
 30
0.0
 11
0.0
 21
35.0812270539
 31
0.0
  0
LINE
  5
353
330
34B
100
AcDbEntity
  8
0
  6
Continuous
 62
     0
370
     0
100
AcDbLine
 10
-5.0
 20
0.0
 30
0.0
 11
-7.65
 21
0.0
 31
0.0
  0
LINE
  5
354
330
34B
100
AcDbEntity
  8
0
  6
Continuous
 62
     0
370
     0
100
AcDbLine
 10
0.0
 20
-5.0
 30
0.0
 11
0.0
 21
-7.65
 31
0.0
  0
LINE
  5
355
330
34B
100
AcDbEntity
  8
0
  6
Continuous
 62
     0
370
     0
100
AcDbLine
 10
5.0
 20
0.0
 30
0.0
 11
7.65
 21
0.0
 31
0.0
  0
ENDBLK
  5
34D
330
34B
100
AcDbEntity
  8
0
100
AcDbBlockEnd
  0
BLOCK
  5
358
330
357
100
AcDbEntity
  8
0
100
AcDbBlockBegin
  2
SW_CENTERMARKSYMBOL_3
 70
     0
 10
0.0
 20
0.0
 30
0.0
  3
SW_CENTERMARKSYMBOL_3
  1

  0
LINE
  5
35A
330
357
100
AcDbEntity
  8
0
  6
Continuous
 62
     0
370
     0
100
AcDbLine
 10
0.0
 20
0.0
 30
0.0
 11
0.0
 21
2.5
 31
0.0
  0
LINE
  5
35B
330
357
100
AcDbEntity
  8
0
  6
Continuous
 62
     0
370
     0
100
AcDbLine
 10
0.0
 20
0.0
 30
0.0
 11
-2.5
 21
0.0
 31
0.0
  0
LINE
  5
35C
330
357
100
AcDbEntity
  8
0
  6
Continuous
 62
     0
370
     0
100
AcDbLine
 10
0.0
 20
0.0
 30
0.0
 11
0.0
 21
-2.5
 31
0.0
  0
LINE
  5
35D
330
357
100
AcDbEntity
  8
0
  6
Continuous
 62
     0
370
     0
100
AcDbLine
 10
0.0
 20
0.0
 30
0.0
 11
2.5
 21
0.0
 31
0.0
  0
LINE
  5
35E
330
357
100
AcDbEntity
  8
0
  6
Continuous
 62
     0
370
     0
100
AcDbLine
 10
0.0
 20
5.0
 30
0.0
 11
0.0
 21
5.8
 31
0.0
  0
LINE
  5
35F
330
357
100
AcDbEntity
  8
0
  6
Continuous
 62
     0
370
     0
100
AcDbLine
 10
-5.0
 20
0.0
 30
0.0
 11
-5.8
 21
0.0
 31
0.0
  0
LINE
  5
360
330
357
100
AcDbEntity
  8
0
  6
Continuous
 62
     0
370
     0
100
AcDbLine
 10
0.0
 20
-5.0
 30
0.0
 11
0.0
 21
-5.8
 31
0.0
  0
LINE
  5
361
330
357
100
AcDbEntity
  8
0
  6
Continuous
 62
     0
370
     0
100
AcDbLine
 10
5.0
 20
0.0
 30
0.0
 11
5.8
 21
0.0
 31
0.0
  0
ENDBLK
  5
359
330
357
100
AcDbEntity
  8
0
100
AcDbBlockEnd
  0
BLOCK
  5
364
330
363
100
AcDbEntity
  8
0
100
AcDbBlockBegin
  2
SW_CENTERMARKSYMBOL_4
 70
     0
 10
0.0
 20
0.0
 30
0.0
  3
SW_CENTERMARKSYMBOL_4
  1

  0
LINE
  5
366
330
363
100
AcDbEntity
  8
0
  6
Continuous
 62
     0
370
     0
100
AcDbLine
 10
0.0
 20
0.0
 30
0.0
 11
0.0
 21
2.5
 31
0.0
  0
LINE
  5
367
330
363
100
AcDbEntity
  8
0
  6
Continuous
 62
     0
370
     0
100
AcDbLine
 10
0.0
 20
0.0
 30
0.0
 11
-2.5
 21
0.0
 31
0.0
  0
LINE
  5
368
330
363
100
AcDbEntity
  8
0
  6
Continuous
 62
     0
370
     0
100
AcDbLine
 10
0.0
 20
0.0
 30
0.0
 11
0.0
 21
-2.5
 31
0.0
  0
LINE
  5
369
330
363
100
AcDbEntity
  8
0
  6
Continuous
 62
     0
370
     0
100
AcDbLine
 10
0.0
 20
0.0
 30
0.0
 11
2.5
 21
0.0
 31
0.0
  0
LINE
  5
36A
330
363
100
AcDbEntity
  8
0
  6
Continuous
 62
     0
370
     0
100
AcDbLine
 10
0.0
 20
5.0
 30
0.0
 11
0.0
 21
5.8
 31
0.0
  0
LINE
  5
36B
330
363
100
AcDbEntity
  8
0
  6
Continuous
 62
     0
370
     0
100
AcDbLine
 10
-5.0
 20
0.0
 30
0.0
 11
-5.8
 21
0.0
 31
0.0
  0
LINE
  5
36C
330
363
100
AcDbEntity
  8
0
  6
Continuous
 62
     0
370
     0
100
AcDbLine
 10
0.0
 20
-5.0
 30
0.0
 11
0.0
 21
-5.8
 31
0.0
  0
LINE
  5
36D
330
363
100
AcDbEntity
  8
0
  6
Continuous
 62
     0
370
     0
100
AcDbLine
 10
5.0
 20
0.0
 30
0.0
 11
5.8
 21
0.0
 31
0.0
  0
ENDBLK
  5
365
330
363
100
AcDbEntity
  8
0
100
AcDbBlockEnd
  0
BLOCK
  5
370
330
36F
100
AcDbEntity
  8
0
100
AcDbBlockBegin
  2
SW_CENTERMARKSYMBOL_5
 70
     0
 10
0.0
 20
0.0
 30
0.0
  3
SW_CENTERMARKSYMBOL_5
  1

  0
LINE
  5
372
330
36F
100
AcDbEntity
  8
0
  6
Continuous
 62
     0
370
     0
100
AcDbLine
 10
0.0
 20
0.0
 30
0.0
 11
0.0
 21
2.5
 31
0.0
  0
LINE
  5
373
330
36F
100
AcDbEntity
  8
0
  6
Continuous
 62
     0
370
     0
100
AcDbLine
 10
0.0
 20
0.0
 30
0.0
 11
-2.5
 21
0.0
 31
0.0
  0
LINE
  5
374
330
36F
100
AcDbEntity
  8
0
  6
Continuous
 62
     0
370
     0
100
AcDbLine
 10
0.0
 20
0.0
 30
0.0
 11
0.0
 21
-2.5
 31
0.0
  0
LINE
  5
375
330
36F
100
AcDbEntity
  8
0
  6
Continuous
 62
     0
370
     0
100
AcDbLine
 10
0.0
 20
0.0
 30
0.0
 11
2.5
 21
0.0
 31
0.0
  0
LINE
  5
376
330
36F
100
AcDbEntity
  8
0
  6
Continuous
 62
     0
370
     0
100
AcDbLine
 10
0.0
 20
5.0
 30
0.0
 11
0.0
 21
5.8
 31
0.0
  0
LINE
  5
377
330
36F
100
AcDbEntity
  8
0
  6
Continuous
 62
     0
370
     0
100
AcDbLine
 10
-5.0
 20
0.0
 30
0.0
 11
-5.8
 21
0.0
 31
0.0
  0
LINE
  5
378
330
36F
100
AcDbEntity
  8
0
  6
Continuous
 62
     0
370
     0
100
AcDbLine
 10
0.0
 20
-5.0
 30
0.0
 11
0.0
 21
-5.8
 31
0.0
  0
LINE
  5
379
330
36F
100
AcDbEntity
  8
0
  6
Continuous
 62
     0
370
     0
100
AcDbLine
 10
5.0
 20
0.0
 30
0.0
 11
5.8
 21
0.0
 31
0.0
  0
ENDBLK
  5
371
330
36F
100
AcDbEntity
  8
0
100
AcDbBlockEnd
  0
BLOCK
  5
37C
330
37B
100
AcDbEntity
  8
0
100
AcDbBlockBegin
  2
SW_CENTERMARKSYMBOL_6
 70
     0
 10
0.0
 20
0.0
 30
0.0
  3
SW_CENTERMARKSYMBOL_6
  1

  0
LINE
  5
37E
330
37B
100
AcDbEntity
  8
0
  6
Continuous
 62
     0
370
     0
100
AcDbLine
 10
0.0
 20
0.0
 30
0.0
 11
0.0
 21
2.5
 31
0.0
  0
LINE
  5
37F
330
37B
100
AcDbEntity
  8
0
  6
Continuous
 62
     0
370
     0
100
AcDbLine
 10
0.0
 20
0.0
 30
0.0
 11
-2.5
 21
0.0
 31
0.0
  0
LINE
  5
380
330
37B
100
AcDbEntity
  8
0
  6
Continuous
 62
     0
370
     0
100
AcDbLine
 10
0.0
 20
0.0
 30
0.0
 11
0.0
 21
-2.5
 31
0.0
  0
LINE
  5
381
330
37B
100
AcDbEntity
  8
0
  6
Continuous
 62
     0
370
     0
100
AcDbLine
 10
0.0
 20
0.0
 30
0.0
 11
2.5
 21
0.0
 31
0.0
  0
LINE
  5
382
330
37B
100
AcDbEntity
  8
0
  6
Continuous
 62
     0
370
     0
100
AcDbLine
 10
0.0
 20
5.0
 30
0.0
 11
0.0
 21
5.8
 31
0.0
  0
LINE
  5
383
330
37B
100
AcDbEntity
  8
0
  6
Continuous
 62
     0
370
     0
100
AcDbLine
 10
-5.0
 20
0.0
 30
0.0
 11
-5.8
 21
0.0
 31
0.0
  0
LINE
  5
384
330
37B
100
AcDbEntity
  8
0
  6
Continuous
 62
     0
370
     0
100
AcDbLine
 10
0.0
 20
-5.0
 30
0.0
 11
0.0
 21
-5.8
 31
0.0
  0
LINE
  5
385
330
37B
100
AcDbEntity
  8
0
  6
Continuous
 62
     0
370
     0
100
AcDbLine
 10
5.0
 20
0.0
 30
0.0
 11
5.8
 21
0.0
 31
0.0
  0
ENDBLK
  5
37D
330
37B
100
AcDbEntity
  8
0
100
AcDbBlockEnd
  0
BLOCK
  5
388
330
387
100
AcDbEntity
  8
0
100
AcDbBlockBegin
  2
SW_CENTERMARKSYMBOL_7
 70
     0
 10
0.0
 20
0.0
 30
0.0
  3
SW_CENTERMARKSYMBOL_7
  1

  0
LINE
  5
38A
330
387
100
AcDbEntity
  8
0
  6
Continuous
 62
     0
370
     0
100
AcDbLine
 10
0.0
 20
0.0
 30
0.0
 11
0.0
 21
2.5
 31
0.0
  0
LINE
  5
38B
330
387
100
AcDbEntity
  8
0
  6
Continuous
 62
     0
370
     0
100
AcDbLine
 10
0.0
 20
0.0
 30
0.0
 11
-2.5
 21
0.0
 31
0.0
  0
LINE
  5
38C
330
387
100
AcDbEntity
  8
0
  6
Continuous
 62
     0
370
     0
100
AcDbLine
 10
0.0
 20
0.0
 30
0.0
 11
0.0
 21
-2.5
 31
0.0
  0
LINE
  5
38D
330
387
100
AcDbEntity
  8
0
  6
Continuous
 62
     0
370
     0
100
AcDbLine
 10
0.0
 20
0.0
 30
0.0
 11
2.5
 21
0.0
 31
0.0
  0
LINE
  5
38E
330
387
100
AcDbEntity
  8
0
  6
Continuous
 62
     0
370
     0
100
AcDbLine
 10
0.0
 20
5.0
 30
0.0
 11
0.0
 21
6.0
 31
0.0
  0
LINE
  5
38F
330
387
100
AcDbEntity
  8
0
  6
Continuous
 62
     0
370
     0
100
AcDbLine
 10
-5.0
 20
0.0
 30
0.0
 11
-6.0
 21
0.0
 31
0.0
  0
LINE
  5
390
330
387
100
AcDbEntity
  8
0
  6
Continuous
 62
     0
370
     0
100
AcDbLine
 10
0.0
 20
-5.0
 30
0.0
 11
0.0
 21
-6.0
 31
0.0
  0
LINE
  5
391
330
387
100
AcDbEntity
  8
0
  6
Continuous
 62
     0
370
     0
100
AcDbLine
 10
5.0
 20
0.0
 30
0.0
 11
6.0
 21
0.0
 31
0.0
  0
ENDBLK
  5
389
330
387
100
AcDbEntity
  8
0
100
AcDbBlockEnd
  0
BLOCK
  5
415
330
414
100
AcDbEntity
  8
0
100
AcDbBlockBegin
  2
_D_15
 70
     0
 10
0.0
 20
0.0
 30
0.0
  3
_D_15
  1

  0
SOLID
  5
417
330
414
100
AcDbEntity
  8
0
  6
Continuous
 62
     7
370
     0
100
AcDbTrace
 10
164.0352696256
 20
57.3361000261
 30
0.0
 11
162.0352696256
 21
58.0861000261
 31
0.0
 12
162.0352696256
 22
56.5861000261
 32
0.0
 13
162.0352696256
 23
56.5861000261
 33
0.0
  0
SOLID
  5
418
330
414
100
AcDbEntity
  8
0
  6
Continuous
 62
     7
370
     0
100
AcDbTrace
 10
134.0352696256
 20
57.3361000261
 30
0.0
 11
136.0352696256
 21
56.5861000261
 31
0.0
 12
136.0352696256
 22
58.0861000261
 32
0.0
 13
136.0352696256
 23
58.0861000261
 33
0.0
  0
LINE
  5
419
330
414
100
AcDbEntity
  8
0
  6
Continuous
 62
     7
370
     0
100
AcDbLine
 10
164.0352696256
 20
74.0192840905
 30
0.0
 11
164.0352696256
 21
56.3361000261
 31
0.0
  0
LINE
  5
41A
330
414
100
AcDbEntity
  8
0
  6
Continuous
 62
     7
370
     0
100
AcDbLine
 10
134.0352696256
 20
74.0192840905
 30
0.0
 11
134.0352696256
 21
56.3361000261
 31
0.0
  0
LINE
  5
41B
330
414
100
AcDbEntity
  8
0
  6
Continuous
 62
     7
370
     0
100
AcDbLine
 10
164.0352696256
 20
57.3361000261
 30
0.0
 11
134.0352696256
 21
57.3361000261
 31
0.0
  0
MTEXT
  5
41C
330
414
100
AcDbEntity
  8
0
  6
Continuous
 62
     7
370
     0
100
AcDbMText
 10
148.3450323213
 20
61.8478369406
 30
12.3035862266
 40
3.5
 41
0.0
 71
     1
 72
     1
  1
30
  7
SLDTEXTSTYLE0
 73
     1
 44
1.0
  0
ENDBLK
  5
416
330
414
100
AcDbEntity
  8
0
100
AcDbBlockEnd
  0
BLOCK
  5
41F
330
41E
100
AcDbEntity
  8
0
100
AcDbBlockBegin
  2
_D_16
 70
     0
 10
0.0
 20
0.0
 30
0.0
  3
_D_16
  1

  0
SOLID
  5
421
330
41E
100
AcDbEntity
  8
0
  6
Continuous
 62
     7
370
     0
100
AcDbTrace
 10
164.0352696256
 20
57.3361000261
 30
0.0
 11
166.0352696256
 21
56.5861000261
 31
0.0
 12
166.0352696256
 22
58.0861000261
 32
0.0
 13
166.0352696256
 23
58.0861000261
 33
0.0
  0
SOLID
  5
422
330
41E
100
AcDbEntity
  8
0
  6
Continuous
 62
     7
370
     0
100
AcDbTrace
 10
190.2352696256
 20
57.3361000261
 30
0.0
 11
188.2352696256
 21
58.0861000261
 31
0.0
 12
188.2352696256
 22
56.5861000261
 32
0.0
 13
188.2352696256
 23
56.5861000261
 33
0.0
  0
LINE
  5
423
330
41E
100
AcDbEntity
  8
0
  6
Continuous
 62
     7
370
     0
100
AcDbLine
 10
164.0352696256
 20
74.0192840905
 30
0.0
 11
164.0352696256
 21
56.3361000261
 31
0.0
  0
LINE
  5
424
330
41E
100
AcDbEntity
  8
0
  6
Continuous
 62
     7
370
     0
100
AcDbLine
 10
190.2352696256
 20
84.0192840908
 30
0.0
 11
190.2352696256
 21
56.3361000261
 31
0.0
  0
LINE
  5
425
330
41E
100
AcDbEntity
  8
0
  6
Continuous
 62
     7
370
     0
100
AcDbLine
 10
164.0352696256
 20
57.3361000261
 30
0.0
 11
190.2352696256
 21
57.3361000261
 31
0.0
  0
MTEXT
  5
426
330
41E
100
AcDbEntity
  8
0
  6
Continuous
 62
     7
370
     0
100
AcDbMText
 10
174.200254722
 20
61.8478369406
 30
12.3035862266
 40
3.5
 41
0.0
 71
     1
 72
     1
  1
26.2
  7
SLDTEXTSTYLE0
 73
     1
 44
1.0
  0
ENDBLK
  5
420
330
41E
100
AcDbEntity
  8
0
100
AcDbBlockEnd
  0
BLOCK
  5
429
330
428
100
AcDbEntity
  8
0
100
AcDbBlockBegin
  2
_D_17
 70
     0
 10
0.0
 20
0.0
 30
0.0
  3
_D_17
  1

  0
SOLID
  5
42B
330
428
100
AcDbEntity
  8
0
  6
Continuous
 62
     7
370
     0
100
AcDbTrace
 10
137.5352696256
 20
65.4498294457
 30
0.0
 11
139.5352696256
 21
64.6998294457
 31
0.0
 12
139.5352696256
 22
66.1998294457
 32
0.0
 13
139.5352696256
 23
66.1998294457
 33
0.0
  0
SOLID
  5
42C
330
428
100
AcDbEntity
  8
0
  6
Continuous
 62
     7
370
     0
100
AcDbTrace
 10
157.5352696256
 20
65.4498294457
 30
0.0
 11
155.5352696256
 21
66.1998294457
 31
0.0
 12
155.5352696256
 22
64.6998294457
 32
0.0
 13
155.5352696256
 23
64.6998294457
 33
0.0
  0
LINE
  5
42D
330
428
100
AcDbEntity
  8
0
  6
Continuous
 62
     7
370
     0
100
AcDbLine
 10
137.5352696256
 20
90.8692840905
 30
0.0
 11
137.5352696256
 21
64.4498294457
 31
0.0
  0
LINE
  5
42E
330
428
100
AcDbEntity
  8
0
  6
Continuous
 62
     7
370
     0
100
AcDbLine
 10
157.5352696256
 20
72.8692840905
 30
0.0
 11
157.5352696256
 21
64.4498294457
 31
0.0
  0
LINE
  5
42F
330
428
100
AcDbEntity
  8
0
  6
Continuous
 62
     7
370
     0
100
AcDbLine
 10
137.5352696256
 20
65.4498294457
 30
0.0
 11
157.5352696256
 21
65.4498294457
 31
0.0
  0
MTEXT
  5
430
330
428
100
AcDbEntity
  8
0
  6
Continuous
 62
     7
370
     0
100
AcDbMText
 10
144.949158432
 20
69.9615663603
 30
12.3035862266
 40
3.5
 41
0.0
 71
     1
 72
     1
  1
20
  7
SLDTEXTSTYLE0
 73
     1
 44
1.0
  0
ENDBLK
  5
42A
330
428
100
AcDbEntity
  8
0
100
AcDbBlockEnd
  0
BLOCK
  5
433
330
432
100
AcDbEntity
  8
0
100
AcDbBlockBegin
  2
_D_18
 70
     0
 10
0.0
 20
0.0
 30
0.0
  3
_D_18
  1

  0
SOLID
  5
435
330
432
100
AcDbEntity
  8
0
  6
Continuous
 62
     7
370
     0
100
AcDbTrace
 10
149.0592053956
 20
105.8582467698
 30
0.0
 11
148.3092053956
 21
103.8582467698
 31
0.0
 12
149.8092053956
 22
103.8582467698
 32
0.0
 13
149.8092053956
 23
103.8582467698
 33
0.0
  0
SOLID
  5
436
330
432
100
AcDbEntity
  8
0
  6
Continuous
 62
     7
370
     0
100
AcDbTrace
 10
149.0592053956
 20
85.8582467698
 30
0.0
 11
149.8092053956
 21
87.8582467698
 31
0.0
 12
148.3092053956
 22
87.8582467698
 32
0.0
 13
148.3092053956
 23
87.8582467698
 33
0.0
  0
LINE
  5
437
330
432
100
AcDbEntity
  8
0
  6
Continuous
 62
     7
370
     0
100
AcDbLine
 10
150.3852696256
 20
105.8582467698
 30
0.0
 11
148.0592053956
 21
105.8582467698
 31
0.0
  0
LINE
  5
438
330
432
100
AcDbEntity
  8
0
  6
Continuous
 62
     7
370
     0
100
AcDbLine
 10
150.3852696256
 20
85.8582467698
 30
0.0
 11
148.0592053956
 21
85.8582467698
 31
0.0
  0
LINE
  5
439
330
432
100
AcDbEntity
  8
0
  6
Continuous
 62
     7
370
     0
100
AcDbLine
 10
149.0592053956
 20
105.8582467698
 30
0.0
 11
149.0592053956
 21
85.8582467698
 31
0.0
  0
MTEXT
  5
43A
330
432
100
AcDbEntity
  8
0
  6
Continuous
 62
     7
370
     0
100
AcDbMText
 10
144.547468481
 20
94.1995888572
 30
12.3035862266
 40
3.5
 41
0.0
 71
     1
 72
     1
  1
20
  7
SLDTEXTSTYLE0
 11
-7.044195017643634E-15
 21
1.0
 31
0.0
 73
     1
 44
1.0
  0
ENDBLK
  5
434
330
432
100
AcDbEntity
  8
0
100
AcDbBlockEnd
  0
BLOCK
  5
43D
330
43C
100
AcDbEntity
  8
0
100
AcDbBlockBegin
  2
_D_19
 70
     0
 10
0.0
 20
0.0
 30
0.0
  3
_D_19
  1

  0
SOLID
  5
43F
330
43C
100
AcDbEntity
  8
0
  6
Continuous
 62
     7
370
     0
100
AcDbTrace
 10
128.7699296271
 20
114.0192840905
 30
0.0
 11
128.0199296271
 21
112.0192840905
 31
0.0
 12
129.5199296271
 22
112.0192840905
 32
0.0
 13
129.5199296271
 23
112.0192840905
 33
0.0
  0
SOLID
  5
440
330
43C
100
AcDbEntity
  8
0
  6
Continuous
 62
     7
370
     0
100
AcDbTrace
 10
128.7699296271
 20
78.0192840905
 30
0.0
 11
129.5199296271
 21
80.0192840905
 31
0.0
 12
128.0199296271
 22
80.0192840905
 32
0.0
 13
128.0199296271
 23
80.0192840905
 33
0.0
  0
LINE
  5
441
330
43C
100
AcDbEntity
  8
0
  6
Continuous
 62
     7
370
     0
100
AcDbLine
 10
152.3852696256
 20
114.0192840905
 30
0.0
 11
127.7699296271
 21
114.0192840905
 31
0.0
  0
LINE
  5
442
330
43C
100
AcDbEntity
  8
0
  6
Continuous
 62
     7
370
     0
100
AcDbLine
 10
152.3852696256
 20
78.0192840905
 30
0.0
 11
127.7699296271
 21
78.0192840905
 31
0.0
  0
LINE
  5
443
330
43C
100
AcDbEntity
  8
0
  6
Continuous
 62
     7
370
     0
100
AcDbLine
 10
128.7699296271
 20
114.0192840905
 30
0.0
 11
128.7699296271
 21
78.0192840905
 31
0.0
  0
MTEXT
  5
444
330
43C
100
AcDbEntity
  8
0
  6
Continuous
 62
     7
370
     0
100
AcDbMText
 10
124.2581927125
 20
94.1995888572
 30
12.3035862266
 40
3.5
 41
0.0
 71
     1
 72
     1
  1
36
  7
SLDTEXTSTYLE0
 11
-7.044195017643634E-15
 21
1.0
 31
0.0
 73
     1
 44
1.0
  0
ENDBLK
  5
43E
330
43C
100
AcDbEntity
  8
0
100
AcDbBlockEnd
  0
BLOCK
  5
447
330
446
100
AcDbEntity
  8
0
100
AcDbBlockBegin
  2
_D_20
 70
     0
 10
0.0
 20
0.0
 30
0.0
  3
_D_20
  1

  0
SOLID
  5
449
330
446
100
AcDbEntity
  8
0
  6
Continuous
 62
     7
370
     0
100
AcDbTrace
 10
155.5352696256
 20
125.4568833643
 30
0.0
 11
153.5352696256
 21
126.2068833643
 31
0.0
 12
153.5352696256
 22
124.7068833643
 32
0.0
 13
153.5352696256
 23
124.7068833643
 33
0.0
  0
SOLID
  5
44A
330
446
100
AcDbEntity
  8
0
  6
Continuous
 62
     7
370
     0
100
AcDbTrace
 10
157.5352696256
 20
125.4568833643
 30
0.0
 11
159.5352696256
 21
124.7068833643
 31
0.0
 12
159.5352696256
 22
126.2068833643
 32
0.0
 13
159.5352696256
 23
126.2068833643
 33
0.0
  0
LINE
  5
44B
330
446
100
AcDbEntity
  8
0
  6
Continuous
 62
     7
370
     0
100
AcDbLine
 10
155.5352696256
 20
111.0082467698
 30
0.0
 11
155.5352696256
 21
126.4568833643
 31
0.0
  0
LINE
  5
44C
330
446
100
AcDbEntity
  8
0
  6
Continuous
 62
     7
370
     0
100
AcDbLine
 10
157.5352696256
 20
119.1692840905
 30
0.0
 11
157.5352696256
 21
126.4568833643
 31
0.0
  0
LINE
  5
44D
330
446
100
AcDbEntity
  8
0
  6
Continuous
 62
     7
370
     0
100
AcDbLine
 10
155.5352696256
 20
125.4568833643
 30
0.0
 11
147.7661497988
 21
125.4568833643
 31
0.0
  0
LINE
  5
44E
330
446
100
AcDbEntity
  8
0
  6
Continuous
 62
     7
370
     0
100
AcDbLine
 10
155.5352696256
 20
125.4568833643
 30
0.0
 11
157.5352696256
 21
125.4568833643
 31
0.0
  0
LINE
  5
44F
330
446
100
AcDbEntity
  8
0
  6
Continuous
 62
     7
370
     0
100
AcDbLine
 10
157.5352696256
 20
125.4568833643
 30
0.0
 11
162.5352696256
 21
125.4568833643
 31
0.0
  0
MTEXT
  5
450
330
446
100
AcDbEntity
  8
0
  6
Continuous
 62
     7
370
     0
100
AcDbMText
 10
147.7661497988
 20
129.9686202789
 30
12.3035862266
 40
3.5
 41
0.0
 71
     1
 72
     1
  1
2
  7
SLDTEXTSTYLE0
 73
     1
 44
1.0
  0
ENDBLK
  5
448
330
446
100
AcDbEntity
  8
0
100
AcDbBlockEnd
  0
BLOCK
  5
453
330
452
100
AcDbEntity
  8
0
100
AcDbBlockBegin
  2
_D_21
 70
     0
 10
0.0
 20
0.0
 30
0.0
  3
_D_21
  1

  0
SOLID
  5
455
330
452
100
AcDbEntity
  8
0
  6
Continuous
 62
     7
370
     0
100
AcDbTrace
 10
117.5352696256
 20
132.3035337051
 30
0.0
 11
119.5352696256
 21
131.5535337051
 31
0.0
 12
119.5352696256
 22
133.0535337051
 32
0.0
 13
119.5352696256
 23
133.0535337051
 33
0.0
  0
SOLID
  5
456
330
452
100
AcDbEntity
  8
0
  6
Continuous
 62
     7
370
     0
100
AcDbTrace
 10
157.5352696256
 20
132.3035337051
 30
0.0
 11
155.5352696256
 21
133.0535337051
 31
0.0
 12
155.5352696256
 22
131.5535337051
 32
0.0
 13
155.5352696256
 23
131.5535337051
 33
0.0
  0
LINE
  5
457
330
452
100
AcDbEntity
  8
0
  6
Continuous
 62
     7
370
     0
100
AcDbLine
 10
117.5352696256
 20
112.5192840905
 30
0.0
 11
117.5352696256
 21
133.3035337051
 31
0.0
  0
LINE
  5
458
330
452
100
AcDbEntity
  8
0
  6
Continuous
 62
     7
370
     0
100
AcDbLine
 10
157.5352696256
 20
119.1692840905
 30
0.0
 11
157.5352696256
 21
133.3035337051
 31
0.0
  0
LINE
  5
459
330
452
100
AcDbEntity
  8
0
  6
Continuous
 62
     7
370
     0
100
AcDbLine
 10
117.5352696256
 20
132.3035337051
 30
0.0
 11
157.5352696256
 21
132.3035337051
 31
0.0
  0
MTEXT
  5
45A
330
452
100
AcDbEntity
  8
0
  6
Continuous
 62
     7
370
     0
100
AcDbMText
 10
136.4831348594
 20
136.8152706197
 30
12.3035862266
 40
3.5
 41
0.0
 71
     1
 72
     1
  1
40
  7
SLDTEXTSTYLE0
 73
     1
 44
1.0
  0
ENDBLK
  5
454
330
452
100
AcDbEntity
  8
0
100
AcDbBlockEnd
  0
BLOCK
  5
45D
330
45C
100
AcDbEntity
  8
0
100
AcDbBlockBegin
  2
_D_22
 70
     0
 10
0.0
 20
0.0
 30
0.0
  3
_D_22
  1

  0
SOLID
  5
45F
330
45C
100
AcDbEntity
  8
0
  6
Continuous
 62
     7
370
     0
100
AcDbTrace
 10
157.5352696256
 20
132.3035337051
 30
0.0
 11
159.5352696256
 21
131.5535337051
 31
0.0
 12
159.5352696256
 22
133.0535337051
 32
0.0
 13
159.5352696256
 23
133.0535337051
 33
0.0
  0
SOLID
  5
460
330
45C
100
AcDbEntity
  8
0
  6
Continuous
 62
     7
370
     0
100
AcDbTrace
 10
190.2352696256
 20
132.3035337051
 30
0.0
 11
188.2352696256
 21
133.0535337051
 31
0.0
 12
188.2352696256
 22
131.5535337051
 32
0.0
 13
188.2352696256
 23
131.5535337051
 33
0.0
  0
LINE
  5
461
330
45C
100
AcDbEntity
  8
0
  6
Continuous
 62
     7
370
     0
100
AcDbLine
 10
157.5352696256
 20
119.1692840905
 30
0.0
 11
157.5352696256
 21
133.3035337051
 31
0.0
  0
LINE
  5
462
330
45C
100
AcDbEntity
  8
0
  6
Continuous
 62
     7
370
     0
100
AcDbLine
 10
190.2352696256
 20
108.0192840905
 30
0.0
 11
190.2352696256
 21
133.3035337051
 31
0.0
  0
LINE
  5
463
330
45C
100
AcDbEntity
  8
0
  6
Continuous
 62
     7
370
     0
100
AcDbLine
 10
157.5352696256
 20
132.3035337051
 30
0.0
 11
190.2352696256
 21
132.3035337051
 31
0.0
  0
MTEXT
  5
464
330
45C
100
AcDbEntity
  8
0
  6
Continuous
 62
     7
370
     0
100
AcDbMText
 10
172.105798651
 20
136.8152706197
 30
12.3035862266
 40
3.5
 41
0.0
 71
     1
 72
     1
  1
32.7
  7
SLDTEXTSTYLE0
 73
     1
 44
1.0
  0
ENDBLK
  5
45E
330
45C
100
AcDbEntity
  8
0
100
AcDbBlockEnd
  0
BLOCK
  5
46C
330
46B
100
AcDbEntity
  8
0
100
AcDbBlockBegin
  2
SW_CENTERMARKSYMBOL_8
 70
     0
 10
0.0
 20
0.0
 30
0.0
  3
SW_CENTERMARKSYMBOL_8
  1

  0
LINE
  5
46E
330
46B
100
AcDbEntity
  8
0
  6
Continuous
 62
     0
370
     0
100
AcDbLine
 10
0.0
 20
0.0
 30
0.0
 11
0.0
 21
2.5
 31
0.0
  0
LINE
  5
46F
330
46B
100
AcDbEntity
  8
0
  6
Continuous
 62
     0
370
     0
100
AcDbLine
 10
0.0
 20
0.0
 30
0.0
 11
-2.5
 21
0.0
 31
0.0
  0
LINE
  5
470
330
46B
100
AcDbEntity
  8
0
  6
Continuous
 62
     0
370
     0
100
AcDbLine
 10
0.0
 20
0.0
 30
0.0
 11
0.0
 21
-2.5
 31
0.0
  0
LINE
  5
471
330
46B
100
AcDbEntity
  8
0
  6
Continuous
 62
     0
370
     0
100
AcDbLine
 10
0.0
 20
0.0
 30
0.0
 11
2.5
 21
0.0
 31
0.0
  0
LINE
  5
472
330
46B
100
AcDbEntity
  8
0
  6
Continuous
 62
     0
370
     0
100
AcDbLine
 10
0.0
 20
2.5
 30
0.0
 11
0.0
 21
4.15
 31
0.0
  0
LINE
  5
473
330
46B
100
AcDbEntity
  8
0
  6
Continuous
 62
     0
370
     0
100
AcDbLine
 10
-2.5
 20
0.0
 30
0.0
 11
-4.15
 21
0.0
 31
0.0
  0
LINE
  5
474
330
46B
100
AcDbEntity
  8
0
  6
Continuous
 62
     0
370
     0
100
AcDbLine
 10
0.0
 20
-2.5
 30
0.0
 11
0.0
 21
-4.15
 31
0.0
  0
LINE
  5
475
330
46B
100
AcDbEntity
  8
0
  6
Continuous
 62
     0
370
     0
100
AcDbLine
 10
2.5
 20
0.0
 30
0.0
 11
4.15
 21
0.0
 31
0.0
  0
ENDBLK
  5
46D
330
46B
100
AcDbEntity
  8
0
100
AcDbBlockEnd
  0
BLOCK
  5
478
330
477
100
AcDbEntity
  8
0
100
AcDbBlockBegin
  2
SW_CENTERMARKSYMBOL_9
 70
     0
 10
0.0
 20
0.0
 30
0.0
  3
SW_CENTERMARKSYMBOL_9
  1

  0
LINE
  5
47A
330
477
100
AcDbEntity
  8
0
  6
Continuous
 62
     0
370
     0
100
AcDbLine
 10
0.0
 20
0.0
 30
0.0
 11
0.0
 21
2.5
 31
0.0
  0
LINE
  5
47B
330
477
100
AcDbEntity
  8
0
  6
Continuous
 62
     0
370
     0
100
AcDbLine
 10
0.0
 20
0.0
 30
0.0
 11
-2.5
 21
0.0
 31
0.0
  0
LINE
  5
47C
330
477
100
AcDbEntity
  8
0
  6
Continuous
 62
     0
370
     0
100
AcDbLine
 10
0.0
 20
0.0
 30
0.0
 11
0.0
 21
-2.5
 31
0.0
  0
LINE
  5
47D
330
477
100
AcDbEntity
  8
0
  6
Continuous
 62
     0
370
     0
100
AcDbLine
 10
0.0
 20
0.0
 30
0.0
 11
2.5
 21
0.0
 31
0.0
  0
LINE
  5
47E
330
477
100
AcDbEntity
  8
0
  6
Continuous
 62
     0
370
     0
100
AcDbLine
 10
0.0
 20
2.5
 30
0.0
 11
0.0
 21
4.15
 31
0.0
  0
LINE
  5
47F
330
477
100
AcDbEntity
  8
0
  6
Continuous
 62
     0
370
     0
100
AcDbLine
 10
-2.5
 20
0.0
 30
0.0
 11
-4.15
 21
0.0
 31
0.0
  0
LINE
  5
480
330
477
100
AcDbEntity
  8
0
  6
Continuous
 62
     0
370
     0
100
AcDbLine
 10
0.0
 20
-2.5
 30
0.0
 11
0.0
 21
-4.15
 31
0.0
  0
LINE
  5
481
330
477
100
AcDbEntity
  8
0
  6
Continuous
 62
     0
370
     0
100
AcDbLine
 10
2.5
 20
0.0
 30
0.0
 11
4.15
 21
0.0
 31
0.0
  0
ENDBLK
  5
479
330
477
100
AcDbEntity
  8
0
100
AcDbBlockEnd
  0
BLOCK
  5
484
330
483
100
AcDbEntity
  8
0
100
AcDbBlockBegin
  2
SW_CENTERMARKSYMBOL_10
 70
     0
 10
0.0
 20
0.0
 30
0.0
  3
SW_CENTERMARKSYMBOL_10
  1

  0
LINE
  5
486
330
483
100
AcDbEntity
  8
0
  6
Continuous
 62
     0
370
     0
100
AcDbLine
 10
0.0
 20
0.0
 30
0.0
 11
0.0
 21
2.5
 31
0.0
  0
LINE
  5
487
330
483
100
AcDbEntity
  8
0
  6
Continuous
 62
     0
370
     0
100
AcDbLine
 10
0.0
 20
0.0
 30
0.0
 11
-2.5
 21
0.0
 31
0.0
  0
LINE
  5
488
330
483
100
AcDbEntity
  8
0
  6
Continuous
 62
     0
370
     0
100
AcDbLine
 10
0.0
 20
0.0
 30
0.0
 11
0.0
 21
-2.5
 31
0.0
  0
LINE
  5
489
330
483
100
AcDbEntity
  8
0
  6
Continuous
 62
     0
370
     0
100
AcDbLine
 10
0.0
 20
0.0
 30
0.0
 11
2.5
 21
0.0
 31
0.0
  0
LINE
  5
48A
330
483
100
AcDbEntity
  8
0
  6
Continuous
 62
     0
370
     0
100
AcDbLine
 10
0.0
 20
2.5
 30
0.0
 11
0.0
 21
4.15
 31
0.0
  0
LINE
  5
48B
330
483
100
AcDbEntity
  8
0
  6
Continuous
 62
     0
370
     0
100
AcDbLine
 10
-2.5
 20
0.0
 30
0.0
 11
-4.15
 21
0.0
 31
0.0
  0
LINE
  5
48C
330
483
100
AcDbEntity
  8
0
  6
Continuous
 62
     0
370
     0
100
AcDbLine
 10
0.0
 20
-2.5
 30
0.0
 11
0.0
 21
-4.15
 31
0.0
  0
LINE
  5
48D
330
483
100
AcDbEntity
  8
0
  6
Continuous
 62
     0
370
     0
100
AcDbLine
 10
2.5
 20
0.0
 30
0.0
 11
4.15
 21
0.0
 31
0.0
  0
ENDBLK
  5
485
330
483
100
AcDbEntity
  8
0
100
AcDbBlockEnd
  0
BLOCK
  5
490
330
48F
100
AcDbEntity
  8
0
100
AcDbBlockBegin
  2
SW_CENTERMARKSYMBOL_11
 70
     0
 10
0.0
 20
0.0
 30
0.0
  3
SW_CENTERMARKSYMBOL_11
  1

  0
LINE
  5
492
330
48F
100
AcDbEntity
  8
0
  6
Continuous
 62
     0
370
     0
100
AcDbLine
 10
0.0
 20
0.0
 30
0.0
 11
0.0
 21
2.5
 31
0.0
  0
LINE
  5
493
330
48F
100
AcDbEntity
  8
0
  6
Continuous
 62
     0
370
     0
100
AcDbLine
 10
0.0
 20
0.0
 30
0.0
 11
-2.5
 21
0.0
 31
0.0
  0
LINE
  5
494
330
48F
100
AcDbEntity
  8
0
  6
Continuous
 62
     0
370
     0
100
AcDbLine
 10
0.0
 20
0.0
 30
0.0
 11
0.0
 21
-2.5
 31
0.0
  0
LINE
  5
495
330
48F
100
AcDbEntity
  8
0
  6
Continuous
 62
     0
370
     0
100
AcDbLine
 10
0.0
 20
0.0
 30
0.0
 11
2.5
 21
0.0
 31
0.0
  0
LINE
  5
496
330
48F
100
AcDbEntity
  8
0
  6
Continuous
 62
     0
370
     0
100
AcDbLine
 10
0.0
 20
2.5
 30
0.0
 11
0.0
 21
4.15
 31
0.0
  0
LINE
  5
497
330
48F
100
AcDbEntity
  8
0
  6
Continuous
 62
     0
370
     0
100
AcDbLine
 10
-2.5
 20
0.0
 30
0.0
 11
-4.15
 21
0.0
 31
0.0
  0
LINE
  5
498
330
48F
100
AcDbEntity
  8
0
  6
Continuous
 62
     0
370
     0
100
AcDbLine
 10
0.0
 20
-2.5
 30
0.0
 11
0.0
 21
-4.15
 31
0.0
  0
LINE
  5
499
330
48F
100
AcDbEntity
  8
0
  6
Continuous
 62
     0
370
     0
100
AcDbLine
 10
2.5
 20
0.0
 30
0.0
 11
4.15
 21
0.0
 31
0.0
  0
ENDBLK
  5
491
330
48F
100
AcDbEntity
  8
0
100
AcDbBlockEnd
  0
BLOCK
  5
49C
330
49B
100
AcDbEntity
  8
0
100
AcDbBlockBegin
  2
SW_CENTERMARKSYMBOL_12
 70
     0
 10
0.0
 20
0.0
 30
0.0
  3
SW_CENTERMARKSYMBOL_12
  1

  0
LINE
  5
49E
330
49B
100
AcDbEntity
  8
0
  6
Continuous
 62
     0
370
     0
100
AcDbLine
 10
0.0
 20
0.0
 30
0.0
 11
0.0
 21
2.5
 31
0.0
  0
LINE
  5
49F
330
49B
100
AcDbEntity
  8
0
  6
Continuous
 62
     0
370
     0
100
AcDbLine
 10
0.0
 20
0.0
 30
0.0
 11
-2.5
 21
0.0
 31
0.0
  0
LINE
  5
4A0
330
49B
100
AcDbEntity
  8
0
  6
Continuous
 62
     0
370
     0
100
AcDbLine
 10
0.0
 20
0.0
 30
0.0
 11
0.0
 21
-2.5
 31
0.0
  0
LINE
  5
4A1
330
49B
100
AcDbEntity
  8
0
  6
Continuous
 62
     0
370
     0
100
AcDbLine
 10
0.0
 20
0.0
 30
0.0
 11
2.5
 21
0.0
 31
0.0
  0
LINE
  5
4A2
330
49B
100
AcDbEntity
  8
0
  6
Continuous
 62
     0
370
     0
100
AcDbLine
 10
0.0
 20
2.5
 30
0.0
 11
0.0
 21
4.15
 31
0.0
  0
LINE
  5
4A3
330
49B
100
AcDbEntity
  8
0
  6
Continuous
 62
     0
370
     0
100
AcDbLine
 10
-2.5
 20
0.0
 30
0.0
 11
-4.15
 21
0.0
 31
0.0
  0
LINE
  5
4A4
330
49B
100
AcDbEntity
  8
0
  6
Continuous
 62
     0
370
     0
100
AcDbLine
 10
0.0
 20
-2.5
 30
0.0
 11
0.0
 21
-4.15
 31
0.0
  0
LINE
  5
4A5
330
49B
100
AcDbEntity
  8
0
  6
Continuous
 62
     0
370
     0
100
AcDbLine
 10
2.5
 20
0.0
 30
0.0
 11
4.15
 21
0.0
 31
0.0
  0
ENDBLK
  5
49D
330
49B
100
AcDbEntity
  8
0
100
AcDbBlockEnd
  0
BLOCK
  5
4A8
330
4A7
100
AcDbEntity
  8
0
100
AcDbBlockBegin
  2
SW_CENTERMARKSYMBOL_13
 70
     0
 10
0.0
 20
0.0
 30
0.0
  3
SW_CENTERMARKSYMBOL_13
  1

  0
LINE
  5
4AA
330
4A7
100
AcDbEntity
  8
0
  6
Continuous
 62
     0
370
     0
100
AcDbLine
 10
0.0
 20
0.0
 30
0.0
 11
0.0
 21
2.5
 31
0.0
  0
LINE
  5
4AB
330
4A7
100
AcDbEntity
  8
0
  6
Continuous
 62
     0
370
     0
100
AcDbLine
 10
0.0
 20
0.0
 30
0.0
 11
-2.5
 21
0.0
 31
0.0
  0
LINE
  5
4AC
330
4A7
100
AcDbEntity
  8
0
  6
Continuous
 62
     0
370
     0
100
AcDbLine
 10
0.0
 20
0.0
 30
0.0
 11
0.0
 21
-2.5
 31
0.0
  0
LINE
  5
4AD
330
4A7
100
AcDbEntity
  8
0
  6
Continuous
 62
     0
370
     0
100
AcDbLine
 10
0.0
 20
0.0
 30
0.0
 11
2.5
 21
0.0
 31
0.0
  0
LINE
  5
4AE
330
4A7
100
AcDbEntity
  8
0
  6
Continuous
 62
     0
370
     0
100
AcDbLine
 10
0.0
 20
2.5
 30
0.0
 11
0.0
 21
4.15
 31
0.0
  0
LINE
  5
4AF
330
4A7
100
AcDbEntity
  8
0
  6
Continuous
 62
     0
370
     0
100
AcDbLine
 10
-2.5
 20
0.0
 30
0.0
 11
-4.15
 21
0.0
 31
0.0
  0
LINE
  5
4B0
330
4A7
100
AcDbEntity
  8
0
  6
Continuous
 62
     0
370
     0
100
AcDbLine
 10
0.0
 20
-2.5
 30
0.0
 11
0.0
 21
-4.15
 31
0.0
  0
LINE
  5
4B1
330
4A7
100
AcDbEntity
  8
0
  6
Continuous
 62
     0
370
     0
100
AcDbLine
 10
2.5
 20
0.0
 30
0.0
 11
4.15
 21
0.0
 31
0.0
  0
ENDBLK
  5
4A9
330
4A7
100
AcDbEntity
  8
0
100
AcDbBlockEnd
  0
ENDSEC
  0
SECTION
  2
ENTITIES
  0
LINE
  5
44
330
1F
100
AcDbEntity
  8
0
  6
Continuous
 62
     7
370
     0
100
AcDbLine
 10
20.2604743903
 20
285.0
 30
0.0
 11
196.7604743903
 21
285.0
 31
0.0
  0
LINE
  5
45
330
1F
100
AcDbEntity
  8
0
  6
Continuous
 62
     7
370
     0
100
AcDbLine
 10
20.2604743903
 20
285.0
 30
0.0
 11
20.2604743903
 21
10.0
 31
0.0
  0
LINE
  5
46
330
1F
100
AcDbEntity
  8
0
  6
Continuous
 62
     7
370
     0
100
AcDbLine
 10
20.2604743903
 20
10.0
 30
0.0
 11
196.7604743903
 21
10.0
 31
0.0
  0
LINE
  5
47
330
1F
100
AcDbEntity
  8
0
  6
Continuous
 62
     7
370
     0
100
AcDbLine
 10
196.7604743903
 20
285.0
 30
0.0
 11
196.7604743903
 21
10.0
 31
0.0
  0
LINE
  5
48
330
1F
100
AcDbEntity
  8
0
  6
Continuous
 62
     7
370
     0
100
AcDbLine
 10
127.0104743903
 20
50.75
 30
0.0
 11
196.7604743903
 21
50.75
 31
0.0
  0
LINE
  5
49
330
1F
100
AcDbEntity
  8
0
  6
Continuous
 62
     7
370
     0
100
AcDbLine
 10
127.0104743903
 20
50.75
 30
0.0
 11
127.0104743903
 21
10.0
 31
0.0
  0
LINE
  5
4A
330
1F
100
AcDbEntity
  8
0
  6
Continuous
 62
     7
370
     0
100
AcDbLine
 10
127.0104743903
 20
22.75
 30
0.0
 11
196.7604743903
 21
22.75
 31
0.0
  0
LINE
  5
4B
330
1F
100
AcDbEntity
  8
0
  6
Continuous
 62
     7
370
     0
100
AcDbLine
 10
127.0104743903
 20
36.75
 30
0.0
 11
196.7604743903
 21
36.75
 31
0.0
  0
MTEXT
  5
4D
330
1F
100
AcDbEntity
  8
0
  6
Continuous
 62
     7
370
     0
100
AcDbMText
 10
62.6373701691
 20
102.8910107311
 30
0.0
 40
3.5
 41
0.0
 71
     1
 72
     1
  1
ストッパーネジ
  7
SLDTEXTSTYLE0
 73
     1
 44
1.0
  0
MTEXT
  5
4E
330
1F
100
AcDbEntity
  8
0
  6
Continuous
 62
     7
370
     0
100
AcDbMText
 10
84.2002084989
 20
218.8675924035
 30
0.0
 40
2.9104166667
 41
0.0
 71
     1
 72
     1
  1
KQ2S04-M5N
  7
SLDTEXTSTYLE0
 73
     1
 44
1.0
  0
MTEXT
  5
50
330
1F
100
AcDbEntity
  8
0
  6
Continuous
 62
     7
370
     0
100
AcDbMText
 10
161.2343011606
 20
30.4171582345
 30
0.0
 40
4.2333333333
 41
0.0
 71
     2
 72
     1
  1
NW2-35R-V001S
  7
SLDTEXTSTYLE1
 73
     1
 44
1.0
  0
MTEXT
  5
51
330
1F
100
AcDbEntity
  8
0
  6
Continuous
 62
     7
370
     0
100
AcDbMText
 10
158.1866983804
 20
45.4652632807
 30
0.0
 40
3.4395833333
 41
0.0
 71
     2
 72
     1
  1
ミニエアーニッパー・本体・逆長刃付
  7
SLDTEXTSTYLE1
 73
     1
 44
1.0
  0
MTEXT
  5
52
330
1F
100
AcDbEntity
  8
0
  6
Continuous
 62
     7
370
     0
100
AcDbMText
 10
162.6515412503
 20
16.8228189052
 30
0.0
 40
4.2333333333
 41
0.0
 71
     2
 72
     1
  1
131549
  7
SLDTEXTSTYLE1
 73
     1
 44
1.0
  0
LINE
  5
53
330
1F
100
AcDbEntity
  8
0
  6
Continuous
 62
     7
370
    15
100
AcDbLine
 10
105.3352683262
 20
171.2963158803
 30
0.0
 11
114.6294950918
 21
171.2963158803
 31
0.0
  0
LINE
  5
54
330
1F
100
AcDbEntity
  8
0
  6
Continuous
 62
     7
370
    15
100
AcDbLine
 10
114.6294950918
 20
179.2963163185
 30
0.0
 11
105.3352683262
 21
179.2963163185
 31
0.0
  0
LINE
  5
55
330
1F
100
AcDbEntity
  8
0
  6
Continuous
 62
     7
370
    15
100
AcDbLine
 10
102.9352724031
 20
171.4463165568
 30
0.0
 11
104.4352679924
 21
171.4463165568
 31
0.0
  0
LINE
  5
56
330
1F
100
AcDbEntity
  8
0
  6
Continuous
 62
     7
370
    15
100
AcDbLine
 10
104.4352679924
 20
179.1463163405
 30
0.0
 11
102.9352724031
 21
179.1463163405
 31
0.0
  0
LINE
  5
57
330
1F
100
AcDbEntity
  8
0
  6
Continuous
 62
     7
370
    15
100
AcDbLine
 10
104.4352679924
 20
172.896316422
 30
0.0
 11
105.3352683262
 21
172.896316422
 31
0.0
  0
LINE
  5
58
330
1F
100
AcDbEntity
  8
0
  6
Continuous
 62
     7
370
    15
100
AcDbLine
 10
105.3352683262
 20
177.6963164171
 30
0.0
 11
104.4352679924
 21
177.6963164171
 31
0.0
  0
LINE
  5
59
330
1F
100
AcDbEntity
  8
0
  6
Continuous
 62
     7
370
    15
100
AcDbLine
 10
123.3352712766
 20
187.296284044
 30
0.0
 11
135.5352691785
 21
187.296284044
 31
0.0
  0
LINE
  5
5A
330
1F
100
AcDbEntity
  8
0
  6
Continuous
 62
     7
370
    15
100
AcDbLine
 10
135.5352691785
 20
195.2962834927
 30
0.0
 11
123.3352712766
 21
195.2962834927
 31
0.0
  0
LINE
  5
5B
330
1F
100
AcDbEntity
  8
0
  6
Continuous
 62
     7
370
    15
100
AcDbLine
 10
120.935267903
 20
187.4462837892
 30
0.0
 11
122.4352709428
 21
187.4462837892
 31
0.0
  0
LINE
  5
5C
330
1F
100
AcDbEntity
  8
0
  6
Continuous
 62
     7
370
    15
100
AcDbLine
 10
122.4352709428
 20
195.1462837475
 30
0.0
 11
120.935267903
 21
195.1462837475
 31
0.0
  0
LINE
  5
5D
330
1F
100
AcDbEntity
  8
0
  6
Continuous
 62
     7
370
    15
100
AcDbLine
 10
122.4352709428
 20
188.89628412
 30
0.0
 11
123.3352712766
 21
188.89628412
 31
0.0
  0
LINE
  5
5E
330
1F
100
AcDbEntity
  8
0
  6
Continuous
 62
     7
370
    15
100
AcDbLine
 10
123.3352712766
 20
193.696284348
 30
0.0
 11
122.4352709428
 21
193.696284348
 31
0.0
  0
LINE
  5
5F
330
1F
100
AcDbEntity
  8
0
  6
Continuous
 62
     7
370
    15
100
AcDbLine
 10
181.0852695667
 20
162.9963169413
 30
0.0
 11
181.5852696487
 21
162.9963169413
 31
0.0
  0
LINE
  5
60
330
1F
100
AcDbEntity
  8
0
  6
Continuous
 62
     7
370
    15
100
AcDbLine
 10
181.5852696487
 20
170.5963161381
 30
0.0
 11
181.0852695667
 21
170.5963161381
 31
0.0
  0
ARC
  5
61
330
1F
100
AcDbEntity
  8
0
  6
Continuous
 62
     7
370
    15
100
AcDbCircle
 10
181.5852696256
 20
163.2463163423
 30
0.0
 40
0.2500000000011653
100
AcDbArc
 50
269.9999999994
 51
0.0
  0
ARC
  5
62
330
1F
100
AcDbEntity
  8
0
  6
Continuous
 62
     7
370
    15
100
AcDbCircle
 10
181.5852696256
 20
170.3463163423
 30
0.0
 40
0.2499999999986926
100
AcDbArc
 50
0.0
 51
90.0000000006
  0
LINE
  5
63
330
1F
100
AcDbEntity
  8
0
  6
Continuous
 62
     7
370
    15
100
AcDbLine
 10
181.0852695667
 20
188.9963165464
 30
0.0
 11
181.5852696487
 21
188.9963165464
 31
0.0
  0
LINE
  5
64
330
1F
100
AcDbEntity
  8
0
  6
Continuous
 62
     7
370
    15
100
AcDbLine
 10
181.5852696487
 20
196.5963157432
 30
0.0
 11
181.0852695667
 21
196.5963157432
 31
0.0
  0
ARC
  5
65
330
1F
100
AcDbEntity
  8
0
  6
Continuous
 62
     7
370
    15
100
AcDbCircle
 10
181.5852696256
 20
189.2463163423
 30
0.0
 40
0.2500000000014495
100
AcDbArc
 50
269.9999999994
 51
0.0
  0
ARC
  5
66
330
1F
100
AcDbEntity
  8
0
  6
Continuous
 62
     7
370
    15
100
AcDbCircle
 10
181.5852696256
 20
196.3463163423
 30
0.0
 40
0.2499999999986926
100
AcDbArc
 50
0.0
 51
90.0000000006
  0
ARC
  5
67
330
1F
100
AcDbEntity
  8
0
  6
Continuous
 62
     7
370
    15
100
AcDbCircle
 10
181.0852696256
 20
163.2463163423
 30
0.0
 40
0.2499999999984652
100
AcDbArc
 50
180.0
 51
269.9999999998
  0
ARC
  5
68
330
1F
100
AcDbEntity
  8
0
  6
Continuous
 62
     7
370
    15
100
AcDbCircle
 10
181.0852696256
 20
170.3463163423
 30
0.0
 40
0.2499999999984936
100
AcDbArc
 50
90.0000000002
 51
180.0
  0
ARC
  5
69
330
1F
100
AcDbEntity
  8
0
  6
Continuous
 62
     7
370
    15
100
AcDbCircle
 10
181.0852696256
 20
189.2463163423
 30
0.0
 40
0.249999999998721
100
AcDbArc
 50
180.0
 51
269.9999999997
  0
ARC
  5
6A
330
1F
100
AcDbEntity
  8
0
  6
Continuous
 62
     7
370
    15
100
AcDbCircle
 10
181.0852696256
 20
196.3463163423
 30
0.0
 40
0.2499999999986926
100
AcDbArc
 50
90.0000000003
 51
180.0
  0
LINE
  5
6B
330
1F
100
AcDbEntity
  8
0
  6
Continuous
 62
     7
370
    15
100
AcDbLine
 10
185.5352694579
 20
163.2963164317
 30
0.0
 11
185.835269414
 21
163.7963155823
 31
0.0
  0
LINE
  5
6C
330
1F
100
AcDbEntity
  8
0
  6
Continuous
 62
     7
370
    15
100
AcDbLine
 10
185.835269414
 20
169.7963165658
 30
0.0
 11
185.5352694579
 21
170.2963166477
 31
0.0
  0
LINE
  5
6D
330
1F
100
AcDbEntity
  8
0
  6
Continuous
 62
     7
370
    15
100
AcDbLine
 10
185.5352694579
 20
170.2963166477
 30
0.0
 11
181.8352696896
 21
170.2963166477
 31
0.0
  0
LINE
  5
6E
330
1F
100
AcDbEntity
  8
0
  6
Continuous
 62
     7
370
    15
100
AcDbLine
 10
181.8352696896
 20
163.2963164317
 30
0.0
 11
185.5352694579
 21
163.2963164317
 31
0.0
  0
LINE
  5
6F
330
1F
100
AcDbEntity
  8
0
  6
Continuous
 62
     7
370
    15
100
AcDbLine
 10
185.5352694579
 20
189.2963160368
 30
0.0
 11
185.835269414
 21
189.7963161187
 31
0.0
  0
LINE
  5
70
330
1F
100
AcDbEntity
  8
0
  6
Continuous
 62
     7
370
    15
100
AcDbLine
 10
185.835269414
 20
195.7963171022
 30
0.0
 11
185.5352694579
 21
196.2963162529
 31
0.0
  0
LINE
  5
71
330
1F
100
AcDbEntity
  8
0
  6
Continuous
 62
     7
370
    15
100
AcDbLine
 10
185.5352694579
 20
196.2963162529
 30
0.0
 11
181.8352696896
 21
196.2963162529
 31
0.0
  0
LINE
  5
72
330
1F
100
AcDbEntity
  8
0
  6
Continuous
 62
     7
370
    15
100
AcDbLine
 10
181.8352696896
 20
189.2963160368
 30
0.0
 11
185.5352694579
 21
189.2963160368
 31
0.0
  0
LINE
  5
73
330
1F
100
AcDbEntity
  8
0
  6
Continuous
 62
     7
370
    15
100
AcDbLine
 10
110.4604333118
 20
177.2963163981
 30
0.0
 11
110.2352693156
 21
176.9063164553
 31
0.0
  0
LINE
  5
74
330
1F
100
AcDbEntity
  8
0
  6
Continuous
 62
     7
370
    15
100
AcDbLine
 10
110.2352693156
 20
173.6863163838
 30
0.0
 11
110.4604333118
 21
173.2963162081
 31
0.0
  0
LINE
  5
75
330
1F
100
AcDbEntity
  8
0
  6
Continuous
 62
     7
370
    15
100
AcDbLine
 10
110.4604333118
 20
173.2963162081
 30
0.0
 11
114.335271664
 21
173.2963162081
 31
0.0
  0
LINE
  5
76
330
1F
100
AcDbEntity
  8
0
  6
Continuous
 62
     7
370
    15
100
AcDbLine
 10
114.335271664
 20
177.2963163981
 30
0.0
 11
110.4604333118
 21
177.2963163981
 31
0.0
  0
LINE
  5
77
330
1F
100
AcDbEntity
  8
0
  6
Continuous
 62
     7
370
    15
100
AcDbLine
 10
120.0352712945
 20
173.8463162052
 30
0.0
 11
120.2352709547
 21
174.0463163311
 31
0.0
  0
LINE
  5
78
330
1F
100
AcDbEntity
  8
0
  6
Continuous
 62
     7
370
    15
100
AcDbLine
 10
120.2352709547
 20
176.5463162752
 30
0.0
 11
120.0352712945
 21
176.7463164011
 31
0.0
  0
LINE
  5
79
330
1F
100
AcDbEntity
  8
0
  6
Continuous
 62
     7
370
    15
100
AcDbLine
 10
135.7352688388
 20
163.2963164317
 30
0.0
 11
139.5352698342
 21
163.2963164317
 31
0.0
  0
LINE
  5
7A
330
1F
100
AcDbEntity
  8
0
  6
Continuous
 62
     7
370
    15
100
AcDbLine
 10
139.5352698342
 20
170.2963166477
 30
0.0
 11
135.7352688388
 21
170.2963166477
 31
0.0
  0
ARC
  5
7B
330
1F
100
AcDbEntity
  8
0
  6
Continuous
 62
     7
370
    15
100
AcDbCircle
 10
135.7352696256
 20
163.4963163423
 30
0.0
 40
0.2000000000000171
100
AcDbArc
 50
180.0
 51
270.0
  0
ARC
  5
7C
330
1F
100
AcDbEntity
  8
0
  6
Continuous
 62
     7
370
    15
100
AcDbCircle
 10
135.7352696256
 20
170.0963163423
 30
0.0
 40
0.2000000000000171
100
AcDbArc
 50
90.0
 51
180.0
  0
ARC
  5
7D
330
1F
100
AcDbEntity
  8
0
  6
Continuous
 62
     7
370
    15
100
AcDbCircle
 10
135.7352696256
 20
189.4963163423
 30
0.0
 40
0.1999999999999886
100
AcDbArc
 50
180.0
 51
270.0
  0
ARC
  5
7E
330
1F
100
AcDbEntity
  8
0
  6
Continuous
 62
     7
370
    15
100
AcDbCircle
 10
135.7352696256
 20
196.0963163423
 30
0.0
 40
0.2000000000000171
100
AcDbArc
 50
90.0
 51
180.0
  0
LINE
  5
7F
330
1F
100
AcDbEntity
  8
0
  6
Continuous
 62
     7
370
    15
100
AcDbLine
 10
135.7352688388
 20
189.2963160368
 30
0.0
 11
139.5352698342
 21
189.2963160368
 31
0.0
  0
LINE
  5
80
330
1F
100
AcDbEntity
  8
0
  6
Continuous
 62
     7
370
    15
100
AcDbLine
 10
139.5352698342
 20
196.2963162529
 30
0.0
 11
135.7352688388
 21
196.2963162529
 31
0.0
  0
LINE
  5
81
330
1F
100
AcDbEntity
  8
0
  6
Continuous
 62
     7
370
    15
100
AcDbLine
 10
114.5848363117
 20
179.2285848365
 30
0.0
 11
114.335271664
 21
178.7963162948
 31
0.0
  0
LINE
  5
82
330
1F
100
AcDbEntity
  8
0
  6
Continuous
 62
     7
370
    15
100
AcDbLine
 10
114.335271664
 20
171.7963159623
 30
0.0
 11
114.5848363117
 21
171.3640481772
 31
0.0
  0
LINE
  5
83
330
1F
100
AcDbEntity
  8
0
  6
Continuous
 62
     7
370
    15
100
AcDbLine
 10
161.8352692054
 20
162.0963166075
 30
0.0
 11
161.8352692054
 21
161.4963157641
 31
0.0
  0
LINE
  5
84
330
1F
100
AcDbEntity
  8
0
  6
Continuous
 62
     7
370
    15
100
AcDbLine
 10
177.8352696306
 20
161.4963157641
 30
0.0
 11
177.8352696306
 21
162.0963166075
 31
0.0
  0
LINE
  5
85
330
1F
100
AcDbEntity
  8
0
  6
Continuous
 62
     7
370
    15
100
AcDbLine
 10
161.8352692054
 20
161.4963157641
 30
0.0
 11
162.0352688656
 21
161.2963161038
 31
0.0
  0
LINE
  5
86
330
1F
100
AcDbEntity
  8
0
  6
Continuous
 62
     7
370
    15
100
AcDbLine
 10
177.6352696357
 20
161.2963161038
 30
0.0
 11
177.8352696306
 21
161.4963157641
 31
0.0
  0
LINE
  5
87
330
1F
100
AcDbEntity
  8
0
  6
Continuous
 62
     7
370
    15
100
AcDbLine
 10
177.8352696306
 20
162.0963166075
 30
0.0
 11
177.6352696357
 21
162.2963162678
 31
0.0
  0
LINE
  5
88
330
1F
100
AcDbEntity
  8
0
  6
Continuous
 62
     7
370
    15
100
AcDbLine
 10
162.0352688656
 20
162.2963162678
 30
0.0
 11
161.8352692054
 21
162.0963166075
 31
0.0
  0
LINE
  5
89
330
1F
100
AcDbEntity
  8
0
  6
Continuous
 62
     7
370
    15
100
AcDbLine
 10
165.835269861
 20
161.2963161038
 30
0.0
 11
165.835269861
 21
160.7963169532
 31
0.0
  0
LINE
  5
8A
330
1F
100
AcDbEntity
  8
0
  6
Continuous
 62
     7
370
    15
100
AcDbLine
 10
173.8352697753
 20
160.7963169532
 30
0.0
 11
173.8352697753
 21
161.2963161038
 31
0.0
  0
LINE
  5
8B
330
1F
100
AcDbEntity
  8
0
  6
Continuous
 62
     7
370
    15
100
AcDbLine
 10
167.8352692575
 20
158.2963156121
 30
0.0
 11
167.8352692575
 21
157.9963161217
 31
0.0
  0
LINE
  5
8C
330
1F
100
AcDbEntity
  8
0
  6
Continuous
 62
     7
370
    15
100
AcDbLine
 10
167.8352692575
 20
156.7963162976
 30
0.0
 11
167.8352692575
 21
156.6963164674
 31
0.0
  0
LINE
  5
8D
330
1F
100
AcDbEntity
  8
0
  6
Continuous
 62
     7
370
    15
100
AcDbLine
 10
171.8352694475
 20
156.6963164674
 30
0.0
 11
171.8352694475
 21
156.7963162976
 31
0.0
  0
LINE
  5
8E
330
1F
100
AcDbEntity
  8
0
  6
Continuous
 62
     7
370
    15
100
AcDbLine
 10
171.8352694475
 20
157.9963161217
 30
0.0
 11
171.8352694475
 21
158.2963156121
 31
0.0
  0
LINE
  5
8F
330
1F
100
AcDbEntity
  8
0
  6
Continuous
 62
     7
370
    15
100
AcDbLine
 10
121.0352695958
 20
177.2963163981
 30
0.0
 11
120.2352709547
 21
177.2963163981
 31
0.0
  0
LINE
  5
90
330
1F
100
AcDbEntity
  8
0
  6
Continuous
 62
     7
370
    15
100
AcDbLine
 10
120.2352709547
 20
173.2963162081
 30
0.0
 11
121.0352695958
 21
173.2963162081
 31
0.0
  0
LINE
  5
91
330
1F
100
AcDbEntity
  8
0
  6
Continuous
 62
     7
370
    15
100
AcDbLine
 10
135.5352691785
 20
171.5272158923
 30
0.0
 11
139.5352698342
 21
171.5272158923
 31
0.0
  0
LINE
  5
92
330
1F
100
AcDbEntity
  8
0
  6
Continuous
 62
     7
370
    15
100
AcDbLine
 10
139.5352698342
 20
188.0654167922
 30
0.0
 11
135.5352691785
 21
188.0654167922
 31
0.0
  0
ARC
  5
93
330
1F
100
AcDbEntity
  8
0
  6
Continuous
 62
     7
370
    15
100
AcDbCircle
 10
134.5352696256
 20
163.7963163423
 30
0.0
 40
1.0
100
AcDbArc
 50
0.0
 51
90.0
  0
ARC
  5
94
330
1F
100
AcDbEntity
  8
0
  6
Continuous
 62
     7
370
    15
100
AcDbCircle
 10
134.5352696256
 20
186.7963163423
 30
0.0
 40
1.0
100
AcDbArc
 50
270.0
 51
0.0
  0
LINE
  5
95
330
1F
100
AcDbEntity
  8
0
  6
Continuous
 62
     7
370
    15
100
AcDbLine
 10
134.5352708773
 20
185.7963163944
 30
0.0
 11
121.0352695958
 21
185.7963163944
 31
0.0
  0
LINE
  5
96
330
1F
100
AcDbEntity
  8
0
  6
Continuous
 62
     7
370
    15
100
AcDbLine
 10
121.0352695958
 20
164.7963166775
 30
0.0
 11
134.5352708773
 21
164.7963166775
 31
0.0
  0
LINE
  5
97
330
1F
100
AcDbEntity
  8
0
  6
Continuous
 62
     7
370
    15
100
AcDbLine
 10
105.3352683262
 20
175.296316536
 30
0.0
 11
105.3352683262
 21
179.2963163185
 31
0.0
  0
LINE
  5
98
330
1F
100
AcDbEntity
  8
0
  6
Continuous
 62
     7
370
    15
100
AcDbLine
 10
105.3352683262
 20
171.2963158803
 30
0.0
 11
105.3352683262
 21
175.296316536
 31
0.0
  0
LINE
  5
99
330
1F
100
AcDbEntity
  8
0
  6
Continuous
 62
     7
370
    15
100
AcDbLine
 10
102.9352724031
 20
171.4463165568
 30
0.0
 11
102.9352724031
 21
179.1463163405
 31
0.0
  0
LINE
  5
9A
330
1F
100
AcDbEntity
  8
0
  6
Continuous
 62
     7
370
    15
100
AcDbLine
 10
104.4352679924
 20
171.4463165568
 30
0.0
 11
104.4352679924
 21
179.1463163405
 31
0.0
  0
LINE
  5
9B
330
1F
100
AcDbEntity
  8
0
  6
Continuous
 62
     7
370
    15
100
AcDbLine
 10
123.3352712766
 20
191.2962837683
 30
0.0
 11
123.3352712766
 21
195.2962834927
 31
0.0
  0
LINE
  5
9C
330
1F
100
AcDbEntity
  8
0
  6
Continuous
 62
     7
370
    15
100
AcDbLine
 10
123.3352712766
 20
187.296284044
 30
0.0
 11
123.3352712766
 21
191.2962837683
 31
0.0
  0
LINE
  5
9D
330
1F
100
AcDbEntity
  8
0
  6
Continuous
 62
     7
370
    15
100
AcDbLine
 10
122.4352709428
 20
187.4462837892
 30
0.0
 11
122.4352709428
 21
195.1462837475
 31
0.0
  0
LINE
  5
9E
330
1F
100
AcDbEntity
  8
0
  6
Continuous
 62
     7
370
    15
100
AcDbLine
 10
120.935267903
 20
187.4462837892
 30
0.0
 11
120.935267903
 21
195.1462837475
 31
0.0
  0
LINE
  5
9F
330
1F
100
AcDbEntity
  8
0
  6
Continuous
 62
     7
370
    15
100
AcDbLine
 10
179.2352696826
 20
197.2963164168
 30
0.0
 11
180.8352695257
 21
197.2963164168
 31
0.0
  0
LINE
  5
A0
330
1F
100
AcDbEntity
  8
0
  6
Continuous
 62
     7
370
    15
100
AcDbLine
 10
180.8352695257
 20
193.2963166924
 30
0.0
 11
180.8352695257
 21
197.2963164168
 31
0.0
  0
LINE
  5
A1
330
1F
100
AcDbEntity
  8
0
  6
Continuous
 62
     7
370
    15
100
AcDbLine
 10
179.2352696826
 20
193.2963166924
 30
0.0
 11
180.8352695257
 21
193.2963166924
 31
0.0
  0
LINE
  5
A2
330
1F
100
AcDbEntity
  8
0
  6
Continuous
 62
     7
370
    15
100
AcDbLine
 10
179.2352696826
 20
193.2963166924
 30
0.0
 11
179.2352696826
 21
197.2963164168
 31
0.0
  0
LINE
  5
A3
330
1F
100
AcDbEntity
  8
0
  6
Continuous
 62
     7
370
    15
100
AcDbLine
 10
179.2352696826
 20
165.9963165017
 30
0.0
 11
180.8352695257
 21
165.9963165017
 31
0.0
  0
LINE
  5
A4
330
1F
100
AcDbEntity
  8
0
  6
Continuous
 62
     7
370
    15
100
AcDbLine
 10
179.2352696826
 20
165.9963165017
 30
0.0
 11
179.2352696826
 21
193.2963166924
 31
0.0
  0
LINE
  5
A5
330
1F
100
AcDbEntity
  8
0
  6
Continuous
 62
     7
370
    15
100
AcDbLine
 10
180.8352695257
 20
193.2963166924
 30
0.0
 11
180.8352695257
 21
165.9963165017
 31
0.0
  0
LINE
  5
A6
330
1F
100
AcDbEntity
  8
0
  6
Continuous
 62
     7
370
    15
100
AcDbLine
 10
180.8352695257
 20
161.9963167774
 30
0.0
 11
179.2352696826
 21
161.9963167774
 31
0.0
  0
LINE
  5
A7
330
1F
100
AcDbEntity
  8
0
  6
Continuous
 62
     7
370
    15
100
AcDbLine
 10
180.8352695257
 20
161.9963167774
 30
0.0
 11
180.8352695257
 21
165.9963165017
 31
0.0
  0
LINE
  5
A8
330
1F
100
AcDbEntity
  8
0
  6
Continuous
 62
     7
370
    15
100
AcDbLine
 10
181.8352696896
 20
166.796316074
 30
0.0
 11
181.8352696896
 21
163.2463155853
 31
0.0
  0
LINE
  5
A9
330
1F
100
AcDbEntity
  8
0
  6
Continuous
 62
     7
370
    15
100
AcDbLine
 10
181.8352696896
 20
170.3463165628
 30
0.0
 11
181.8352696896
 21
166.796316074
 31
0.0
  0
LINE
  5
AA
330
1F
100
AcDbEntity
  8
0
  6
Continuous
 62
     7
370
    15
100
AcDbLine
 10
181.8352696896
 20
192.7963166105
 30
0.0
 11
181.8352696896
 21
189.2463161217
 31
0.0
  0
LINE
  5
AB
330
1F
100
AcDbEntity
  8
0
  6
Continuous
 62
     7
370
    15
100
AcDbLine
 10
181.8352696896
 20
196.3463170992
 30
0.0
 11
181.8352696896
 21
192.7963166105
 31
0.0
  0
LINE
  5
AC
330
1F
100
AcDbEntity
  8
0
  6
Continuous
 62
     7
370
    15
100
AcDbLine
 10
185.835269414
 20
169.7963165658
 30
0.0
 11
185.835269414
 21
163.7963155823
 31
0.0
  0
LINE
  5
AD
330
1F
100
AcDbEntity
  8
0
  6
Continuous
 62
     7
370
    15
100
AcDbLine
 10
185.5352694579
 20
166.796316074
 30
0.0
 11
185.5352694579
 21
163.2963164317
 31
0.0
  0
LINE
  5
AE
330
1F
100
AcDbEntity
  8
0
  6
Continuous
 62
     7
370
    15
100
AcDbLine
 10
185.5352694579
 20
170.2963166477
 30
0.0
 11
185.5352694579
 21
166.796316074
 31
0.0
  0
LINE
  5
AF
330
1F
100
AcDbEntity
  8
0
  6
Continuous
 62
     7
370
    15
100
AcDbLine
 10
185.835269414
 20
195.7963171022
 30
0.0
 11
185.835269414
 21
189.7963161187
 31
0.0
  0
LINE
  5
B0
330
1F
100
AcDbEntity
  8
0
  6
Continuous
 62
     7
370
    15
100
AcDbLine
 10
185.5352694579
 20
192.7963166105
 30
0.0
 11
185.5352694579
 21
189.2963160368
 31
0.0
  0
LINE
  5
B1
330
1F
100
AcDbEntity
  8
0
  6
Continuous
 62
     7
370
    15
100
AcDbLine
 10
185.5352694579
 20
196.2963162529
 30
0.0
 11
185.5352694579
 21
192.7963166105
 31
0.0
  0
LINE
  5
B2
330
1F
100
AcDbEntity
  8
0
  6
Continuous
 62
     7
370
    15
100
AcDbLine
 10
189.2352692262
 20
208.4963160174
 30
0.0
 11
188.7352700756
 21
208.4963160174
 31
0.0
  0
LINE
  5
B3
330
1F
100
AcDbEntity
  8
0
  6
Continuous
 62
     7
370
    15
100
AcDbLine
 10
189.2352692262
 20
208.4963160174
 30
0.0
 11
189.2352692262
 21
202.7517544644
 31
0.0
  0
LINE
  5
B4
330
1F
100
AcDbEntity
  8
0
  6
Continuous
 62
     7
370
    15
100
AcDbLine
 10
180.8352695257
 20
202.7517544644
 30
0.0
 11
189.2352692262
 21
202.7517544644
 31
0.0
  0
LINE
  5
B5
330
1F
100
AcDbEntity
  8
0
  6
Continuous
 62
     7
370
    15
100
AcDbLine
 10
180.8352695257
 20
208.4963160174
 30
0.0
 11
188.7352700756
 21
208.4963160174
 31
0.0
  0
LINE
  5
B6
330
1F
100
AcDbEntity
  8
0
  6
Continuous
 62
     7
370
    15
100
AcDbLine
 10
180.8352695257
 20
202.7517544644
 30
0.0
 11
180.8352695257
 21
208.4963160174
 31
0.0
  0
SPLINE
  5
B7
330
1F
100
AcDbEntity
  8
0
  6
Continuous
 62
     7
370
    15
100
AcDbSpline
210
0.0
220
0.0
230
1.0
 70
    24
 71
     3
 72
    22
 73
    18
 74
     0
 42
0.00000001
 43
0.00000001
 12
1.0
 22
0.0
 32
0.0
 13
1.0
 23
0.0
 33
0.0
 40
0.0
 40
0.0
 40
0.0
 40
0.0
 40
0.042394620029233
 40
0.0865073572769849
 40
0.1288404231007395
 40
0.1722589480118629
 40
0.2041398572928389
 40
0.2362757964658752
 40
0.3019815479510068
 40
0.3562323517974397
 40
0.4109156604847719
 40
0.4666103317431791
 40
0.5225391489713952
 40
0.6403370102278211
 40
0.7590477948211928
 40
0.8793991476356219
 40
1.0
 40
1.0
 40
1.0
 40
1.0
 10
189.2352692262133
 20
208.4963160174153
 30
0.0
 10
189.273541551147
 20
208.4963160174153
 30
0.0
 10
189.3516372549083
 20
208.4963160174153
 30
0.0
 10
189.463284397329
 20
208.4963160174153
 30
0.0
 10
189.567575062046
 20
208.4963160174153
 30
0.0
 10
189.6532479496298
 20
208.4963160174153
 30
0.0
 10
189.7241370851775
 20
208.4963160174153
 30
0.0
 10
189.8024332494618
 20
208.4963160174153
 30
0.0
 10
189.8818444778086
 20
208.4963160174153
 30
0.0
 10
189.9576456249536
 20
208.4963160174153
 30
0.0
 10
190.0176769431318
 20
208.4963160174153
 30
0.0
 10
190.0681212163271
 20
208.4963160174153
 30
0.0
 10
190.125347608739
 20
208.4963160174153
 30
0.0
 10
190.1771783478825
 20
208.4963160174153
 30
0.0
 10
190.2141915882472
 20
208.4963160174153
 30
0.0
 10
190.2327315024804
 20
208.4963160174153
 30
0.0
 10
190.2344228437979
 20
208.4963160174153
 30
0.0
 10
190.235269390126
 20
208.4963160174153
 30
0.0
  0
LINE
  5
B8
330
1F
100
AcDbEntity
  8
0
  6
Continuous
 62
     7
370
    15
100
AcDbLine
 10
190.2352693901
 20
202.7517544644
 30
0.0
 11
190.2352693901
 21
208.4963160174
 31
0.0
  0
LINE
  5
B9
330
1F
100
AcDbEntity
  8
0
  6
Continuous
 62
     7
370
    15
100
AcDbLine
 10
189.2352692262
 20
202.7517544644
 30
0.0
 11
190.2352693901
 21
202.7517544644
 31
0.0
  0
LINE
  5
BA
330
1F
100
AcDbEntity
  8
0
  6
Continuous
 62
     7
370
    15
100
AcDbLine
 10
190.2352693901
 20
202.7517544644
 30
0.0
 11
190.2352693901
 21
168.7963164019
 31
0.0
  0
LINE
  5
BB
330
1F
100
AcDbEntity
  8
0
  6
Continuous
 62
     7
370
    15
100
AcDbLine
 10
189.2352692262
 20
168.7963164019
 30
0.0
 11
190.2352693901
 21
168.7963164019
 31
0.0
  0
LINE
  5
BC
330
1F
100
AcDbEntity
  8
0
  6
Continuous
 62
     7
370
    15
100
AcDbLine
 10
189.2352692262
 20
202.7517544644
 30
0.0
 11
189.2352692262
 21
168.7963164019
 31
0.0
  0
LINE
  5
BD
330
1F
100
AcDbEntity
  8
0
  6
Continuous
 62
     7
370
    15
100
AcDbLine
 10
190.2352693901
 20
168.7963164019
 30
0.0
 11
190.2352693901
 21
167.796316238
 31
0.0
  0
ARC
  5
BE
330
1F
100
AcDbEntity
  8
0
  6
Continuous
 62
     7
370
    15
100
AcDbCircle
 10
189.2352696256
 20
167.7963163423
 30
0.0
 40
0.9999999999984944
100
AcDbArc
 50
270.0000000002
 51
0.0000022584
  0
LINE
  5
BF
330
1F
100
AcDbEntity
  8
0
  6
Continuous
 62
     7
370
    15
100
AcDbLine
 10
189.2352692262
 20
168.7963164019
 30
0.0
 11
189.2352692262
 21
166.796316074
 31
0.0
  0
LINE
  5
C0
330
1F
100
AcDbEntity
  8
0
  6
Continuous
 62
     7
370
    15
100
AcDbLine
 10
180.8352695257
 20
197.2963164168
 30
0.0
 11
180.8352695257
 21
202.7517544644
 31
0.0
  0
LINE
  5
C1
330
1F
100
AcDbEntity
  8
0
  6
Continuous
 62
     7
370
    15
100
AcDbLine
 10
185.835269414
 20
166.796316074
 30
0.0
 11
189.2352692262
 21
166.796316074
 31
0.0
  0
LINE
  5
C2
330
1F
100
AcDbEntity
  8
0
  6
Continuous
 62
     7
370
    15
100
AcDbLine
 10
188.7352700756
 20
219.4725132154
 30
0.0
 11
188.7352700756
 21
240.1587484943
 31
0.0
  0
LINE
  5
C3
330
1F
100
AcDbEntity
  8
0
  6
Continuous
 62
     7
370
    15
100
AcDbLine
 10
184.6991070957
 20
219.4725132154
 30
0.0
 11
188.7352700756
 21
219.4725132154
 31
0.0
  0
LINE
  5
C4
330
1F
100
AcDbEntity
  8
0
  6
Continuous
 62
     7
370
    15
100
AcDbLine
 10
184.6991070957
 20
219.4725132154
 30
0.0
 11
184.7352694199
 21
219.9369153546
 31
0.0
  0
SPLINE
  5
C5
330
1F
100
AcDbEntity
  8
0
  6
Continuous
 62
     7
370
    15
100
AcDbSpline
210
0.0
220
0.0
230
1.0
 70
     8
 71
     3
 72
    15
 73
    11
 74
     0
 42
0.00000001
 43
0.00000001
 12
1.0
 22
0.0
 32
0.0
 13
1.0
 23
0.0
 33
0.0
 40
0.0
 40
0.0
 40
0.0
 40
0.0
 40
0.1338811145219483
 40
0.26776754450435
 40
0.4061141878813165
 40
0.5444735567235439
 40
0.6573588224932283
 40
0.7702506920324635
 40
0.8851223148607099
 40
1.0
 40
1.0
 40
1.0
 40
1.0
 10
184.7352694199282
 20
225.0976307856104
 30
0.0
 10
184.7469553968998
 20
225.8272584255944
 30
0.0
 10
184.7703278148096
 20
227.2865426738518
 30
0.0
 10
184.9563344080346
 20
229.4714088931063
 30
0.0
 10
185.252982604067
 20
231.6361891147334
 30
0.0
 10
185.6402633765004
 20
233.6322100677143
 30
0.0
 10
186.0820831940319
 20
235.4374438764519
 30
0.0
 10
186.5569223712399
 20
237.0686843414364
 30
0.0
 10
187.0868071917692
 20
238.6520173461057
 30
0.0
 10
187.4816376411943
 20
239.6564959432943
 30
0.0
 10
187.6790580750303
 20
240.1587484942935
 30
0.0
  0
LINE
  5
C6
330
1F
100
AcDbEntity
  8
0
  6
Continuous
 62
     7
370
    15
100
AcDbLine
 10
187.679058075
 20
240.1587484943
 30
0.0
 11
188.7352700756
 21
240.1587484943
 31
0.0
  0
LINE
  5
C7
330
1F
100
AcDbEntity
  8
0
  6
Continuous
 62
     7
370
    15
100
AcDbLine
 10
184.7352694199
 20
219.9369153546
 30
0.0
 11
184.7352694199
 21
225.0976307856
 31
0.0
  0
LINE
  5
C8
330
1F
100
AcDbEntity
  8
0
  6
Continuous
 62
     7
370
    15
100
AcDbLine
 10
180.8352695257
 20
206.0569009351
 30
0.0
 11
180.7352696956
 21
206.0569009351
 31
0.0
  0
LINE
  5
C9
330
1F
100
AcDbEntity
  8
0
  6
Continuous
 62
     7
370
    15
100
AcDbLine
 10
180.7352696956
 20
207.3292887377
 30
0.0
 11
180.8352695257
 21
207.3292887377
 31
0.0
  0
LINE
  5
CA
330
1F
100
AcDbEntity
  8
0
  6
Continuous
 62
     7
370
    15
100
AcDbLine
 10
180.7352696956
 20
207.3292887377
 30
0.0
 11
180.7352696956
 21
214.296315478
 31
0.0
  0
LINE
  5
CB
330
1F
100
AcDbEntity
  8
0
  6
Continuous
 62
     7
370
    15
100
AcDbLine
 10
180.7352696956
 20
214.296315478
 30
0.0
 11
183.9774974101
 21
217.943821715
 31
0.0
  0
LINE
  5
CC
330
1F
100
AcDbEntity
  8
0
  6
Continuous
 62
     7
370
    15
100
AcDbLine
 10
180.7352696956
 20
197.2963164168
 30
0.0
 11
180.7352696956
 21
206.0569009351
 31
0.0
  0
ARC
  5
CD
330
1F
100
AcDbEntity
  8
0
  6
Continuous
 62
     7
370
    15
100
AcDbCircle
 10
181.7352696255
 20
219.9369143093
 30
0.0
 40
3.000000000020682
100
AcDbArc
 50
318.3664606636
 51
351.09478646
  0
LINE
  5
CE
330
1F
100
AcDbEntity
  8
0
  6
Continuous
 62
     7
370
    15
100
AcDbLine
 10
188.7352700756
 20
219.4725132154
 30
0.0
 11
188.7352700756
 21
208.4963160174
 31
0.0
  0
LINE
  5
CF
330
1F
100
AcDbEntity
  8
0
  6
Continuous
 62
     7
370
    15
100
AcDbLine
 10
180.7352696956
 20
207.3292887377
 30
0.0
 11
180.7352696956
 21
206.0569009351
 31
0.0
  0
LINE
  5
D0
330
1F
100
AcDbEntity
  8
0
  6
Continuous
 62
     7
370
    15
100
AcDbLine
 10
188.535269484
 20
240.2963160144
 30
0.0
 11
188.7352700756
 21
240.2963160144
 31
0.0
  0
LINE
  5
D1
330
1F
100
AcDbEntity
  8
0
  6
Continuous
 62
     7
370
    15
100
AcDbLine
 10
188.535269484
 20
240.2963160144
 30
0.0
 11
187.6875815392
 21
240.1796995269
 31
0.0
  0
LINE
  5
D2
330
1F
100
AcDbEntity
  8
0
  6
Continuous
 62
     7
370
    15
100
AcDbLine
 10
187.679058075
 20
240.1587484943
 30
0.0
 11
187.6875815392
 21
240.1796995269
 31
0.0
  0
LINE
  5
D3
330
1F
100
AcDbEntity
  8
0
  6
Continuous
 62
     7
370
    15
100
AcDbLine
 10
188.7352700756
 20
240.1587484943
 30
0.0
 11
188.7352700756
 21
240.2963160144
 31
0.0
  0
LINE
  5
D4
330
1F
100
AcDbEntity
  8
0
  6
Continuous
 62
     7
370
    15
100
AcDbLine
 10
110.2352693156
 20
176.0786754618
 30
0.0
 11
110.2352693156
 21
176.9063164553
 31
0.0
  0
LINE
  5
D5
330
1F
100
AcDbEntity
  8
0
  6
Continuous
 62
     7
370
    15
100
AcDbLine
 10
110.2352693156
 20
173.6863163838
 30
0.0
 11
110.2352693156
 21
176.0786754618
 31
0.0
  0
LINE
  5
D6
330
1F
100
AcDbEntity
  8
0
  6
Continuous
 62
     7
370
    15
100
AcDbLine
 10
110.4604333118
 20
176.268190991
 30
0.0
 11
110.4604333118
 21
177.2963163981
 31
0.0
  0
LINE
  5
D7
330
1F
100
AcDbEntity
  8
0
  6
Continuous
 62
     7
370
    15
100
AcDbLine
 10
110.4604333118
 20
173.2963162081
 30
0.0
 11
110.4604333118
 21
176.268190991
 31
0.0
  0
LINE
  5
D8
330
1F
100
AcDbEntity
  8
0
  6
Continuous
 62
     7
370
    15
100
AcDbLine
 10
120.0352712945
 20
158.2963156121
 30
0.0
 11
134.7352705375
 21
158.2963156121
 31
0.0
  0
LINE
  5
D9
330
1F
100
AcDbEntity
  8
0
  6
Continuous
 62
     7
370
    15
100
AcDbLine
 10
120.0352712945
 20
161.7963171171
 30
0.0
 11
120.0352712945
 21
158.2963156121
 31
0.0
  0
ARC
  5
DA
330
1F
100
AcDbEntity
  8
0
  6
Continuous
 62
     7
370
    15
100
AcDbCircle
 10
121.0352696256
 20
161.7963163423
 30
0.0
 40
1.0
100
AcDbArc
 50
180.0
 51
270.0
  0
LINE
  5
DB
330
1F
100
AcDbEntity
  8
0
  6
Continuous
 62
     7
370
    15
100
AcDbLine
 10
121.0352695958
 20
160.7963169532
 30
0.0
 11
134.7352705375
 21
160.7963169532
 31
0.0
  0
LINE
  5
DC
330
1F
100
AcDbEntity
  8
0
  6
Continuous
 62
     7
370
    15
100
AcDbLine
 10
134.7352705375
 20
160.7963169532
 30
0.0
 11
134.7352705375
 21
158.2963156121
 31
0.0
  0
LINE
  5
DD
330
1F
100
AcDbEntity
  8
0
  6
Continuous
 62
     7
370
    15
100
AcDbLine
 10
134.7352705375
 20
160.7963169532
 30
0.0
 11
175.5352696814
 21
160.7963169532
 31
0.0
  0
LINE
  5
DE
330
1F
100
AcDbEntity
  8
0
  6
Continuous
 62
     7
370
    15
100
AcDbLine
 10
175.5352696814
 20
158.2963156121
 30
0.0
 11
175.5352696814
 21
160.7963169532
 31
0.0
  0
LINE
  5
DF
330
1F
100
AcDbEntity
  8
0
  6
Continuous
 62
     7
370
    15
100
AcDbLine
 10
134.7352705375
 20
158.2963156121
 30
0.0
 11
175.5352696814
 21
158.2963156121
 31
0.0
  0
LINE
  5
E0
330
1F
100
AcDbEntity
  8
0
  6
Continuous
 62
     7
370
    15
100
AcDbLine
 10
176.5352696125
 20
160.7963169532
 30
0.0
 11
176.5352696125
 21
158.2963156121
 31
0.0
  0
LINE
  5
E1
330
1F
100
AcDbEntity
  8
0
  6
Continuous
 62
     7
370
    15
100
AcDbLine
 10
175.5352696814
 20
160.7963169532
 30
0.0
 11
176.5352696125
 21
160.7963169532
 31
0.0
  0
LINE
  5
E2
330
1F
100
AcDbEntity
  8
0
  6
Continuous
 62
     7
370
    15
100
AcDbLine
 10
176.5352696125
 20
158.2963156121
 30
0.0
 11
175.5352696814
 21
158.2963156121
 31
0.0
  0
LINE
  5
E3
330
1F
100
AcDbEntity
  8
0
  6
Continuous
 62
     7
370
    15
100
AcDbLine
 10
134.035269864
 20
156.2963171469
 30
0.0
 11
134.035269864
 21
158.2963156121
 31
0.0
  0
LINE
  5
E4
330
1F
100
AcDbEntity
  8
0
  6
Continuous
 62
     7
370
    15
100
AcDbLine
 10
135.0352681653
 20
158.2963156121
 30
0.0
 11
135.0352681653
 21
156.2963171469
 31
0.0
  0
LINE
  5
E5
330
1F
100
AcDbEntity
  8
0
  6
Continuous
 62
     7
370
    15
100
AcDbLine
 10
135.0352681653
 20
156.2963171469
 30
0.0
 11
134.035269864
 21
156.2963171469
 31
0.0
  0
LINE
  5
E6
330
1F
100
AcDbEntity
  8
0
  6
Continuous
 62
     7
370
    15
100
AcDbLine
 10
163.0352699608
 20
156.2963171469
 30
0.0
 11
163.0352699608
 21
158.2963156121
 31
0.0
  0
LINE
  5
E7
330
1F
100
AcDbEntity
  8
0
  6
Continuous
 62
     7
370
    15
100
AcDbLine
 10
164.0352691934
 20
158.2963156121
 30
0.0
 11
164.0352691934
 21
156.2963171469
 31
0.0
  0
LINE
  5
E8
330
1F
100
AcDbEntity
  8
0
  6
Continuous
 62
     7
370
    15
100
AcDbLine
 10
164.0352691934
 20
156.2963171469
 30
0.0
 11
163.0352699608
 21
156.2963171469
 31
0.0
  0
LINE
  5
E9
330
1F
100
AcDbEntity
  8
0
  6
Continuous
 62
     7
370
    15
100
AcDbLine
 10
163.0352699608
 20
156.2963171469
 30
0.0
 11
135.0352681653
 21
156.2963171469
 31
0.0
  0
LINE
  5
EA
330
1F
100
AcDbEntity
  8
0
  6
Continuous
 62
     7
370
    15
100
AcDbLine
 10
120.0352712945
 20
185.7963163944
 30
0.0
 11
117.5352699534
 21
185.7963163944
 31
0.0
  0
LINE
  5
EB
330
1F
100
AcDbEntity
  8
0
  6
Continuous
 62
     7
370
    15
100
AcDbLine
 10
120.0352712945
 20
173.7963162901
 30
0.0
 11
117.5352699534
 21
173.7963162901
 31
0.0
  0
LINE
  5
EC
330
1F
100
AcDbEntity
  8
0
  6
Continuous
 62
     7
370
    15
100
AcDbLine
 10
117.5352699534
 20
185.7963163944
 30
0.0
 11
117.5352699534
 21
173.7963162901
 31
0.0
  0
LINE
  5
ED
330
1F
100
AcDbEntity
  8
0
  6
Continuous
 62
     7
370
    15
100
AcDbLine
 10
120.0352712945
 20
185.7963163944
 30
0.0
 11
120.0352712945
 21
173.7963162901
 31
0.0
  0
ARC
  5
EE
330
1F
100
AcDbEntity
  8
0
  6
Continuous
 62
     7
370
    15
100
AcDbCircle
 10
120.0352696256
 20
160.7963163423
 30
0.0
 40
2.5
100
AcDbArc
 50
180.0
 51
270.0
  0
LINE
  5
EF
330
1F
100
AcDbEntity
  8
0
  6
Continuous
 62
     7
370
    15
100
AcDbLine
 10
117.5352699534
 20
173.7963162901
 30
0.0
 11
117.5352699534
 21
160.7963169532
 31
0.0
  0
LINE
  5
F0
330
1F
100
AcDbEntity
  8
0
  6
Continuous
 62
     7
370
    15
100
AcDbLine
 10
120.0352712945
 20
173.7963162901
 30
0.0
 11
120.0352712945
 21
161.7963171171
 31
0.0
  0
LINE
  5
F1
330
1F
100
AcDbEntity
  8
0
  6
Continuous
 62
     7
370
    15
100
AcDbLine
 10
135.5352691785
 20
168.1759056242
 30
0.0
 11
135.5352691785
 21
170.0963160562
 31
0.0
  0
LINE
  5
F2
330
1F
100
AcDbEntity
  8
0
  6
Continuous
 62
     7
370
    15
100
AcDbLine
 10
135.5352691785
 20
163.4963160919
 30
0.0
 11
135.5352691785
 21
168.1759056242
 31
0.0
  0
LINE
  5
F3
330
1F
100
AcDbEntity
  8
0
  6
Continuous
 62
     7
370
    15
100
AcDbLine
 10
135.5352691785
 20
189.4963166284
 30
0.0
 11
135.5352691785
 21
196.0963165926
 31
0.0
  0
LINE
  5
F4
330
1F
100
AcDbEntity
  8
0
  6
Continuous
 62
     7
370
    15
100
AcDbLine
 10
117.5352699534
 20
177.13032631
 30
0.0
 11
114.6478756741
 21
177.13032631
 31
0.0
  0
SPLINE
  5
F5
330
1F
100
AcDbEntity
  8
0
  6
Continuous
 62
     7
370
    15
100
AcDbSpline
210
0.0
220
0.0
230
1.0
 70
     8
 71
     3
 72
    10
 73
     6
 74
     0
 42
0.00000001
 43
0.00000001
 12
1.0
 22
0.0
 32
0.0
 13
1.0
 23
0.0
 33
0.0
 40
0.0
 40
0.0
 40
0.0
 40
0.0
 40
0.0700363220183265
 40
0.5307571668901216
 40
1.0
 40
1.0
 40
1.0
 40
1.0
 10
114.3352716640435
 20
178.2312551818966
 30
0.0
 10
114.3356439678516
 20
178.2051795697953
 30
0.0
 10
114.3384654026258
 20
178.0075704206425
 30
0.0
 10
114.4067374781801
 20
177.634970269134
 30
0.0
 10
114.5670067178149
 20
177.2995654889365
 30
0.0
 10
114.6478756741487
 20
177.1303263100042
 30
0.0
  0
SPLINE
  5
F6
330
1F
100
AcDbEntity
  8
0
  6
Continuous
 62
     7
370
    15
100
AcDbSpline
210
0.0
220
0.0
230
1.0
 70
     8
 71
     3
 72
     9
 73
     5
 74
     0
 42
0.00000001
 43
0.00000001
 12
1.0
 22
0.0
 32
0.0
 13
1.0
 23
0.0
 33
0.0
 40
0.0
 40
0.0
 40
0.0
 40
0.0
 40
0.4954579827046876
 40
1.0
 40
1.0
 40
1.0
 40
1.0
 10
114.6478756741486
 20
179.3321841993081
 30
0.0
 10
114.560503621254
 20
179.1533885111088
 30
0.0
 10
114.3841575819437
 20
178.792518983438
 30
0.0
 10
114.3516653568425
 20
178.4194727041786
 30
0.0
 10
114.3352716640435
 20
178.2312551818966
 30
0.0
  0
LINE
  5
F7
330
1F
100
AcDbEntity
  8
0
  6
Continuous
 62
     7
370
    15
100
AcDbLine
 10
117.5352699534
 20
179.3321841993
 30
0.0
 11
114.6478756741
 21
179.3321841993
 31
0.0
  0
SPLINE
  5
F8
330
1F
100
AcDbEntity
  8
0
  6
Continuous
 62
     7
370
    15
100
AcDbSpline
210
0.0
220
0.0
230
1.0
 70
     8
 71
     3
 72
    10
 73
     6
 74
     0
 42
0.00000001
 43
0.00000001
 12
1.0
 22
0.0
 32
0.0
 13
1.0
 23
0.0
 33
0.0
 40
0.0
 40
0.0
 40
0.0
 40
0.0
 40
0.2684064429088294
 40
0.6323725966834584
 40
1.0
 40
1.0
 40
1.0
 40
1.0
 10
114.3352716640436
 20
175.1123924346819
 30
0.0
 10
114.3403499247773
 20
175.2956504233133
 30
0.0
 10
114.3523144398317
 20
175.7274110356068
 30
0.0
 10
114.4550917192695
 20
176.4047883454463
 30
0.0
 10
114.5834003163398
 20
176.8876747890406
 30
0.0
 10
114.6478756741487
 20
177.1303263100042
 30
0.0
  0
LINE
  5
F9
330
1F
100
AcDbEntity
  8
0
  6
Continuous
 62
     7
370
    15
100
AcDbLine
 10
114.335271664
 20
175.1123924347
 30
0.0
 11
114.335271664
 21
178.2312551819
 31
0.0
  0
LINE
  5
FA
330
1F
100
AcDbEntity
  8
0
  6
Continuous
 62
     7
370
    15
100
AcDbLine
 10
117.5352699534
 20
173.0944585594
 30
0.0
 11
114.6478756741
 21
173.0944585594
 31
0.0
  0
SPLINE
  5
FB
330
1F
100
AcDbEntity
  8
0
  6
Continuous
 62
     7
370
    15
100
AcDbSpline
210
0.0
220
0.0
230
1.0
 70
     8
 71
     3
 72
    10
 73
     6
 74
     0
 42
0.00000001
 43
0.00000001
 12
1.0
 22
0.0
 32
0.0
 13
1.0
 23
0.0
 33
0.0
 40
0.0
 40
0.0
 40
0.0
 40
0.0
 40
0.2572431512053598
 40
0.6263799905203866
 40
1.0
 40
1.0
 40
1.0
 40
1.0
 10
114.6478756741487
 20
173.0944585593595
 30
0.0
 10
114.6018092004543
 20
173.2639157381108
 30
0.0
 10
114.4896386053545
 20
173.6765393027129
 30
0.0
 10
114.3640759536757
 20
174.3499976303053
 30
0.0
 10
114.3449116515493
 20
174.8572402860797
 30
0.0
 10
114.3352716640436
 20
175.1123924346819
 30
0.0
  0
SPLINE
  5
FC
330
1F
100
AcDbEntity
  8
0
  6
Continuous
 62
     7
370
    15
100
AcDbSpline
210
0.0
220
0.0
230
1.0
 70
     8
 71
     3
 72
     9
 73
     5
 74
     0
 42
0.00000001
 43
0.00000001
 12
1.0
 22
0.0
 32
0.0
 13
1.0
 23
0.0
 33
0.0
 40
0.0
 40
0.0
 40
0.0
 40
0.0
 40
0.4954577847321311
 40
1.0
 40
1.0
 40
1.0
 40
1.0
 10
114.6478756741487
 20
173.0944585593595
 30
0.0
 10
114.5605036204474
 20
172.9455328366431
 30
0.0
 10
114.3841575090455
 20
172.644950774345
 30
0.0
 10
114.3516653366718
 20
172.3342269559928
 30
0.0
 10
114.3352716640436
 20
172.1774536723449
 30
0.0
  0
LINE
  5
FD
330
1F
100
AcDbEntity
  8
0
  6
Continuous
 62
     7
370
    15
100
AcDbLine
 10
114.335271664
 20
175.1123924347
 30
0.0
 11
114.335271664
 21
172.1774536723
 31
0.0
  0
LINE
  5
FE
330
1F
100
AcDbEntity
  8
0
  6
Continuous
 62
     7
370
    15
100
AcDbLine
 10
117.5352699534
 20
171.2604487853
 30
0.0
 11
114.6478756741
 21
171.2604487853
 31
0.0
  0
SPLINE
  5
FF
330
1F
100
AcDbEntity
  8
0
  6
Continuous
 62
     7
370
    15
100
AcDbSpline
210
0.0
220
0.0
230
1.0
 70
     8
 71
     3
 72
    10
 73
     6
 74
     0
 42
0.00000001
 43
0.00000001
 12
1.0
 22
0.0
 32
0.0
 13
1.0
 23
0.0
 33
0.0
 40
0.0
 40
0.0
 40
0.0
 40
0.0
 40
0.0700367628031184
 40
0.5307575097640478
 40
1.0
 40
1.0
 40
1.0
 40
1.0
 10
114.3352716640436
 20
172.1774536723449
 30
0.0
 10
114.3356439653684
 20
172.1557342605657
 30
0.0
 10
114.3384653653896
 20
171.9911386903528
 30
0.0
 10
114.4067374263529
 20
171.6807846541951
 30
0.0
 10
114.5670067142321
 20
171.4014140815512
 30
0.0
 10
114.6478756741487
 20
171.2604487853303
 30
0.0
  0
LINE
  5
100
330
1F
100
AcDbEntity
  8
0
  6
Continuous
 62
     7
370
    15
100
AcDbLine
 10
114.5925029592
 20
179.2241586678
 30
0.0
 11
114.6478756741
 21
179.3321841993
 31
0.0
  0
LINE
  5
101
330
1F
100
AcDbEntity
  8
0
  6
Continuous
 62
     7
370
    15
100
AcDbLine
 10
114.335271664
 20
178.7963162948
 30
0.0
 11
114.335271664
 21
178.2312551819
 31
0.0
  0
LINE
  5
102
330
1F
100
AcDbEntity
  8
0
  6
Continuous
 62
     7
370
    15
100
AcDbLine
 10
114.335271664
 20
172.1774536723
 30
0.0
 11
114.335271664
 21
171.7963159623
 31
0.0
  0
LINE
  5
103
330
1F
100
AcDbEntity
  8
0
  6
Continuous
 62
     7
370
    15
100
AcDbLine
 10
179.2352696826
 20
193.2963166924
 30
0.0
 11
178.0352696256
 21
193.2963166924
 31
0.0
  0
LINE
  5
104
330
1F
100
AcDbEntity
  8
0
  6
Continuous
 62
     7
370
    15
100
AcDbLine
 10
178.0352696256
 20
197.2963164168
 30
0.0
 11
179.2352696826
 21
197.2963164168
 31
0.0
  0
LINE
  5
105
330
1F
100
AcDbEntity
  8
0
  6
Continuous
 62
     7
370
    15
100
AcDbLine
 10
178.0352696256
 20
193.2963166924
 30
0.0
 11
178.0352696256
 21
197.2963164168
 31
0.0
  0
LINE
  5
106
330
1F
100
AcDbEntity
  8
0
  6
Continuous
 62
     7
370
    15
100
AcDbLine
 10
167.0352696852
 20
157.9963161217
 30
0.0
 11
167.0352696852
 21
156.7963162976
 31
0.0
  0
LINE
  5
107
330
1F
100
AcDbEntity
  8
0
  6
Continuous
 62
     7
370
    15
100
AcDbLine
 10
167.0352696852
 20
156.7963162976
 30
0.0
 11
166.0352695213
 21
156.7963162976
 31
0.0
  0
LINE
  5
108
330
1F
100
AcDbEntity
  8
0
  6
Continuous
 62
     7
370
    15
100
AcDbLine
 10
166.0352695213
 20
156.7963162976
 30
0.0
 11
166.0352695213
 21
157.9963161217
 31
0.0
  0
LINE
  5
109
330
1F
100
AcDbEntity
  8
0
  6
Continuous
 62
     7
370
    15
100
AcDbLine
 10
166.0352695213
 20
157.9963161217
 30
0.0
 11
167.0352696852
 21
157.9963161217
 31
0.0
  0
LINE
  5
10A
330
1F
100
AcDbEntity
  8
0
  6
Continuous
 62
     7
370
    15
100
AcDbLine
 10
178.0352696256
 20
158.9963162856
 30
0.0
 11
179.2352696826
 21
158.9963162856
 31
0.0
  0
LINE
  5
10B
330
1F
100
AcDbEntity
  8
0
  6
Continuous
 62
     7
370
    15
100
AcDbLine
 10
179.2352696826
 20
193.2963166924
 30
0.0
 11
179.2352696826
 21
158.9963162856
 31
0.0
  0
LINE
  5
10C
330
1F
100
AcDbEntity
  8
0
  6
Continuous
 62
     7
370
    15
100
AcDbLine
 10
178.0352696256
 20
193.2963166924
 30
0.0
 11
178.0352696256
 21
158.9963162856
 31
0.0
  0
LINE
  5
10D
330
1F
100
AcDbEntity
  8
0
  6
Continuous
 62
     7
370
    15
100
AcDbLine
 10
177.0352695781
 20
156.7963162976
 30
0.0
 11
177.0352695781
 21
157.9963161217
 31
0.0
  0
LINE
  5
10E
330
1F
100
AcDbEntity
  8
0
  6
Continuous
 62
     7
370
    15
100
AcDbLine
 10
177.0352695781
 20
157.9963161217
 30
0.0
 11
167.0352696852
 21
157.9963161217
 31
0.0
  0
LINE
  5
10F
330
1F
100
AcDbEntity
  8
0
  6
Continuous
 62
     7
370
    15
100
AcDbLine
 10
177.0352695781
 20
156.7963162976
 30
0.0
 11
167.0352696852
 21
156.7963162976
 31
0.0
  0
ARC
  5
110
330
1F
100
AcDbEntity
  8
0
  6
Continuous
 62
     7
370
    15
100
AcDbCircle
 10
177.0352696256
 20
158.9963163423
 30
0.0
 40
2.200000000000017
100
AcDbArc
 50
270.0
 51
0.0
  0
ARC
  5
111
330
1F
100
AcDbEntity
  8
0
  6
Continuous
 62
     7
370
    15
100
AcDbCircle
 10
177.0352696256
 20
158.9963163423
 30
0.0
 40
1.0
100
AcDbArc
 50
270.0
 51
0.0
  0
LINE
  5
112
330
1F
100
AcDbEntity
  8
0
  6
Continuous
 62
     7
370
    15
100
AcDbLine
 10
177.2731758133
 20
161.4963157641
 30
0.0
 11
177.8352696306
 21
161.4963157641
 31
0.0
  0
LINE
  5
113
330
1F
100
AcDbEntity
  8
0
  6
Continuous
 62
     7
370
    15
100
AcDbLine
 10
161.8352692054
 20
161.4963157641
 30
0.0
 11
177.2731758133
 21
161.4963157641
 31
0.0
  0
LINE
  5
114
330
1F
100
AcDbEntity
  8
0
  6
Continuous
 62
     7
370
    15
100
AcDbLine
 10
177.2731758133
 20
162.0963166075
 30
0.0
 11
161.8352692054
 21
162.0963166075
 31
0.0
  0
LINE
  5
115
330
1F
100
AcDbEntity
  8
0
  6
Continuous
 62
     7
370
    15
100
AcDbLine
 10
177.8352696306
 20
162.0963166075
 30
0.0
 11
177.2731758133
 21
162.0963166075
 31
0.0
  0
LINE
  5
116
330
1F
100
AcDbEntity
  8
0
  6
Continuous
 62
     7
370
    15
100
AcDbLine
 10
177.0872281809
 20
161.2963161038
 30
0.0
 11
162.0352688656
 21
161.2963161038
 31
0.0
  0
LINE
  5
117
330
1F
100
AcDbEntity
  8
0
  6
Continuous
 62
     7
370
    15
100
AcDbLine
 10
177.6352696357
 20
161.2963161038
 30
0.0
 11
177.0872281809
 21
161.2963161038
 31
0.0
  0
LINE
  5
118
330
1F
100
AcDbEntity
  8
0
  6
Continuous
 62
     7
370
    15
100
AcDbLine
 10
163.8486181796
 20
162.2963162678
 30
0.0
 11
175.8219214567
 21
162.2963162678
 31
0.0
  0
LINE
  5
119
330
1F
100
AcDbEntity
  8
0
  6
Continuous
 62
     7
370
    15
100
AcDbLine
 10
171.6947463752
 20
156.6963164674
 30
0.0
 11
167.8352692575
 21
156.6963164674
 31
0.0
  0
LINE
  5
11A
330
1F
100
AcDbEntity
  8
0
  6
Continuous
 62
     7
370
    15
100
AcDbLine
 10
171.8352694475
 20
156.6963164674
 30
0.0
 11
171.6947463752
 21
156.6963164674
 31
0.0
  0
LINE
  5
11B
330
1F
100
AcDbEntity
  8
0
  6
Continuous
 62
     7
370
    15
100
AcDbLine
 10
120.2352709547
 20
173.2963162081
 30
0.0
 11
120.2352709547
 21
177.2963163981
 31
0.0
  0
LINE
  5
11C
330
1F
100
AcDbEntity
  8
0
  6
Continuous
 62
     7
370
    15
100
AcDbLine
 10
142.5352684633
 20
192.7963166105
 30
0.0
 11
139.5352698342
 21
192.7963166105
 31
0.0
  0
LINE
  5
11D
330
1F
100
AcDbEntity
  8
0
  6
Continuous
 62
     7
370
    15
100
AcDbLine
 10
142.5352684633
 20
166.796316074
 30
0.0
 11
142.5352684633
 21
192.7963166105
 31
0.0
  0
LINE
  5
11E
330
1F
100
AcDbEntity
  8
0
  6
Continuous
 62
     7
370
    15
100
AcDbLine
 10
139.5352698342
 20
166.796316074
 30
0.0
 11
142.5352684633
 21
166.796316074
 31
0.0
  0
LINE
  5
11F
330
1F
100
AcDbEntity
  8
0
  6
Continuous
 62
     7
370
    15
100
AcDbLine
 10
139.5352698342
 20
166.796316074
 30
0.0
 11
139.5352698342
 21
173.2830779234
 31
0.0
  0
LINE
  5
120
330
1F
100
AcDbEntity
  8
0
  6
Continuous
 62
     7
370
    15
100
AcDbLine
 10
139.5352698342
 20
173.2830779234
 30
0.0
 11
135.5352691785
 21
173.2830779234
 31
0.0
  0
LINE
  5
121
330
1F
100
AcDbEntity
  8
0
  6
Continuous
 62
     7
370
    15
100
AcDbLine
 10
135.5352691785
 20
173.2830779234
 30
0.0
 11
135.5352691785
 21
186.3095547611
 31
0.0
  0
LINE
  5
122
330
1F
100
AcDbEntity
  8
0
  6
Continuous
 62
     7
370
    15
100
AcDbLine
 10
139.5352698342
 20
186.3095547611
 30
0.0
 11
135.5352691785
 21
186.3095547611
 31
0.0
  0
LINE
  5
123
330
1F
100
AcDbEntity
  8
0
  6
Continuous
 62
     7
370
    15
100
AcDbLine
 10
139.5352698342
 20
186.3095547611
 30
0.0
 11
139.5352698342
 21
192.7963166105
 31
0.0
  0
LINE
  5
124
330
1F
100
AcDbEntity
  8
0
  6
Continuous
 62
     7
370
    15
100
AcDbLine
 10
142.5352684633
 20
162.2963162678
 30
0.0
 11
139.5352698342
 21
162.2963162678
 31
0.0
  0
LINE
  5
125
330
1F
100
AcDbEntity
  8
0
  6
Continuous
 62
     7
370
    15
100
AcDbLine
 10
139.5352698342
 20
162.2963162678
 30
0.0
 11
139.5352698342
 21
166.796316074
 31
0.0
  0
LINE
  5
126
330
1F
100
AcDbEntity
  8
0
  6
Continuous
 62
     7
370
    15
100
AcDbLine
 10
139.5352698342
 20
192.7963166105
 30
0.0
 11
139.5352698342
 21
197.2963164168
 31
0.0
  0
LINE
  5
127
330
1F
100
AcDbEntity
  8
0
  6
Continuous
 62
     7
370
    15
100
AcDbLine
 10
139.5352698342
 20
197.2963164168
 30
0.0
 11
142.5352684633
 21
197.2963164168
 31
0.0
  0
LINE
  5
128
330
1F
100
AcDbEntity
  8
0
  6
Continuous
 62
     7
370
    15
100
AcDbLine
 10
135.5352691785
 20
173.2830779234
 30
0.0
 11
135.5352691785
 21
171.5272158923
 31
0.0
  0
LINE
  5
129
330
1F
100
AcDbEntity
  8
0
  6
Continuous
 62
     7
370
    15
100
AcDbLine
 10
135.5352691785
 20
188.0654167922
 30
0.0
 11
135.5352691785
 21
186.3095547611
 31
0.0
  0
LINE
  5
12A
330
1F
100
AcDbEntity
  8
0
  6
Continuous
 62
     7
370
    15
100
AcDbLine
 10
135.5352691785
 20
171.5272158923
 30
0.0
 11
135.5352691785
 21
170.0963160562
 31
0.0
  0
LINE
  5
12B
330
1F
100
AcDbEntity
  8
0
  6
Continuous
 62
     7
370
    15
100
AcDbLine
 10
135.5352691785
 20
189.4963166284
 30
0.0
 11
135.5352691785
 21
188.0654167922
 31
0.0
  0
LINE
  5
12C
330
1F
100
AcDbEntity
  8
0
  6
Continuous
 62
     7
370
    15
100
AcDbLine
 10
139.5352698342
 20
162.2963162678
 30
0.0
 11
135.5352691785
 21
162.2963162678
 31
0.0
  0
LINE
  5
12D
330
1F
100
AcDbEntity
  8
0
  6
Continuous
 62
     7
370
    15
100
AcDbLine
 10
135.5352691785
 20
163.4963160919
 30
0.0
 11
135.5352691785
 21
162.2963162678
 31
0.0
  0
LINE
  5
12E
330
1F
100
AcDbEntity
  8
0
  6
Continuous
 62
     7
370
    15
100
AcDbLine
 10
139.5352698342
 20
197.2963164168
 30
0.0
 11
135.5352691785
 21
197.2963164168
 31
0.0
  0
LINE
  5
12F
330
1F
100
AcDbEntity
  8
0
  6
Continuous
 62
     7
370
    15
100
AcDbLine
 10
135.5352691785
 20
197.2963164168
 30
0.0
 11
135.5352691785
 21
196.0963165926
 31
0.0
  0
LINE
  5
130
330
1F
100
AcDbEntity
  8
0
  6
Continuous
 62
     7
370
    15
100
AcDbLine
 10
121.0352695958
 20
175.296316536
 30
0.0
 11
121.0352695958
 21
185.7963163944
 31
0.0
  0
LINE
  5
131
330
1F
100
AcDbEntity
  8
0
  6
Continuous
 62
     7
370
    15
100
AcDbLine
 10
121.0352695958
 20
164.7963166775
 30
0.0
 11
121.0352695958
 21
175.296316536
 31
0.0
  0
LINE
  5
132
330
1F
100
AcDbEntity
  8
0
  6
Continuous
 62
     7
370
    15
100
AcDbLine
 10
120.3352689222
 20
171.7963159623
 30
0.0
 11
121.0352695958
 21
171.7963159623
 31
0.0
  0
LINE
  5
133
330
1F
100
AcDbEntity
  8
0
  6
Continuous
 62
     7
370
    15
100
AcDbLine
 10
120.3352689222
 20
178.7963162948
 30
0.0
 11
120.3352689222
 21
177.2963163981
 31
0.0
  0
LINE
  5
134
330
1F
100
AcDbEntity
  8
0
  6
Continuous
 62
     7
370
    15
100
AcDbLine
 10
120.3352689222
 20
173.2963162081
 30
0.0
 11
120.3352689222
 21
171.7963159623
 31
0.0
  0
LINE
  5
135
330
1F
100
AcDbEntity
  8
0
  6
Continuous
 62
     7
370
    15
100
AcDbLine
 10
121.0352695958
 20
178.7963162948
 30
0.0
 11
120.3352689222
 21
178.7963162948
 31
0.0
  0
LINE
  5
136
330
1F
100
AcDbEntity
  8
0
  6
Continuous
 62
     7
370
    15
100
AcDbLine
 10
120.0352712945
 20
178.7963162948
 30
0.0
 11
120.3352689222
 21
178.7963162948
 31
0.0
  0
LINE
  5
137
330
1F
100
AcDbEntity
  8
0
  6
Continuous
 62
     7
370
    15
100
AcDbLine
 10
120.3352689222
 20
171.7963159623
 30
0.0
 11
120.0352712945
 21
171.7963159623
 31
0.0
  0
LINE
  5
138
330
1F
100
AcDbEntity
  8
0
  6
Continuous
 62
     7
370
    15
100
AcDbLine
 10
144.5352687911
 20
166.796316074
 30
0.0
 11
145.0352698044
 21
166.796316074
 31
0.0
  0
LINE
  5
139
330
1F
100
AcDbEntity
  8
0
  6
Continuous
 62
     7
370
    15
100
AcDbLine
 10
144.5352687911
 20
192.7963166105
 30
0.0
 11
145.0352698044
 21
192.7963166105
 31
0.0
  0
LINE
  5
13A
330
1F
100
AcDbEntity
  8
0
  6
Continuous
 62
     7
370
    15
100
AcDbLine
 10
144.5352687911
 20
162.7963154184
 30
0.0
 11
145.0352698044
 21
162.7963154184
 31
0.0
  0
LINE
  5
13B
330
1F
100
AcDbEntity
  8
0
  6
Continuous
 62
     7
370
    15
100
AcDbLine
 10
144.5352687911
 20
196.7963172661
 30
0.0
 11
145.0352698044
 21
196.7963172661
 31
0.0
  0
LINE
  5
13C
330
1F
100
AcDbEntity
  8
0
  6
Continuous
 62
     7
370
    15
100
AcDbLine
 10
142.5352684633
 20
166.2963159921
 30
0.0
 11
144.5352687911
 21
166.2963159921
 31
0.0
  0
LINE
  5
13D
330
1F
100
AcDbEntity
  8
0
  6
Continuous
 62
     7
370
    15
100
AcDbLine
 10
142.5352684633
 20
166.2963159921
 30
0.0
 11
142.5352684633
 21
193.2963166924
 31
0.0
  0
LINE
  5
13E
330
1F
100
AcDbEntity
  8
0
  6
Continuous
 62
     7
370
    15
100
AcDbLine
 10
142.5352684633
 20
193.2963166924
 30
0.0
 11
144.5352687911
 21
193.2963166924
 31
0.0
  0
LINE
  5
13F
330
1F
100
AcDbEntity
  8
0
  6
Continuous
 62
     7
370
    15
100
AcDbLine
 10
144.5352687911
 20
166.2963159921
 30
0.0
 11
144.5352687911
 21
193.2963166924
 31
0.0
  0
LINE
  5
140
330
1F
100
AcDbEntity
  8
0
  6
Continuous
 62
     7
370
    15
100
AcDbLine
 10
142.5352684633
 20
162.2963162678
 30
0.0
 11
144.5352687911
 21
162.2963162678
 31
0.0
  0
LINE
  5
141
330
1F
100
AcDbEntity
  8
0
  6
Continuous
 62
     7
370
    15
100
AcDbLine
 10
142.5352684633
 20
162.2963162678
 30
0.0
 11
142.5352684633
 21
166.2963159921
 31
0.0
  0
LINE
  5
142
330
1F
100
AcDbEntity
  8
0
  6
Continuous
 62
     7
370
    15
100
AcDbLine
 10
144.5352687911
 20
162.2963162678
 30
0.0
 11
144.5352687911
 21
166.2963159921
 31
0.0
  0
LINE
  5
143
330
1F
100
AcDbEntity
  8
0
  6
Continuous
 62
     7
370
    15
100
AcDbLine
 10
142.5352684633
 20
197.2963164168
 30
0.0
 11
144.5352687911
 21
197.2963164168
 31
0.0
  0
LINE
  5
144
330
1F
100
AcDbEntity
  8
0
  6
Continuous
 62
     7
370
    15
100
AcDbLine
 10
142.5352684633
 20
193.2963166924
 30
0.0
 11
142.5352684633
 21
197.2963164168
 31
0.0
  0
LINE
  5
145
330
1F
100
AcDbEntity
  8
0
  6
Continuous
 62
     7
370
    15
100
AcDbLine
 10
144.5352687911
 20
193.2963166924
 30
0.0
 11
144.5352687911
 21
197.2963164168
 31
0.0
  0
LINE
  5
146
330
1F
100
AcDbEntity
  8
0
  6
Continuous
 62
     7
370
    15
100
AcDbLine
 10
145.0352698044
 20
162.2963162678
 30
0.0
 11
163.8486181796
 21
162.2963162678
 31
0.0
  0
LINE
  5
147
330
1F
100
AcDbEntity
  8
0
  6
Continuous
 62
     7
370
    15
100
AcDbLine
 10
175.8219214567
 20
162.2963162678
 30
0.0
 11
178.0352696256
 21
162.2963162678
 31
0.0
  0
LINE
  5
148
330
1F
100
AcDbEntity
  8
0
  6
Continuous
 62
     7
370
    15
100
AcDbLine
 10
145.0352698044
 20
162.2963162678
 30
0.0
 11
145.0352698044
 21
166.2963159921
 31
0.0
  0
LINE
  5
149
330
1F
100
AcDbEntity
  8
0
  6
Continuous
 62
     7
370
    15
100
AcDbLine
 10
145.0352698044
 20
166.2963159921
 30
0.0
 11
178.0352696256
 21
166.2963159921
 31
0.0
  0
LINE
  5
14A
330
1F
100
AcDbEntity
  8
0
  6
Continuous
 62
     7
370
    15
100
AcDbLine
 10
145.0352698044
 20
193.2963166924
 30
0.0
 11
178.0352696256
 21
193.2963166924
 31
0.0
  0
LINE
  5
14B
330
1F
100
AcDbEntity
  8
0
  6
Continuous
 62
     7
370
    15
100
AcDbLine
 10
145.0352698044
 20
197.2963164168
 30
0.0
 11
178.0352696256
 21
197.2963164168
 31
0.0
  0
LINE
  5
14C
330
1F
100
AcDbEntity
  8
0
  6
Continuous
 62
     7
370
    15
100
AcDbLine
 10
145.0352698044
 20
193.2963166924
 30
0.0
 11
145.0352698044
 21
197.2963164168
 31
0.0
  0
LINE
  5
14D
330
1F
100
AcDbEntity
  8
0
  6
Continuous
 62
     7
370
    15
100
AcDbLine
 10
178.0352696256
 20
166.2963159921
 30
0.0
 11
178.0352696256
 21
193.2963166924
 31
0.0
  0
LINE
  5
14E
330
1F
100
AcDbEntity
  8
0
  6
Continuous
 62
     7
370
    15
100
AcDbLine
 10
145.0352698044
 20
166.2963159921
 30
0.0
 11
145.0352698044
 21
193.2963166924
 31
0.0
  0
LINE
  5
14F
330
1F
100
AcDbEntity
  8
0
  6
Continuous
 62
     8
370
    15
100
AcDbLine
 10
181.5852696487
 20
166.796316074
 30
0.0
 11
181.5852696487
 21
162.9963169413
 31
0.0
  0
LINE
  5
150
330
1F
100
AcDbEntity
  8
0
  6
Continuous
 62
     8
370
    15
100
AcDbLine
 10
181.5852696487
 20
170.5963161381
 30
0.0
 11
181.5852696487
 21
166.796316074
 31
0.0
  0
LINE
  5
151
330
1F
100
AcDbEntity
  8
0
  6
Continuous
 62
     8
370
    15
100
AcDbLine
 10
181.0852695667
 20
166.796316074
 30
0.0
 11
181.0852695667
 21
162.9963169413
 31
0.0
  0
LINE
  5
152
330
1F
100
AcDbEntity
  8
0
  6
Continuous
 62
     8
370
    15
100
AcDbLine
 10
181.0852695667
 20
170.5963161381
 30
0.0
 11
181.0852695667
 21
166.796316074
 31
0.0
  0
LINE
  5
153
330
1F
100
AcDbEntity
  8
0
  6
Continuous
 62
     8
370
    15
100
AcDbLine
 10
181.5852696487
 20
192.7963166105
 30
0.0
 11
181.5852696487
 21
188.9963165464
 31
0.0
  0
LINE
  5
154
330
1F
100
AcDbEntity
  8
0
  6
Continuous
 62
     8
370
    15
100
AcDbLine
 10
181.5852696487
 20
196.5963157432
 30
0.0
 11
181.5852696487
 21
192.7963166105
 31
0.0
  0
LINE
  5
155
330
1F
100
AcDbEntity
  8
0
  6
Continuous
 62
     8
370
    15
100
AcDbLine
 10
181.0852695667
 20
192.7963166105
 30
0.0
 11
181.0852695667
 21
188.9963165464
 31
0.0
  0
LINE
  5
156
330
1F
100
AcDbEntity
  8
0
  6
Continuous
 62
     8
370
    15
100
AcDbLine
 10
181.0852695667
 20
196.5963157432
 30
0.0
 11
181.0852695667
 21
192.7963166105
 31
0.0
  0
LINE
  5
157
330
1F
100
AcDbEntity
  8
0
  6
Continuous
 62
     8
370
    15
100
AcDbLine
 10
185.835269414
 20
168.7963164019
 30
0.0
 11
189.2352692262
 21
168.7963164019
 31
0.0
  0
LINE
  5
158
330
1F
100
AcDbEntity
  8
0
  6
Continuous
 62
     8
370
    15
100
AcDbLine
 10
135.7352688388
 20
168.2595179023
 30
0.0
 11
135.7352688388
 21
163.2963164317
 31
0.0
  0
LINE
  5
159
330
1F
100
AcDbEntity
  8
0
  6
Continuous
 62
     8
370
    15
100
AcDbLine
 10
135.7352688388
 20
170.2963166477
 30
0.0
 11
135.7352688388
 21
168.2595179023
 31
0.0
  0
LINE
  5
15A
330
1F
100
AcDbEntity
  8
0
  6
Continuous
 62
     8
370
    15
100
AcDbLine
 10
135.7352688388
 20
196.2963162529
 30
0.0
 11
135.7352688388
 21
189.2963160368
 31
0.0
  0
LINE
  5
15B
330
1F
100
AcDbEntity
  8
0
  6
Continuous
 62
     8
370
    15
100
AcDbLine
 10
134.5352708773
 20
175.296316536
 30
0.0
 11
134.5352708773
 21
185.7963163944
 31
0.0
  0
LINE
  5
15C
330
1F
100
AcDbEntity
  8
0
  6
Continuous
 62
     8
370
    15
100
AcDbLine
 10
134.5352708773
 20
164.7963166775
 30
0.0
 11
134.5352708773
 21
175.296316536
 31
0.0
  0
LINE
  5
15D
330
1F
100
AcDbEntity
  8
0
  6
CENTERX2
 62
     7
370
     0
100
AcDbLine
 10
190.6790583865
 20
240.158747971
 30
0.0
 11
191.7352696256
 21
240.158747971
 31
0.0
  0
LINE
  5
15E
330
1F
100
AcDbEntity
  8
0
  6
CENTERX2
 62
     7
370
     0
100
AcDbLine
 10
191.7352696256
 20
208.4963163423
 30
0.0
 11
191.7352696256
 21
240.2963163423
 31
0.0
  0
ARC
  5
15F
330
1F
100
AcDbEntity
  8
0
  6
Continuous
 62
     7
370
     0
100
AcDbCircle
 10
224.7352696255
 20
225.0976321887
 30
0.0
 40
39.99999999996073
100
AcDbArc
 50
157.8812224294
 51
180.0
  0
ARC
  5
160
330
1F
100
AcDbEntity
  8
0
  6
CENTERX2
 62
     7
370
     0
100
AcDbCircle
 10
227.7352696255
 20
225.0976321887
 30
0.0
 40
39.99999999996073
100
AcDbArc
 50
157.8812224294
 51
167.161431859
  0
DIMENSION
  5
161
330
1F
100
AcDbEntity
  8
0
  6
Continuous
 62
     7
370
     0
100
AcDbDimension
  2
_D
 10
191.7352696256
 20
250.2963163423
 30
0.0
 11
129.3503814188
 21
250.2963163423
 31
0.0
 70
   160
  1
Maxストローク <>
 71
     2
 42
-1.0
  3
SLDDIMSTYLE0
100
AcDbAlignedDimension
 13
188.7352696256
 23
240.2963163423
 33
0.0
 14
191.7352696256
 24
240.2963163423
 34
0.0
 50
0.0
100
AcDbRotatedDimension
  0
DIMENSION
  5
16F
330
1F
100
AcDbEntity
  8
0
  6
Continuous
 62
     7
370
     0
100
AcDbDimension
  2
_D_1
 10
195.9633701545
 20
156.2963163423
 30
0.0
 11
195.9633701545
 21
198.2963163423
 31
0.0
 70
   160
  1
<>
 71
     2
 42
-1.0
  3
SLDDIMSTYLE1
100
AcDbAlignedDimension
 13
191.7352696256
 23
240.2963163423
 33
0.0
 14
164.0352696256
 24
156.2963163423
 34
0.0
 50
90.0
100
AcDbRotatedDimension
  0
DIMENSION
  5
17A
330
1F
100
AcDbEntity
  8
0
  6
Continuous
 62
     7
370
     0
100
AcDbDimension
  2
_D_2
 10
190.2352696256
 20
140.2963163423
 30
0.0
 11
146.5852696256
 21
140.2963163423
 31
0.0
 70
   160
  1
(<>)
 71
     2
 42
-1.0
  3
SLDDIMSTYLE1
100
AcDbAlignedDimension
 13
102.9352696256
 23
171.4463163423
 33
0.0
 14
190.2352696256
 24
168.7963163422
 34
0.0
 50
0.0
100
AcDbRotatedDimension
  0
DIMENSION
  5
186
330
1F
100
AcDbEntity
  8
0
  6
Continuous
 62
     7
370
     0
100
AcDbDimension
  2
_D_3
 10
190.2352696256
 20
148.8723428698
 30
0.0
 11
153.8852696256
 21
148.8723428698
 31
0.0
 70
   160
  1
<>
 71
     2
 42
-1.0
  3
SLDDIMSTYLE1
100
AcDbAlignedDimension
 13
117.5352696256
 23
160.7963163423
 33
0.0
 14
190.2352696256
 24
168.7963163422
 34
0.0
 50
0.0
100
AcDbRotatedDimension
  0
DIMENSION
  5
190
330
1F
100
AcDbEntity
  8
0
  6
Continuous
 62
     7
370
     0
100
AcDbDimension
  2
_D_4
 10
180.7352696256
 20
260.7138216281
 30
0.0
 11
169.1352696256
 21
260.7138216281
 31
0.0
 70
   160
  1
(<>)
 71
     2
 42
-1.0
  3
SLDDIMSTYLE1
100
AcDbAlignedDimension
 13
157.5352696256
 23
162.7963163423
 33
0.0
 14
180.7352696256
 24
214.2963163423
 34
0.0
 50
0.0
100
AcDbRotatedDimension
  0
DIMENSION
  5
19C
330
1F
100
AcDbEntity
  8
0
  6
Continuous
 62
     7
370
     0
100
AcDbDimension
  2
_D_5
 10
180.7352696256
 20
260.7138216281
 30
0.0
 11
184.4245057711
 21
260.7138216281
 31
0.0
 70
   160
  1
<>
 71
     2
 42
-1.0
  3
SLDDIMSTYLE0
100
AcDbAlignedDimension
 13
188.7352696256
 23
240.2963163423
 33
0.0
 14
180.7352696256
 24
214.2963163423
 34
0.0
 50
0.0
100
AcDbRotatedDimension
  0
DIMENSION
  5
1A8
330
1F
100
AcDbEntity
  8
0
  6
Continuous
 62
     7
370
     0
100
AcDbDimension
  2
_D_6
 10
92.9352696256
 20
156.2963163423
 30
0.0
 11
92.9352696256
 21
172.0108681516
 31
0.0
 70
   160
  1
<>
 71
     2
 42
-1.0
  3
SLDDIMSTYLE1
100
AcDbAlignedDimension
 13
118.9352696256
 23
191.2962838914
 33
0.0
 14
134.0352696256
 24
156.2963163423
 34
0.0
 50
90.0
100
AcDbRotatedDimension
  0
DIMENSION
  5
1B2
330
1F
100
AcDbEntity
  8
0
  6
Continuous
 62
     7
370
     0
100
AcDbDimension
  2
_D_7
 10
98.232244118
 20
156.2963163423
 30
0.0
 11
98.232244118
 21
166.1847946516
 31
0.0
 70
   160
  1
<>
 71
     2
 42
-1.0
  3
SLDDIMSTYLE1
100
AcDbAlignedDimension
 13
103.3352696256
 23
175.2963163423
 33
0.0
 14
134.0352696256
 24
156.2963163423
 34
0.0
 50
90.0
100
AcDbRotatedDimension
  0
MTEXT
  5
1BC
330
1F
100
AcDbEntity
  8
0
  6
Continuous
 62
     7
370
     0
100
AcDbMText
 10
110.4824576648
 20
216.8449952667
 30
0.0
 40
2.9104166667
 41
0.0
 71
     1
 72
     1
  1
KQ2S04-M5N
  7
SLDTEXTSTYLE0
 73
     1
 44
1.0
  0
INSERT
  5
1C7
330
1F
100
AcDbEntity
  8
0
  6
Continuous
 62
     7
370
     0
100
AcDbBlockReference
  2
SW_NOTE_0
 10
86.4270357181
 20
219.4011249785
 30
0.0
  0
INSERT
  5
1D2
330
1F
100
AcDbEntity
  8
0
  6
Continuous
 62
     7
370
     0
100
AcDbBlockReference
  2
SW_NOTE_1
 10
115.0252295871
 20
217.4713475917
 30
0.0
  0
INSERT
  5
1DB
330
1F
100
AcDbEntity
  8
0
  6
Continuous
 62
     7
370
     0
100
AcDbBlockReference
  2
_DOT
 10
134.5669375719
 20
193.1898691446
 30
3.4911735781
 41
3.0
 42
3.0
 50
269.9607092243
  0
LINE
  5
1DC
330
1F
100
AcDbEntity
  8
0
  6
Continuous
 62
     7
370
     0
100
AcDbLine
 10
134.5669375719
 20
193.1898691446
 30
0.0
 11
134.5838218054
 21
217.8113012896
 31
0.0
  0
INSERT
  5
1DD
330
1F
100
AcDbEntity
  8
0
  6
Continuous
 62
     7
370
     0
100
AcDbBlockReference
  2
_DOT
 10
110.1398025909
 20
178.3651251561
 30
-2.5656212628
 41
3.0
 42
3.0
 50
270.2426105347
  0
LINE
  5
1DE
330
1F
100
AcDbEntity
  8
0
  6
Continuous
 62
     7
370
     0
100
AcDbLine
 10
110.1398025909
 20
178.3651251561
 30
0.0
 11
109.9648300117
 21
219.6870339977
 31
0.0
  0
LINE
  5
1DF
330
1F
100
AcDbEntity
  8
0
  6
CENTERX2
 62
     7
370
     0
100
AcDbLine
 10
168.5352696256
 20
162.7963163423
 30
0.0
 11
168.5352696256
 21
156.2963163423
 31
0.0
  0
LINE
  5
1E0
330
1F
100
AcDbEntity
  8
0
  6
CENTERX2
 62
     7
370
     0
100
AcDbLine
 10
157.5352696256
 20
162.7963163423
 30
0.0
 11
157.5352696256
 21
154.2963163423
 31
0.0
  0
LINE
  5
1E1
330
1F
100
AcDbEntity
  8
0
  6
CENTERX2
 62
     7
370
     0
100
AcDbLine
 10
155.5352696256
 20
162.7963163423
 30
0.0
 11
155.5352696256
 21
154.2963163423
 31
0.0
  0
LINE
  5
1E2
330
1F
100
AcDbEntity
  8
0
  6
CENTERX2
 62
     7
370
     0
100
AcDbLine
 10
137.5352696256
 20
162.7963163423
 30
0.0
 11
137.5352696256
 21
154.2963163423
 31
0.0
  0
LINE
  5
1E3
330
1F
100
AcDbEntity
  8
0
  6
CENTERX2
 62
     7
370
     0
100
AcDbLine
 10
179.0852696256
 20
192.7963163423
 30
0.0
 11
185.5352696256
 21
192.7963163423
 31
0.0
  0
LINE
  5
1E4
330
1F
100
AcDbEntity
  8
0
  6
CENTERX2
 62
     7
370
     0
100
AcDbLine
 10
179.0852696256
 20
166.7963163423
 30
0.0
 11
185.5352696256
 21
166.7963163423
 31
0.0
  0
LINE
  5
1E5
330
1F
100
AcDbEntity
  8
0
  6
CENTERX2
 62
     7
370
     0
100
AcDbLine
 10
185.5352696256
 20
166.7963163423
 30
0.0
 11
187.8352696256
 21
166.7963163423
 31
0.0
  0
LINE
  5
1E6
330
1F
100
AcDbEntity
  8
0
  6
CENTERX2
 62
     7
370
     0
100
AcDbLine
 10
185.5352696256
 20
192.7963163423
 30
0.0
 11
187.8352696256
 21
192.7963163423
 31
0.0
  0
LINE
  5
1E7
330
1F
100
AcDbEntity
  8
0
  6
CENTERX2
 62
     7
370
     0
100
AcDbLine
 10
118.9352696256
 20
191.2962838914
 30
0.0
 11
140.5352696256
 21
191.2962838914
 31
0.0
  0
LINE
  5
1E8
330
1F
100
AcDbEntity
  8
0
  6
CENTERX2
 62
     7
370
     0
100
AcDbLine
 10
121.3352696256
 20
191.2962838914
 30
0.0
 11
137.5352696256
 21
191.2962838914
 31
0.0
  0
LINE
  5
1E9
330
1F
100
AcDbEntity
  8
0
  6
CENTERX2
 62
     7
370
     0
100
AcDbLine
 10
103.3352696256
 20
175.2963163423
 30
0.0
 11
119.5352696256
 21
175.2963163423
 31
0.0
  0
LINE
  5
1EA
330
1F
100
AcDbEntity
  8
0
  6
Continuous
 62
     7
370
    15
100
AcDbLine
 10
71.2237321987
 20
162.0963166075
 30
0.0
 11
71.0237306758
 21
162.2963162678
 31
0.0
  0
LINE
  5
1EB
330
1F
100
AcDbEntity
  8
0
  6
Continuous
 62
     7
370
    15
100
AcDbLine
 10
71.2237321987
 20
161.4963157641
 30
0.0
 11
71.2237321987
 21
162.0963166075
 31
0.0
  0
LINE
  5
1EC
330
1F
100
AcDbEntity
  8
0
  6
Continuous
 62
     7
370
    15
100
AcDbLine
 10
71.0237306758
 20
161.2963161038
 30
0.0
 11
71.2237321987
 21
161.4963157641
 31
0.0
  0
LINE
  5
1ED
330
1F
100
AcDbEntity
  8
0
  6
Continuous
 62
     7
370
    15
100
AcDbLine
 10
67.223731543
 20
160.7963169532
 30
0.0
 11
67.223731543
 21
161.2963161038
 31
0.0
  0
LINE
  5
1EE
330
1F
100
AcDbEntity
  8
0
  6
Continuous
 62
     7
370
    15
100
AcDbLine
 10
28.4237322613
 20
162.2963162678
 30
0.0
 11
28.2237307384
 21
162.0963166075
 31
0.0
  0
LINE
  5
1EF
330
1F
100
AcDbEntity
  8
0
  6
Continuous
 62
     7
370
    15
100
AcDbLine
 10
28.2237307384
 20
162.0963166075
 30
0.0
 11
28.2237307384
 21
161.4963157641
 31
0.0
  0
LINE
  5
1F0
330
1F
100
AcDbEntity
  8
0
  6
Continuous
 62
     7
370
    15
100
AcDbLine
 10
28.2237307384
 20
161.4963157641
 30
0.0
 11
28.4237322613
 21
161.2963161038
 31
0.0
  0
LINE
  5
1F1
330
1F
100
AcDbEntity
  8
0
  6
Continuous
 62
     7
370
    15
100
AcDbLine
 10
32.223731394
 20
161.2963161038
 30
0.0
 11
32.223731394
 21
160.7963169532
 31
0.0
  0
CIRCLE
  5
1F2
330
1F
100
AcDbEntity
  8
0
  6
Continuous
 62
     7
370
    15
100
AcDbCircle
 10
49.7237314685
 20
175.2963163423
 30
0.0
 40
2.049999999999997
  0
CIRCLE
  5
1F3
330
1F
100
AcDbEntity
  8
0
  6
Continuous
 62
     7
370
    15
100
AcDbCircle
 10
49.7237314685
 20
175.2963163423
 30
0.0
 40
3.849999999999994
  0
CIRCLE
  5
1F4
330
1F
100
AcDbEntity
  8
0
  6
Continuous
 62
     7
370
    15
100
AcDbCircle
 10
49.7237314685
 20
175.2963163423
 30
0.0
 40
4.0
  0
LINE
  5
1F5
330
1F
100
AcDbEntity
  8
0
  6
Continuous
 62
     7
370
    15
100
AcDbLine
 10
49.7237314685
 20
176.4510168301
 30
0.0
 11
48.723731421
 21
175.873666683
 31
0.0
  0
LINE
  5
1F6
330
1F
100
AcDbEntity
  8
0
  6
Continuous
 62
     7
370
    15
100
AcDbLine
 10
48.723731421
 20
174.7189659232
 30
0.0
 11
48.723731421
 21
175.873666683
 31
0.0
  0
LINE
  5
1F7
330
1F
100
AcDbEntity
  8
0
  6
Continuous
 62
     7
370
    15
100
AcDbLine
 10
48.723731421
 20
174.7189659232
 30
0.0
 11
49.7237314675
 21
174.1416157762
 31
0.0
  0
LINE
  5
1F8
330
1F
100
AcDbEntity
  8
0
  6
Continuous
 62
     7
370
    15
100
AcDbLine
 10
49.7237314675
 20
174.1416157762
 30
0.0
 11
50.723731516
 21
174.7189659232
 31
0.0
  0
LINE
  5
1F9
330
1F
100
AcDbEntity
  8
0
  6
Continuous
 62
     7
370
    15
100
AcDbLine
 10
50.723731516
 20
174.7189659232
 30
0.0
 11
50.723731516
 21
175.873666683
 31
0.0
  0
LINE
  5
1FA
330
1F
100
AcDbEntity
  8
0
  6
Continuous
 62
     7
370
    15
100
AcDbLine
 10
50.723731516
 20
175.873666683
 30
0.0
 11
49.7237314685
 21
176.4510168301
 31
0.0
  0
CIRCLE
  5
1FB
330
1F
100
AcDbEntity
  8
0
  6
Continuous
 62
     7
370
    15
100
AcDbCircle
 10
49.6915068448
 20
191.2962838914
 30
0.0
 40
2.050000000000004
  0
CIRCLE
  5
1FC
330
1F
100
AcDbEntity
  8
0
  6
Continuous
 62
     7
370
    15
100
AcDbCircle
 10
49.6915068448
 20
191.2962838914
 30
0.0
 40
3.849999999999994
  0
CIRCLE
  5
1FD
330
1F
100
AcDbEntity
  8
0
  6
Continuous
 62
     7
370
    15
100
AcDbCircle
 10
49.6915068448
 20
191.2962838914
 30
0.0
 40
4.0
  0
LINE
  5
1FE
330
1F
100
AcDbEntity
  8
0
  6
Continuous
 62
     7
370
    15
100
AcDbLine
 10
49.6915068453
 20
192.4509840625
 30
0.0
 11
48.6915068451
 21
191.8736339154
 31
0.0
  0
LINE
  5
1FF
330
1F
100
AcDbEntity
  8
0
  6
Continuous
 62
     7
370
    15
100
AcDbLine
 10
48.6915068451
 20
190.7189336213
 30
0.0
 11
48.6915068451
 21
191.8736339154
 31
0.0
  0
LINE
  5
200
330
1F
100
AcDbEntity
  8
0
  6
Continuous
 62
     7
370
    15
100
AcDbLine
 10
48.6915068451
 20
190.7189336213
 30
0.0
 11
49.6915068453
 21
190.1415834742
 31
0.0
  0
LINE
  5
201
330
1F
100
AcDbEntity
  8
0
  6
Continuous
 62
     7
370
    15
100
AcDbLine
 10
49.6915068453
 20
190.1415834742
 30
0.0
 11
50.6915068236
 21
190.7189336213
 31
0.0
  0
LINE
  5
202
330
1F
100
AcDbEntity
  8
0
  6
Continuous
 62
     7
370
    15
100
AcDbLine
 10
50.6915068236
 20
190.7189336213
 30
0.0
 11
50.6915068236
 21
191.8736339154
 31
0.0
  0
LINE
  5
203
330
1F
100
AcDbEntity
  8
0
  6
Continuous
 62
     7
370
    15
100
AcDbLine
 10
50.6915068236
 20
191.8736339154
 30
0.0
 11
49.6915068453
 21
192.4509840625
 31
0.0
  0
LINE
  5
204
330
1F
100
AcDbEntity
  8
0
  6
Continuous
 62
     7
370
    15
100
AcDbLine
 10
59.6942120447
 20
214.296315478
 30
0.0
 11
60.2008096158
 21
217.943821715
 31
0.0
  0
LINE
  5
205
330
1F
100
AcDbEntity
  8
0
  6
Continuous
 62
     7
370
    15
100
AcDbLine
 10
59.6942120447
 20
214.296315478
 30
0.0
 11
51.0916567856
 21
214.296315478
 31
0.0
  0
ARC
  5
206
330
1F
100
AcDbEntity
  8
0
  6
Continuous
 62
     7
370
    15
100
AcDbCircle
 10
49.7237314685
 20
214.7319261926
 30
0.0
 40
1.435609850373737
100
AcDbArc
 50
342.3361508144
 51
352.092837297
  0
LINE
  5
207
330
1F
100
AcDbEntity
  8
0
  6
Continuous
 62
     7
370
    15
100
AcDbLine
 10
51.1456918885
 20
214.5344323086
 30
0.0
 11
51.6192184278
 21
217.943821715
 31
0.0
  0
LINE
  5
208
330
1F
100
AcDbEntity
  8
0
  6
Continuous
 62
     7
370
    15
100
AcDbLine
 10
60.2008096158
 20
217.943821715
 30
0.0
 11
51.6192184278
 21
217.943821715
 31
0.0
  0
ARC
  5
209
330
1F
100
AcDbEntity
  8
0
  6
Continuous
 62
     7
370
    15
100
AcDbCircle
 10
49.7237314685
 20
204.2963163423
 30
0.0
 40
9.50000000000127
100
AcDbArc
 50
18.6181893136
 51
83.7311271985
  0
ARC
  5
20A
330
1F
100
AcDbEntity
  8
0
  6
Continuous
 62
     7
370
    15
100
AcDbCircle
 10
49.7237314685
 20
214.7319261926
 30
0.0
 40
1.435609850373611
100
AcDbArc
 50
316.2680714244
 51
342.3361508144
  0
LINE
  5
20B
330
1F
100
AcDbEntity
  8
0
  6
Continuous
 62
     7
370
    15
100
AcDbLine
 10
58.726568821
 20
207.3292887377
 30
0.0
 11
59.6942120447
 21
214.296315478
 31
0.0
  0
LINE
  5
20C
330
1F
100
AcDbEntity
  8
0
  6
Continuous
 62
     7
370
    15
100
AcDbLine
 10
39.2466533213
 20
217.943821715
 30
0.0
 11
47.8282445093
 21
217.943821715
 31
0.0
  0
LINE
  5
20D
330
1F
100
AcDbEntity
  8
0
  6
Continuous
 62
     7
370
    15
100
AcDbLine
 10
47.8282445093
 20
217.943821715
 30
0.0
 11
48.3017710486
 21
214.5344323086
 31
0.0
  0
LINE
  5
20E
330
1F
100
AcDbEntity
  8
0
  6
Continuous
 62
     7
370
    15
100
AcDbLine
 10
39.7532508924
 20
214.296315478
 30
0.0
 11
48.3558061515
 21
214.296315478
 31
0.0
  0
LINE
  5
20F
330
1F
100
AcDbEntity
  8
0
  6
Continuous
 62
     7
370
    15
100
AcDbLine
 10
39.2466533213
 20
217.943821715
 30
0.0
 11
39.7532508924
 21
214.296315478
 31
0.0
  0
ARC
  5
210
330
1F
100
AcDbEntity
  8
0
  6
Continuous
 62
     7
370
    15
100
AcDbCircle
 10
49.7237314685
 20
214.7319261926
 30
0.0
 40
1.435609850373709
100
AcDbArc
 50
187.907162703
 51
197.6638491856
  0
ARC
  5
211
330
1F
100
AcDbEntity
  8
0
  6
Continuous
 62
     7
370
    15
100
AcDbCircle
 10
49.7237314685
 20
204.2963163423
 30
0.0
 40
8.999999999989537
100
AcDbArc
 50
207.0952991566
 51
231.057558731
  0
ARC
  5
212
330
1F
100
AcDbEntity
  8
0
  6
Continuous
 62
     7
370
    15
100
AcDbCircle
 10
49.7237314685
 20
204.2963163423
 30
0.0
 40
9.000000000011077
100
AcDbArc
 50
11.2809737507
 51
89.9999999999
  0
CIRCLE
  5
213
330
1F
100
AcDbEntity
  8
0
  6
Continuous
 62
     7
370
    15
100
AcDbCircle
 10
49.7237314685
 20
204.2963163423
 30
0.0
 40
5.150000000002507
  0
LINE
  5
214
330
1F
100
AcDbEntity
  8
0
  6
Continuous
 62
     7
370
    15
100
AcDbLine
 10
39.7532508924
 20
214.296315478
 30
0.0
 11
41.7114795401
 21
200.197069587
 31
0.0
  0
ARC
  5
215
330
1F
100
AcDbEntity
  8
0
  6
Continuous
 62
     7
370
    15
100
AcDbCircle
 10
49.7237314685
 20
214.7319261926
 30
0.0
 40
1.435609850373621
100
AcDbArc
 50
197.6638491856
 51
270.0
  0
LINE
  5
216
330
1F
100
AcDbEntity
  8
0
  6
Continuous
 62
     7
370
    15
100
AcDbLine
 10
57.3331007018
 20
197.2963164168
 30
0.0
 11
58.5498484998
 21
206.0569009351
 31
0.0
  0
ARC
  5
217
330
1F
100
AcDbEntity
  8
0
  6
Continuous
 62
     7
370
    15
100
AcDbCircle
 10
49.7237314683
 20
204.296316342
 30
0.0
 40
9.499999999618092
100
AcDbArc
 50
214.4325147193
 51
227.4631016373
  0
LINE
  5
218
330
1F
100
AcDbEntity
  8
0
  6
Continuous
 62
     7
370
    15
100
AcDbLine
 10
42.1143622353
 20
197.2963164168
 30
0.0
 11
41.8881998613
 21
198.9246817844
 31
0.0
  0
LINE
  5
219
330
1F
100
AcDbEntity
  8
0
  6
Continuous
 62
     7
370
    15
100
AcDbLine
 10
36.7237312003
 20
202.7517544644
 30
0.0
 11
36.7237312003
 21
197.2963164168
 31
0.0
  0
ARC
  5
21A
330
1F
100
AcDbEntity
  8
0
  6
Continuous
 62
     7
370
    15
100
AcDbCircle
 10
43.7237314685
 20
202.7517536957
 30
0.0
 40
7.000000000005554
100
AcDbArc
 50
124.849904579
 51
180.0
  0
LINE
  5
21B
330
1F
100
AcDbEntity
  8
0
  6
Continuous
 62
     7
370
    15
100
AcDbLine
 10
39.7237316921
 20
208.4963160174
 30
0.0
 11
39.7237316921
 21
206.5266712176
 31
0.0
  0
ARC
  5
21C
330
1F
100
AcDbEntity
  8
0
  6
Continuous
 62
     7
370
    15
100
AcDbCircle
 10
43.7237314685
 20
202.7517536957
 30
0.0
 40
5.500000000001839
100
AcDbArc
 50
136.6582417726
 51
179.9999999999
  0
LINE
  5
21D
330
1F
100
AcDbEntity
  8
0
  6
Continuous
 62
     7
370
    15
100
AcDbLine
 10
38.2237314462
 20
197.2963164168
 30
0.0
 11
38.2237314462
 21
202.7517544644
 31
0.0
  0
LINE
  5
21E
330
1F
100
AcDbEntity
  8
0
  6
Continuous
 62
     7
370
    15
100
AcDbLine
 10
61.2237314909
 20
202.7517544644
 30
0.0
 11
61.2237314909
 21
197.2963164168
 31
0.0
  0
ARC
  5
21F
330
1F
100
AcDbEntity
  8
0
  6
Continuous
 62
     7
370
    15
100
AcDbCircle
 10
55.7237314686
 20
202.7517536957
 30
0.0
 40
5.499999999999506
100
AcDbArc
 50
0.0000000001
 51
43.3417582274
  0
LINE
  5
220
330
1F
100
AcDbEntity
  8
0
  6
Continuous
 62
     7
370
    15
100
AcDbLine
 10
59.723731245
 20
206.5266712176
 30
0.0
 11
59.723731245
 21
208.4963160174
 31
0.0
  0
ARC
  5
221
330
1F
100
AcDbEntity
  8
0
  6
Continuous
 62
     7
370
    15
100
AcDbCircle
 10
55.7237314685
 20
202.7517536957
 30
0.0
 40
7.000000000005518
100
AcDbArc
 50
0.0
 51
55.150095421
  0
LINE
  5
222
330
1F
100
AcDbEntity
  8
0
  6
Continuous
 62
     7
370
    15
100
AcDbLine
 10
62.7237317368
 20
197.2963164168
 30
0.0
 11
62.7237317368
 21
202.7517544644
 31
0.0
  0
ARC
  5
223
330
1F
100
AcDbEntity
  8
0
  6
Continuous
 62
     7
370
    15
100
AcDbCircle
 10
49.7237314685
 20
214.7319261926
 30
0.0
 40
1.435609850373577
100
AcDbArc
 50
270.0
 51
316.2680714244
  0
LINE
  5
224
330
1F
100
AcDbEntity
  8
0
  6
Continuous
 62
     7
370
    15
100
AcDbLine
 10
58.726568821
 20
207.3292887377
 30
0.0
 11
58.5498484998
 21
206.0569009351
 31
0.0
  0
CIRCLE
  5
225
330
1F
100
AcDbEntity
  8
0
  6
Continuous
 62
     7
370
    15
100
AcDbCircle
 10
49.7237314685
 20
204.2963163423
 30
0.0
 40
4.000000000001052
  0
CIRCLE
  5
226
330
1F
100
AcDbEntity
  8
0
  6
Continuous
 62
     7
370
    15
100
AcDbCircle
 10
49.7237314685
 20
204.2963163423
 30
0.0
 40
2.499999999999105
  0
LINE
  5
227
330
1F
100
AcDbEntity
  8
0
  6
Continuous
 62
     7
370
    15
100
AcDbLine
 10
41.8881998613
 20
198.9246817844
 30
0.0
 11
41.7114795401
 21
200.197069587
 31
0.0
  0
LINE
  5
228
330
1F
100
AcDbEntity
  8
0
  6
Continuous
 62
     7
370
    15
100
AcDbLine
 10
38.9735262125
 20
219.9369153546
 30
0.0
 11
47.5514262199
 21
219.9369153546
 31
0.0
  0
LINE
  5
229
330
1F
100
AcDbEntity
  8
0
  6
Continuous
 62
     7
370
    15
100
AcDbLine
 10
39.0343350574
 20
219.4725132154
 30
0.0
 11
38.9735262125
 21
219.9369153546
 31
0.0
  0
LWPOLYLINE
  5
22A
330
1F
100
AcDbEntity
  8
0
  6
Continuous
 62
     7
370
    15
100
AcDbPolyline
 90
        5
 70
   128
 43
0.0
 10
47.5514262199
 20
219.9369153546
 10
47.6267024624
 20
219.3949265944
 10
47.699501387
 20
218.8707707988
 10
47.7674271661
 20
218.3817072379
 10
47.8282445093
 20
217.943821715
  0
LWPOLYLINE
  5
22B
330
1F
100
AcDbEntity
  8
0
  6
Continuous
 62
     7
370
    15
100
AcDbPolyline
 90
        4
 70
   128
 43
0.0
 10
39.0343350574
 20
219.4725132154
 10
39.1110760375
 20
218.9199781584
 10
39.1827115073
 20
218.4042005407
 10
39.2466533213
 20
217.943821715
  0
LINE
  5
22C
330
1F
100
AcDbEntity
  8
0
  6
Continuous
 62
     7
370
    15
100
AcDbLine
 10
51.8960367172
 20
219.9369153546
 30
0.0
 11
60.4739367246
 21
219.9369153546
 31
0.0
  0
LINE
  5
22D
330
1F
100
AcDbEntity
  8
0
  6
Continuous
 62
     7
370
    15
100
AcDbLine
 10
60.4131278797
 20
219.4725132154
 30
0.0
 11
60.4739367246
 21
219.9369153546
 31
0.0
  0
LWPOLYLINE
  5
22E
330
1F
100
AcDbEntity
  8
0
  6
Continuous
 62
     7
370
    15
100
AcDbPolyline
 90
        5
 70
   128
 43
0.0
 10
51.6192184278
 20
217.943821715
 10
51.680035771
 20
218.3817072379
 10
51.7479615501
 20
218.8707707988
 10
51.8207604747
 20
219.3949265944
 10
51.8960367172
 20
219.9369153546
  0
LWPOLYLINE
  5
22F
330
1F
100
AcDbEntity
  8
0
  6
Continuous
 62
     7
370
    15
100
AcDbPolyline
 90
        4
 70
   128
 43
0.0
 10
60.2008096158
 20
217.943821715
 10
60.2647514298
 20
218.4042005407
 10
60.3363868996
 20
218.9199781584
 10
60.4131278797
 20
219.4725132154
  0
LINE
  5
230
330
1F
100
AcDbEntity
  8
0
  6
Continuous
 62
     7
370
    15
100
AcDbLine
 10
44.7237315803
 20
240.2963160144
 30
0.0
 11
43.8841028354
 21
240.1796995269
 31
0.0
  0
LINE
  5
231
330
1F
100
AcDbEntity
  8
0
  6
Continuous
 62
     7
370
    15
100
AcDbLine
 10
42.9981836333
 20
225.0976307856
 30
0.0
 11
43.5048757336
 21
221.449450271
 31
0.0
  0
ELLIPSE
  5
232
330
1F
100
AcDbEntity
  8
0
  6
Continuous
 62
     7
370
    15
100
AcDbEllipse
 10
83.3821433122
 20
225.0976321887
 30
0.0
 11
32.48414273075879
 21
-28.28427124744729
 31
0.0
210
0.0
220
0.0
230
1.0
 40
0.8707101025
 41
3.540379810405722
 42
3.926990816987228
  0
LINE
  5
233
330
1F
100
AcDbEntity
  8
0
  6
Continuous
 62
     7
370
    15
100
AcDbLine
 10
47.2687463026
 20
221.9722090827
 30
0.0
 11
44.7237315803
 21
240.2963160144
 31
0.0
  0
LINE
  5
234
330
1F
100
AcDbEntity
  8
0
  6
Continuous
 62
     7
370
    15
100
AcDbLine
 10
54.7237313568
 20
240.2963160144
 30
0.0
 11
55.5633601017
 21
240.1796995269
 31
0.0
  0
ELLIPSE
  5
235
330
1F
100
AcDbEntity
  8
0
  6
Continuous
 62
     7
370
    15
100
AcDbEllipse
 10
16.0653196249
 20
225.0976321887
 30
0.0
 11
32.4841427307588
 21
28.28427124744726
 31
0.0
210
0.0
220
0.0
230
1.0
 40
0.8707101025
 41
5.497787143782181
 42
5.884398150363783
  0
LINE
  5
236
330
1F
100
AcDbEntity
  8
0
  6
Continuous
 62
     7
370
    15
100
AcDbLine
 10
55.9425872035
 20
221.449450271
 30
0.0
 11
56.4492793038
 21
225.0976307856
 31
0.0
  0
LINE
  5
237
330
1F
100
AcDbEntity
  8
0
  6
Continuous
 62
     7
370
    15
100
AcDbLine
 10
54.7237313568
 20
240.2963160144
 30
0.0
 11
52.1787166345
 21
221.9722090827
 31
0.0
  0
LINE
  5
238
330
1F
100
AcDbEntity
  8
0
  6
Continuous
 62
     7
370
    15
100
AcDbLine
 10
43.5048757336
 20
221.449450271
 30
0.0
 11
47.2687463026
 21
221.9722090827
 31
0.0
  0
LINE
  5
239
330
1F
100
AcDbEntity
  8
0
  6
Continuous
 62
     7
370
    15
100
AcDbLine
 10
38.786529678
 20
225.0976307856
 30
0.0
 11
42.9981836333
 21
225.0976307856
 31
0.0
  0
ARC
  5
23A
330
1F
100
AcDbEntity
  8
0
  6
Continuous
 62
     7
370
    15
100
AcDbCircle
 10
68.7491030818
 20
223.599564597
 30
0.0
 40
30.0000000000209
100
AcDbArc
 50
177.1377112613
 51
187.0126421508
  0
LINE
  5
23B
330
1F
100
AcDbEntity
  8
0
  6
Continuous
 62
     7
370
    15
100
AcDbLine
 10
47.5514262199
 20
219.9369153546
 30
0.0
 11
47.2687463026
 21
221.9722090827
 31
0.0
  0
LINE
  5
23C
330
1F
100
AcDbEntity
  8
0
  6
Continuous
 62
     7
370
    15
100
AcDbLine
 10
52.1787166345
 20
221.9722090827
 30
0.0
 11
55.9425872035
 21
221.449450271
 31
0.0
  0
LINE
  5
23D
330
1F
100
AcDbEntity
  8
0
  6
Continuous
 62
     7
370
    15
100
AcDbLine
 10
60.6609332591
 20
225.0976307856
 30
0.0
 11
56.4492793038
 21
225.0976307856
 31
0.0
  0
ARC
  5
23E
330
1F
100
AcDbEntity
  8
0
  6
Continuous
 62
     7
370
    15
100
AcDbCircle
 10
30.6983598552
 20
223.599564597
 30
0.0
 40
30.0000000000209
100
AcDbArc
 50
352.9873578492
 51
2.8622887387
  0
LINE
  5
23F
330
1F
100
AcDbEntity
  8
0
  6
Continuous
 62
     7
370
    15
100
AcDbLine
 10
52.1787166345
 20
221.9722090827
 30
0.0
 11
51.8960367172
 21
219.9369153546
 31
0.0
  0
LINE
  5
240
330
1F
100
AcDbEntity
  8
0
  6
Continuous
 62
     7
370
    15
100
AcDbLine
 10
43.7332392886
 20
240.1587484943
 30
0.0
 11
43.8841028354
 21
240.1796995269
 31
0.0
  0
SPLINE
  5
241
330
1F
100
AcDbEntity
  8
0
  6
Continuous
 62
     7
370
    15
100
AcDbSpline
210
0.0
220
0.0
230
1.0
 70
     8
 71
     3
 72
    15
 73
    11
 74
     0
 42
0.00000001
 43
0.00000001
 12
1.0
 22
0.0
 32
0.0
 13
1.0
 23
0.0
 33
0.0
 40
0.0
 40
0.0
 40
0.0
 40
0.0
 40
0.1348442152613195
 40
0.2696766410637574
 40
0.4078924745103635
 40
0.5460942439479872
 40
0.6582893411958205
 40
0.7704792358998371
 40
0.8852409167916935
 40
1.0
 40
1.0
 40
1.0
 40
1.0
 10
43.73323928855341
 20
240.1587484942935
 30
0.0
 10
43.35894550747469
 20
239.5677614584869
 30
0.0
 10
42.61039066990341
 20
238.3858390569981
 30
0.0
 10
41.6279554609792
 20
236.4798731910178
 30
0.0
 10
40.7613837329229
 20
234.4775150641441
 30
0.0
 10
40.07897574520333
 20
232.5094195593202
 30
0.0
 10
39.56310675474752
 20
230.6207200950994
 30
0.0
 10
39.18836090443221
 20
228.8178209692161
 30
0.0
 10
38.91464952214221
 20
226.9740488419425
 30
0.0
 10
38.82923597050232
 20
225.7230987516957
 30
0.0
 10
38.78652967803162
 20
225.0976307856104
 30
0.0
  0
LINE
  5
242
330
1F
100
AcDbEntity
  8
0
  6
Continuous
 62
     7
370
    15
100
AcDbLine
 10
55.7142236485
 20
240.1587484943
 30
0.0
 11
55.5633601017
 21
240.1796995269
 31
0.0
  0
SPLINE
  5
243
330
1F
100
AcDbEntity
  8
0
  6
Continuous
 62
     7
370
    15
100
AcDbSpline
210
0.0
220
0.0
230
1.0
 70
     8
 71
     3
 72
    15
 73
    11
 74
     0
 42
0.00000001
 43
0.00000001
 12
1.0
 22
0.0
 32
0.0
 13
1.0
 23
0.0
 33
0.0
 40
0.0
 40
0.0
 40
0.0
 40
0.0
 40
0.1338811145219483
 40
0.26776754450435
 40
0.4061141878813165
 40
0.5444735567235439
 40
0.6573588224932283
 40
0.7702506920324635
 40
0.8851223148607099
 40
1.0
 40
1.0
 40
1.0
 40
1.0
 10
60.66093325905484
 20
225.0976307856104
 30
0.0
 10
60.60884693850531
 20
225.8272584255944
 30
0.0
 10
60.50467222943141
 20
227.2865426738518
 30
0.0
 10
60.14418468629744
 20
229.4714088931063
 30
0.0
 10
59.63099254176635
 20
231.6361891147334
 30
0.0
 10
58.99498326679163
 20
233.6322100677143
 30
0.0
 10
58.2837447686606
 20
235.4374438764519
 30
0.0
 10
57.52352807106119
 20
237.0686843414364
 30
0.0
 10
56.67484190365548
 20
238.6520173461057
 30
0.0
 10
56.03443536629829
 20
239.6564959432943
 30
0.0
 10
55.71422364853304
 20
240.1587484942935
 30
0.0
  0
LINE
  5
244
330
1F
100
AcDbEntity
  8
0
  6
Continuous
 62
     7
370
    15
100
AcDbLine
 10
40.5588067352
 20
208.4963160174
 30
0.0
 11
39.7237316921
 21
208.4963160174
 31
0.0
  0
LINE
  5
245
330
1F
100
AcDbEntity
  8
0
  6
Continuous
 62
     7
370
    15
100
AcDbLine
 10
59.723731245
 20
208.4963160174
 30
0.0
 11
58.8886562019
 21
208.4963160174
 31
0.0
  0
LINE
  5
246
330
1F
100
AcDbEntity
  8
0
  6
Continuous
 62
     7
370
    15
100
AcDbLine
 10
57.6331933244
 20
175.8897538835
 30
0.0
 11
57.6145305514
 21
174.735203998
 31
0.0
  0
LINE
  5
247
330
1F
100
AcDbEntity
  8
0
  6
Continuous
 62
     7
370
    15
100
AcDbLine
 10
58.6050684779
 20
174.1417666504
 30
0.0
 11
57.6145305514
 21
174.735203998
 31
0.0
  0
LINE
  5
248
330
1F
100
AcDbEntity
  8
0
  6
Continuous
 62
     7
370
    15
100
AcDbLine
 10
59.6142691775
 20
174.7028787228
 30
0.0
 11
58.6050684779
 21
174.1417666504
 31
0.0
  0
LINE
  5
249
330
1F
100
AcDbEntity
  8
0
  6
Continuous
 62
     7
370
    15
100
AcDbLine
 10
59.6142691775
 20
174.7028787228
 30
0.0
 11
59.6329319506
 21
175.8574286083
 31
0.0
  0
LINE
  5
24A
330
1F
100
AcDbEntity
  8
0
  6
Continuous
 62
     7
370
    15
100
AcDbLine
 10
58.6423949554
 20
176.4508659559
 30
0.0
 11
59.6329319506
 21
175.8574286083
 31
0.0
  0
LINE
  5
24B
330
1F
100
AcDbEntity
  8
0
  6
Continuous
 62
     7
370
    15
100
AcDbLine
 10
58.6423949554
 20
176.4508659559
 30
0.0
 11
57.6331933244
 21
175.8897538835
 31
0.0
  0
CIRCLE
  5
24C
330
1F
100
AcDbEntity
  8
0
  6
Continuous
 62
     7
370
    15
100
AcDbCircle
 10
58.6237314685
 20
175.2963163423
 30
0.0
 40
1.60999999999999
  0
CIRCLE
  5
24D
330
1F
100
AcDbEntity
  8
0
  6
Continuous
 62
     7
370
    15
100
AcDbCircle
 10
58.6237314685
 20
175.2963163423
 30
0.0
 40
1.999999999999994
  0
LINE
  5
24E
330
1F
100
AcDbEntity
  8
0
  6
Continuous
 62
     7
370
    15
100
AcDbLine
 10
34.2237317219
 20
160.7963169532
 30
0.0
 11
65.2237312152
 21
160.7963169532
 31
0.0
  0
LINE
  5
24F
330
1F
100
AcDbEntity
  8
0
  6
Continuous
 62
     7
370
    15
100
AcDbLine
 10
34.2237317219
 20
160.7963169532
 30
0.0
 11
39.6965212404
 21
178.4116099894
 31
0.0
  0
ARC
  5
250
330
1F
100
AcDbEntity
  8
0
  6
Continuous
 62
     7
370
    15
100
AcDbCircle
 10
49.7237314685
 20
175.2963163423
 30
0.0
 40
10.5
100
AcDbArc
 50
90.0
 51
162.7408168397
  0
LINE
  5
251
330
1F
100
AcDbEntity
  8
0
  6
Continuous
 62
     7
370
    15
100
AcDbLine
 10
49.7237314685
 20
185.7963163944
 30
0.0
 11
53.2237315766
 21
185.7963163944
 31
0.0
  0
ARC
  5
252
330
1F
100
AcDbEntity
  8
0
  6
Continuous
 62
     7
370
    15
100
AcDbCircle
 10
53.2237314685
 20
173.7963163423
 30
0.0
 40
12.0
100
AcDbArc
 50
0.0
 51
90.0
  0
LINE
  5
253
330
1F
100
AcDbEntity
  8
0
  6
Continuous
 62
     7
370
    15
100
AcDbLine
 10
65.2237312152
 20
173.7963162901
 30
0.0
 11
65.2237312152
 21
160.7963169532
 31
0.0
  0
LINE
  5
254
330
1F
100
AcDbEntity
  8
0
  6
Continuous
 62
     7
370
    15
100
AcDbLine
 10
34.2237317219
 20
158.2963156121
 30
0.0
 11
65.2237312152
 21
158.2963156121
 31
0.0
  0
LINE
  5
255
330
1F
100
AcDbEntity
  8
0
  6
Continuous
 62
     7
370
    15
100
AcDbLine
 10
34.2237317219
 20
160.7963169532
 30
0.0
 11
34.2237317219
 21
158.2963156121
 31
0.0
  0
LINE
  5
256
330
1F
100
AcDbEntity
  8
0
  6
Continuous
 62
     7
370
    15
100
AcDbLine
 10
65.2237312152
 20
160.7963169532
 30
0.0
 11
65.2237312152
 21
158.2963156121
 31
0.0
  0
LINE
  5
257
330
1F
100
AcDbEntity
  8
0
  6
Continuous
 62
     7
370
    15
100
AcDbLine
 10
27.2237305745
 20
158.2963156121
 30
0.0
 11
34.2237317219
 21
158.2963156121
 31
0.0
  0
LINE
  5
258
330
1F
100
AcDbEntity
  8
0
  6
Continuous
 62
     7
370
    15
100
AcDbLine
 10
27.2237305745
 20
160.7963169532
 30
0.0
 11
27.2237305745
 21
158.2963156121
 31
0.0
  0
LINE
  5
259
330
1F
100
AcDbEntity
  8
0
  6
Continuous
 62
     7
370
    15
100
AcDbLine
 10
27.2237305745
 20
160.7963169532
 30
0.0
 11
34.2237317219
 21
160.7963169532
 31
0.0
  0
ELLIPSE
  5
25A
330
1F
100
AcDbEntity
  8
0
  6
Continuous
 62
     7
370
    15
100
AcDbEllipse
 10
65.6999219447
 20
161.7963163423
 30
0.0
 11
1.421085471520200E-14
 21
1.0
 31
0.0
210
0.0
220
0.0
230
1.0
 40
0.4761904762
 41
1.570796326794903
 42
3.141592653589853
  0
LINE
  5
25B
330
1F
100
AcDbEntity
  8
0
  6
Continuous
 62
     7
370
    15
100
AcDbLine
 10
72.2237323626
 20
160.7963169532
 30
0.0
 11
72.2237323626
 21
158.2963156121
 31
0.0
  0
LINE
  5
25C
330
1F
100
AcDbEntity
  8
0
  6
Continuous
 62
     7
370
    15
100
AcDbLine
 10
65.2237312152
 20
158.2963156121
 30
0.0
 11
72.2237323626
 21
158.2963156121
 31
0.0
  0
LINE
  5
25D
330
1F
100
AcDbEntity
  8
0
  6
Continuous
 62
     7
370
    15
100
AcDbLine
 10
65.6999220356
 20
160.7963169532
 30
0.0
 11
72.2237323626
 21
160.7963169532
 31
0.0
  0
LINE
  5
25E
330
1F
100
AcDbEntity
  8
0
  6
Continuous
 62
     7
370
    15
100
AcDbLine
 10
27.7237315878
 20
156.2963171469
 30
0.0
 11
27.7237315878
 21
158.2963156121
 31
0.0
  0
LINE
  5
25F
330
1F
100
AcDbEntity
  8
0
  6
Continuous
 62
     7
370
    15
100
AcDbLine
 10
28.7237317517
 20
158.2963156121
 30
0.0
 11
28.7237317517
 21
156.2963171469
 31
0.0
  0
LINE
  5
260
330
1F
100
AcDbEntity
  8
0
  6
Continuous
 62
     7
370
    15
100
AcDbLine
 10
28.7237317517
 20
156.2963171469
 30
0.0
 11
27.7237315878
 21
156.2963171469
 31
0.0
  0
LINE
  5
261
330
1F
100
AcDbEntity
  8
0
  6
Continuous
 62
     7
370
    15
100
AcDbLine
 10
70.7237311854
 20
156.2963171469
 30
0.0
 11
70.7237311854
 21
158.2963156121
 31
0.0
  0
LINE
  5
262
330
1F
100
AcDbEntity
  8
0
  6
Continuous
 62
     7
370
    15
100
AcDbLine
 10
70.7237311854
 20
156.2963171469
 30
0.0
 11
28.7237317517
 21
156.2963171469
 31
0.0
  0
LINE
  5
263
330
1F
100
AcDbEntity
  8
0
  6
Continuous
 62
     7
370
    15
100
AcDbLine
 10
71.7237313493
 20
158.2963156121
 30
0.0
 11
71.7237313493
 21
156.2963171469
 31
0.0
  0
LINE
  5
264
330
1F
100
AcDbEntity
  8
0
  6
Continuous
 62
     7
370
    15
100
AcDbLine
 10
71.7237313493
 20
156.2963171469
 30
0.0
 11
70.7237311854
 21
156.2963171469
 31
0.0
  0
CIRCLE
  5
265
330
1F
100
AcDbEntity
  8
0
  6
Continuous
 62
     7
370
    15
100
AcDbCircle
 10
31.7237314685
 20
192.7963163423
 30
0.0
 40
3.300000000000006
  0
LINE
  5
266
330
1F
100
AcDbEntity
  8
0
  6
Continuous
 62
     7
370
    15
100
AcDbLine
 10
30.8048409625
 20
194.3126680868
 30
0.0
 11
29.9510882451
 21
192.7587098049
 31
0.0
  0
LINE
  5
267
330
1F
100
AcDbEntity
  8
0
  6
Continuous
 62
     7
370
    15
100
AcDbLine
 10
29.9510882451
 20
192.7587098049
 30
0.0
 11
30.8699776634
 21
191.2423583286
 31
0.0
  0
LINE
  5
268
330
1F
100
AcDbEntity
  8
0
  6
Continuous
 62
     7
370
    15
100
AcDbLine
 10
32.6426216616
 20
191.2799651342
 30
0.0
 11
30.8699776634
 21
191.2423583286
 31
0.0
  0
LINE
  5
269
330
1F
100
AcDbEntity
  8
0
  6
Continuous
 62
     7
370
    15
100
AcDbLine
 10
33.496374379
 20
192.8339224847
 30
0.0
 11
32.6426216616
 21
191.2799651342
 31
0.0
  0
LINE
  5
26A
330
1F
100
AcDbEntity
  8
0
  6
Continuous
 62
     7
370
    15
100
AcDbLine
 10
33.496374379
 20
192.8339224847
 30
0.0
 11
32.5774849608
 21
194.350273961
 31
0.0
  0
LINE
  5
26B
330
1F
100
AcDbEntity
  8
0
  6
Continuous
 62
     7
370
    15
100
AcDbLine
 10
30.8048409625
 20
194.3126680868
 30
0.0
 11
32.5774849608
 21
194.350273961
 31
0.0
  0
CIRCLE
  5
26C
330
1F
100
AcDbEntity
  8
0
  6
Continuous
 62
     7
370
    15
100
AcDbCircle
 10
31.7237314685
 20
192.7963163423
 30
0.0
 40
3.499999999999996
  0
ARC
  5
26D
330
1F
100
AcDbEntity
  8
0
  6
Continuous
 62
     7
370
    15
100
AcDbCircle
 10
31.7237314685
 20
192.7963163423
 30
0.0
 40
1.535500000000004
100
AcDbArc
 50
331.2153340912
 51
31.2153340912
  0
ARC
  5
26E
330
1F
100
AcDbEntity
  8
0
  6
Continuous
 62
     7
370
    15
100
AcDbCircle
 10
31.7237314685
 20
192.7963163423
 30
0.0
 40
1.535499999999993
100
AcDbArc
 50
271.2153340912
 51
331.2153340912
  0
ARC
  5
26F
330
1F
100
AcDbEntity
  8
0
  6
Continuous
 62
     7
370
    15
100
AcDbCircle
 10
31.7237314685
 20
192.7963163423
 30
0.0
 40
1.535499999999993
100
AcDbArc
 50
211.2153340912
 51
271.2153340912
  0
ARC
  5
270
330
1F
100
AcDbEntity
  8
0
  6
Continuous
 62
     7
370
    15
100
AcDbCircle
 10
31.7237314685
 20
192.7963163423
 30
0.0
 40
1.535499999999998
100
AcDbArc
 50
151.2153340912
 51
211.2153340912
  0
ARC
  5
271
330
1F
100
AcDbEntity
  8
0
  6
Continuous
 62
     7
370
    15
100
AcDbCircle
 10
31.7237314685
 20
192.7963163423
 30
0.0
 40
1.535499999999998
100
AcDbArc
 50
91.2153340912
 51
151.2153340912
  0
ARC
  5
272
330
1F
100
AcDbEntity
  8
0
  6
Continuous
 62
     7
370
    15
100
AcDbCircle
 10
31.7237314685
 20
192.7963163423
 30
0.0
 40
1.535500000000004
100
AcDbArc
 50
31.2153340912
 51
91.2153340912
  0
LINE
  5
273
330
1F
100
AcDbEntity
  8
0
  6
Continuous
 62
     7
370
    15
100
AcDbLine
 10
66.9824985071
 20
168.4069844501
 30
0.0
 11
65.9582355275
 21
166.959723139
 31
0.0
  0
LINE
  5
274
330
1F
100
AcDbEntity
  8
0
  6
Continuous
 62
     7
370
    15
100
AcDbLine
 10
65.9582355275
 20
166.959723139
 30
0.0
 11
66.6994677141
 21
165.3490547629
 31
0.0
  0
LINE
  5
275
330
1F
100
AcDbEntity
  8
0
  6
Continuous
 62
     7
370
    15
100
AcDbLine
 10
68.4649647429
 20
165.185647698
 30
0.0
 11
66.6994677141
 21
165.3490547629
 31
0.0
  0
LINE
  5
276
330
1F
100
AcDbEntity
  8
0
  6
Continuous
 62
     7
370
    15
100
AcDbLine
 10
69.4892277225
 20
166.6329090091
 30
0.0
 11
68.4649647429
 21
165.185647698
 31
0.0
  0
LINE
  5
277
330
1F
100
AcDbEntity
  8
0
  6
Continuous
 62
     7
370
    15
100
AcDbLine
 10
69.4892277225
 20
166.6329090091
 30
0.0
 11
68.7479936733
 21
168.2435773852
 31
0.0
  0
LINE
  5
278
330
1F
100
AcDbEntity
  8
0
  6
Continuous
 62
     7
370
    15
100
AcDbLine
 10
66.9824985071
 20
168.4069844501
 30
0.0
 11
68.7479936733
 21
168.2435773852
 31
0.0
  0
ARC
  5
279
330
1F
100
AcDbEntity
  8
0
  6
Continuous
 62
     7
370
    15
100
AcDbCircle
 10
67.7237314685
 20
166.7963163423
 30
0.0
 40
3.500000000000028
100
AcDbArc
 50
224.4153085972
 51
24.7120080917
  0
ARC
  5
27A
330
1F
100
AcDbEntity
  8
0
  6
Continuous
 62
     7
370
    15
100
AcDbCircle
 10
67.7237314685
 20
166.7963163423
 30
0.0
 40
3.500000000000028
100
AcDbArc
 50
24.7120080917
 51
135.5846914028
  0
ARC
  5
27B
330
1F
100
AcDbEntity
  8
0
  6
Continuous
 62
     7
370
    15
100
AcDbCircle
 10
67.7237314685
 20
166.7963163423
 30
0.0
 40
1.535500000000003
100
AcDbArc
 50
324.7120080917
 51
24.7120080917
  0
ARC
  5
27C
330
1F
100
AcDbEntity
  8
0
  6
Continuous
 62
     7
370
    15
100
AcDbCircle
 10
67.7237314685
 20
166.7963163423
 30
0.0
 40
1.535499999999987
100
AcDbArc
 50
264.7120080917
 51
324.7120080917
  0
ARC
  5
27D
330
1F
100
AcDbEntity
  8
0
  6
Continuous
 62
     7
370
    15
100
AcDbCircle
 10
67.7237314685
 20
166.7963163423
 30
0.0
 40
1.535499999999991
100
AcDbArc
 50
204.7120080917
 51
264.7120080917
  0
ARC
  5
27E
330
1F
100
AcDbEntity
  8
0
  6
Continuous
 62
     7
370
    15
100
AcDbCircle
 10
67.7237314685
 20
166.7963163423
 30
0.0
 40
1.535500000000006
100
AcDbArc
 50
144.7120080917
 51
204.7120080917
  0
ARC
  5
27F
330
1F
100
AcDbEntity
  8
0
  6
Continuous
 62
     7
370
    15
100
AcDbCircle
 10
67.7237314685
 20
166.7963163423
 30
0.0
 40
1.535500000000015
100
AcDbArc
 50
84.7120080917
 51
144.7120080917
  0
ARC
  5
280
330
1F
100
AcDbEntity
  8
0
  6
Continuous
 62
     7
370
    15
100
AcDbCircle
 10
67.7237314685
 20
166.7963163423
 30
0.0
 40
1.535500000000015
100
AcDbArc
 50
24.7120080917
 51
84.7120080917
  0
CIRCLE
  5
281
330
1F
100
AcDbEntity
  8
0
  6
Continuous
 62
     7
370
    15
100
AcDbCircle
 10
31.7237314685
 20
166.7963163423
 30
0.0
 40
3.299999999999993
  0
CIRCLE
  5
282
330
1F
100
AcDbEntity
  8
0
  6
Continuous
 62
     7
370
    15
100
AcDbCircle
 10
31.7237314685
 20
166.7963163423
 30
0.0
 40
3.499999999999996
  0
LINE
  5
283
330
1F
100
AcDbEntity
  8
0
  6
Continuous
 62
     7
370
    15
100
AcDbLine
 10
32.8216945036
 20
168.1884933802
 30
0.0
 11
31.0670529708
 21
168.4432687776
 31
0.0
  0
LINE
  5
284
330
1F
100
AcDbEntity
  8
0
  6
Continuous
 62
     7
370
    15
100
AcDbLine
 10
31.0670529708
 20
168.4432687776
 30
0.0
 11
29.9690888479
 21
167.0510914715
 31
0.0
  0
LINE
  5
285
330
1F
100
AcDbEntity
  8
0
  6
Continuous
 62
     7
370
    15
100
AcDbLine
 10
30.6257681205
 20
165.4041396992
 30
0.0
 11
29.9690888479
 21
167.0510914715
 31
0.0
  0
LINE
  5
286
330
1F
100
AcDbEntity
  8
0
  6
Continuous
 62
     7
370
    15
100
AcDbLine
 10
32.3804096534
 20
165.1493633704
 30
0.0
 11
30.6257681205
 21
165.4041396992
 31
0.0
  0
LINE
  5
287
330
1F
100
AcDbEntity
  8
0
  6
Continuous
 62
     7
370
    15
100
AcDbLine
 10
32.3804096534
 20
165.1493633704
 30
0.0
 11
33.4783737763
 21
166.5415406766
 31
0.0
  0
LINE
  5
288
330
1F
100
AcDbEntity
  8
0
  6
Continuous
 62
     7
370
    15
100
AcDbLine
 10
32.8216945036
 20
168.1884933802
 30
0.0
 11
33.4783737763
 21
166.5415406766
 31
0.0
  0
ARC
  5
289
330
1F
100
AcDbEntity
  8
0
  6
Continuous
 62
     7
370
    15
100
AcDbCircle
 10
31.7237314685
 20
166.7963163423
 30
0.0
 40
1.535500000000022
100
AcDbArc
 50
81.7383424631
 51
141.7383424631
  0
ARC
  5
28A
330
1F
100
AcDbEntity
  8
0
  6
Continuous
 62
     7
370
    15
100
AcDbCircle
 10
31.7237314685
 20
166.7963163423
 30
0.0
 40
1.535499999999995
100
AcDbArc
 50
261.7383424631
 51
321.7383424631
  0
ARC
  5
28B
330
1F
100
AcDbEntity
  8
0
  6
Continuous
 62
     7
370
    15
100
AcDbCircle
 10
31.7237314685
 20
166.7963163423
 30
0.0
 40
1.535499999999999
100
AcDbArc
 50
201.7383424631
 51
261.7383424631
  0
ARC
  5
28C
330
1F
100
AcDbEntity
  8
0
  6
Continuous
 62
     7
370
    15
100
AcDbCircle
 10
31.7237314685
 20
166.7963163423
 30
0.0
 40
1.535500000000022
100
AcDbArc
 50
141.7383424631
 51
201.7383424631
  0
ARC
  5
28D
330
1F
100
AcDbEntity
  8
0
  6
Continuous
 62
     7
370
    15
100
AcDbCircle
 10
31.7237314685
 20
166.7963163423
 30
0.0
 40
1.535500000000022
100
AcDbArc
 50
21.7383424631
 51
81.7383424631
  0
ARC
  5
28E
330
1F
100
AcDbEntity
  8
0
  6
Continuous
 62
     7
370
    15
100
AcDbCircle
 10
31.7237314685
 20
166.7963163423
 30
0.0
 40
1.535499999999999
100
AcDbArc
 50
321.7383424631
 51
21.7383424631
  0
CIRCLE
  5
28F
330
1F
100
AcDbEntity
  8
0
  6
Continuous
 62
     7
370
    15
100
AcDbCircle
 10
67.7237314685
 20
192.7963163423
 30
0.0
 40
3.299999999999993
  0
CIRCLE
  5
290
330
1F
100
AcDbEntity
  8
0
  6
Continuous
 62
     7
370
    15
100
AcDbCircle
 10
67.7237314685
 20
192.7963163423
 30
0.0
 40
3.499999999999997
  0
LINE
  5
291
330
1F
100
AcDbEntity
  8
0
  6
Continuous
 62
     7
370
    15
100
AcDbLine
 10
69.2243186041
 20
191.8519024344
 30
0.0
 11
69.2919121339
 21
193.6236560883
 31
0.0
  0
LINE
  5
292
330
1F
100
AcDbEntity
  8
0
  6
Continuous
 62
     7
370
    15
100
AcDbLine
 10
69.2919121339
 20
193.6236560883
 30
0.0
 11
67.7913242235
 21
194.5680702644
 31
0.0
  0
LINE
  5
293
330
1F
100
AcDbEntity
  8
0
  6
Continuous
 62
     7
370
    15
100
AcDbLine
 10
66.2231446459
 20
193.7407298552
 30
0.0
 11
67.7913242235
 21
194.5680702644
 31
0.0
  0
LINE
  5
294
330
1F
100
AcDbEntity
  8
0
  6
Continuous
 62
     7
370
    15
100
AcDbLine
 10
66.1555511161
 20
191.9689762013
 30
0.0
 11
66.2231446459
 21
193.7407298552
 31
0.0
  0
LINE
  5
295
330
1F
100
AcDbEntity
  8
0
  6
Continuous
 62
     7
370
    15
100
AcDbLine
 10
66.1555511161
 20
191.9689762013
 30
0.0
 11
67.6561390265
 21
191.0245629566
 31
0.0
  0
LINE
  5
296
330
1F
100
AcDbEntity
  8
0
  6
Continuous
 62
     7
370
    15
100
AcDbLine
 10
69.2243186041
 20
191.8519024344
 30
0.0
 11
67.6561390265
 21
191.0245629566
 31
0.0
  0
ARC
  5
297
330
1F
100
AcDbEntity
  8
0
  6
Continuous
 62
     7
370
    15
100
AcDbCircle
 10
67.7237314685
 20
192.7963163423
 30
0.0
 40
1.535500000000002
100
AcDbArc
 50
117.8152258934
 51
177.8152258934
  0
ARC
  5
298
330
1F
100
AcDbEntity
  8
0
  6
Continuous
 62
     7
370
    15
100
AcDbCircle
 10
67.7237314685
 20
192.7963163423
 30
0.0
 40
1.535499999999993
100
AcDbArc
 50
177.8152258934
 51
237.8152258934
  0
ARC
  5
299
330
1F
100
AcDbEntity
  8
0
  6
Continuous
 62
     7
370
    15
100
AcDbCircle
 10
67.7237314685
 20
192.7963163423
 30
0.0
 40
1.535500000000024
100
AcDbArc
 50
57.8152258934
 51
117.8152258934
  0
ARC
  5
29A
330
1F
100
AcDbEntity
  8
0
  6
Continuous
 62
     7
370
    15
100
AcDbCircle
 10
67.7237314685
 20
192.7963163423
 30
0.0
 40
1.535500000000024
100
AcDbArc
 50
357.8152258934
 51
57.8152258934
  0
ARC
  5
29B
330
1F
100
AcDbEntity
  8
0
  6
Continuous
 62
     7
370
    15
100
AcDbCircle
 10
67.7237314685
 20
192.7963163423
 30
0.0
 40
1.535499999999986
100
AcDbArc
 50
297.8152258934
 51
357.8152258934
  0
ARC
  5
29C
330
1F
100
AcDbEntity
  8
0
  6
Continuous
 62
     7
370
    15
100
AcDbCircle
 10
67.7237314685
 20
192.7963163423
 30
0.0
 40
1.535499999999993
100
AcDbArc
 50
237.8152258934
 51
297.8152258934
  0
SPLINE
  5
29D
330
1F
100
AcDbEntity
  8
0
  6
Continuous
 62
     7
370
    15
100
AcDbSpline
210
0.0
220
0.0
230
1.0
 70
     8
 71
     3
 72
     9
 73
     5
 74
     0
 42
0.00000001
 43
0.00000001
 12
1.0
 22
0.0
 32
0.0
 13
1.0
 23
0.0
 33
0.0
 40
0.0
 40
0.0
 40
0.0
 40
0.0
 40
0.4954578461602814
 40
1.0
 40
1.0
 40
1.0
 40
1.0
 10
55.23475596971792
 20
177.4981742797597
 30
0.0
 10
55.5271937920671
 20
177.6470999257546
 30
0.0
 10
56.11743133622052
 20
177.9476817959359
 30
0.0
 10
56.72758438062309
 20
178.2584058830349
 30
0.0
 10
57.03543231181782
 20
178.4151792831897
 30
0.0
  0
ARC
  5
29E
330
1F
100
AcDbEntity
  8
0
  6
Continuous
 62
     7
370
    15
100
AcDbCircle
 10
58.6237314685
 20
175.2963163423
 30
0.0
 40
3.500000000000007
100
AcDbArc
 50
116.9877357512
 51
176.9877357512
  0
SPLINE
  5
29F
330
1F
100
AcDbEntity
  8
0
  6
Continuous
 62
     7
370
    15
100
AcDbSpline
210
0.0
220
0.0
230
1.0
 70
     8
 71
     3
 72
    10
 73
     6
 74
     0
 42
0.00000001
 43
0.00000001
 12
1.0
 22
0.0
 32
0.0
 13
1.0
 23
0.0
 33
0.0
 40
0.0
 40
0.0
 40
0.0
 40
0.0
 40
0.2684065252623752
 40
0.632372737509494
 40
1.0
 40
1.0
 40
1.0
 40
1.0
 10
55.12856750108283
 20
175.4802401716067
 30
0.0
 10
55.13821092431115
 20
175.6634982354129
 30
0.0
 10
55.16093107964232
 20
176.0952589884962
 30
0.0
 10
55.19657631683365
 20
176.7726364351665
 30
0.0
 10
55.22198703187193
 20
177.2555228426029
 30
0.0
 10
55.23475596971792
 20
177.4981742797597
 30
0.0
  0
ARC
  5
2A0
330
1F
100
AcDbEntity
  8
0
  6
Continuous
 62
     7
370
    15
100
AcDbCircle
 10
58.6237314685
 20
175.2963163423
 30
0.0
 40
3.499999999999988
100
AcDbArc
 50
56.9877357512
 51
116.9877357512
  0
ARC
  5
2A1
330
1F
100
AcDbEntity
  8
0
  6
Continuous
 62
     7
370
    15
100
AcDbCircle
 10
58.6237314685
 20
175.2963163423
 30
0.0
 40
3.499999999999992
100
AcDbArc
 50
356.9877357512
 51
56.9877357512
  0
ARC
  5
2A2
330
1F
100
AcDbEntity
  8
0
  6
Continuous
 62
     7
370
    15
100
AcDbCircle
 10
58.6237314685
 20
175.2963163423
 30
0.0
 40
3.499999999999992
100
AcDbArc
 50
296.9877357512
 51
356.9877357512
  0
ARC
  5
2A3
330
1F
100
AcDbEntity
  8
0
  6
Continuous
 62
     7
370
    15
100
AcDbCircle
 10
58.6237314685
 20
175.2963163423
 30
0.0
 40
3.499999999999995
100
AcDbArc
 50
236.9877357512
 51
296.9877357512
  0
ARC
  5
2A4
330
1F
100
AcDbEntity
  8
0
  6
Continuous
 62
     7
370
    15
100
AcDbCircle
 10
58.6237314685
 20
175.2963163423
 30
0.0
 40
3.500000000000007
100
AcDbArc
 50
176.9877357512
 51
236.9877357512
  0
SPLINE
  5
2A5
330
1F
100
AcDbEntity
  8
0
  6
Continuous
 62
     7
370
    15
100
AcDbSpline
210
0.0
220
0.0
230
1.0
 70
     8
 71
     3
 72
    10
 73
     6
 74
     0
 42
0.00000001
 43
0.00000001
 12
1.0
 22
0.0
 32
0.0
 13
1.0
 23
0.0
 33
0.0
 40
0.0
 40
0.0
 40
0.0
 40
0.0
 40
0.070036536972183
 40
0.5307571774169666
 40
1.0
 40
1.0
 40
1.0
 40
1.0
 10
57.03543231181782
 20
178.4151792831897
 30
0.0
 10
57.07808156511761
 20
178.4368986185858
 30
0.0
 10
57.40128996860179
 20
178.6014940376142
 30
0.0
 10
58.01071464587455
 20
178.9118475861357
 30
0.0
 10
58.5593012588193
 20
179.1912186098676
 30
0.0
 10
58.83610818825644
 20
179.3321841993081
 30
0.0
  0
SPLINE
  5
2A6
330
1F
100
AcDbEntity
  8
0
  6
Continuous
 62
     7
370
    15
100
AcDbSpline
210
0.0
220
0.0
230
1.0
 70
     8
 71
     3
 72
     9
 73
     5
 74
     0
 42
0.00000001
 43
0.00000001
 12
1.0
 22
0.0
 32
0.0
 13
1.0
 23
0.0
 33
0.0
 40
0.0
 40
0.0
 40
0.0
 40
0.0
 40
0.4954579827046876
 40
1.0
 40
1.0
 40
1.0
 40
1.0
 10
58.83610818825644
 20
179.3321841993081
 30
0.0
 10
59.11130074966903
 20
179.1533885111088
 30
0.0
 10
59.66673142395211
 20
178.792518983438
 30
0.0
 10
60.24090289507087
 20
178.4194727041786
 30
0.0
 10
60.53059652738255
 20
178.2312551818966
 30
0.0
  0
SPLINE
  5
2A7
330
1F
100
AcDbEntity
  8
0
  6
Continuous
 62
     7
370
    15
100
AcDbSpline
210
0.0
220
0.0
230
1.0
 70
     8
 71
     3
 72
    10
 73
     6
 74
     0
 42
0.00000001
 43
0.00000001
 12
1.0
 22
0.0
 32
0.0
 13
1.0
 23
0.0
 33
0.0
 40
0.0
 40
0.0
 40
0.0
 40
0.0
 40
0.2684064429088294
 40
0.6323725966834584
 40
1.0
 40
1.0
 40
1.0
 40
1.0
 10
62.118895466551
 20
175.1123924346819
 30
0.0
 10
62.1285388506939
 20
175.2956504233133
 30
0.0
 10
62.15125891585021
 20
175.7274110356068
 30
0.0
 10
62.18690504758985
 20
176.4047883454463
 30
0.0
 10
62.21231525098695
 20
176.8876747890406
 30
0.0
 10
62.22508393518608
 20
177.1303263100042
 30
0.0
  0
SPLINE
  5
2A8
330
1F
100
AcDbEntity
  8
0
  6
Continuous
 62
     7
370
    15
100
AcDbSpline
210
0.0
220
0.0
230
1.0
 70
     8
 71
     3
 72
    10
 73
     6
 74
     0
 42
0.00000001
 43
0.00000001
 12
1.0
 22
0.0
 32
0.0
 13
1.0
 23
0.0
 33
0.0
 40
0.0
 40
0.0
 40
0.0
 40
0.0
 40
0.0700363220183265
 40
0.5307571668901216
 40
1.0
 40
1.0
 40
1.0
 40
1.0
 10
60.53059652738255
 20
178.2312551818966
 30
0.0
 10
60.5707305142131
 20
178.2051795697953
 30
0.0
 10
60.87487842678654
 20
178.0075704206425
 30
0.0
 10
61.44836507391276
 20
177.634970269134
 30
0.0
 10
61.96460075696714
 20
177.2995654889365
 30
0.0
 10
62.22508393518608
 20
177.1303263100042
 30
0.0
  0
SPLINE
  5
2A9
330
1F
100
AcDbEntity
  8
0
  6
Continuous
 62
     7
370
    15
100
AcDbSpline
210
0.0
220
0.0
230
1.0
 70
     8
 71
     3
 72
    10
 73
     6
 74
     0
 42
0.00000001
 43
0.00000001
 12
1.0
 22
0.0
 32
0.0
 13
1.0
 23
0.0
 33
0.0
 40
0.0
 40
0.0
 40
0.0
 40
0.0
 40
0.0700363817056321
 40
0.5307571814742086
 40
1.0
 40
1.0
 40
1.0
 40
1.0
 10
56.71686644025129
 20
172.3613773079767
 30
0.0
 10
56.67673245628949
 20
172.3874530021059
 30
0.0
 10
56.37258481630395
 20
172.5850626099116
 30
0.0
 10
55.79909776800044
 20
172.9576621808295
 30
0.0
 10
55.28286217423548
 20
173.2930670612029
 30
0.0
 10
55.02237903244775
 20
173.4623062962844
 30
0.0
  0
SPLINE
  5
2AA
330
1F
100
AcDbEntity
  8
0
  6
Continuous
 62
     7
370
    15
100
AcDbSpline
210
0.0
220
0.0
230
1.0
 70
     8
 71
     3
 72
    10
 73
     6
 74
     0
 42
0.00000001
 43
0.00000001
 12
1.0
 22
0.0
 32
0.0
 13
1.0
 23
0.0
 33
0.0
 40
0.0
 40
0.0
 40
0.0
 40
0.0
 40
0.2572431512053598
 40
0.6263799905203866
 40
1.0
 40
1.0
 40
1.0
 40
1.0
 10
55.02237903244775
 20
173.4623062962844
 30
0.0
 10
55.03129615021028
 20
173.6317634750357
 30
0.0
 10
55.05300908644742
 20
174.0443870396378
 30
0.0
 10
55.08844860336941
 20
174.7178453672302
 30
0.0
 10
55.11514083173466
 20
175.2250880230046
 30
0.0
 10
55.12856750108283
 20
175.4802401716067
 30
0.0
  0
SPLINE
  5
2AB
330
1F
100
AcDbEntity
  8
0
  6
Continuous
 62
     7
370
    15
100
AcDbSpline
210
0.0
220
0.0
230
1.0
 70
     8
 71
     3
 72
     9
 73
     5
 74
     0
 42
0.00000001
 43
0.00000001
 12
1.0
 22
0.0
 32
0.0
 13
1.0
 23
0.0
 33
0.0
 40
0.0
 40
0.0
 40
0.0
 40
0.0
 40
0.4954577847321311
 40
1.0
 40
1.0
 40
1.0
 40
1.0
 10
62.01270699791592
 20
173.0944585593595
 30
0.0
 10
61.72026935073586
 20
172.9455328366431
 30
0.0
 10
61.13003208695331
 20
172.644950774345
 30
0.0
 10
60.51987907418951
 20
172.3342269559928
 30
0.0
 10
60.2120311214773
 20
172.1774536723449
 30
0.0
  0
SPLINE
  5
2AC
330
1F
100
AcDbEntity
  8
0
  6
Continuous
 62
     7
370
    15
100
AcDbSpline
210
0.0
220
0.0
230
1.0
 70
     8
 71
     3
 72
    10
 73
     6
 74
     0
 42
0.00000001
 43
0.00000001
 12
1.0
 22
0.0
 32
0.0
 13
1.0
 23
0.0
 33
0.0
 40
0.0
 40
0.0
 40
0.0
 40
0.0
 40
0.2572431512053598
 40
0.6263799905203866
 40
1.0
 40
1.0
 40
1.0
 40
1.0
 10
62.01270699791592
 20
173.0944585593595
 30
0.0
 10
62.02162411567845
 20
173.2639157381108
 30
0.0
 10
62.04333705191559
 20
173.6765393027129
 30
0.0
 10
62.07877656883758
 20
174.3499976303053
 30
0.0
 10
62.10546879720283
 20
174.8572402860797
 30
0.0
 10
62.118895466551
 20
175.1123924346819
 30
0.0
  0
SPLINE
  5
2AD
330
1F
100
AcDbEntity
  8
0
  6
Continuous
 62
     7
370
    15
100
AcDbSpline
210
0.0
220
0.0
230
1.0
 70
     8
 71
     3
 72
    10
 73
     6
 74
     0
 42
0.00000001
 43
0.00000001
 12
1.0
 22
0.0
 32
0.0
 13
1.0
 23
0.0
 33
0.0
 40
0.0
 40
0.0
 40
0.0
 40
0.0
 40
0.0700367628031184
 40
0.5307575097640478
 40
1.0
 40
1.0
 40
1.0
 40
1.0
 10
60.2120311214773
 20
172.1774536723449
 30
0.0
 10
60.16938171239767
 20
172.1557342605657
 30
0.0
 10
59.84617296816078
 20
171.9911386903528
 30
0.0
 10
59.23674821450235
 20
171.6807846541951
 30
0.0
 10
58.68816127772211
 20
171.4014140815512
 30
0.0
 10
58.41135431371611
 20
171.2604487853303
 30
0.0
  0
SPLINE
  5
2AE
330
1F
100
AcDbEntity
  8
0
  6
Continuous
 62
     7
370
    15
100
AcDbSpline
210
0.0
220
0.0
230
1.0
 70
     8
 71
     3
 72
     9
 73
     5
 74
     0
 42
0.00000001
 43
0.00000001
 12
1.0
 22
0.0
 32
0.0
 13
1.0
 23
0.0
 33
0.0
 40
0.0
 40
0.0
 40
0.0
 40
0.0
 40
0.4954575756356709
 40
1.0
 40
1.0
 40
1.0
 40
1.0
 10
58.41135431371611
 20
171.2604487853303
 30
0.0
 10
58.13616206202029
 20
171.4392442270054
 30
0.0
 10
57.58073155650678
 20
171.8001135535986
 30
0.0
 10
57.00656023221163
 20
172.1731597005793
 30
0.0
 10
56.71686644025129
 20
172.3613773079767
 30
0.0
  0
LINE
  5
2AF
330
1F
100
AcDbEntity
  8
0
  6
Continuous
 62
     7
370
    15
100
AcDbLine
 10
27.7237315878
 20
156.7963162976
 30
0.0
 11
27.2237305745
 21
156.7963162976
 31
0.0
  0
LINE
  5
2B0
330
1F
100
AcDbEntity
  8
0
  6
Continuous
 62
     7
370
    15
100
AcDbLine
 10
27.2237305745
 20
156.7963162976
 30
0.0
 11
27.2237305745
 21
157.9963161217
 31
0.0
  0
LINE
  5
2B1
330
1F
100
AcDbEntity
  8
0
  6
Continuous
 62
     7
370
    15
100
AcDbLine
 10
27.2237305745
 20
157.9963161217
 30
0.0
 11
27.7237315878
 21
157.9963161217
 31
0.0
  0
LINE
  5
2B2
330
1F
100
AcDbEntity
  8
0
  6
Continuous
 62
     7
370
    15
100
AcDbLine
 10
72.2237323626
 20
157.9963161217
 30
0.0
 11
72.2237323626
 21
156.7963162976
 31
0.0
  0
LINE
  5
2B3
330
1F
100
AcDbEntity
  8
0
  6
Continuous
 62
     7
370
    15
100
AcDbLine
 10
72.2237323626
 20
156.7963162976
 30
0.0
 11
71.7237313493
 21
156.7963162976
 31
0.0
  0
LINE
  5
2B4
330
1F
100
AcDbEntity
  8
0
  6
Continuous
 62
     7
370
    15
100
AcDbLine
 10
71.7237313493
 20
157.9963161217
 30
0.0
 11
72.2237323626
 21
157.9963161217
 31
0.0
  0
LINE
  5
2B5
330
1F
100
AcDbEntity
  8
0
  6
Continuous
 62
     7
370
    15
100
AcDbLine
 10
27.2237305745
 20
158.2963156121
 30
0.0
 11
27.2237305745
 21
157.9963161217
 31
0.0
  0
LINE
  5
2B6
330
1F
100
AcDbEntity
  8
0
  6
Continuous
 62
     7
370
    15
100
AcDbLine
 10
72.2237323626
 20
158.2963156121
 30
0.0
 11
72.2237323626
 21
157.9963161217
 31
0.0
  0
LINE
  5
2B7
330
1F
100
AcDbEntity
  8
0
  6
Continuous
 62
     7
370
    15
100
AcDbLine
 10
72.2237323626
 20
166.2963159921
 30
0.0
 11
72.2237323626
 21
160.7963169532
 31
0.0
  0
LINE
  5
2B8
330
1F
100
AcDbEntity
  8
0
  6
Continuous
 62
     7
370
    15
100
AcDbLine
 10
27.2237305745
 20
166.2963159921
 30
0.0
 11
27.2237305745
 21
160.7963169532
 31
0.0
  0
LINE
  5
2B9
330
1F
100
AcDbEntity
  8
0
  6
Continuous
 62
     7
370
    15
100
AcDbLine
 10
71.2237321987
 20
162.0963166075
 30
0.0
 11
65.2237312152
 21
162.0963166075
 31
0.0
  0
LINE
  5
2BA
330
1F
100
AcDbEntity
  8
0
  6
Continuous
 62
     7
370
    15
100
AcDbLine
 10
68.223731707
 20
162.2963162678
 30
0.0
 11
71.0237306758
 21
162.2963162678
 31
0.0
  0
LINE
  5
2BB
330
1F
100
AcDbEntity
  8
0
  6
Continuous
 62
     7
370
    15
100
AcDbLine
 10
65.2456647932
 20
161.4963157641
 30
0.0
 11
71.2237321987
 21
161.4963157641
 31
0.0
  0
LINE
  5
2BC
330
1F
100
AcDbEntity
  8
0
  6
Continuous
 62
     7
370
    15
100
AcDbLine
 10
71.0237306758
 20
161.2963161038
 30
0.0
 11
65.2875286742
 21
161.2963161038
 31
0.0
  0
LINE
  5
2BD
330
1F
100
AcDbEntity
  8
0
  6
Continuous
 62
     7
370
    15
100
AcDbLine
 10
34.6276202454
 20
162.0963166075
 30
0.0
 11
28.2237307384
 21
162.0963166075
 31
0.0
  0
LINE
  5
2BE
330
1F
100
AcDbEntity
  8
0
  6
Continuous
 62
     7
370
    15
100
AcDbLine
 10
28.4237322613
 20
162.2963162678
 30
0.0
 11
31.2237312301
 21
162.2963162678
 31
0.0
  0
LINE
  5
2BF
330
1F
100
AcDbEntity
  8
0
  6
Continuous
 62
     7
370
    15
100
AcDbLine
 10
28.2237307384
 20
161.4963157641
 30
0.0
 11
34.4412104442
 21
161.4963157641
 31
0.0
  0
LINE
  5
2C0
330
1F
100
AcDbEntity
  8
0
  6
Continuous
 62
     7
370
    15
100
AcDbLine
 10
34.3790735333
 20
161.2963161038
 30
0.0
 11
28.4237322613
 21
161.2963161038
 31
0.0
  0
LINE
  5
2C1
330
1F
100
AcDbEntity
  8
0
  6
Continuous
 62
     7
370
    15
100
AcDbLine
 10
61.3961211621
 20
197.2963164168
 30
0.0
 11
38.051341775
 21
197.2963164168
 31
0.0
  0
ARC
  5
2C2
330
1F
100
AcDbEntity
  8
0
  6
Continuous
 62
     7
370
    15
100
AcDbCircle
 10
61.21291018
 20
195.3047255486
 30
0.0
 40
2.000000000000008
100
AcDbArc
 50
0.0
 51
84.7440354767
  0
LINE
  5
2C3
330
1F
100
AcDbEntity
  8
0
  6
Continuous
 62
     7
370
    15
100
AcDbLine
 10
63.2129098504
 20
195.3047259318
 30
0.0
 11
63.2129098504
 21
192.5583394783
 31
0.0
  0
ARC
  5
2C4
330
1F
100
AcDbEntity
  8
0
  6
Continuous
 62
     7
370
    15
100
AcDbCircle
 10
67.71291018
 20
192.5583399386
 30
0.0
 40
4.500000000000028
100
AcDbArc
 50
180.0
 51
270.0
  0
LINE
  5
2C5
330
1F
100
AcDbEntity
  8
0
  6
Continuous
 62
     7
370
    15
100
AcDbLine
 10
67.712910588
 20
188.058339672
 30
0.0
 11
70.0549465819
 21
188.058339672
 31
0.0
  0
ARC
  5
2C6
330
1F
100
AcDbEntity
  8
0
  6
Continuous
 62
     7
370
    15
100
AcDbCircle
 10
70.2237558146
 20
186.0484716231
 30
0.0
 40
2.016944985804778
100
AcDbArc
 50
7.4375164072
 51
94.8010049114
  0
LINE
  5
2C7
330
1F
100
AcDbEntity
  8
0
  6
Continuous
 62
     7
370
    15
100
AcDbLine
 10
72.2237323626
 20
173.2830779234
 30
0.0
 11
72.2237323626
 21
186.3095547611
 31
0.0
  0
ARC
  5
2C8
330
1F
100
AcDbEntity
  8
0
  6
Continuous
 62
     7
370
    15
100
AcDbCircle
 10
70.2237558146
 20
173.5441610614
 30
0.0
 40
2.016944985804815
100
AcDbArc
 50
265.1989950886
 51
352.5624835928
  0
LINE
  5
2C9
330
1F
100
AcDbEntity
  8
0
  6
Continuous
 62
     7
370
    15
100
AcDbLine
 10
70.0549465819
 20
171.5342930125
 30
0.0
 11
67.712910588
 21
171.5342930125
 31
0.0
  0
ARC
  5
2CA
330
1F
100
AcDbEntity
  8
0
  6
Continuous
 62
     7
370
    15
100
AcDbCircle
 10
67.71291018
 20
167.034292746
 30
0.0
 40
4.500000000000022
100
AcDbArc
 50
90.0
 51
123.5834424044
  0
ARC
  5
2CB
330
1F
100
AcDbEntity
  8
0
  6
Continuous
 62
     7
370
    15
100
AcDbCircle
 10
31.7345527571
 20
167.034292746
 30
0.0
 40
4.5
100
AcDbArc
 50
2.768557237
 51
90.0
  0
LINE
  5
2CC
330
1F
100
AcDbEntity
  8
0
  6
Continuous
 62
     7
370
    15
100
AcDbLine
 10
31.7345523491
 20
171.5342930125
 30
0.0
 11
29.3925163551
 21
171.5342930125
 31
0.0
  0
ARC
  5
2CD
330
1F
100
AcDbEntity
  8
0
  6
Continuous
 62
     7
370
    15
100
AcDbCircle
 10
29.2237071225
 20
173.5441610614
 30
0.0
 40
2.016944985804814
100
AcDbArc
 50
187.4375164072
 51
274.8010049114
  0
LINE
  5
2CE
330
1F
100
AcDbEntity
  8
0
  6
Continuous
 62
     7
370
    15
100
AcDbLine
 10
27.2237305745
 20
186.3095547611
 30
0.0
 11
27.2237305745
 21
173.2830779234
 31
0.0
  0
ARC
  5
2CF
330
1F
100
AcDbEntity
  8
0
  6
Continuous
 62
     7
370
    15
100
AcDbCircle
 10
29.2237071225
 20
186.0484716231
 30
0.0
 40
2.016944985804778
100
AcDbArc
 50
85.1989950886
 51
172.5624835928
  0
LINE
  5
2D0
330
1F
100
AcDbEntity
  8
0
  6
Continuous
 62
     7
370
    15
100
AcDbLine
 10
29.3925163551
 20
188.058339672
 30
0.0
 11
31.7345523491
 21
188.058339672
 31
0.0
  0
ARC
  5
2D1
330
1F
100
AcDbEntity
  8
0
  6
Continuous
 62
     7
370
    15
100
AcDbCircle
 10
31.7345527571
 20
192.5583399386
 30
0.0
 40
4.500000000000028
100
AcDbArc
 50
270.0
 51
0.0
  0
LINE
  5
2D2
330
1F
100
AcDbEntity
  8
0
  6
Continuous
 62
     7
370
    15
100
AcDbLine
 10
36.2345530867
 20
192.5583394783
 30
0.0
 11
36.2345530867
 21
195.3047259318
 31
0.0
  0
ARC
  5
2D3
330
1F
100
AcDbEntity
  8
0
  6
Continuous
 62
     7
370
    15
100
AcDbCircle
 10
38.2345527571
 20
195.3047255486
 30
0.0
 40
2.000000000000008
100
AcDbArc
 50
95.2559645233
 51
180.0
  0
ARC
  5
2D4
330
1F
100
AcDbEntity
  8
0
  6
Continuous
 62
     7
370
    15
100
AcDbCircle
 10
31.7237314685
 20
192.7963163423
 30
0.0
 40
4.5
100
AcDbArc
 50
90.0
 51
180.0
  0
LINE
  5
2D5
330
1F
100
AcDbEntity
  8
0
  6
Continuous
 62
     7
370
    15
100
AcDbLine
 10
27.2237305745
 20
192.7963166105
 30
0.0
 11
27.2237305745
 21
186.3095547611
 31
0.0
  0
LINE
  5
2D6
330
1F
100
AcDbEntity
  8
0
  6
Continuous
 62
     7
370
    15
100
AcDbLine
 10
38.051341775
 20
197.2963164168
 30
0.0
 11
31.7237322434
 21
197.2963164168
 31
0.0
  0
ARC
  5
2D7
330
1F
100
AcDbEntity
  8
0
  6
Continuous
 62
     7
370
    15
100
AcDbCircle
 10
67.7237314685
 20
192.7963163423
 30
0.0
 40
4.500000000000043
100
AcDbArc
 50
0.0
 51
90.0
  0
LINE
  5
2D8
330
1F
100
AcDbEntity
  8
0
  6
Continuous
 62
     7
370
    15
100
AcDbLine
 10
72.2237323626
 20
186.3095547611
 30
0.0
 11
72.2237323626
 21
192.7963166105
 31
0.0
  0
LINE
  5
2D9
330
1F
100
AcDbEntity
  8
0
  6
Continuous
 62
     7
370
    15
100
AcDbLine
 10
67.7237306937
 20
197.2963164168
 30
0.0
 11
61.3961211621
 21
197.2963164168
 31
0.0
  0
ARC
  5
2DA
330
1F
100
AcDbEntity
  8
0
  6
Continuous
 62
     7
370
    15
100
AcDbCircle
 10
31.7237314685
 20
166.7963163423
 30
0.0
 40
4.500000000000004
100
AcDbArc
 50
180.0
 51
270.0
  0
LINE
  5
2DB
330
1F
100
AcDbEntity
  8
0
  6
Continuous
 62
     7
370
    15
100
AcDbLine
 10
31.7237322434
 20
162.2963162678
 30
0.0
 11
34.6897571563
 21
162.2963162678
 31
0.0
  0
LINE
  5
2DC
330
1F
100
AcDbEntity
  8
0
  6
Continuous
 62
     7
370
    15
100
AcDbLine
 10
27.2237305745
 20
173.2830779234
 30
0.0
 11
27.2237305745
 21
166.796316074
 31
0.0
  0
ARC
  5
2DD
330
1F
100
AcDbEntity
  8
0
  6
Continuous
 62
     7
370
    15
100
AcDbCircle
 10
67.7237314685
 20
166.7963163423
 30
0.0
 40
4.500000000000014
100
AcDbArc
 50
270.0
 51
0.0
  0
LINE
  5
2DE
330
1F
100
AcDbEntity
  8
0
  6
Continuous
 62
     7
370
    15
100
AcDbLine
 10
65.2237312152
 20
162.2963162678
 30
0.0
 11
67.7237306937
 21
162.2963162678
 31
0.0
  0
LINE
  5
2DF
330
1F
100
AcDbEntity
  8
0
  6
Continuous
 62
     7
370
    15
100
AcDbLine
 10
72.2237323626
 20
166.796316074
 30
0.0
 11
72.2237323626
 21
173.2830779234
 31
0.0
  0
ARC
  5
2E0
330
1F
100
AcDbEntity
  8
0
  6
Continuous
 62
     7
370
    15
100
AcDbCircle
 10
68.2237314685
 20
193.2963163423
 30
0.0
 40
4.000000000000014
100
AcDbArc
 50
0.0
 51
90.0
  0
ARC
  5
2E1
330
1F
100
AcDbEntity
  8
0
  6
Continuous
 62
     7
370
    15
100
AcDbCircle
 10
68.2237314685
 20
166.2963163423
 30
0.0
 40
4.000000000000014
100
AcDbArc
 50
270.0
 51
0.0
  0
ARC
  5
2E2
330
1F
100
AcDbEntity
  8
0
  6
Continuous
 62
     7
370
    15
100
AcDbCircle
 10
31.2237314685
 20
166.2963163423
 30
0.0
 40
4.0
100
AcDbArc
 50
180.0
 51
270.0
  0
ARC
  5
2E3
330
1F
100
AcDbEntity
  8
0
  6
Continuous
 62
     7
370
    15
100
AcDbCircle
 10
31.2237314685
 20
193.2963163423
 30
0.0
 40
4.0
100
AcDbArc
 50
90.0
 51
180.0
  0
ARC
  5
2E4
330
1F
100
AcDbEntity
  8
0
  6
Continuous
 62
     8
370
    15
100
AcDbCircle
 10
67.7237314685
 20
166.7963163423
 30
0.0
 40
3.300000000000015
100
AcDbArc
 50
24.7120080917
 51
139.2509456225
  0
ARC
  5
2E5
330
1F
100
AcDbEntity
  8
0
  6
Continuous
 62
     8
370
    15
100
AcDbCircle
 10
67.7237314685
 20
166.7963163423
 30
0.0
 40
3.300000000000005
100
AcDbArc
 50
220.7490543775
 51
24.7120080917
  0
ARC
  5
2E6
330
1F
100
AcDbEntity
  8
0
  6
Continuous
 62
     8
370
    15
100
AcDbCircle
 10
49.7237314685
 20
175.2963163423
 30
0.0
 40
11.5
100
AcDbArc
 50
65.0020626767
 51
186.8114314622
  0
DIMENSION
  5
2E7
330
1F
100
AcDbEntity
  8
0
  6
Continuous
 62
     7
370
     0
100
AcDbDimension
  2
_D_8
 10
72.2237314685
 20
146.2963163423
 30
0.0
 11
49.7237314685
 21
146.2963163423
 31
0.0
 70
   160
  1
<>
 71
     2
 42
-1.0
  3
SLDDIMSTYLE1
100
AcDbAlignedDimension
 13
27.2237314685
 23
156.7963163423
 33
0.0
 14
72.2237314685
 24
156.7963163423
 34
0.0
100
AcDbRotatedDimension
  0
DIMENSION
  5
2F1
330
1F
100
AcDbEntity
  8
0
  6
Continuous
 62
     7
370
     0
100
AcDbDimension
  2
_D_9
 10
24.7955607722
 20
156.2963163423
 30
0.0
 11
24.7955607722
 21
179.2203830228
 31
0.0
 70
   160
  1
<>
 71
     2
 42
-1.0
  3
SLDDIMSTYLE1
100
AcDbAlignedDimension
 13
42.0737314685
 23
204.2963163423
 33
0.0
 14
27.7237314685
 24
156.2963163423
 34
0.0
 50
90.0
100
AcDbRotatedDimension
  0
DIMENSION
  5
2FB
330
1F
100
AcDbEntity
  8
0
  6
Continuous
 62
     7
370
     0
100
AcDbDimension
  2
_D_10
 10
54.7237314685
 20
250.2963163423
 30
0.0
 11
49.7237314685
 21
250.2963163423
 31
0.0
 70
   160
  1
<>
 71
     2
 42
-1.0
  3
SLDDIMSTYLE0
100
AcDbAlignedDimension
 13
44.7237314685
 23
240.2963163423
 33
0.0
 14
54.7237314685
 24
240.2963163423
 34
0.0
 50
0.0
100
AcDbRotatedDimension
  0
DIMENSION
  5
307
330
1F
100
AcDbEntity
  8
0
  6
Continuous
 62
     7
370
     0
100
AcDbDimension
  2
_D_11
 10
60.6983598553
 20
260.5644374403
 30
0.0
 11
49.7237314685
 21
260.5644374403
 31
0.0
 70
   160
  1
(<>)
 71
     2
 42
-1.0
  3
SLDDIMSTYLE0
100
AcDbAlignedDimension
 13
38.7491030818
 23
223.599564597
 33
0.0
 14
60.6983598553
 24
223.599564597
 34
0.0
100
AcDbRotatedDimension
  0
DIMENSION
  5
313
330
1F
100
AcDbEntity
  8
0
  6
Continuous
 62
     7
370
     0
100
AcDbDimension
  2
_D_12
 10
83.6074060358
 20
208.4963163423
 30
0.0
 11
83.6074060358
 21
223.1056677703
 31
0.0
 70
   160
  1
(<>)
 71
     2
 42
-1.0
  3
SLDDIMSTYLE1
100
AcDbAlignedDimension
 13
54.7237314685
 23
240.2963163423
 33
0.0
 14
59.7237314685
 24
208.4963163423
 34
0.0
 50
90.0
100
AcDbRotatedDimension
  0
DIMENSION
  5
31F
330
1F
100
AcDbEntity
  8
0
  6
Continuous
 62
     7
370
     0
100
AcDbDimension
  2
_D_13
 10
83.6074060358
 20
156.2963163423
 30
0.0
 11
83.6074060358
 21
174.5069522701
 31
0.0
 70
   160
  1
<>
 71
     2
 42
-1.0
  3
SLDDIMSTYLE1
100
AcDbAlignedDimension
 13
59.7237314685
 23
208.4963163423
 33
0.0
 14
71.7237314685
 24
156.2963163423
 34
0.0
 50
90.0
100
AcDbRotatedDimension
  0
DIMENSION
  5
329
330
1F
100
AcDbEntity
  8
0
  6
Continuous
 62
     7
370
     0
100
AcDbDimension
  2
_D_14
 10
77.5996339679
 20
156.2963163423
 30
0.0
 11
77.5996339679
 21
174.5069522701
 31
0.0
 70
   160
  1
<>
 71
     2
 42
-1.0
  3
SLDDIMSTYLE1
100
AcDbAlignedDimension
 13
67.7237314685
 23
197.2963163423
 33
0.0
 14
71.7237314685
 24
156.2963163423
 34
0.0
 50
90.0
100
AcDbRotatedDimension
  0
INSERT
  5
33E
330
1F
100
AcDbEntity
  8
0
  6
Continuous
 62
     7
370
     0
100
AcDbBlockReference
  2
SW_CENTERMARKSYMBOL_0
 10
49.7237314685
 20
175.2963163423
 30
0.0
  0
INSERT
  5
34A
330
1F
100
AcDbEntity
  8
0
  6
Continuous
 62
     7
370
     0
100
AcDbBlockReference
  2
SW_CENTERMARKSYMBOL_1
 10
49.6915068448
 20
191.2962838914
 30
0.0
  0
INSERT
  5
356
330
1F
100
AcDbEntity
  8
0
  6
Continuous
 62
     7
370
     0
100
AcDbBlockReference
  2
SW_CENTERMARKSYMBOL_2
 10
49.7237314685
 20
204.2963163423
 30
0.0
  0
INSERT
  5
362
330
1F
100
AcDbEntity
  8
0
  6
Continuous
 62
     7
370
     0
100
AcDbBlockReference
  2
SW_CENTERMARKSYMBOL_3
 10
67.7237314685
 20
192.7963163423
 30
0.0
  0
INSERT
  5
36E
330
1F
100
AcDbEntity
  8
0
  6
Continuous
 62
     7
370
     0
100
AcDbBlockReference
  2
SW_CENTERMARKSYMBOL_4
 10
67.7237314685
 20
166.7963163423
 30
0.0
  0
INSERT
  5
37A
330
1F
100
AcDbEntity
  8
0
  6
Continuous
 62
     7
370
     0
100
AcDbBlockReference
  2
SW_CENTERMARKSYMBOL_5
 10
31.7237314685
 20
166.7963163423
 30
0.0
  0
INSERT
  5
386
330
1F
100
AcDbEntity
  8
0
  6
Continuous
 62
     7
370
     0
100
AcDbBlockReference
  2
SW_CENTERMARKSYMBOL_6
 10
31.7237314685
 20
192.7963163423
 30
0.0
  0
INSERT
  5
392
330
1F
100
AcDbEntity
  8
0
  6
Continuous
 62
     7
370
     0
100
AcDbBlockReference
  2
SW_CENTERMARKSYMBOL_7
 10
58.6237314685
 20
175.2963163423
 30
0.0
  0
LINE
  5
393
330
1F
100
AcDbEntity
  8
0
  6
Continuous
 62
     7
370
    15
100
AcDbLine
 10
105.3352683262
 20
92.0192839006
 30
0.0
 11
117.5352699534
 21
92.0192839006
 31
0.0
  0
LINE
  5
394
330
1F
100
AcDbEntity
  8
0
  6
Continuous
 62
     7
370
    15
100
AcDbLine
 10
117.5352699534
 20
100.0192842805
 30
0.0
 11
105.3352683262
 21
100.0192842805
 31
0.0
  0
LINE
  5
395
330
1F
100
AcDbEntity
  8
0
  6
Continuous
 62
     7
370
    15
100
AcDbLine
 10
102.9352724031
 20
92.1692841114
 30
0.0
 11
104.4352679924
 21
92.1692841114
 31
0.0
  0
LINE
  5
396
330
1F
100
AcDbEntity
  8
0
  6
Continuous
 62
     7
370
    15
100
AcDbLine
 10
104.4352679924
 20
99.8692840697
 30
0.0
 11
102.9352724031
 21
99.8692840697
 31
0.0
  0
LINE
  5
397
330
1F
100
AcDbEntity
  8
0
  6
Continuous
 62
     7
370
    15
100
AcDbLine
 10
104.4352679924
 20
93.6192839765
 30
0.0
 11
105.3352683262
 21
93.6192839765
 31
0.0
  0
LINE
  5
398
330
1F
100
AcDbEntity
  8
0
  6
Continuous
 62
     7
370
    15
100
AcDbLine
 10
105.3352683262
 20
98.4192842045
 30
0.0
 11
104.4352679924
 21
98.4192842045
 31
0.0
  0
LINE
  5
399
330
1F
100
AcDbEntity
  8
0
  6
Continuous
 62
     7
370
    15
100
AcDbLine
 10
181.0852695667
 20
74.21928387
 30
0.0
 11
181.5852696487
 21
74.21928387
 31
0.0
  0
LINE
  5
39A
330
1F
100
AcDbEntity
  8
0
  6
Continuous
 62
     7
370
    15
100
AcDbLine
 10
181.5852696487
 20
81.8192839982
 30
0.0
 11
181.0852695667
 21
81.8192839982
 31
0.0
  0
ARC
  5
39B
330
1F
100
AcDbEntity
  8
0
  6
Continuous
 62
     7
370
    15
100
AcDbCircle
 10
181.5852696256
 20
74.4692840905
 30
0.0
 40
0.2499999999986642
100
AcDbArc
 50
269.9999999994
 51
0.0
  0
ARC
  5
39C
330
1F
100
AcDbEntity
  8
0
  6
Continuous
 62
     7
370
    15
100
AcDbCircle
 10
181.5852696256
 20
81.5692840905
 30
0.0
 40
0.2500000000019469
100
AcDbArc
 50
0.0
 51
90.0000000006
  0
LINE
  5
39D
330
1F
100
AcDbEntity
  8
0
  6
Continuous
 62
     7
370
    15
100
AcDbLine
 10
181.0852695667
 20
110.2192841829
 30
0.0
 11
181.5852696487
 21
110.2192841829
 31
0.0
  0
LINE
  5
39E
330
1F
100
AcDbEntity
  8
0
  6
Continuous
 62
     7
370
    15
100
AcDbLine
 10
181.5852696487
 20
117.8192843111
 30
0.0
 11
181.0852695667
 21
117.8192843111
 31
0.0
  0
ARC
  5
39F
330
1F
100
AcDbEntity
  8
0
  6
Continuous
 62
     7
370
    15
100
AcDbCircle
 10
181.5852696256
 20
110.4692840905
 30
0.0
 40
0.2499999999986926
100
AcDbArc
 50
269.9999999994
 51
0.0
  0
ARC
  5
3A0
330
1F
100
AcDbEntity
  8
0
  6
Continuous
 62
     7
370
    15
100
AcDbCircle
 10
181.5852696256
 20
117.5692840905
 30
0.0
 40
0.2500000000019469
100
AcDbArc
 50
0.0
 51
90.0000000006
  0
ARC
  5
3A1
330
1F
100
AcDbEntity
  8
0
  6
Continuous
 62
     7
370
    15
100
AcDbCircle
 10
181.0852696256
 20
74.4692840905
 30
0.0
 40
0.2499999999984652
100
AcDbArc
 50
180.0
 51
269.9999999998
  0
ARC
  5
3A2
330
1F
100
AcDbEntity
  8
0
  6
Continuous
 62
     7
370
    15
100
AcDbCircle
 10
181.0852696256
 20
81.5692840905
 30
0.0
 40
0.2499999999984652
100
AcDbArc
 50
90.0000000002
 51
180.0
  0
ARC
  5
3A3
330
1F
100
AcDbEntity
  8
0
  6
Continuous
 62
     7
370
    15
100
AcDbCircle
 10
181.0852696256
 20
110.4692840905
 30
0.0
 40
0.2499999999984652
100
AcDbArc
 50
180.0
 51
269.9999999998
  0
ARC
  5
3A4
330
1F
100
AcDbEntity
  8
0
  6
Continuous
 62
     7
370
    15
100
AcDbCircle
 10
181.0852696256
 20
117.5692840905
 30
0.0
 40
0.2499999999984652
100
AcDbArc
 50
90.0000000002
 51
180.0
  0
LINE
  5
3A5
330
1F
100
AcDbEntity
  8
0
  6
Continuous
 62
     7
370
    15
100
AcDbLine
 10
185.5352694579
 20
81.5192845078
 30
0.0
 11
181.8352696896
 21
81.5192845078
 31
0.0
  0
LINE
  5
3A6
330
1F
100
AcDbEntity
  8
0
  6
Continuous
 62
     7
370
    15
100
AcDbLine
 10
181.8352696896
 20
74.5192833604
 30
0.0
 11
185.5352694579
 21
74.5192833604
 31
0.0
  0
LINE
  5
3A7
330
1F
100
AcDbEntity
  8
0
  6
Continuous
 62
     7
370
    15
100
AcDbLine
 10
185.5352694579
 20
74.5192833604
 30
0.0
 11
185.835269414
 21
75.0192843737
 31
0.0
  0
LINE
  5
3A8
330
1F
100
AcDbEntity
  8
0
  6
Continuous
 62
     7
370
    15
100
AcDbLine
 10
185.835269414
 20
81.0192844258
 30
0.0
 11
185.5352694579
 21
81.5192845078
 31
0.0
  0
LINE
  5
3A9
330
1F
100
AcDbEntity
  8
0
  6
Continuous
 62
     7
370
    15
100
AcDbLine
 10
185.5352694579
 20
117.5192848207
 30
0.0
 11
181.8352696896
 21
117.5192848207
 31
0.0
  0
LINE
  5
3AA
330
1F
100
AcDbEntity
  8
0
  6
Continuous
 62
     7
370
    15
100
AcDbLine
 10
181.8352696896
 20
110.5192836733
 30
0.0
 11
185.5352694579
 21
110.5192836733
 31
0.0
  0
LINE
  5
3AB
330
1F
100
AcDbEntity
  8
0
  6
Continuous
 62
     7
370
    15
100
AcDbLine
 10
185.5352694579
 20
110.5192836733
 30
0.0
 11
185.835269414
 21
111.0192837553
 31
0.0
  0
LINE
  5
3AC
330
1F
100
AcDbEntity
  8
0
  6
Continuous
 62
     7
370
    15
100
AcDbLine
 10
185.835269414
 20
117.0192838074
 30
0.0
 11
185.5352694579
 21
117.5192848207
 31
0.0
  0
LINE
  5
3AD
330
1F
100
AcDbEntity
  8
0
  6
Continuous
 62
     7
370
    15
100
AcDbLine
 10
110.4604333118
 20
102.9192840108
 30
0.0
 11
114.335271664
 21
102.9192840108
 31
0.0
  0
LINE
  5
3AE
330
1F
100
AcDbEntity
  8
0
  6
Continuous
 62
     7
370
    15
100
AcDbLine
 10
114.335271664
 20
106.9192842008
 30
0.0
 11
110.4604333118
 21
106.9192842008
 31
0.0
  0
LINE
  5
3AF
330
1F
100
AcDbEntity
  8
0
  6
Continuous
 62
     7
370
    15
100
AcDbLine
 10
110.4604333118
 20
106.9192842008
 30
0.0
 11
110.2352693156
 21
106.5292844908
 31
0.0
  0
LINE
  5
3B0
330
1F
100
AcDbEntity
  8
0
  6
Continuous
 62
     7
370
    15
100
AcDbLine
 10
110.2352693156
 20
103.3092841865
 30
0.0
 11
110.4604333118
 21
102.9192840108
 31
0.0
  0
LINE
  5
3B1
330
1F
100
AcDbEntity
  8
0
  6
Continuous
 62
     7
370
    15
100
AcDbLine
 10
114.335271664
 20
101.4192842306
 30
0.0
 11
114.3380656318
 21
101.4144413532
 31
0.0
  0
LINE
  5
3B2
330
1F
100
AcDbEntity
  8
0
  6
Continuous
 62
     7
370
    15
100
AcDbLine
 10
114.3380656318
 20
108.4241263927
 30
0.0
 11
114.335271664
 21
108.4192844467
 31
0.0
  0
LINE
  5
3B3
330
1F
100
AcDbEntity
  8
0
  6
Continuous
 62
     7
370
    15
100
AcDbLine
 10
105.3352683262
 20
92.0192839006
 30
0.0
 11
105.3352683262
 21
100.0192842805
 31
0.0
  0
LINE
  5
3B4
330
1F
100
AcDbEntity
  8
0
  6
Continuous
 62
     7
370
    15
100
AcDbLine
 10
104.4352679924
 20
96.0192840905
 30
0.0
 11
104.4352679924
 21
99.8692840697
 31
0.0
  0
LINE
  5
3B5
330
1F
100
AcDbEntity
  8
0
  6
Continuous
 62
     7
370
    15
100
AcDbLine
 10
104.4352679924
 20
92.1692841114
 30
0.0
 11
104.4352679924
 21
96.0192840905
 31
0.0
  0
LINE
  5
3B6
330
1F
100
AcDbEntity
  8
0
  6
Continuous
 62
     7
370
    15
100
AcDbLine
 10
102.9352724031
 20
96.0192840905
 30
0.0
 11
102.9352724031
 21
99.8692840697
 31
0.0
  0
LINE
  5
3B7
330
1F
100
AcDbEntity
  8
0
  6
Continuous
 62
     7
370
    15
100
AcDbLine
 10
102.9352724031
 20
92.1692841114
 30
0.0
 11
102.9352724031
 21
96.0192840905
 31
0.0
  0
LINE
  5
3B8
330
1F
100
AcDbEntity
  8
0
  6
Continuous
 62
     7
370
    15
100
AcDbLine
 10
180.8352695257
 20
77.5192838521
 30
0.0
 11
179.2352696826
 21
77.5192838521
 31
0.0
  0
LINE
  5
3B9
330
1F
100
AcDbEntity
  8
0
  6
Continuous
 62
     7
370
    15
100
AcDbLine
 10
180.8352695257
 20
73.5192831965
 30
0.0
 11
180.8352695257
 21
77.5192838521
 31
0.0
  0
LINE
  5
3BA
330
1F
100
AcDbEntity
  8
0
  6
Continuous
 62
     7
370
    15
100
AcDbLine
 10
180.8352695257
 20
73.5192831965
 30
0.0
 11
179.2352696826
 21
73.5192831965
 31
0.0
  0
LINE
  5
3BB
330
1F
100
AcDbEntity
  8
0
  6
Continuous
 62
     7
370
    15
100
AcDbLine
 10
180.8352695257
 20
77.5192838521
 30
0.0
 11
180.8352695257
 21
114.519284329
 31
0.0
  0
LINE
  5
3BC
330
1F
100
AcDbEntity
  8
0
  6
Continuous
 62
     7
370
    15
100
AcDbLine
 10
180.8352695257
 20
114.519284329
 30
0.0
 11
179.2352696826
 21
114.519284329
 31
0.0
  0
LINE
  5
3BD
330
1F
100
AcDbEntity
  8
0
  6
Continuous
 62
     7
370
    15
100
AcDbLine
 10
179.2352696826
 20
118.5192849846
 30
0.0
 11
180.8352695257
 21
118.5192849846
 31
0.0
  0
LINE
  5
3BE
330
1F
100
AcDbEntity
  8
0
  6
Continuous
 62
     7
370
    15
100
AcDbLine
 10
180.8352695257
 20
114.519284329
 30
0.0
 11
180.8352695257
 21
118.5192849846
 31
0.0
  0
LINE
  5
3BF
330
1F
100
AcDbEntity
  8
0
  6
Continuous
 62
     7
370
    15
100
AcDbLine
 10
181.8352696896
 20
81.5692844228
 30
0.0
 11
181.8352696896
 21
74.4692843766
 31
0.0
  0
LINE
  5
3C0
330
1F
100
AcDbEntity
  8
0
  6
Continuous
 62
     7
370
    15
100
AcDbLine
 10
181.8352696896
 20
117.5692838044
 30
0.0
 11
181.8352696896
 21
110.4692837582
 31
0.0
  0
LINE
  5
3C1
330
1F
100
AcDbEntity
  8
0
  6
Continuous
 62
     7
370
    15
100
AcDbLine
 10
185.5352694579
 20
81.5192845078
 30
0.0
 11
185.5352694579
 21
74.5192833604
 31
0.0
  0
LINE
  5
3C2
330
1F
100
AcDbEntity
  8
0
  6
Continuous
 62
     7
370
    15
100
AcDbLine
 10
185.835269414
 20
81.0192844258
 30
0.0
 11
185.835269414
 21
75.0192843737
 31
0.0
  0
LINE
  5
3C3
330
1F
100
AcDbEntity
  8
0
  6
Continuous
 62
     7
370
    15
100
AcDbLine
 10
185.5352694579
 20
117.5192848207
 30
0.0
 11
185.5352694579
 21
110.5192836733
 31
0.0
  0
LINE
  5
3C4
330
1F
100
AcDbEntity
  8
0
  6
Continuous
 62
     7
370
    15
100
AcDbLine
 10
185.835269414
 20
117.0192838074
 30
0.0
 11
185.835269414
 21
111.0192837553
 31
0.0
  0
LINE
  5
3C5
330
1F
100
AcDbEntity
  8
0
  6
Continuous
 62
     7
370
    15
100
AcDbLine
 10
189.2352692262
 20
85.0192841501
 30
0.0
 11
190.2352693901
 21
85.0192841501
 31
0.0
  0
LINE
  5
3C6
330
1F
100
AcDbEntity
  8
0
  6
Continuous
 62
     7
370
    15
100
AcDbLine
 10
190.2352693901
 20
85.0192841501
 30
0.0
 11
190.2352693901
 21
84.0192839862
 31
0.0
  0
ARC
  5
3C7
330
1F
100
AcDbEntity
  8
0
  6
Continuous
 62
     7
370
    15
100
AcDbCircle
 10
189.2352696256
 20
84.0192840905
 30
0.0
 40
0.9999999999968026
100
AcDbArc
 50
269.9999999999
 51
0.0000022583
  0
LINE
  5
3C8
330
1F
100
AcDbEntity
  8
0
  6
Continuous
 62
     7
370
    15
100
AcDbLine
 10
189.2352692262
 20
85.0192841501
 30
0.0
 11
189.2352692262
 21
83.0192838223
 31
0.0
  0
LINE
  5
3C9
330
1F
100
AcDbEntity
  8
0
  6
Continuous
 62
     7
370
    15
100
AcDbLine
 10
189.2352692262
 20
107.0192840309
 30
0.0
 11
190.2352693901
 21
107.0192840309
 31
0.0
  0
LINE
  5
3CA
330
1F
100
AcDbEntity
  8
0
  6
Continuous
 62
     7
370
    15
100
AcDbLine
 10
190.2352693901
 20
107.0192840309
 30
0.0
 11
190.2352693901
 21
85.0192841501
 31
0.0
  0
LINE
  5
3CB
330
1F
100
AcDbEntity
  8
0
  6
Continuous
 62
     7
370
    15
100
AcDbLine
 10
189.2352692262
 20
107.0192840309
 30
0.0
 11
189.2352692262
 21
85.0192841501
 31
0.0
  0
ARC
  5
3CC
330
1F
100
AcDbEntity
  8
0
  6
Continuous
 62
     7
370
    15
100
AcDbCircle
 10
189.2352696256
 20
108.0192840905
 30
0.0
 40
0.9999999999984092
100
AcDbArc
 50
359.9999977415
 51
89.9999999996
  0
LINE
  5
3CD
330
1F
100
AcDbEntity
  8
0
  6
Continuous
 62
     7
370
    15
100
AcDbLine
 10
190.2352693901
 20
108.0192841948
 30
0.0
 11
190.2352693901
 21
107.0192840309
 31
0.0
  0
LINE
  5
3CE
330
1F
100
AcDbEntity
  8
0
  6
Continuous
 62
     7
370
    15
100
AcDbLine
 10
189.2352692262
 20
109.0192843588
 30
0.0
 11
189.2352692262
 21
107.0192840309
 31
0.0
  0
LINE
  5
3CF
330
1F
100
AcDbEntity
  8
0
  6
Continuous
 62
     7
370
    15
100
AcDbLine
 10
180.8352695257
 20
85.0192841501
 30
0.0
 11
189.2352692262
 21
85.0192841501
 31
0.0
  0
LINE
  5
3D0
330
1F
100
AcDbEntity
  8
0
  6
Continuous
 62
     7
370
    15
100
AcDbLine
 10
180.8352695257
 20
83.0192838223
 30
0.0
 11
189.2352692262
 21
83.0192838223
 31
0.0
  0
LINE
  5
3D1
330
1F
100
AcDbEntity
  8
0
  6
Continuous
 62
     7
370
    15
100
AcDbLine
 10
180.8352695257
 20
107.0192840309
 30
0.0
 11
189.2352692262
 21
107.0192840309
 31
0.0
  0
LINE
  5
3D2
330
1F
100
AcDbEntity
  8
0
  6
Continuous
 62
     7
370
    15
100
AcDbLine
 10
180.8352695257
 20
109.0192843588
 30
0.0
 11
189.2352692262
 21
109.0192843588
 31
0.0
  0
LINE
  5
3D3
330
1F
100
AcDbEntity
  8
0
  6
Continuous
 62
     7
370
    15
100
AcDbLine
 10
110.4604333118
 20
102.9192840108
 30
0.0
 11
110.4604333118
 21
106.9192842008
 31
0.0
  0
LINE
  5
3D4
330
1F
100
AcDbEntity
  8
0
  6
Continuous
 62
     7
370
    15
100
AcDbLine
 10
110.2352693156
 20
103.3092841865
 30
0.0
 11
110.2352693156
 21
106.5292844908
 31
0.0
  0
LINE
  5
3D5
330
1F
100
AcDbEntity
  8
0
  6
Continuous
 62
     7
370
    15
100
AcDbLine
 10
134.035269864
 20
75.0192843737
 30
0.0
 11
135.0352681653
 21
74.0192842098
 31
0.0
  0
LINE
  5
3D6
330
1F
100
AcDbEntity
  8
0
  6
Continuous
 62
     7
370
    15
100
AcDbLine
 10
134.035269864
 20
117.0192838074
 30
0.0
 11
134.035269864
 21
75.0192843737
 31
0.0
  0
LINE
  5
3D7
330
1F
100
AcDbEntity
  8
0
  6
Continuous
 62
     7
370
    15
100
AcDbLine
 10
135.0352681653
 20
118.0192839713
 30
0.0
 11
134.035269864
 21
117.0192838074
 31
0.0
  0
LINE
  5
3D8
330
1F
100
AcDbEntity
  8
0
  6
Continuous
 62
     7
370
    15
100
AcDbLine
 10
163.0352699608
 20
118.0192839713
 30
0.0
 11
135.0352681653
 21
118.0192839713
 31
0.0
  0
LINE
  5
3D9
330
1F
100
AcDbEntity
  8
0
  6
Continuous
 62
     7
370
    15
100
AcDbLine
 10
164.0352691934
 20
117.0192838074
 30
0.0
 11
163.0352699608
 21
118.0192839713
 31
0.0
  0
LINE
  5
3DA
330
1F
100
AcDbEntity
  8
0
  6
Continuous
 62
     7
370
    15
100
AcDbLine
 10
164.0352691934
 20
75.0192843737
 30
0.0
 11
164.0352691934
 21
117.0192838074
 31
0.0
  0
LINE
  5
3DB
330
1F
100
AcDbEntity
  8
0
  6
Continuous
 62
     7
370
    15
100
AcDbLine
 10
163.0352699608
 20
74.0192842098
 30
0.0
 11
164.0352691934
 21
75.0192843737
 31
0.0
  0
LINE
  5
3DC
330
1F
100
AcDbEntity
  8
0
  6
Continuous
 62
     7
370
    15
100
AcDbLine
 10
135.0352681653
 20
74.0192842098
 30
0.0
 11
163.0352699608
 21
74.0192842098
 31
0.0
  0
CIRCLE
  5
3DD
330
1F
100
AcDbEntity
  8
0
  6
Continuous
 62
     7
370
    15
100
AcDbCircle
 10
157.5352696256
 20
114.0192840905
 30
0.0
 40
1.649999999999991
  0
CIRCLE
  5
3DE
330
1F
100
AcDbEntity
  8
0
  6
Continuous
 62
     7
370
    15
100
AcDbCircle
 10
155.5352696256
 20
105.8582467698
 30
0.0
 40
1.649999999999977
  0
CIRCLE
  5
3DF
330
1F
100
AcDbEntity
  8
0
  6
Continuous
 62
     7
370
    15
100
AcDbCircle
 10
155.5352696256
 20
85.8582467698
 30
0.0
 40
1.650000000000006
  0
CIRCLE
  5
3E0
330
1F
100
AcDbEntity
  8
0
  6
Continuous
 62
     7
370
    15
100
AcDbCircle
 10
157.5352696256
 20
78.0192840905
 30
0.0
 40
1.650000000000006
  0
CIRCLE
  5
3E1
330
1F
100
AcDbEntity
  8
0
  6
Continuous
 62
     7
370
    15
100
AcDbCircle
 10
157.5352696256
 20
96.0192840905
 30
0.0
 40
1.649999999999991
  0
CIRCLE
  5
3E2
330
1F
100
AcDbEntity
  8
0
  6
Continuous
 62
     7
370
    15
100
AcDbCircle
 10
137.5352696256
 20
96.0192840905
 30
0.0
 40
1.649999999999991
  0
ARC
  5
3E3
330
1F
100
AcDbEntity
  8
0
  6
Continuous
 62
     7
370
    15
100
AcDbCircle
 10
168.5352696256
 20
109.5192840905
 30
0.0
 40
3.999999999999988
100
AcDbArc
 50
128.6821874535
 51
231.3178125465
  0
ARC
  5
3E4
330
1F
100
AcDbEntity
  8
0
  6
Continuous
 62
     7
370
    15
100
AcDbCircle
 10
168.5352696256
 20
82.5192840905
 30
0.0
 40
4.000000000000005
100
AcDbArc
 50
128.6821874535
 51
231.3178125465
  0
LINE
  5
3E5
330
1F
100
AcDbEntity
  8
0
  6
Continuous
 62
     7
370
    15
100
AcDbLine
 10
134.7352705375
 20
73.5192831965
 30
0.0
 11
167.0352696852
 21
73.5192831965
 31
0.0
  0
LINE
  5
3E6
330
1F
100
AcDbEntity
  8
0
  6
Continuous
 62
     7
370
    15
100
AcDbLine
 10
134.7352705375
 20
73.5192831965
 30
0.0
 11
120.0352712945
 21
80.5192843439
 31
0.0
  0
LINE
  5
3E7
330
1F
100
AcDbEntity
  8
0
  6
Continuous
 62
     7
370
    15
100
AcDbLine
 10
120.0352712945
 20
80.5192843439
 30
0.0
 11
120.0352712945
 21
111.5192838372
 31
0.0
  0
LINE
  5
3E8
330
1F
100
AcDbEntity
  8
0
  6
Continuous
 62
     7
370
    15
100
AcDbLine
 10
120.0352712945
 20
111.5192838372
 30
0.0
 11
134.7352705375
 21
118.5192849846
 31
0.0
  0
LINE
  5
3E9
330
1F
100
AcDbEntity
  8
0
  6
Continuous
 62
     7
370
    15
100
AcDbLine
 10
134.7352705375
 20
118.5192849846
 30
0.0
 11
167.0352696852
 21
118.5192849846
 31
0.0
  0
LINE
  5
3EA
330
1F
100
AcDbEntity
  8
0
  6
Continuous
 62
     7
370
    15
100
AcDbLine
 10
117.5352699534
 20
80.5192843439
 30
0.0
 11
117.5352699534
 21
111.5192838372
 31
0.0
  0
LINE
  5
3EB
330
1F
100
AcDbEntity
  8
0
  6
Continuous
 62
     7
370
    15
100
AcDbLine
 10
117.5352699534
 20
111.5192838372
 30
0.0
 11
120.0352712945
 21
111.5192838372
 31
0.0
  0
LINE
  5
3EC
330
1F
100
AcDbEntity
  8
0
  6
Continuous
 62
     7
370
    15
100
AcDbLine
 10
117.5352699534
 20
80.5192843439
 30
0.0
 11
120.0352712945
 21
80.5192843439
 31
0.0
  0
LINE
  5
3ED
330
1F
100
AcDbEntity
  8
0
  6
Continuous
 62
     7
370
    15
100
AcDbLine
 10
117.5352699534
 20
104.7069069357
 30
0.0
 11
114.6478756741
 21
104.7069069357
 31
0.0
  0
SPLINE
  5
3EE
330
1F
100
AcDbEntity
  8
0
  6
Continuous
 62
     7
370
    15
100
AcDbSpline
210
0.0
220
0.0
230
1.0
 70
     8
 71
     3
 72
    10
 73
     6
 74
     0
 42
0.00000001
 43
0.00000001
 12
1.0
 22
0.0
 32
0.0
 13
1.0
 23
0.0
 33
0.0
 40
0.0
 40
0.0
 40
0.0
 40
0.0
 40
0.0700367628031184
 40
0.5307575097640478
 40
1.0
 40
1.0
 40
1.0
 40
1.0
 10
114.3352716640436
 20
106.5075837434754
 30
0.0
 10
114.3356439653684
 20
106.4649343343957
 30
0.0
 10
114.3384653653896
 20
106.1417255901588
 30
0.0
 10
114.4067374263529
 20
105.5323008365004
 30
0.0
 10
114.5670067142321
 20
104.9837138997202
 30
0.0
 10
114.6478756741487
 20
104.7069069357142
 30
0.0
  0
SPLINE
  5
3EF
330
1F
100
AcDbEntity
  8
0
  6
Continuous
 62
     7
370
    15
100
AcDbSpline
210
0.0
220
0.0
230
1.0
 70
     8
 71
     3
 72
     9
 73
     5
 74
     0
 42
0.00000001
 43
0.00000001
 12
1.0
 22
0.0
 32
0.0
 13
1.0
 23
0.0
 33
0.0
 40
0.0
 40
0.0
 40
0.0
 40
0.0
 40
0.4954577847321311
 40
1.0
 40
1.0
 40
1.0
 40
1.0
 10
114.6478756741487
 20
108.308259619914
 30
0.0
 10
114.5605036204474
 20
108.0158219727339
 30
0.0
 10
114.3841575090455
 20
107.4255847089514
 30
0.0
 10
114.3516653366718
 20
106.8154316961876
 30
0.0
 10
114.3352716640436
 20
106.5075837434754
 30
0.0
  0
LINE
  5
3F0
330
1F
100
AcDbEntity
  8
0
  6
Continuous
 62
     7
370
    15
100
AcDbLine
 10
117.5352699534
 20
108.3082596199
 30
0.0
 11
114.6478756741
 21
108.3082596199
 31
0.0
  0
SPLINE
  5
3F1
330
1F
100
AcDbEntity
  8
0
  6
Continuous
 62
     7
370
    15
100
AcDbSpline
210
0.0
220
0.0
230
1.0
 70
     8
 71
     3
 72
     9
 73
     5
 74
     0
 42
0.00000001
 43
0.00000001
 12
1.0
 22
0.0
 32
0.0
 13
1.0
 23
0.0
 33
0.0
 40
0.0
 40
0.0
 40
0.0
 40
0.0
 40
0.4954575756356709
 40
1.0
 40
1.0
 40
1.0
 40
1.0
 10
114.6478756741487
 20
104.7069069357142
 30
0.0
 10
114.5605036195954
 20
104.4317146840183
 30
0.0
 10
114.3841574320511
 20
103.8762841785048
 30
0.0
 10
114.3516653153678
 20
103.3021128542097
 30
0.0
 10
114.3352716640436
 20
103.0124190622493
 30
0.0
  0
LINE
  5
3F2
330
1F
100
AcDbEntity
  8
0
  6
Continuous
 62
     7
370
    15
100
AcDbLine
 10
114.335271664
 20
106.5075837435
 30
0.0
 11
114.335271664
 21
103.0124190622
 31
0.0
  0
LINE
  5
3F3
330
1F
100
AcDbEntity
  8
0
  6
Continuous
 62
     7
370
    15
100
AcDbLine
 10
117.5352699534
 20
101.3179316544
 30
0.0
 11
114.6478756741
 21
101.3179316544
 31
0.0
  0
SPLINE
  5
3F4
330
1F
100
AcDbEntity
  8
0
  6
Continuous
 62
     7
370
    15
100
AcDbSpline
210
0.0
220
0.0
230
1.0
 70
     8
 71
     3
 72
    10
 73
     6
 74
     0
 42
0.00000001
 43
0.00000001
 12
1.0
 22
0.0
 32
0.0
 13
1.0
 23
0.0
 33
0.0
 40
0.0
 40
0.0
 40
0.0
 40
0.0
 40
0.0700363817056321
 40
0.5307571814742086
 40
1.0
 40
1.0
 40
1.0
 40
1.0
 10
114.3352716640436
 20
103.0124190622493
 30
0.0
 10
114.3356439674544
 20
102.9722850782875
 30
0.0
 10
114.3384653968904
 20
102.668137438302
 30
0.0
 10
114.4067374856452
 20
102.0946503899985
 30
0.0
 10
114.5670067185393
 20
101.5784147962335
 30
0.0
 10
114.6478756741487
 20
101.3179316544458
 30
0.0
  0
SPLINE
  5
3F5
330
1F
100
AcDbEntity
  8
0
  6
Continuous
 62
     7
370
    15
100
AcDbSpline
210
0.0
220
0.0
230
1.0
 70
     8
 71
     3
 72
    10
 73
     6
 74
     0
 42
0.00000001
 43
0.00000001
 12
1.0
 22
0.0
 32
0.0
 13
1.0
 23
0.0
 33
0.0
 40
0.0
 40
0.0
 40
0.0
 40
0.0
 40
0.2572431512053598
 40
0.6263799905203866
 40
1.0
 40
1.0
 40
1.0
 40
1.0
 10
114.6478756741487
 20
108.308259619914
 30
0.0
 10
114.6018092004543
 20
108.3171767376765
 30
0.0
 10
114.4896386053545
 20
108.3388896739136
 30
0.0
 10
114.3640759536757
 20
108.3743291908356
 30
0.0
 10
114.3449116515493
 20
108.4010214192009
 30
0.0
 10
114.3352716640436
 20
108.4144480885491
 30
0.0
  0
LINE
  5
3F6
330
1F
100
AcDbEntity
  8
0
  6
Continuous
 62
     7
370
    15
100
AcDbLine
 10
114.335271664
 20
108.4144480885
 30
0.0
 11
114.335271664
 21
106.5075837435
 31
0.0
  0
SPLINE
  5
3F7
330
1F
100
AcDbEntity
  8
0
  6
Continuous
 62
     7
370
    15
100
AcDbSpline
210
0.0
220
0.0
230
1.0
 70
     8
 71
     3
 72
    10
 73
     6
 74
     0
 42
0.00000001
 43
0.00000001
 12
1.0
 22
0.0
 32
0.0
 13
1.0
 23
0.0
 33
0.0
 40
0.0
 40
0.0
 40
0.0
 40
0.0
 40
0.2825327475891927
 40
0.6879594614176459
 40
0.9999999999999999
 40
0.9999999999999999
 40
0.9999999999999999
 40
0.9999999999999999
 10
114.6478756741487
 20
101.3179316544458
 30
0.0
 10
114.601939708915
 20
101.3268494170892
 30
0.0
 10
114.4900868983237
 20
101.3485639235934
 30
0.0
 10
114.3728510113725
 20
101.3808168470776
 30
0.0
 10
114.3546216917067
 20
101.4042852450761
 30
0.0
 10
114.3466934040986
 20
101.4144921103045
 30
0.0
  0
LINE
  5
3F8
330
1F
100
AcDbEntity
  8
0
  6
Continuous
 62
     7
370
    15
100
AcDbLine
 10
114.335271664
 20
103.0124190622
 30
0.0
 11
114.335271664
 21
101.4192842306
 31
0.0
  0
LINE
  5
3F9
330
1F
100
AcDbEntity
  8
0
  6
Continuous
 62
     7
370
    15
100
AcDbLine
 10
114.335271664
 20
108.4144480885
 30
0.0
 11
114.3435641602
 21
108.4241133542
 31
0.0
  0
ARC
  5
3FA
330
1F
100
AcDbEntity
  8
0
  6
Continuous
 62
     7
370
    15
100
AcDbCircle
 10
167.0352696256
 20
117.5192840905
 30
0.0
 40
1.0
100
AcDbArc
 50
90.0
 51
180.0
  0
LINE
  5
3FB
330
1F
100
AcDbEntity
  8
0
  6
Continuous
 62
     7
370
    15
100
AcDbLine
 10
177.0352695781
 20
118.5192849846
 30
0.0
 11
167.0352696852
 21
118.5192849846
 31
0.0
  0
LINE
  5
3FC
330
1F
100
AcDbEntity
  8
0
  6
Continuous
 62
     7
370
    15
100
AcDbLine
 10
177.0352695781
 20
73.5192831965
 30
0.0
 11
177.0352695781
 21
118.5192849846
 31
0.0
  0
LINE
  5
3FD
330
1F
100
AcDbEntity
  8
0
  6
Continuous
 62
     7
370
    15
100
AcDbLine
 10
177.0352695781
 20
73.5192831965
 30
0.0
 11
167.0352696852
 21
73.5192831965
 31
0.0
  0
ARC
  5
3FE
330
1F
100
AcDbEntity
  8
0
  6
Continuous
 62
     7
370
    15
100
AcDbCircle
 10
167.0352696256
 20
74.5192840905
 30
0.0
 40
1.0
100
AcDbArc
 50
180.0
 51
270.0
  0
LINE
  5
3FF
330
1F
100
AcDbEntity
  8
0
  6
Continuous
 62
     7
370
    15
100
AcDbLine
 10
166.0352695213
 20
74.5192833604
 30
0.0
 11
166.0352695213
 21
117.5192848207
 31
0.0
  0
CIRCLE
  5
400
330
1F
100
AcDbEntity
  8
0
  6
Continuous
 62
     7
370
    15
100
AcDbCircle
 10
169.8352696256
 20
109.5192840905
 30
0.0
 40
2.050000000000011
  0
CIRCLE
  5
401
330
1F
100
AcDbEntity
  8
0
  6
Continuous
 62
     7
370
    15
100
AcDbCircle
 10
169.8352696256
 20
82.5192840905
 30
0.0
 40
2.049999999999983
  0
LINE
  5
402
330
1F
100
AcDbEntity
  8
0
  6
Continuous
 62
     7
370
    15
100
AcDbLine
 10
179.2352696826
 20
73.5192831965
 30
0.0
 11
179.2352696826
 21
118.5192849846
 31
0.0
  0
LINE
  5
403
330
1F
100
AcDbEntity
  8
0
  6
Continuous
 62
     7
370
    15
100
AcDbLine
 10
179.2352696826
 20
118.5192849846
 30
0.0
 11
177.0352695781
 21
118.5192849846
 31
0.0
  0
LINE
  5
404
330
1F
100
AcDbEntity
  8
0
  6
Continuous
 62
     7
370
    15
100
AcDbLine
 10
179.2352696826
 20
73.5192831965
 30
0.0
 11
177.0352695781
 21
73.5192831965
 31
0.0
  0
CIRCLE
  5
405
330
1F
100
AcDbEntity
  8
0
  6
Continuous
 62
     7
370
    15
100
AcDbCircle
 10
169.8352696256
 20
109.5192840905
 30
0.0
 40
1.588675134594838
  0
CIRCLE
  5
406
330
1F
100
AcDbEntity
  8
0
  6
Continuous
 62
     7
370
    15
100
AcDbCircle
 10
169.8352696256
 20
109.5192840905
 30
0.0
 40
2.000000000000023
  0
CIRCLE
  5
407
330
1F
100
AcDbEntity
  8
0
  6
Continuous
 62
     7
370
    15
100
AcDbCircle
 10
169.8352696256
 20
109.5192840905
 30
0.0
 40
1.300000000000011
  0
ARC
  5
408
330
1F
100
AcDbEntity
  8
0
  6
Continuous
 62
     7
370
    15
100
AcDbCircle
 10
169.8352696256
 20
109.5192840905
 30
0.0
 40
3.999999999999983
100
AcDbArc
 50
161.8051276612
 51
198.1948723388
  0
CIRCLE
  5
409
330
1F
100
AcDbEntity
  8
0
  6
Continuous
 62
     7
370
    15
100
AcDbCircle
 10
169.8352696256
 20
82.5192840905
 30
0.0
 40
1.588675134594808
  0
CIRCLE
  5
40A
330
1F
100
AcDbEntity
  8
0
  6
Continuous
 62
     7
370
    15
100
AcDbCircle
 10
169.8352696256
 20
82.5192840905
 30
0.0
 40
1.999999999999993
  0
CIRCLE
  5
40B
330
1F
100
AcDbEntity
  8
0
  6
Continuous
 62
     7
370
    15
100
AcDbCircle
 10
169.8352696256
 20
82.5192840905
 30
0.0
 40
1.299999999999977
  0
ARC
  5
40C
330
1F
100
AcDbEntity
  8
0
  6
Continuous
 62
     7
370
    15
100
AcDbCircle
 10
169.8352696256
 20
82.5192840905
 30
0.0
 40
3.999999999999983
100
AcDbArc
 50
161.8051276612
 51
198.1948723388
  0
LINE
  5
40D
330
1F
100
AcDbEntity
  8
0
  6
Continuous
 62
     8
370
    15
100
AcDbLine
 10
181.5852696487
 20
81.8192839982
 30
0.0
 11
181.5852696487
 21
74.21928387
 31
0.0
  0
LINE
  5
40E
330
1F
100
AcDbEntity
  8
0
  6
Continuous
 62
     8
370
    15
100
AcDbLine
 10
181.0852695667
 20
81.8192839982
 30
0.0
 11
181.0852695667
 21
74.21928387
 31
0.0
  0
LINE
  5
40F
330
1F
100
AcDbEntity
  8
0
  6
Continuous
 62
     8
370
    15
100
AcDbLine
 10
181.5852696487
 20
117.8192843111
 30
0.0
 11
181.5852696487
 21
110.2192841829
 31
0.0
  0
LINE
  5
410
330
1F
100
AcDbEntity
  8
0
  6
Continuous
 62
     8
370
    15
100
AcDbLine
 10
181.0852695667
 20
117.8192843111
 30
0.0
 11
181.0852695667
 21
110.2192841829
 31
0.0
  0
LINE
  5
411
330
1F
100
AcDbEntity
  8
0
  6
Continuous
 62
     8
370
    15
100
AcDbLine
 10
155.962851964
 20
77.5192838521
 30
0.0
 11
159.1076880173
 21
77.5192838521
 31
0.0
  0
LINE
  5
412
330
1F
100
AcDbEntity
  8
0
  6
Continuous
 62
     8
370
    15
100
AcDbLine
 10
155.962851964
 20
114.519284329
 30
0.0
 11
159.1076880173
 21
114.519284329
 31
0.0
  0
DIMENSION
  5
413
330
1F
100
AcDbEntity
  8
0
  6
Continuous
 62
     7
370
     0
100
AcDbDimension
  2
_D_15
 10
134.0352696256
 20
57.3361000261
 30
0.0
 11
150.9311435148
 21
57.3361000261
 31
0.0
 70
   160
  1
<>
 71
     2
 42
-1.0
  3
SLDDIMSTYLE1
100
AcDbAlignedDimension
 13
164.0352696256
 23
75.0192840905
 33
0.0
 14
134.0352696256
 24
75.0192840905
 34
0.0
 50
0.0
100
AcDbRotatedDimension
  0
DIMENSION
  5
41D
330
1F
100
AcDbEntity
  8
0
  6
Continuous
 62
     7
370
     0
100
AcDbDimension
  2
_D_16
 10
190.2352696256
 20
57.3361000261
 30
0.0
 11
178.7259492525
 21
57.3361000261
 31
0.0
 70
   160
  1
<>
 71
     2
 42
-1.0
  3
SLDDIMSTYLE1
100
AcDbAlignedDimension
 13
164.0352696256
 23
75.0192840905
 33
0.0
 14
190.2352696256
 24
85.0192840908
 34
0.0
100
AcDbRotatedDimension
  0
DIMENSION
  5
427
330
1F
100
AcDbEntity
  8
0
  6
Continuous
 62
     7
370
     0
100
AcDbDimension
  2
_D_17
 10
157.5352696256
 20
65.4498294457
 30
0.0
 11
147.5352696256
 21
65.4498294457
 31
0.0
 70
   160
  1
<>
 71
     2
 42
-1.0
  3
SLDDIMSTYLE1
100
AcDbAlignedDimension
 13
137.5352696256
 23
91.8692840905
 33
0.0
 14
157.5352696256
 24
73.8692840905
 34
0.0
100
AcDbRotatedDimension
  0
DIMENSION
  5
431
330
1F
100
AcDbEntity
  8
0
  6
Continuous
 62
     7
370
     0
100
AcDbDimension
  2
_D_18
 10
149.0592053956
 20
85.8582467698
 30
0.0
 11
149.0592053956
 21
96.7857000507
 31
0.0
 70
   160
  1
<>
 71
     2
 42
-1.0
  3
SLDDIMSTYLE1
100
AcDbAlignedDimension
 13
151.3852696256
 23
105.8582467698
 33
0.0
 14
151.3852696256
 24
85.8582467698
 34
0.0
 50
90.0
100
AcDbRotatedDimension
  0
DIMENSION
  5
43B
330
1F
100
AcDbEntity
  8
0
  6
Continuous
 62
     7
370
     0
100
AcDbDimension
  2
_D_19
 10
128.7699296271
 20
78.0192840905
 30
0.0
 11
128.7699296271
 21
96.7857000507
 31
0.0
 70
   160
  1
<>
 71
     2
 42
-1.0
  3
SLDDIMSTYLE1
100
AcDbAlignedDimension
 13
153.3852696256
 23
114.0192840905
 33
0.0
 14
153.3852696256
 24
78.0192840905
 34
0.0
 50
90.0
100
AcDbRotatedDimension
  0
DIMENSION
  5
445
330
1F
100
AcDbEntity
  8
0
  6
Continuous
 62
     7
370
     0
100
AcDbDimension
  2
_D_20
 10
157.5352696256
 20
125.4568833643
 30
0.0
 11
149.0592053956
 21
125.4568833643
 31
0.0
 70
   160
  1
<>
 71
     2
 42
-1.0
  3
SLDDIMSTYLE0
100
AcDbAlignedDimension
 13
155.5352696256
 23
110.0082467698
 33
0.0
 14
157.5352696256
 24
118.1692840905
 34
0.0
100
AcDbRotatedDimension
  0
DIMENSION
  5
451
330
1F
100
AcDbEntity
  8
0
  6
Continuous
 62
     7
370
     0
100
AcDbDimension
  2
_D_21
 10
157.5352696256
 20
132.3035337051
 30
0.0
 11
139.0692460529
 21
132.3035337051
 31
0.0
 70
   160
  1
<>
 71
     2
 42
-1.0
  3
SLDDIMSTYLE1
100
AcDbAlignedDimension
 13
117.5352696256
 23
111.5192840905
 33
0.0
 14
157.5352696256
 24
118.1692840905
 34
0.0
100
AcDbRotatedDimension
  0
DIMENSION
  5
45B
330
1F
100
AcDbEntity
  8
0
  6
Continuous
 62
     7
370
     0
100
AcDbDimension
  2
_D_22
 10
190.2352696256
 20
132.3035337051
 30
0.0
 11
176.6314931815
 21
132.3035337051
 31
0.0
 70
   160
  1
<>
 71
     2
 42
-1.0
  3
SLDDIMSTYLE1
100
AcDbAlignedDimension
 13
157.5352696256
 23
118.1692840905
 33
0.0
 14
190.2352696256
 24
107.0192840905
 34
0.0
 50
0.0
100
AcDbRotatedDimension
  0
MTEXT
  5
465
330
1F
100
AcDbEntity
  8
0
  6
Continuous
 62
     7
370
     0
100
AcDbMText
 10
63.8807561709
 20
109.5787461486
 30
0.0
 40
3.5
 41
0.0
 71
     1
 72
     1
  1
ストローク調整
  7
SLDTEXTSTYLE0
 73
     1
 44
1.0
  0
LEADER
  5
467
330
1F
100
AcDbEntity
  8
0
  6
Continuous
 62
     7
370
     0
100
AcDbLeader
  3
SLDDIMSTYLE2
 76
     3
 10
110.8668372179
 20
105.1227882713
 30
0.0
 10
92.2936694021
 20
105.041031653
 30
0.0
 10
63.774912075
 20
105.041031653
 30
0.0
  0
MTEXT
  5
468
330
1F
100
AcDbEntity
  8
0
  6
Continuous
 62
     7
370
     0
100
AcDbMText
 10
81.9434122763
 20
130.8369393543
 30
0.0
 40
3.5
 41
0.0
 71
     1
 72
     1
  1
6-M4 取付用
  7
SLDTEXTSTYLE0
 73
     1
 44
1.0
  0
LEADER
  5
46A
330
1F
100
AcDbEntity
  8
0
  6
Continuous
 62
     7
370
     0
100
AcDbLeader
  3
SLDDIMSTYLE3
 76
     3
 10
154.398246773
 20
107.0539386334
 30
0.0
 10
109.4097303634
 20
126.2602579132
 30
0.0
 10
81.8288393904
 20
126.2602579132
 30
0.0
  0
INSERT
  5
476
330
1F
100
AcDbEntity
  8
0
  6
Continuous
 62
     7
370
     0
100
AcDbBlockReference
  2
SW_CENTERMARKSYMBOL_8
 10
157.5352696256
 20
114.0192840905
 30
0.0
  0
INSERT
  5
482
330
1F
100
AcDbEntity
  8
0
  6
Continuous
 62
     7
370
     0
100
AcDbBlockReference
  2
SW_CENTERMARKSYMBOL_9
 10
155.5352696256
 20
105.8582467698
 30
0.0
  0
INSERT
  5
48E
330
1F
100
AcDbEntity
  8
0
  6
Continuous
 62
     7
370
     0
100
AcDbBlockReference
  2
SW_CENTERMARKSYMBOL_10
 10
157.5352696256
 20
96.0192840905
 30
0.0
  0
INSERT
  5
49A
330
1F
100
AcDbEntity
  8
0
  6
Continuous
 62
     7
370
     0
100
AcDbBlockReference
  2
SW_CENTERMARKSYMBOL_11
 10
155.5352696256
 20
85.8582467698
 30
0.0
  0
INSERT
  5
4A6
330
1F
100
AcDbEntity
  8
0
  6
Continuous
 62
     7
370
     0
100
AcDbBlockReference
  2
SW_CENTERMARKSYMBOL_12
 10
157.5352696256
 20
78.0192840905
 30
0.0
  0
INSERT
  5
4B2
330
1F
100
AcDbEntity
  8
0
  6
Continuous
 62
     7
370
     0
100
AcDbBlockReference
  2
SW_CENTERMARKSYMBOL_13
 10
137.5352696256
 20
96.0192840905
 30
0.0
  0
LINE
  5
4B3
330
1F
100
AcDbEntity
  8
0
  6
CENTERX2
 62
     7
370
     0
100
AcDbLine
 10
131.7066110751
 20
95.9870594668
 30
0.0
 11
140.5352696256
 21
95.9870594668
 31
0.0
  0
ENDSEC
  0
SECTION
  2
OBJECTS
  0
DICTIONARY
  5
C
330
0
100
AcDbDictionary
281
     1
  3
ACAD_GROUP
350
D
  3
ACAD_LAYOUT
350
1A
  3
ACAD_MLINESTYLE
350
17
  3
ACAD_PLOTSETTINGS
350
19
  3
ACAD_PLOTSTYLENAME
350
E
  0
DICTIONARY
  5
D
102
{ACAD_REACTORS
330
C
102
}
330
C
100
AcDbDictionary
281
     1
  0
DICTIONARY
  5
1A
102
{ACAD_REACTORS
330
C
102
}
330
C
100
AcDbDictionary
281
     1
  3
Layout1
350
1E
  3
Layout2
350
26
  3
Model
350
22
  0
DICTIONARY
  5
17
102
{ACAD_REACTORS
330
C
102
}
330
C
100
AcDbDictionary
281
     1
  3
Standard
350
18
  0
DICTIONARY
  5
19
102
{ACAD_REACTORS
330
C
102
}
330
C
100
AcDbDictionary
281
     1
  0
ACDBDICTIONARYWDFLT
  5
E
102
{ACAD_REACTORS
330
C
102
}
330
C
100
AcDbDictionary
281
     1
  3
Normal
350
F
100
AcDbDictionaryWithDefault
340
F
  0
LAYOUT
  5
1E
102
{ACAD_REACTORS
330
1A
102
}
330
1A
100
AcDbPlotSettings
  1

  2
none_device
  4

  6

 40
0.0
 41
0.0
 42
0.0
 43
0.0
 44
0.0
 45
0.0
 46
0.0
 47
0.0
 48
0.0
 49
0.0
140
0.0
141
0.0
142
1.0
143
1.0
 70
   688
 72
     0
 73
     0
 74
     5
  7

 75
    16
147
1.0
148
0.0
149
0.0
100
AcDbLayout
  1
Layout1
 70
     1
 71
     1
 10
0.0
 20
0.0
 11
420.0
 21
297.0
 12
0.0
 22
0.0
 32
0.0
 14
1.0000000000E+20
 24
1.0000000000E+20
 34
1.0000000000E+20
 15
-1.0000000000E+20
 25
-1.0000000000E+20
 35
-1.0000000000E+20
146
0.0
 13
0.0
 23
0.0
 33
0.0
 16
1.0
 26
0.0
 36
0.0
 17
0.0
 27
1.0
 37
0.0
 76
     0
330
1B
  0
LAYOUT
  5
26
102
{ACAD_REACTORS
330
1A
102
}
330
1A
100
AcDbPlotSettings
  1

  2
none_device
  4

  6

 40
0.0
 41
0.0
 42
0.0
 43
0.0
 44
0.0
 45
0.0
 46
0.0
 47
0.0
 48
0.0
 49
0.0
140
0.0
141
0.0
142
1.0
143
1.0
 70
   688
 72
     0
 73
     0
 74
     5
  7

 75
    16
147
1.0
148
0.0
149
0.0
100
AcDbLayout
  1
Layout2
 70
     1
 71
     2
 10
0.0
 20
0.0
 11
0.0
 21
0.0
 12
0.0
 22
0.0
 32
0.0
 14
0.0
 24
0.0
 34
0.0
 15
0.0
 25
0.0
 35
0.0
146
0.0
 13
0.0
 23
0.0
 33
0.0
 16
1.0
 26
0.0
 36
0.0
 17
0.0
 27
1.0
 37
0.0
 76
     0
330
23
  0
LAYOUT
  5
22
102
{ACAD_REACTORS
330
1A
102
}
330
1A
100
AcDbPlotSettings
  1

  2
none_device
  4

  6

 40
0.0
 41
0.0
 42
0.0
 43
0.0
 44
0.0
 45
0.0
 46
0.0
 47
0.0
 48
0.0
 49
0.0
140
0.0
141
0.0
142
1.0
143
1.0
 70
  1712
 72
     0
 73
     0
 74
     0
  7

 75
     0
147
1.0
148
0.0
149
0.0
100
AcDbLayout
  1
Model
 70
     1
 71
     0
 10
0.0
 20
0.0
 11
210.0
 21
297.0
 12
0.0
 22
0.0
 32
0.0
 14
0.0
 24
0.0
 34
0.0
 15
210.0
 25
297.0
 35
0.0
146
0.0
 13
0.0
 23
0.0
 33
0.0
 16
1.0
 26
0.0
 36
0.0
 17
0.0
 27
1.0
 37
0.0
 76
     0
330
1F
331
29
  0
MLINESTYLE
  5
18
102
{ACAD_REACTORS
330
17
102
}
330
17
100
AcDbMlineStyle
  2
Standard
 70
     0
  3

 62
   256
 51
90.0
 52
90.0
 71
     2
 49
0.5
 62
   256
  6
BYLAYER
 49
-0.5
 62
   256
  6
BYLAYER
  0
ACDBPLACEHOLDER
  5
F
102
{ACAD_REACTORS
330
E
102
}
330
E
  0
ENDSEC
  0
EOF
