  0
SECTION
  2
HEADER
  9
$ACADVER
  1
AC1015
  9
$ACADMAINTVER
 70
     6
  9
$DWGCODEPAGE
  3
DOS932
  9
$INSBASE
 10
0.0
 20
0.0
 30
0.0
  9
$EXTMIN
 10
0.0
 20
0.0
 30
0.0
  9
$EXTMAX
 10
210.0
 20
297.0
 30
0.0
  9
$LIMMIN
 10
0.0
 20
0.0
  9
$LIMMAX
 10
0.0
 20
0.0
  9
$ORTHOMODE
 70
     0
  9
$REGENMODE
 70
     1
  9
$FILLMODE
 70
     1
  9
$QTEXTMODE
 70
     0
  9
$MIRRTEXT
 70
     1
  9
$LTSCALE
 40
1.0
  9
$ATTMODE
 70
     1
  9
$TEXTSIZE
 40
3.5
  9
$TRACEWID
 40
1.0
  9
$TEXTSTYLE
  7
Standard
  9
$CLAYER
  8
0
  9
$CELTYPE
  6
ByLayer
  9
$CECOLOR
 62
   256
  9
$CELTSCALE
 40
1.0
  9
$DISPSILH
 70
     0
  9
$DIMSCALE
 40
1.0
  9
$DIMASZ
 40
3.0
  9
$DIMEXO
 40
1.0
  9
$DIMDLI
 40
3.75
  9
$DIMRND
 40
0.0
  9
$DIMDLE
 40
0.0
  9
$DIMEXE
 40
1.0
  9
$DIMTP
 40
0.0
  9
$DIMTM
 40
0.0
  9
$DIMTXT
 40
3.5
  9
$DIMCEN
 40
2.5
  9
$DIMTSZ
 40
0.0
  9
$DIMTOL
 70
     0
  9
$DIMLIM
 70
     0
  9
$DIMTIH
 70
     1
  9
$DIMTOH
 70
     1
  9
$DIMSE1
 70
     0
  9
$DIMSE2
 70
     0
  9
$DIMTAD
 70
     1
  9
$DIMZIN
 70
     0
  9
$DIMBLK
  1

  9
$DIMASO
 70
     1
  9
$DIMSHO
 70
     1
  9
$DIMPOST
  1

  9
$DIMAPOST
  1

  9
$DIMALT
 70
     0
  9
$DIMALTD
 70
     3
  9
$DIMALTF
 40
0.0393700787
  9
$DIMLFAC
 40
1.0
  9
$DIMTOFL
 70
     1
  9
$DIMTVP
 40
0.0
  9
$DIMTIX
 70
     0
  9
$DIMSOXD
 70
     0
  9
$DIMSAH
 70
     0
  9
$DIMBLK1
  1

  9
$DIMBLK2
  1

  9
$DIMSTYLE
  2
ISO-25
  9
$DIMCLRD
 70
     0
  9
$DIMCLRE
 70
     0
  9
$DIMCLRT
 70
     0
  9
$DIMTFAC
 40
1.0
  9
$DIMGAP
 40
1.524
  9
$DIMJUST
 70
     0
  9
$DIMSD1
 70
     0
  9
$DIMSD2
 70
     0
  9
$DIMTOLJ
 70
     0
  9
$DIMTZIN
 70
     0
  9
$DIMALTZ
 70
     0
  9
$DIMALTTZ
 70
     0
  9
$DIMUPT
 70
     0
  9
$DIMDEC
 70
     2
  9
$DIMTDEC
 70
     2
  9
$DIMALTU
 70
     2
  9
$DIMALTTD
 70
     3
  9
$DIMTXSTY
  7
Standard
  9
$DIMAUNIT
 70
     0
  9
$DIMADEC
 70
     0
  9
$DIMALTRND
 40
0.0
  9
$DIMAZIN
 70
     0
  9
$DIMDSEP
 70
    44
  9
$DIMATFIT
 70
     3
  9
$DIMFRAC
 70
     0
  9
$DIMLDRBLK
  1

  9
$DIMLUNIT
 70
     2
  9
$DIMLWD
 70
    -2
  9
$DIMLWE
 70
    -2
  9
$DIMTMOVE
 70
     0
  9
$LUNITS
 70
     2
  9
$LUPREC
 70
     1
  9
$SKETCHINC
 40
1.0
  9
$FILLETRAD
 40
10.0
  9
$AUNITS
 70
     0
  9
$AUPREC
 70
     0
  9
$MENU
  1
.
  9
$ELEVATION
 40
0.0
  9
$PELEVATION
 40
0.0
  9
$THICKNESS
 40
0.0
  9
$LIMCHECK
 70
     0
  9
$CHAMFERA
 40
10.0
  9
$CHAMFERB
 40
10.0
  9
$CHAMFERC
 40
20.0
  9
$CHAMFERD
 40
0.0
  9
$SKPOLY
 70
     0
  9
$TDCREATE
 40
2455355.587849387
  9
$TDUCREATE
 40
2455355.212849387
  9
$TDUPDATE
 40
2455355.587849398
  9
$TDUUPDATE
 40
2455355.212849398
  9
$TDINDWG
 40
0.0000000116
  9
$TDUSRTIMER
 40
0.0000000116
  9
$USRTIMER
 70
     1
  9
$ANGBASE
 50
0.0
  9
$ANGDIR
 70
     0
  9
$PDMODE
 70
     0
  9
$PDSIZE
 40
-1.0
  9
$PLINEWID
 40
0.0
  9
$SPLFRAME
 70
     0
  9
$SPLINETYPE
 70
     6
  9
$SPLINESEGS
 70
     8
  9
$HANDSEED
  5
230
  9
$SURFTAB1
 70
     6
  9
$SURFTAB2
 70
     6
  9
$SURFTYPE
 70
     6
  9
$SURFU
 70
     6
  9
$SURFV
 70
     6
  9
$UCSBASE
  2

  9
$UCSNAME
  2

  9
$UCSORG
 10
0.0
 20
0.0
 30
0.0
  9
$UCSXDIR
 10
1.0
 20
0.0
 30
0.0
  9
$UCSYDIR
 10
0.0
 20
1.0
 30
0.0
  9
$UCSORTHOREF
  2

  9
$UCSORTHOVIEW
 70
     0
  9
$UCSORGTOP
 10
0.0
 20
0.0
 30
0.0
  9
$UCSORGBOTTOM
 10
0.0
 20
0.0
 30
0.0
  9
$UCSORGLEFT
 10
0.0
 20
0.0
 30
0.0
  9
$UCSORGRIGHT
 10
0.0
 20
0.0
 30
0.0
  9
$UCSORGFRONT
 10
0.0
 20
0.0
 30
0.0
  9
$UCSORGBACK
 10
0.0
 20
0.0
 30
0.0
  9
$PUCSBASE
  2

  9
$PUCSNAME
  2

  9
$PUCSORG
 10
0.0
 20
0.0
 30
0.0
  9
$PUCSXDIR
 10
1.0
 20
0.0
 30
0.0
  9
$PUCSYDIR
 10
0.0
 20
1.0
 30
0.0
  9
$PUCSORTHOREF
  2

  9
$PUCSORTHOVIEW
 70
     0
  9
$PUCSORGTOP
 10
0.0
 20
0.0
 30
0.0
  9
$PUCSORGBOTTOM
 10
0.0
 20
0.0
 30
0.0
  9
$PUCSORGLEFT
 10
0.0
 20
0.0
 30
0.0
  9
$PUCSORGRIGHT
 10
0.0
 20
0.0
 30
0.0
  9
$PUCSORGFRONT
 10
0.0
 20
0.0
 30
0.0
  9
$PUCSORGBACK
 10
0.0
 20
0.0
 30
0.0
  9
$USERI1
 70
     0
  9
$USERI2
 70
     0
  9
$USERI3
 70
     0
  9
$USERI4
 70
     0
  9
$USERI5
 70
     0
  9
$USERR1
 40
0.0
  9
$USERR2
 40
0.0
  9
$USERR3
 40
0.0
  9
$USERR4
 40
0.0
  9
$USERR5
 40
0.0
  9
$WORLDVIEW
 70
     1
  9
$SHADEDGE
 70
     3
  9
$SHADEDIF
 70
    70
  9
$TILEMODE
 70
     1
  9
$MAXACTVP
 70
    64
  9
$PINSBASE
 10
0.0
 20
0.0
 30
0.0
  9
$PLIMCHECK
 70
     0
  9
$PEXTMIN
 10
1.0000000000E+20
 20
1.0000000000E+20
 30
1.0000000000E+20
  9
$PEXTMAX
 10
-1.0000000000E+20
 20
-1.0000000000E+20
 30
-1.0000000000E+20
  9
$PLIMMIN
 10
0.0
 20
0.0
  9
$PLIMMAX
 10
420.0
 20
297.0
  9
$UNITMODE
 70
     0
  9
$VISRETAIN
 70
     1
  9
$PLINEGEN
 70
     0
  9
$PSLTSCALE
 70
     1
  9
$TREEDEPTH
 70
  3020
  9
$CMLSTYLE
  2
Standard
  9
$CMLJUST
 70
     0
  9
$CMLSCALE
 40
20.0
  9
$PROXYGRAPHICS
 70
     1
  9
$MEASUREMENT
 70
     1
  9
$CELWEIGHT
370
    -1
  9
$ENDCAPS
280
     0
  9
$JOINSTYLE
280
     0
  9
$LWDISPLAY
290
     1
  9
$INSUNITS
 70
     4
  9
$HYPERLINKBASE
  1

  9
$STYLESHEET
  1

  9
$XEDIT
290
     1
  9
$CEPSNTYPE
380
     0
  9
$PSTYLEMODE
290
     1
  9
$FINGERPRINTGUID
  2
{A81B3796-3469-48A2-84B8-608062BBE8A1}
  9
$VERSIONGUID
  2
{FAEB1C32-E019-11D5-929B-00C0DF256EC4}
  9
$EXTNAMES
290
     1
  9
$PSVPSCALE
 40
0.0
  9
$OLESTARTUP
290
     0
  0
ENDSEC
  0
SECTION
  2
CLASSES
  0
CLASS
  1
ACDBDICTIONARYWDFLT
  2
AcDbDictionaryWithDefault
  3
ObjectDBX Classes
 90
        0
280
     0
281
     0
  0
CLASS
  1
ACDBPLACEHOLDER
  2
AcDbPlaceHolder
  3
ObjectDBX Classes
 90
        0
280
     0
281
     0
  0
CLASS
  1
LAYOUT
  2
AcDbLayout
  3
ObjectDBX Classes
 90
        0
280
     0
281
     0
  0
ENDSEC
  0
SECTION
  2
TABLES
  0
TABLE
  2
VPORT
  5
8
330
0
100
AcDbSymbolTable
 70
     1
  0
VPORT
  5
29
330
8
100
AcDbSymbolTableRecord
100
AcDbViewportTableRecord
  2
*Active
 70
     0
 10
0.0
 20
0.0
 11
1.0
 21
1.0
 12
105.0
 22
148.5
 13
0.0
 23
0.0
 14
10.0
 24
10.0
 15
10.0
 25
10.0
 16
0.0
 26
0.0
 36
1.0
 17
0.0
 27
0.0
 37
0.0
 40
297.0
 41
1.9729729729
 42
50.0
 43
0.0
 44
0.0
 50
0.0
 51
0.0
 71
     0
 72
  2000
 73
     1
 74
     3
 75
     0
 76
     0
 77
     0
 78
     0
281
     0
 65
     1
110
0.0
120
0.0
130
0.0
111
1.0
121
0.0
131
0.0
112
0.0
122
1.0
132
0.0
 79
     0
146
0.0
  0
ENDTAB
  0
TABLE
  2
LTYPE
  5
5
330
0
100
AcDbSymbolTable
 70
     6
  0
LTYPE
  5
14
330
5
100
AcDbSymbolTableRecord
100
AcDbLinetypeTableRecord
  2
ByBlock
 70
     0
  3

 72
    65
 73
     0
 40
0.0
  0
LTYPE
  5
15
330
5
100
AcDbSymbolTableRecord
100
AcDbLinetypeTableRecord
  2
ByLayer
 70
     0
  3

 72
    65
 73
     0
 40
0.0
  0
LTYPE
  5
16
330
5
100
AcDbSymbolTableRecord
100
AcDbLinetypeTableRecord
  2
Continuous
 70
     0
  3
Solid line
 72
    65
 73
     0
 40
0.0
  0
LTYPE
  5
2A
330
5
100
AcDbSymbolTableRecord
100
AcDbLinetypeTableRecord
  2
HIDDEN
 70
     0
  3
Hidden __ __ __ __ __ __ __ __ __ __ __ __ __ __
 72
    65
 73
     2
 40
1.905
 49
1.27
 74
     0
 49
-0.635
 74
     0
  0
LTYPE
  5
2B
330
5
100
AcDbSymbolTableRecord
100
AcDbLinetypeTableRecord
  2
PHANTOM
 70
     0
  3
Phantom ______  __  __  ______  __  __  ______
 72
    65
 73
     6
 40
12.7
 49
6.35
 74
     0
 49
-1.27
 74
     0
 49
1.27
 74
     0
 49
-1.27
 74
     0
 49
1.27
 74
     0
 49
-1.27
 74
     0
  0
LTYPE
  5
2C
330
5
100
AcDbSymbolTableRecord
100
AcDbLinetypeTableRecord
  2
CENTER
 70
     0
  3
Center ____ _ ____ _ ____ _ ____ _ ____ _ ____
 72
    65
 73
     4
 40
10.16
 49
6.35
 74
     0
 49
-1.27
 74
     0
 49
1.27
 74
     0
 49
-1.27
 74
     0
  0
LTYPE
  5
2D
330
5
100
AcDbSymbolTableRecord
100
AcDbLinetypeTableRecord
  2
CENTERX2
 70
     0
  3
Center (2x) ________  __  ________  __  _____
 72
    65
 73
     4
 40
20.32
 49
12.7
 74
     0
 49
-2.54
 74
     0
 49
2.54
 74
     0
 49
-2.54
 74
     0
  0
LTYPE
  5
2E
330
5
100
AcDbSymbolTableRecord
100
AcDbLinetypeTableRecord
  2
DOT2
 70
     0
  3
Dot (.5x) ........................................
 72
    65
 73
     2
 40
0.635
 49
0.0
 74
     0
 49
-0.635
 74
     0
  0
ENDTAB
  0
TABLE
  2
LAYER
  5
2
330
0
100
AcDbSymbolTable
 70
     2
  0
LAYER
  5
10
330
2
100
AcDbSymbolTableRecord
100
AcDbLayerTableRecord
  2
0
 70
     0
 62
     7
  6
Continuous
370
    -3
390
F
  0
LAYER
  5
127
330
2
100
AcDbSymbolTableRecord
100
AcDbLayerTableRecord
  2
Defpoints
 70
     0
 62
     7
  6
Continuous
290
     0
370
    -3
390
F
  0
ENDTAB
  0
TABLE
  2
STYLE
  5
3
330
0
100
AcDbSymbolTable
 70
     2
  0
STYLE
  5
11
330
3
100
AcDbSymbolTableRecord
100
AcDbTextStyleTableRecord
  2
Standard
 70
     0
 40
0.0
 41
1.0
 50
0.0
 71
     0
 42
2.5
  3
txt
  4
bigfont
  0
STYLE
  5
37
330
3
100
AcDbSymbolTableRecord
100
AcDbTextStyleTableRecord
  2
SLDTEXTSTYLE0
 70
     0
 40
0.0
 41
0.7
 50
0.0
 71
     0
 42
0.2
  3
TXT
  4
bigfont
  0
ENDTAB
  0
TABLE
  2
VIEW
  5
6
330
0
100
AcDbSymbolTable
 70
     0
  0
ENDTAB
  0
TABLE
  2
UCS
  5
7
330
0
100
AcDbSymbolTable
 70
     0
  0
ENDTAB
  0
TABLE
  2
APPID
  5
9
330
0
100
AcDbSymbolTable
 70
     1
  0
APPID
  5
12
330
9
100
AcDbSymbolTableRecord
100
AcDbRegAppTableRecord
  2
ACAD
 70
     0
  0
ENDTAB
  0
TABLE
  2
DIMSTYLE
  5
A
330
0
100
AcDbSymbolTable
 70
     3
100
AcDbDimStyleTable
  0
DIMSTYLE
105
27
330
A
100
AcDbSymbolTableRecord
100
AcDbDimStyleTableRecord
  2
ISO-25
 70
     0
 41
2.5
 42
0.625
 43
3.75
 44
1.25
 73
     0
 74
     0
 77
     1
 78
     8
140
2.5
141
2.5
143
0.0393700787
147
0.625
171
     3
172
     1
271
     2
272
     2
274
     3
278
    44
283
     0
284
     8
340
11
  0
DIMSTYLE
105
134
102
{ACAD_REACTORS
330
126
330
141
330
1C9
330
21A
102
}
330
A
100
AcDbSymbolTableRecord
100
AcDbDimStyleTableRecord
  2
SLDDIMSTYLE0
 70
     0
 41
3.0
 44
0.0
 73
     0
 74
     0
 77
     3
 78
    12
140
3.5
147
0.875
173
     1
271
     1
272
     3
284
    12
340
37
341
135
343
135
344
135
  0
DIMSTYLE
105
156
330
A
100
AcDbSymbolTableRecord
100
AcDbDimStyleTableRecord
  2
SLDDIMSTYLE1
 70
     0
 41
3.0
 44
0.0
140
3.0
147
0.75
173
     1
271
     0
272
     0
340
11
341
135
343
135
344
135
  0
ENDTAB
  0
TABLE
  2
BLOCK_RECORD
  5
1
330
0
100
AcDbSymbolTable
 70
     6
  0
BLOCK_RECORD
  5
1F
330
1
100
AcDbSymbolTableRecord
100
AcDbBlockTableRecord
  2
*Model_Space
340
22
  0
BLOCK_RECORD
  5
1B
330
1
100
AcDbSymbolTableRecord
100
AcDbBlockTableRecord
  2
*Paper_Space
340
1E
  0
BLOCK_RECORD
  5
23
330
1
100
AcDbSymbolTableRecord
100
AcDbBlockTableRecord
  2
*Paper_Space0
340
26
  0
BLOCK_RECORD
  5
128
330
1
100
AcDbSymbolTableRecord
100
AcDbBlockTableRecord
  2
*D1
340
0
  0
BLOCK_RECORD
  5
135
330
1
100
AcDbSymbolTableRecord
100
AcDbBlockTableRecord
  2
_Open30
340
0
102
{BLKREFS
331
12D
331
12C
331
13B
331
13C
331
147
331
146
331
14F
331
150
331
1CF
331
1CE
331
1D7
331
1D8
331
220
331
21F
331
22A
331
22B
102
}
  0
BLOCK_RECORD
  5
142
330
1
100
AcDbSymbolTableRecord
100
AcDbBlockTableRecord
  2
*D3
340
0
  0
BLOCK_RECORD
  5
1CA
330
1
100
AcDbSymbolTableRecord
100
AcDbBlockTableRecord
  2
*D4
340
0
  0
BLOCK_RECORD
  5
21B
330
1
100
AcDbSymbolTableRecord
100
AcDbBlockTableRecord
  2
*D5
340
0
  0
ENDTAB
  0
ENDSEC
  0
SECTION
  2
BLOCKS
  0
BLOCK
  5
20
330
1F
100
AcDbEntity
  8
0
100
AcDbBlockBegin
  2
*Model_Space
 70
     0
 71
     0
 10
0.0
 20
0.0
 30
0.0
  3
*Model_Space
  1

  0
ENDBLK
  5
21
330
1F
100
AcDbEntity
  8
0
100
AcDbBlockEnd
  0
BLOCK
  5
1C
330
1B
100
AcDbEntity
 67
     1
  8
0
100
AcDbBlockBegin
  2
*Paper_Space
 70
     0
 71
     0
 10
0.0
 20
0.0
 30
0.0
  3
*Paper_Space
  1

  0
ENDBLK
  5
1D
330
1B
100
AcDbEntity
 67
     1
  8
0
100
AcDbBlockEnd
  0
BLOCK
  5
24
330
23
100
AcDbEntity
  8
0
100
AcDbBlockBegin
  2
*Paper_Space0
 70
     0
 71
     0
 10
0.0
 20
0.0
 30
0.0
  3
*Paper_Space0
  1

  0
ENDBLK
  5
25
330
23
100
AcDbEntity
  8
0
100
AcDbBlockEnd
  0
BLOCK
  5
132
330
128
100
AcDbEntity
  8
0
100
AcDbBlockBegin
  2
*D1
 70
     1
 71
     0
 10
0.0
 20
0.0
 30
0.0
  3
*D1
  1

  0
INSERT
  5
13B
330
128
100
AcDbEntity
  8
0
  6
Continuous
 62
     7
370
     0
100
AcDbBlockReference
  2
_Open30
 10
37.8530576377
 20
208.1581728459
 30
25.9054409656
 41
3.0
 42
3.0
 50
180.0
  0
INSERT
  5
13C
330
128
100
AcDbEntity
  8
0
  6
Continuous
 62
     7
370
     0
100
AcDbBlockReference
  2
_Open30
 10
129.8525576377
 20
208.1581728459
 30
25.9054409656
 41
3.0
 42
3.0
 50
0.0
  0
LINE
  5
13D
330
128
100
AcDbEntity
  8
0
  6
Continuous
 62
     7
370
     0
100
AcDbLine
 10
37.8530576377
 20
189.0983629624
 30
0.0
 11
37.8530576377
 21
209.1581728459
 31
0.0
  0
LINE
  5
13E
330
128
100
AcDbEntity
  8
0
  6
Continuous
 62
     7
370
     0
100
AcDbLine
 10
129.8525576377
 20
189.0983629624
 30
0.0
 11
129.8525576377
 21
209.1581728459
 31
0.0
  0
LINE
  5
13F
330
128
100
AcDbEntity
  8
0
  6
Continuous
 62
     7
370
     0
100
AcDbLine
 10
37.8530576377
 20
208.1581728459
 30
0.0
 11
129.8525576377
 21
208.1581728459
 31
0.0
  0
MTEXT
  5
140
330
128
100
AcDbEntity
  8
0
  6
Continuous
 62
     7
370
     0
100
AcDbMText
 10
81.8164570406
 20
212.2308998858
 30
0.0
 40
3.5
 41
0.0
 71
     1
 72
     1
  1
92
  7
SLDTEXTSTYLE0
 73
     1
 44
1.0
  0
ENDBLK
  5
133
330
128
100
AcDbEntity
  8
0
100
AcDbBlockEnd
  0
BLOCK
  5
136
330
135
100
AcDbEntity
  8
0
100
AcDbBlockBegin
  2
_Open30
 70
     0
 71
     0
 10
0.0
 20
0.0
 30
0.0
  3
_Open30
  1

  0
LINE
  5
138
330
135
100
AcDbEntity
  8
0
  6
ByBlock
 62
     0
370
    -2
100
AcDbLine
 10
-1.0
 20
0.267949
 30
0.0
 11
0.0
 21
0.0
 31
0.0
  0
LINE
  5
139
330
135
100
AcDbEntity
  8
0
  6
ByBlock
 62
     0
370
    -2
100
AcDbLine
 10
0.0
 20
0.0
 30
0.0
 11
-1.0
 21
-0.267949
 31
0.0
  0
LINE
  5
13A
330
135
100
AcDbEntity
  8
0
  6
ByBlock
 62
     0
370
    -2
100
AcDbLine
 10
0.0
 20
0.0
 30
0.0
 11
-1.0
 21
0.0
 31
0.0
  0
ENDBLK
  5
137
330
135
100
AcDbEntity
  8
0
100
AcDbBlockEnd
  0
BLOCK
  5
14D
330
142
100
AcDbEntity
  8
0
100
AcDbBlockBegin
  2
*D3
 70
     1
 71
     0
 10
0.0
 20
0.0
 30
0.0
  3
*D3
  1

  0
INSERT
  5
14F
330
142
100
AcDbEntity
  8
0
  6
Continuous
 62
     7
370
     0
100
AcDbBlockReference
  2
_Open30
 10
29.9700147205
 20
191.0983629624
 30
25.9054409656
 41
3.0
 42
3.0
 50
90.0
  0
INSERT
  5
150
330
142
100
AcDbEntity
  8
0
  6
Continuous
 62
     7
370
     0
100
AcDbBlockReference
  2
_Open30
 10
29.9700147205
 20
172.0983629624
 30
25.9054409656
 41
3.0
 42
3.0
 50
270.0
  0
LINE
  5
151
330
142
100
AcDbEntity
  8
0
  6
Continuous
 62
     7
370
     0
100
AcDbLine
 10
77.8525576377
 20
191.0983629624
 30
0.0
 11
28.9700147205
 21
191.0983629624
 31
0.0
  0
LINE
  5
152
330
142
100
AcDbEntity
  8
0
  6
Continuous
 62
     7
370
     0
100
AcDbLine
 10
36.8530576377
 20
172.0983629624
 30
0.0
 11
28.9700147205
 21
172.0983629624
 31
0.0
  0
LINE
  5
153
330
142
100
AcDbEntity
  8
0
  6
Continuous
 62
     7
370
     0
100
AcDbLine
 10
29.9700147205
 20
191.0983629624
 30
0.0
 11
29.9700147205
 21
172.0983629624
 31
0.0
  0
MTEXT
  5
154
330
142
100
AcDbEntity
  8
0
  6
Continuous
 62
     7
370
     0
100
AcDbMText
 10
25.8972876806
 20
179.5620123653
 30
0.0
 40
3.5
 41
0.0
 71
     1
 72
     1
  1
19
  7
SLDTEXTSTYLE0
 11
-4.379661780809507E-15
 21
1.0
 31
0.0
 73
     1
 44
1.0
  0
ENDBLK
  5
14E
330
142
100
AcDbEntity
  8
0
100
AcDbBlockEnd
  0
BLOCK
  5
1D5
330
1CA
100
AcDbEntity
  8
0
100
AcDbBlockBegin
  2
*D4
 70
     1
 71
     0
 10
0.0
 20
0.0
 30
0.0
  3
*D4
  1

  0
INSERT
  5
1D7
330
1CA
100
AcDbEntity
  8
0
  6
Continuous
 62
     7
370
     0
100
AcDbBlockReference
  2
_Open30
 10
32.5105213503
 20
108.5850130746
 30
-10.2037585649
 41
3.0
 42
3.0
 50
270.0
  0
INSERT
  5
1D8
330
1CA
100
AcDbEntity
  8
0
  6
Continuous
 62
     7
370
     0
100
AcDbBlockReference
  2
_Open30
 10
32.5105213503
 20
88.0850130746
 30
-10.2037585649
 41
3.0
 42
3.0
 50
90.0
  0
LINE
  5
1D9
330
1CA
100
AcDbEntity
  8
0
  6
Continuous
 62
     7
370
     0
100
AcDbLine
 10
44.9165659646
 20
108.5850130746
 30
0.0
 11
31.5105213503
 21
108.5850130746
 31
0.0
  0
LINE
  5
1DA
330
1CA
100
AcDbEntity
  8
0
  6
Continuous
 62
     7
370
     0
100
AcDbLine
 10
36.8530576377
 20
88.0850130746
 30
0.0
 11
31.5105213503
 21
88.0850130746
 31
0.0
  0
LINE
  5
1DB
330
1CA
100
AcDbEntity
  8
0
  6
Continuous
 62
     7
370
     0
100
AcDbLine
 10
32.5105213503
 20
108.5850130746
 30
0.0
 11
32.5105213503
 21
113.5850130746
 31
0.0
  0
LINE
  5
1DC
330
1CA
100
AcDbEntity
  8
0
  6
Continuous
 62
     7
370
     0
100
AcDbLine
 10
32.5105213503
 20
108.5850130746
 30
0.0
 11
32.5105213503
 21
88.0850130746
 31
0.0
  0
LINE
  5
1DD
330
1CA
100
AcDbEntity
  8
0
  6
Continuous
 62
     7
370
     0
100
AcDbLine
 10
32.5105213503
 20
88.0850130746
 30
0.0
 11
32.5105213503
 21
83.0850130746
 31
0.0
  0
MTEXT
  5
1DE
330
1CA
100
AcDbEntity
  8
0
  6
Continuous
 62
     7
370
     0
100
AcDbMText
 10
28.4377943104
 20
94.2623118804
 30
0.0
 40
3.5
 41
0.0
 71
     1
 72
     1
  1
20.5
  7
SLDTEXTSTYLE0
 11
-7.044197039909883E-15
 21
1.0
 31
0.0
 73
     1
 44
1.0
  0
ENDBLK
  5
1D6
330
1CA
100
AcDbEntity
  8
0
100
AcDbBlockEnd
  0
BLOCK
  5
226
330
21B
100
AcDbEntity
  8
0
100
AcDbBlockBegin
  2
*D5
 70
     1
 71
     0
 10
0.0
 20
0.0
 30
0.0
  3
*D5
  1

  0
ARC
  5
228
330
21B
100
AcDbEntity
  8
0
  6
Continuous
 62
     7
370
     0
100
AcDbCircle
 10
188.7084414916
 20
176.8472135595
 30
0.0
 40
4.553418361139715
100
AcDbArc
 50
243.4349488229
 51
296.5650511771
  0
ARC
  5
229
330
21B
100
AcDbEntity
  8
0
  6
Continuous
 62
     7
370
     0
100
AcDbCircle
 10
188.7084414916
 20
175.9495123653
 30
0.0
 40
4.553418361139715
100
AcDbArc
 50
63.4349488229
 51
116.5650511771
  0
INSERT
  5
22A
330
21B
100
AcDbEntity
  8
0
  6
Continuous
 62
     7
370
     0
100
AcDbBlockReference
  2
_Open30
 10
190.7447920887
 20
191.0983629624
 30
0.0863359466
 41
3.0
 42
3.0
 50
90.0
  0
INSERT
  5
22B
330
21B
100
AcDbEntity
  8
0
  6
Continuous
 62
     7
370
     0
100
AcDbBlockReference
  2
_Open30
 10
190.7447920887
 20
161.6983629624
 30
0.0863359466
 41
3.0
 42
3.0
 50
270.0
  0
LINE
  5
22C
330
21B
100
AcDbEntity
  8
0
  6
Continuous
 62
     7
370
     0
100
AcDbLine
 10
175.9362423836
 20
191.0983629624
 30
0.0
 11
191.7447920887
 21
191.0983629624
 31
0.0
  0
LINE
  5
22D
330
21B
100
AcDbEntity
  8
0
  6
Continuous
 62
     7
370
     0
100
AcDbLine
 10
177.9362423836
 20
161.6983629624
 30
0.0
 11
191.7447920887
 21
161.6983629624
 31
0.0
  0
LINE
  5
22E
330
21B
100
AcDbEntity
  8
0
  6
Continuous
 62
     7
370
     0
100
AcDbLine
 10
190.7447920887
 20
191.0983629624
 30
0.0
 11
190.7447920887
 21
161.6983629624
 31
0.0
  0
MTEXT
  5
22F
330
21B
100
AcDbEntity
  8
0
  6
Continuous
 62
     7
370
     0
100
AcDbMText
 10
186.6720650488
 20
174.3620123653
 30
0.0
 40
3.5
 41
0.0
 71
     1
 72
     1
  1
30
  7
SLDTEXTSTYLE0
 11
-7.044197039909883E-15
 21
1.0
 31
0.0
 73
     1
 44
1.0
  0
ENDBLK
  5
227
330
21B
100
AcDbEntity
  8
0
100
AcDbBlockEnd
  0
ENDSEC
  0
SECTION
  2
ENTITIES
  0
LINE
  5
2F
330
1F
100
AcDbEntity
  8
0
  6
Continuous
 62
     7
370
     0
100
AcDbLine
 10
20.2604743903
 20
285.0
 30
0.0
 11
196.7604743903
 21
285.0
 31
0.0
  0
LINE
  5
30
330
1F
100
AcDbEntity
  8
0
  6
Continuous
 62
     7
370
     0
100
AcDbLine
 10
20.2604743903
 20
285.0
 30
0.0
 11
20.2604743903
 21
10.0
 31
0.0
  0
LINE
  5
31
330
1F
100
AcDbEntity
  8
0
  6
Continuous
 62
     7
370
     0
100
AcDbLine
 10
20.2604743903
 20
10.0
 30
0.0
 11
196.7604743903
 21
10.0
 31
0.0
  0
LINE
  5
32
330
1F
100
AcDbEntity
  8
0
  6
Continuous
 62
     7
370
     0
100
AcDbLine
 10
196.7604743903
 20
285.0
 30
0.0
 11
196.7604743903
 21
10.0
 31
0.0
  0
LINE
  5
33
330
1F
100
AcDbEntity
  8
0
  6
Continuous
 62
     7
370
     0
100
AcDbLine
 10
127.0104743903
 20
50.75
 30
0.0
 11
196.7604743903
 21
50.75
 31
0.0
  0
LINE
  5
34
330
1F
100
AcDbEntity
  8
0
  6
Continuous
 62
     7
370
     0
100
AcDbLine
 10
127.0104743903
 20
50.75
 30
0.0
 11
127.0104743903
 21
10.0
 31
0.0
  0
LINE
  5
35
330
1F
100
AcDbEntity
  8
0
  6
Continuous
 62
     7
370
     0
100
AcDbLine
 10
127.0104743903
 20
22.75
 30
0.0
 11
196.7604743903
 21
22.75
 31
0.0
  0
LINE
  5
36
330
1F
100
AcDbEntity
  8
0
  6
Continuous
 62
     7
370
     0
100
AcDbLine
 10
127.0104743903
 20
36.75
 30
0.0
 11
196.7604743903
 21
36.75
 31
0.0
  0
MTEXT
  5
38
330
1F
100
AcDbEntity
  8
0
  6
Continuous
 62
     7
370
     0
100
AcDbMText
 10
154.052824201
 20
29.8861652342
 30
0.0
 40
4.2333333333
 41
0.0
 71
     1
 72
     1
  1
OX-SBIA
  7
SLDTEXTSTYLE0
 73
     1
 44
1.0
  0
MTEXT
  5
39
330
1F
100
AcDbEntity
  8
0
  6
Continuous
 62
     7
370
     0
100
AcDbMText
 10
135.2062622666
 20
43.4099788511
 30
0.0
 40
4.2333333333
 41
0.0
 71
     1
 72
     1
  1
エアーオプション（OX用）
  7
SLDTEXTSTYLE0
 73
     1
 44
1.0
  0
MTEXT
  5
3A
330
1F
100
AcDbEntity
  8
0
  6
Continuous
 62
     7
370
     0
100
AcDbMText
 10
155.4837826856
 20
16.2918259049
 30
0.0
 40
4.2333333333
 41
0.0
 71
     1
 72
     1
  1
140194
  7
SLDTEXTSTYLE0
 73
     1
 44
1.0
  0
LINE
  5
3B
330
1F
100
AcDbEntity
  8
0
  6
Continuous
 62
     7
370
    30
100
AcDbLine
 10
100.8525574159
 20
172.0983621193
 30
0.0
 11
100.8525574159
 21
171.6983627988
 31
0.0
  0
LINE
  5
3C
330
1F
100
AcDbEntity
  8
0
  6
Continuous
 62
     7
370
    30
100
AcDbLine
 10
106.8525583993
 20
171.6983627988
 30
0.0
 11
106.8525583993
 21
172.0983621193
 31
0.0
  0
LINE
  5
3D
330
1F
100
AcDbEntity
  8
0
  6
Continuous
 62
     7
370
    30
100
AcDbLine
 10
101.0275576377
 20
167.1983629624
 30
0.0
 11
101.8525576377
 21
166.1983629624
 31
0.0
  0
LINE
  5
3E
330
1F
100
AcDbEntity
  8
0
  6
Continuous
 62
     7
370
    30
100
AcDbLine
 10
105.8525200413
 20
166.1983629624
 30
0.0
 11
106.6775045327
 21
167.1983629624
 31
0.0
  0
LINE
  5
3F
330
1F
100
AcDbEntity
  8
0
  6
Continuous
 62
     7
370
    30
100
AcDbLine
 10
101.0275576377
 20
164.1983629624
 30
0.0
 11
101.8525576377
 21
163.1983629624
 31
0.0
  0
LINE
  5
40
330
1F
100
AcDbEntity
  8
0
  6
Continuous
 62
     7
370
    30
100
AcDbLine
 10
105.8525200413
 20
163.1983629624
 30
0.0
 11
106.6775045327
 21
164.1983629624
 31
0.0
  0
LINE
  5
41
330
1F
100
AcDbEntity
  8
0
  6
Continuous
 62
     7
370
    30
100
AcDbLine
 10
101.8525575798
 20
168.698362307
 30
0.0
 11
101.8525575798
 21
167.1983629925
 31
0.0
  0
LINE
  5
42
330
1F
100
AcDbEntity
  8
0
  6
Continuous
 62
     7
370
    30
100
AcDbLine
 10
105.8525582354
 20
167.1983629925
 30
0.0
 11
105.8525582354
 21
168.698362307
 31
0.0
  0
LINE
  5
43
330
1F
100
AcDbEntity
  8
0
  6
Continuous
 62
     7
370
    30
100
AcDbLine
 10
101.8525576377
 20
166.1983629624
 30
0.0
 11
101.8525575798
 21
164.1983625008
 31
0.0
  0
LINE
  5
44
330
1F
100
AcDbEntity
  8
0
  6
Continuous
 62
     7
370
    30
100
AcDbLine
 10
105.8525582354
 20
164.1983625008
 30
0.0
 11
105.8525200413
 21
166.1983629624
 31
0.0
  0
LINE
  5
45
330
1F
100
AcDbEntity
  8
0
  6
Continuous
 62
     7
370
    30
100
AcDbLine
 10
101.8525576377
 20
163.1983629624
 30
0.0
 11
101.8525576377
 21
161.6983629624
 31
0.0
  0
LINE
  5
46
330
1F
100
AcDbEntity
  8
0
  6
Continuous
 62
     7
370
    30
100
AcDbLine
 10
105.8525200413
 20
161.6983629624
 30
0.0
 11
105.8525200413
 21
163.1983629624
 31
0.0
  0
LINE
  5
47
330
1F
100
AcDbEntity
  8
0
  6
Continuous
 62
     7
370
    30
100
AcDbLine
 10
60.8530574988
 20
172.0983621193
 30
0.0
 11
60.8530574988
 21
171.6983627988
 31
0.0
  0
LINE
  5
48
330
1F
100
AcDbEntity
  8
0
  6
Continuous
 62
     7
370
    30
100
AcDbLine
 10
66.8530584823
 20
171.6983627988
 30
0.0
 11
66.8530584823
 21
172.0983621193
 31
0.0
  0
LINE
  5
49
330
1F
100
AcDbEntity
  8
0
  6
Continuous
 62
     7
370
    30
100
AcDbLine
 10
61.0280576377
 20
167.1983629624
 30
0.0
 11
61.8530576377
 21
166.1983629624
 31
0.0
  0
LINE
  5
4A
330
1F
100
AcDbEntity
  8
0
  6
Continuous
 62
     7
370
    30
100
AcDbLine
 10
65.8530576377
 20
166.1983629624
 30
0.0
 11
66.6780576377
 21
167.1983629624
 31
0.0
  0
LINE
  5
4B
330
1F
100
AcDbEntity
  8
0
  6
Continuous
 62
     7
370
    30
100
AcDbLine
 10
61.0280576377
 20
164.1983629624
 30
0.0
 11
61.8530576377
 21
163.1983629624
 31
0.0
  0
LINE
  5
4C
330
1F
100
AcDbEntity
  8
0
  6
Continuous
 62
     7
370
    30
100
AcDbLine
 10
65.8530576377
 20
163.1983629624
 30
0.0
 11
66.6780576377
 21
164.1983629624
 31
0.0
  0
LINE
  5
4D
330
1F
100
AcDbEntity
  8
0
  6
Continuous
 62
     7
370
    30
100
AcDbLine
 10
61.8530576377
 20
166.1983629624
 30
0.0
 11
61.8530576627
 21
164.1983625008
 31
0.0
  0
LINE
  5
4E
330
1F
100
AcDbEntity
  8
0
  6
Continuous
 62
     7
370
    30
100
AcDbLine
 10
65.8530583184
 20
164.1983625008
 30
0.0
 11
65.8530576377
 21
166.1983629624
 31
0.0
  0
LINE
  5
4F
330
1F
100
AcDbEntity
  8
0
  6
Continuous
 62
     7
370
    30
100
AcDbLine
 10
61.8530576627
 20
168.698362307
 30
0.0
 11
61.8530576627
 21
167.1983629925
 31
0.0
  0
LINE
  5
50
330
1F
100
AcDbEntity
  8
0
  6
Continuous
 62
     7
370
    30
100
AcDbLine
 10
65.8530583184
 20
167.1983629925
 30
0.0
 11
65.8530583184
 21
168.698362307
 31
0.0
  0
LINE
  5
51
330
1F
100
AcDbEntity
  8
0
  6
Continuous
 62
     7
370
    30
100
AcDbLine
 10
61.8530576377
 20
163.1983629624
 30
0.0
 11
61.8530576377
 21
161.6983629624
 31
0.0
  0
LINE
  5
52
330
1F
100
AcDbEntity
  8
0
  6
Continuous
 62
     7
370
    30
100
AcDbLine
 10
65.8530576377
 20
161.6983629624
 30
0.0
 11
65.8530576377
 21
163.1983629624
 31
0.0
  0
LINE
  5
53
330
1F
100
AcDbEntity
  8
0
  6
Continuous
 62
     7
370
    30
100
AcDbLine
 10
44.8530567389
 20
172.0983621193
 30
0.0
 11
44.8530567389
 21
171.6983627988
 31
0.0
  0
LINE
  5
54
330
1F
100
AcDbEntity
  8
0
  6
Continuous
 62
     7
370
    30
100
AcDbLine
 10
50.8530577223
 20
171.6983627988
 30
0.0
 11
50.8530577223
 21
172.0983621193
 31
0.0
  0
LINE
  5
55
330
1F
100
AcDbEntity
  8
0
  6
Continuous
 62
     7
370
    30
100
AcDbLine
 10
45.0280576377
 20
167.1983629624
 30
0.0
 11
45.8530576377
 21
166.1983629624
 31
0.0
  0
LINE
  5
56
330
1F
100
AcDbEntity
  8
0
  6
Continuous
 62
     7
370
    30
100
AcDbLine
 10
49.8530576377
 20
166.1983629624
 30
0.0
 11
50.6780576377
 21
167.1983629624
 31
0.0
  0
LINE
  5
57
330
1F
100
AcDbEntity
  8
0
  6
Continuous
 62
     7
370
    30
100
AcDbLine
 10
45.0280576377
 20
164.1983629624
 30
0.0
 11
45.8530576377
 21
163.1983629624
 31
0.0
  0
LINE
  5
58
330
1F
100
AcDbEntity
  8
0
  6
Continuous
 62
     7
370
    30
100
AcDbLine
 10
49.8530576377
 20
163.1983629624
 30
0.0
 11
50.6780576377
 21
164.1983629624
 31
0.0
  0
LINE
  5
59
330
1F
100
AcDbEntity
  8
0
  6
Continuous
 62
     7
370
    30
100
AcDbLine
 10
45.8530576377
 20
166.1983629624
 30
0.0
 11
45.8530587654
 21
164.1983625008
 31
0.0
  0
LINE
  5
5A
330
1F
100
AcDbEntity
  8
0
  6
Continuous
 62
     7
370
    30
100
AcDbLine
 10
49.8530594211
 20
164.1983625008
 30
0.0
 11
49.8530576377
 21
166.1983629624
 31
0.0
  0
LINE
  5
5B
330
1F
100
AcDbEntity
  8
0
  6
Continuous
 62
     7
370
    30
100
AcDbLine
 10
45.8530587654
 20
168.698362307
 30
0.0
 11
45.8530587654
 21
167.1983629925
 31
0.0
  0
LINE
  5
5C
330
1F
100
AcDbEntity
  8
0
  6
Continuous
 62
     7
370
    30
100
AcDbLine
 10
49.8530594211
 20
167.1983629925
 30
0.0
 11
49.8530594211
 21
168.698362307
 31
0.0
  0
LINE
  5
5D
330
1F
100
AcDbEntity
  8
0
  6
Continuous
 62
     7
370
    30
100
AcDbLine
 10
45.8530576377
 20
163.1983629624
 30
0.0
 11
45.8530576377
 21
161.6983629624
 31
0.0
  0
LINE
  5
5E
330
1F
100
AcDbEntity
  8
0
  6
Continuous
 62
     7
370
    30
100
AcDbLine
 10
49.8530576377
 20
161.6983629624
 30
0.0
 11
49.8530576377
 21
163.1983629624
 31
0.0
  0
LINE
  5
5F
330
1F
100
AcDbEntity
  8
0
  6
Continuous
 62
     7
370
    30
100
AcDbLine
 10
116.8525581758
 20
172.0983621193
 30
0.0
 11
116.8525581758
 21
171.6983627988
 31
0.0
  0
LINE
  5
60
330
1F
100
AcDbEntity
  8
0
  6
Continuous
 62
     7
370
    30
100
AcDbLine
 10
122.8525591593
 20
171.6983627988
 30
0.0
 11
122.8525591593
 21
172.0983621193
 31
0.0
  0
LINE
  5
61
330
1F
100
AcDbEntity
  8
0
  6
Continuous
 62
     7
370
    30
100
AcDbLine
 10
117.0275576377
 20
167.1983629624
 30
0.0
 11
117.8525576377
 21
166.1983629624
 31
0.0
  0
LINE
  5
62
330
1F
100
AcDbEntity
  8
0
  6
Continuous
 62
     7
370
    30
100
AcDbLine
 10
121.8525200413
 20
166.1983629624
 30
0.0
 11
122.6775045327
 21
167.1983629624
 31
0.0
  0
LINE
  5
63
330
1F
100
AcDbEntity
  8
0
  6
Continuous
 62
     7
370
    30
100
AcDbLine
 10
117.0275576377
 20
164.1983629624
 30
0.0
 11
117.8525576377
 21
163.1983629624
 31
0.0
  0
LINE
  5
64
330
1F
100
AcDbEntity
  8
0
  6
Continuous
 62
     7
370
    30
100
AcDbLine
 10
121.8525200413
 20
163.1983629624
 30
0.0
 11
122.6775045327
 21
164.1983629624
 31
0.0
  0
LINE
  5
65
330
1F
100
AcDbEntity
  8
0
  6
Continuous
 62
     7
370
    30
100
AcDbLine
 10
117.8525576377
 20
166.1983629624
 30
0.0
 11
117.8525564771
 21
164.1983625008
 31
0.0
  0
LINE
  5
66
330
1F
100
AcDbEntity
  8
0
  6
Continuous
 62
     7
370
    30
100
AcDbLine
 10
121.8525571327
 20
164.1983625008
 30
0.0
 11
121.8525200413
 21
166.1983629624
 31
0.0
  0
LINE
  5
67
330
1F
100
AcDbEntity
  8
0
  6
Continuous
 62
     7
370
    30
100
AcDbLine
 10
117.8525564771
 20
168.698362307
 30
0.0
 11
117.8525564771
 21
167.1983629925
 31
0.0
  0
LINE
  5
68
330
1F
100
AcDbEntity
  8
0
  6
Continuous
 62
     7
370
    30
100
AcDbLine
 10
121.8525571327
 20
167.1983629925
 30
0.0
 11
121.8525571327
 21
168.698362307
 31
0.0
  0
LINE
  5
69
330
1F
100
AcDbEntity
  8
0
  6
Continuous
 62
     7
370
    30
100
AcDbLine
 10
117.8525576377
 20
163.1983629624
 30
0.0
 11
117.8525576377
 21
161.6983629624
 31
0.0
  0
LINE
  5
6A
330
1F
100
AcDbEntity
  8
0
  6
Continuous
 62
     7
370
    30
100
AcDbLine
 10
121.8525200413
 20
161.6983629624
 30
0.0
 11
121.8525200413
 21
163.1983629624
 31
0.0
  0
LINE
  5
6B
330
1F
100
AcDbEntity
  8
0
  6
Continuous
 62
     7
370
    30
100
AcDbLine
 10
37.8530574541
 20
172.0983621193
 30
0.0
 11
129.852558444
 21
172.0983621193
 31
0.0
  0
LINE
  5
6C
330
1F
100
AcDbEntity
  8
0
  6
Continuous
 62
     7
370
    30
100
AcDbLine
 10
37.8530574541
 20
188.0983629593
 30
0.0
 11
37.8530574541
 21
172.0983621193
 31
0.0
  0
LINE
  5
6D
330
1F
100
AcDbEntity
  8
0
  6
Continuous
 62
     7
370
    30
100
AcDbLine
 10
78.8525575351
 20
188.0983629593
 30
0.0
 11
37.8530574541
 21
188.0983629593
 31
0.0
  0
LINE
  5
6E
330
1F
100
AcDbEntity
  8
0
  6
Continuous
 62
     7
370
    30
100
AcDbLine
 10
78.8525575351
 20
191.0983629053
 30
0.0
 11
78.8525575351
 21
188.0983629593
 31
0.0
  0
LINE
  5
6F
330
1F
100
AcDbEntity
  8
0
  6
Continuous
 62
     7
370
    30
100
AcDbLine
 10
88.8525577772
 20
191.0983629053
 30
0.0
 11
78.8525575351
 21
191.0983629053
 31
0.0
  0
LINE
  5
70
330
1F
100
AcDbEntity
  8
0
  6
Continuous
 62
     7
370
    30
100
AcDbLine
 10
88.8525577772
 20
188.0983629593
 30
0.0
 11
88.8525577772
 21
191.0983629053
 31
0.0
  0
LINE
  5
71
330
1F
100
AcDbEntity
  8
0
  6
Continuous
 62
     7
370
    30
100
AcDbLine
 10
129.852558444
 20
188.0983629593
 30
0.0
 11
88.8525577772
 21
188.0983629593
 31
0.0
  0
LINE
  5
72
330
1F
100
AcDbEntity
  8
0
  6
Continuous
 62
     7
370
    30
100
AcDbLine
 10
129.852558444
 20
172.0983621193
 30
0.0
 11
129.852558444
 21
188.0983629593
 31
0.0
  0
CIRCLE
  5
73
330
1F
100
AcDbEntity
  8
0
  6
Continuous
 62
     7
370
    30
100
AcDbCircle
 10
47.8530576377
 20
182.0983629624
 30
0.0
 40
5.500000000000057
  0
CIRCLE
  5
74
330
1F
100
AcDbEntity
  8
0
  6
Continuous
 62
     7
370
    30
100
AcDbCircle
 10
63.8530576377
 20
182.0983629624
 30
0.0
 40
5.500000000000043
  0
CIRCLE
  5
75
330
1F
100
AcDbEntity
  8
0
  6
Continuous
 62
     7
370
    30
100
AcDbCircle
 10
103.8525576377
 20
182.0983629624
 30
0.0
 40
5.500000000000028
  0
CIRCLE
  5
76
330
1F
100
AcDbEntity
  8
0
  6
Continuous
 62
     7
370
    30
100
AcDbCircle
 10
119.8525576377
 20
182.0983629624
 30
0.0
 40
5.500000000000028
  0
CIRCLE
  5
77
330
1F
100
AcDbEntity
  8
0
  6
Continuous
 62
     7
370
    30
100
AcDbCircle
 10
119.8525576377
 20
182.0983629624
 30
0.0
 40
5.000000000000028
  0
CIRCLE
  5
78
330
1F
100
AcDbEntity
  8
0
  6
Continuous
 62
     7
370
    30
100
AcDbCircle
 10
63.8530576377
 20
182.0983629624
 30
0.0
 40
5.000000000000028
  0
CIRCLE
  5
79
330
1F
100
AcDbEntity
  8
0
  6
Continuous
 62
     7
370
    30
100
AcDbCircle
 10
103.8525576377
 20
182.0983629624
 30
0.0
 40
5.000000000000043
  0
CIRCLE
  5
7A
330
1F
100
AcDbEntity
  8
0
  6
Continuous
 62
     7
370
    30
100
AcDbCircle
 10
47.8530576377
 20
182.0983629624
 30
0.0
 40
5.000000000000036
  0
LINE
  5
7B
330
1F
100
AcDbEntity
  8
0
  6
Continuous
 62
     7
370
    30
100
AcDbLine
 10
102.6030840384
 20
182.0983629624
 30
0.0
 11
105.0944753817
 21
182.0983629624
 31
0.0
  0
LINE
  5
7C
330
1F
100
AcDbEntity
  8
0
  6
Continuous
 62
     7
370
    30
100
AcDbLine
 10
118.6030840384
 20
182.0983629624
 30
0.0
 11
121.0944753817
 21
182.0983629624
 31
0.0
  0
LINE
  5
7D
330
1F
100
AcDbEntity
  8
0
  6
Continuous
 62
     7
370
    30
100
AcDbLine
 10
62.6035840384
 20
182.0983629624
 30
0.0
 11
65.0949753817
 21
182.0983629624
 31
0.0
  0
LINE
  5
7E
330
1F
100
AcDbEntity
  8
0
  6
Continuous
 62
     7
370
    30
100
AcDbLine
 10
46.6035840384
 20
182.0983629624
 30
0.0
 11
49.0949753817
 21
182.0983629624
 31
0.0
  0
ARC
  5
7F
330
1F
100
AcDbEntity
  8
0
  6
Continuous
 62
     7
370
    30
100
AcDbCircle
 10
119.8498350934
 20
180.3779166949
 30
0.0
 40
2.5045081986534
100
AcDbArc
 50
61.9716733639
 51
117.8725919043
  0
ARC
  5
80
330
1F
100
AcDbEntity
  8
0
  6
Continuous
 62
     7
370
    30
100
AcDbCircle
 10
103.8497289496
 20
180.381257781
 30
0.0
 40
2.50161014666511
100
AcDbArc
 50
62.2615176632
 51
117.98436191
  0
ARC
  5
81
330
1F
100
AcDbEntity
  8
0
  6
Continuous
 62
     7
370
    30
100
AcDbCircle
 10
47.8490675903
 20
180.3909117063
 30
0.0
 40
2.49362266762171
100
AcDbArc
 50
62.2714762089
 51
117.7260171645
  0
ARC
  5
82
330
1F
100
AcDbEntity
  8
0
  6
Continuous
 62
     7
370
    30
100
AcDbCircle
 10
63.8497279218
 20
180.4035631941
 30
0.0
 40
2.482122882706851
100
AcDbArc
 50
62.1485864687
 51
117.1817195902
  0
ARC
  5
83
330
1F
100
AcDbEntity
  8
0
  6
Continuous
 62
     7
370
    30
100
AcDbCircle
 10
63.8530576377
 20
182.0983629624
 30
0.0
 40
2.250000000000039
100
AcDbArc
 50
192.8395884069
 51
347.1604115931
  0
ARC
  5
84
330
1F
100
AcDbEntity
  8
0
  6
Continuous
 62
     7
370
    30
100
AcDbCircle
 10
63.8530576377
 20
182.0983629624
 30
0.0
 40
2.000000000000015
100
AcDbArc
 50
194.4775121859
 51
345.5224878141
  0
LINE
  5
85
330
1F
100
AcDbEntity
  8
0
  6
Continuous
 62
     7
370
    30
100
AcDbLine
 10
65.7895493108
 20
181.5983629624
 30
0.0
 11
66.0467987345
 21
181.5983629624
 31
0.0
  0
LINE
  5
86
330
1F
100
AcDbEntity
  8
0
  6
Continuous
 62
     7
370
    30
100
AcDbLine
 10
61.6593165408
 20
181.5983629624
 30
0.0
 11
61.9165659646
 21
181.5983629624
 31
0.0
  0
LINE
  5
87
330
1F
100
AcDbEntity
  8
0
  6
Continuous
 62
     7
370
    30
100
AcDbLine
 10
64.9987015614
 20
181.5983629624
 30
0.0
 11
65.7895493108
 21
181.5983629624
 31
0.0
  0
LINE
  5
88
330
1F
100
AcDbEntity
  8
0
  6
Continuous
 62
     7
370
    30
100
AcDbLine
 10
61.9165659646
 20
181.5983629624
 30
0.0
 11
62.7074137139
 21
181.5983629624
 31
0.0
  0
ARC
  5
89
330
1F
100
AcDbEntity
  8
0
  6
Continuous
 62
     7
370
    30
100
AcDbCircle
 10
63.8530576377
 20
182.0983629624
 30
0.0
 40
1.249999999999997
100
AcDbArc
 50
203.5781784782
 51
336.4218215218
  0
ARC
  5
8A
330
1F
100
AcDbEntity
  8
0
  6
Continuous
 62
     7
370
    30
100
AcDbCircle
 10
63.8530576377
 20
182.0983629624
 30
0.0
 40
2.000000000000057
100
AcDbArc
 50
14.4775121859
 51
165.5224878141
  0
LINE
  5
8B
330
1F
100
AcDbEntity
  8
0
  6
Continuous
 62
     7
370
    30
100
AcDbLine
 10
61.9165659646
 20
182.5983629624
 30
0.0
 11
61.6593165408
 21
182.5983629624
 31
0.0
  0
ARC
  5
8C
330
1F
100
AcDbEntity
  8
0
  6
Continuous
 62
     7
370
    30
100
AcDbCircle
 10
63.8530576377
 20
182.0983629624
 30
0.0
 40
2.250000000000025
100
AcDbArc
 50
12.8395884069
 51
167.1604115931
  0
LINE
  5
8D
330
1F
100
AcDbEntity
  8
0
  6
Continuous
 62
     7
370
    30
100
AcDbLine
 10
66.0467987345
 20
182.5983629624
 30
0.0
 11
65.7895493108
 21
182.5983629624
 31
0.0
  0
LINE
  5
8E
330
1F
100
AcDbEntity
  8
0
  6
Continuous
 62
     7
370
    30
100
AcDbLine
 10
62.7074137139
 20
182.5983629624
 30
0.0
 11
61.9165659646
 21
182.5983629624
 31
0.0
  0
LINE
  5
8F
330
1F
100
AcDbEntity
  8
0
  6
Continuous
 62
     7
370
    30
100
AcDbLine
 10
65.7895493108
 20
182.5983629624
 30
0.0
 11
64.9987015614
 21
182.5983629624
 31
0.0
  0
ARC
  5
90
330
1F
100
AcDbEntity
  8
0
  6
Continuous
 62
     7
370
    30
100
AcDbCircle
 10
63.8530576377
 20
182.0983629624
 30
0.0
 40
1.250000000000058
100
AcDbArc
 50
23.5781784782
 51
156.4218215218
  0
ARC
  5
91
330
1F
100
AcDbEntity
  8
0
  6
Continuous
 62
     7
370
    30
100
AcDbCircle
 10
63.8530576377
 20
182.0983629624
 30
0.0
 40
2.250000000000025
100
AcDbArc
 50
167.1604115931
 51
192.8395884069
  0
ARC
  5
92
330
1F
100
AcDbEntity
  8
0
  6
Continuous
 62
     7
370
    30
100
AcDbCircle
 10
63.8530576377
 20
182.0983629624
 30
0.0
 40
1.250000000000001
100
AcDbArc
 50
156.4218215218
 51
203.5781784782
  0
ARC
  5
93
330
1F
100
AcDbEntity
  8
0
  6
Continuous
 62
     7
370
    30
100
AcDbCircle
 10
63.8530576377
 20
182.0983629624
 30
0.0
 40
2.250000000000039
100
AcDbArc
 50
347.1604115931
 51
12.8395884069
  0
ARC
  5
94
330
1F
100
AcDbEntity
  8
0
  6
Continuous
 62
     7
370
    30
100
AcDbCircle
 10
63.8530576377
 20
182.0983629624
 30
0.0
 40
1.250000000000095
100
AcDbArc
 50
336.4218215218
 51
23.5781784782
  0
CIRCLE
  5
95
330
1F
100
AcDbEntity
  8
0
  6
Continuous
 62
     7
370
    30
100
AcDbCircle
 10
63.8530576377
 20
182.0983629624
 30
0.0
 40
4.050000000000026
  0
CIRCLE
  5
96
330
1F
100
AcDbEntity
  8
0
  6
Continuous
 62
     7
370
    30
100
AcDbCircle
 10
63.8530576377
 20
182.0983629624
 30
0.0
 40
4.250000000000014
  0
LINE
  5
97
330
1F
100
AcDbEntity
  8
0
  6
Continuous
 62
     7
370
    30
100
AcDbLine
 10
48.9987015614
 20
181.5983629624
 30
0.0
 11
49.7895493108
 21
181.5983629624
 31
0.0
  0
ARC
  5
98
330
1F
100
AcDbEntity
  8
0
  6
Continuous
 62
     7
370
    30
100
AcDbCircle
 10
47.8530576377
 20
182.0983629624
 30
0.0
 40
2.000000000000008
100
AcDbArc
 50
194.4775121859
 51
345.5224878141
  0
LINE
  5
99
330
1F
100
AcDbEntity
  8
0
  6
Continuous
 62
     7
370
    30
100
AcDbLine
 10
45.9165659646
 20
181.5983629624
 30
0.0
 11
46.7074137139
 21
181.5983629624
 31
0.0
  0
ARC
  5
9A
330
1F
100
AcDbEntity
  8
0
  6
Continuous
 62
     7
370
    30
100
AcDbCircle
 10
47.8530576377
 20
182.0983629624
 30
0.0
 40
1.250000000000004
100
AcDbArc
 50
203.5781784782
 51
336.4218215218
  0
ARC
  5
9B
330
1F
100
AcDbEntity
  8
0
  6
Continuous
 62
     7
370
    30
100
AcDbCircle
 10
47.8530576377
 20
182.0983629624
 30
0.0
 40
2.250000000000053
100
AcDbArc
 50
192.8395884069
 51
347.1604115931
  0
LINE
  5
9C
330
1F
100
AcDbEntity
  8
0
  6
Continuous
 62
     7
370
    30
100
AcDbLine
 10
49.7895493108
 20
181.5983629624
 30
0.0
 11
50.0467987345
 21
181.5983629624
 31
0.0
  0
LINE
  5
9D
330
1F
100
AcDbEntity
  8
0
  6
Continuous
 62
     7
370
    30
100
AcDbLine
 10
45.6593165408
 20
181.5983629624
 30
0.0
 11
45.9165659646
 21
181.5983629624
 31
0.0
  0
ARC
  5
9E
330
1F
100
AcDbEntity
  8
0
  6
Continuous
 62
     7
370
    30
100
AcDbCircle
 10
47.8530576377
 20
182.0983629624
 30
0.0
 40
2.000000000000057
100
AcDbArc
 50
14.4775121859
 51
165.5224878141
  0
LINE
  5
9F
330
1F
100
AcDbEntity
  8
0
  6
Continuous
 62
     7
370
    30
100
AcDbLine
 10
45.9165659646
 20
182.5983629624
 30
0.0
 11
45.6593165408
 21
182.5983629624
 31
0.0
  0
ARC
  5
A0
330
1F
100
AcDbEntity
  8
0
  6
Continuous
 62
     7
370
    30
100
AcDbCircle
 10
47.8530576377
 20
182.0983629624
 30
0.0
 40
2.250000000000025
100
AcDbArc
 50
12.8395884069
 51
167.1604115931
  0
LINE
  5
A1
330
1F
100
AcDbEntity
  8
0
  6
Continuous
 62
     7
370
    30
100
AcDbLine
 10
50.0467987345
 20
182.5983629624
 30
0.0
 11
49.7895493108
 21
182.5983629624
 31
0.0
  0
LINE
  5
A2
330
1F
100
AcDbEntity
  8
0
  6
Continuous
 62
     7
370
    30
100
AcDbLine
 10
46.7074137139
 20
182.5983629624
 30
0.0
 11
45.9165659646
 21
182.5983629624
 31
0.0
  0
LINE
  5
A3
330
1F
100
AcDbEntity
  8
0
  6
Continuous
 62
     7
370
    30
100
AcDbLine
 10
49.7895493108
 20
182.5983629624
 30
0.0
 11
48.9987015614
 21
182.5983629624
 31
0.0
  0
ARC
  5
A4
330
1F
100
AcDbEntity
  8
0
  6
Continuous
 62
     7
370
    30
100
AcDbCircle
 10
47.8530576377
 20
182.0983629624
 30
0.0
 40
1.250000000000051
100
AcDbArc
 50
23.5781784782
 51
156.4218215218
  0
ARC
  5
A5
330
1F
100
AcDbEntity
  8
0
  6
Continuous
 62
     7
370
    30
100
AcDbCircle
 10
47.8530576377
 20
182.0983629624
 30
0.0
 40
2.250000000000025
100
AcDbArc
 50
167.1604115931
 51
192.8395884069
  0
ARC
  5
A6
330
1F
100
AcDbEntity
  8
0
  6
Continuous
 62
     7
370
    30
100
AcDbCircle
 10
47.8530576377
 20
182.0983629624
 30
0.0
 40
1.250000000000004
100
AcDbArc
 50
156.4218215218
 51
203.5781784782
  0
ARC
  5
A7
330
1F
100
AcDbEntity
  8
0
  6
Continuous
 62
     7
370
    30
100
AcDbCircle
 10
47.8530576377
 20
182.0983629624
 30
0.0
 40
2.250000000000053
100
AcDbArc
 50
347.1604115931
 51
12.8395884069
  0
ARC
  5
A8
330
1F
100
AcDbEntity
  8
0
  6
Continuous
 62
     7
370
    30
100
AcDbCircle
 10
47.8530576377
 20
182.0983629624
 30
0.0
 40
1.250000000000095
100
AcDbArc
 50
336.4218215218
 51
23.5781784782
  0
CIRCLE
  5
A9
330
1F
100
AcDbEntity
  8
0
  6
Continuous
 62
     7
370
    30
100
AcDbCircle
 10
47.8530576377
 20
182.0983629624
 30
0.0
 40
4.050000000000026
  0
CIRCLE
  5
AA
330
1F
100
AcDbEntity
  8
0
  6
Continuous
 62
     7
370
    30
100
AcDbCircle
 10
47.8530576377
 20
182.0983629624
 30
0.0
 40
4.250000000000014
  0
LINE
  5
AB
330
1F
100
AcDbEntity
  8
0
  6
Continuous
 62
     7
370
    30
100
AcDbLine
 10
120.9982015614
 20
181.5983629624
 30
0.0
 11
121.7890493108
 21
181.5983629624
 31
0.0
  0
ARC
  5
AC
330
1F
100
AcDbEntity
  8
0
  6
Continuous
 62
     7
370
    30
100
AcDbCircle
 10
119.8525576377
 20
182.0983629624
 30
0.0
 40
2.000000000000015
100
AcDbArc
 50
194.4775121859
 51
345.5224878141
  0
LINE
  5
AD
330
1F
100
AcDbEntity
  8
0
  6
Continuous
 62
     7
370
    30
100
AcDbLine
 10
117.9160659646
 20
181.5983629624
 30
0.0
 11
118.7069137139
 21
181.5983629624
 31
0.0
  0
ARC
  5
AE
330
1F
100
AcDbEntity
  8
0
  6
Continuous
 62
     7
370
    30
100
AcDbCircle
 10
119.8525576377
 20
182.0983629624
 30
0.0
 40
1.249999999999997
100
AcDbArc
 50
203.5781784782
 51
336.4218215218
  0
ARC
  5
AF
330
1F
100
AcDbEntity
  8
0
  6
Continuous
 62
     7
370
    30
100
AcDbCircle
 10
119.8525576377
 20
182.0983629624
 30
0.0
 40
2.250000000000053
100
AcDbArc
 50
192.8395884069
 51
347.1604115931
  0
LINE
  5
B0
330
1F
100
AcDbEntity
  8
0
  6
Continuous
 62
     7
370
    30
100
AcDbLine
 10
121.7890493108
 20
181.5983629624
 30
0.0
 11
122.0462987345
 21
181.5983629624
 31
0.0
  0
LINE
  5
B1
330
1F
100
AcDbEntity
  8
0
  6
Continuous
 62
     7
370
    30
100
AcDbLine
 10
117.6588165408
 20
181.5983629624
 30
0.0
 11
117.9160659646
 21
181.5983629624
 31
0.0
  0
LINE
  5
B2
330
1F
100
AcDbEntity
  8
0
  6
Continuous
 62
     7
370
    30
100
AcDbLine
 10
118.7069137139
 20
182.5983629624
 30
0.0
 11
117.9160659646
 21
182.5983629624
 31
0.0
  0
ARC
  5
B3
330
1F
100
AcDbEntity
  8
0
  6
Continuous
 62
     7
370
    30
100
AcDbCircle
 10
119.8525576377
 20
182.0983629624
 30
0.0
 40
2.000000000000071
100
AcDbArc
 50
14.4775121859
 51
165.5224878141
  0
LINE
  5
B4
330
1F
100
AcDbEntity
  8
0
  6
Continuous
 62
     7
370
    30
100
AcDbLine
 10
121.7890493108
 20
182.5983629624
 30
0.0
 11
120.9982015614
 21
182.5983629624
 31
0.0
  0
ARC
  5
B5
330
1F
100
AcDbEntity
  8
0
  6
Continuous
 62
     7
370
    30
100
AcDbCircle
 10
119.8525576377
 20
182.0983629624
 30
0.0
 40
1.250000000000058
100
AcDbArc
 50
23.5781784782
 51
156.4218215218
  0
LINE
  5
B6
330
1F
100
AcDbEntity
  8
0
  6
Continuous
 62
     7
370
    30
100
AcDbLine
 10
117.9160659646
 20
182.5983629624
 30
0.0
 11
117.6588165408
 21
182.5983629624
 31
0.0
  0
ARC
  5
B7
330
1F
100
AcDbEntity
  8
0
  6
Continuous
 62
     7
370
    30
100
AcDbCircle
 10
119.8525576377
 20
182.0983629624
 30
0.0
 40
2.250000000000012
100
AcDbArc
 50
12.8395884069
 51
167.1604115931
  0
LINE
  5
B8
330
1F
100
AcDbEntity
  8
0
  6
Continuous
 62
     7
370
    30
100
AcDbLine
 10
122.0462987345
 20
182.5983629624
 30
0.0
 11
121.7890493108
 21
182.5983629624
 31
0.0
  0
ARC
  5
B9
330
1F
100
AcDbEntity
  8
0
  6
Continuous
 62
     7
370
    30
100
AcDbCircle
 10
119.8525576377
 20
182.0983629624
 30
0.0
 40
2.250000000000012
100
AcDbArc
 50
167.1604115931
 51
192.8395884069
  0
ARC
  5
BA
330
1F
100
AcDbEntity
  8
0
  6
Continuous
 62
     7
370
    30
100
AcDbCircle
 10
119.8525576377
 20
182.0983629624
 30
0.0
 40
1.249999999999997
100
AcDbArc
 50
156.4218215218
 51
203.5781784782
  0
ARC
  5
BB
330
1F
100
AcDbEntity
  8
0
  6
Continuous
 62
     7
370
    30
100
AcDbCircle
 10
119.8525576377
 20
182.0983629624
 30
0.0
 40
2.250000000000053
100
AcDbArc
 50
347.1604115931
 51
12.8395884069
  0
ARC
  5
BC
330
1F
100
AcDbEntity
  8
0
  6
Continuous
 62
     7
370
    30
100
AcDbCircle
 10
119.8525576377
 20
182.0983629624
 30
0.0
 40
1.250000000000108
100
AcDbArc
 50
336.4218215218
 51
23.5781784782
  0
CIRCLE
  5
BD
330
1F
100
AcDbEntity
  8
0
  6
Continuous
 62
     7
370
    30
100
AcDbCircle
 10
119.8525576377
 20
182.0983629624
 30
0.0
 40
4.050000000000026
  0
CIRCLE
  5
BE
330
1F
100
AcDbEntity
  8
0
  6
Continuous
 62
     7
370
    30
100
AcDbCircle
 10
119.8525576377
 20
182.0983629624
 30
0.0
 40
4.250000000000028
  0
LINE
  5
BF
330
1F
100
AcDbEntity
  8
0
  6
Continuous
 62
     7
370
    30
100
AcDbLine
 10
104.9982015614
 20
181.5983629624
 30
0.0
 11
105.7890493108
 21
181.5983629624
 31
0.0
  0
ARC
  5
C0
330
1F
100
AcDbEntity
  8
0
  6
Continuous
 62
     7
370
    30
100
AcDbCircle
 10
103.8525576377
 20
182.0983629624
 30
0.0
 40
2.000000000000028
100
AcDbArc
 50
194.4775121859
 51
345.5224878141
  0
LINE
  5
C1
330
1F
100
AcDbEntity
  8
0
  6
Continuous
 62
     7
370
    30
100
AcDbLine
 10
101.9160659646
 20
181.5983629624
 30
0.0
 11
102.7069137139
 21
181.5983629624
 31
0.0
  0
ARC
  5
C2
330
1F
100
AcDbEntity
  8
0
  6
Continuous
 62
     7
370
    30
100
AcDbCircle
 10
103.8525576377
 20
182.0983629624
 30
0.0
 40
1.250000000000007
100
AcDbArc
 50
203.5781784782
 51
336.4218215218
  0
ARC
  5
C3
330
1F
100
AcDbEntity
  8
0
  6
Continuous
 62
     7
370
    30
100
AcDbCircle
 10
103.8525576377
 20
182.0983629624
 30
0.0
 40
2.250000000000067
100
AcDbArc
 50
192.8395884069
 51
347.1604115931
  0
LINE
  5
C4
330
1F
100
AcDbEntity
  8
0
  6
Continuous
 62
     7
370
    30
100
AcDbLine
 10
105.7890493108
 20
181.5983629624
 30
0.0
 11
106.0462987345
 21
181.5983629624
 31
0.0
  0
LINE
  5
C5
330
1F
100
AcDbEntity
  8
0
  6
Continuous
 62
     7
370
    30
100
AcDbLine
 10
101.6588165408
 20
181.5983629624
 30
0.0
 11
101.9160659646
 21
181.5983629624
 31
0.0
  0
LINE
  5
C6
330
1F
100
AcDbEntity
  8
0
  6
Continuous
 62
     7
370
    30
100
AcDbLine
 10
102.7069137139
 20
182.5983629624
 30
0.0
 11
101.9160659646
 21
182.5983629624
 31
0.0
  0
ARC
  5
C7
330
1F
100
AcDbEntity
  8
0
  6
Continuous
 62
     7
370
    30
100
AcDbCircle
 10
103.8525576377
 20
182.0983629624
 30
0.0
 40
2.000000000000071
100
AcDbArc
 50
14.4775121859
 51
165.5224878141
  0
LINE
  5
C8
330
1F
100
AcDbEntity
  8
0
  6
Continuous
 62
     7
370
    30
100
AcDbLine
 10
105.7890493108
 20
182.5983629624
 30
0.0
 11
104.9982015614
 21
182.5983629624
 31
0.0
  0
ARC
  5
C9
330
1F
100
AcDbEntity
  8
0
  6
Continuous
 62
     7
370
    30
100
AcDbCircle
 10
103.8525576377
 20
182.0983629624
 30
0.0
 40
1.25000000000007
100
AcDbArc
 50
23.5781784782
 51
156.4218215218
  0
LINE
  5
CA
330
1F
100
AcDbEntity
  8
0
  6
Continuous
 62
     7
370
    30
100
AcDbLine
 10
101.9160659646
 20
182.5983629624
 30
0.0
 11
101.6588165408
 21
182.5983629624
 31
0.0
  0
ARC
  5
CB
330
1F
100
AcDbEntity
  8
0
  6
Continuous
 62
     7
370
    30
100
AcDbCircle
 10
103.8525576377
 20
182.0983629624
 30
0.0
 40
2.25000000000002
100
AcDbArc
 50
12.8395884069
 51
167.1604115931
  0
LINE
  5
CC
330
1F
100
AcDbEntity
  8
0
  6
Continuous
 62
     7
370
    30
100
AcDbLine
 10
106.0462987345
 20
182.5983629624
 30
0.0
 11
105.7890493108
 21
182.5983629624
 31
0.0
  0
ARC
  5
CD
330
1F
100
AcDbEntity
  8
0
  6
Continuous
 62
     7
370
    30
100
AcDbCircle
 10
103.8525576377
 20
182.0983629624
 30
0.0
 40
2.250000000000012
100
AcDbArc
 50
167.1604115931
 51
192.8395884069
  0
ARC
  5
CE
330
1F
100
AcDbEntity
  8
0
  6
Continuous
 62
     7
370
    30
100
AcDbCircle
 10
103.8525576377
 20
182.0983629624
 30
0.0
 40
1.249999999999984
100
AcDbArc
 50
156.4218215218
 51
203.5781784782
  0
ARC
  5
CF
330
1F
100
AcDbEntity
  8
0
  6
Continuous
 62
     7
370
    30
100
AcDbCircle
 10
103.8525576377
 20
182.0983629624
 30
0.0
 40
2.250000000000067
100
AcDbArc
 50
347.1604115931
 51
12.8395884069
  0
ARC
  5
D0
330
1F
100
AcDbEntity
  8
0
  6
Continuous
 62
     7
370
    30
100
AcDbCircle
 10
103.8525576377
 20
182.0983629624
 30
0.0
 40
1.250000000000121
100
AcDbArc
 50
336.4218215218
 51
23.5781784782
  0
CIRCLE
  5
D1
330
1F
100
AcDbEntity
  8
0
  6
Continuous
 62
     7
370
    30
100
AcDbCircle
 10
103.8525576377
 20
182.0983629624
 30
0.0
 40
4.050000000000026
  0
CIRCLE
  5
D2
330
1F
100
AcDbEntity
  8
0
  6
Continuous
 62
     7
370
    30
100
AcDbCircle
 10
103.8525576377
 20
182.0983629624
 30
0.0
 40
4.250000000000028
  0
CIRCLE
  5
D3
330
1F
100
AcDbEntity
  8
0
  6
Continuous
 62
     7
370
    30
100
AcDbCircle
 10
119.8487797101
 20
182.2020079988
 30
0.0
 40
3.750000000000016
  0
CIRCLE
  5
D4
330
1F
100
AcDbEntity
  8
0
  6
Continuous
 62
     7
370
    30
100
AcDbCircle
 10
119.8487797101
 20
182.2020079988
 30
0.0
 40
2.75000000000002
  0
ARC
  5
D5
330
1F
100
AcDbEntity
  8
0
  6
Continuous
 62
     7
370
    30
100
AcDbCircle
 10
119.8487797101
 20
182.2020079988
 30
0.0
 40
1.25000000000001
100
AcDbArc
 50
184.7561990439
 51
359.7099200028
  0
CIRCLE
  5
D6
330
1F
100
AcDbEntity
  8
0
  6
Continuous
 62
     7
370
    30
100
AcDbCircle
 10
103.8487797101
 20
182.2020079988
 30
0.0
 40
2.75000000000001
  0
ARC
  5
D7
330
1F
100
AcDbEntity
  8
0
  6
Continuous
 62
     7
370
    30
100
AcDbCircle
 10
103.8487797101
 20
182.2020079988
 30
0.0
 40
1.250000000000018
100
AcDbArc
 50
184.7561990439
 51
359.7099143542
  0
CIRCLE
  5
D8
330
1F
100
AcDbEntity
  8
0
  6
Continuous
 62
     7
370
    30
100
AcDbCircle
 10
103.8487797101
 20
182.2020079988
 30
0.0
 40
3.749999999999993
  0
CIRCLE
  5
D9
330
1F
100
AcDbEntity
  8
0
  6
Continuous
 62
     7
370
    30
100
AcDbCircle
 10
63.8492797101
 20
182.2020079988
 30
0.0
 40
2.750000000000022
  0
ARC
  5
DA
330
1F
100
AcDbEntity
  8
0
  6
Continuous
 62
     7
370
    30
100
AcDbCircle
 10
63.8492797101
 20
182.2020079988
 30
0.0
 40
1.249999999999999
100
AcDbArc
 50
184.7561990439
 51
359.7099136398
  0
CIRCLE
  5
DB
330
1F
100
AcDbEntity
  8
0
  6
Continuous
 62
     7
370
    30
100
AcDbCircle
 10
63.8492797101
 20
182.2020079988
 30
0.0
 40
3.750000000000016
  0
CIRCLE
  5
DC
330
1F
100
AcDbEntity
  8
0
  6
Continuous
 62
     7
370
    30
100
AcDbCircle
 10
47.8492797101
 20
182.2020079988
 30
0.0
 40
3.750000000000003
  0
CIRCLE
  5
DD
330
1F
100
AcDbEntity
  8
0
  6
Continuous
 62
     7
370
    30
100
AcDbCircle
 10
47.8492797101
 20
182.2020079988
 30
0.0
 40
2.75000000000001
  0
ARC
  5
DE
330
1F
100
AcDbEntity
  8
0
  6
Continuous
 62
     7
370
    30
100
AcDbCircle
 10
47.8492797101
 20
182.2020079988
 30
0.0
 40
1.250000000000014
100
AcDbArc
 50
184.7561990439
 51
216.0723310349
  0
ARC
  5
DF
330
1F
100
AcDbEntity
  8
0
  6
Continuous
 62
     7
370
    30
100
AcDbCircle
 10
47.8492797101
 20
182.2020079988
 30
0.0
 40
1.250000000000014
100
AcDbArc
 50
216.0723310349
 51
359.7099143435
  0
LINE
  5
E0
330
1F
100
AcDbEntity
  8
0
  6
Continuous
 62
     7
370
    30
100
AcDbLine
 10
103.8277735512
 20
168.698362307
 30
0.0
 11
103.8277735512
 21
171.6983627988
 31
0.0
  0
LINE
  5
E1
330
1F
100
AcDbEntity
  8
0
  6
Continuous
 62
     7
370
    30
100
AcDbLine
 10
103.8277735512
 20
171.6983627988
 30
0.0
 11
107.3405751537
 21
171.6983627988
 31
0.0
  0
LINE
  5
E2
330
1F
100
AcDbEntity
  8
0
  6
Continuous
 62
     7
370
    30
100
AcDbLine
 10
107.3405751537
 20
168.698362307
 30
0.0
 11
107.3405751537
 21
171.6983627988
 31
0.0
  0
LINE
  5
E3
330
1F
100
AcDbEntity
  8
0
  6
Continuous
 62
     7
370
    30
100
AcDbLine
 10
103.8277735512
 20
168.698362307
 30
0.0
 11
107.3405751537
 21
168.698362307
 31
0.0
  0
LINE
  5
E4
330
1F
100
AcDbEntity
  8
0
  6
Continuous
 62
     7
370
    30
100
AcDbLine
 10
100.3397563051
 20
168.698362307
 30
0.0
 11
100.3397563051
 21
171.6983627988
 31
0.0
  0
LINE
  5
E5
330
1F
100
AcDbEntity
  8
0
  6
Continuous
 62
     7
370
    30
100
AcDbLine
 10
100.3397563051
 20
171.6983627988
 30
0.0
 11
103.8277735512
 21
171.6983627988
 31
0.0
  0
LINE
  5
E6
330
1F
100
AcDbEntity
  8
0
  6
Continuous
 62
     7
370
    30
100
AcDbLine
 10
100.3397563051
 20
168.698362307
 30
0.0
 11
103.8277735512
 21
168.698362307
 31
0.0
  0
LINE
  5
E7
330
1F
100
AcDbEntity
  8
0
  6
Continuous
 62
     7
370
    30
100
AcDbLine
 10
101.8525576377
 20
166.1983629624
 30
0.0
 11
105.8525200413
 21
166.1983629624
 31
0.0
  0
LINE
  5
E8
330
1F
100
AcDbEntity
  8
0
  6
Continuous
 62
     7
370
    30
100
AcDbLine
 10
101.0275576377
 20
167.1983629624
 30
0.0
 11
106.6775045327
 21
167.1983629624
 31
0.0
  0
LINE
  5
E9
330
1F
100
AcDbEntity
  8
0
  6
Continuous
 62
     7
370
    30
100
AcDbLine
 10
101.8525576377
 20
163.1983629624
 30
0.0
 11
105.8525200413
 21
163.1983629624
 31
0.0
  0
LINE
  5
EA
330
1F
100
AcDbEntity
  8
0
  6
Continuous
 62
     7
370
    30
100
AcDbLine
 10
101.0275576377
 20
164.1983629624
 30
0.0
 11
106.6775045327
 21
164.1983629624
 31
0.0
  0
LINE
  5
EB
330
1F
100
AcDbEntity
  8
0
  6
Continuous
 62
     7
370
    30
100
AcDbLine
 10
107.3653576474
 20
168.698362307
 30
0.0
 11
107.3653576474
 21
171.6983627988
 31
0.0
  0
LINE
  5
EC
330
1F
100
AcDbEntity
  8
0
  6
Continuous
 62
     7
370
    30
100
AcDbLine
 10
107.3405751537
 20
171.6983627988
 30
0.0
 11
107.3653576474
 21
171.6983627988
 31
0.0
  0
LINE
  5
ED
330
1F
100
AcDbEntity
  8
0
  6
Continuous
 62
     7
370
    30
100
AcDbLine
 10
107.3405751537
 20
168.698362307
 30
0.0
 11
107.3653576474
 21
168.698362307
 31
0.0
  0
LINE
  5
EE
330
1F
100
AcDbEntity
  8
0
  6
Continuous
 62
     7
370
    30
100
AcDbLine
 10
101.8525576377
 20
161.6983629624
 30
0.0
 11
105.8525200413
 21
161.6983629624
 31
0.0
  0
LINE
  5
EF
330
1F
100
AcDbEntity
  8
0
  6
Continuous
 62
     7
370
    30
100
AcDbLine
 10
60.6673964809
 20
168.698362307
 30
0.0
 11
60.6673964809
 21
171.6983627988
 31
0.0
  0
LINE
  5
F0
330
1F
100
AcDbEntity
  8
0
  6
Continuous
 62
     7
370
    30
100
AcDbLine
 10
60.6673964809
 20
171.6983627988
 30
0.0
 11
64.4147553991
 21
171.6983627988
 31
0.0
  0
LINE
  5
F1
330
1F
100
AcDbEntity
  8
0
  6
Continuous
 62
     7
370
    30
100
AcDbLine
 10
64.4147553991
 20
168.698362307
 30
0.0
 11
64.4147553991
 21
171.6983627988
 31
0.0
  0
LINE
  5
F2
330
1F
100
AcDbEntity
  8
0
  6
Continuous
 62
     7
370
    30
100
AcDbLine
 10
60.6673964809
 20
168.698362307
 30
0.0
 11
64.4147553991
 21
168.698362307
 31
0.0
  0
LINE
  5
F3
330
1F
100
AcDbEntity
  8
0
  6
Continuous
 62
     7
370
    30
100
AcDbLine
 10
67.6004169087
 20
168.698362307
 30
0.0
 11
67.6004169087
 21
171.6983627988
 31
0.0
  0
LINE
  5
F4
330
1F
100
AcDbEntity
  8
0
  6
Continuous
 62
     7
370
    30
100
AcDbLine
 10
64.4147553991
 20
168.698362307
 30
0.0
 11
67.6004169087
 21
168.698362307
 31
0.0
  0
LINE
  5
F5
330
1F
100
AcDbEntity
  8
0
  6
Continuous
 62
     7
370
    30
100
AcDbLine
 10
64.4147553991
 20
171.6983627988
 30
0.0
 11
67.6004169087
 21
171.6983627988
 31
0.0
  0
LINE
  5
F6
330
1F
100
AcDbEntity
  8
0
  6
Continuous
 62
     7
370
    30
100
AcDbLine
 10
65.0840497542
 20
166.1983629624
 30
0.0
 11
65.8530576377
 21
166.1983629624
 31
0.0
  0
LINE
  5
F7
330
1F
100
AcDbEntity
  8
0
  6
Continuous
 62
     7
370
    30
100
AcDbLine
 10
61.8530576377
 20
166.1983629624
 30
0.0
 11
65.0840497542
 21
166.1983629624
 31
0.0
  0
LINE
  5
F8
330
1F
100
AcDbEntity
  8
0
  6
Continuous
 62
     7
370
    30
100
AcDbLine
 10
65.5918340022
 20
167.1983629624
 30
0.0
 11
66.6780576377
 21
167.1983629624
 31
0.0
  0
LINE
  5
F9
330
1F
100
AcDbEntity
  8
0
  6
Continuous
 62
     7
370
    30
100
AcDbLine
 10
61.0280576377
 20
167.1983629624
 30
0.0
 11
65.5918340022
 21
167.1983629624
 31
0.0
  0
LINE
  5
FA
330
1F
100
AcDbEntity
  8
0
  6
Continuous
 62
     7
370
    30
100
AcDbLine
 10
65.0840497542
 20
163.1983629624
 30
0.0
 11
65.8530576377
 21
163.1983629624
 31
0.0
  0
LINE
  5
FB
330
1F
100
AcDbEntity
  8
0
  6
Continuous
 62
     7
370
    30
100
AcDbLine
 10
61.8530576377
 20
163.1983629624
 30
0.0
 11
65.0840497542
 21
163.1983629624
 31
0.0
  0
LINE
  5
FC
330
1F
100
AcDbEntity
  8
0
  6
Continuous
 62
     7
370
    30
100
AcDbLine
 10
65.5918340022
 20
164.1983629624
 30
0.0
 11
66.6780576377
 21
164.1983629624
 31
0.0
  0
LINE
  5
FD
330
1F
100
AcDbEntity
  8
0
  6
Continuous
 62
     7
370
    30
100
AcDbLine
 10
61.0280576377
 20
164.1983629624
 30
0.0
 11
65.5918340022
 21
164.1983629624
 31
0.0
  0
LINE
  5
FE
330
1F
100
AcDbEntity
  8
0
  6
Continuous
 62
     7
370
    30
100
AcDbLine
 10
65.0840497542
 20
161.6983629624
 30
0.0
 11
65.8530576377
 21
161.6983629624
 31
0.0
  0
LINE
  5
FF
330
1F
100
AcDbEntity
  8
0
  6
Continuous
 62
     7
370
    30
100
AcDbLine
 10
61.8530576377
 20
161.6983629624
 30
0.0
 11
65.0840497542
 21
161.6983629624
 31
0.0
  0
LINE
  5
100
330
1F
100
AcDbEntity
  8
0
  6
Continuous
 62
     7
370
    30
100
AcDbLine
 10
60.1056990724
 20
168.698362307
 30
0.0
 11
60.1056990724
 21
171.6983627988
 31
0.0
  0
LINE
  5
101
330
1F
100
AcDbEntity
  8
0
  6
Continuous
 62
     7
370
    30
100
AcDbLine
 10
60.1056990724
 20
168.698362307
 30
0.0
 11
60.6673964809
 21
168.698362307
 31
0.0
  0
LINE
  5
102
330
1F
100
AcDbEntity
  8
0
  6
Continuous
 62
     7
370
    30
100
AcDbLine
 10
60.1056990724
 20
171.6983627988
 30
0.0
 11
60.6673964809
 21
171.6983627988
 31
0.0
  0
LINE
  5
103
330
1F
100
AcDbEntity
  8
0
  6
Continuous
 62
     7
370
    30
100
AcDbLine
 10
47.0280376773
 20
168.698362307
 30
0.0
 11
47.0280376773
 21
171.6983627988
 31
0.0
  0
LINE
  5
104
330
1F
100
AcDbEntity
  8
0
  6
Continuous
 62
     7
370
    30
100
AcDbLine
 10
47.0280376773
 20
171.6983627988
 30
0.0
 11
50.8673293095
 21
171.6983627988
 31
0.0
  0
LINE
  5
105
330
1F
100
AcDbEntity
  8
0
  6
Continuous
 62
     7
370
    30
100
AcDbLine
 10
50.8673293095
 20
168.698362307
 30
0.0
 11
50.8673293095
 21
171.6983627988
 31
0.0
  0
LINE
  5
106
330
1F
100
AcDbEntity
  8
0
  6
Continuous
 62
     7
370
    30
100
AcDbLine
 10
47.0280376773
 20
168.698362307
 30
0.0
 11
50.8673293095
 21
168.698362307
 31
0.0
  0
LINE
  5
107
330
1F
100
AcDbEntity
  8
0
  6
Continuous
 62
     7
370
    30
100
AcDbLine
 10
44.0137674611
 20
168.698362307
 30
0.0
 11
44.0137674611
 21
171.6983627988
 31
0.0
  0
LINE
  5
108
330
1F
100
AcDbEntity
  8
0
  6
Continuous
 62
     7
370
    30
100
AcDbLine
 10
44.0137674611
 20
171.6983627988
 30
0.0
 11
47.0280376773
 21
171.6983627988
 31
0.0
  0
LINE
  5
109
330
1F
100
AcDbEntity
  8
0
  6
Continuous
 62
     7
370
    30
100
AcDbLine
 10
44.0137674611
 20
168.698362307
 30
0.0
 11
47.0280376773
 21
168.698362307
 31
0.0
  0
LINE
  5
10A
330
1F
100
AcDbEntity
  8
0
  6
Continuous
 62
     7
370
    30
100
AcDbLine
 10
49.8109529626
 20
166.1983629624
 30
0.0
 11
49.8530576377
 21
166.1983629624
 31
0.0
  0
LINE
  5
10B
330
1F
100
AcDbEntity
  8
0
  6
Continuous
 62
     7
370
    30
100
AcDbLine
 10
45.8530576377
 20
166.1983629624
 30
0.0
 11
49.8109529626
 21
166.1983629624
 31
0.0
  0
LINE
  5
10C
330
1F
100
AcDbEntity
  8
0
  6
Continuous
 62
     7
370
    30
100
AcDbLine
 10
50.6185847842
 20
167.1983629624
 30
0.0
 11
50.6780576377
 21
167.1983629624
 31
0.0
  0
LINE
  5
10D
330
1F
100
AcDbEntity
  8
0
  6
Continuous
 62
     7
370
    30
100
AcDbLine
 10
45.0280576377
 20
167.1983629624
 30
0.0
 11
50.6185847842
 21
167.1983629624
 31
0.0
  0
LINE
  5
10E
330
1F
100
AcDbEntity
  8
0
  6
Continuous
 62
     7
370
    30
100
AcDbLine
 10
49.8109529626
 20
163.1983629624
 30
0.0
 11
49.8530576377
 21
163.1983629624
 31
0.0
  0
LINE
  5
10F
330
1F
100
AcDbEntity
  8
0
  6
Continuous
 62
     7
370
    30
100
AcDbLine
 10
45.8530576377
 20
163.1983629624
 30
0.0
 11
49.8109529626
 21
163.1983629624
 31
0.0
  0
LINE
  5
110
330
1F
100
AcDbEntity
  8
0
  6
Continuous
 62
     7
370
    30
100
AcDbLine
 10
50.6185847842
 20
164.1983629624
 30
0.0
 11
50.6780576377
 21
164.1983629624
 31
0.0
  0
LINE
  5
111
330
1F
100
AcDbEntity
  8
0
  6
Continuous
 62
     7
370
    30
100
AcDbLine
 10
45.0280576377
 20
164.1983629624
 30
0.0
 11
50.6185847842
 21
164.1983629624
 31
0.0
  0
LINE
  5
112
330
1F
100
AcDbEntity
  8
0
  6
Continuous
 62
     7
370
    30
100
AcDbLine
 10
51.6923470001
 20
168.698362307
 30
0.0
 11
51.6923470001
 21
171.6983627988
 31
0.0
  0
LINE
  5
113
330
1F
100
AcDbEntity
  8
0
  6
Continuous
 62
     7
370
    30
100
AcDbLine
 10
50.8673293095
 20
171.6983627988
 30
0.0
 11
51.6923470001
 21
171.6983627988
 31
0.0
  0
LINE
  5
114
330
1F
100
AcDbEntity
  8
0
  6
Continuous
 62
     7
370
    30
100
AcDbLine
 10
50.8673293095
 20
168.698362307
 30
0.0
 11
51.6923470001
 21
168.698362307
 31
0.0
  0
LINE
  5
115
330
1F
100
AcDbEntity
  8
0
  6
Continuous
 62
     7
370
    30
100
AcDbLine
 10
49.8109529626
 20
161.6983629624
 30
0.0
 11
49.8530576377
 21
161.6983629624
 31
0.0
  0
LINE
  5
116
330
1F
100
AcDbEntity
  8
0
  6
Continuous
 62
     7
370
    30
100
AcDbLine
 10
45.8530576377
 20
161.6983629624
 30
0.0
 11
49.8109529626
 21
161.6983629624
 31
0.0
  0
LINE
  5
117
330
1F
100
AcDbEntity
  8
0
  6
Continuous
 62
     7
370
    30
100
AcDbLine
 10
119.8277724485
 20
168.698362307
 30
0.0
 11
119.8277724485
 21
171.6983627988
 31
0.0
  0
LINE
  5
118
330
1F
100
AcDbEntity
  8
0
  6
Continuous
 62
     7
370
    30
100
AcDbLine
 10
119.8277724485
 20
171.6983627988
 30
0.0
 11
123.3405759137
 21
171.6983627988
 31
0.0
  0
LINE
  5
119
330
1F
100
AcDbEntity
  8
0
  6
Continuous
 62
     7
370
    30
100
AcDbLine
 10
123.3405759137
 20
168.698362307
 30
0.0
 11
123.3405759137
 21
171.6983627988
 31
0.0
  0
LINE
  5
11A
330
1F
100
AcDbEntity
  8
0
  6
Continuous
 62
     7
370
    30
100
AcDbLine
 10
119.8277724485
 20
168.698362307
 30
0.0
 11
123.3405759137
 21
168.698362307
 31
0.0
  0
LINE
  5
11B
330
1F
100
AcDbEntity
  8
0
  6
Continuous
 62
     7
370
    30
100
AcDbLine
 10
116.3397570651
 20
168.698362307
 30
0.0
 11
116.3397570651
 21
171.6983627988
 31
0.0
  0
LINE
  5
11C
330
1F
100
AcDbEntity
  8
0
  6
Continuous
 62
     7
370
    30
100
AcDbLine
 10
116.3397570651
 20
171.6983627988
 30
0.0
 11
119.8277724485
 21
171.6983627988
 31
0.0
  0
LINE
  5
11D
330
1F
100
AcDbEntity
  8
0
  6
Continuous
 62
     7
370
    30
100
AcDbLine
 10
116.3397570651
 20
168.698362307
 30
0.0
 11
119.8277724485
 21
168.698362307
 31
0.0
  0
LINE
  5
11E
330
1F
100
AcDbEntity
  8
0
  6
Continuous
 62
     7
370
    30
100
AcDbLine
 10
117.8525576377
 20
166.1983629624
 30
0.0
 11
121.8525200413
 21
166.1983629624
 31
0.0
  0
LINE
  5
11F
330
1F
100
AcDbEntity
  8
0
  6
Continuous
 62
     7
370
    30
100
AcDbLine
 10
117.0275576377
 20
167.1983629624
 30
0.0
 11
122.6775045327
 21
167.1983629624
 31
0.0
  0
LINE
  5
120
330
1F
100
AcDbEntity
  8
0
  6
Continuous
 62
     7
370
    30
100
AcDbLine
 10
117.8525576377
 20
163.1983629624
 30
0.0
 11
121.8525200413
 21
163.1983629624
 31
0.0
  0
LINE
  5
121
330
1F
100
AcDbEntity
  8
0
  6
Continuous
 62
     7
370
    30
100
AcDbLine
 10
117.0275576377
 20
164.1983629624
 30
0.0
 11
122.6775045327
 21
164.1983629624
 31
0.0
  0
LINE
  5
122
330
1F
100
AcDbEntity
  8
0
  6
Continuous
 62
     7
370
    30
100
AcDbLine
 10
123.3653565447
 20
168.698362307
 30
0.0
 11
123.3653565447
 21
171.6983627988
 31
0.0
  0
LINE
  5
123
330
1F
100
AcDbEntity
  8
0
  6
Continuous
 62
     7
370
    30
100
AcDbLine
 10
123.3405759137
 20
171.6983627988
 30
0.0
 11
123.3653565447
 21
171.6983627988
 31
0.0
  0
LINE
  5
124
330
1F
100
AcDbEntity
  8
0
  6
Continuous
 62
     7
370
    30
100
AcDbLine
 10
123.3405759137
 20
168.698362307
 30
0.0
 11
123.3653565447
 21
168.698362307
 31
0.0
  0
LINE
  5
125
330
1F
100
AcDbEntity
  8
0
  6
Continuous
 62
     7
370
    30
100
AcDbLine
 10
117.8525576377
 20
161.6983629624
 30
0.0
 11
121.8525200413
 21
161.6983629624
 31
0.0
  0
DIMENSION
  5
126
330
1F
100
AcDbEntity
  8
0
  6
Continuous
 62
     7
370
     0
100
AcDbDimension
  2
*D1
 10
129.8525576377
 20
208.1581728459
 30
0.0
 11
83.8528076377
 21
208.1581728459
 31
0.0
 70
   160
 71
     1
 42
91.9995
  3
SLDDIMSTYLE0
100
AcDbAlignedDimension
 13
37.8530576377
 23
188.0983629624
 33
0.0
 14
129.8525576377
 24
188.0983629624
 34
0.0
100
AcDbRotatedDimension
1001
ACAD
1000
DSTYLE
1002
{
1070
    77
1070
     3
1070
   143
1040
0.0393700787
1070
    41
1040
3.0
1070
    44
1040
1.0
1070
    42
1040
1.0
1070
   147
1040
1.524
1070
    73
1070
     0
1070
    74
1070
     0
1070
   140
1040
3.5
1070
   284
1070
    12
1070
    78
1070
    12
1002
}
  0
DIMENSION
  5
141
330
1F
100
AcDbEntity
  8
0
  6
Continuous
 62
     7
370
     0
100
AcDbDimension
  2
*D3
 10
29.9700147205
 20
172.0983629624
 30
0.0
 11
29.9700147205
 21
181.5983629624
 31
0.0
 70
   160
 71
     1
 42
19.0
  3
SLDDIMSTYLE0
100
AcDbAlignedDimension
 13
78.8525576377
 23
191.0983629624
 33
0.0
 14
37.8530576377
 24
172.0983629624
 34
0.0
 50
90.0
100
AcDbRotatedDimension
1001
ACAD
1000
DSTYLE
1002
{
1070
    77
1070
     3
1070
   143
1040
0.0393700787
1070
    41
1040
3.0
1070
    44
1040
1.0
1070
    42
1040
1.0
1070
   147
1040
1.524
1070
    73
1070
     0
1070
    74
1070
     0
1070
   140
1040
3.5
1070
   284
1070
    12
1070
    78
1070
    12
1002
}
  0
MTEXT
  5
155
330
1F
100
AcDbEntity
  8
0
  6
Continuous
 62
     7
370
     0
100
AcDbMText
 10
86.7045307179
 20
156.4151133375
 30
0.2571158934
 40
3.5
 41
0.0
 71
     1
 72
     1
  1
2-BF-5
  7
SLDTEXTSTYLE0
 73
     1
 44
1.0
  0
LEADER
  5
157
330
1F
100
AcDbEntity
  8
0
  6
Continuous
 62
     7
370
     0
100
AcDbLeader
  3
SLDDIMSTYLE1
 76
     3
 10
103.906851641
 20
162.2573238473
 30
0.0
 10
99.4225973446
 20
152.3407820108
 30
0.0
 10
86.7076805392
 20
152.3407820108
 30
0.0
  0
MTEXT
  5
158
330
1F
100
AcDbEntity
  8
0
  6
Continuous
 62
     7
370
     0
100
AcDbMText
 10
130.9085046696
 20
156.6054227356
 30
-3.3790903279
 40
3.5
 41
0.0
 71
     1
 72
     1
  1
2-BF-6
  7
SLDTEXTSTYLE0
 73
     1
 44
1.0
  0
LEADER
  5
159
330
1F
100
AcDbEntity
  8
0
  6
Continuous
 62
     7
370
     0
100
AcDbLeader
  3
SLDDIMSTYLE1
 76
     3
 10
119.9513173
 20
162.6093967615
 30
0.0
 10
130.4082795717
 20
152.5319886396
 30
0.0
 10
143.1263831543
 20
152.5319886396
 30
0.0
  0
LINE
  5
15A
330
1F
100
AcDbEntity
  8
0
  6
CENTERX2
 62
     7
370
     0
100
AcDbLine
 10
83.8528076377
 20
170.0983629624
 30
0.0
 11
83.8528076377
 21
190.0983629624
 31
0.0
  0
LINE
  5
15B
330
1F
100
AcDbEntity
  8
0
  6
Continuous
 62
     7
370
    30
100
AcDbLine
 10
61.6030576377
 20
107.5850130746
 30
0.0
 11
61.6030571561
 21
107.0850124118
 31
0.0
  0
LINE
  5
15C
330
1F
100
AcDbEntity
  8
0
  6
Continuous
 62
     7
370
    30
100
AcDbLine
 10
66.1030569624
 20
107.0850124118
 30
0.0
 11
66.1030576377
 21
107.5850130746
 31
0.0
  0
LINE
  5
15D
330
1F
100
AcDbEntity
  8
0
  6
Continuous
 62
     7
370
    30
100
AcDbLine
 10
45.6030576377
 20
107.5850130746
 30
0.0
 11
45.6030582588
 21
107.0850124118
 31
0.0
  0
LINE
  5
15E
330
1F
100
AcDbEntity
  8
0
  6
Continuous
 62
     7
370
    30
100
AcDbLine
 10
50.1030562024
 20
107.0850124118
 30
0.0
 11
50.1030576377
 21
107.5850130746
 31
0.0
  0
LINE
  5
15F
330
1F
100
AcDbEntity
  8
0
  6
Continuous
 62
     7
370
    30
100
AcDbLine
 10
117.6025576377
 20
107.5850130746
 30
0.0
 11
117.6025559704
 21
107.0850124118
 31
0.0
  0
LINE
  5
160
330
1F
100
AcDbEntity
  8
0
  6
Continuous
 62
     7
370
    30
100
AcDbLine
 10
122.1025576394
 20
107.0850124118
 30
0.0
 11
122.1025576377
 21
107.5850130746
 31
0.0
  0
LINE
  5
161
330
1F
100
AcDbEntity
  8
0
  6
Continuous
 62
     7
370
    30
100
AcDbLine
 10
101.6025576377
 20
107.5850130746
 30
0.0
 11
101.6025570731
 21
107.0850124118
 31
0.0
  0
LINE
  5
162
330
1F
100
AcDbEntity
  8
0
  6
Continuous
 62
     7
370
    30
100
AcDbLine
 10
106.1025568794
 20
107.0850124118
 30
0.0
 11
106.1025576377
 21
107.5850130746
 31
0.0
  0
LINE
  5
163
330
1F
100
AcDbEntity
  8
0
  6
Continuous
 62
     7
370
    30
100
AcDbLine
 10
123.5987795096
 20
102.5850126055
 30
0.0
 11
123.5987797101
 21
106.0850130746
 31
0.0
  0
LINE
  5
164
330
1F
100
AcDbEntity
  8
0
  6
Continuous
 62
     7
370
    30
100
AcDbLine
 10
116.0987797101
 20
106.0850130746
 30
0.0
 11
116.0987792115
 21
102.5850126055
 31
0.0
  0
LINE
  5
165
330
1F
100
AcDbEntity
  8
0
  6
Continuous
 62
     7
370
    30
100
AcDbLine
 10
123.5987797101
 20
106.0850130746
 30
0.0
 11
122.5987797101
 21
107.0850130746
 31
0.0
  0
LINE
  5
166
330
1F
100
AcDbEntity
  8
0
  6
Continuous
 62
     7
370
    30
100
AcDbLine
 10
117.0987797101
 20
107.0850130746
 30
0.0
 11
116.0987797101
 21
106.0850130746
 31
0.0
  0
LINE
  5
167
330
1F
100
AcDbEntity
  8
0
  6
Continuous
 62
     7
370
    30
100
AcDbLine
 10
107.5987806122
 20
102.5850126055
 30
0.0
 11
107.5987797101
 21
106.0850130746
 31
0.0
  0
LINE
  5
168
330
1F
100
AcDbEntity
  8
0
  6
Continuous
 62
     7
370
    30
100
AcDbLine
 10
100.0987797101
 20
106.0850130746
 30
0.0
 11
100.0987803142
 21
102.5850126055
 31
0.0
  0
LINE
  5
169
330
1F
100
AcDbEntity
  8
0
  6
Continuous
 62
     7
370
    30
100
AcDbLine
 10
107.5987797101
 20
106.0850130746
 30
0.0
 11
106.5987797101
 21
107.0850130746
 31
0.0
  0
LINE
  5
16A
330
1F
100
AcDbEntity
  8
0
  6
Continuous
 62
     7
370
    30
100
AcDbLine
 10
101.0987797101
 20
107.0850130746
 30
0.0
 11
100.0987797101
 21
106.0850130746
 31
0.0
  0
LINE
  5
16B
330
1F
100
AcDbEntity
  8
0
  6
Continuous
 62
     7
370
    30
100
AcDbLine
 10
67.5992788326
 20
102.5850126055
 30
0.0
 11
67.5992797101
 21
106.0850130746
 31
0.0
  0
LINE
  5
16C
330
1F
100
AcDbEntity
  8
0
  6
Continuous
 62
     7
370
    30
100
AcDbLine
 10
60.0992797101
 20
106.0850130746
 30
0.0
 11
60.0992803972
 21
102.5850126055
 31
0.0
  0
LINE
  5
16D
330
1F
100
AcDbEntity
  8
0
  6
Continuous
 62
     7
370
    30
100
AcDbLine
 10
67.5992797101
 20
106.0850130746
 30
0.0
 11
66.5992797101
 21
107.0850130746
 31
0.0
  0
LINE
  5
16E
330
1F
100
AcDbEntity
  8
0
  6
Continuous
 62
     7
370
    30
100
AcDbLine
 10
61.0992797101
 20
107.0850130746
 30
0.0
 11
60.0992797101
 21
106.0850130746
 31
0.0
  0
LINE
  5
16F
330
1F
100
AcDbEntity
  8
0
  6
Continuous
 62
     7
370
    30
100
AcDbLine
 10
51.5992780726
 20
102.5850126055
 30
0.0
 11
51.5992797101
 21
106.0850130746
 31
0.0
  0
LINE
  5
170
330
1F
100
AcDbEntity
  8
0
  6
Continuous
 62
     7
370
    30
100
AcDbLine
 10
44.0992797101
 20
106.0850130746
 30
0.0
 11
44.0992814999
 21
102.5850126055
 31
0.0
  0
LINE
  5
171
330
1F
100
AcDbEntity
  8
0
  6
Continuous
 62
     7
370
    30
100
AcDbLine
 10
51.5992797101
 20
106.0850130746
 30
0.0
 11
50.5992797101
 21
107.0850130746
 31
0.0
  0
LINE
  5
172
330
1F
100
AcDbEntity
  8
0
  6
Continuous
 62
     7
370
    30
100
AcDbLine
 10
45.0992797101
 20
107.0850130746
 30
0.0
 11
44.0992797101
 21
106.0850130746
 31
0.0
  0
LINE
  5
173
330
1F
100
AcDbEntity
  8
0
  6
Continuous
 62
     7
370
    30
100
AcDbLine
 10
37.8530574541
 20
102.5850126055
 30
0.0
 11
129.852558444
 21
102.5850126055
 31
0.0
  0
LINE
  5
174
330
1F
100
AcDbEntity
  8
0
  6
Continuous
 62
     7
370
    30
100
AcDbLine
 10
129.852558444
 20
102.5850126055
 30
0.0
 11
129.852558444
 21
88.0850148854
 31
0.0
  0
LINE
  5
175
330
1F
100
AcDbEntity
  8
0
  6
Continuous
 62
     7
370
    30
100
AcDbLine
 10
129.852558444
 20
88.0850148854
 30
0.0
 11
37.8530574541
 21
88.0850148854
 31
0.0
  0
LINE
  5
176
330
1F
100
AcDbEntity
  8
0
  6
Continuous
 62
     7
370
    30
100
AcDbLine
 10
37.8530574541
 20
88.0850148854
 30
0.0
 11
37.8530574541
 21
102.5850126055
 31
0.0
  0
CIRCLE
  5
177
330
1F
100
AcDbEntity
  8
0
  6
Continuous
 62
     7
370
    30
100
AcDbCircle
 10
71.8430576377
 20
92.5850130746
 30
0.0
 40
3.750000000000028
  0
CIRCLE
  5
178
330
1F
100
AcDbEntity
  8
0
  6
Continuous
 62
     7
370
    30
100
AcDbCircle
 10
95.8425576377
 20
92.5850130746
 30
0.0
 40
3.750000000000028
  0
CIRCLE
  5
179
330
1F
100
AcDbEntity
  8
0
  6
Continuous
 62
     7
370
    30
100
AcDbCircle
 10
95.8425576377
 20
92.5850130746
 30
0.0
 40
2.25
  0
CIRCLE
  5
17A
330
1F
100
AcDbEntity
  8
0
  6
Continuous
 62
     7
370
    30
100
AcDbCircle
 10
71.8430576377
 20
92.5850130746
 30
0.0
 40
2.25
  0
LINE
  5
17B
330
1F
100
AcDbEntity
  8
0
  6
Continuous
 62
     7
370
    30
100
AcDbLine
 10
120.8525576377
 20
92.5850130746
 30
0.0
 11
118.8525576377
 21
92.5850130746
 31
0.0
  0
LINE
  5
17C
330
1F
100
AcDbEntity
  8
0
  6
Continuous
 62
     7
370
    30
100
AcDbLine
 10
104.8525576377
 20
92.5850130746
 30
0.0
 11
102.8525576377
 21
92.5850130746
 31
0.0
  0
LINE
  5
17D
330
1F
100
AcDbEntity
  8
0
  6
Continuous
 62
     7
370
    30
100
AcDbLine
 10
64.8530576377
 20
92.5850130746
 30
0.0
 11
62.8530576377
 21
92.5850130746
 31
0.0
  0
LINE
  5
17E
330
1F
100
AcDbEntity
  8
0
  6
Continuous
 62
     7
370
    30
100
AcDbLine
 10
48.8530576377
 20
92.5850130746
 30
0.0
 11
46.8530576377
 21
92.5850130746
 31
0.0
  0
ARC
  5
17F
330
1F
100
AcDbEntity
  8
0
  6
Continuous
 62
     7
370
    30
100
AcDbCircle
 10
119.8437274755
 20
93.7974821448
 30
0.0
 40
2.005274615407031
100
AcDbArc
 50
248.2355923561
 51
292.1385535462
  0
ARC
  5
180
330
1F
100
AcDbEntity
  8
0
  6
Continuous
 62
     7
370
    30
100
AcDbCircle
 10
103.8437266963
 20
93.7974880311
 30
0.0
 40
2.005280075001785
100
AcDbArc
 50
248.2356552281
 51
292.1384906742
  0
ARC
  5
181
330
1F
100
AcDbEntity
  8
0
  6
Continuous
 62
     7
370
    30
100
AcDbCircle
 10
47.8451374876
 20
93.7761236197
 30
0.0
 40
1.984652918661019
100
AcDbArc
 50
248.8225346455
 51
292.1271070808
  0
ARC
  5
182
330
1F
100
AcDbEntity
  8
0
  6
Continuous
 62
     7
370
    30
100
AcDbCircle
 10
63.847509014
 20
93.8015110501
 30
0.0
 40
2.009433943795265
100
AcDbArc
 50
248.7972695772
 51
292.6939026606
  0
LINE
  5
183
330
1F
100
AcDbEntity
  8
0
  6
Continuous
 62
     7
370
    30
100
AcDbLine
 10
61.6030576377
 20
107.5850130746
 30
0.0
 11
61.6593165408
 21
107.5850130746
 31
0.0
  0
LINE
  5
184
330
1F
100
AcDbEntity
  8
0
  6
Continuous
 62
     7
370
    30
100
AcDbLine
 10
61.6593165408
 20
107.5850130746
 30
0.0
 11
66.0467987345
 21
107.5850130746
 31
0.0
  0
LINE
  5
185
330
1F
100
AcDbEntity
  8
0
  6
Continuous
 62
     7
370
    30
100
AcDbLine
 10
66.0467987345
 20
107.5850130746
 30
0.0
 11
66.1030576377
 21
107.5850130746
 31
0.0
  0
LWPOLYLINE
  5
186
330
1F
100
AcDbEntity
  8
0
  6
Continuous
 62
     7
370
    30
100
AcDbPolyline
 90
        3
 70
   128
 43
0.0
 10
61.6593164902
 20
107.5850134251
 10
61.8114647966
 20
108.1773019863
 10
61.9165664117
 20
108.5850126577
  0
LINE
  5
187
330
1F
100
AcDbEntity
  8
0
  6
Continuous
 62
     7
370
    30
100
AcDbLine
 10
61.9165659646
 20
108.5850130746
 30
0.0
 11
65.7895493108
 21
108.5850130746
 31
0.0
  0
LWPOLYLINE
  5
188
330
1F
100
AcDbEntity
  8
0
  6
Continuous
 62
     7
370
    30
100
AcDbPolyline
 90
        3
 70
   128
 43
0.0
 10
65.7895495694
 20
108.5850126577
 10
65.8946493219
 20
108.1773019863
 10
66.0467994909
 20
107.5850134251
  0
LINE
  5
189
330
1F
100
AcDbEntity
  8
0
  6
Continuous
 62
     7
370
    30
100
AcDbLine
 10
45.6030576377
 20
107.5850130746
 30
0.0
 11
45.6593165408
 21
107.5850130746
 31
0.0
  0
LINE
  5
18A
330
1F
100
AcDbEntity
  8
0
  6
Continuous
 62
     7
370
    30
100
AcDbLine
 10
45.6593165408
 20
107.5850130746
 30
0.0
 11
50.0467987345
 21
107.5850130746
 31
0.0
  0
LINE
  5
18B
330
1F
100
AcDbEntity
  8
0
  6
Continuous
 62
     7
370
    30
100
AcDbLine
 10
50.0467987345
 20
107.5850130746
 30
0.0
 11
50.1030576377
 21
107.5850130746
 31
0.0
  0
LWPOLYLINE
  5
18C
330
1F
100
AcDbEntity
  8
0
  6
Continuous
 62
     7
370
    30
100
AcDbPolyline
 90
        3
 70
   128
 43
0.0
 10
45.6593175929
 20
107.5850134251
 10
45.8114658992
 20
108.1773019863
 10
45.9165675144
 20
108.5850126577
  0
LINE
  5
18D
330
1F
100
AcDbEntity
  8
0
  6
Continuous
 62
     7
370
    30
100
AcDbLine
 10
45.9165659646
 20
108.5850130746
 30
0.0
 11
49.7895493108
 21
108.5850130746
 31
0.0
  0
LWPOLYLINE
  5
18E
330
1F
100
AcDbEntity
  8
0
  6
Continuous
 62
     7
370
    30
100
AcDbPolyline
 90
        3
 70
   128
 43
0.0
 10
49.7895506721
 20
108.5850126577
 10
49.894648562
 20
108.1773019863
 10
50.0468005936
 20
107.5850134251
  0
LINE
  5
18F
330
1F
100
AcDbEntity
  8
0
  6
Continuous
 62
     7
370
    30
100
AcDbLine
 10
117.6025576377
 20
107.5850130746
 30
0.0
 11
117.6588165408
 21
107.5850130746
 31
0.0
  0
LINE
  5
190
330
1F
100
AcDbEntity
  8
0
  6
Continuous
 62
     7
370
    30
100
AcDbLine
 10
117.6588165408
 20
107.5850130746
 30
0.0
 11
122.0462987345
 21
107.5850130746
 31
0.0
  0
LINE
  5
191
330
1F
100
AcDbEntity
  8
0
  6
Continuous
 62
     7
370
    30
100
AcDbLine
 10
122.0462987345
 20
107.5850130746
 30
0.0
 11
122.1025576377
 21
107.5850130746
 31
0.0
  0
LWPOLYLINE
  5
192
330
1F
100
AcDbEntity
  8
0
  6
Continuous
 62
     7
370
    30
100
AcDbPolyline
 90
        3
 70
   128
 43
0.0
 10
117.6588153045
 20
107.5850134251
 10
117.8109636109
 20
108.1773019863
 10
117.9160652261
 20
108.5850126577
  0
LINE
  5
193
330
1F
100
AcDbEntity
  8
0
  6
Continuous
 62
     7
370
    30
100
AcDbLine
 10
117.9160659646
 20
108.5850130746
 30
0.0
 11
121.7890493108
 21
108.5850130746
 31
0.0
  0
LWPOLYLINE
  5
194
330
1F
100
AcDbEntity
  8
0
  6
Continuous
 62
     7
370
    30
100
AcDbPolyline
 90
        3
 70
   128
 43
0.0
 10
121.7890483837
 20
108.5850126577
 10
121.8941499989
 20
108.1773019863
 10
122.0462983053
 20
107.5850134251
  0
LINE
  5
195
330
1F
100
AcDbEntity
  8
0
  6
Continuous
 62
     7
370
    30
100
AcDbLine
 10
101.6025576377
 20
107.5850130746
 30
0.0
 11
101.6588165408
 21
107.5850130746
 31
0.0
  0
LINE
  5
196
330
1F
100
AcDbEntity
  8
0
  6
Continuous
 62
     7
370
    30
100
AcDbLine
 10
101.6588165408
 20
107.5850130746
 30
0.0
 11
106.0462987345
 21
107.5850130746
 31
0.0
  0
LINE
  5
197
330
1F
100
AcDbEntity
  8
0
  6
Continuous
 62
     7
370
    30
100
AcDbLine
 10
106.0462987345
 20
107.5850130746
 30
0.0
 11
106.1025576377
 21
107.5850130746
 31
0.0
  0
LWPOLYLINE
  5
198
330
1F
100
AcDbEntity
  8
0
  6
Continuous
 62
     7
370
    30
100
AcDbPolyline
 90
        3
 70
   128
 43
0.0
 10
101.6588164072
 20
107.5850134251
 10
101.8109647136
 20
108.1773019863
 10
101.9160663288
 20
108.5850126577
  0
LINE
  5
199
330
1F
100
AcDbEntity
  8
0
  6
Continuous
 62
     7
370
    30
100
AcDbLine
 10
101.9160659646
 20
108.5850130746
 30
0.0
 11
105.7890493108
 21
108.5850130746
 31
0.0
  0
LWPOLYLINE
  5
19A
330
1F
100
AcDbEntity
  8
0
  6
Continuous
 62
     7
370
    30
100
AcDbPolyline
 90
        3
 70
   128
 43
0.0
 10
105.7890494864
 20
108.5850126577
 10
105.8941511016
 20
108.1773019863
 10
106.046299408
 20
107.5850134251
  0
LINE
  5
19B
330
1F
100
AcDbEntity
  8
0
  6
Continuous
 62
     7
370
    30
100
AcDbLine
 10
123.5987797101
 20
106.0850130746
 30
0.0
 11
116.0987797101
 21
106.0850130746
 31
0.0
  0
LINE
  5
19C
330
1F
100
AcDbEntity
  8
0
  6
Continuous
 62
     7
370
    30
100
AcDbLine
 10
122.5987797101
 20
107.0850130746
 30
0.0
 11
117.0987797101
 21
107.0850130746
 31
0.0
  0
LINE
  5
19D
330
1F
100
AcDbEntity
  8
0
  6
Continuous
 62
     7
370
    30
100
AcDbLine
 10
107.5987797101
 20
106.0850130746
 30
0.0
 11
100.0987797101
 21
106.0850130746
 31
0.0
  0
LINE
  5
19E
330
1F
100
AcDbEntity
  8
0
  6
Continuous
 62
     7
370
    30
100
AcDbLine
 10
106.5987797101
 20
107.0850130746
 30
0.0
 11
101.0987797101
 21
107.0850130746
 31
0.0
  0
LINE
  5
19F
330
1F
100
AcDbEntity
  8
0
  6
Continuous
 62
     7
370
    30
100
AcDbLine
 10
67.5992797101
 20
106.0850130746
 30
0.0
 11
60.0992797101
 21
106.0850130746
 31
0.0
  0
LINE
  5
1A0
330
1F
100
AcDbEntity
  8
0
  6
Continuous
 62
     7
370
    30
100
AcDbLine
 10
66.5992797101
 20
107.0850130746
 30
0.0
 11
61.0992797101
 21
107.0850130746
 31
0.0
  0
LINE
  5
1A1
330
1F
100
AcDbEntity
  8
0
  6
Continuous
 62
     7
370
    30
100
AcDbLine
 10
44.8182510057
 20
106.0850130746
 30
0.0
 11
44.0992797101
 21
106.0850130746
 31
0.0
  0
LINE
  5
1A2
330
1F
100
AcDbEntity
  8
0
  6
Continuous
 62
     7
370
    30
100
AcDbLine
 10
51.5992797101
 20
106.0850130746
 30
0.0
 11
44.8182510057
 21
106.0850130746
 31
0.0
  0
LINE
  5
1A3
330
1F
100
AcDbEntity
  8
0
  6
Continuous
 62
     7
370
    30
100
AcDbLine
 10
45.6265253269
 20
107.0850130746
 30
0.0
 11
45.0992797101
 21
107.0850130746
 31
0.0
  0
LINE
  5
1A4
330
1F
100
AcDbEntity
  8
0
  6
Continuous
 62
     7
370
    30
100
AcDbLine
 10
50.5992797101
 20
107.0850130746
 30
0.0
 11
45.6265253269
 21
107.0850130746
 31
0.0
  0
CIRCLE
  5
1A5
330
1F
100
AcDbEntity
  8
0
  6
Continuous
 62
     7
370
    30
100
AcDbCircle
 10
103.8525576377
 20
92.5850130746
 30
0.0
 40
1.000000000000012
  0
CIRCLE
  5
1A6
330
1F
100
AcDbEntity
  8
0
  6
Continuous
 62
     7
370
    30
100
AcDbCircle
 10
103.8525576377
 20
92.5850130746
 30
0.0
 40
2.000000000000052
  0
CIRCLE
  5
1A7
330
1F
100
AcDbEntity
  8
0
  6
Continuous
 62
     7
370
    30
100
AcDbCircle
 10
103.8525576377
 20
92.5850130746
 30
0.0
 40
2.825000000000057
  0
LINE
  5
1A8
330
1F
100
AcDbEntity
  8
0
  6
Continuous
 62
     7
370
    30
100
AcDbLine
 10
103.8277735512
 20
96.6269379017
 30
0.0
 11
107.3405751537
 21
94.6274386254
 31
0.0
  0
LINE
  5
1A9
330
1F
100
AcDbEntity
  8
0
  6
Continuous
 62
     7
370
    30
100
AcDbLine
 10
107.3405751537
 20
94.6274386254
 30
0.0
 11
107.3653576474
 21
90.5855154154
 31
0.0
  0
LINE
  5
1AA
330
1F
100
AcDbEntity
  8
0
  6
Continuous
 62
     7
370
    30
100
AcDbLine
 10
107.3653576474
 20
90.5855154154
 30
0.0
 11
103.8773422639
 21
88.5430877564
 31
0.0
  0
LINE
  5
1AB
330
1F
100
AcDbEntity
  8
0
  6
Continuous
 62
     7
370
    30
100
AcDbLine
 10
100.3645406615
 20
90.5425888953
 30
0.0
 11
100.3397563051
 21
94.5845121053
 31
0.0
  0
LINE
  5
1AC
330
1F
100
AcDbEntity
  8
0
  6
Continuous
 62
     7
370
    30
100
AcDbLine
 10
100.3397563051
 20
94.5845121053
 30
0.0
 11
103.8277735512
 21
96.6269379017
 31
0.0
  0
LINE
  5
1AD
330
1F
100
AcDbEntity
  8
0
  6
Continuous
 62
     7
370
    30
100
AcDbLine
 10
103.8773422639
 20
88.5430877564
 30
0.0
 11
100.3645406615
 21
90.5425888953
 31
0.0
  0
CIRCLE
  5
1AE
330
1F
100
AcDbEntity
  8
0
  6
Continuous
 62
     7
370
    30
100
AcDbCircle
 10
63.8530576377
 20
92.5850130746
 30
0.0
 40
1.000000000000036
  0
CIRCLE
  5
1AF
330
1F
100
AcDbEntity
  8
0
  6
Continuous
 62
     7
370
    30
100
AcDbCircle
 10
63.8530576377
 20
92.5850130746
 30
0.0
 40
2.000000000000061
  0
CIRCLE
  5
1B0
330
1F
100
AcDbEntity
  8
0
  6
Continuous
 62
     7
370
    30
100
AcDbCircle
 10
63.8530576377
 20
92.5850130746
 30
0.0
 40
2.825000000000058
  0
LINE
  5
1B1
330
1F
100
AcDbEntity
  8
0
  6
Continuous
 62
     7
370
    30
100
AcDbLine
 10
60.6673964809
 20
95.072847372
 30
0.0
 11
64.4147553991
 21
96.5877944139
 31
0.0
  0
LINE
  5
1B2
330
1F
100
AcDbEntity
  8
0
  6
Continuous
 62
     7
370
    30
100
AcDbLine
 10
64.4147553991
 20
96.5877944139
 30
0.0
 11
67.6004169087
 21
94.0999598709
 31
0.0
  0
LINE
  5
1B3
330
1F
100
AcDbEntity
  8
0
  6
Continuous
 62
     7
370
    30
100
AcDbLine
 10
67.6004169087
 20
94.0999598709
 30
0.0
 11
67.0387195002
 21
90.0971782861
 31
0.0
  0
LINE
  5
1B4
330
1F
100
AcDbEntity
  8
0
  6
Continuous
 62
     7
370
    30
100
AcDbLine
 10
67.0387195002
 20
90.0971782861
 30
0.0
 11
63.291360582
 21
88.5822331068
 31
0.0
  0
LINE
  5
1B5
330
1F
100
AcDbEntity
  8
0
  6
Continuous
 62
     7
370
    30
100
AcDbLine
 10
63.291360582
 20
88.5822331068
 30
0.0
 11
60.1056990724
 21
91.0700676498
 31
0.0
  0
LINE
  5
1B6
330
1F
100
AcDbEntity
  8
0
  6
Continuous
 62
     7
370
    30
100
AcDbLine
 10
60.1056990724
 20
91.0700676498
 30
0.0
 11
60.6673964809
 21
95.072847372
 31
0.0
  0
CIRCLE
  5
1B7
330
1F
100
AcDbEntity
  8
0
  6
Continuous
 62
     7
370
    30
100
AcDbCircle
 10
47.8530576377
 20
92.5850130746
 30
0.0
 40
1.000000000000042
  0
CIRCLE
  5
1B8
330
1F
100
AcDbEntity
  8
0
  6
Continuous
 62
     7
370
    30
100
AcDbCircle
 10
47.8530576377
 20
92.5850130746
 30
0.0
 40
2.000000000000069
  0
CIRCLE
  5
1B9
330
1F
100
AcDbEntity
  8
0
  6
Continuous
 62
     7
370
    30
100
AcDbCircle
 10
47.8530576377
 20
92.5850130746
 30
0.0
 40
2.82500000000009
  0
LINE
  5
1BA
330
1F
100
AcDbEntity
  8
0
  6
Continuous
 62
     7
370
    30
100
AcDbLine
 10
47.0280376773
 20
96.5419193265
 30
0.0
 11
50.8673293095
 21
95.2779525426
 31
0.0
  0
LINE
  5
1BB
330
1F
100
AcDbEntity
  8
0
  6
Continuous
 62
     7
370
    30
100
AcDbLine
 10
50.8673293095
 20
95.2779525426
 30
0.0
 11
51.6923470001
 21
91.3210479078
 31
0.0
  0
LINE
  5
1BC
330
1F
100
AcDbEntity
  8
0
  6
Continuous
 62
     7
370
    30
100
AcDbLine
 10
51.6923470001
 20
91.3210479078
 30
0.0
 11
48.6780767839
 21
88.6281063316
 31
0.0
  0
LINE
  5
1BD
330
1F
100
AcDbEntity
  8
0
  6
Continuous
 62
     7
370
    30
100
AcDbLine
 10
48.6780767839
 20
88.6281063316
 30
0.0
 11
44.8387851517
 21
89.8920712528
 31
0.0
  0
LINE
  5
1BE
330
1F
100
AcDbEntity
  8
0
  6
Continuous
 62
     7
370
    30
100
AcDbLine
 10
44.8387851517
 20
89.8920712528
 30
0.0
 11
44.0137674611
 21
93.8489796129
 31
0.0
  0
LINE
  5
1BF
330
1F
100
AcDbEntity
  8
0
  6
Continuous
 62
     7
370
    30
100
AcDbLine
 10
44.0137674611
 20
93.8489796129
 30
0.0
 11
47.0280376773
 21
96.5419193265
 31
0.0
  0
CIRCLE
  5
1C0
330
1F
100
AcDbEntity
  8
0
  6
Continuous
 62
     7
370
    30
100
AcDbCircle
 10
119.8525576377
 20
92.5850130746
 30
0.0
 40
1.00000000000004
  0
CIRCLE
  5
1C1
330
1F
100
AcDbEntity
  8
0
  6
Continuous
 62
     7
370
    30
100
AcDbCircle
 10
119.8525576377
 20
92.5850130746
 30
0.0
 40
2.000000000000066
  0
CIRCLE
  5
1C2
330
1F
100
AcDbEntity
  8
0
  6
Continuous
 62
     7
370
    30
100
AcDbCircle
 10
119.8525576377
 20
92.5850130746
 30
0.0
 40
2.825000000000085
  0
LINE
  5
1C3
330
1F
100
AcDbEntity
  8
0
  6
Continuous
 62
     7
370
    30
100
AcDbLine
 10
119.8277724485
 20
96.6269379017
 30
0.0
 11
123.3405759137
 21
94.6274386254
 31
0.0
  0
LINE
  5
1C4
330
1F
100
AcDbEntity
  8
0
  6
Continuous
 62
     7
370
    30
100
AcDbLine
 10
123.3405759137
 20
94.6274386254
 30
0.0
 11
123.3653565447
 21
90.5855154154
 31
0.0
  0
LINE
  5
1C5
330
1F
100
AcDbEntity
  8
0
  6
Continuous
 62
     7
370
    30
100
AcDbLine
 10
123.3653565447
 20
90.5855154154
 30
0.0
 11
119.8773411613
 21
88.5430877564
 31
0.0
  0
LINE
  5
1C6
330
1F
100
AcDbEntity
  8
0
  6
Continuous
 62
     7
370
    30
100
AcDbLine
 10
116.3645414214
 20
90.5425888953
 30
0.0
 11
116.3397570651
 21
94.5845121053
 31
0.0
  0
LINE
  5
1C7
330
1F
100
AcDbEntity
  8
0
  6
Continuous
 62
     7
370
    30
100
AcDbLine
 10
116.3397570651
 20
94.5845121053
 30
0.0
 11
119.8277724485
 21
96.6269379017
 31
0.0
  0
LINE
  5
1C8
330
1F
100
AcDbEntity
  8
0
  6
Continuous
 62
     7
370
    30
100
AcDbLine
 10
119.8773411613
 20
88.5430877564
 30
0.0
 11
116.3645414214
 21
90.5425888953
 31
0.0
  0
DIMENSION
  5
1C9
330
1F
100
AcDbEntity
  8
0
  6
Continuous
 62
     7
370
     0
100
AcDbDimension
  2
*D4
 10
32.5105213503
 20
88.0850130746
 30
0.0
 11
32.5105213503
 21
98.3350130746
 31
0.0
 70
   160
 71
     1
 42
20.5
  3
SLDDIMSTYLE0
100
AcDbAlignedDimension
 13
45.9165659646
 23
108.5850130746
 33
0.0
 14
37.8530576377
 24
88.0850130746
 34
0.0
 50
90.0
100
AcDbRotatedDimension
1001
ACAD
1000
DSTYLE
1002
{
1070
    77
1070
     3
1070
   143
1040
0.0393700787
1070
    41
1040
3.0
1070
    44
1040
1.0
1070
    42
1040
1.0
1070
   147
1040
1.524
1070
    73
1070
     0
1070
    74
1070
     0
1070
   140
1040
3.5
1070
   284
1070
    12
1070
    78
1070
    12
1002
}
  0
LINE
  5
1DF
330
1F
100
AcDbEntity
  8
0
  6
CENTERX2
 62
     7
370
     0
100
AcDbLine
 10
83.8528076377
 20
82.1843093691
 30
0.0
 11
83.8528076377
 21
109.9206877678
 31
0.0
  0
LINE
  5
1E0
330
1F
100
AcDbEntity
  8
0
  6
Continuous
 62
     7
370
    30
100
AcDbLine
 10
160.9362423836
 20
179.8483629624
 30
0.0
 11
161.4362430464
 21
179.8483629239
 31
0.0
  0
LINE
  5
1E1
330
1F
100
AcDbEntity
  8
0
  6
Continuous
 62
     7
370
    30
100
AcDbLine
 10
161.4362430464
 20
184.3483629631
 30
0.0
 11
160.9362423836
 21
184.3483629624
 31
0.0
  0
LINE
  5
1E2
330
1F
100
AcDbEntity
  8
0
  6
Continuous
 62
     7
370
    30
100
AcDbLine
 10
159.9362423836
 20
180.0983629624
 30
0.0
 11
160.9362423836
 21
179.8483629624
 31
0.0
  0
LINE
  5
1E3
330
1F
100
AcDbEntity
  8
0
  6
Continuous
 62
     7
370
    30
100
AcDbLine
 10
160.9362423836
 20
184.3483629624
 30
0.0
 11
159.9362423836
 21
184.0983629624
 31
0.0
  0
LINE
  5
1E4
330
1F
100
AcDbEntity
  8
0
  6
Continuous
 62
     7
370
    30
100
AcDbLine
 10
165.9362428527
 20
185.9520080028
 30
0.0
 11
162.4362423836
 21
185.9520079988
 31
0.0
  0
LINE
  5
1E5
330
1F
100
AcDbEntity
  8
0
  6
Continuous
 62
     7
370
    30
100
AcDbLine
 10
162.4362423836
 20
178.4520079988
 30
0.0
 11
165.9362428527
 21
178.4520077048
 31
0.0
  0
LINE
  5
1E6
330
1F
100
AcDbEntity
  8
0
  6
Continuous
 62
     7
370
    30
100
AcDbLine
 10
162.4362423836
 20
185.9520079988
 30
0.0
 11
161.4362423836
 21
184.9520079988
 31
0.0
  0
LINE
  5
1E7
330
1F
100
AcDbEntity
  8
0
  6
Continuous
 62
     7
370
    30
100
AcDbLine
 10
161.4362423836
 20
179.4520079988
 30
0.0
 11
162.4362423836
 21
178.4520079988
 31
0.0
  0
LINE
  5
1E8
330
1F
100
AcDbEntity
  8
0
  6
Continuous
 62
     7
370
    30
100
AcDbLine
 10
172.9362421374
 20
172.0983621193
 30
0.0
 11
172.9362421374
 21
171.6983627988
 31
0.0
  0
LINE
  5
1E9
330
1F
100
AcDbEntity
  8
0
  6
Continuous
 62
     7
370
    30
100
AcDbLine
 10
178.9362412582
 20
171.6983627988
 30
0.0
 11
178.9362412582
 21
172.0983621193
 31
0.0
  0
LINE
  5
1EA
330
1F
100
AcDbEntity
  8
0
  6
Continuous
 62
     7
370
    30
100
AcDbLine
 10
173.1112423836
 20
164.1983629624
 30
0.0
 11
173.9362423836
 21
163.1983629624
 31
0.0
  0
LINE
  5
1EB
330
1F
100
AcDbEntity
  8
0
  6
Continuous
 62
     7
370
    30
100
AcDbLine
 10
177.9362423836
 20
163.1983629624
 30
0.0
 11
178.7612423836
 21
164.1983629624
 31
0.0
  0
LINE
  5
1EC
330
1F
100
AcDbEntity
  8
0
  6
Continuous
 62
     7
370
    30
100
AcDbLine
 10
173.1112423836
 20
167.1983629624
 30
0.0
 11
173.9362423836
 21
166.1983629624
 31
0.0
  0
LINE
  5
1ED
330
1F
100
AcDbEntity
  8
0
  6
Continuous
 62
     7
370
    30
100
AcDbLine
 10
177.9362423836
 20
166.1983629624
 30
0.0
 11
178.7612423836
 21
167.1983629624
 31
0.0
  0
LINE
  5
1EE
330
1F
100
AcDbEntity
  8
0
  6
Continuous
 62
     7
370
    30
100
AcDbLine
 10
173.9362423836
 20
166.1983629624
 30
0.0
 11
173.9362423013
 21
164.1983625008
 31
0.0
  0
LINE
  5
1EF
330
1F
100
AcDbEntity
  8
0
  6
Continuous
 62
     7
370
    30
100
AcDbLine
 10
177.936242957
 20
164.1983625008
 30
0.0
 11
177.9362423836
 21
166.1983629624
 31
0.0
  0
LINE
  5
1F0
330
1F
100
AcDbEntity
  8
0
  6
Continuous
 62
     7
370
    30
100
AcDbLine
 10
173.9362423013
 20
168.698362307
 30
0.0
 11
173.9362423013
 21
167.1983629925
 31
0.0
  0
LINE
  5
1F1
330
1F
100
AcDbEntity
  8
0
  6
Continuous
 62
     7
370
    30
100
AcDbLine
 10
177.936242957
 20
167.1983629925
 30
0.0
 11
177.936242957
 21
168.698362307
 31
0.0
  0
LINE
  5
1F2
330
1F
100
AcDbEntity
  8
0
  6
Continuous
 62
     7
370
    30
100
AcDbLine
 10
173.9362423836
 20
163.1983629624
 30
0.0
 11
173.9362423836
 21
161.6983629624
 31
0.0
  0
LINE
  5
1F3
330
1F
100
AcDbEntity
  8
0
  6
Continuous
 62
     7
370
    30
100
AcDbLine
 10
177.9362423836
 20
161.6983629624
 30
0.0
 11
177.9362423836
 21
163.1983629624
 31
0.0
  0
LINE
  5
1F4
330
1F
100
AcDbEntity
  8
0
  6
Continuous
 62
     7
370
    30
100
AcDbLine
 10
165.9362428527
 20
172.0983621193
 30
0.0
 11
165.9362428527
 21
188.0983629593
 31
0.0
  0
LINE
  5
1F5
330
1F
100
AcDbEntity
  8
0
  6
Continuous
 62
     7
370
    30
100
AcDbLine
 10
180.4362405728
 20
188.0983629593
 30
0.0
 11
165.9362428527
 21
188.0983629593
 31
0.0
  0
LINE
  5
1F6
330
1F
100
AcDbEntity
  8
0
  6
Continuous
 62
     7
370
    30
100
AcDbLine
 10
180.4362405728
 20
188.0983629593
 30
0.0
 11
180.4362405728
 21
172.0983621193
 31
0.0
  0
LINE
  5
1F7
330
1F
100
AcDbEntity
  8
0
  6
Continuous
 62
     7
370
    30
100
AcDbLine
 10
165.9362428527
 20
172.0983621193
 30
0.0
 11
180.4362405728
 21
172.0983621193
 31
0.0
  0
LINE
  5
1F8
330
1F
100
AcDbEntity
  8
0
  6
Continuous
 62
     7
370
    30
100
AcDbLine
 10
165.9362428527
 20
191.0983629053
 30
0.0
 11
174.9362424652
 21
191.0983629053
 31
0.0
  0
LINE
  5
1F9
330
1F
100
AcDbEntity
  8
0
  6
Continuous
 62
     7
370
    30
100
AcDbLine
 10
174.9362424652
 20
191.0983629053
 30
0.0
 11
174.9362424652
 21
188.0983629593
 31
0.0
  0
LINE
  5
1FA
330
1F
100
AcDbEntity
  8
0
  6
Continuous
 62
     7
370
    30
100
AcDbLine
 10
165.9362428527
 20
188.0983629593
 30
0.0
 11
165.9362428527
 21
191.0983629053
 31
0.0
  0
LINE
  5
1FB
330
1F
100
AcDbEntity
  8
0
  6
Continuous
 62
     7
370
    30
100
AcDbLine
 10
160.9362423836
 20
179.8483629624
 30
0.0
 11
160.9362423836
 21
181.5983629624
 31
0.0
  0
LINE
  5
1FC
330
1F
100
AcDbEntity
  8
0
  6
Continuous
 62
     7
370
    30
100
AcDbLine
 10
160.9362423836
 20
181.5983629624
 30
0.0
 11
160.9362423836
 21
182.5983629624
 31
0.0
  0
LINE
  5
1FD
330
1F
100
AcDbEntity
  8
0
  6
Continuous
 62
     7
370
    30
100
AcDbLine
 10
160.9362423836
 20
182.5983629624
 30
0.0
 11
160.9362423836
 21
184.3483629624
 31
0.0
  0
LINE
  5
1FE
330
1F
100
AcDbEntity
  8
0
  6
Continuous
 62
     7
370
    30
100
AcDbLine
 10
159.9362423836
 20
180.0983629624
 30
0.0
 11
159.9362423836
 21
181.5983629624
 31
0.0
  0
LINE
  5
1FF
330
1F
100
AcDbEntity
  8
0
  6
Continuous
 62
     7
370
    30
100
AcDbLine
 10
159.9362423836
 20
181.5983629624
 30
0.0
 11
160.9362423836
 21
181.5983629624
 31
0.0
  0
LINE
  5
200
330
1F
100
AcDbEntity
  8
0
  6
Continuous
 62
     7
370
    30
100
AcDbLine
 10
159.9362423836
 20
182.5983629624
 30
0.0
 11
159.9362423836
 21
184.0983629624
 31
0.0
  0
LINE
  5
201
330
1F
100
AcDbEntity
  8
0
  6
Continuous
 62
     7
370
    30
100
AcDbLine
 10
160.9362423836
 20
182.5983629624
 30
0.0
 11
159.9362423836
 21
182.5983629624
 31
0.0
  0
LINE
  5
202
330
1F
100
AcDbEntity
  8
0
  6
Continuous
 62
     7
370
    30
100
AcDbLine
 10
162.4362423836
 20
183.0516912179
 30
0.0
 11
162.4362423836
 21
178.4520079988
 31
0.0
  0
LINE
  5
203
330
1F
100
AcDbEntity
  8
0
  6
Continuous
 62
     7
370
    30
100
AcDbLine
 10
162.4362423836
 20
185.9520079988
 30
0.0
 11
162.4362423836
 21
183.0516912179
 31
0.0
  0
LINE
  5
204
330
1F
100
AcDbEntity
  8
0
  6
Continuous
 62
     7
370
    30
100
AcDbLine
 10
161.4362423836
 20
182.8251090262
 30
0.0
 11
161.4362423836
 21
179.4520079988
 31
0.0
  0
LINE
  5
205
330
1F
100
AcDbEntity
  8
0
  6
Continuous
 62
     7
370
    30
100
AcDbLine
 10
161.4362423836
 20
184.9520079988
 30
0.0
 11
161.4362423836
 21
182.8251090262
 31
0.0
  0
LINE
  5
206
330
1F
100
AcDbEntity
  8
0
  6
Continuous
 62
     7
370
    30
100
AcDbLine
 10
177.9357400428
 20
168.698362307
 30
0.0
 11
177.9357400428
 21
171.6983627988
 31
0.0
  0
LINE
  5
207
330
1F
100
AcDbEntity
  8
0
  6
Continuous
 62
     7
370
    30
100
AcDbLine
 10
179.9781677018
 20
168.698362307
 30
0.0
 11
179.9781677018
 21
171.6983627988
 31
0.0
  0
LINE
  5
208
330
1F
100
AcDbEntity
  8
0
  6
Continuous
 62
     7
370
    30
100
AcDbLine
 10
177.9357400428
 20
168.698362307
 30
0.0
 11
179.9781677018
 21
168.698362307
 31
0.0
  0
LINE
  5
209
330
1F
100
AcDbEntity
  8
0
  6
Continuous
 62
     7
370
    30
100
AcDbLine
 10
177.9357400428
 20
171.6983627988
 30
0.0
 11
179.9781677018
 21
171.6983627988
 31
0.0
  0
LINE
  5
20A
330
1F
100
AcDbEntity
  8
0
  6
Continuous
 62
     7
370
    30
100
AcDbLine
 10
173.8938168327
 20
168.698362307
 30
0.0
 11
173.8938168327
 21
171.6983627988
 31
0.0
  0
LINE
  5
20B
330
1F
100
AcDbEntity
  8
0
  6
Continuous
 62
     7
370
    30
100
AcDbLine
 10
173.8938168327
 20
168.698362307
 30
0.0
 11
177.9357400428
 21
168.698362307
 31
0.0
  0
LINE
  5
20C
330
1F
100
AcDbEntity
  8
0
  6
Continuous
 62
     7
370
    30
100
AcDbLine
 10
173.8938168327
 20
171.6983627988
 30
0.0
 11
177.9357400428
 21
171.6983627988
 31
0.0
  0
LINE
  5
20D
330
1F
100
AcDbEntity
  8
0
  6
Continuous
 62
     7
370
    30
100
AcDbLine
 10
171.8943175565
 20
168.698362307
 30
0.0
 11
171.8943175565
 21
171.6983627988
 31
0.0
  0
LINE
  5
20E
330
1F
100
AcDbEntity
  8
0
  6
Continuous
 62
     7
370
    30
100
AcDbLine
 10
171.8943175565
 20
168.698362307
 30
0.0
 11
173.8938168327
 21
168.698362307
 31
0.0
  0
LINE
  5
20F
330
1F
100
AcDbEntity
  8
0
  6
Continuous
 62
     7
370
    30
100
AcDbLine
 10
171.8943175565
 20
171.6983627988
 30
0.0
 11
173.8938168327
 21
171.6983627988
 31
0.0
  0
LINE
  5
210
330
1F
100
AcDbEntity
  8
0
  6
Continuous
 62
     7
370
    30
100
AcDbLine
 10
175.9239792597
 20
163.1983629624
 30
0.0
 11
177.9362423836
 21
163.1983629624
 31
0.0
  0
LINE
  5
211
330
1F
100
AcDbEntity
  8
0
  6
Continuous
 62
     7
370
    30
100
AcDbLine
 10
173.9362423836
 20
163.1983629624
 30
0.0
 11
175.9239792597
 21
163.1983629624
 31
0.0
  0
LINE
  5
212
330
1F
100
AcDbEntity
  8
0
  6
Continuous
 62
     7
370
    30
100
AcDbLine
 10
175.9189207211
 20
164.1983629624
 30
0.0
 11
178.7612423836
 21
164.1983629624
 31
0.0
  0
LINE
  5
213
330
1F
100
AcDbEntity
  8
0
  6
Continuous
 62
     7
370
    30
100
AcDbLine
 10
173.1112423836
 20
164.1983629624
 30
0.0
 11
175.9189207211
 21
164.1983629624
 31
0.0
  0
LINE
  5
214
330
1F
100
AcDbEntity
  8
0
  6
Continuous
 62
     7
370
    30
100
AcDbLine
 10
175.9239792597
 20
166.1983629624
 30
0.0
 11
177.9362423836
 21
166.1983629624
 31
0.0
  0
LINE
  5
215
330
1F
100
AcDbEntity
  8
0
  6
Continuous
 62
     7
370
    30
100
AcDbLine
 10
173.9362423836
 20
166.1983629624
 30
0.0
 11
175.9239792597
 21
166.1983629624
 31
0.0
  0
LINE
  5
216
330
1F
100
AcDbEntity
  8
0
  6
Continuous
 62
     7
370
    30
100
AcDbLine
 10
175.9189207211
 20
167.1983629624
 30
0.0
 11
178.7612423836
 21
167.1983629624
 31
0.0
  0
LINE
  5
217
330
1F
100
AcDbEntity
  8
0
  6
Continuous
 62
     7
370
    30
100
AcDbLine
 10
173.1112423836
 20
167.1983629624
 30
0.0
 11
175.9189207211
 21
167.1983629624
 31
0.0
  0
LINE
  5
218
330
1F
100
AcDbEntity
  8
0
  6
Continuous
 62
     7
370
    30
100
AcDbLine
 10
175.9239792597
 20
161.6983629624
 30
0.0
 11
177.9362423836
 21
161.6983629624
 31
0.0
  0
LINE
  5
219
330
1F
100
AcDbEntity
  8
0
  6
Continuous
 62
     7
370
    30
100
AcDbLine
 10
173.9362423836
 20
161.6983629624
 30
0.0
 11
175.9239792597
 21
161.6983629624
 31
0.0
  0
DIMENSION
  5
21A
330
1F
100
AcDbEntity
  8
0
  6
Continuous
 62
     7
370
     0
100
AcDbDimension
  2
*D5
 10
190.7447920887
 20
161.6983629624
 30
0.0
 11
190.7447920887
 21
176.3983629624
 31
0.0
 70
   160
  1
(<>)
 71
     1
 42
29.4
  3
SLDDIMSTYLE0
100
AcDbAlignedDimension
 13
174.9362423836
 23
191.0983629624
 33
0.0
 14
176.9362423836
 24
161.6983629624
 34
0.0
 50
90.0
100
AcDbRotatedDimension
1001
ACAD
1000
DSTYLE
1002
{
1070
    77
1070
     3
1070
   143
1040
0.0393700787
1070
    41
1040
3.0
1070
    44
1040
1.0
1070
    42
1040
1.0
1070
   147
1040
1.524
1070
    73
1070
     0
1070
    74
1070
     0
1070
   140
1040
3.5
1070
   284
1070
    12
1070
    78
1070
    12
1002
}
  0
ENDSEC
  0
SECTION
  2
OBJECTS
  0
DICTIONARY
  5
C
330
0
100
AcDbDictionary
281
     1
  3
ACAD_GROUP
350
D
  3
ACAD_LAYOUT
350
1A
  3
ACAD_MLINESTYLE
350
17
  3
ACAD_PLOTSETTINGS
350
19
  3
ACAD_PLOTSTYLENAME
350
E
  0
DICTIONARY
  5
D
102
{ACAD_REACTORS
330
C
102
}
330
C
100
AcDbDictionary
281
     1
  0
DICTIONARY
  5
1A
102
{ACAD_REACTORS
330
C
102
}
330
C
100
AcDbDictionary
281
     1
  3
Layout1
350
1E
  3
Layout2
350
26
  3
Model
350
22
  0
DICTIONARY
  5
17
102
{ACAD_REACTORS
330
C
102
}
330
C
100
AcDbDictionary
281
     1
  3
Standard
350
18
  0
DICTIONARY
  5
19
102
{ACAD_REACTORS
330
C
102
}
330
C
100
AcDbDictionary
281
     1
  0
ACDBDICTIONARYWDFLT
  5
E
102
{ACAD_REACTORS
330
C
102
}
330
C
100
AcDbDictionary
281
     1
  3
Normal
350
F
100
AcDbDictionaryWithDefault
340
F
  0
LAYOUT
  5
1E
102
{ACAD_REACTORS
330
1A
102
}
330
1A
100
AcDbPlotSettings
  1

  2

  4

  6

 40
0.0
 41
0.0
 42
0.0
 43
0.0
 44
0.0
 45
0.0
 46
0.0
 47
0.0
 48
0.0
 49
0.0
140
0.0
141
0.0
142
1.0
143
1.0
 70
   688
 72
     0
 73
     0
 74
     5
  7

 75
    16
147
1.0
148
0.0
149
0.0
100
AcDbLayout
  1
Layout1
 70
     1
 71
     1
 10
0.0
 20
0.0
 11
0.0
 21
0.0
 12
0.0
 22
0.0
 32
0.0
 14
0.0
 24
0.0
 34
0.0
 15
0.0
 25
0.0
 35
0.0
146
0.0
 13
0.0
 23
0.0
 33
0.0
 16
1.0
 26
0.0
 36
0.0
 17
0.0
 27
1.0
 37
0.0
 76
     0
330
1B
  0
LAYOUT
  5
26
102
{ACAD_REACTORS
330
1A
102
}
330
1A
100
AcDbPlotSettings
  1

  2

  4

  6

 40
0.0
 41
0.0
 42
0.0
 43
0.0
 44
0.0
 45
0.0
 46
0.0
 47
0.0
 48
0.0
 49
0.0
140
0.0
141
0.0
142
1.0
143
1.0
 70
   688
 72
     0
 73
     0
 74
     5
  7

 75
    16
147
1.0
148
0.0
149
0.0
100
AcDbLayout
  1
Layout2
 70
     1
 71
     2
 10
0.0
 20
0.0
 11
0.0
 21
0.0
 12
0.0
 22
0.0
 32
0.0
 14
0.0
 24
0.0
 34
0.0
 15
0.0
 25
0.0
 35
0.0
146
0.0
 13
0.0
 23
0.0
 33
0.0
 16
1.0
 26
0.0
 36
0.0
 17
0.0
 27
1.0
 37
0.0
 76
     0
330
23
  0
LAYOUT
  5
22
102
{ACAD_REACTORS
330
1A
102
}
330
1A
100
AcDbPlotSettings
  1

  2

  4

  6

 40
0.0
 41
0.0
 42
0.0
 43
0.0
 44
0.0
 45
0.0
 46
0.0
 47
0.0
 48
0.0
 49
0.0
140
0.0
141
0.0
142
1.0
143
1.0
 70
  1712
 72
     0
 73
     0
 74
     0
  7

 75
     0
147
1.0
148
0.0
149
0.0
100
AcDbLayout
  1
Model
 70
     1
 71
     0
 10
0.0
 20
0.0
 11
0.0
 21
0.0
 12
0.0
 22
0.0
 32
0.0
 14
0.0
 24
0.0
 34
0.0
 15
210.0
 25
297.0
 35
0.0
146
0.0
 13
0.0
 23
0.0
 33
0.0
 16
1.0
 26
0.0
 36
0.0
 17
0.0
 27
1.0
 37
0.0
 76
     0
330
1F
  0
MLINESTYLE
  5
18
102
{ACAD_REACTORS
330
17
102
}
330
17
100
AcDbMlineStyle
  2
Standard
 70
     0
  3

 62
   256
 51
90.0
 52
90.0
 71
     2
 49
0.5
 62
   256
  6
BYLAYER
 49
-0.5
 62
   256
  6
BYLAYER
  0
ACDBPLACEHOLDER
  5
F
102
{ACAD_REACTORS
330
E
102
}
330
E
  0
ENDSEC
  0
EOF
