  0
SECTION
  2
HEADER
  9
$ACADVER
  1
AC1015
  9
$ACADMAINTVER
 70
     6
  9
$DWGCODEPAGE
  3
DOS932
  9
$INSBASE
 10
0.0
 20
0.0
 30
0.0
  9
$EXTMIN
 10
0.0
 20
0.0
 30
0.0
  9
$EXTMAX
 10
210.0
 20
297.0
 30
0.0
  9
$LIMMIN
 10
0.0
 20
0.0
  9
$LIMMAX
 10
0.0
 20
0.0
  9
$ORTHOMODE
 70
     0
  9
$REGENMODE
 70
     1
  9
$FILLMODE
 70
     1
  9
$QTEXTMODE
 70
     0
  9
$MIRRTEXT
 70
     1
  9
$LTSCALE
 40
1.0
  9
$ATTMODE
 70
     1
  9
$TEXTSIZE
 40
3.5
  9
$TRACEWID
 40
1.0
  9
$TEXTSTYLE
  7
Standard
  9
$CLAYER
  8
0
  9
$CELTYPE
  6
ByLayer
  9
$CECOLOR
 62
   256
  9
$CELTSCALE
 40
1.0
  9
$DISPSILH
 70
     0
  9
$DIMSCALE
 40
1.0
  9
$DIMASZ
 40
3.0
  9
$DIMEXO
 40
1.0
  9
$DIMDLI
 40
3.75
  9
$DIMRND
 40
0.0
  9
$DIMDLE
 40
0.0
  9
$DIMEXE
 40
1.0
  9
$DIMTP
 40
0.0
  9
$DIMTM
 40
0.0
  9
$DIMTXT
 40
3.5
  9
$DIMCEN
 40
2.5
  9
$DIMTSZ
 40
0.0
  9
$DIMTOL
 70
     0
  9
$DIMLIM
 70
     0
  9
$DIMTIH
 70
     1
  9
$DIMTOH
 70
     1
  9
$DIMSE1
 70
     0
  9
$DIMSE2
 70
     0
  9
$DIMTAD
 70
     1
  9
$DIMZIN
 70
     0
  9
$DIMBLK
  1

  9
$DIMASO
 70
     1
  9
$DIMSHO
 70
     1
  9
$DIMPOST
  1

  9
$DIMAPOST
  1

  9
$DIMALT
 70
     0
  9
$DIMALTD
 70
     3
  9
$DIMALTF
 40
0.0393700787
  9
$DIMLFAC
 40
1.0
  9
$DIMTOFL
 70
     1
  9
$DIMTVP
 40
0.0
  9
$DIMTIX
 70
     0
  9
$DIMSOXD
 70
     0
  9
$DIMSAH
 70
     0
  9
$DIMBLK1
  1

  9
$DIMBLK2
  1

  9
$DIMSTYLE
  2
ISO-25
  9
$DIMCLRD
 70
     0
  9
$DIMCLRE
 70
     0
  9
$DIMCLRT
 70
     0
  9
$DIMTFAC
 40
1.0
  9
$DIMGAP
 40
1.524
  9
$DIMJUST
 70
     0
  9
$DIMSD1
 70
     0
  9
$DIMSD2
 70
     0
  9
$DIMTOLJ
 70
     0
  9
$DIMTZIN
 70
     0
  9
$DIMALTZ
 70
     0
  9
$DIMALTTZ
 70
     0
  9
$DIMUPT
 70
     0
  9
$DIMDEC
 70
     2
  9
$DIMTDEC
 70
     2
  9
$DIMALTU
 70
     2
  9
$DIMALTTD
 70
     3
  9
$DIMTXSTY
  7
Standard
  9
$DIMAUNIT
 70
     0
  9
$DIMADEC
 70
     0
  9
$DIMALTRND
 40
0.0
  9
$DIMAZIN
 70
     0
  9
$DIMDSEP
 70
    44
  9
$DIMATFIT
 70
     3
  9
$DIMFRAC
 70
     0
  9
$DIMLDRBLK
  1

  9
$DIMLUNIT
 70
     2
  9
$DIMLWD
 70
    -2
  9
$DIMLWE
 70
    -2
  9
$DIMTMOVE
 70
     0
  9
$LUNITS
 70
     2
  9
$LUPREC
 70
     1
  9
$SKETCHINC
 40
1.0
  9
$FILLETRAD
 40
10.0
  9
$AUNITS
 70
     0
  9
$AUPREC
 70
     0
  9
$MENU
  1
.
  9
$ELEVATION
 40
0.0
  9
$PELEVATION
 40
0.0
  9
$THICKNESS
 40
0.0
  9
$LIMCHECK
 70
     0
  9
$CHAMFERA
 40
10.0
  9
$CHAMFERB
 40
10.0
  9
$CHAMFERC
 40
20.0
  9
$CHAMFERD
 40
0.0
  9
$SKPOLY
 70
     0
  9
$TDCREATE
 40
2455355.595707465
  9
$TDUCREATE
 40
2455355.220707465
  9
$TDUPDATE
 40
2455355.595707477
  9
$TDUUPDATE
 40
2455355.220707477
  9
$TDINDWG
 40
0.0000000116
  9
$TDUSRTIMER
 40
0.0000000116
  9
$USRTIMER
 70
     1
  9
$ANGBASE
 50
0.0
  9
$ANGDIR
 70
     0
  9
$PDMODE
 70
     0
  9
$PDSIZE
 40
-1.0
  9
$PLINEWID
 40
0.0
  9
$SPLFRAME
 70
     0
  9
$SPLINETYPE
 70
     6
  9
$SPLINESEGS
 70
     8
  9
$HANDSEED
  5
271
  9
$SURFTAB1
 70
     6
  9
$SURFTAB2
 70
     6
  9
$SURFTYPE
 70
     6
  9
$SURFU
 70
     6
  9
$SURFV
 70
     6
  9
$UCSBASE
  2

  9
$UCSNAME
  2

  9
$UCSORG
 10
0.0
 20
0.0
 30
0.0
  9
$UCSXDIR
 10
1.0
 20
0.0
 30
0.0
  9
$UCSYDIR
 10
0.0
 20
1.0
 30
0.0
  9
$UCSORTHOREF
  2

  9
$UCSORTHOVIEW
 70
     0
  9
$UCSORGTOP
 10
0.0
 20
0.0
 30
0.0
  9
$UCSORGBOTTOM
 10
0.0
 20
0.0
 30
0.0
  9
$UCSORGLEFT
 10
0.0
 20
0.0
 30
0.0
  9
$UCSORGRIGHT
 10
0.0
 20
0.0
 30
0.0
  9
$UCSORGFRONT
 10
0.0
 20
0.0
 30
0.0
  9
$UCSORGBACK
 10
0.0
 20
0.0
 30
0.0
  9
$PUCSBASE
  2

  9
$PUCSNAME
  2

  9
$PUCSORG
 10
0.0
 20
0.0
 30
0.0
  9
$PUCSXDIR
 10
1.0
 20
0.0
 30
0.0
  9
$PUCSYDIR
 10
0.0
 20
1.0
 30
0.0
  9
$PUCSORTHOREF
  2

  9
$PUCSORTHOVIEW
 70
     0
  9
$PUCSORGTOP
 10
0.0
 20
0.0
 30
0.0
  9
$PUCSORGBOTTOM
 10
0.0
 20
0.0
 30
0.0
  9
$PUCSORGLEFT
 10
0.0
 20
0.0
 30
0.0
  9
$PUCSORGRIGHT
 10
0.0
 20
0.0
 30
0.0
  9
$PUCSORGFRONT
 10
0.0
 20
0.0
 30
0.0
  9
$PUCSORGBACK
 10
0.0
 20
0.0
 30
0.0
  9
$USERI1
 70
     0
  9
$USERI2
 70
     0
  9
$USERI3
 70
     0
  9
$USERI4
 70
     0
  9
$USERI5
 70
     0
  9
$USERR1
 40
0.0
  9
$USERR2
 40
0.0
  9
$USERR3
 40
0.0
  9
$USERR4
 40
0.0
  9
$USERR5
 40
0.0
  9
$WORLDVIEW
 70
     1
  9
$SHADEDGE
 70
     3
  9
$SHADEDIF
 70
    70
  9
$TILEMODE
 70
     1
  9
$MAXACTVP
 70
    64
  9
$PINSBASE
 10
0.0
 20
0.0
 30
0.0
  9
$PLIMCHECK
 70
     0
  9
$PEXTMIN
 10
1.0000000000E+20
 20
1.0000000000E+20
 30
1.0000000000E+20
  9
$PEXTMAX
 10
-1.0000000000E+20
 20
-1.0000000000E+20
 30
-1.0000000000E+20
  9
$PLIMMIN
 10
0.0
 20
0.0
  9
$PLIMMAX
 10
420.0
 20
297.0
  9
$UNITMODE
 70
     0
  9
$VISRETAIN
 70
     1
  9
$PLINEGEN
 70
     0
  9
$PSLTSCALE
 70
     1
  9
$TREEDEPTH
 70
  3020
  9
$CMLSTYLE
  2
Standard
  9
$CMLJUST
 70
     0
  9
$CMLSCALE
 40
20.0
  9
$PROXYGRAPHICS
 70
     1
  9
$MEASUREMENT
 70
     1
  9
$CELWEIGHT
370
    -1
  9
$ENDCAPS
280
     0
  9
$JOINSTYLE
280
     0
  9
$LWDISPLAY
290
     1
  9
$INSUNITS
 70
     4
  9
$HYPERLINKBASE
  1

  9
$STYLESHEET
  1

  9
$XEDIT
290
     1
  9
$CEPSNTYPE
380
     0
  9
$PSTYLEMODE
290
     1
  9
$FINGERPRINTGUID
  2
{080C6D45-4087-45C4-99D6-B00C3D26A538}
  9
$VERSIONGUID
  2
{FAEB1C32-E019-11D5-929B-00C0DF256EC4}
  9
$EXTNAMES
290
     1
  9
$PSVPSCALE
 40
0.0
  9
$OLESTARTUP
290
     0
  0
ENDSEC
  0
SECTION
  2
CLASSES
  0
CLASS
  1
ACDBDICTIONARYWDFLT
  2
AcDbDictionaryWithDefault
  3
ObjectDBX Classes
 90
        0
280
     0
281
     0
  0
CLASS
  1
ACDBPLACEHOLDER
  2
AcDbPlaceHolder
  3
ObjectDBX Classes
 90
        0
280
     0
281
     0
  0
CLASS
  1
LAYOUT
  2
AcDbLayout
  3
ObjectDBX Classes
 90
        0
280
     0
281
     0
  0
ENDSEC
  0
SECTION
  2
TABLES
  0
TABLE
  2
VPORT
  5
8
330
0
100
AcDbSymbolTable
 70
     1
  0
VPORT
  5
29
330
8
100
AcDbSymbolTableRecord
100
AcDbViewportTableRecord
  2
*Active
 70
     0
 10
0.0
 20
0.0
 11
1.0
 21
1.0
 12
105.0
 22
148.5
 13
0.0
 23
0.0
 14
10.0
 24
10.0
 15
10.0
 25
10.0
 16
0.0
 26
0.0
 36
1.0
 17
0.0
 27
0.0
 37
0.0
 40
297.0
 41
1.9729729729
 42
50.0
 43
0.0
 44
0.0
 50
0.0
 51
0.0
 71
     0
 72
  2000
 73
     1
 74
     3
 75
     0
 76
     0
 77
     0
 78
     0
281
     0
 65
     1
110
0.0
120
0.0
130
0.0
111
1.0
121
0.0
131
0.0
112
0.0
122
1.0
132
0.0
 79
     0
146
0.0
  0
ENDTAB
  0
TABLE
  2
LTYPE
  5
5
330
0
100
AcDbSymbolTable
 70
     6
  0
LTYPE
  5
14
330
5
100
AcDbSymbolTableRecord
100
AcDbLinetypeTableRecord
  2
ByBlock
 70
     0
  3

 72
    65
 73
     0
 40
0.0
  0
LTYPE
  5
15
330
5
100
AcDbSymbolTableRecord
100
AcDbLinetypeTableRecord
  2
ByLayer
 70
     0
  3

 72
    65
 73
     0
 40
0.0
  0
LTYPE
  5
16
330
5
100
AcDbSymbolTableRecord
100
AcDbLinetypeTableRecord
  2
Continuous
 70
     0
  3
Solid line
 72
    65
 73
     0
 40
0.0
  0
LTYPE
  5
2A
330
5
100
AcDbSymbolTableRecord
100
AcDbLinetypeTableRecord
  2
HIDDEN
 70
     0
  3
Hidden __ __ __ __ __ __ __ __ __ __ __ __ __ __
 72
    65
 73
     2
 40
1.905
 49
1.27
 74
     0
 49
-0.635
 74
     0
  0
LTYPE
  5
2B
330
5
100
AcDbSymbolTableRecord
100
AcDbLinetypeTableRecord
  2
PHANTOM
 70
     0
  3
Phantom ______  __  __  ______  __  __  ______
 72
    65
 73
     6
 40
12.7
 49
6.35
 74
     0
 49
-1.27
 74
     0
 49
1.27
 74
     0
 49
-1.27
 74
     0
 49
1.27
 74
     0
 49
-1.27
 74
     0
  0
LTYPE
  5
2C
330
5
100
AcDbSymbolTableRecord
100
AcDbLinetypeTableRecord
  2
CENTER
 70
     0
  3
Center ____ _ ____ _ ____ _ ____ _ ____ _ ____
 72
    65
 73
     4
 40
10.16
 49
6.35
 74
     0
 49
-1.27
 74
     0
 49
1.27
 74
     0
 49
-1.27
 74
     0
  0
LTYPE
  5
2D
330
5
100
AcDbSymbolTableRecord
100
AcDbLinetypeTableRecord
  2
CENTERX2
 70
     0
  3
Center (2x) ________  __  ________  __  _____
 72
    65
 73
     4
 40
20.32
 49
12.7
 74
     0
 49
-2.54
 74
     0
 49
2.54
 74
     0
 49
-2.54
 74
     0
  0
LTYPE
  5
2E
330
5
100
AcDbSymbolTableRecord
100
AcDbLinetypeTableRecord
  2
DOT2
 70
     0
  3
Dot (.5x) ........................................
 72
    65
 73
     2
 40
0.635
 49
0.0
 74
     0
 49
-0.635
 74
     0
  0
ENDTAB
  0
TABLE
  2
LAYER
  5
2
330
0
100
AcDbSymbolTable
 70
     2
  0
LAYER
  5
10
330
2
100
AcDbSymbolTableRecord
100
AcDbLayerTableRecord
  2
0
 70
     0
 62
     7
  6
Continuous
370
    -3
390
F
  0
LAYER
  5
10A
330
2
100
AcDbSymbolTableRecord
100
AcDbLayerTableRecord
  2
Defpoints
 70
     0
 62
     7
  6
Continuous
290
     0
370
    -3
390
F
  0
ENDTAB
  0
TABLE
  2
STYLE
  5
3
330
0
100
AcDbSymbolTable
 70
     2
  0
STYLE
  5
11
330
3
100
AcDbSymbolTableRecord
100
AcDbTextStyleTableRecord
  2
Standard
 70
     0
 40
0.0
 41
1.0
 50
0.0
 71
     0
 42
2.5
  3
txt
  4
bigfont
  0
STYLE
  5
37
330
3
100
AcDbSymbolTableRecord
100
AcDbTextStyleTableRecord
  2
SLDTEXTSTYLE0
 70
     0
 40
0.0
 41
0.7
 50
0.0
 71
     0
 42
0.2
  3
TXT
  4
bigfont
  0
ENDTAB
  0
TABLE
  2
VIEW
  5
6
330
0
100
AcDbSymbolTable
 70
     0
  0
ENDTAB
  0
TABLE
  2
UCS
  5
7
330
0
100
AcDbSymbolTable
 70
     0
  0
ENDTAB
  0
TABLE
  2
APPID
  5
9
330
0
100
AcDbSymbolTable
 70
     1
  0
APPID
  5
12
330
9
100
AcDbSymbolTableRecord
100
AcDbRegAppTableRecord
  2
ACAD
 70
     0
  0
ENDTAB
  0
TABLE
  2
DIMSTYLE
  5
A
330
0
100
AcDbSymbolTable
 70
     3
100
AcDbDimStyleTable
  0
DIMSTYLE
105
27
330
A
100
AcDbSymbolTableRecord
100
AcDbDimStyleTableRecord
  2
ISO-25
 70
     0
 41
2.5
 42
0.625
 43
3.75
 44
1.25
 73
     0
 74
     0
 77
     1
 78
     8
140
2.5
141
2.5
143
0.0393700787
147
0.625
171
     3
172
     1
271
     2
272
     2
274
     3
278
    44
283
     0
284
     8
340
11
  0
DIMSTYLE
105
117
102
{ACAD_REACTORS
330
109
330
124
330
200
330
25B
102
}
330
A
100
AcDbSymbolTableRecord
100
AcDbDimStyleTableRecord
  2
SLDDIMSTYLE0
 70
     0
 41
3.0
 44
0.0
 73
     0
 74
     0
 77
     3
 78
    12
140
3.5
147
0.875
173
     1
271
     1
272
     3
284
    12
340
37
341
118
343
118
344
118
  0
DIMSTYLE
105
139
330
A
100
AcDbSymbolTableRecord
100
AcDbDimStyleTableRecord
  2
SLDDIMSTYLE1
 70
     0
 41
3.0
 44
0.0
140
3.0
147
0.75
173
     1
271
     0
272
     0
340
11
341
118
343
118
344
118
  0
ENDTAB
  0
TABLE
  2
BLOCK_RECORD
  5
1
330
0
100
AcDbSymbolTable
 70
     6
  0
BLOCK_RECORD
  5
1F
330
1
100
AcDbSymbolTableRecord
100
AcDbBlockTableRecord
  2
*Model_Space
340
22
  0
BLOCK_RECORD
  5
1B
330
1
100
AcDbSymbolTableRecord
100
AcDbBlockTableRecord
  2
*Paper_Space
340
1E
  0
BLOCK_RECORD
  5
23
330
1
100
AcDbSymbolTableRecord
100
AcDbBlockTableRecord
  2
*Paper_Space0
340
26
  0
BLOCK_RECORD
  5
10B
330
1
100
AcDbSymbolTableRecord
100
AcDbBlockTableRecord
  2
*D1
340
0
  0
BLOCK_RECORD
  5
118
330
1
100
AcDbSymbolTableRecord
100
AcDbBlockTableRecord
  2
_Open30
340
0
102
{BLKREFS
331
110
331
10F
331
11E
331
11F
331
12A
331
129
331
132
331
133
331
206
331
205
331
20E
331
20F
331
261
331
260
331
26B
331
26C
102
}
  0
BLOCK_RECORD
  5
125
330
1
100
AcDbSymbolTableRecord
100
AcDbBlockTableRecord
  2
*D3
340
0
  0
BLOCK_RECORD
  5
201
330
1
100
AcDbSymbolTableRecord
100
AcDbBlockTableRecord
  2
*D4
340
0
  0
BLOCK_RECORD
  5
25C
330
1
100
AcDbSymbolTableRecord
100
AcDbBlockTableRecord
  2
*D5
340
0
  0
ENDTAB
  0
ENDSEC
  0
SECTION
  2
BLOCKS
  0
BLOCK
  5
20
330
1F
100
AcDbEntity
  8
0
100
AcDbBlockBegin
  2
*Model_Space
 70
     0
 71
     0
 10
0.0
 20
0.0
 30
0.0
  3
*Model_Space
  1

  0
ENDBLK
  5
21
330
1F
100
AcDbEntity
  8
0
100
AcDbBlockEnd
  0
BLOCK
  5
1C
330
1B
100
AcDbEntity
 67
     1
  8
0
100
AcDbBlockBegin
  2
*Paper_Space
 70
     0
 71
     0
 10
0.0
 20
0.0
 30
0.0
  3
*Paper_Space
  1

  0
ENDBLK
  5
1D
330
1B
100
AcDbEntity
 67
     1
  8
0
100
AcDbBlockEnd
  0
BLOCK
  5
24
330
23
100
AcDbEntity
  8
0
100
AcDbBlockBegin
  2
*Paper_Space0
 70
     0
 71
     0
 10
0.0
 20
0.0
 30
0.0
  3
*Paper_Space0
  1

  0
ENDBLK
  5
25
330
23
100
AcDbEntity
  8
0
100
AcDbBlockEnd
  0
BLOCK
  5
115
330
10B
100
AcDbEntity
  8
0
100
AcDbBlockBegin
  2
*D1
 70
     1
 71
     0
 10
0.0
 20
0.0
 30
0.0
  3
*D1
  1

  0
INSERT
  5
11E
330
10B
100
AcDbEntity
  8
0
  6
Continuous
 62
     7
370
     0
100
AcDbBlockReference
  2
_Open30
 10
33.5543717185
 20
204.2168747335
 30
-19.2965810082
 41
3.0
 42
3.0
 50
180.0
  0
INSERT
  5
11F
330
10B
100
AcDbEntity
  8
0
  6
Continuous
 62
     7
370
     0
100
AcDbBlockReference
  2
_Open30
 10
143.5543717185
 20
204.2168747335
 30
-19.2965810082
 41
3.0
 42
3.0
 50
0.0
  0
LINE
  5
120
330
10B
100
AcDbEntity
  8
0
  6
Continuous
 62
     7
370
     0
100
AcDbLine
 10
33.5543717185
 20
190.1587549779
 30
0.0
 11
33.5543717185
 21
205.2168747335
 31
0.0
  0
LINE
  5
121
330
10B
100
AcDbEntity
  8
0
  6
Continuous
 62
     7
370
     0
100
AcDbLine
 10
143.5543717185
 20
190.1587549779
 30
0.0
 11
143.5543717185
 21
205.2168747335
 31
0.0
  0
LINE
  5
122
330
10B
100
AcDbEntity
  8
0
  6
Continuous
 62
     7
370
     0
100
AcDbLine
 10
33.5543717185
 20
204.2168747335
 30
0.0
 11
143.5543717185
 21
204.2168747335
 31
0.0
  0
MTEXT
  5
123
330
10B
100
AcDbEntity
  8
0
  6
Continuous
 62
     7
370
     0
100
AcDbMText
 10
85.4996898926
 20
208.2896017734
 30
0.0
 40
3.5
 41
0.0
 71
     1
 72
     1
  1
110
  7
SLDTEXTSTYLE0
 73
     1
 44
1.0
  0
ENDBLK
  5
116
330
10B
100
AcDbEntity
  8
0
100
AcDbBlockEnd
  0
BLOCK
  5
119
330
118
100
AcDbEntity
  8
0
100
AcDbBlockBegin
  2
_Open30
 70
     0
 71
     0
 10
0.0
 20
0.0
 30
0.0
  3
_Open30
  1

  0
LINE
  5
11B
330
118
100
AcDbEntity
  8
0
  6
ByBlock
 62
     0
370
    -2
100
AcDbLine
 10
-1.0
 20
0.267949
 30
0.0
 11
0.0
 21
0.0
 31
0.0
  0
LINE
  5
11C
330
118
100
AcDbEntity
  8
0
  6
ByBlock
 62
     0
370
    -2
100
AcDbLine
 10
0.0
 20
0.0
 30
0.0
 11
-1.0
 21
-0.267949
 31
0.0
  0
LINE
  5
11D
330
118
100
AcDbEntity
  8
0
  6
ByBlock
 62
     0
370
    -2
100
AcDbLine
 10
0.0
 20
0.0
 30
0.0
 11
-1.0
 21
0.0
 31
0.0
  0
ENDBLK
  5
11A
330
118
100
AcDbEntity
  8
0
100
AcDbBlockEnd
  0
BLOCK
  5
130
330
125
100
AcDbEntity
  8
0
100
AcDbBlockBegin
  2
*D3
 70
     1
 71
     0
 10
0.0
 20
0.0
 30
0.0
  3
*D3
  1

  0
INSERT
  5
132
330
125
100
AcDbEntity
  8
0
  6
Continuous
 62
     7
370
     0
100
AcDbBlockReference
  2
_Open30
 10
27.5242608641
 20
192.1587549779
 30
-19.2965810082
 41
3.0
 42
3.0
 50
90.0
  0
INSERT
  5
133
330
125
100
AcDbEntity
  8
0
  6
Continuous
 62
     7
370
     0
100
AcDbBlockReference
  2
_Open30
 10
27.5242608641
 20
173.1587549779
 30
-19.2965810082
 41
3.0
 42
3.0
 50
270.0
  0
LINE
  5
134
330
125
100
AcDbEntity
  8
0
  6
Continuous
 62
     7
370
     0
100
AcDbLine
 10
82.5543717185
 20
192.1587549779
 30
0.0
 11
26.5242608641
 21
192.1587549779
 31
0.0
  0
LINE
  5
135
330
125
100
AcDbEntity
  8
0
  6
Continuous
 62
     7
370
     0
100
AcDbLine
 10
32.5543717185
 20
173.1587549779
 30
0.0
 11
26.5242608641
 21
173.1587549779
 31
0.0
  0
LINE
  5
136
330
125
100
AcDbEntity
  8
0
  6
Continuous
 62
     7
370
     0
100
AcDbLine
 10
27.5242608641
 20
192.1587549779
 30
0.0
 11
27.5242608641
 21
173.1587549779
 31
0.0
  0
MTEXT
  5
137
330
125
100
AcDbEntity
  8
0
  6
Continuous
 62
     7
370
     0
100
AcDbMText
 10
23.4515338242
 20
180.6236100444
 30
0.0
 40
3.5
 41
0.0
 71
     1
 72
     1
  1
19
  7
SLDTEXTSTYLE0
 11
-7.932375459610008E-15
 21
1.0
 31
0.0
 73
     1
 44
1.0
  0
ENDBLK
  5
131
330
125
100
AcDbEntity
  8
0
100
AcDbBlockEnd
  0
BLOCK
  5
20C
330
201
100
AcDbEntity
  8
0
100
AcDbBlockBegin
  2
*D4
 70
     1
 71
     0
 10
0.0
 20
0.0
 30
0.0
  3
*D4
  1

  0
INSERT
  5
20E
330
201
100
AcDbEntity
  8
0
  6
Continuous
 62
     7
370
     0
100
AcDbBlockReference
  2
_Open30
 10
26.4095087331
 20
121.686703776
 30
-21.2441448112
 41
3.0
 42
3.0
 50
90.0
  0
INSERT
  5
20F
330
201
100
AcDbEntity
  8
0
  6
Continuous
 62
     7
370
     0
100
AcDbBlockReference
  2
_Open30
 10
26.4095087331
 20
98.686703776
 30
-21.2441448112
 41
3.0
 42
3.0
 50
270.0
  0
LINE
  5
210
330
201
100
AcDbEntity
  8
0
  6
Continuous
 62
     7
370
     0
100
AcDbLine
 10
37.5543717185
 20
121.686703776
 30
0.0
 11
25.4095087331
 21
121.686703776
 31
0.0
  0
LINE
  5
211
330
201
100
AcDbEntity
  8
0
  6
Continuous
 62
     7
370
     0
100
AcDbLine
 10
32.5543717185
 20
98.686703776
 30
0.0
 11
25.4095087331
 21
98.686703776
 31
0.0
  0
LINE
  5
212
330
201
100
AcDbEntity
  8
0
  6
Continuous
 62
     7
370
     0
100
AcDbLine
 10
26.4095087331
 20
121.686703776
 30
0.0
 11
26.4095087331
 21
98.686703776
 31
0.0
  0
MTEXT
  5
213
330
201
100
AcDbEntity
  8
0
  6
Continuous
 62
     7
370
     0
100
AcDbMText
 10
22.3367816932
 20
108.1515588425
 30
0.0
 40
3.5
 41
0.0
 71
     1
 72
     1
  1
23
  7
SLDTEXTSTYLE0
 11
-6.156018620209758E-15
 21
1.0
 31
0.0
 73
     1
 44
1.0
  0
ENDBLK
  5
20D
330
201
100
AcDbEntity
  8
0
100
AcDbBlockEnd
  0
BLOCK
  5
267
330
25C
100
AcDbEntity
  8
0
100
AcDbBlockBegin
  2
*D5
 70
     1
 71
     0
 10
0.0
 20
0.0
 30
0.0
  3
*D5
  1

  0
ARC
  5
269
330
25C
100
AcDbEntity
  8
0
  6
Continuous
 62
     7
370
     0
100
AcDbCircle
 10
191.5055107756
 20
177.9063999115
 30
0.0
 40
4.550722415526715
100
AcDbArc
 50
243.4349488229
 51
296.5650511771
  0
ARC
  5
26A
330
25C
100
AcDbEntity
  8
0
  6
Continuous
 62
     7
370
     0
100
AcDbCircle
 10
191.5055107756
 20
177.0111100444
 30
0.0
 40
4.550722415526715
100
AcDbArc
 50
63.4349488229
 51
116.5650511771
  0
INSERT
  5
26B
330
25C
100
AcDbEntity
  8
0
  6
Continuous
 62
     7
370
     0
100
AcDbBlockReference
  2
_Open30
 10
193.5406557091
 20
192.1587549779
 30
-2.4450915754
 41
3.0
 42
3.0
 50
90.0
  0
INSERT
  5
26C
330
25C
100
AcDbEntity
  8
0
  6
Continuous
 62
     7
370
     0
100
AcDbBlockReference
  2
_Open30
 10
193.5406557091
 20
162.7587549779
 30
-2.4450915754
 41
3.0
 42
3.0
 50
270.0
  0
LINE
  5
26D
330
25C
100
AcDbEntity
  8
0
  6
Continuous
 62
     7
370
     0
100
AcDbLine
 10
178.784384858
 20
192.1587549779
 30
0.0
 11
194.5406557091
 21
192.1587549779
 31
0.0
  0
LINE
  5
26E
330
25C
100
AcDbEntity
  8
0
  6
Continuous
 62
     7
370
     0
100
AcDbLine
 10
182.284384858
 20
162.7587549779
 30
0.0
 11
194.5406557091
 21
162.7587549779
 31
0.0
  0
LINE
  5
26F
330
25C
100
AcDbEntity
  8
0
  6
Continuous
 62
     7
370
     0
100
AcDbLine
 10
193.5406557091
 20
192.1587549779
 30
0.0
 11
193.5406557091
 21
162.7587549779
 31
0.0
  0
MTEXT
  5
270
330
25C
100
AcDbEntity
  8
0
  6
Continuous
 62
     7
370
     0
100
AcDbMText
 10
189.4679286692
 20
175.4236100444
 30
0.0
 40
3.5
 41
0.0
 71
     1
 72
     1
  1
30
  7
SLDTEXTSTYLE0
 11
-7.932375459610008E-15
 21
1.0
 31
0.0
 73
     1
 44
1.0
  0
ENDBLK
  5
268
330
25C
100
AcDbEntity
  8
0
100
AcDbBlockEnd
  0
ENDSEC
  0
SECTION
  2
ENTITIES
  0
LINE
  5
2F
330
1F
100
AcDbEntity
  8
0
  6
Continuous
 62
     7
370
     0
100
AcDbLine
 10
20.2604743903
 20
285.0
 30
0.0
 11
196.7604743903
 21
285.0
 31
0.0
  0
LINE
  5
30
330
1F
100
AcDbEntity
  8
0
  6
Continuous
 62
     7
370
     0
100
AcDbLine
 10
20.2604743903
 20
285.0
 30
0.0
 11
20.2604743903
 21
10.0
 31
0.0
  0
LINE
  5
31
330
1F
100
AcDbEntity
  8
0
  6
Continuous
 62
     7
370
     0
100
AcDbLine
 10
20.2604743903
 20
10.0
 30
0.0
 11
196.7604743903
 21
10.0
 31
0.0
  0
LINE
  5
32
330
1F
100
AcDbEntity
  8
0
  6
Continuous
 62
     7
370
     0
100
AcDbLine
 10
196.7604743903
 20
285.0
 30
0.0
 11
196.7604743903
 21
10.0
 31
0.0
  0
LINE
  5
33
330
1F
100
AcDbEntity
  8
0
  6
Continuous
 62
     7
370
     0
100
AcDbLine
 10
127.0104743903
 20
50.75
 30
0.0
 11
196.7604743903
 21
50.75
 31
0.0
  0
LINE
  5
34
330
1F
100
AcDbEntity
  8
0
  6
Continuous
 62
     7
370
     0
100
AcDbLine
 10
127.0104743903
 20
50.75
 30
0.0
 11
127.0104743903
 21
10.0
 31
0.0
  0
LINE
  5
35
330
1F
100
AcDbEntity
  8
0
  6
Continuous
 62
     7
370
     0
100
AcDbLine
 10
127.0104743903
 20
22.75
 30
0.0
 11
196.7604743903
 21
22.75
 31
0.0
  0
LINE
  5
36
330
1F
100
AcDbEntity
  8
0
  6
Continuous
 62
     7
370
     0
100
AcDbLine
 10
127.0104743903
 20
36.75
 30
0.0
 11
196.7604743903
 21
36.75
 31
0.0
  0
MTEXT
  5
38
330
1F
100
AcDbEntity
  8
0
  6
Continuous
 62
     7
370
     0
100
AcDbMText
 10
154.0572340134
 20
31.1137816614
 30
0.0
 40
4.2333333333
 41
0.0
 71
     1
 72
     1
  1
OX-LBIA
  7
SLDTEXTSTYLE0
 73
     1
 44
1.0
  0
MTEXT
  5
39
330
1F
100
AcDbEntity
  8
0
  6
Continuous
 62
     7
370
     0
100
AcDbMText
 10
135.2062622666
 20
45.3072052433
 30
0.0
 40
4.2333333333
 41
0.0
 71
     1
 72
     1
  1
エアーオプション（OX用）
  7
SLDTEXTSTYLE0
 73
     1
 44
1.0
  0
MTEXT
  5
3A
330
1F
100
AcDbEntity
  8
0
  6
Continuous
 62
     7
370
     0
100
AcDbMText
 10
155.4989716255
 20
17.6942599153
 30
0.0
 40
4.2333333333
 41
0.0
 71
     1
 72
     1
  1
140196
  7
SLDTEXTSTYLE0
 73
     1
 44
1.0
  0
LINE
  5
3B
330
1F
100
AcDbEntity
  8
0
  6
Continuous
 62
     7
370
    30
100
AcDbLine
 10
133.5543704609
 20
173.1587552073
 30
0.0
 11
133.5543704609
 21
172.7587558868
 31
0.0
  0
LINE
  5
3C
330
1F
100
AcDbEntity
  8
0
  6
Continuous
 62
     7
370
    30
100
AcDbLine
 10
139.5543714443
 20
172.7587558868
 30
0.0
 11
139.5543714443
 21
173.1587552073
 31
0.0
  0
LINE
  5
3D
330
1F
100
AcDbEntity
  8
0
  6
Continuous
 62
     7
370
    30
100
AcDbLine
 10
133.7293717185
 20
165.2587549779
 30
0.0
 11
134.5543717185
 21
164.2587549779
 31
0.0
  0
LINE
  5
3E
330
1F
100
AcDbEntity
  8
0
  6
Continuous
 62
     7
370
    30
100
AcDbLine
 10
138.5543717185
 20
164.2587549779
 30
0.0
 11
139.3793717185
 21
165.2587549779
 31
0.0
  0
LINE
  5
3F
330
1F
100
AcDbEntity
  8
0
  6
Continuous
 62
     7
370
    30
100
AcDbLine
 10
133.7293717185
 20
168.2587549779
 30
0.0
 11
134.5543717185
 21
167.2587549779
 31
0.0
  0
LINE
  5
40
330
1F
100
AcDbEntity
  8
0
  6
Continuous
 62
     7
370
    30
100
AcDbLine
 10
138.5543717185
 20
167.2587549779
 30
0.0
 11
139.3793717185
 21
168.2587549779
 31
0.0
  0
LINE
  5
41
330
1F
100
AcDbEntity
  8
0
  6
Continuous
 62
     7
370
    30
100
AcDbLine
 10
134.5543717185
 20
167.2587549779
 30
0.0
 11
134.5543724874
 21
165.2587555888
 31
0.0
  0
LINE
  5
42
330
1F
100
AcDbEntity
  8
0
  6
Continuous
 62
     7
370
    30
100
AcDbLine
 10
138.5543731431
 20
165.2587555888
 30
0.0
 11
138.5543717185
 21
167.2587549779
 31
0.0
  0
LINE
  5
43
330
1F
100
AcDbEntity
  8
0
  6
Continuous
 62
     7
370
    30
100
AcDbLine
 10
134.5543724874
 20
169.7587553951
 30
0.0
 11
134.5543724874
 21
168.2587542179
 31
0.0
  0
LINE
  5
44
330
1F
100
AcDbEntity
  8
0
  6
Continuous
 62
     7
370
    30
100
AcDbLine
 10
138.5543731431
 20
168.2587542179
 30
0.0
 11
138.5543731431
 21
169.7587553951
 31
0.0
  0
LINE
  5
45
330
1F
100
AcDbEntity
  8
0
  6
Continuous
 62
     7
370
    30
100
AcDbLine
 10
134.5543717185
 20
164.2587549779
 30
0.0
 11
134.5543717185
 21
162.7587549779
 31
0.0
  0
LINE
  5
46
330
1F
100
AcDbEntity
  8
0
  6
Continuous
 62
     7
370
    30
100
AcDbLine
 10
138.5543717185
 20
162.7587549779
 30
0.0
 11
138.5543717185
 21
164.2587549779
 31
0.0
  0
LINE
  5
47
330
1F
100
AcDbEntity
  8
0
  6
Continuous
 62
     7
370
    30
100
AcDbLine
 10
37.5543733517
 20
173.1587552073
 30
0.0
 11
37.5543733517
 21
172.7587558868
 31
0.0
  0
LINE
  5
48
330
1F
100
AcDbEntity
  8
0
  6
Continuous
 62
     7
370
    30
100
AcDbLine
 10
43.5543706099
 20
172.7587558868
 30
0.0
 11
43.5543706099
 21
173.1587552073
 31
0.0
  0
LINE
  5
49
330
1F
100
AcDbEntity
  8
0
  6
Continuous
 62
     7
370
    30
100
AcDbLine
 10
37.7293717185
 20
165.2587549779
 30
0.0
 11
38.5543717185
 21
164.2587549779
 31
0.0
  0
LINE
  5
4A
330
1F
100
AcDbEntity
  8
0
  6
Continuous
 62
     7
370
    30
100
AcDbLine
 10
42.5543717185
 20
164.2587549779
 30
0.0
 11
43.3793717185
 21
165.2587549779
 31
0.0
  0
LINE
  5
4B
330
1F
100
AcDbEntity
  8
0
  6
Continuous
 62
     7
370
    30
100
AcDbLine
 10
37.7293717185
 20
168.2587549779
 30
0.0
 11
38.5543717185
 21
167.2587549779
 31
0.0
  0
LINE
  5
4C
330
1F
100
AcDbEntity
  8
0
  6
Continuous
 62
     7
370
    30
100
AcDbLine
 10
42.5543717185
 20
167.2587549779
 30
0.0
 11
43.3793717185
 21
168.2587549779
 31
0.0
  0
LINE
  5
4D
330
1F
100
AcDbEntity
  8
0
  6
Continuous
 62
     7
370
    30
100
AcDbLine
 10
38.5543717185
 20
167.2587549779
 30
0.0
 11
38.554371653
 21
165.2587555888
 31
0.0
  0
LINE
  5
4E
330
1F
100
AcDbEntity
  8
0
  6
Continuous
 62
     7
370
    30
100
AcDbLine
 10
42.5543723086
 20
165.2587555888
 30
0.0
 11
42.5543717185
 21
167.2587549779
 31
0.0
  0
LINE
  5
4F
330
1F
100
AcDbEntity
  8
0
  6
Continuous
 62
     7
370
    30
100
AcDbLine
 10
38.554371653
 20
169.7587553951
 30
0.0
 11
38.554371653
 21
168.2587542179
 31
0.0
  0
LINE
  5
50
330
1F
100
AcDbEntity
  8
0
  6
Continuous
 62
     7
370
    30
100
AcDbLine
 10
42.5543723086
 20
168.2587542179
 30
0.0
 11
42.5543723086
 21
169.7587553951
 31
0.0
  0
LINE
  5
51
330
1F
100
AcDbEntity
  8
0
  6
Continuous
 62
     7
370
    30
100
AcDbLine
 10
38.5543717185
 20
164.2587549779
 30
0.0
 11
38.5543717185
 21
162.7587549779
 31
0.0
  0
LINE
  5
52
330
1F
100
AcDbEntity
  8
0
  6
Continuous
 62
     7
370
    30
100
AcDbLine
 10
42.5543717185
 20
162.7587549779
 30
0.0
 11
42.5543717185
 21
164.2587549779
 31
0.0
  0
LINE
  5
53
330
1F
100
AcDbEntity
  8
0
  6
Continuous
 62
     7
370
    30
100
AcDbLine
 10
108.554371951
 20
173.1587552073
 30
0.0
 11
108.554371951
 21
172.7587558868
 31
0.0
  0
LINE
  5
54
330
1F
100
AcDbEntity
  8
0
  6
Continuous
 62
     7
370
    30
100
AcDbLine
 10
114.5543710718
 20
172.7587558868
 30
0.0
 11
114.5543710718
 21
173.1587552073
 31
0.0
  0
LINE
  5
55
330
1F
100
AcDbEntity
  8
0
  6
Continuous
 62
     7
370
    30
100
AcDbLine
 10
108.7293717185
 20
168.2587549779
 30
0.0
 11
109.5543717185
 21
167.2587549779
 31
0.0
  0
LINE
  5
56
330
1F
100
AcDbEntity
  8
0
  6
Continuous
 62
     7
370
    30
100
AcDbLine
 10
113.5543717185
 20
167.2587549779
 30
0.0
 11
114.3793717185
 21
168.2587549779
 31
0.0
  0
LINE
  5
57
330
1F
100
AcDbEntity
  8
0
  6
Continuous
 62
     7
370
    30
100
AcDbLine
 10
108.7293717185
 20
165.2587549779
 30
0.0
 11
109.5543717185
 21
164.2587549779
 31
0.0
  0
LINE
  5
58
330
1F
100
AcDbEntity
  8
0
  6
Continuous
 62
     7
370
    30
100
AcDbLine
 10
113.5543717185
 20
164.2587549779
 30
0.0
 11
114.3793717185
 21
165.2587549779
 31
0.0
  0
LINE
  5
59
330
1F
100
AcDbEntity
  8
0
  6
Continuous
 62
     7
370
    30
100
AcDbLine
 10
109.5543721149
 20
169.7587553951
 30
0.0
 11
109.5543721149
 21
168.2587542179
 31
0.0
  0
LINE
  5
5A
330
1F
100
AcDbEntity
  8
0
  6
Continuous
 62
     7
370
    30
100
AcDbLine
 10
113.5543709079
 20
168.2587542179
 30
0.0
 11
113.5543709079
 21
169.7587553951
 31
0.0
  0
LINE
  5
5B
330
1F
100
AcDbEntity
  8
0
  6
Continuous
 62
     7
370
    30
100
AcDbLine
 10
109.5543717185
 20
167.2587549779
 30
0.0
 11
109.5543721149
 21
165.2587555888
 31
0.0
  0
LINE
  5
5C
330
1F
100
AcDbEntity
  8
0
  6
Continuous
 62
     7
370
    30
100
AcDbLine
 10
113.5543709079
 20
165.2587555888
 30
0.0
 11
113.5543717185
 21
167.2587549779
 31
0.0
  0
LINE
  5
5D
330
1F
100
AcDbEntity
  8
0
  6
Continuous
 62
     7
370
    30
100
AcDbLine
 10
109.5543717185
 20
164.2587549779
 30
0.0
 11
109.5543717185
 21
162.7587549779
 31
0.0
  0
LINE
  5
5E
330
1F
100
AcDbEntity
  8
0
  6
Continuous
 62
     7
370
    30
100
AcDbLine
 10
113.5543717185
 20
162.7587549779
 30
0.0
 11
113.5543717185
 21
164.2587549779
 31
0.0
  0
LINE
  5
5F
330
1F
100
AcDbEntity
  8
0
  6
Continuous
 62
     7
370
    30
100
AcDbLine
 10
62.5543718616
 20
173.1587552073
 30
0.0
 11
62.5543718616
 21
172.7587558868
 31
0.0
  0
LINE
  5
60
330
1F
100
AcDbEntity
  8
0
  6
Continuous
 62
     7
370
    30
100
AcDbLine
 10
68.5543709824
 20
172.7587558868
 30
0.0
 11
68.5543709824
 21
173.1587552073
 31
0.0
  0
LINE
  5
61
330
1F
100
AcDbEntity
  8
0
  6
Continuous
 62
     7
370
    30
100
AcDbLine
 10
62.7293717185
 20
168.2587549779
 30
0.0
 11
63.5543717185
 21
167.2587549779
 31
0.0
  0
LINE
  5
62
330
1F
100
AcDbEntity
  8
0
  6
Continuous
 62
     7
370
    30
100
AcDbLine
 10
67.5543717185
 20
167.2587549779
 30
0.0
 11
68.3793717185
 21
168.2587549779
 31
0.0
  0
LINE
  5
63
330
1F
100
AcDbEntity
  8
0
  6
Continuous
 62
     7
370
    30
100
AcDbLine
 10
62.7293717185
 20
165.2587549779
 30
0.0
 11
63.5543717185
 21
164.2587549779
 31
0.0
  0
LINE
  5
64
330
1F
100
AcDbEntity
  8
0
  6
Continuous
 62
     7
370
    30
100
AcDbLine
 10
67.5543717185
 20
164.2587549779
 30
0.0
 11
68.3793717185
 21
165.2587549779
 31
0.0
  0
LINE
  5
65
330
1F
100
AcDbEntity
  8
0
  6
Continuous
 62
     7
370
    30
100
AcDbLine
 10
63.5543720255
 20
169.7587553951
 30
0.0
 11
63.5543720255
 21
168.2587542179
 31
0.0
  0
LINE
  5
66
330
1F
100
AcDbEntity
  8
0
  6
Continuous
 62
     7
370
    30
100
AcDbLine
 10
67.5543708185
 20
168.2587542179
 30
0.0
 11
67.5543708185
 21
169.7587553951
 31
0.0
  0
LINE
  5
67
330
1F
100
AcDbEntity
  8
0
  6
Continuous
 62
     7
370
    30
100
AcDbLine
 10
63.5543717185
 20
167.2587549779
 30
0.0
 11
63.5543720255
 21
165.2587555888
 31
0.0
  0
LINE
  5
68
330
1F
100
AcDbEntity
  8
0
  6
Continuous
 62
     7
370
    30
100
AcDbLine
 10
67.5543708185
 20
165.2587555888
 30
0.0
 11
67.5543717185
 21
167.2587549779
 31
0.0
  0
LINE
  5
69
330
1F
100
AcDbEntity
  8
0
  6
Continuous
 62
     7
370
    30
100
AcDbLine
 10
63.5543717185
 20
164.2587549779
 30
0.0
 11
63.5543717185
 21
162.7587549779
 31
0.0
  0
LINE
  5
6A
330
1F
100
AcDbEntity
  8
0
  6
Continuous
 62
     7
370
    30
100
AcDbLine
 10
67.5543717185
 20
162.7587549779
 30
0.0
 11
67.5543717185
 21
164.2587549779
 31
0.0
  0
LINE
  5
6B
330
1F
100
AcDbEntity
  8
0
  6
Continuous
 62
     7
370
    30
100
AcDbLine
 10
132.5143811683
 20
169.7587553951
 30
0.0
 11
132.5143811683
 21
172.7587558868
 31
0.0
  0
LINE
  5
6C
330
1F
100
AcDbEntity
  8
0
  6
Continuous
 62
     7
370
    30
100
AcDbLine
 10
132.5143811683
 20
172.7587558868
 30
0.0
 11
134.6447256783
 21
172.7587558868
 31
0.0
  0
LINE
  5
6D
330
1F
100
AcDbEntity
  8
0
  6
Continuous
 62
     7
370
    30
100
AcDbLine
 10
134.6447256783
 20
169.7587553951
 30
0.0
 11
134.6447256783
 21
172.7587558868
 31
0.0
  0
LINE
  5
6E
330
1F
100
AcDbEntity
  8
0
  6
Continuous
 62
     7
370
    30
100
AcDbLine
 10
132.5143811683
 20
169.7587553951
 30
0.0
 11
134.6447256783
 21
169.7587553951
 31
0.0
  0
LINE
  5
6F
330
1F
100
AcDbEntity
  8
0
  6
Continuous
 62
     7
370
    30
100
AcDbLine
 10
138.6847173253
 20
169.7587553951
 30
0.0
 11
138.6847173253
 21
172.7587558868
 31
0.0
  0
LINE
  5
70
330
1F
100
AcDbEntity
  8
0
  6
Continuous
 62
     7
370
    30
100
AcDbLine
 10
134.6447256783
 20
172.7587558868
 30
0.0
 11
138.6847173253
 21
172.7587558868
 31
0.0
  0
LINE
  5
71
330
1F
100
AcDbEntity
  8
0
  6
Continuous
 62
     7
370
    30
100
AcDbLine
 10
134.6447256783
 20
169.7587553951
 30
0.0
 11
138.6847173253
 21
169.7587553951
 31
0.0
  0
LINE
  5
72
330
1F
100
AcDbEntity
  8
0
  6
Continuous
 62
     7
370
    30
100
AcDbLine
 10
140.5943644623
 20
169.7587553951
 30
0.0
 11
140.5943644623
 21
172.7587558868
 31
0.0
  0
LINE
  5
73
330
1F
100
AcDbEntity
  8
0
  6
Continuous
 62
     7
370
    30
100
AcDbLine
 10
138.6847173253
 20
172.7587558868
 30
0.0
 11
140.5943644623
 21
172.7587558868
 31
0.0
  0
LINE
  5
74
330
1F
100
AcDbEntity
  8
0
  6
Continuous
 62
     7
370
    30
100
AcDbLine
 10
138.6847173253
 20
169.7587553951
 30
0.0
 11
140.5943644623
 21
169.7587553951
 31
0.0
  0
LINE
  5
75
330
1F
100
AcDbEntity
  8
0
  6
Continuous
 62
     7
370
    30
100
AcDbLine
 10
134.5543717185
 20
164.2587549779
 30
0.0
 11
138.5543717185
 21
164.2587549779
 31
0.0
  0
LINE
  5
76
330
1F
100
AcDbEntity
  8
0
  6
Continuous
 62
     7
370
    30
100
AcDbLine
 10
133.7293717185
 20
165.2587549779
 30
0.0
 11
139.3793717185
 21
165.2587549779
 31
0.0
  0
LINE
  5
77
330
1F
100
AcDbEntity
  8
0
  6
Continuous
 62
     7
370
    30
100
AcDbLine
 10
134.5543717185
 20
167.2587549779
 30
0.0
 11
138.5543717185
 21
167.2587549779
 31
0.0
  0
LINE
  5
78
330
1F
100
AcDbEntity
  8
0
  6
Continuous
 62
     7
370
    30
100
AcDbLine
 10
133.7293717185
 20
168.2587549779
 30
0.0
 11
139.3793717185
 21
168.2587549779
 31
0.0
  0
LINE
  5
79
330
1F
100
AcDbEntity
  8
0
  6
Continuous
 62
     7
370
    30
100
AcDbLine
 10
134.5543717185
 20
162.7587549779
 30
0.0
 11
138.5543717185
 21
162.7587549779
 31
0.0
  0
LINE
  5
7A
330
1F
100
AcDbEntity
  8
0
  6
Continuous
 62
     7
370
    30
100
AcDbLine
 10
36.5317848901
 20
169.7587553951
 30
0.0
 11
36.5317848901
 21
172.7587558868
 31
0.0
  0
LINE
  5
7B
330
1F
100
AcDbEntity
  8
0
  6
Continuous
 62
     7
370
    30
100
AcDbLine
 10
36.5317848901
 20
172.7587558868
 30
0.0
 11
38.8857548515
 21
172.7587558868
 31
0.0
  0
LINE
  5
7C
330
1F
100
AcDbEntity
  8
0
  6
Continuous
 62
     7
370
    30
100
AcDbLine
 10
38.8857548515
 20
169.7587553951
 30
0.0
 11
38.8857548515
 21
172.7587558868
 31
0.0
  0
LINE
  5
7D
330
1F
100
AcDbEntity
  8
0
  6
Continuous
 62
     7
370
    30
100
AcDbLine
 10
36.5317848901
 20
169.7587553951
 30
0.0
 11
38.8857548515
 21
169.7587553951
 31
0.0
  0
LINE
  5
7E
330
1F
100
AcDbEntity
  8
0
  6
Continuous
 62
     7
370
    30
100
AcDbLine
 10
42.9083419422
 20
169.7587553951
 30
0.0
 11
42.9083419422
 21
172.7587558868
 31
0.0
  0
LINE
  5
7F
330
1F
100
AcDbEntity
  8
0
  6
Continuous
 62
     7
370
    30
100
AcDbLine
 10
38.8857548515
 20
172.7587558868
 30
0.0
 11
42.9083419422
 21
172.7587558868
 31
0.0
  0
LINE
  5
80
330
1F
100
AcDbEntity
  8
0
  6
Continuous
 62
     7
370
    30
100
AcDbLine
 10
38.8857548515
 20
169.7587553951
 30
0.0
 11
42.9083419422
 21
169.7587553951
 31
0.0
  0
LINE
  5
81
330
1F
100
AcDbEntity
  8
0
  6
Continuous
 62
     7
370
    30
100
AcDbLine
 10
44.5769590715
 20
169.7587553951
 30
0.0
 11
44.5769590715
 21
172.7587558868
 31
0.0
  0
LINE
  5
82
330
1F
100
AcDbEntity
  8
0
  6
Continuous
 62
     7
370
    30
100
AcDbLine
 10
42.9083419422
 20
172.7587558868
 30
0.0
 11
44.5769590715
 21
172.7587558868
 31
0.0
  0
LINE
  5
83
330
1F
100
AcDbEntity
  8
0
  6
Continuous
 62
     7
370
    30
100
AcDbLine
 10
42.9083419422
 20
169.7587553951
 30
0.0
 11
44.5769590715
 21
169.7587553951
 31
0.0
  0
LINE
  5
84
330
1F
100
AcDbEntity
  8
0
  6
Continuous
 62
     7
370
    30
100
AcDbLine
 10
38.5543717185
 20
164.2587549779
 30
0.0
 11
42.5543717185
 21
164.2587549779
 31
0.0
  0
LINE
  5
85
330
1F
100
AcDbEntity
  8
0
  6
Continuous
 62
     7
370
    30
100
AcDbLine
 10
37.7293717185
 20
165.2587549779
 30
0.0
 11
43.3793717185
 21
165.2587549779
 31
0.0
  0
LINE
  5
86
330
1F
100
AcDbEntity
  8
0
  6
Continuous
 62
     7
370
    30
100
AcDbLine
 10
38.5543717185
 20
167.2587549779
 30
0.0
 11
42.5543717185
 21
167.2587549779
 31
0.0
  0
LINE
  5
87
330
1F
100
AcDbEntity
  8
0
  6
Continuous
 62
     7
370
    30
100
AcDbLine
 10
37.7293717185
 20
168.2587549779
 30
0.0
 11
43.3793717185
 21
168.2587549779
 31
0.0
  0
LINE
  5
88
330
1F
100
AcDbEntity
  8
0
  6
Continuous
 62
     7
370
    30
100
AcDbLine
 10
38.5543717185
 20
162.7587549779
 30
0.0
 11
42.5543717185
 21
162.7587549779
 31
0.0
  0
ARC
  5
89
330
1F
100
AcDbEntity
  8
0
  6
Continuous
 62
     7
370
    30
100
AcDbCircle
 10
111.5543717185
 20
183.1587549779
 30
0.0
 40
2.250000000000003
100
AcDbArc
 50
288.7181167051
 51
83.0389398912
  0
LWPOLYLINE
  5
8A
330
1F
100
AcDbEntity
  8
0
  6
Continuous
 62
     7
370
    30
100
AcDbPolyline
 90
        3
 70
   128
 43
0.0
 10
112.2764249722
 20
181.0277604106
 10
112.2608420829
 20
181.1791077795
 10
112.2500778565
 20
181.2836561891
  0
ARC
  5
8B
330
1F
100
AcDbEntity
  8
0
  6
Continuous
 62
     7
370
    30
100
AcDbCircle
 10
111.5543717185
 20
183.1587549779
 30
0.0
 40
2.000000000000011
100
AcDbArc
 50
290.3560404841
 51
81.4010161122
  0
LWPOLYLINE
  5
8C
330
1F
100
AcDbEntity
  8
0
  6
Continuous
 62
     7
370
    30
100
AcDbPolyline
 90
        3
 70
   128
 43
0.0
 10
111.8534070829
 20
185.1362731847
 10
111.8426428566
 20
185.2408215942
 10
111.8270599673
 20
185.3921698945
  0
LINE
  5
8D
330
1F
100
AcDbEntity
  8
0
  6
Continuous
 62
     7
370
    30
100
AcDbLine
 10
111.9344057741
 20
184.3495841498
 30
0.0
 11
111.8534073352
 21
185.1362730436
 31
0.0
  0
LINE
  5
8E
330
1F
100
AcDbEntity
  8
0
  6
Continuous
 62
     7
370
    30
100
AcDbLine
 10
112.2500773709
 20
181.2836566751
 30
0.0
 11
112.1690789319
 21
182.0703455689
 31
0.0
  0
ARC
  5
8F
330
1F
100
AcDbEntity
  8
0
  6
Continuous
 62
     7
370
    30
100
AcDbCircle
 10
111.5543717185
 20
183.1587549779
 30
0.0
 40
1.249999999999994
100
AcDbArc
 50
299.4567067764
 51
72.3003498199
  0
ARC
  5
90
330
1F
100
AcDbEntity
  8
0
  6
Continuous
 62
     7
370
    30
100
AcDbCircle
 10
111.5543717185
 20
183.1587549779
 30
0.0
 40
2.000000000000011
100
AcDbArc
 50
110.3560404841
 51
261.4010161122
  0
LINE
  5
91
330
1F
100
AcDbEntity
  8
0
  6
Continuous
 62
     7
370
    30
100
AcDbLine
 10
111.174337663
 20
181.9679258061
 30
0.0
 11
111.2553361019
 21
181.1812369123
 31
0.0
  0
LINE
  5
92
330
1F
100
AcDbEntity
  8
0
  6
Continuous
 62
     7
370
    30
100
AcDbLine
 10
110.8586660662
 20
185.0338532808
 30
0.0
 11
110.9396645051
 21
184.247164387
 31
0.0
  0
ARC
  5
93
330
1F
100
AcDbEntity
  8
0
  6
Continuous
 62
     7
370
    30
100
AcDbCircle
 10
111.5543717185
 20
183.1587549779
 30
0.0
 40
1.249999999999994
100
AcDbArc
 50
119.4567067764
 51
252.3003498199
  0
ARC
  5
94
330
1F
100
AcDbEntity
  8
0
  6
Continuous
 62
     7
370
    30
100
AcDbCircle
 10
111.5543717185
 20
183.1587549779
 30
0.0
 40
2.250000000000003
100
AcDbArc
 50
108.7181167051
 51
263.0389398912
  0
LWPOLYLINE
  5
95
330
1F
100
AcDbEntity
  8
0
  6
Continuous
 62
     7
370
    30
100
AcDbPolyline
 90
        3
 70
   128
 43
0.0
 10
111.2553359399
 20
181.1812367829
 10
111.2661001662
 20
181.0766883733
 10
111.2816830555
 20
180.9253410044
  0
LWPOLYLINE
  5
96
330
1F
100
AcDbEntity
  8
0
  6
Continuous
 62
     7
370
    30
100
AcDbPolyline
 90
        3
 70
   128
 43
0.0
 10
110.8323180506
 20
185.289749557
 10
110.8479009399
 20
185.1384012567
 10
110.8586651663
 20
185.0338528472
  0
ARC
  5
97
330
1F
100
AcDbEntity
  8
0
  6
Continuous
 62
     7
370
    30
100
AcDbCircle
 10
111.5543717185
 20
183.1587549779
 30
0.0
 40
2.250000000000003
100
AcDbArc
 50
263.0389398912
 51
288.7181167051
  0
ARC
  5
98
330
1F
100
AcDbEntity
  8
0
  6
Continuous
 62
     7
370
    30
100
AcDbCircle
 10
111.5543717185
 20
183.1587549779
 30
0.0
 40
1.249999999999994
100
AcDbArc
 50
252.3003498199
 51
299.4567067764
  0
ARC
  5
99
330
1F
100
AcDbEntity
  8
0
  6
Continuous
 62
     7
370
    30
100
AcDbCircle
 10
111.5543717185
 20
183.1587549779
 30
0.0
 40
2.250000000000003
100
AcDbArc
 50
83.0389398912
 51
108.7181167051
  0
ARC
  5
9A
330
1F
100
AcDbEntity
  8
0
  6
Continuous
 62
     7
370
    30
100
AcDbCircle
 10
111.5543717185
 20
183.1587549779
 30
0.0
 40
1.249999999999994
100
AcDbArc
 50
72.3003498199
 51
119.4567067764
  0
CIRCLE
  5
9B
330
1F
100
AcDbEntity
  8
0
  6
Continuous
 62
     7
370
    30
100
AcDbCircle
 10
111.5543717185
 20
183.1587549779
 30
0.0
 40
4.050000000000007
  0
CIRCLE
  5
9C
330
1F
100
AcDbEntity
  8
0
  6
Continuous
 62
     7
370
    30
100
AcDbCircle
 10
111.5543717185
 20
183.1587549779
 30
0.0
 40
4.249999999999977
  0
ARC
  5
9D
330
1F
100
AcDbEntity
  8
0
  6
Continuous
 62
     7
370
    30
100
AcDbCircle
 10
40.5543717185
 20
183.1587549779
 30
0.0
 40
1.999999999999986
100
AcDbArc
 50
103.3011553053
 51
254.3461309334
  0
LWPOLYLINE
  5
9E
330
1F
100
AcDbEntity
  8
0
  6
Continuous
 62
     7
370
    30
100
AcDbPolyline
 90
        3
 70
   128
 43
0.0
 10
40.0147227029
 20
181.2329363617
 10
40.0125620345
 20
181.1278570982
 10
40.0094402412
 20
180.9757404568
  0
ARC
  5
9F
330
1F
100
AcDbEntity
  8
0
  6
Continuous
 62
     7
370
    30
100
AcDbCircle
 10
40.5543717185
 20
183.1587549779
 30
0.0
 40
2.249999999999993
100
AcDbArc
 50
101.6632315262
 51
255.9840547124
  0
LWPOLYLINE
  5
A0
330
1F
100
AcDbEntity
  8
0
  6
Continuous
 62
     7
370
    30
100
AcDbPolyline
 90
        3
 70
   128
 43
0.0
 10
40.0995140353
 20
185.3622986543
 10
40.0963922421
 20
185.2101820129
 10
40.0942315737
 20
185.1051036807
  0
LINE
  5
A1
330
1F
100
AcDbEntity
  8
0
  6
Continuous
 62
     7
370
    30
100
AcDbLine
 10
40.0309571909
 20
182.023617439
 30
0.0
 11
40.0147211987
 21
181.2329363685
 31
0.0
  0
LINE
  5
A2
330
1F
100
AcDbEntity
  8
0
  6
Continuous
 62
     7
370
    30
100
AcDbLine
 10
40.0942329981
 20
185.1051034457
 30
0.0
 11
40.0779970059
 21
184.3144223752
 31
0.0
  0
ARC
  5
A3
330
1F
100
AcDbEntity
  8
0
  6
Continuous
 62
     7
370
    30
100
AcDbCircle
 10
40.5543717185
 20
183.1587549779
 30
0.0
 40
1.250000000000004
100
AcDbArc
 50
112.4018215975
 51
245.2454646411
  0
ARC
  5
A4
330
1F
100
AcDbEntity
  8
0
  6
Continuous
 62
     7
370
    30
100
AcDbCircle
 10
40.5543717185
 20
183.1587549779
 30
0.0
 40
2.250000000000019
100
AcDbArc
 50
281.6632315262
 51
75.9840547124
  0
ARC
  5
A5
330
1F
100
AcDbEntity
  8
0
  6
Continuous
 62
     7
370
    30
100
AcDbCircle
 10
40.5543717185
 20
183.1587549779
 30
0.0
 40
2.000000000000016
100
AcDbArc
 50
283.3011553053
 51
74.3461309334
  0
LWPOLYLINE
  5
A6
330
1F
100
AcDbEntity
  8
0
  6
Continuous
 62
     7
370
    30
100
AcDbPolyline
 90
        3
 70
   128
 43
0.0
 10
41.0940212587
 20
185.0845736059
 10
41.0961782018
 20
185.189651938
 10
41.0993037204
 20
185.3417685794
  0
LWPOLYLINE
  5
A7
330
1F
100
AcDbEntity
  8
0
  6
Continuous
 62
     7
370
    30
100
AcDbPolyline
 90
        3
 70
   128
 43
0.0
 10
41.0092299262
 20
180.955210382
 10
41.0123517195
 20
181.1073270234
 10
41.0145086626
 20
181.2124062868
  0
LINE
  5
A8
330
1F
100
AcDbEntity
  8
0
  6
Continuous
 62
     7
370
    30
100
AcDbLine
 10
41.0777862461
 20
184.2938925169
 30
0.0
 11
41.0940222384
 21
185.0845735874
 31
0.0
  0
ARC
  5
A9
330
1F
100
AcDbEntity
  8
0
  6
Continuous
 62
     7
370
    30
100
AcDbCircle
 10
40.5543717185
 20
183.1587549779
 30
0.0
 40
1.250000000000009
100
AcDbArc
 50
292.4018215975
 51
65.2454646411
  0
LINE
  5
AA
330
1F
100
AcDbEntity
  8
0
  6
Continuous
 62
     7
370
    30
100
AcDbLine
 10
41.0145104389
 20
181.2124065102
 30
0.0
 11
41.0307464312
 21
182.0030875807
 31
0.0
  0
ARC
  5
AB
330
1F
100
AcDbEntity
  8
0
  6
Continuous
 62
     7
370
    30
100
AcDbCircle
 10
40.5543717185
 20
183.1587549779
 30
0.0
 40
2.250000000000019
100
AcDbArc
 50
255.9840547124
 51
281.6632315262
  0
ARC
  5
AC
330
1F
100
AcDbEntity
  8
0
  6
Continuous
 62
     7
370
    30
100
AcDbCircle
 10
40.5543717185
 20
183.1587549779
 30
0.0
 40
1.250000000000009
100
AcDbArc
 50
245.2454646411
 51
292.4018215975
  0
ARC
  5
AD
330
1F
100
AcDbEntity
  8
0
  6
Continuous
 62
     7
370
    30
100
AcDbCircle
 10
40.5543717185
 20
183.1587549779
 30
0.0
 40
2.249999999999998
100
AcDbArc
 50
75.9840547124
 51
101.6632315262
  0
ARC
  5
AE
330
1F
100
AcDbEntity
  8
0
  6
Continuous
 62
     7
370
    30
100
AcDbCircle
 10
40.5543717185
 20
183.1587549779
 30
0.0
 40
1.250000000000001
100
AcDbArc
 50
65.2454646411
 51
112.4018215975
  0
CIRCLE
  5
AF
330
1F
100
AcDbEntity
  8
0
  6
Continuous
 62
     7
370
    30
100
AcDbCircle
 10
40.5543717185
 20
183.1587549779
 30
0.0
 40
4.049999999999995
  0
CIRCLE
  5
B0
330
1F
100
AcDbEntity
  8
0
  6
Continuous
 62
     7
370
    30
100
AcDbCircle
 10
40.5543717185
 20
183.1587549779
 30
0.0
 40
4.249999999999994
  0
ARC
  5
B1
330
1F
100
AcDbEntity
  8
0
  6
Continuous
 62
     7
370
    30
100
AcDbCircle
 10
136.5543717185
 20
183.1587549779
 30
0.0
 40
1.250000000000008
100
AcDbArc
 50
123.7090336767
 51
256.5526767203
  0
LINE
  5
B2
330
1F
100
AcDbEntity
  8
0
  6
Continuous
 62
     7
370
    30
100
AcDbLine
 10
136.2636826114
 20
181.9430248093
 30
0.0
 11
136.4027902631
 21
181.1645074852
 31
0.0
  0
ARC
  5
B3
330
1F
100
AcDbEntity
  8
0
  6
Continuous
 62
     7
370
    30
100
AcDbCircle
 10
136.5543717185
 20
183.1587549779
 30
0.0
 40
2.000000000000016
100
AcDbArc
 50
114.6083673844
 51
265.6533430126
  0
LINE
  5
B4
330
1F
100
AcDbEntity
  8
0
  6
Continuous
 62
     7
370
    30
100
AcDbLine
 10
135.7215445761
 20
184.9771055907
 30
0.0
 11
135.8606522278
 21
184.1985882666
 31
0.0
  0
ARC
  5
B5
330
1F
100
AcDbEntity
  8
0
  6
Continuous
 62
     7
370
    30
100
AcDbCircle
 10
136.5543717185
 20
183.1587549779
 30
0.0
 40
2.250000000000024
100
AcDbArc
 50
292.9704436054
 51
87.2912667916
  0
LWPOLYLINE
  5
B6
330
1F
100
AcDbEntity
  8
0
  6
Continuous
 62
     7
370
    30
100
AcDbPolyline
 90
        3
 70
   128
 43
0.0
 10
137.4324498156
 20
181.0871657523
 10
137.4056873301
 20
181.2369429114
 10
137.3871987144
 20
181.3404035362
  0
ARC
  5
B7
330
1F
100
AcDbEntity
  8
0
  6
Continuous
 62
     7
370
    30
100
AcDbCircle
 10
136.5543717185
 20
183.1587549779
 30
0.0
 40
2.000000000000033
100
AcDbArc
 50
294.6083673844
 51
85.6533430126
  0
LWPOLYLINE
  5
B8
330
1F
100
AcDbEntity
  8
0
  6
Continuous
 62
     7
370
    30
100
AcDbPolyline
 90
        3
 70
   128
 43
0.0
 10
136.7059548775
 20
185.1530025321
 10
136.6874662617
 20
185.2564650195
 10
136.6607037762
 20
185.4062412473
  0
ARC
  5
B9
330
1F
100
AcDbEntity
  8
0
  6
Continuous
 62
     7
370
    30
100
AcDbCircle
 10
136.5543717185
 20
183.1587549779
 30
0.0
 40
2.250000000000025
100
AcDbArc
 50
112.9704436054
 51
267.2912667916
  0
LWPOLYLINE
  5
BA
330
1F
100
AcDbEntity
  8
0
  6
Continuous
 62
     7
370
    30
100
AcDbPolyline
 90
        3
 70
   128
 43
0.0
 10
135.6762958149
 20
185.2303442153
 10
135.7030583004
 20
185.0805679875
 10
135.7215431908
 20
184.9771055
  0
LWPOLYLINE
  5
BB
330
1F
100
AcDbEntity
  8
0
  6
Continuous
 62
     7
370
    30
100
AcDbPolyline
 90
        3
 70
   128
 43
0.0
 10
136.402790753
 20
181.1645083668
 10
136.4212756435
 20
181.0610458794
 10
136.448038129
 20
180.9112687203
  0
LINE
  5
BC
330
1F
100
AcDbEntity
  8
0
  6
Continuous
 62
     7
370
    30
100
AcDbLine
 10
137.387198861
 20
181.3404043652
 30
0.0
 11
137.2480912093
 21
182.1189216893
 31
0.0
  0
ARC
  5
BD
330
1F
100
AcDbEntity
  8
0
  6
Continuous
 62
     7
370
    30
100
AcDbCircle
 10
136.5543717185
 20
183.1587549779
 30
0.0
 40
1.250000000000008
100
AcDbArc
 50
303.7090336767
 51
76.5526767203
  0
LINE
  5
BE
330
1F
100
AcDbEntity
  8
0
  6
Continuous
 62
     7
370
    30
100
AcDbLine
 10
136.8450608257
 20
184.3744851466
 30
0.0
 11
136.705953174
 21
185.1530024707
 31
0.0
  0
ARC
  5
BF
330
1F
100
AcDbEntity
  8
0
  6
Continuous
 62
     7
370
    30
100
AcDbCircle
 10
136.5543717185
 20
183.1587549779
 30
0.0
 40
2.249999999999997
100
AcDbArc
 50
87.2912667916
 51
112.9704436054
  0
ARC
  5
C0
330
1F
100
AcDbEntity
  8
0
  6
Continuous
 62
     7
370
    30
100
AcDbCircle
 10
136.5543717185
 20
183.1587549779
 30
0.0
 40
1.250000000000008
100
AcDbArc
 50
76.5526767203
 51
123.7090336767
  0
ARC
  5
C1
330
1F
100
AcDbEntity
  8
0
  6
Continuous
 62
     7
370
    30
100
AcDbCircle
 10
136.5543717185
 20
183.1587549779
 30
0.0
 40
2.250000000000025
100
AcDbArc
 50
267.2912667916
 51
292.9704436054
  0
ARC
  5
C2
330
1F
100
AcDbEntity
  8
0
  6
Continuous
 62
     7
370
    30
100
AcDbCircle
 10
136.5543717185
 20
183.1587549779
 30
0.0
 40
1.250000000000008
100
AcDbArc
 50
256.5526767203
 51
303.7090336767
  0
CIRCLE
  5
C3
330
1F
100
AcDbEntity
  8
0
  6
Continuous
 62
     7
370
    30
100
AcDbCircle
 10
136.5543717185
 20
183.1587549779
 30
0.0
 40
4.049999999999991
  0
CIRCLE
  5
C4
330
1F
100
AcDbEntity
  8
0
  6
Continuous
 62
     7
370
    30
100
AcDbCircle
 10
136.5543717185
 20
183.1587549779
 30
0.0
 40
4.249999999999974
  0
ARC
  5
C5
330
1F
100
AcDbEntity
  8
0
  6
Continuous
 62
     7
370
    30
100
AcDbCircle
 10
65.5543717185
 20
183.1587549779
 30
0.0
 40
1.249999999999999
100
AcDbArc
 50
301.9836991507
 51
74.8273421943
  0
LINE
  5
C6
330
1F
100
AcDbEntity
  8
0
  6
Continuous
 62
     7
370
    30
100
AcDbLine
 10
65.8815325085
 20
184.3651818582
 30
0.0
 11
65.7659276909
 21
185.1475345209
 31
0.0
  0
ARC
  5
C7
330
1F
100
AcDbEntity
  8
0
  6
Continuous
 62
     7
370
    30
100
AcDbCircle
 10
65.5543717185
 20
183.1587549779
 30
0.0
 40
2.000000000000008
100
AcDbArc
 50
292.8830328585
 51
83.9280084866
  0
LINE
  5
C8
330
1F
100
AcDbEntity
  8
0
  6
Continuous
 62
     7
370
    30
100
AcDbLine
 10
66.3320739988
 20
181.3161537831
 30
0.0
 11
66.2164691812
 21
182.0985064458
 31
0.0
  0
ARC
  5
C9
330
1F
100
AcDbEntity
  8
0
  6
Continuous
 62
     7
370
    30
100
AcDbCircle
 10
65.5543717185
 20
183.1587549779
 30
0.0
 40
2.000000000000004
100
AcDbArc
 50
112.8830328585
 51
263.9280084866
  0
ARC
  5
CA
330
1F
100
AcDbEntity
  8
0
  6
Continuous
 62
     7
370
    30
100
AcDbCircle
 10
65.5543717185
 20
183.1587549779
 30
0.0
 40
2.250000000000009
100
AcDbArc
 50
111.2451090794
 51
265.5659322656
  0
LWPOLYLINE
  5
CB
330
1F
100
AcDbEntity
  8
0
  6
Continuous
 62
     7
370
    30
100
AcDbPolyline
 90
        3
 70
   128
 43
0.0
 10
65.3428149799
 20
181.1699752303
 10
65.3581799398
 20
181.0660042408
 10
65.3804199228
 20
180.9154894742
  0
LWPOLYLINE
  5
CC
330
1F
100
AcDbEntity
  8
0
  6
Continuous
 62
     7
370
    30
100
AcDbPolyline
 90
        3
 70
   128
 43
0.0
 10
64.7390646318
 20
185.2558419647
 10
64.7613064776
 20
185.1053281295
 10
64.7766695747
 20
185.0013562086
  0
ARC
  5
CD
330
1F
100
AcDbEntity
  8
0
  6
Continuous
 62
     7
370
    30
100
AcDbCircle
 10
65.5543717185
 20
183.1587549779
 30
0.0
 40
2.249999999999985
100
AcDbArc
 50
291.2451090794
 51
85.5659322656
  0
LWPOLYLINE
  5
CE
330
1F
100
AcDbEntity
  8
0
  6
Continuous
 62
     7
370
    30
100
AcDbPolyline
 90
        3
 70
   128
 43
0.0
 10
66.3696782122
 20
181.0616680029
 10
66.3474382291
 20
181.2121809068
 10
66.3320732693
 20
181.316153759
  0
LWPOLYLINE
  5
CF
330
1F
100
AcDbEntity
  8
0
  6
Continuous
 62
     7
370
    30
100
AcDbPolyline
 90
        3
 70
   128
 43
0.0
 10
65.7659278641
 20
185.1475347372
 10
65.7505647669
 20
185.2515066581
 10
65.7283229212
 20
185.4020204934
  0
ARC
  5
D0
330
1F
100
AcDbEntity
  8
0
  6
Continuous
 62
     7
370
    30
100
AcDbCircle
 10
65.5543717185
 20
183.1587549779
 30
0.0
 40
1.249999999999994
100
AcDbArc
 50
121.9836991507
 51
254.8273421943
  0
LINE
  5
D1
330
1F
100
AcDbEntity
  8
0
  6
Continuous
 62
     7
370
    30
100
AcDbLine
 10
65.2272109285
 20
181.9523280977
 30
0.0
 11
65.3428157461
 21
181.169975435
 31
0.0
  0
LINE
  5
D2
330
1F
100
AcDbEntity
  8
0
  6
Continuous
 62
     7
370
    30
100
AcDbLine
 10
64.7766694382
 20
185.0013561728
 30
0.0
 11
64.8922742558
 21
184.2190035101
 31
0.0
  0
ARC
  5
D3
330
1F
100
AcDbEntity
  8
0
  6
Continuous
 62
     7
370
    30
100
AcDbCircle
 10
65.5543717185
 20
183.1587549779
 30
0.0
 40
2.250000000000009
100
AcDbArc
 50
265.5659322656
 51
291.2451090794
  0
ARC
  5
D4
330
1F
100
AcDbEntity
  8
0
  6
Continuous
 62
     7
370
    30
100
AcDbCircle
 10
65.5543717185
 20
183.1587549779
 30
0.0
 40
1.249999999999999
100
AcDbArc
 50
254.8273421943
 51
301.9836991507
  0
ARC
  5
D5
330
1F
100
AcDbEntity
  8
0
  6
Continuous
 62
     7
370
    30
100
AcDbCircle
 10
65.5543717185
 20
183.1587549779
 30
0.0
 40
2.250000000000007
100
AcDbArc
 50
85.5659322656
 51
111.2451090794
  0
ARC
  5
D6
330
1F
100
AcDbEntity
  8
0
  6
Continuous
 62
     7
370
    30
100
AcDbCircle
 10
65.5543717185
 20
183.1587549779
 30
0.0
 40
1.249999999999998
100
AcDbArc
 50
74.8273421943
 51
121.9836991507
  0
CIRCLE
  5
D7
330
1F
100
AcDbEntity
  8
0
  6
Continuous
 62
     7
370
    30
100
AcDbCircle
 10
65.5543717185
 20
183.1587549779
 30
0.0
 40
4.050000000000014
  0
CIRCLE
  5
D8
330
1F
100
AcDbEntity
  8
0
  6
Continuous
 62
     7
370
    30
100
AcDbCircle
 10
65.5543717185
 20
183.1587549779
 30
0.0
 40
4.250000000000026
  0
LINE
  5
D9
330
1F
100
AcDbEntity
  8
0
  6
Continuous
 62
     7
370
    30
100
AcDbLine
 10
109.5333707908
 20
169.7587553951
 30
0.0
 11
109.5333707908
 21
172.7587558868
 31
0.0
  0
LINE
  5
DA
330
1F
100
AcDbEntity
  8
0
  6
Continuous
 62
     7
370
    30
100
AcDbLine
 10
109.5333707908
 20
172.7587558868
 30
0.0
 11
113.575372232
 21
172.7587558868
 31
0.0
  0
LINE
  5
DB
330
1F
100
AcDbEntity
  8
0
  6
Continuous
 62
     7
370
    30
100
AcDbLine
 10
113.575372232
 20
169.7587553951
 30
0.0
 11
113.575372232
 21
172.7587558868
 31
0.0
  0
LINE
  5
DC
330
1F
100
AcDbEntity
  8
0
  6
Continuous
 62
     7
370
    30
100
AcDbLine
 10
109.5333707908
 20
169.7587553951
 30
0.0
 11
113.575372232
 21
169.7587553951
 31
0.0
  0
LINE
  5
DD
330
1F
100
AcDbEntity
  8
0
  6
Continuous
 62
     7
370
    30
100
AcDbLine
 10
107.5123710016
 20
169.7587553951
 30
0.0
 11
107.5123710016
 21
172.7587558868
 31
0.0
  0
LINE
  5
DE
330
1F
100
AcDbEntity
  8
0
  6
Continuous
 62
     7
370
    30
100
AcDbLine
 10
107.5123710016
 20
172.7587558868
 30
0.0
 11
109.5333707908
 21
172.7587558868
 31
0.0
  0
LINE
  5
DF
330
1F
100
AcDbEntity
  8
0
  6
Continuous
 62
     7
370
    30
100
AcDbLine
 10
107.5123710016
 20
169.7587553951
 30
0.0
 11
109.5333707908
 21
169.7587553951
 31
0.0
  0
LINE
  5
E0
330
1F
100
AcDbEntity
  8
0
  6
Continuous
 62
     7
370
    30
100
AcDbLine
 10
115.5963720212
 20
169.7587553951
 30
0.0
 11
115.5963720212
 21
172.7587558868
 31
0.0
  0
LINE
  5
E1
330
1F
100
AcDbEntity
  8
0
  6
Continuous
 62
     7
370
    30
100
AcDbLine
 10
113.575372232
 20
172.7587558868
 30
0.0
 11
115.5963720212
 21
172.7587558868
 31
0.0
  0
LINE
  5
E2
330
1F
100
AcDbEntity
  8
0
  6
Continuous
 62
     7
370
    30
100
AcDbLine
 10
113.575372232
 20
169.7587553951
 30
0.0
 11
115.5963720212
 21
169.7587553951
 31
0.0
  0
LINE
  5
E3
330
1F
100
AcDbEntity
  8
0
  6
Continuous
 62
     7
370
    30
100
AcDbLine
 10
109.5543717185
 20
167.2587549779
 30
0.0
 11
113.5543717185
 21
167.2587549779
 31
0.0
  0
LINE
  5
E4
330
1F
100
AcDbEntity
  8
0
  6
Continuous
 62
     7
370
    30
100
AcDbLine
 10
108.7293717185
 20
168.2587549779
 30
0.0
 11
114.3793717185
 21
168.2587549779
 31
0.0
  0
LINE
  5
E5
330
1F
100
AcDbEntity
  8
0
  6
Continuous
 62
     7
370
    30
100
AcDbLine
 10
109.5543717185
 20
164.2587549779
 30
0.0
 11
113.5543717185
 21
164.2587549779
 31
0.0
  0
LINE
  5
E6
330
1F
100
AcDbEntity
  8
0
  6
Continuous
 62
     7
370
    30
100
AcDbLine
 10
108.7293717185
 20
165.2587549779
 30
0.0
 11
114.3793717185
 21
165.2587549779
 31
0.0
  0
LINE
  5
E7
330
1F
100
AcDbEntity
  8
0
  6
Continuous
 62
     7
370
    30
100
AcDbLine
 10
109.5543717185
 20
162.7587549779
 30
0.0
 11
113.5543717185
 21
162.7587549779
 31
0.0
  0
LINE
  5
E8
330
1F
100
AcDbEntity
  8
0
  6
Continuous
 62
     7
370
    30
100
AcDbLine
 10
61.5123709122
 20
169.7587553951
 30
0.0
 11
61.5123709122
 21
172.7587558868
 31
0.0
  0
LINE
  5
E9
330
1F
100
AcDbEntity
  8
0
  6
Continuous
 62
     7
370
    30
100
AcDbLine
 10
61.5123709122
 20
172.7587558868
 30
0.0
 11
63.5333725641
 21
172.7587558868
 31
0.0
  0
LINE
  5
EA
330
1F
100
AcDbEntity
  8
0
  6
Continuous
 62
     7
370
    30
100
AcDbLine
 10
63.5333725641
 20
169.7587553951
 30
0.0
 11
63.5333725641
 21
172.7587558868
 31
0.0
  0
LINE
  5
EB
330
1F
100
AcDbEntity
  8
0
  6
Continuous
 62
     7
370
    30
100
AcDbLine
 10
61.5123709122
 20
169.7587553951
 30
0.0
 11
63.5333725641
 21
169.7587553951
 31
0.0
  0
LINE
  5
EC
330
1F
100
AcDbEntity
  8
0
  6
Continuous
 62
     7
370
    30
100
AcDbLine
 10
63.5333725641
 20
172.7587558868
 30
0.0
 11
67.5753721426
 21
172.7587558868
 31
0.0
  0
LINE
  5
ED
330
1F
100
AcDbEntity
  8
0
  6
Continuous
 62
     7
370
    30
100
AcDbLine
 10
67.5753721426
 20
169.7587553951
 30
0.0
 11
67.5753721426
 21
172.7587558868
 31
0.0
  0
LINE
  5
EE
330
1F
100
AcDbEntity
  8
0
  6
Continuous
 62
     7
370
    30
100
AcDbLine
 10
63.5333725641
 20
169.7587553951
 30
0.0
 11
67.5753721426
 21
169.7587553951
 31
0.0
  0
LINE
  5
EF
330
1F
100
AcDbEntity
  8
0
  6
Continuous
 62
     7
370
    30
100
AcDbLine
 10
69.5963719318
 20
169.7587553951
 30
0.0
 11
69.5963719318
 21
172.7587558868
 31
0.0
  0
LINE
  5
F0
330
1F
100
AcDbEntity
  8
0
  6
Continuous
 62
     7
370
    30
100
AcDbLine
 10
67.5753721426
 20
172.7587558868
 30
0.0
 11
69.5963719318
 21
172.7587558868
 31
0.0
  0
LINE
  5
F1
330
1F
100
AcDbEntity
  8
0
  6
Continuous
 62
     7
370
    30
100
AcDbLine
 10
67.5753721426
 20
169.7587553951
 30
0.0
 11
69.5963719318
 21
169.7587553951
 31
0.0
  0
LINE
  5
F2
330
1F
100
AcDbEntity
  8
0
  6
Continuous
 62
     7
370
    30
100
AcDbLine
 10
63.5543717185
 20
167.2587549779
 30
0.0
 11
67.5543717185
 21
167.2587549779
 31
0.0
  0
LINE
  5
F3
330
1F
100
AcDbEntity
  8
0
  6
Continuous
 62
     7
370
    30
100
AcDbLine
 10
62.7293717185
 20
168.2587549779
 30
0.0
 11
68.3793717185
 21
168.2587549779
 31
0.0
  0
LINE
  5
F4
330
1F
100
AcDbEntity
  8
0
  6
Continuous
 62
     7
370
    30
100
AcDbLine
 10
63.5543717185
 20
164.2587549779
 30
0.0
 11
67.5543717185
 21
164.2587549779
 31
0.0
  0
LINE
  5
F5
330
1F
100
AcDbEntity
  8
0
  6
Continuous
 62
     7
370
    30
100
AcDbLine
 10
62.7293717185
 20
165.2587549779
 30
0.0
 11
68.3793717185
 21
165.2587549779
 31
0.0
  0
LINE
  5
F6
330
1F
100
AcDbEntity
  8
0
  6
Continuous
 62
     7
370
    30
100
AcDbLine
 10
63.5543717185
 20
162.7587549779
 30
0.0
 11
67.5543717185
 21
162.7587549779
 31
0.0
  0
CIRCLE
  5
F7
330
1F
100
AcDbEntity
  8
0
  6
Continuous
 62
     7
370
    30
100
AcDbCircle
 10
136.5543717185
 20
183.1587549779
 30
0.0
 40
3.750000000000062
  0
CIRCLE
  5
F8
330
1F
100
AcDbEntity
  8
0
  6
Continuous
 62
     7
370
    30
100
AcDbCircle
 10
136.5543717185
 20
183.1587549779
 30
0.0
 40
2.750000000000055
  0
CIRCLE
  5
F9
330
1F
100
AcDbEntity
  8
0
  6
Continuous
 62
     7
370
    30
100
AcDbCircle
 10
111.5543717185
 20
183.1587549779
 30
0.0
 40
2.750000000000034
  0
CIRCLE
  5
FA
330
1F
100
AcDbEntity
  8
0
  6
Continuous
 62
     7
370
    30
100
AcDbCircle
 10
111.5543717185
 20
183.1587549779
 30
0.0
 40
3.75000000000005
  0
CIRCLE
  5
FB
330
1F
100
AcDbEntity
  8
0
  6
Continuous
 62
     7
370
    30
100
AcDbCircle
 10
65.5543717185
 20
183.1587549779
 30
0.0
 40
3.750000000000051
  0
CIRCLE
  5
FC
330
1F
100
AcDbEntity
  8
0
  6
Continuous
 62
     7
370
    30
100
AcDbCircle
 10
65.5543717185
 20
183.1587549779
 30
0.0
 40
2.75000000000002
  0
CIRCLE
  5
FD
330
1F
100
AcDbEntity
  8
0
  6
Continuous
 62
     7
370
    30
100
AcDbCircle
 10
40.5543717185
 20
183.1587549779
 30
0.0
 40
3.75000000000006
  0
CIRCLE
  5
FE
330
1F
100
AcDbEntity
  8
0
  6
Continuous
 62
     7
370
    30
100
AcDbCircle
 10
40.5543717185
 20
183.1587549779
 30
0.0
 40
2.750000000000027
  0
LINE
  5
FF
330
1F
100
AcDbEntity
  8
0
  6
Continuous
 62
     7
370
    30
100
AcDbLine
 10
83.5543718113
 20
192.158755062
 30
0.0
 11
93.5543718206
 21
192.158755062
 31
0.0
  0
LINE
  5
100
330
1F
100
AcDbEntity
  8
0
  6
Continuous
 62
     7
370
    30
100
AcDbLine
 10
143.5543721
 20
173.1587552073
 30
0.0
 11
143.5543721
 21
189.1587550359
 31
0.0
  0
LINE
  5
101
330
1F
100
AcDbEntity
  8
0
  6
Continuous
 62
     7
370
    30
100
AcDbLine
 10
33.554372696
 20
173.1587552073
 30
0.0
 11
143.5543721
 21
173.1587552073
 31
0.0
  0
LINE
  5
102
330
1F
100
AcDbEntity
  8
0
  6
Continuous
 62
     7
370
    30
100
AcDbLine
 10
33.554372696
 20
189.1587550359
 30
0.0
 11
33.554372696
 21
173.1587552073
 31
0.0
  0
CIRCLE
  5
103
330
1F
100
AcDbEntity
  8
0
  6
Continuous
 62
     7
370
    30
100
AcDbCircle
 10
88.5543717185
 20
183.1587549779
 30
0.0
 40
2.099999999999994
  0
LINE
  5
104
330
1F
100
AcDbEntity
  8
0
  6
Continuous
 62
     7
370
    30
100
AcDbLine
 10
83.5543718113
 20
189.1587550359
 30
0.0
 11
33.554372696
 21
189.1587550359
 31
0.0
  0
LINE
  5
105
330
1F
100
AcDbEntity
  8
0
  6
Continuous
 62
     7
370
    30
100
AcDbLine
 10
143.5543721
 20
189.1587550359
 30
0.0
 11
93.5543718206
 21
189.1587550359
 31
0.0
  0
LINE
  5
106
330
1F
100
AcDbEntity
  8
0
  6
Continuous
 62
     7
370
    30
100
AcDbLine
 10
83.5543718113
 20
192.158755062
 30
0.0
 11
83.5543718113
 21
189.1587550359
 31
0.0
  0
LINE
  5
107
330
1F
100
AcDbEntity
  8
0
  6
Continuous
 62
     7
370
    30
100
AcDbLine
 10
93.5543718206
 20
192.158755062
 30
0.0
 11
93.5543718206
 21
189.1587550359
 31
0.0
  0
ARC
  5
108
330
1F
100
AcDbEntity
  8
0
  6
Continuous
 62
     7
370
    30
100
AcDbCircle
 10
88.5543717577
 20
178.5430051559
 30
0.0
 40
2.859247193688232
100
AcDbArc
 50
71.7707927871
 51
108.2292072129
  0
DIMENSION
  5
109
330
1F
100
AcDbEntity
  8
0
  6
Continuous
 62
     7
370
     0
100
AcDbDimension
  2
*D1
 10
143.5543717185
 20
204.2168747335
 30
0.0
 11
88.5543717185
 21
204.2168747335
 31
0.0
 70
   160
 71
     1
 42
110.0
  3
SLDDIMSTYLE0
100
AcDbAlignedDimension
 13
33.5543717185
 23
189.1587549779
 33
0.0
 14
143.5543717185
 24
189.1587549779
 34
0.0
100
AcDbRotatedDimension
1001
ACAD
1000
DSTYLE
1002
{
1070
    77
1070
     3
1070
   143
1040
0.0393700787
1070
    41
1040
3.0
1070
    44
1040
1.0
1070
    42
1040
1.0
1070
   147
1040
1.524
1070
    73
1070
     0
1070
    74
1070
     0
1070
   140
1040
3.5
1070
   284
1070
    12
1070
    78
1070
    12
1002
}
  0
DIMENSION
  5
124
330
1F
100
AcDbEntity
  8
0
  6
Continuous
 62
     7
370
     0
100
AcDbDimension
  2
*D3
 10
27.5242608641
 20
173.1587549779
 30
0.0
 11
27.5242608641
 21
182.6587549779
 31
0.0
 70
   160
 71
     1
 42
19.0
  3
SLDDIMSTYLE0
100
AcDbAlignedDimension
 13
83.5543717185
 23
192.1587549779
 33
0.0
 14
33.5543717185
 24
173.1587549779
 34
0.0
 50
90.0
100
AcDbRotatedDimension
1001
ACAD
1000
DSTYLE
1002
{
1070
    77
1070
     3
1070
   143
1040
0.0393700787
1070
    41
1040
3.0
1070
    44
1040
1.0
1070
    42
1040
1.0
1070
   147
1040
1.524
1070
    73
1070
     0
1070
    74
1070
     0
1070
   140
1040
3.5
1070
   284
1070
    12
1070
    78
1070
    12
1002
}
  0
MTEXT
  5
138
330
1F
100
AcDbEntity
  8
0
  6
Continuous
 62
     7
370
     0
100
AcDbMText
 10
87.3786866223
 20
154.2639970794
 30
-3.0199136824
 40
3.5
 41
0.0
 71
     1
 72
     1
  1
2-BF-5
  7
SLDTEXTSTYLE0
 73
     1
 44
1.0
  0
LEADER
  5
13A
330
1F
100
AcDbEntity
  8
0
  6
Continuous
 62
     7
370
     0
100
AcDbLeader
  3
SLDDIMSTYLE1
 76
     3
 10
111.2728434339
 20
163.7006953745
 30
0.0
 10
100.09570516
 20
150.1906744351
 30
0.0
 10
87.3769778562
 20
150.1906744351
 30
0.0
  0
MTEXT
  5
13B
330
1F
100
AcDbEntity
  8
0
  6
Continuous
 62
     7
370
     0
100
AcDbMText
 10
144.5588536134
 20
154.3507509999
 30
-3.0556040204
 40
3.5
 41
0.0
 71
     1
 72
     1
  1
2-BF-6
  7
SLDTEXTSTYLE0
 73
     1
 44
1.0
  0
LEADER
  5
13C
330
1F
100
AcDbEntity
  8
0
  6
Continuous
 62
     7
370
     0
100
AcDbLeader
  3
SLDDIMSTYLE1
 76
     3
 10
136.0860510223
 20
163.7006953745
 30
0.0
 10
144.0574785573
 20
150.277109162
 30
0.0
 10
156.7762058612
 20
150.277109162
 30
0.0
  0
LINE
  5
13D
330
1F
100
AcDbEntity
  8
0
  6
CENTERX2
 62
     7
370
     0
100
AcDbLine
 10
88.5543717185
 20
191.1587549779
 30
0.0
 11
88.5543717185
 21
171.1587549779
 31
0.0
  0
LINE
  5
13E
330
1F
100
AcDbEntity
  8
0
  6
Continuous
 62
     7
370
    30
100
AcDbLine
 10
107.3043717185
 20
112.386703776
 30
0.0
 11
107.5043717185
 21
112.186703776
 31
0.0
  0
LINE
  5
13F
330
1F
100
AcDbEntity
  8
0
  6
Continuous
 62
     7
370
    30
100
AcDbLine
 10
115.6043717185
 20
112.186703776
 30
0.0
 11
115.8043717185
 21
112.386703776
 31
0.0
  0
LINE
  5
140
330
1F
100
AcDbEntity
  8
0
  6
Continuous
 62
     7
370
    30
100
AcDbLine
 10
115.8043717185
 20
112.386703776
 30
0.0
 11
115.8043717185
 21
113.986703776
 31
0.0
  0
LINE
  5
141
330
1F
100
AcDbEntity
  8
0
  6
Continuous
 62
     7
370
    30
100
AcDbLine
 10
107.3043717185
 20
113.986703776
 30
0.0
 11
107.3043717185
 21
112.386703776
 31
0.0
  0
LINE
  5
142
330
1F
100
AcDbEntity
  8
0
  6
Continuous
 62
     7
370
    30
100
AcDbLine
 10
115.8043717185
 20
113.986703776
 30
0.0
 11
115.6043717185
 21
114.186703776
 31
0.0
  0
LINE
  5
143
330
1F
100
AcDbEntity
  8
0
  6
Continuous
 62
     7
370
    30
100
AcDbLine
 10
107.5043717185
 20
114.186703776
 30
0.0
 11
107.3043717185
 21
113.986703776
 31
0.0
  0
LINE
  5
144
330
1F
100
AcDbEntity
  8
0
  6
Continuous
 62
     7
370
    30
100
AcDbLine
 10
109.3043717185
 20
120.686703776
 30
0.0
 11
109.3043716083
 21
120.1867033
 31
0.0
  0
LINE
  5
145
330
1F
100
AcDbEntity
  8
0
  6
Continuous
 62
     7
370
    30
100
AcDbLine
 10
113.8043714145
 20
120.1867033
 30
0.0
 11
113.8043717185
 21
120.686703776
 31
0.0
  0
LINE
  5
146
330
1F
100
AcDbEntity
  8
0
  6
Continuous
 62
     7
370
    30
100
AcDbLine
 10
109.5543717185
 20
121.686703776
 30
0.0
 11
109.3043717185
 21
120.686703776
 31
0.0
  0
LINE
  5
147
330
1F
100
AcDbEntity
  8
0
  6
Continuous
 62
     7
370
    30
100
AcDbLine
 10
113.8043717185
 20
120.686703776
 30
0.0
 11
113.5543717185
 21
121.686703776
 31
0.0
  0
LINE
  5
148
330
1F
100
AcDbEntity
  8
0
  6
Continuous
 62
     7
370
    30
100
AcDbLine
 10
36.3043717185
 20
112.386703776
 30
0.0
 11
36.5043717185
 21
112.186703776
 31
0.0
  0
LINE
  5
149
330
1F
100
AcDbEntity
  8
0
  6
Continuous
 62
     7
370
    30
100
AcDbLine
 10
44.6043717185
 20
112.186703776
 30
0.0
 11
44.8043717185
 21
112.386703776
 31
0.0
  0
LINE
  5
14A
330
1F
100
AcDbEntity
  8
0
  6
Continuous
 62
     7
370
    30
100
AcDbLine
 10
44.8043717185
 20
112.386703776
 30
0.0
 11
44.8043717185
 21
113.986703776
 31
0.0
  0
LINE
  5
14B
330
1F
100
AcDbEntity
  8
0
  6
Continuous
 62
     7
370
    30
100
AcDbLine
 10
36.3043717185
 20
113.986703776
 30
0.0
 11
36.3043717185
 21
112.386703776
 31
0.0
  0
LINE
  5
14C
330
1F
100
AcDbEntity
  8
0
  6
Continuous
 62
     7
370
    30
100
AcDbLine
 10
44.8043717185
 20
113.986703776
 30
0.0
 11
44.6043717185
 21
114.186703776
 31
0.0
  0
LINE
  5
14D
330
1F
100
AcDbEntity
  8
0
  6
Continuous
 62
     7
370
    30
100
AcDbLine
 10
36.5043717185
 20
114.186703776
 30
0.0
 11
36.3043717185
 21
113.986703776
 31
0.0
  0
LINE
  5
14E
330
1F
100
AcDbEntity
  8
0
  6
Continuous
 62
     7
370
    30
100
AcDbLine
 10
38.3043717185
 20
120.686703776
 30
0.0
 11
38.3043711463
 21
120.1867033
 31
0.0
  0
LINE
  5
14F
330
1F
100
AcDbEntity
  8
0
  6
Continuous
 62
     7
370
    30
100
AcDbLine
 10
42.8043728153
 20
120.1867033
 30
0.0
 11
42.8043717185
 21
120.686703776
 31
0.0
  0
LINE
  5
150
330
1F
100
AcDbEntity
  8
0
  6
Continuous
 62
     7
370
    30
100
AcDbLine
 10
42.8043717185
 20
120.686703776
 30
0.0
 11
42.5543717185
 21
121.686703776
 31
0.0
  0
LINE
  5
151
330
1F
100
AcDbEntity
  8
0
  6
Continuous
 62
     7
370
    30
100
AcDbLine
 10
38.5543717185
 20
121.686703776
 30
0.0
 11
38.3043717185
 21
120.686703776
 31
0.0
  0
LINE
  5
152
330
1F
100
AcDbEntity
  8
0
  6
Continuous
 62
     7
370
    30
100
AcDbLine
 10
132.3043717185
 20
112.386703776
 30
0.0
 11
132.5043717185
 21
112.186703776
 31
0.0
  0
LINE
  5
153
330
1F
100
AcDbEntity
  8
0
  6
Continuous
 62
     7
370
    30
100
AcDbLine
 10
140.6043717185
 20
112.186703776
 30
0.0
 11
140.8043717185
 21
112.386703776
 31
0.0
  0
LINE
  5
154
330
1F
100
AcDbEntity
  8
0
  6
Continuous
 62
     7
370
    30
100
AcDbLine
 10
140.8043717185
 20
112.386703776
 30
0.0
 11
140.8043717185
 21
113.986703776
 31
0.0
  0
LINE
  5
155
330
1F
100
AcDbEntity
  8
0
  6
Continuous
 62
     7
370
    30
100
AcDbLine
 10
132.3043717185
 20
113.986703776
 30
0.0
 11
132.3043717185
 21
112.386703776
 31
0.0
  0
LINE
  5
156
330
1F
100
AcDbEntity
  8
0
  6
Continuous
 62
     7
370
    30
100
AcDbLine
 10
140.8043717185
 20
113.986703776
 30
0.0
 11
140.6043717185
 21
114.186703776
 31
0.0
  0
LINE
  5
157
330
1F
100
AcDbEntity
  8
0
  6
Continuous
 62
     7
370
    30
100
AcDbLine
 10
132.5043717185
 20
114.186703776
 30
0.0
 11
132.3043717185
 21
113.986703776
 31
0.0
  0
LINE
  5
158
330
1F
100
AcDbEntity
  8
0
  6
Continuous
 62
     7
370
    30
100
AcDbLine
 10
134.3043717185
 20
120.686703776
 30
0.0
 11
134.3043719808
 21
120.1867033
 31
0.0
  0
LINE
  5
159
330
1F
100
AcDbEntity
  8
0
  6
Continuous
 62
     7
370
    30
100
AcDbLine
 10
138.8043699244
 20
120.1867033
 30
0.0
 11
138.8043717185
 21
120.686703776
 31
0.0
  0
LINE
  5
15A
330
1F
100
AcDbEntity
  8
0
  6
Continuous
 62
     7
370
    30
100
AcDbLine
 10
134.5543717185
 20
121.686703776
 30
0.0
 11
134.3043717185
 21
120.686703776
 31
0.0
  0
LINE
  5
15B
330
1F
100
AcDbEntity
  8
0
  6
Continuous
 62
     7
370
    30
100
AcDbLine
 10
138.8043717185
 20
120.686703776
 30
0.0
 11
138.5543717185
 21
121.686703776
 31
0.0
  0
LINE
  5
15C
330
1F
100
AcDbEntity
  8
0
  6
Continuous
 62
     7
370
    30
100
AcDbLine
 10
69.8043717185
 20
112.386703776
 30
0.0
 11
69.8043717185
 21
113.986703776
 31
0.0
  0
LINE
  5
15D
330
1F
100
AcDbEntity
  8
0
  6
Continuous
 62
     7
370
    30
100
AcDbLine
 10
61.3043717185
 20
113.986703776
 30
0.0
 11
61.3043717185
 21
112.386703776
 31
0.0
  0
LINE
  5
15E
330
1F
100
AcDbEntity
  8
0
  6
Continuous
 62
     7
370
    30
100
AcDbLine
 10
61.3043717185
 20
112.386703776
 30
0.0
 11
61.5043717185
 21
112.186703776
 31
0.0
  0
LINE
  5
15F
330
1F
100
AcDbEntity
  8
0
  6
Continuous
 62
     7
370
    30
100
AcDbLine
 10
69.6043717185
 20
112.186703776
 30
0.0
 11
69.8043717185
 21
112.386703776
 31
0.0
  0
LINE
  5
160
330
1F
100
AcDbEntity
  8
0
  6
Continuous
 62
     7
370
    30
100
AcDbLine
 10
69.8043717185
 20
113.986703776
 30
0.0
 11
69.6043717185
 21
114.186703776
 31
0.0
  0
LINE
  5
161
330
1F
100
AcDbEntity
  8
0
  6
Continuous
 62
     7
370
    30
100
AcDbLine
 10
61.5043717185
 20
114.186703776
 30
0.0
 11
61.3043717185
 21
113.986703776
 31
0.0
  0
LINE
  5
162
330
1F
100
AcDbEntity
  8
0
  6
Continuous
 62
     7
370
    30
100
AcDbLine
 10
63.3043717185
 20
120.686703776
 30
0.0
 11
63.3043715189
 21
120.1867033
 31
0.0
  0
LINE
  5
163
330
1F
100
AcDbEntity
  8
0
  6
Continuous
 62
     7
370
    30
100
AcDbLine
 10
67.8043713251
 20
120.1867033
 30
0.0
 11
67.8043717185
 21
120.686703776
 31
0.0
  0
LINE
  5
164
330
1F
100
AcDbEntity
  8
0
  6
Continuous
 62
     7
370
    30
100
AcDbLine
 10
63.5543717185
 20
121.686703776
 30
0.0
 11
63.3043717185
 21
120.686703776
 31
0.0
  0
LINE
  5
165
330
1F
100
AcDbEntity
  8
0
  6
Continuous
 62
     7
370
    30
100
AcDbLine
 10
67.8043717185
 20
120.686703776
 30
0.0
 11
67.5543717185
 21
121.686703776
 31
0.0
  0
LINE
  5
166
330
1F
100
AcDbEntity
  8
0
  6
Continuous
 62
     7
370
    30
100
AcDbLine
 10
107.5543717871
 20
112.1867038514
 30
0.0
 11
107.5543717871
 21
111.6867047007
 31
0.0
  0
LINE
  5
167
330
1F
100
AcDbEntity
  8
0
  6
Continuous
 62
     7
370
    30
100
AcDbLine
 10
115.5543712357
 20
111.6867047007
 30
0.0
 11
115.5543712357
 21
112.1867038514
 31
0.0
  0
LINE
  5
168
330
1F
100
AcDbEntity
  8
0
  6
Continuous
 62
     7
370
    30
100
AcDbLine
 10
61.5543716977
 20
112.1867038514
 30
0.0
 11
61.5543716977
 21
111.6867047007
 31
0.0
  0
LINE
  5
169
330
1F
100
AcDbEntity
  8
0
  6
Continuous
 62
     7
370
    30
100
AcDbLine
 10
69.5543711463
 20
111.6867047007
 30
0.0
 11
69.5543711463
 21
112.1867038514
 31
0.0
  0
LINE
  5
16A
330
1F
100
AcDbEntity
  8
0
  6
Continuous
 62
     7
370
    30
100
AcDbLine
 10
132.5543721596
 20
112.1867038514
 30
0.0
 11
132.5543721596
 21
111.6867047007
 31
0.0
  0
LINE
  5
16B
330
1F
100
AcDbEntity
  8
0
  6
Continuous
 62
     7
370
    30
100
AcDbLine
 10
140.5543734709
 20
111.6867047007
 30
0.0
 11
140.5543734709
 21
112.1867038514
 31
0.0
  0
LINE
  5
16C
330
1F
100
AcDbEntity
  8
0
  6
Continuous
 62
     7
370
    30
100
AcDbLine
 10
36.5543713251
 20
112.1867038514
 30
0.0
 11
36.5543713251
 21
111.6867047007
 31
0.0
  0
LINE
  5
16D
330
1F
100
AcDbEntity
  8
0
  6
Continuous
 62
     7
370
    30
100
AcDbLine
 10
44.5543726364
 20
111.6867047007
 30
0.0
 11
44.5543726364
 21
112.1867038514
 31
0.0
  0
LINE
  5
16E
330
1F
100
AcDbEntity
  8
0
  6
Continuous
 62
     7
370
    30
100
AcDbLine
 10
140.3043729643
 20
114.1867041792
 30
0.0
 11
140.3043717185
 21
119.186703776
 31
0.0
  0
LINE
  5
16F
330
1F
100
AcDbEntity
  8
0
  6
Continuous
 62
     7
370
    30
100
AcDbLine
 10
132.8043717185
 20
119.186703776
 30
0.0
 11
132.8043726662
 21
114.1867041792
 31
0.0
  0
LINE
  5
170
330
1F
100
AcDbEntity
  8
0
  6
Continuous
 62
     7
370
    30
100
AcDbLine
 10
140.3043717185
 20
119.186703776
 30
0.0
 11
139.3043717185
 21
120.186703776
 31
0.0
  0
LINE
  5
171
330
1F
100
AcDbEntity
  8
0
  6
Continuous
 62
     7
370
    30
100
AcDbLine
 10
133.8043717185
 20
120.186703776
 30
0.0
 11
132.8043717185
 21
119.186703776
 31
0.0
  0
LINE
  5
172
330
1F
100
AcDbEntity
  8
0
  6
Continuous
 62
     7
370
    30
100
AcDbLine
 10
115.3043725917
 20
114.1867041792
 30
0.0
 11
115.3043717185
 21
119.186703776
 31
0.0
  0
LINE
  5
173
330
1F
100
AcDbEntity
  8
0
  6
Continuous
 62
     7
370
    30
100
AcDbLine
 10
107.8043717185
 20
119.186703776
 30
0.0
 11
107.8043722937
 21
114.1867041792
 31
0.0
  0
LINE
  5
174
330
1F
100
AcDbEntity
  8
0
  6
Continuous
 62
     7
370
    30
100
AcDbLine
 10
115.3043717185
 20
119.186703776
 30
0.0
 11
114.3043717185
 21
120.186703776
 31
0.0
  0
LINE
  5
175
330
1F
100
AcDbEntity
  8
0
  6
Continuous
 62
     7
370
    30
100
AcDbLine
 10
108.8043717185
 20
120.186703776
 30
0.0
 11
107.8043717185
 21
119.186703776
 31
0.0
  0
LINE
  5
176
330
1F
100
AcDbEntity
  8
0
  6
Continuous
 62
     7
370
    30
100
AcDbLine
 10
69.3043725023
 20
114.1867041792
 30
0.0
 11
69.3043717185
 21
119.186703776
 31
0.0
  0
LINE
  5
177
330
1F
100
AcDbEntity
  8
0
  6
Continuous
 62
     7
370
    30
100
AcDbLine
 10
61.8043717185
 20
119.186703776
 30
0.0
 11
61.8043722043
 21
114.1867041792
 31
0.0
  0
LINE
  5
178
330
1F
100
AcDbEntity
  8
0
  6
Continuous
 62
     7
370
    30
100
AcDbLine
 10
69.3043717185
 20
119.186703776
 30
0.0
 11
68.3043717185
 21
120.186703776
 31
0.0
  0
LINE
  5
179
330
1F
100
AcDbEntity
  8
0
  6
Continuous
 62
     7
370
    30
100
AcDbLine
 10
62.8043717185
 20
120.186703776
 30
0.0
 11
61.8043717185
 21
119.186703776
 31
0.0
  0
LINE
  5
17A
330
1F
100
AcDbEntity
  8
0
  6
Continuous
 62
     7
370
    30
100
AcDbLine
 10
44.3043721298
 20
114.1867041792
 30
0.0
 11
44.3043717185
 21
119.186703776
 31
0.0
  0
LINE
  5
17B
330
1F
100
AcDbEntity
  8
0
  6
Continuous
 62
     7
370
    30
100
AcDbLine
 10
36.8043717185
 20
119.186703776
 30
0.0
 11
36.8043718318
 21
114.1867041792
 31
0.0
  0
LINE
  5
17C
330
1F
100
AcDbEntity
  8
0
  6
Continuous
 62
     7
370
    30
100
AcDbLine
 10
44.3043717185
 20
119.186703776
 30
0.0
 11
43.3043717185
 21
120.186703776
 31
0.0
  0
LINE
  5
17D
330
1F
100
AcDbEntity
  8
0
  6
Continuous
 62
     7
370
    30
100
AcDbLine
 10
37.8043717185
 20
120.186703776
 30
0.0
 11
36.8043717185
 21
119.186703776
 31
0.0
  0
CIRCLE
  5
17E
330
1F
100
AcDbEntity
  8
0
  6
Continuous
 62
     7
370
    30
100
AcDbCircle
 10
136.5543717185
 20
105.186703776
 30
0.0
 40
1.000000000000037
  0
CIRCLE
  5
17F
330
1F
100
AcDbEntity
  8
0
  6
Continuous
 62
     7
370
    30
100
AcDbCircle
 10
136.5543717185
 20
105.186703776
 30
0.0
 40
2.000000000000061
  0
CIRCLE
  5
180
330
1F
100
AcDbEntity
  8
0
  6
Continuous
 62
     7
370
    30
100
AcDbCircle
 10
136.5543717185
 20
105.186703776
 30
0.0
 40
2.825000000000047
  0
LINE
  5
181
330
1F
100
AcDbEntity
  8
0
  6
Continuous
 62
     7
370
    30
100
AcDbLine
 10
140.5943644623
 20
105.0592838059
 30
0.0
 11
138.4640199522
 21
101.6242588143
 31
0.0
  0
LINE
  5
182
330
1F
100
AcDbEntity
  8
0
  6
Continuous
 62
     7
370
    30
100
AcDbLine
 10
138.4640199522
 20
101.6242588143
 30
0.0
 11
134.4240283052
 21
101.7516786437
 31
0.0
  0
LINE
  5
183
330
1F
100
AcDbEntity
  8
0
  6
Continuous
 62
     7
370
    30
100
AcDbLine
 10
134.4240283052
 20
101.7516786437
 30
0.0
 11
132.5143811683
 21
105.314124396
 31
0.0
  0
LINE
  5
184
330
1F
100
AcDbEntity
  8
0
  6
Continuous
 62
     7
370
    30
100
AcDbLine
 10
132.5143811683
 20
105.314124396
 30
0.0
 11
134.6447256783
 21
108.7491493876
 31
0.0
  0
LINE
  5
185
330
1F
100
AcDbEntity
  8
0
  6
Continuous
 62
     7
370
    30
100
AcDbLine
 10
134.6447256783
 20
108.7491493876
 30
0.0
 11
138.6847173253
 21
108.6217276956
 31
0.0
  0
LINE
  5
186
330
1F
100
AcDbEntity
  8
0
  6
Continuous
 62
     7
370
    30
100
AcDbLine
 10
138.6847173253
 20
108.6217276956
 30
0.0
 11
140.5943644623
 21
105.0592838059
 31
0.0
  0
CIRCLE
  5
187
330
1F
100
AcDbEntity
  8
0
  6
Continuous
 62
     7
370
    30
100
AcDbCircle
 10
40.5543717185
 20
105.186703776
 30
0.0
 40
1.000000000000035
  0
CIRCLE
  5
188
330
1F
100
AcDbEntity
  8
0
  6
Continuous
 62
     7
370
    30
100
AcDbCircle
 10
40.5543717185
 20
105.186703776
 30
0.0
 40
2.000000000000042
  0
CIRCLE
  5
189
330
1F
100
AcDbEntity
  8
0
  6
Continuous
 62
     7
370
    30
100
AcDbCircle
 10
40.5543717185
 20
105.186703776
 30
0.0
 40
2.825000000000054
  0
LINE
  5
18A
330
1F
100
AcDbEntity
  8
0
  6
Continuous
 62
     7
370
    30
100
AcDbLine
 10
44.5769590715
 20
104.7910144757
 30
0.0
 11
42.2229891101
 21
101.505197605
 31
0.0
  0
LINE
  5
18B
330
1F
100
AcDbEntity
  8
0
  6
Continuous
 62
     7
370
    30
100
AcDbLine
 10
42.2229891101
 20
101.505197605
 30
0.0
 11
38.2004020194
 21
101.9008867647
 31
0.0
  0
LINE
  5
18C
330
1F
100
AcDbEntity
  8
0
  6
Continuous
 62
     7
370
    30
100
AcDbLine
 10
38.2004020194
 20
101.9008867647
 30
0.0
 11
36.5317848901
 21
105.5823927949
 31
0.0
  0
LINE
  5
18D
330
1F
100
AcDbEntity
  8
0
  6
Continuous
 62
     7
370
    30
100
AcDbLine
 10
36.5317848901
 20
105.5823927949
 30
0.0
 11
38.8857548515
 21
108.8682096656
 31
0.0
  0
LINE
  5
18E
330
1F
100
AcDbEntity
  8
0
  6
Continuous
 62
     7
370
    30
100
AcDbLine
 10
38.8857548515
 20
108.8682096656
 30
0.0
 11
42.9083419422
 21
108.4725205059
 31
0.0
  0
LINE
  5
18F
330
1F
100
AcDbEntity
  8
0
  6
Continuous
 62
     7
370
    30
100
AcDbLine
 10
42.9083419422
 20
108.4725205059
 30
0.0
 11
44.5769590715
 21
104.7910144757
 31
0.0
  0
LINE
  5
190
330
1F
100
AcDbEntity
  8
0
  6
Continuous
 62
     7
370
    30
100
AcDbLine
 10
111.9691717579
 20
112.186703776
 30
0.0
 11
107.5043717185
 21
112.186703776
 31
0.0
  0
LINE
  5
191
330
1F
100
AcDbEntity
  8
0
  6
Continuous
 62
     7
370
    30
100
AcDbLine
 10
115.6043717185
 20
112.186703776
 30
0.0
 11
111.9691717579
 21
112.186703776
 31
0.0
  0
LINE
  5
192
330
1F
100
AcDbEntity
  8
0
  6
Continuous
 62
     7
370
    30
100
AcDbLine
 10
111.9896557105
 20
112.386703776
 30
0.0
 11
115.8043717185
 21
112.386703776
 31
0.0
  0
LINE
  5
193
330
1F
100
AcDbEntity
  8
0
  6
Continuous
 62
     7
370
    30
100
AcDbLine
 10
107.3043717185
 20
112.386703776
 30
0.0
 11
111.9896557105
 21
112.386703776
 31
0.0
  0
LINE
  5
194
330
1F
100
AcDbEntity
  8
0
  6
Continuous
 62
     7
370
    30
100
AcDbLine
 10
115.8043717185
 20
113.986703776
 30
0.0
 11
107.3043717185
 21
113.986703776
 31
0.0
  0
LINE
  5
195
330
1F
100
AcDbEntity
  8
0
  6
Continuous
 62
     7
370
    30
100
AcDbLine
 10
107.5043717185
 20
114.186703776
 30
0.0
 11
115.6043717185
 21
114.186703776
 31
0.0
  0
LINE
  5
196
330
1F
100
AcDbEntity
  8
0
  6
Continuous
 62
     7
370
    30
100
AcDbLine
 10
111.2816835269
 20
120.686703776
 30
0.0
 11
112.2764247958
 21
120.686703776
 31
0.0
  0
LINE
  5
197
330
1F
100
AcDbEntity
  8
0
  6
Continuous
 62
     7
370
    30
100
AcDbLine
 10
112.2764247958
 20
120.686703776
 30
0.0
 11
113.8043717185
 21
120.686703776
 31
0.0
  0
LINE
  5
198
330
1F
100
AcDbEntity
  8
0
  6
Continuous
 62
     7
370
    30
100
AcDbLine
 10
109.3043717185
 20
120.686703776
 30
0.0
 11
111.2816835269
 21
120.686703776
 31
0.0
  0
LINE
  5
199
330
1F
100
AcDbEntity
  8
0
  6
Continuous
 62
     7
370
    30
100
AcDbLine
 10
109.5543717185
 20
121.686703776
 30
0.0
 11
111.2553361019
 21
121.686703776
 31
0.0
  0
LWPOLYLINE
  5
19A
330
1F
100
AcDbEntity
  8
0
  6
Continuous
 62
     7
370
    30
100
AcDbPolyline
 90
        3
 70
   128
 43
0.0
 10
111.2553359399
 20
121.6867044772
 10
111.2661001662
 20
121.2789919431
 10
111.2816830555
 20
120.6867043133
  0
LWPOLYLINE
  5
19B
330
1F
100
AcDbEntity
  8
0
  6
Continuous
 62
     7
370
    30
100
AcDbPolyline
 90
        3
 70
   128
 43
0.0
 10
112.2764249722
 20
120.6867043133
 10
112.2608420829
 20
121.2789919431
 10
112.2500778565
 20
121.6867044772
  0
LINE
  5
19C
330
1F
100
AcDbEntity
  8
0
  6
Continuous
 62
     7
370
    30
100
AcDbLine
 10
112.2500773709
 20
121.686703776
 30
0.0
 11
113.5543717185
 21
121.686703776
 31
0.0
  0
LWPOLYLINE
  5
19D
330
1F
100
AcDbEntity
  8
0
  6
Continuous
 62
     7
370
    30
100
AcDbPolyline
 90
        3
 70
   128
 43
0.0
 10
111.8534070829
 20
121.6867044772
 10
111.8426428566
 20
121.2789919431
 10
111.8270599673
 20
120.6867043133
  0
LINE
  5
19E
330
1F
100
AcDbEntity
  8
0
  6
Continuous
 62
     7
370
    30
100
AcDbLine
 10
112.1690789319
 20
121.686703776
 30
0.0
 11
112.1690788696
 21
120.6867043133
 31
0.0
  0
LINE
  5
19F
330
1F
100
AcDbEntity
  8
0
  6
Continuous
 62
     7
370
    30
100
AcDbLine
 10
112.2500773709
 20
121.686703776
 30
0.0
 11
112.1690789319
 21
121.686703776
 31
0.0
  0
LINE
  5
1A0
330
1F
100
AcDbEntity
  8
0
  6
Continuous
 62
     7
370
    30
100
AcDbLine
 10
111.9344060699
 20
120.6867043133
 30
0.0
 11
111.9344057741
 21
121.686703776
 31
0.0
  0
LINE
  5
1A1
330
1F
100
AcDbEntity
  8
0
  6
Continuous
 62
     7
370
    30
100
AcDbLine
 10
112.1690789319
 20
121.686703776
 30
0.0
 11
111.9344057741
 21
121.686703776
 31
0.0
  0
LINE
  5
1A2
330
1F
100
AcDbEntity
  8
0
  6
Continuous
 62
     7
370
    30
100
AcDbLine
 10
111.9344057741
 20
121.686703776
 30
0.0
 11
111.8534070829
 21
121.6867044772
 31
0.0
  0
LINE
  5
1A3
330
1F
100
AcDbEntity
  8
0
  6
Continuous
 62
     7
370
    30
100
AcDbLine
 10
40.4712257923
 20
112.186703776
 30
0.0
 11
36.5043717185
 21
112.186703776
 31
0.0
  0
LINE
  5
1A4
330
1F
100
AcDbEntity
  8
0
  6
Continuous
 62
     7
370
    30
100
AcDbLine
 10
44.6043717185
 20
112.186703776
 30
0.0
 11
40.4712257923
 21
112.186703776
 31
0.0
  0
LINE
  5
1A5
330
1F
100
AcDbEntity
  8
0
  6
Continuous
 62
     7
370
    30
100
AcDbLine
 10
40.4671198206
 20
112.386703776
 30
0.0
 11
44.8043717185
 21
112.386703776
 31
0.0
  0
LINE
  5
1A6
330
1F
100
AcDbEntity
  8
0
  6
Continuous
 62
     7
370
    30
100
AcDbLine
 10
36.3043717185
 20
112.386703776
 30
0.0
 11
40.4671198206
 21
112.386703776
 31
0.0
  0
LINE
  5
1A7
330
1F
100
AcDbEntity
  8
0
  6
Continuous
 62
     7
370
    30
100
AcDbLine
 10
44.8043717185
 20
113.986703776
 30
0.0
 11
36.3043717185
 21
113.986703776
 31
0.0
  0
LINE
  5
1A8
330
1F
100
AcDbEntity
  8
0
  6
Continuous
 62
     7
370
    30
100
AcDbLine
 10
36.5043717185
 20
114.186703776
 30
0.0
 11
44.6043717185
 21
114.186703776
 31
0.0
  0
LINE
  5
1A9
330
1F
100
AcDbEntity
  8
0
  6
Continuous
 62
     7
370
    30
100
AcDbLine
 10
40.0094399045
 20
120.686703776
 30
0.0
 11
41.0092291447
 21
120.686703776
 31
0.0
  0
LINE
  5
1AA
330
1F
100
AcDbEntity
  8
0
  6
Continuous
 62
     7
370
    30
100
AcDbLine
 10
41.0092291447
 20
120.686703776
 30
0.0
 11
42.8043717185
 21
120.686703776
 31
0.0
  0
LINE
  5
1AB
330
1F
100
AcDbEntity
  8
0
  6
Continuous
 62
     7
370
    30
100
AcDbLine
 10
38.3043717185
 20
120.686703776
 30
0.0
 11
40.0094399045
 21
120.686703776
 31
0.0
  0
LWPOLYLINE
  5
1AC
330
1F
100
AcDbEntity
  8
0
  6
Continuous
 62
     7
370
    30
100
AcDbPolyline
 90
        3
 70
   128
 43
0.0
 10
41.0092299262
 20
120.6867043133
 10
41.0123517195
 20
121.2789919431
 10
41.0145086626
 20
121.6867044772
  0
LINE
  5
1AD
330
1F
100
AcDbEntity
  8
0
  6
Continuous
 62
     7
370
    30
100
AcDbLine
 10
41.0145104389
 20
121.686703776
 30
0.0
 11
42.5543717185
 21
121.686703776
 31
0.0
  0
LINE
  5
1AE
330
1F
100
AcDbEntity
  8
0
  6
Continuous
 62
     7
370
    30
100
AcDbLine
 10
38.5543717185
 20
121.686703776
 30
0.0
 11
40.0147211987
 21
121.686703776
 31
0.0
  0
LWPOLYLINE
  5
1AF
330
1F
100
AcDbEntity
  8
0
  6
Continuous
 62
     7
370
    30
100
AcDbPolyline
 90
        3
 70
   128
 43
0.0
 10
40.0147227029
 20
121.6867044772
 10
40.0125620345
 20
121.2789919431
 10
40.0094402412
 20
120.6867043133
  0
LWPOLYLINE
  5
1B0
330
1F
100
AcDbEntity
  8
0
  6
Continuous
 62
     7
370
    30
100
AcDbPolyline
 90
        3
 70
   128
 43
0.0
 10
40.0995140353
 20
120.6867043133
 10
40.0963922421
 20
121.2789919431
 10
40.0942315737
 20
121.6867044772
  0
LINE
  5
1B1
330
1F
100
AcDbEntity
  8
0
  6
Continuous
 62
     7
370
    30
100
AcDbLine
 10
40.0309571909
 20
121.686703776
 30
0.0
 11
40.0147211987
 21
121.686703776
 31
0.0
  0
LINE
  5
1B2
330
1F
100
AcDbEntity
  8
0
  6
Continuous
 62
     7
370
    30
100
AcDbLine
 10
40.030957518
 20
120.6867043133
 30
0.0
 11
40.0309571909
 21
121.686703776
 31
0.0
  0
LINE
  5
1B3
330
1F
100
AcDbEntity
  8
0
  6
Continuous
 62
     7
370
    30
100
AcDbLine
 10
40.0779970059
 20
121.686703776
 30
0.0
 11
40.0779967586
 21
120.6867043133
 31
0.0
  0
LINE
  5
1B4
330
1F
100
AcDbEntity
  8
0
  6
Continuous
 62
     7
370
    30
100
AcDbLine
 10
40.0779970059
 20
121.686703776
 30
0.0
 11
40.0309571909
 21
121.686703776
 31
0.0
  0
LINE
  5
1B5
330
1F
100
AcDbEntity
  8
0
  6
Continuous
 62
     7
370
    30
100
AcDbLine
 10
40.0942315737
 20
121.6867044772
 30
0.0
 11
40.0779970059
 21
121.686703776
 31
0.0
  0
LINE
  5
1B6
330
1F
100
AcDbEntity
  8
0
  6
Continuous
 62
     7
370
    30
100
AcDbLine
 10
137.2667540826
 20
112.186703776
 30
0.0
 11
132.5043717185
 21
112.186703776
 31
0.0
  0
LINE
  5
1B7
330
1F
100
AcDbEntity
  8
0
  6
Continuous
 62
     7
370
    30
100
AcDbLine
 10
140.6043717185
 20
112.186703776
 30
0.0
 11
137.2667540826
 21
112.186703776
 31
0.0
  0
LINE
  5
1B8
330
1F
100
AcDbEntity
  8
0
  6
Continuous
 62
     7
370
    30
100
AcDbLine
 10
137.3019334586
 20
112.386703776
 30
0.0
 11
140.8043717185
 21
112.386703776
 31
0.0
  0
LINE
  5
1B9
330
1F
100
AcDbEntity
  8
0
  6
Continuous
 62
     7
370
    30
100
AcDbLine
 10
132.3043717185
 20
112.386703776
 30
0.0
 11
137.3019334586
 21
112.386703776
 31
0.0
  0
LINE
  5
1BA
330
1F
100
AcDbEntity
  8
0
  6
Continuous
 62
     7
370
    30
100
AcDbLine
 10
140.8043717185
 20
113.986703776
 30
0.0
 11
132.3043717185
 21
113.986703776
 31
0.0
  0
LINE
  5
1BB
330
1F
100
AcDbEntity
  8
0
  6
Continuous
 62
     7
370
    30
100
AcDbLine
 10
132.5043717185
 20
114.186703776
 30
0.0
 11
140.6043717185
 21
114.186703776
 31
0.0
  0
LINE
  5
1BC
330
1F
100
AcDbEntity
  8
0
  6
Continuous
 62
     7
370
    30
100
AcDbLine
 10
136.4480396341
 20
120.686703776
 30
0.0
 11
137.432448232
 21
120.686703776
 31
0.0
  0
LINE
  5
1BD
330
1F
100
AcDbEntity
  8
0
  6
Continuous
 62
     7
370
    30
100
AcDbLine
 10
137.432448232
 20
120.686703776
 30
0.0
 11
138.8043717185
 21
120.686703776
 31
0.0
  0
LINE
  5
1BE
330
1F
100
AcDbEntity
  8
0
  6
Continuous
 62
     7
370
    30
100
AcDbLine
 10
134.3043717185
 20
120.686703776
 30
0.0
 11
136.4480396341
 21
120.686703776
 31
0.0
  0
LINE
  5
1BF
330
1F
100
AcDbEntity
  8
0
  6
Continuous
 62
     7
370
    30
100
AcDbLine
 10
134.5543717185
 20
121.686703776
 30
0.0
 11
136.4027902631
 21
121.686703776
 31
0.0
  0
LWPOLYLINE
  5
1C0
330
1F
100
AcDbEntity
  8
0
  6
Continuous
 62
     7
370
    30
100
AcDbPolyline
 90
        3
 70
   128
 43
0.0
 10
136.402790753
 20
121.6867044772
 10
136.4212756435
 20
121.2789919431
 10
136.448038129
 20
120.6867043133
  0
LINE
  5
1C1
330
1F
100
AcDbEntity
  8
0
  6
Continuous
 62
     7
370
    30
100
AcDbLine
 10
137.2480912093
 20
121.686703776
 30
0.0
 11
137.2480926493
 21
120.6867043133
 31
0.0
  0
LINE
  5
1C2
330
1F
100
AcDbEntity
  8
0
  6
Continuous
 62
     7
370
    30
100
AcDbLine
 10
137.387198861
 20
121.686703776
 30
0.0
 11
137.2480912093
 21
121.686703776
 31
0.0
  0
LWPOLYLINE
  5
1C3
330
1F
100
AcDbEntity
  8
0
  6
Continuous
 62
     7
370
    30
100
AcDbPolyline
 90
        3
 70
   128
 43
0.0
 10
137.4324498156
 20
120.6867043133
 10
137.4056873301
 20
121.2789919431
 10
137.3871987144
 20
121.6867044772
  0
LINE
  5
1C4
330
1F
100
AcDbEntity
  8
0
  6
Continuous
 62
     7
370
    30
100
AcDbLine
 10
137.387198861
 20
121.686703776
 30
0.0
 11
138.5543717185
 21
121.686703776
 31
0.0
  0
LWPOLYLINE
  5
1C5
330
1F
100
AcDbEntity
  8
0
  6
Continuous
 62
     7
370
    30
100
AcDbPolyline
 90
        3
 70
   128
 43
0.0
 10
136.7059548775
 20
121.6867044772
 10
136.6874662617
 20
121.2789919431
 10
136.6607037762
 20
120.6867043133
  0
LINE
  5
1C6
330
1F
100
AcDbEntity
  8
0
  6
Continuous
 62
     7
370
    30
100
AcDbLine
 10
136.8450609425
 20
120.6867043133
 30
0.0
 11
136.8450608257
 21
121.686703776
 31
0.0
  0
LINE
  5
1C7
330
1F
100
AcDbEntity
  8
0
  6
Continuous
 62
     7
370
    30
100
AcDbLine
 10
137.2480912093
 20
121.686703776
 30
0.0
 11
136.8450608257
 21
121.686703776
 31
0.0
  0
LINE
  5
1C8
330
1F
100
AcDbEntity
  8
0
  6
Continuous
 62
     7
370
    30
100
AcDbLine
 10
136.8450608257
 20
121.686703776
 30
0.0
 11
136.7059548775
 21
121.6867044772
 31
0.0
  0
LINE
  5
1C9
330
1F
100
AcDbEntity
  8
0
  6
Continuous
 62
     7
370
    30
100
AcDbLine
 10
69.8043717185
 20
113.986703776
 30
0.0
 11
61.3043717185
 21
113.986703776
 31
0.0
  0
LINE
  5
1CA
330
1F
100
AcDbEntity
  8
0
  6
Continuous
 62
     7
370
    30
100
AcDbLine
 10
66.1756296981
 20
112.386703776
 30
0.0
 11
69.8043717185
 21
112.386703776
 31
0.0
  0
LINE
  5
1CB
330
1F
100
AcDbEntity
  8
0
  6
Continuous
 62
     7
370
    30
100
AcDbLine
 10
61.3043717185
 20
112.386703776
 30
0.0
 11
66.1756296981
 21
112.386703776
 31
0.0
  0
LINE
  5
1CC
330
1F
100
AcDbEntity
  8
0
  6
Continuous
 62
     7
370
    30
100
AcDbLine
 10
66.1463940285
 20
112.186703776
 30
0.0
 11
61.5043717185
 21
112.186703776
 31
0.0
  0
LINE
  5
1CD
330
1F
100
AcDbEntity
  8
0
  6
Continuous
 62
     7
370
    30
100
AcDbLine
 10
69.6043717185
 20
112.186703776
 30
0.0
 11
66.1463940285
 21
112.186703776
 31
0.0
  0
LINE
  5
1CE
330
1F
100
AcDbEntity
  8
0
  6
Continuous
 62
     7
370
    30
100
AcDbLine
 10
61.5043717185
 20
114.186703776
 30
0.0
 11
69.6043717185
 21
114.186703776
 31
0.0
  0
LINE
  5
1CF
330
1F
100
AcDbEntity
  8
0
  6
Continuous
 62
     7
370
    30
100
AcDbLine
 10
65.380420042
 20
120.686703776
 30
0.0
 11
66.3696782947
 21
120.686703776
 31
0.0
  0
LINE
  5
1D0
330
1F
100
AcDbEntity
  8
0
  6
Continuous
 62
     7
370
    30
100
AcDbLine
 10
66.3696782947
 20
120.686703776
 30
0.0
 11
67.8043717185
 21
120.686703776
 31
0.0
  0
LINE
  5
1D1
330
1F
100
AcDbEntity
  8
0
  6
Continuous
 62
     7
370
    30
100
AcDbLine
 10
63.3043717185
 20
120.686703776
 30
0.0
 11
65.380420042
 21
120.686703776
 31
0.0
  0
LINE
  5
1D2
330
1F
100
AcDbEntity
  8
0
  6
Continuous
 62
     7
370
    30
100
AcDbLine
 10
63.5543717185
 20
121.686703776
 30
0.0
 11
65.3428157461
 21
121.686703776
 31
0.0
  0
LWPOLYLINE
  5
1D3
330
1F
100
AcDbEntity
  8
0
  6
Continuous
 62
     7
370
    30
100
AcDbPolyline
 90
        3
 70
   128
 43
0.0
 10
65.3428149799
 20
121.6867044772
 10
65.3581799398
 20
121.2789919431
 10
65.3804199228
 20
120.6867043133
  0
LWPOLYLINE
  5
1D4
330
1F
100
AcDbEntity
  8
0
  6
Continuous
 62
     7
370
    30
100
AcDbPolyline
 90
        3
 70
   128
 43
0.0
 10
66.3696782122
 20
120.6867043133
 10
66.3474382291
 20
121.2789919431
 10
66.3320732693
 20
121.6867044772
  0
LINE
  5
1D5
330
1F
100
AcDbEntity
  8
0
  6
Continuous
 62
     7
370
    30
100
AcDbLine
 10
66.3320739988
 20
121.686703776
 30
0.0
 11
67.5543717185
 21
121.686703776
 31
0.0
  0
LWPOLYLINE
  5
1D6
330
1F
100
AcDbEntity
  8
0
  6
Continuous
 62
     7
370
    30
100
AcDbPolyline
 90
        3
 70
   128
 43
0.0
 10
65.7659278641
 20
121.6867044772
 10
65.7505647669
 20
121.2789919431
 10
65.7283229212
 20
120.6867043133
  0
LINE
  5
1D7
330
1F
100
AcDbEntity
  8
0
  6
Continuous
 62
     7
370
    30
100
AcDbLine
 10
66.2164691812
 20
121.686703776
 30
0.0
 11
66.2164700607
 21
120.6867043133
 31
0.0
  0
LINE
  5
1D8
330
1F
100
AcDbEntity
  8
0
  6
Continuous
 62
     7
370
    30
100
AcDbLine
 10
66.3320739988
 20
121.686703776
 30
0.0
 11
66.2164691812
 21
121.686703776
 31
0.0
  0
LINE
  5
1D9
330
1F
100
AcDbEntity
  8
0
  6
Continuous
 62
     7
370
    30
100
AcDbLine
 10
65.8815329353
 20
120.6867043133
 30
0.0
 11
65.8815325085
 21
121.686703776
 31
0.0
  0
LINE
  5
1DA
330
1F
100
AcDbEntity
  8
0
  6
Continuous
 62
     7
370
    30
100
AcDbLine
 10
66.2164691812
 20
121.686703776
 30
0.0
 11
65.8815325085
 21
121.686703776
 31
0.0
  0
LINE
  5
1DB
330
1F
100
AcDbEntity
  8
0
  6
Continuous
 62
     7
370
    30
100
AcDbLine
 10
65.8815325085
 20
121.686703776
 30
0.0
 11
65.7659278641
 21
121.6867044772
 31
0.0
  0
CIRCLE
  5
1DC
330
1F
100
AcDbEntity
  8
0
  6
Continuous
 62
     7
370
    30
100
AcDbCircle
 10
111.5543717185
 20
105.186703776
 30
0.0
 40
1.000000000000028
  0
CIRCLE
  5
1DD
330
1F
100
AcDbEntity
  8
0
  6
Continuous
 62
     7
370
    30
100
AcDbCircle
 10
111.5543717185
 20
105.186703776
 30
0.0
 40
2.000000000000057
  0
CIRCLE
  5
1DE
330
1F
100
AcDbEntity
  8
0
  6
Continuous
 62
     7
370
    30
100
AcDbCircle
 10
111.5543717185
 20
105.186703776
 30
0.0
 40
2.825000000000046
  0
LINE
  5
1DF
330
1F
100
AcDbEntity
  8
0
  6
Continuous
 62
     7
370
    30
100
AcDbLine
 10
113.575372232
 20
101.6862290184
 30
0.0
 11
109.5333707908
 21
101.6862290184
 31
0.0
  0
LINE
  5
1E0
330
1F
100
AcDbEntity
  8
0
  6
Continuous
 62
     7
370
    30
100
AcDbLine
 10
109.5333707908
 20
101.6862290184
 30
0.0
 11
107.5123710016
 21
105.1867036353
 31
0.0
  0
LINE
  5
1E1
330
1F
100
AcDbEntity
  8
0
  6
Continuous
 62
     7
370
    30
100
AcDbLine
 10
107.5123710016
 20
105.1867036353
 30
0.0
 11
109.5333707908
 21
108.6871791835
 31
0.0
  0
LINE
  5
1E2
330
1F
100
AcDbEntity
  8
0
  6
Continuous
 62
     7
370
    30
100
AcDbLine
 10
109.5333707908
 20
108.6871791835
 30
0.0
 11
113.575372232
 21
108.6871791835
 31
0.0
  0
LINE
  5
1E3
330
1F
100
AcDbEntity
  8
0
  6
Continuous
 62
     7
370
    30
100
AcDbLine
 10
113.575372232
 20
108.6871791835
 30
0.0
 11
115.5963720212
 21
105.1867036353
 31
0.0
  0
LINE
  5
1E4
330
1F
100
AcDbEntity
  8
0
  6
Continuous
 62
     7
370
    30
100
AcDbLine
 10
115.5963720212
 20
105.1867036353
 30
0.0
 11
113.575372232
 21
101.6862290184
 31
0.0
  0
CIRCLE
  5
1E5
330
1F
100
AcDbEntity
  8
0
  6
Continuous
 62
     7
370
    30
100
AcDbCircle
 10
65.5543717185
 20
105.186703776
 30
0.0
 40
1.000000000000028
  0
CIRCLE
  5
1E6
330
1F
100
AcDbEntity
  8
0
  6
Continuous
 62
     7
370
    30
100
AcDbCircle
 10
65.5543717185
 20
105.186703776
 30
0.0
 40
2.000000000000043
  0
CIRCLE
  5
1E7
330
1F
100
AcDbEntity
  8
0
  6
Continuous
 62
     7
370
    30
100
AcDbCircle
 10
65.5543717185
 20
105.186703776
 30
0.0
 40
2.82500000000006
  0
LINE
  5
1E8
330
1F
100
AcDbEntity
  8
0
  6
Continuous
 62
     7
370
    30
100
AcDbLine
 10
69.5963719318
 20
105.1867036353
 30
0.0
 11
67.5753721426
 21
101.6862290184
 31
0.0
  0
LINE
  5
1E9
330
1F
100
AcDbEntity
  8
0
  6
Continuous
 62
     7
370
    30
100
AcDbLine
 10
67.5753721426
 20
101.6862290184
 30
0.0
 11
63.5333725641
 21
101.6862290184
 31
0.0
  0
LINE
  5
1EA
330
1F
100
AcDbEntity
  8
0
  6
Continuous
 62
     7
370
    30
100
AcDbLine
 10
63.5333725641
 20
101.6862290184
 30
0.0
 11
61.5123709122
 21
105.1867036353
 31
0.0
  0
LINE
  5
1EB
330
1F
100
AcDbEntity
  8
0
  6
Continuous
 62
     7
370
    30
100
AcDbLine
 10
61.5123709122
 20
105.1867036353
 30
0.0
 11
63.5333725641
 21
108.6871791835
 31
0.0
  0
LINE
  5
1EC
330
1F
100
AcDbEntity
  8
0
  6
Continuous
 62
     7
370
    30
100
AcDbLine
 10
63.5333725641
 20
108.6871791835
 30
0.0
 11
67.5753721426
 21
108.6871791835
 31
0.0
  0
LINE
  5
1ED
330
1F
100
AcDbEntity
  8
0
  6
Continuous
 62
     7
370
    30
100
AcDbLine
 10
67.5753721426
 20
108.6871791835
 30
0.0
 11
69.5963719318
 21
105.1867036353
 31
0.0
  0
LINE
  5
1EE
330
1F
100
AcDbEntity
  8
0
  6
Continuous
 62
     7
370
    30
100
AcDbLine
 10
140.3043717185
 20
119.186703776
 30
0.0
 11
132.8043717185
 21
119.186703776
 31
0.0
  0
LINE
  5
1EF
330
1F
100
AcDbEntity
  8
0
  6
Continuous
 62
     7
370
    30
100
AcDbLine
 10
139.3043717185
 20
120.186703776
 30
0.0
 11
133.8043717185
 21
120.186703776
 31
0.0
  0
LINE
  5
1F0
330
1F
100
AcDbEntity
  8
0
  6
Continuous
 62
     7
370
    30
100
AcDbLine
 10
115.3043717185
 20
119.186703776
 30
0.0
 11
107.8043717185
 21
119.186703776
 31
0.0
  0
LINE
  5
1F1
330
1F
100
AcDbEntity
  8
0
  6
Continuous
 62
     7
370
    30
100
AcDbLine
 10
114.3043717185
 20
120.186703776
 30
0.0
 11
108.8043717185
 21
120.186703776
 31
0.0
  0
LINE
  5
1F2
330
1F
100
AcDbEntity
  8
0
  6
Continuous
 62
     7
370
    30
100
AcDbLine
 10
69.3043717185
 20
119.186703776
 30
0.0
 11
61.8043717185
 21
119.186703776
 31
0.0
  0
LINE
  5
1F3
330
1F
100
AcDbEntity
  8
0
  6
Continuous
 62
     7
370
    30
100
AcDbLine
 10
68.3043717185
 20
120.186703776
 30
0.0
 11
62.8043717185
 21
120.186703776
 31
0.0
  0
LINE
  5
1F4
330
1F
100
AcDbEntity
  8
0
  6
Continuous
 62
     7
370
    30
100
AcDbLine
 10
44.3043717185
 20
119.186703776
 30
0.0
 11
36.8043717185
 21
119.186703776
 31
0.0
  0
LINE
  5
1F5
330
1F
100
AcDbEntity
  8
0
  6
Continuous
 62
     7
370
    30
100
AcDbLine
 10
43.3043717185
 20
120.186703776
 30
0.0
 11
37.8043717185
 21
120.186703776
 31
0.0
  0
LINE
  5
1F6
330
1F
100
AcDbEntity
  8
0
  6
Continuous
 62
     7
370
    30
100
AcDbLine
 10
33.554372696
 20
111.6867047007
 30
0.0
 11
33.554372696
 21
98.6867035012
 31
0.0
  0
LINE
  5
1F7
330
1F
100
AcDbEntity
  8
0
  6
Continuous
 62
     7
370
    30
100
AcDbLine
 10
33.554372696
 20
111.6867047007
 30
0.0
 11
143.5543721
 21
111.6867047007
 31
0.0
  0
LINE
  5
1F8
330
1F
100
AcDbEntity
  8
0
  6
Continuous
 62
     7
370
    30
100
AcDbLine
 10
143.5543721
 20
111.6867047007
 30
0.0
 11
143.5543721
 21
98.6867035012
 31
0.0
  0
LINE
  5
1F9
330
1F
100
AcDbEntity
  8
0
  6
Continuous
 62
     7
370
    30
100
AcDbLine
 10
33.554372696
 20
98.6867035012
 30
0.0
 11
143.5543721
 21
98.6867035012
 31
0.0
  0
CIRCLE
  5
1FA
330
1F
100
AcDbEntity
  8
0
  6
Continuous
 62
     7
370
    30
100
AcDbCircle
 10
88.5543717185
 20
105.186703776
 30
0.0
 40
2.09999999999998
  0
CIRCLE
  5
1FB
330
1F
100
AcDbEntity
  8
0
  6
Continuous
 62
     7
370
    30
100
AcDbCircle
 10
123.5543717185
 20
105.186703776
 30
0.0
 40
5.499999999999986
  0
CIRCLE
  5
1FC
330
1F
100
AcDbEntity
  8
0
  6
Continuous
 62
     7
370
    30
100
AcDbCircle
 10
53.5543717185
 20
105.186703776
 30
0.0
 40
5.499999999999986
  0
CIRCLE
  5
1FD
330
1F
100
AcDbEntity
  8
0
  6
Continuous
 62
     7
370
    30
100
AcDbCircle
 10
53.5543717185
 20
105.186703776
 30
0.0
 40
3.299999999999997
  0
CIRCLE
  5
1FE
330
1F
100
AcDbEntity
  8
0
  6
Continuous
 62
     7
370
    30
100
AcDbCircle
 10
123.5543717185
 20
105.186703776
 30
0.0
 40
3.299999999999997
  0
LINE
  5
1FF
330
1F
100
AcDbEntity
  8
0
  6
Continuous
 62
     7
370
    30
100
AcDbLine
 10
89.4487989095
 20
103.286703776
 30
0.0
 11
87.6599445275
 21
103.286703776
 31
0.0
  0
DIMENSION
  5
200
330
1F
100
AcDbEntity
  8
0
  6
Continuous
 62
     7
370
     0
100
AcDbDimension
  2
*D4
 10
26.4095087331
 20
98.686703776
 30
0.0
 11
26.4095087331
 21
110.186703776
 31
0.0
 70
   160
 71
     1
 42
23.0
  3
SLDDIMSTYLE0
100
AcDbAlignedDimension
 13
38.5543717185
 23
121.686703776
 33
0.0
 14
33.5543717185
 24
98.686703776
 34
0.0
 50
90.0
100
AcDbRotatedDimension
1001
ACAD
1000
DSTYLE
1002
{
1070
    77
1070
     3
1070
   143
1040
0.0393700787
1070
    41
1040
3.0
1070
    44
1040
1.0
1070
    42
1040
1.0
1070
   147
1040
1.524
1070
    73
1070
     0
1070
    74
1070
     0
1070
   140
1040
3.5
1070
   284
1070
    12
1070
    78
1070
    12
1002
}
  0
LINE
  5
214
330
1F
100
AcDbEntity
  8
0
  6
CENTERX2
 62
     7
370
     0
100
AcDbLine
 10
88.5543717185
 20
113.686703776
 30
0.0
 11
88.5543717185
 21
96.686703776
 31
0.0
  0
LINE
  5
215
330
1F
100
AcDbEntity
  8
0
  6
Continuous
 62
     7
370
    30
100
AcDbLine
 10
176.2843854384
 20
173.1587552073
 30
0.0
 11
176.2843854384
 21
172.7587558868
 31
0.0
  0
LINE
  5
216
330
1F
100
AcDbEntity
  8
0
  6
Continuous
 62
     7
370
    30
100
AcDbLine
 10
182.2843845592
 20
172.7587558868
 30
0.0
 11
182.2843845592
 21
173.1587552073
 31
0.0
  0
LINE
  5
217
330
1F
100
AcDbEntity
  8
0
  6
Continuous
 62
     7
370
    30
100
AcDbLine
 10
176.459384858
 20
168.2587549779
 30
0.0
 11
177.284384858
 21
167.2587549779
 31
0.0
  0
LINE
  5
218
330
1F
100
AcDbEntity
  8
0
  6
Continuous
 62
     7
370
    30
100
AcDbLine
 10
181.284384858
 20
167.2587549779
 30
0.0
 11
182.109384858
 21
168.2587549779
 31
0.0
  0
LINE
  5
219
330
1F
100
AcDbEntity
  8
0
  6
Continuous
 62
     7
370
    30
100
AcDbLine
 10
176.459384858
 20
165.2587549779
 30
0.0
 11
177.284384858
 21
164.2587549779
 31
0.0
  0
LINE
  5
21A
330
1F
100
AcDbEntity
  8
0
  6
Continuous
 62
     7
370
    30
100
AcDbLine
 10
181.284384858
 20
164.2587549779
 30
0.0
 11
182.109384858
 21
165.2587549779
 31
0.0
  0
LINE
  5
21B
330
1F
100
AcDbEntity
  8
0
  6
Continuous
 62
     7
370
    30
100
AcDbLine
 10
177.2843856023
 20
169.7587553951
 30
0.0
 11
177.2843856023
 21
168.2587542179
 31
0.0
  0
LINE
  5
21C
330
1F
100
AcDbEntity
  8
0
  6
Continuous
 62
     7
370
    30
100
AcDbLine
 10
181.2843843953
 20
168.2587542179
 30
0.0
 11
181.2843843953
 21
169.7587553951
 31
0.0
  0
LINE
  5
21D
330
1F
100
AcDbEntity
  8
0
  6
Continuous
 62
     7
370
    30
100
AcDbLine
 10
177.284384858
 20
164.2587549779
 30
0.0
 11
177.284384858
 21
162.7587549779
 31
0.0
  0
LINE
  5
21E
330
1F
100
AcDbEntity
  8
0
  6
Continuous
 62
     7
370
    30
100
AcDbLine
 10
181.284384858
 20
162.7587549779
 30
0.0
 11
181.284384858
 21
164.2587549779
 31
0.0
  0
LINE
  5
21F
330
1F
100
AcDbEntity
  8
0
  6
Continuous
 62
     7
370
    30
100
AcDbLine
 10
177.284384858
 20
167.2587549779
 30
0.0
 11
177.2843856023
 21
165.2587555888
 31
0.0
  0
LINE
  5
220
330
1F
100
AcDbEntity
  8
0
  6
Continuous
 62
     7
370
    30
100
AcDbLine
 10
181.2843843953
 20
165.2587555888
 30
0.0
 11
181.284384858
 21
167.2587549779
 31
0.0
  0
LINE
  5
221
330
1F
100
AcDbEntity
  8
0
  6
Continuous
 62
     7
370
    30
100
AcDbLine
 10
172.084384858
 20
187.4087549779
 30
0.0
 11
170.484384858
 21
187.4087549779
 31
0.0
  0
LINE
  5
222
330
1F
100
AcDbEntity
  8
0
  6
Continuous
 62
     7
370
    30
100
AcDbLine
 10
170.484384858
 20
178.9087549779
 30
0.0
 11
172.084384858
 21
178.9087549779
 31
0.0
  0
LINE
  5
223
330
1F
100
AcDbEntity
  8
0
  6
Continuous
 62
     7
370
    30
100
AcDbLine
 10
172.084384858
 20
178.9087549779
 30
0.0
 11
172.284384858
 21
179.1087549779
 31
0.0
  0
LINE
  5
224
330
1F
100
AcDbEntity
  8
0
  6
Continuous
 62
     7
370
    30
100
AcDbLine
 10
172.284384858
 20
187.2087549779
 30
0.0
 11
172.084384858
 21
187.4087549779
 31
0.0
  0
LINE
  5
225
330
1F
100
AcDbEntity
  8
0
  6
Continuous
 62
     7
370
    30
100
AcDbLine
 10
170.484384858
 20
187.4087549779
 30
0.0
 11
170.284384858
 21
187.2087549779
 31
0.0
  0
LINE
  5
226
330
1F
100
AcDbEntity
  8
0
  6
Continuous
 62
     7
370
    30
100
AcDbLine
 10
170.284384858
 20
179.1087549779
 30
0.0
 11
170.484384858
 21
178.9087549779
 31
0.0
  0
LINE
  5
227
330
1F
100
AcDbEntity
  8
0
  6
Continuous
 62
     7
370
    30
100
AcDbLine
 10
163.784384858
 20
180.9087549779
 30
0.0
 11
164.2843853341
 21
180.9087541493
 31
0.0
  0
LINE
  5
228
330
1F
100
AcDbEntity
  8
0
  6
Continuous
 62
     7
370
    30
100
AcDbLine
 10
164.2843853341
 20
185.4087548869
 30
0.0
 11
163.784384858
 21
185.4087549779
 31
0.0
  0
LINE
  5
229
330
1F
100
AcDbEntity
  8
0
  6
Continuous
 62
     7
370
    30
100
AcDbLine
 10
172.2843847827
 20
179.1587543281
 30
0.0
 11
172.7843839333
 21
179.1587543281
 31
0.0
  0
LINE
  5
22A
330
1F
100
AcDbEntity
  8
0
  6
Continuous
 62
     7
370
    30
100
AcDbLine
 10
172.7843839333
 20
187.1587547081
 30
0.0
 11
172.2843847827
 21
187.1587547081
 31
0.0
  0
LINE
  5
22B
330
1F
100
AcDbEntity
  8
0
  6
Continuous
 62
     7
370
    30
100
AcDbLine
 10
170.2843844549
 20
186.9087551328
 30
0.0
 11
165.284384858
 21
186.9087549779
 31
0.0
  0
LINE
  5
22C
330
1F
100
AcDbEntity
  8
0
  6
Continuous
 62
     7
370
    30
100
AcDbLine
 10
165.284384858
 20
179.4087549779
 30
0.0
 11
170.2843844549
 21
179.4087548348
 31
0.0
  0
LINE
  5
22D
330
1F
100
AcDbEntity
  8
0
  6
Continuous
 62
     7
370
    30
100
AcDbLine
 10
165.284384858
 20
186.9087549779
 30
0.0
 11
164.284384858
 21
185.9087549779
 31
0.0
  0
LINE
  5
22E
330
1F
100
AcDbEntity
  8
0
  6
Continuous
 62
     7
370
    30
100
AcDbLine
 10
164.284384858
 20
180.4087549779
 30
0.0
 11
165.284384858
 21
179.4087549779
 31
0.0
  0
LINE
  5
22F
330
1F
100
AcDbEntity
  8
0
  6
Continuous
 62
     7
370
    30
100
AcDbLine
 10
175.8493609385
 20
169.7587553951
 30
0.0
 11
175.8493609385
 21
172.7587558868
 31
0.0
  0
LINE
  5
230
330
1F
100
AcDbEntity
  8
0
  6
Continuous
 62
     7
370
    30
100
AcDbLine
 10
175.8493609385
 20
172.7587558868
 30
0.0
 11
179.4118048282
 21
172.7587558868
 31
0.0
  0
LINE
  5
231
330
1F
100
AcDbEntity
  8
0
  6
Continuous
 62
     7
370
    30
100
AcDbLine
 10
179.4118048282
 20
169.7587553951
 30
0.0
 11
179.4118048282
 21
172.7587558868
 31
0.0
  0
LINE
  5
232
330
1F
100
AcDbEntity
  8
0
  6
Continuous
 62
     7
370
    30
100
AcDbLine
 10
175.8493609385
 20
169.7587553951
 30
0.0
 11
179.4118048282
 21
169.7587553951
 31
0.0
  0
LINE
  5
233
330
1F
100
AcDbEntity
  8
0
  6
Continuous
 62
     7
370
    30
100
AcDbLine
 10
182.8468298198
 20
169.7587553951
 30
0.0
 11
182.8468298198
 21
172.7587558868
 31
0.0
  0
LINE
  5
234
330
1F
100
AcDbEntity
  8
0
  6
Continuous
 62
     7
370
    30
100
AcDbLine
 10
179.4118048282
 20
172.7587558868
 30
0.0
 11
182.8468298198
 21
172.7587558868
 31
0.0
  0
LINE
  5
235
330
1F
100
AcDbEntity
  8
0
  6
Continuous
 62
     7
370
    30
100
AcDbLine
 10
179.4118048282
 20
169.7587553951
 30
0.0
 11
182.8468298198
 21
169.7587553951
 31
0.0
  0
LINE
  5
236
330
1F
100
AcDbEntity
  8
0
  6
Continuous
 62
     7
370
    30
100
AcDbLine
 10
177.284384858
 20
167.2587549779
 30
0.0
 11
181.284384858
 21
167.2587549779
 31
0.0
  0
LINE
  5
237
330
1F
100
AcDbEntity
  8
0
  6
Continuous
 62
     7
370
    30
100
AcDbLine
 10
176.459384858
 20
168.2587549779
 30
0.0
 11
182.109384858
 21
168.2587549779
 31
0.0
  0
LINE
  5
238
330
1F
100
AcDbEntity
  8
0
  6
Continuous
 62
     7
370
    30
100
AcDbLine
 10
177.284384858
 20
164.2587549779
 30
0.0
 11
181.284384858
 21
164.2587549779
 31
0.0
  0
LINE
  5
239
330
1F
100
AcDbEntity
  8
0
  6
Continuous
 62
     7
370
    30
100
AcDbLine
 10
176.459384858
 20
165.2587549779
 30
0.0
 11
182.109384858
 21
165.2587549779
 31
0.0
  0
LINE
  5
23A
330
1F
100
AcDbEntity
  8
0
  6
Continuous
 62
     7
370
    30
100
AcDbLine
 10
175.7219392465
 20
169.7587553951
 30
0.0
 11
175.7219392465
 21
172.7587558868
 31
0.0
  0
LINE
  5
23B
330
1F
100
AcDbEntity
  8
0
  6
Continuous
 62
     7
370
    30
100
AcDbLine
 10
175.7219392465
 20
172.7587558868
 30
0.0
 11
175.8493609385
 21
172.7587558868
 31
0.0
  0
LINE
  5
23C
330
1F
100
AcDbEntity
  8
0
  6
Continuous
 62
     7
370
    30
100
AcDbLine
 10
175.7219392465
 20
169.7587553951
 30
0.0
 11
175.8493609385
 21
169.7587553951
 31
0.0
  0
LINE
  5
23D
330
1F
100
AcDbEntity
  8
0
  6
Continuous
 62
     7
370
    30
100
AcDbLine
 10
177.284384858
 20
162.7587549779
 30
0.0
 11
181.284384858
 21
162.7587549779
 31
0.0
  0
LINE
  5
23E
330
1F
100
AcDbEntity
  8
0
  6
Continuous
 62
     7
370
    30
100
AcDbLine
 10
182.965891029
 20
169.7587553951
 30
0.0
 11
182.965891029
 21
172.7587558868
 31
0.0
  0
LINE
  5
23F
330
1F
100
AcDbEntity
  8
0
  6
Continuous
 62
     7
370
    30
100
AcDbLine
 10
182.8468298198
 20
172.7587558868
 30
0.0
 11
182.965891029
 21
172.7587558868
 31
0.0
  0
LINE
  5
240
330
1F
100
AcDbEntity
  8
0
  6
Continuous
 62
     7
370
    30
100
AcDbLine
 10
182.8468298198
 20
169.7587553951
 30
0.0
 11
182.965891029
 21
169.7587553951
 31
0.0
  0
LINE
  5
241
330
1F
100
AcDbEntity
  8
0
  6
Continuous
 62
     7
370
    30
100
AcDbLine
 10
175.6028789685
 20
169.7587553951
 30
0.0
 11
175.6028789685
 21
172.7587558868
 31
0.0
  0
LINE
  5
242
330
1F
100
AcDbEntity
  8
0
  6
Continuous
 62
     7
370
    30
100
AcDbLine
 10
175.6028789685
 20
172.7587558868
 30
0.0
 11
175.7219392465
 21
172.7587558868
 31
0.0
  0
LINE
  5
243
330
1F
100
AcDbEntity
  8
0
  6
Continuous
 62
     7
370
    30
100
AcDbLine
 10
175.6028789685
 20
169.7587553951
 30
0.0
 11
175.7219392465
 21
169.7587553951
 31
0.0
  0
LINE
  5
244
330
1F
100
AcDbEntity
  8
0
  6
Continuous
 62
     7
370
    30
100
AcDbLine
 10
170.484384858
 20
187.4087549779
 30
0.0
 11
170.484384858
 21
178.9087549779
 31
0.0
  0
LINE
  5
245
330
1F
100
AcDbEntity
  8
0
  6
Continuous
 62
     7
370
    30
100
AcDbLine
 10
172.084384858
 20
178.9750184369
 30
0.0
 11
172.084384858
 21
187.4087549779
 31
0.0
  0
LINE
  5
246
330
1F
100
AcDbEntity
  8
0
  6
Continuous
 62
     7
370
    30
100
AcDbLine
 10
172.084384858
 20
178.9087549779
 30
0.0
 11
172.084384858
 21
178.9750184369
 31
0.0
  0
LINE
  5
247
330
1F
100
AcDbEntity
  8
0
  6
Continuous
 62
     7
370
    30
100
AcDbLine
 10
172.284384858
 20
179.1719001565
 30
0.0
 11
172.284384858
 21
179.1087549779
 31
0.0
  0
LINE
  5
248
330
1F
100
AcDbEntity
  8
0
  6
Continuous
 62
     7
370
    30
100
AcDbLine
 10
172.284384858
 20
187.2087549779
 30
0.0
 11
172.284384858
 21
179.1719001565
 31
0.0
  0
LINE
  5
249
330
1F
100
AcDbEntity
  8
0
  6
Continuous
 62
     7
370
    30
100
AcDbLine
 10
170.284384858
 20
179.1087549779
 30
0.0
 11
170.284384858
 21
187.2087549779
 31
0.0
  0
LINE
  5
24A
330
1F
100
AcDbEntity
  8
0
  6
Continuous
 62
     7
370
    30
100
AcDbLine
 10
163.784384858
 20
180.9087549779
 30
0.0
 11
163.784384858
 21
181.0871658207
 31
0.0
  0
LINE
  5
24B
330
1F
100
AcDbEntity
  8
0
  6
Continuous
 62
     7
370
    30
100
AcDbLine
 10
163.784384858
 20
181.0871658207
 30
0.0
 11
163.784384858
 21
185.4062410152
 31
0.0
  0
LINE
  5
24C
330
1F
100
AcDbEntity
  8
0
  6
Continuous
 62
     7
370
    30
100
AcDbLine
 10
163.784384858
 20
185.4062410152
 30
0.0
 11
163.784384858
 21
185.4087549779
 31
0.0
  0
LWPOLYLINE
  5
24D
330
1F
100
AcDbEntity
  8
0
  6
Continuous
 62
     7
370
    30
100
AcDbPolyline
 90
        3
 70
   128
 43
0.0
 10
163.7843843208
 20
181.0871657523
 10
163.1920966909
 20
181.2369429114
 10
162.7843841569
 20
181.3404035362
  0
LINE
  5
24E
330
1F
100
AcDbEntity
  8
0
  6
Continuous
 62
     7
370
    30
100
AcDbLine
 10
162.784384858
 20
181.3404043652
 30
0.0
 11
162.784384858
 21
185.1530024707
 31
0.0
  0
LWPOLYLINE
  5
24F
330
1F
100
AcDbEntity
  8
0
  6
Continuous
 62
     7
370
    30
100
AcDbPolyline
 90
        3
 70
   128
 43
0.0
 10
162.7843841569
 20
185.1530025321
 10
163.1920966909
 20
185.2564650195
 10
163.7843843208
 20
185.4062412473
  0
LINE
  5
250
330
1F
100
AcDbEntity
  8
0
  6
Continuous
 62
     7
370
    30
100
AcDbLine
 10
162.784384858
 20
181.3404043652
 30
0.0
 11
162.7843841569
 21
181.1645083668
 31
0.0
  0
LWPOLYLINE
  5
251
330
1F
100
AcDbEntity
  8
0
  6
Continuous
 62
     7
370
    30
100
AcDbPolyline
 90
        3
 70
   128
 43
0.0
 10
162.7843841569
 20
181.1645083668
 10
163.1920966909
 20
181.0610458794
 10
163.7843843208
 20
180.9112687203
  0
LINE
  5
252
330
1F
100
AcDbEntity
  8
0
  6
Continuous
 62
     7
370
    30
100
AcDbLine
 10
165.284384858
 20
186.9087549779
 30
0.0
 11
165.284384858
 21
179.4087549779
 31
0.0
  0
LINE
  5
253
330
1F
100
AcDbEntity
  8
0
  6
Continuous
 62
     7
370
    30
100
AcDbLine
 10
164.284384858
 20
185.9087549779
 30
0.0
 11
164.284384858
 21
180.4087549779
 31
0.0
  0
LINE
  5
254
330
1F
100
AcDbEntity
  8
0
  6
Continuous
 62
     7
370
    30
100
AcDbLine
 10
172.7843839333
 20
173.1587552073
 30
0.0
 11
185.7843851329
 21
173.1587552073
 31
0.0
  0
LINE
  5
255
330
1F
100
AcDbEntity
  8
0
  6
Continuous
 62
     7
370
    30
100
AcDbLine
 10
185.7843851329
 20
173.1587552073
 30
0.0
 11
185.7843851329
 21
189.1587550359
 31
0.0
  0
LINE
  5
256
330
1F
100
AcDbEntity
  8
0
  6
Continuous
 62
     7
370
    30
100
AcDbLine
 10
172.7843839333
 20
173.1587552073
 30
0.0
 11
172.7843839333
 21
189.1587550359
 31
0.0
  0
LINE
  5
257
330
1F
100
AcDbEntity
  8
0
  6
Continuous
 62
     7
370
    30
100
AcDbLine
 10
172.7843839333
 20
189.1587550359
 30
0.0
 11
185.7843851329
 21
189.1587550359
 31
0.0
  0
LINE
  5
258
330
1F
100
AcDbEntity
  8
0
  6
Continuous
 62
     7
370
    30
100
AcDbLine
 10
172.7843839333
 20
192.158755062
 30
0.0
 11
177.7843847529
 21
192.158755062
 31
0.0
  0
LINE
  5
259
330
1F
100
AcDbEntity
  8
0
  6
Continuous
 62
     7
370
    30
100
AcDbLine
 10
177.7843847529
 20
192.158755062
 30
0.0
 11
177.7843847529
 21
189.1587550359
 31
0.0
  0
LINE
  5
25A
330
1F
100
AcDbEntity
  8
0
  6
Continuous
 62
     7
370
    30
100
AcDbLine
 10
172.7843839333
 20
192.158755062
 30
0.0
 11
172.7843839333
 21
189.1587550359
 31
0.0
  0
DIMENSION
  5
25B
330
1F
100
AcDbEntity
  8
0
  6
Continuous
 62
     7
370
     0
100
AcDbDimension
  2
*D5
 10
193.5406557091
 20
162.7587549779
 30
0.0
 11
193.5406557091
 21
177.4587549779
 31
0.0
 70
   160
  1
(<>)
 71
     1
 42
29.4
  3
SLDDIMSTYLE0
100
AcDbAlignedDimension
 13
177.784384858
 23
192.1587549779
 33
0.0
 14
181.284384858
 24
162.7587549779
 34
0.0
 50
90.0
100
AcDbRotatedDimension
1001
ACAD
1000
DSTYLE
1002
{
1070
    77
1070
     3
1070
   143
1040
0.0393700787
1070
    41
1040
3.0
1070
    44
1040
1.0
1070
    42
1040
1.0
1070
   147
1040
1.524
1070
    73
1070
     0
1070
    74
1070
     0
1070
   140
1040
3.5
1070
   284
1070
    12
1070
    78
1070
    12
1002
}
  0
ENDSEC
  0
SECTION
  2
OBJECTS
  0
DICTIONARY
  5
C
330
0
100
AcDbDictionary
281
     1
  3
ACAD_GROUP
350
D
  3
ACAD_LAYOUT
350
1A
  3
ACAD_MLINESTYLE
350
17
  3
ACAD_PLOTSETTINGS
350
19
  3
ACAD_PLOTSTYLENAME
350
E
  0
DICTIONARY
  5
D
102
{ACAD_REACTORS
330
C
102
}
330
C
100
AcDbDictionary
281
     1
  0
DICTIONARY
  5
1A
102
{ACAD_REACTORS
330
C
102
}
330
C
100
AcDbDictionary
281
     1
  3
Layout1
350
1E
  3
Layout2
350
26
  3
Model
350
22
  0
DICTIONARY
  5
17
102
{ACAD_REACTORS
330
C
102
}
330
C
100
AcDbDictionary
281
     1
  3
Standard
350
18
  0
DICTIONARY
  5
19
102
{ACAD_REACTORS
330
C
102
}
330
C
100
AcDbDictionary
281
     1
  0
ACDBDICTIONARYWDFLT
  5
E
102
{ACAD_REACTORS
330
C
102
}
330
C
100
AcDbDictionary
281
     1
  3
Normal
350
F
100
AcDbDictionaryWithDefault
340
F
  0
LAYOUT
  5
1E
102
{ACAD_REACTORS
330
1A
102
}
330
1A
100
AcDbPlotSettings
  1

  2

  4

  6

 40
0.0
 41
0.0
 42
0.0
 43
0.0
 44
0.0
 45
0.0
 46
0.0
 47
0.0
 48
0.0
 49
0.0
140
0.0
141
0.0
142
1.0
143
1.0
 70
   688
 72
     0
 73
     0
 74
     5
  7

 75
    16
147
1.0
148
0.0
149
0.0
100
AcDbLayout
  1
Layout1
 70
     1
 71
     1
 10
0.0
 20
0.0
 11
0.0
 21
0.0
 12
0.0
 22
0.0
 32
0.0
 14
0.0
 24
0.0
 34
0.0
 15
0.0
 25
0.0
 35
0.0
146
0.0
 13
0.0
 23
0.0
 33
0.0
 16
1.0
 26
0.0
 36
0.0
 17
0.0
 27
1.0
 37
0.0
 76
     0
330
1B
  0
LAYOUT
  5
26
102
{ACAD_REACTORS
330
1A
102
}
330
1A
100
AcDbPlotSettings
  1

  2

  4

  6

 40
0.0
 41
0.0
 42
0.0
 43
0.0
 44
0.0
 45
0.0
 46
0.0
 47
0.0
 48
0.0
 49
0.0
140
0.0
141
0.0
142
1.0
143
1.0
 70
   688
 72
     0
 73
     0
 74
     5
  7

 75
    16
147
1.0
148
0.0
149
0.0
100
AcDbLayout
  1
Layout2
 70
     1
 71
     2
 10
0.0
 20
0.0
 11
0.0
 21
0.0
 12
0.0
 22
0.0
 32
0.0
 14
0.0
 24
0.0
 34
0.0
 15
0.0
 25
0.0
 35
0.0
146
0.0
 13
0.0
 23
0.0
 33
0.0
 16
1.0
 26
0.0
 36
0.0
 17
0.0
 27
1.0
 37
0.0
 76
     0
330
23
  0
LAYOUT
  5
22
102
{ACAD_REACTORS
330
1A
102
}
330
1A
100
AcDbPlotSettings
  1

  2

  4

  6

 40
0.0
 41
0.0
 42
0.0
 43
0.0
 44
0.0
 45
0.0
 46
0.0
 47
0.0
 48
0.0
 49
0.0
140
0.0
141
0.0
142
1.0
143
1.0
 70
  1712
 72
     0
 73
     0
 74
     0
  7

 75
     0
147
1.0
148
0.0
149
0.0
100
AcDbLayout
  1
Model
 70
     1
 71
     0
 10
0.0
 20
0.0
 11
0.0
 21
0.0
 12
0.0
 22
0.0
 32
0.0
 14
0.0
 24
0.0
 34
0.0
 15
210.0
 25
297.0
 35
0.0
146
0.0
 13
0.0
 23
0.0
 33
0.0
 16
1.0
 26
0.0
 36
0.0
 17
0.0
 27
1.0
 37
0.0
 76
     0
330
1F
  0
MLINESTYLE
  5
18
102
{ACAD_REACTORS
330
17
102
}
330
17
100
AcDbMlineStyle
  2
Standard
 70
     0
  3

 62
   256
 51
90.0
 52
90.0
 71
     2
 49
0.5
 62
   256
  6
BYLAYER
 49
-0.5
 62
   256
  6
BYLAYER
  0
ACDBPLACEHOLDER
  5
F
102
{ACAD_REACTORS
330
E
102
}
330
E
  0
ENDSEC
  0
EOF
