  0
SECTION
  2
HEADER
  9
$ACADVER
  1
AC1015
  9
$ACADMAINTVER
 70
     6
  9
$DWGCODEPAGE
  3
DOS932
  9
$INSBASE
 10
0.0
 20
0.0
 30
0.0
  9
$EXTMIN
 10
0.0
 20
0.0
 30
0.0
  9
$EXTMAX
 10
210.0
 20
297.0
 30
0.0
  9
$LIMMIN
 10
0.0
 20
0.0
  9
$LIMMAX
 10
210.0
 20
297.0
  9
$ORTHOMODE
 70
     0
  9
$REGENMODE
 70
     1
  9
$FILLMODE
 70
     1
  9
$QTEXTMODE
 70
     0
  9
$MIRRTEXT
 70
     1
  9
$LTSCALE
 40
1.0
  9
$ATTMODE
 70
     1
  9
$TEXTSIZE
 40
3.5
  9
$TRACEWID
 40
1.0
  9
$TEXTSTYLE
  7
Standard
  9
$CLAYER
  8
0
  9
$CELTYPE
  6
ByLayer
  9
$CECOLOR
 62
   256
  9
$CELTSCALE
 40
1.0
  9
$DISPSILH
 70
     0
  9
$DIMSCALE
 40
1.0
  9
$DIMASZ
 40
3.302
  9
$DIMEXO
 40
1.0
  9
$DIMDLI
 40
3.75
  9
$DIMRND
 40
0.0
  9
$DIMDLE
 40
0.0
  9
$DIMEXE
 40
1.0
  9
$DIMTP
 40
0.0
  9
$DIMTM
 40
0.0
  9
$DIMTXT
 40
3.5
  9
$DIMCEN
 40
2.5
  9
$DIMTSZ
 40
0.0
  9
$DIMTOL
 70
     0
  9
$DIMLIM
 70
     0
  9
$DIMTIH
 70
     1
  9
$DIMTOH
 70
     1
  9
$DIMSE1
 70
     0
  9
$DIMSE2
 70
     0
  9
$DIMTAD
 70
     1
  9
$DIMZIN
 70
     1
  9
$DIMBLK
  1

  9
$DIMASO
 70
     1
  9
$DIMSHO
 70
     1
  9
$DIMPOST
  1

  9
$DIMAPOST
  1

  9
$DIMALT
 70
     0
  9
$DIMALTD
 70
     3
  9
$DIMALTF
 40
0.0393700787
  9
$DIMLFAC
 40
1.0
  9
$DIMTOFL
 70
     1
  9
$DIMTVP
 40
0.0
  9
$DIMTIX
 70
     0
  9
$DIMSOXD
 70
     0
  9
$DIMSAH
 70
     0
  9
$DIMBLK1
  1

  9
$DIMBLK2
  1

  9
$DIMSTYLE
  2
ISO-25
  9
$DIMCLRD
 70
     0
  9
$DIMCLRE
 70
     0
  9
$DIMCLRT
 70
     0
  9
$DIMTFAC
 40
1.0
  9
$DIMGAP
 40
1.524
  9
$DIMJUST
 70
     0
  9
$DIMSD1
 70
     0
  9
$DIMSD2
 70
     0
  9
$DIMTOLJ
 70
     0
  9
$DIMTZIN
 70
     1
  9
$DIMALTZ
 70
     0
  9
$DIMALTTZ
 70
     0
  9
$DIMUPT
 70
     0
  9
$DIMDEC
 70
     1
  9
$DIMTDEC
 70
     3
  9
$DIMALTU
 70
     2
  9
$DIMALTTD
 70
     3
  9
$DIMTXSTY
  7
Standard
  9
$DIMAUNIT
 70
     0
  9
$DIMADEC
 70
     2
  9
$DIMALTRND
 40
0.0
  9
$DIMAZIN
 70
     0
  9
$DIMDSEP
 70
    44
  9
$DIMATFIT
 70
     3
  9
$DIMFRAC
 70
     0
  9
$DIMLDRBLK
  1

  9
$DIMLUNIT
 70
     2
  9
$DIMLWD
 70
    -2
  9
$DIMLWE
 70
    -2
  9
$DIMTMOVE
 70
     0
  9
$LUNITS
 70
     2
  9
$LUPREC
 70
     1
  9
$SKETCHINC
 40
1.0
  9
$FILLETRAD
 40
10.0
  9
$AUNITS
 70
     0
  9
$AUPREC
 70
     2
  9
$MENU
  1
.
  9
$ELEVATION
 40
0.0
  9
$PELEVATION
 40
0.0
  9
$THICKNESS
 40
0.0
  9
$LIMCHECK
 70
     0
  9
$CHAMFERA
 40
10.0
  9
$CHAMFERB
 40
10.0
  9
$CHAMFERC
 40
20.0
  9
$CHAMFERD
 40
0.0
  9
$SKPOLY
 70
     0
  9
$TDCREATE
 40
2456225.812242477
  9
$TDUCREATE
 40
2456225.437242477
  9
$TDUPDATE
 40
2456225.812242488
  9
$TDUUPDATE
 40
2456225.437242488
  9
$TDINDWG
 40
0.0000000116
  9
$TDUSRTIMER
 40
0.0000000116
  9
$USRTIMER
 70
     1
  9
$ANGBASE
 50
0.0
  9
$ANGDIR
 70
     0
  9
$PDMODE
 70
     0
  9
$PDSIZE
 40
-1.0
  9
$PLINEWID
 40
0.0
  9
$SPLFRAME
 70
     0
  9
$SPLINETYPE
 70
     6
  9
$SPLINESEGS
 70
     8
  9
$HANDSEED
  5
34E
  9
$SURFTAB1
 70
     6
  9
$SURFTAB2
 70
     6
  9
$SURFTYPE
 70
     6
  9
$SURFU
 70
     6
  9
$SURFV
 70
     6
  9
$UCSBASE
  2

  9
$UCSNAME
  2

  9
$UCSORG
 10
0.0
 20
0.0
 30
0.0
  9
$UCSXDIR
 10
1.0
 20
0.0
 30
0.0
  9
$UCSYDIR
 10
0.0
 20
1.0
 30
0.0
  9
$UCSORTHOREF
  2

  9
$UCSORTHOVIEW
 70
     0
  9
$UCSORGTOP
 10
0.0
 20
0.0
 30
0.0
  9
$UCSORGBOTTOM
 10
0.0
 20
0.0
 30
0.0
  9
$UCSORGLEFT
 10
0.0
 20
0.0
 30
0.0
  9
$UCSORGRIGHT
 10
0.0
 20
0.0
 30
0.0
  9
$UCSORGFRONT
 10
0.0
 20
0.0
 30
0.0
  9
$UCSORGBACK
 10
0.0
 20
0.0
 30
0.0
  9
$PUCSBASE
  2

  9
$PUCSNAME
  2

  9
$PUCSORG
 10
0.0
 20
0.0
 30
0.0
  9
$PUCSXDIR
 10
1.0
 20
0.0
 30
0.0
  9
$PUCSYDIR
 10
0.0
 20
1.0
 30
0.0
  9
$PUCSORTHOREF
  2

  9
$PUCSORTHOVIEW
 70
     0
  9
$PUCSORGTOP
 10
0.0
 20
0.0
 30
0.0
  9
$PUCSORGBOTTOM
 10
0.0
 20
0.0
 30
0.0
  9
$PUCSORGLEFT
 10
0.0
 20
0.0
 30
0.0
  9
$PUCSORGRIGHT
 10
0.0
 20
0.0
 30
0.0
  9
$PUCSORGFRONT
 10
0.0
 20
0.0
 30
0.0
  9
$PUCSORGBACK
 10
0.0
 20
0.0
 30
0.0
  9
$USERI1
 70
     0
  9
$USERI2
 70
     0
  9
$USERI3
 70
     0
  9
$USERI4
 70
     0
  9
$USERI5
 70
     0
  9
$USERR1
 40
0.0
  9
$USERR2
 40
0.0
  9
$USERR3
 40
0.0
  9
$USERR4
 40
0.0
  9
$USERR5
 40
0.0
  9
$WORLDVIEW
 70
     1
  9
$SHADEDGE
 70
     3
  9
$SHADEDIF
 70
    70
  9
$TILEMODE
 70
     0
  9
$MAXACTVP
 70
    64
  9
$PINSBASE
 10
0.0
 20
0.0
 30
0.0
  9
$PLIMCHECK
 70
     0
  9
$PEXTMIN
 10
0.0
 20
0.0
 30
0.0
  9
$PEXTMAX
 10
210.0
 20
297.0
 30
0.0
  9
$PLIMMIN
 10
0.0
 20
0.0
  9
$PLIMMAX
 10
210.0
 20
297.0
  9
$UNITMODE
 70
     0
  9
$VISRETAIN
 70
     1
  9
$PLINEGEN
 70
     0
  9
$PSLTSCALE
 70
     1
  9
$TREEDEPTH
 70
  3020
  9
$CMLSTYLE
  2
Standard
  9
$CMLJUST
 70
     0
  9
$CMLSCALE
 40
20.0
  9
$PROXYGRAPHICS
 70
     1
  9
$MEASUREMENT
 70
     1
  9
$CELWEIGHT
370
    -1
  9
$ENDCAPS
280
     0
  9
$JOINSTYLE
280
     0
  9
$LWDISPLAY
290
     1
  9
$INSUNITS
 70
     4
  9
$HYPERLINKBASE
  1

  9
$STYLESHEET
  1

  9
$XEDIT
290
     1
  9
$CEPSNTYPE
380
     0
  9
$PSTYLEMODE
290
     1
  9
$FINGERPRINTGUID
  2
{9AEFA912-C520-49FD-851A-8B687A2AADA5}
  9
$VERSIONGUID
  2
{FAEB1C32-E019-11D5-929B-00C0DF256EC4}
  9
$EXTNAMES
290
     1
  9
$PSVPSCALE
 40
0.0
  9
$OLESTARTUP
290
     0
  0
ENDSEC
  0
SECTION
  2
CLASSES
  0
CLASS
  1
ACDBDICTIONARYWDFLT
  2
AcDbDictionaryWithDefault
  3
ObjectDBX Classes
 90
        0
280
     0
281
     0
  0
CLASS
  1
VISUALSTYLE
  2
AcDbVisualStyle
  3
ObjectDBX Classes
 90
     4095
280
     0
281
     0
  0
CLASS
  1
MATERIAL
  2
AcDbMaterial
  3
ObjectDBX Classes
 90
     1153
280
     0
281
     0
  0
CLASS
  1
SCALE
  2
AcDbScale
  3
ObjectDBX Classes
 90
     1153
280
     0
281
     0
  0
CLASS
  1
DICTIONARYVAR
  2
AcDbDictionaryVar
  3
ObjectDBX Classes
 90
        0
280
     0
281
     0
  0
CLASS
  1
ACDBPLACEHOLDER
  2
AcDbPlaceHolder
  3
ObjectDBX Classes
 90
        0
280
     0
281
     0
  0
CLASS
  1
LAYOUT
  2
AcDbLayout
  3
ObjectDBX Classes
 90
        0
280
     0
281
     0
  0
ENDSEC
  0
SECTION
  2
TABLES
  0
TABLE
  2
VPORT
  5
8
330
0
100
AcDbSymbolTable
 70
     1
  0
VPORT
  5
29
330
8
100
AcDbSymbolTableRecord
100
AcDbViewportTableRecord
  2
*Active
 70
     0
 10
0.0
 20
0.0
 11
1.0
 21
1.0
 12
105.0
 22
148.5
 13
0.0
 23
0.0
 14
10.0
 24
10.0
 15
10.0
 25
10.0
 16
0.0
 26
0.0
 36
1.0
 17
0.0
 27
0.0
 37
0.0
 40
297.0
 41
0.7070707071
 42
50.0
 43
0.0
 44
0.0
 50
0.0
 51
0.0
 71
     0
 72
  2000
 73
     1
 74
     3
 75
     0
 76
     0
 77
     0
 78
     0
281
     0
 65
     1
110
0.0
120
0.0
130
0.0
111
1.0
121
0.0
131
0.0
112
0.0
122
1.0
132
0.0
 79
     0
146
0.0
  0
ENDTAB
  0
TABLE
  2
LTYPE
  5
5
330
0
100
AcDbSymbolTable
 70
     6
  0
LTYPE
  5
14
330
5
100
AcDbSymbolTableRecord
100
AcDbLinetypeTableRecord
  2
ByBlock
 70
     0
  3

 72
    65
 73
     0
 40
0.0
  0
LTYPE
  5
15
330
5
100
AcDbSymbolTableRecord
100
AcDbLinetypeTableRecord
  2
ByLayer
 70
     0
  3

 72
    65
 73
     0
 40
0.0
  0
LTYPE
  5
16
330
5
100
AcDbSymbolTableRecord
100
AcDbLinetypeTableRecord
  2
Continuous
 70
     0
  3
Solid line
 72
    65
 73
     0
 40
0.0
  0
LTYPE
  5
3F
330
5
100
AcDbSymbolTableRecord
100
AcDbLinetypeTableRecord
  2
HIDDEN
 70
     0
  3
Hidden __ __ __ __ __ __ __ __ __ __ __ __ __ __
 72
    65
 73
     2
 40
1.905
 49
1.27
 74
     0
 49
-0.635
 74
     0
  0
LTYPE
  5
40
330
5
100
AcDbSymbolTableRecord
100
AcDbLinetypeTableRecord
  2
PHANTOM
 70
     0
  3
Phantom ______  __  __  ______  __  __  ______
 72
    65
 73
     6
 40
12.7
 49
6.35
 74
     0
 49
-1.27
 74
     0
 49
1.27
 74
     0
 49
-1.27
 74
     0
 49
1.27
 74
     0
 49
-1.27
 74
     0
  0
LTYPE
  5
41
330
5
100
AcDbSymbolTableRecord
100
AcDbLinetypeTableRecord
  2
CENTER
 70
     0
  3
Center ____ _ ____ _ ____ _ ____ _ ____ _ ____
 72
    65
 73
     4
 40
10.16
 49
6.35
 74
     0
 49
-1.27
 74
     0
 49
1.27
 74
     0
 49
-1.27
 74
     0
  0
LTYPE
  5
42
330
5
100
AcDbSymbolTableRecord
100
AcDbLinetypeTableRecord
  2
CENTERX2
 70
     0
  3
Center (2x) ________  __  ________  __  _____
 72
    65
 73
     4
 40
20.32
 49
12.7
 74
     0
 49
-2.54
 74
     0
 49
2.54
 74
     0
 49
-2.54
 74
     0
  0
LTYPE
  5
43
330
5
100
AcDbSymbolTableRecord
100
AcDbLinetypeTableRecord
  2
DOT2
 70
     0
  3
Dot (.5x) ........................................
 72
    65
 73
     2
 40
0.635
 49
0.0
 74
     0
 49
-0.635
 74
     0
  0
ENDTAB
  0
TABLE
  2
LAYER
  5
2
330
0
100
AcDbSymbolTable
 70
     2
  0
LAYER
  5
10
330
2
100
AcDbSymbolTableRecord
100
AcDbLayerTableRecord
  2
0
 70
     0
 62
     7
  6
Continuous
370
    -3
390
F
  0
LAYER
  5
44
330
2
100
AcDbSymbolTableRecord
100
AcDbLayerTableRecord
  2
SLD-0
 70
     0
 62
   179
  6
Continuous
370
    -3
390
F
  0
ENDTAB
  0
TABLE
  2
STYLE
  5
3
330
0
100
AcDbSymbolTable
 70
     3
  0
STYLE
  5
11
330
3
100
AcDbSymbolTableRecord
100
AcDbTextStyleTableRecord
  2
Standard
 70
     0
 40
0.0
 41
1.0
 50
0.0
 71
     0
 42
2.5
  3
txt
  4
bigfont
  0
STYLE
  5
54
330
3
100
AcDbSymbolTableRecord
100
AcDbTextStyleTableRecord
  2
SLDTEXTSTYLE0
 70
     0
 40
0.0
 41
0.5157894737
 50
0.0
 71
     0
 42
0.2
  3
TXT
  4
bigfont
  0
STYLE
  5
271
330
3
100
AcDbSymbolTableRecord
100
AcDbTextStyleTableRecord
  2
SLDTEXTSTYLE1
 70
     0
 40
0.0
 41
0.7
 50
0.0
 71
     0
 42
0.2
  3
TXT
  4
bigfont
  0
ENDTAB
  0
TABLE
  2
VIEW
  5
6
330
0
100
AcDbSymbolTable
 70
     0
  0
ENDTAB
  0
TABLE
  2
UCS
  5
7
330
0
100
AcDbSymbolTable
 70
     0
  0
ENDTAB
  0
TABLE
  2
APPID
  5
9
330
0
100
AcDbSymbolTable
 70
     1
  0
APPID
  5
12
330
9
100
AcDbSymbolTableRecord
100
AcDbRegAppTableRecord
  2
ACAD
 70
     0
  0
ENDTAB
  0
TABLE
  2
DIMSTYLE
  5
A
330
0
100
AcDbSymbolTable
 70
     4
100
AcDbDimStyleTable
  0
DIMSTYLE
105
27
330
A
100
AcDbSymbolTableRecord
100
AcDbDimStyleTableRecord
  2
ISO-25
 70
     0
 41
2.5
 42
0.625
 43
3.75
 44
1.25
 73
     0
 74
     0
 77
     1
 78
     8
140
2.5
141
2.5
143
0.0393700787
147
0.625
171
     3
172
     1
271
     2
272
     2
274
     3
278
    44
283
     0
284
     8
340
11
  0
DIMSTYLE
105
261
102
{ACAD_REACTORS
330
260
330
273
330
281
330
28F
330
2BA
330
2D8
330
304
330
32D
330
33B
102
}
330
A
100
AcDbSymbolTableRecord
100
AcDbDimStyleTableRecord
  2
SLDDIMSTYLE0
 70
     0
 41
3.302
 44
0.0
 45
0.000000001
 73
     0
 74
     0
 77
     3
 78
    12
140
3.5
147
0.875
173
     1
271
     0
272
     3
276
     2
284
    12
340
54
341
262
343
262
344
262
  0
DIMSTYLE
105
29E
102
{ACAD_REACTORS
330
29D
330
2AC
330
2C8
330
2E6
330
2F6
330
312
102
}
330
A
100
AcDbSymbolTableRecord
100
AcDbDimStyleTableRecord
  2
SLDDIMSTYLE1
 70
     0
 41
3.302
 44
0.0
 45
0.000000001
 73
     0
 74
     0
 77
     3
 78
    12
140
3.5
147
0.875
173
     1
271
     1
272
     3
276
     2
284
    12
340
54
341
262
343
262
344
262
  0
DIMSTYLE
105
323
102
{ACAD_REACTORS
330
322
102
}
330
A
100
AcDbSymbolTableRecord
100
AcDbDimStyleTableRecord
  2
SLDDIMSTYLE2
 70
     0
 41
3.302
 44
0.0
 45
0.000000001
 73
     0
 74
     0
 77
     3
 78
    12
140
3.5
141
0.0
147
0.875
172
     1
173
     1
271
     0
272
     3
276
     2
284
    12
340
54
341
262
343
262
344
262
  0
ENDTAB
  0
TABLE
  2
BLOCK_RECORD
  5
1
330
0
100
AcDbSymbolTable
 70
    29
  0
BLOCK_RECORD
  5
1F
330
1
100
AcDbSymbolTableRecord
100
AcDbBlockTableRecord
  2
*Model_Space
340
22
  0
BLOCK_RECORD
  5
1B
330
1
100
AcDbSymbolTableRecord
100
AcDbBlockTableRecord
  2
*Paper_Space
340
1E
  0
BLOCK_RECORD
  5
45
330
1
100
AcDbSymbolTableRecord
100
AcDbBlockTableRecord
  2
_OPEN30
340
0
102
{BLKREFS
331
252
331
253
331
25D
331
25F
102
}
  0
BLOCK_RECORD
  5
4B
330
1
100
AcDbSymbolTableRecord
100
AcDbBlockTableRecord
  2
SW_NOTE_0
340
0
102
{BLKREFS
331
255
102
}
  0
BLOCK_RECORD
  5
78
330
1
100
AcDbSymbolTableRecord
100
AcDbBlockTableRecord
  2
SW_NOTE_1
340
0
102
{BLKREFS
331
254
102
}
  0
BLOCK_RECORD
  5
82
330
1
100
AcDbSymbolTableRecord
100
AcDbBlockTableRecord
  2
SW_NOTE_2
340
0
102
{BLKREFS
331
256
102
}
  0
BLOCK_RECORD
  5
8C
330
1
100
AcDbSymbolTableRecord
100
AcDbBlockTableRecord
  2
SW_NOTE_3
340
0
102
{BLKREFS
331
258
102
}
  0
BLOCK_RECORD
  5
96
330
1
100
AcDbSymbolTableRecord
100
AcDbBlockTableRecord
  2
SW_CENTERMARKSYMBOL_0
340
0
102
{BLKREFS
331
25A
102
}
  0
BLOCK_RECORD
  5
A1
330
1
100
AcDbSymbolTableRecord
100
AcDbBlockTableRecord
  2
SW_CENTERMARKSYMBOL_1
340
0
102
{BLKREFS
331
259
102
}
  0
BLOCK_RECORD
  5
AC
330
1
100
AcDbSymbolTableRecord
100
AcDbBlockTableRecord
  2
SW_CENTERMARKSYMBOL_2
340
0
102
{BLKREFS
331
25B
102
}
  0
BLOCK_RECORD
  5
B7
330
1
100
AcDbSymbolTableRecord
100
AcDbBlockTableRecord
  2
SW_CENTERMARKSYMBOL_3
340
0
102
{BLKREFS
331
257
102
}
  0
BLOCK_RECORD
  5
C2
330
1
100
AcDbSymbolTableRecord
100
AcDbBlockTableRecord
  2
SW_CENTERMARKSYMBOL_4
340
0
102
{BLKREFS
331
25E
102
}
  0
BLOCK_RECORD
  5
CD
330
1
100
AcDbSymbolTableRecord
100
AcDbBlockTableRecord
  2
SW_CENTERMARKSYMBOL_5
340
0
102
{BLKREFS
331
25C
102
}
  0
BLOCK_RECORD
  5
262
330
1
100
AcDbSymbolTableRecord
100
AcDbBlockTableRecord
  2
_NONE
340
0
  0
BLOCK_RECORD
  5
265
330
1
100
AcDbSymbolTableRecord
100
AcDbBlockTableRecord
  2
*D13
340
0
  0
BLOCK_RECORD
  5
274
330
1
100
AcDbSymbolTableRecord
100
AcDbBlockTableRecord
  2
*D14
340
0
  0
BLOCK_RECORD
  5
282
330
1
100
AcDbSymbolTableRecord
100
AcDbBlockTableRecord
  2
*D15
340
0
  0
BLOCK_RECORD
  5
290
330
1
100
AcDbSymbolTableRecord
100
AcDbBlockTableRecord
  2
*D16
340
0
  0
BLOCK_RECORD
  5
29F
330
1
100
AcDbSymbolTableRecord
100
AcDbBlockTableRecord
  2
*D17
340
0
  0
BLOCK_RECORD
  5
2AD
330
1
100
AcDbSymbolTableRecord
100
AcDbBlockTableRecord
  2
*D18
340
0
  0
BLOCK_RECORD
  5
2BB
330
1
100
AcDbSymbolTableRecord
100
AcDbBlockTableRecord
  2
*D19
340
0
  0
BLOCK_RECORD
  5
2C9
330
1
100
AcDbSymbolTableRecord
100
AcDbBlockTableRecord
  2
*D20
340
0
  0
BLOCK_RECORD
  5
2D9
330
1
100
AcDbSymbolTableRecord
100
AcDbBlockTableRecord
  2
*D21
340
0
  0
BLOCK_RECORD
  5
2E7
330
1
100
AcDbSymbolTableRecord
100
AcDbBlockTableRecord
  2
*D22
340
0
  0
BLOCK_RECORD
  5
2F7
330
1
100
AcDbSymbolTableRecord
100
AcDbBlockTableRecord
  2
*D23
340
0
  0
BLOCK_RECORD
  5
305
330
1
100
AcDbSymbolTableRecord
100
AcDbBlockTableRecord
  2
*D24
340
0
  0
BLOCK_RECORD
  5
313
330
1
100
AcDbSymbolTableRecord
100
AcDbBlockTableRecord
  2
*D25
340
0
  0
BLOCK_RECORD
  5
324
330
1
100
AcDbSymbolTableRecord
100
AcDbBlockTableRecord
  2
*D26
340
0
  0
BLOCK_RECORD
  5
32E
330
1
100
AcDbSymbolTableRecord
100
AcDbBlockTableRecord
  2
*D27
340
0
  0
BLOCK_RECORD
  5
33C
330
1
100
AcDbSymbolTableRecord
100
AcDbBlockTableRecord
  2
*D28
340
0
  0
ENDTAB
  0
ENDSEC
  0
SECTION
  2
BLOCKS
  0
BLOCK
  5
20
330
1F
100
AcDbEntity
  8
0
100
AcDbBlockBegin
  2
*Model_Space
 70
     0
 10
0.0
 20
0.0
 30
0.0
  3
*Model_Space
  1

  0
ENDBLK
  5
21
330
1F
100
AcDbEntity
  8
0
100
AcDbBlockEnd
  0
BLOCK
  5
1C
330
1B
100
AcDbEntity
 67
     1
  8
0
100
AcDbBlockBegin
  2
*Paper_Space
 70
     0
 10
0.0
 20
0.0
 30
0.0
  3
*Paper_Space
  1

  0
ENDBLK
  5
1D
330
1B
100
AcDbEntity
 67
     1
  8
0
100
AcDbBlockEnd
  0
BLOCK
  5
46
330
45
100
AcDbEntity
  8
0
100
AcDbBlockBegin
  2
_OPEN30
 70
     0
 10
0.0
 20
0.0
 30
0.0
  3
_OPEN30
  1

  0
LINE
  5
48
330
45
100
AcDbEntity
  8
SLD-0
  6
Continuous
 62
   179
370
     0
100
AcDbLine
 10
-1.0
 20
0.267949
 30
0.0
 11
0.0
 21
0.0
 31
0.0
  0
LINE
  5
49
330
45
100
AcDbEntity
  8
SLD-0
  6
Continuous
 62
   179
370
     0
100
AcDbLine
 10
0.0
 20
0.0
 30
0.0
 11
-1.0
 21
-0.267949
 31
0.0
  0
LINE
  5
4A
330
45
100
AcDbEntity
  8
SLD-0
  6
Continuous
 62
   179
370
     0
100
AcDbLine
 10
0.0
 20
0.0
 30
0.0
 11
-1.0
 21
0.0
 31
0.0
  0
ENDBLK
  5
47
330
45
100
AcDbEntity
  8
0
100
AcDbBlockEnd
  0
BLOCK
  5
4C
330
4B
100
AcDbEntity
  8
0
100
AcDbBlockBegin
  2
SW_NOTE_0
 70
     0
 10
0.0
 20
0.0
 30
0.0
  3
SW_NOTE_0
  1

  0
LINE
  5
4E
330
4B
100
AcDbEntity
  8
SLD-0
  6
Continuous
 62
   179
370
     0
100
AcDbLine
 10
0.0
 20
0.0005745603
 30
0.0
 11
8.1478020178
 21
0.0005745603
 31
0.0
  0
LINE
  5
4F
330
4B
100
AcDbEntity
  8
SLD-0
  6
Continuous
 62
   179
370
     0
100
AcDbLine
 10
8.1478020178
 20
0.0005745603
 30
0.0
 11
0.0
 21
0.0005745603
 31
0.0
  0
LINE
  5
50
330
4B
100
AcDbEntity
  8
SLD-0
  6
Continuous
 62
   179
370
     0
100
AcDbLine
 10
0.0
 20
0.0005745603
 30
0.0
 11
8.1478020178
 21
0.0005745603
 31
0.0
  0
LINE
  5
51
330
4B
100
AcDbEntity
  8
SLD-0
  6
Continuous
 62
   179
370
     0
100
AcDbLine
 10
8.1478020178
 20
0.0005745603
 30
0.0
 11
0.0
 21
0.0005745603
 31
0.0
  0
LINE
  5
52
330
4B
100
AcDbEntity
  8
SLD-0
  6
Continuous
 62
   179
370
     0
100
AcDbLine
 10
0.0
 20
0.0005745603
 30
0.0
 11
8.1478020178
 21
0.0005745603
 31
0.0
  0
LINE
  5
53
330
4B
100
AcDbEntity
  8
SLD-0
  6
Continuous
 62
   179
370
     0
100
AcDbLine
 10
8.1478020178
 20
0.0005745603
 30
0.0
 11
0.0
 21
0.0005745603
 31
0.0
  0
MTEXT
  5
77
330
4B
100
AcDbEntity
  8
SLD-0
100
AcDbMText
 10
0.0017960718
 20
3.7362566089
 30
0.0
 40
3.5
 41
0.0
 71
     1
 72
     1
  1
BF-6
  7
SLDTEXTSTYLE0
 73
     1
 44
1.0
  0
ENDBLK
  5
4D
330
4B
100
AcDbEntity
  8
0
100
AcDbBlockEnd
  0
BLOCK
  5
79
330
78
100
AcDbEntity
  8
0
100
AcDbBlockBegin
  2
SW_NOTE_1
 70
     0
 10
0.0
 20
0.0
 30
0.0
  3
SW_NOTE_1
  1

  0
LINE
  5
7B
330
78
100
AcDbEntity
  8
SLD-0
  6
Continuous
 62
   179
370
     0
100
AcDbLine
 10
-0.0020206445
 20
-0.0006993838
 30
0.0
 11
8.1457813733
 21
-0.0006993838
 31
0.0
  0
LINE
  5
7C
330
78
100
AcDbEntity
  8
SLD-0
  6
Continuous
 62
   179
370
     0
100
AcDbLine
 10
8.1457813733
 20
-0.0006993838
 30
0.0
 11
-0.0020206445
 21
-0.0006993838
 31
0.0
  0
LINE
  5
7D
330
78
100
AcDbEntity
  8
SLD-0
  6
Continuous
 62
   179
370
     0
100
AcDbLine
 10
-0.0020206445
 20
-0.0006993838
 30
0.0
 11
8.1457813733
 21
-0.0006993838
 31
0.0
  0
LINE
  5
7E
330
78
100
AcDbEntity
  8
SLD-0
  6
Continuous
 62
   179
370
     0
100
AcDbLine
 10
8.1457813733
 20
-0.0006993838
 30
0.0
 11
-0.0020206445
 21
-0.0006993838
 31
0.0
  0
LINE
  5
7F
330
78
100
AcDbEntity
  8
SLD-0
  6
Continuous
 62
   179
370
     0
100
AcDbLine
 10
-0.0020206445
 20
-0.0006993838
 30
0.0
 11
8.1457813733
 21
-0.0006993838
 31
0.0
  0
LINE
  5
80
330
78
100
AcDbEntity
  8
SLD-0
  6
Continuous
 62
   179
370
     0
100
AcDbLine
 10
8.1457813733
 20
-0.0006993838
 30
0.0
 11
-0.0020206445
 21
-0.0006993838
 31
0.0
  0
MTEXT
  5
81
330
78
100
AcDbEntity
  8
SLD-0
100
AcDbMText
 10
0.0
 20
3.7345851288
 30
0.0
 40
3.5
 41
0.0
 71
     1
 72
     1
  1
BF-5
  7
SLDTEXTSTYLE0
 73
     1
 44
1.0
  0
ENDBLK
  5
7A
330
78
100
AcDbEntity
  8
0
100
AcDbBlockEnd
  0
BLOCK
  5
83
330
82
100
AcDbEntity
  8
0
100
AcDbBlockBegin
  2
SW_NOTE_2
 70
     0
 10
0.0
 20
0.0
 30
0.0
  3
SW_NOTE_2
  1

  0
LINE
  5
85
330
82
100
AcDbEntity
  8
SLD-0
  6
Continuous
 62
   179
370
     0
100
AcDbLine
 10
-0.0021020758
 20
-0.0008197326
 30
0.0
 11
8.145699942
 21
-0.0008197326
 31
0.0
  0
LINE
  5
86
330
82
100
AcDbEntity
  8
SLD-0
  6
Continuous
 62
   179
370
     0
100
AcDbLine
 10
8.145699942
 20
-0.0008197326
 30
0.0
 11
-0.0021020758
 21
-0.0008197326
 31
0.0
  0
LINE
  5
87
330
82
100
AcDbEntity
  8
SLD-0
  6
Continuous
 62
   179
370
     0
100
AcDbLine
 10
-0.0021020758
 20
-0.0008197326
 30
0.0
 11
8.145699942
 21
-0.0008197326
 31
0.0
  0
LINE
  5
88
330
82
100
AcDbEntity
  8
SLD-0
  6
Continuous
 62
   179
370
     0
100
AcDbLine
 10
8.145699942
 20
-0.0008197326
 30
0.0
 11
-0.0021020758
 21
-0.0008197326
 31
0.0
  0
LINE
  5
89
330
82
100
AcDbEntity
  8
SLD-0
  6
Continuous
 62
   179
370
     0
100
AcDbLine
 10
-0.0021020758
 20
-0.0008197326
 30
0.0
 11
8.145699942
 21
-0.0008197326
 31
0.0
  0
LINE
  5
8A
330
82
100
AcDbEntity
  8
SLD-0
  6
Continuous
 62
   179
370
     0
100
AcDbLine
 10
8.145699942
 20
-0.0008197326
 30
0.0
 11
-0.0021020758
 21
-0.0008197326
 31
0.0
  0
MTEXT
  5
8B
330
82
100
AcDbEntity
  8
SLD-0
100
AcDbMText
 10
0.0
 20
3.7345851288
 30
0.0
 40
3.5
 41
0.0
 71
     1
 72
     1
  1
BF-5
  7
SLDTEXTSTYLE0
 73
     1
 44
1.0
  0
ENDBLK
  5
84
330
82
100
AcDbEntity
  8
0
100
AcDbBlockEnd
  0
BLOCK
  5
8D
330
8C
100
AcDbEntity
  8
0
100
AcDbBlockBegin
  2
SW_NOTE_3
 70
     0
 10
0.0
 20
0.0
 30
0.0
  3
SW_NOTE_3
  1

  0
LINE
  5
8F
330
8C
100
AcDbEntity
  8
SLD-0
  6
Continuous
 62
   179
370
     0
100
AcDbLine
 10
-8.1478020178
 20
0.0005745603
 30
0.0
 11
0.0
 21
0.0005745603
 31
0.0
  0
LINE
  5
90
330
8C
100
AcDbEntity
  8
SLD-0
  6
Continuous
 62
   179
370
     0
100
AcDbLine
 10
0.0
 20
0.0005745603
 30
0.0
 11
-8.1478020178
 21
0.0005745603
 31
0.0
  0
LINE
  5
91
330
8C
100
AcDbEntity
  8
SLD-0
  6
Continuous
 62
   179
370
     0
100
AcDbLine
 10
-8.1478020178
 20
0.0005745603
 30
0.0
 11
0.0
 21
0.0005745603
 31
0.0
  0
LINE
  5
92
330
8C
100
AcDbEntity
  8
SLD-0
  6
Continuous
 62
   179
370
     0
100
AcDbLine
 10
0.0
 20
0.0005745603
 30
0.0
 11
-8.1478020178
 21
0.0005745603
 31
0.0
  0
LINE
  5
93
330
8C
100
AcDbEntity
  8
SLD-0
  6
Continuous
 62
   179
370
     0
100
AcDbLine
 10
-8.1478020178
 20
0.0005745603
 30
0.0
 11
0.0
 21
0.0005745603
 31
0.0
  0
LINE
  5
94
330
8C
100
AcDbEntity
  8
SLD-0
  6
Continuous
 62
   179
370
     0
100
AcDbLine
 10
0.0
 20
0.0005745603
 30
0.0
 11
-8.1478020178
 21
0.0005745603
 31
0.0
  0
MTEXT
  5
95
330
8C
100
AcDbEntity
  8
SLD-0
100
AcDbMText
 10
-8.145699942
 20
3.7357782658
 30
0.0
 40
3.5
 41
0.0
 71
     1
 72
     1
  1
BF-6
  7
SLDTEXTSTYLE0
 73
     1
 44
1.0
  0
ENDBLK
  5
8E
330
8C
100
AcDbEntity
  8
0
100
AcDbBlockEnd
  0
BLOCK
  5
97
330
96
100
AcDbEntity
  8
0
100
AcDbBlockBegin
  2
SW_CENTERMARKSYMBOL_0
 70
     0
 10
0.0
 20
0.0
 30
0.0
  3
SW_CENTERMARKSYMBOL_0
  1

  0
LINE
  5
99
330
96
100
AcDbEntity
  8
SLD-0
  6
Continuous
 62
   179
370
     0
100
AcDbLine
 10
0.0
 20
0.0
 30
0.0
 11
0.0
 21
2.5
 31
0.0
  0
LINE
  5
9A
330
96
100
AcDbEntity
  8
SLD-0
  6
Continuous
 62
   179
370
     0
100
AcDbLine
 10
0.0
 20
0.0
 30
0.0
 11
-2.5
 21
0.0
 31
0.0
  0
LINE
  5
9B
330
96
100
AcDbEntity
  8
SLD-0
  6
Continuous
 62
   179
370
     0
100
AcDbLine
 10
0.0
 20
0.0
 30
0.0
 11
0.0
 21
-2.5
 31
0.0
  0
LINE
  5
9C
330
96
100
AcDbEntity
  8
SLD-0
  6
Continuous
 62
   179
370
     0
100
AcDbLine
 10
0.0
 20
0.0
 30
0.0
 11
2.5
 21
0.0
 31
0.0
  0
LINE
  5
9D
330
96
100
AcDbEntity
  8
SLD-0
  6
Continuous
 62
   179
370
     0
100
AcDbLine
 10
0.0
 20
2.5
 30
0.0
 11
0.0
 21
5.0
 31
0.0
  0
LINE
  5
9E
330
96
100
AcDbEntity
  8
SLD-0
  6
Continuous
 62
   179
370
     0
100
AcDbLine
 10
-2.5
 20
0.0
 30
0.0
 11
-5.0
 21
0.0
 31
0.0
  0
LINE
  5
9F
330
96
100
AcDbEntity
  8
SLD-0
  6
Continuous
 62
   179
370
     0
100
AcDbLine
 10
0.0
 20
-2.5
 30
0.0
 11
0.0
 21
-5.0
 31
0.0
  0
LINE
  5
A0
330
96
100
AcDbEntity
  8
SLD-0
  6
Continuous
 62
   179
370
     0
100
AcDbLine
 10
2.5
 20
0.0
 30
0.0
 11
5.0
 21
0.0
 31
0.0
  0
ENDBLK
  5
98
330
96
100
AcDbEntity
  8
0
100
AcDbBlockEnd
  0
BLOCK
  5
A2
330
A1
100
AcDbEntity
  8
0
100
AcDbBlockBegin
  2
SW_CENTERMARKSYMBOL_1
 70
     0
 10
0.0
 20
0.0
 30
0.0
  3
SW_CENTERMARKSYMBOL_1
  1

  0
LINE
  5
A4
330
A1
100
AcDbEntity
  8
SLD-0
  6
Continuous
 62
   179
370
     0
100
AcDbLine
 10
0.0
 20
0.0
 30
0.0
 11
0.0
 21
2.5
 31
0.0
  0
LINE
  5
A5
330
A1
100
AcDbEntity
  8
SLD-0
  6
Continuous
 62
   179
370
     0
100
AcDbLine
 10
0.0
 20
0.0
 30
0.0
 11
-2.5
 21
0.0
 31
0.0
  0
LINE
  5
A6
330
A1
100
AcDbEntity
  8
SLD-0
  6
Continuous
 62
   179
370
     0
100
AcDbLine
 10
0.0
 20
0.0
 30
0.0
 11
0.0
 21
-2.5
 31
0.0
  0
LINE
  5
A7
330
A1
100
AcDbEntity
  8
SLD-0
  6
Continuous
 62
   179
370
     0
100
AcDbLine
 10
0.0
 20
0.0
 30
0.0
 11
2.5
 21
0.0
 31
0.0
  0
LINE
  5
A8
330
A1
100
AcDbEntity
  8
SLD-0
  6
Continuous
 62
   179
370
     0
100
AcDbLine
 10
0.0
 20
2.5
 30
0.0
 11
0.0
 21
5.0
 31
0.0
  0
LINE
  5
A9
330
A1
100
AcDbEntity
  8
SLD-0
  6
Continuous
 62
   179
370
     0
100
AcDbLine
 10
-2.5
 20
0.0
 30
0.0
 11
-5.0
 21
0.0
 31
0.0
  0
LINE
  5
AA
330
A1
100
AcDbEntity
  8
SLD-0
  6
Continuous
 62
   179
370
     0
100
AcDbLine
 10
0.0
 20
-2.5
 30
0.0
 11
0.0
 21
-5.0
 31
0.0
  0
LINE
  5
AB
330
A1
100
AcDbEntity
  8
SLD-0
  6
Continuous
 62
   179
370
     0
100
AcDbLine
 10
2.5
 20
0.0
 30
0.0
 11
5.0
 21
0.0
 31
0.0
  0
ENDBLK
  5
A3
330
A1
100
AcDbEntity
  8
0
100
AcDbBlockEnd
  0
BLOCK
  5
AD
330
AC
100
AcDbEntity
  8
0
100
AcDbBlockBegin
  2
SW_CENTERMARKSYMBOL_2
 70
     0
 10
0.0
 20
0.0
 30
0.0
  3
SW_CENTERMARKSYMBOL_2
  1

  0
LINE
  5
AF
330
AC
100
AcDbEntity
  8
SLD-0
  6
Continuous
 62
   179
370
     0
100
AcDbLine
 10
0.0
 20
0.0
 30
0.0
 11
0.0
 21
2.5
 31
0.0
  0
LINE
  5
B0
330
AC
100
AcDbEntity
  8
SLD-0
  6
Continuous
 62
   179
370
     0
100
AcDbLine
 10
0.0
 20
0.0
 30
0.0
 11
-2.5
 21
0.0
 31
0.0
  0
LINE
  5
B1
330
AC
100
AcDbEntity
  8
SLD-0
  6
Continuous
 62
   179
370
     0
100
AcDbLine
 10
0.0
 20
0.0
 30
0.0
 11
0.0
 21
-2.5
 31
0.0
  0
LINE
  5
B2
330
AC
100
AcDbEntity
  8
SLD-0
  6
Continuous
 62
   179
370
     0
100
AcDbLine
 10
0.0
 20
0.0
 30
0.0
 11
2.5
 21
0.0
 31
0.0
  0
LINE
  5
B3
330
AC
100
AcDbEntity
  8
SLD-0
  6
Continuous
 62
   179
370
     0
100
AcDbLine
 10
0.0
 20
2.5
 30
0.0
 11
0.0
 21
5.0
 31
0.0
  0
LINE
  5
B4
330
AC
100
AcDbEntity
  8
SLD-0
  6
Continuous
 62
   179
370
     0
100
AcDbLine
 10
-2.5
 20
0.0
 30
0.0
 11
-5.0
 21
0.0
 31
0.0
  0
LINE
  5
B5
330
AC
100
AcDbEntity
  8
SLD-0
  6
Continuous
 62
   179
370
     0
100
AcDbLine
 10
0.0
 20
-2.5
 30
0.0
 11
0.0
 21
-5.0
 31
0.0
  0
LINE
  5
B6
330
AC
100
AcDbEntity
  8
SLD-0
  6
Continuous
 62
   179
370
     0
100
AcDbLine
 10
2.5
 20
0.0
 30
0.0
 11
5.0
 21
0.0
 31
0.0
  0
ENDBLK
  5
AE
330
AC
100
AcDbEntity
  8
0
100
AcDbBlockEnd
  0
BLOCK
  5
B8
330
B7
100
AcDbEntity
  8
0
100
AcDbBlockBegin
  2
SW_CENTERMARKSYMBOL_3
 70
     0
 10
0.0
 20
0.0
 30
0.0
  3
SW_CENTERMARKSYMBOL_3
  1

  0
LINE
  5
BA
330
B7
100
AcDbEntity
  8
SLD-0
  6
Continuous
 62
   179
370
     0
100
AcDbLine
 10
0.0
 20
0.0
 30
0.0
 11
0.0
 21
2.5
 31
0.0
  0
LINE
  5
BB
330
B7
100
AcDbEntity
  8
SLD-0
  6
Continuous
 62
   179
370
     0
100
AcDbLine
 10
0.0
 20
0.0
 30
0.0
 11
-2.5
 21
0.0
 31
0.0
  0
LINE
  5
BC
330
B7
100
AcDbEntity
  8
SLD-0
  6
Continuous
 62
   179
370
     0
100
AcDbLine
 10
0.0
 20
0.0
 30
0.0
 11
0.0
 21
-2.5
 31
0.0
  0
LINE
  5
BD
330
B7
100
AcDbEntity
  8
SLD-0
  6
Continuous
 62
   179
370
     0
100
AcDbLine
 10
0.0
 20
0.0
 30
0.0
 11
2.5
 21
0.0
 31
0.0
  0
LINE
  5
BE
330
B7
100
AcDbEntity
  8
SLD-0
  6
Continuous
 62
   179
370
     0
100
AcDbLine
 10
0.0
 20
2.5
 30
0.0
 11
0.0
 21
5.0
 31
0.0
  0
LINE
  5
BF
330
B7
100
AcDbEntity
  8
SLD-0
  6
Continuous
 62
   179
370
     0
100
AcDbLine
 10
-2.5
 20
0.0
 30
0.0
 11
-5.0
 21
0.0
 31
0.0
  0
LINE
  5
C0
330
B7
100
AcDbEntity
  8
SLD-0
  6
Continuous
 62
   179
370
     0
100
AcDbLine
 10
0.0
 20
-2.5
 30
0.0
 11
0.0
 21
-5.0
 31
0.0
  0
LINE
  5
C1
330
B7
100
AcDbEntity
  8
SLD-0
  6
Continuous
 62
   179
370
     0
100
AcDbLine
 10
2.5
 20
0.0
 30
0.0
 11
5.0
 21
0.0
 31
0.0
  0
ENDBLK
  5
B9
330
B7
100
AcDbEntity
  8
0
100
AcDbBlockEnd
  0
BLOCK
  5
C3
330
C2
100
AcDbEntity
  8
0
100
AcDbBlockBegin
  2
SW_CENTERMARKSYMBOL_4
 70
     0
 10
0.0
 20
0.0
 30
0.0
  3
SW_CENTERMARKSYMBOL_4
  1

  0
LINE
  5
C5
330
C2
100
AcDbEntity
  8
SLD-0
  6
Continuous
 62
   179
370
     0
100
AcDbLine
 10
0.0
 20
0.0
 30
0.0
 11
0.0
 21
2.5
 31
0.0
  0
LINE
  5
C6
330
C2
100
AcDbEntity
  8
SLD-0
  6
Continuous
 62
   179
370
     0
100
AcDbLine
 10
0.0
 20
0.0
 30
0.0
 11
-2.5
 21
0.0
 31
0.0
  0
LINE
  5
C7
330
C2
100
AcDbEntity
  8
SLD-0
  6
Continuous
 62
   179
370
     0
100
AcDbLine
 10
0.0
 20
0.0
 30
0.0
 11
0.0
 21
-2.5
 31
0.0
  0
LINE
  5
C8
330
C2
100
AcDbEntity
  8
SLD-0
  6
Continuous
 62
   179
370
     0
100
AcDbLine
 10
0.0
 20
0.0
 30
0.0
 11
2.5
 21
0.0
 31
0.0
  0
LINE
  5
C9
330
C2
100
AcDbEntity
  8
SLD-0
  6
Continuous
 62
   179
370
     0
100
AcDbLine
 10
0.0
 20
5.0
 30
0.0
 11
0.0
 21
8.5
 31
0.0
  0
LINE
  5
CA
330
C2
100
AcDbEntity
  8
SLD-0
  6
Continuous
 62
   179
370
     0
100
AcDbLine
 10
-5.0
 20
0.0
 30
0.0
 11
-8.5
 21
0.0
 31
0.0
  0
LINE
  5
CB
330
C2
100
AcDbEntity
  8
SLD-0
  6
Continuous
 62
   179
370
     0
100
AcDbLine
 10
0.0
 20
-5.0
 30
0.0
 11
0.0
 21
-8.5
 31
0.0
  0
LINE
  5
CC
330
C2
100
AcDbEntity
  8
SLD-0
  6
Continuous
 62
   179
370
     0
100
AcDbLine
 10
5.0
 20
0.0
 30
0.0
 11
8.5
 21
0.0
 31
0.0
  0
ENDBLK
  5
C4
330
C2
100
AcDbEntity
  8
0
100
AcDbBlockEnd
  0
BLOCK
  5
CE
330
CD
100
AcDbEntity
  8
0
100
AcDbBlockBegin
  2
SW_CENTERMARKSYMBOL_5
 70
     0
 10
0.0
 20
0.0
 30
0.0
  3
SW_CENTERMARKSYMBOL_5
  1

  0
LINE
  5
D0
330
CD
100
AcDbEntity
  8
SLD-0
  6
Continuous
 62
   179
370
     0
100
AcDbLine
 10
0.0
 20
0.0
 30
0.0
 11
0.0
 21
2.5
 31
0.0
  0
LINE
  5
D1
330
CD
100
AcDbEntity
  8
SLD-0
  6
Continuous
 62
   179
370
     0
100
AcDbLine
 10
0.0
 20
0.0
 30
0.0
 11
-2.5
 21
0.0
 31
0.0
  0
LINE
  5
D2
330
CD
100
AcDbEntity
  8
SLD-0
  6
Continuous
 62
   179
370
     0
100
AcDbLine
 10
0.0
 20
0.0
 30
0.0
 11
0.0
 21
-2.5
 31
0.0
  0
LINE
  5
D3
330
CD
100
AcDbEntity
  8
SLD-0
  6
Continuous
 62
   179
370
     0
100
AcDbLine
 10
0.0
 20
0.0
 30
0.0
 11
2.5
 21
0.0
 31
0.0
  0
LINE
  5
D4
330
CD
100
AcDbEntity
  8
SLD-0
  6
Continuous
 62
   179
370
     0
100
AcDbLine
 10
0.0
 20
5.0
 30
0.0
 11
0.0
 21
8.5
 31
0.0
  0
LINE
  5
D5
330
CD
100
AcDbEntity
  8
SLD-0
  6
Continuous
 62
   179
370
     0
100
AcDbLine
 10
-5.0
 20
0.0
 30
0.0
 11
-8.5
 21
0.0
 31
0.0
  0
LINE
  5
D6
330
CD
100
AcDbEntity
  8
SLD-0
  6
Continuous
 62
   179
370
     0
100
AcDbLine
 10
0.0
 20
-5.0
 30
0.0
 11
0.0
 21
-8.5
 31
0.0
  0
LINE
  5
D7
330
CD
100
AcDbEntity
  8
SLD-0
  6
Continuous
 62
   179
370
     0
100
AcDbLine
 10
5.0
 20
0.0
 30
0.0
 11
8.5
 21
0.0
 31
0.0
  0
ENDBLK
  5
CF
330
CD
100
AcDbEntity
  8
0
100
AcDbBlockEnd
  0
BLOCK
  5
263
330
262
100
AcDbEntity
  8
0
100
AcDbBlockBegin
  2
_NONE
 70
     0
 10
0.0
 20
0.0
 30
0.0
  3
_NONE
  1

  0
ENDBLK
  5
264
330
262
100
AcDbEntity
  8
0
100
AcDbBlockEnd
  0
BLOCK
  5
266
330
265
100
AcDbEntity
  8
0
100
AcDbBlockBegin
  2
*D13
 70
     1
 10
0.0
 20
0.0
 30
0.0
  3
*D13
  1

  0
LINE
  5
268
330
265
100
AcDbEntity
  8
SLD-0
 62
   179
100
AcDbLine
 10
63.2437600554
 20
169.8650644306
 30
0.0
 11
60.2437600554
 21
170.6689114306
 31
0.0
  0
LINE
  5
269
330
265
100
AcDbEntity
  8
SLD-0
 62
   179
100
AcDbLine
 10
60.2437600554
 20
170.6689114306
 30
0.0
 11
63.2437600554
 21
171.4727584306
 31
0.0
  0
LINE
  5
26A
330
265
100
AcDbEntity
  8
SLD-0
 62
   179
100
AcDbLine
 10
60.2437600554
 20
170.6689114306
 30
0.0
 11
63.2437600554
 21
170.6689114306
 31
0.0
  0
LINE
  5
26B
330
265
100
AcDbEntity
  8
SLD-0
 62
   179
100
AcDbLine
 10
78.2437600554
 20
171.4727584306
 30
0.0
 11
81.2437600554
 21
170.6689114306
 31
0.0
  0
LINE
  5
26C
330
265
100
AcDbEntity
  8
SLD-0
 62
   179
100
AcDbLine
 10
81.2437600554
 20
170.6689114306
 30
0.0
 11
78.2437600554
 21
169.8650644306
 31
0.0
  0
LINE
  5
26D
330
265
100
AcDbEntity
  8
SLD-0
 62
   179
100
AcDbLine
 10
81.2437600554
 20
170.6689114306
 30
0.0
 11
78.2437600554
 21
170.6689114306
 31
0.0
  0
LINE
  5
26E
330
265
100
AcDbEntity
  8
SLD-0
 62
   179
100
AcDbLine
 10
60.2437600554
 20
159.8260734524
 30
0.0
 11
60.2437600554
 21
171.6689114306
 31
0.0
  0
LINE
  5
26F
330
265
100
AcDbEntity
  8
SLD-0
 62
   179
100
AcDbLine
 10
81.2437600554
 20
139.3260734524
 30
0.0
 11
81.2437600554
 21
171.6689114306
 31
0.0
  0
LINE
  5
270
330
265
100
AcDbEntity
  8
SLD-0
 62
   179
100
AcDbLine
 10
60.2437600554
 20
170.6689114306
 30
0.0
 11
81.2437600554
 21
170.6689114306
 31
0.0
  0
MTEXT
  5
272
330
265
100
AcDbEntity
  8
SLD-0
 62
   179
100
AcDbMText
 10
68.7083139457
 20
174.9998969968
 30
0.1
 40
3.5
 41
0.0
 71
     1
 72
     1
  1
21
  7
SLDTEXTSTYLE1
 73
     1
 44
1.0
  0
ENDBLK
  5
267
330
265
100
AcDbEntity
  8
0
100
AcDbBlockEnd
  0
BLOCK
  5
275
330
274
100
AcDbEntity
  8
0
100
AcDbBlockBegin
  2
*D14
 70
     1
 10
0.0
 20
0.0
 30
0.0
  3
*D14
  1

  0
LINE
  5
277
330
274
100
AcDbEntity
  8
SLD-0
 62
   179
100
AcDbLine
 10
84.2437600554
 20
169.8650644306
 30
0.0
 11
81.2437600554
 21
170.6689114306
 31
0.0
  0
LINE
  5
278
330
274
100
AcDbEntity
  8
SLD-0
 62
   179
100
AcDbLine
 10
81.2437600554
 20
170.6689114306
 30
0.0
 11
84.2437600554
 21
171.4727584306
 31
0.0
  0
LINE
  5
279
330
274
100
AcDbEntity
  8
SLD-0
 62
   179
100
AcDbLine
 10
81.2437600554
 20
170.6689114306
 30
0.0
 11
84.2437600554
 21
170.6689114306
 31
0.0
  0
LINE
  5
27A
330
274
100
AcDbEntity
  8
SLD-0
 62
   179
100
AcDbLine
 10
128.2437600554
 20
171.4727584306
 30
0.0
 11
131.2437600554
 21
170.6689114306
 31
0.0
  0
LINE
  5
27B
330
274
100
AcDbEntity
  8
SLD-0
 62
   179
100
AcDbLine
 10
131.2437600554
 20
170.6689114306
 30
0.0
 11
128.2437600554
 21
169.8650644306
 31
0.0
  0
LINE
  5
27C
330
274
100
AcDbEntity
  8
SLD-0
 62
   179
100
AcDbLine
 10
131.2437600554
 20
170.6689114306
 30
0.0
 11
128.2437600554
 21
170.6689114306
 31
0.0
  0
LINE
  5
27D
330
274
100
AcDbEntity
  8
SLD-0
 62
   179
100
AcDbLine
 10
81.2437600554
 20
139.3260734524
 30
0.0
 11
81.2437600554
 21
171.6689114306
 31
0.0
  0
LINE
  5
27E
330
274
100
AcDbEntity
  8
SLD-0
 62
   179
100
AcDbLine
 10
131.2437600554
 20
139.3260734524
 30
0.0
 11
131.2437600554
 21
171.6689114306
 31
0.0
  0
LINE
  5
27F
330
274
100
AcDbEntity
  8
SLD-0
 62
   179
100
AcDbLine
 10
81.2437600554
 20
170.6689114306
 30
0.0
 11
131.2437600554
 21
170.6689114306
 31
0.0
  0
MTEXT
  5
280
330
274
100
AcDbEntity
  8
SLD-0
 62
   179
100
AcDbMText
 10
104.2083139457
 20
174.9998969968
 30
0.1
 40
3.5
 41
0.0
 71
     1
 72
     1
  1
50
  7
SLDTEXTSTYLE1
 73
     1
 44
1.0
  0
ENDBLK
  5
276
330
274
100
AcDbEntity
  8
0
100
AcDbBlockEnd
  0
BLOCK
  5
283
330
282
100
AcDbEntity
  8
0
100
AcDbBlockBegin
  2
*D15
 70
     1
 10
0.0
 20
0.0
 30
0.0
  3
*D15
  1

  0
LINE
  5
285
330
282
100
AcDbEntity
  8
SLD-0
 62
   179
100
AcDbLine
 10
134.2437600554
 20
169.8650644306
 30
0.0
 11
131.2437600554
 21
170.6689114306
 31
0.0
  0
LINE
  5
286
330
282
100
AcDbEntity
  8
SLD-0
 62
   179
100
AcDbLine
 10
131.2437600554
 20
170.6689114306
 30
0.0
 11
134.2437600554
 21
171.4727584306
 31
0.0
  0
LINE
  5
287
330
282
100
AcDbEntity
  8
SLD-0
 62
   179
100
AcDbLine
 10
131.2437600554
 20
170.6689114306
 30
0.0
 11
134.2437600554
 21
170.6689114306
 31
0.0
  0
LINE
  5
288
330
282
100
AcDbEntity
  8
SLD-0
 62
   179
100
AcDbLine
 10
149.2437600554
 20
171.4727584306
 30
0.0
 11
152.2437600554
 21
170.6689114306
 31
0.0
  0
LINE
  5
289
330
282
100
AcDbEntity
  8
SLD-0
 62
   179
100
AcDbLine
 10
152.2437600554
 20
170.6689114306
 30
0.0
 11
149.2437600554
 21
169.8650644306
 31
0.0
  0
LINE
  5
28A
330
282
100
AcDbEntity
  8
SLD-0
 62
   179
100
AcDbLine
 10
152.2437600554
 20
170.6689114306
 30
0.0
 11
149.2437600554
 21
170.6689114306
 31
0.0
  0
LINE
  5
28B
330
282
100
AcDbEntity
  8
SLD-0
 62
   179
100
AcDbLine
 10
131.2437600554
 20
139.3260734524
 30
0.0
 11
131.2437600554
 21
171.6689114306
 31
0.0
  0
LINE
  5
28C
330
282
100
AcDbEntity
  8
SLD-0
 62
   179
100
AcDbLine
 10
152.2437600554
 20
159.8260734524
 30
0.0
 11
152.2437600554
 21
171.6689114306
 31
0.0
  0
LINE
  5
28D
330
282
100
AcDbEntity
  8
SLD-0
 62
   179
100
AcDbLine
 10
131.2437600554
 20
170.6689114306
 30
0.0
 11
152.2437600554
 21
170.6689114306
 31
0.0
  0
MTEXT
  5
28E
330
282
100
AcDbEntity
  8
SLD-0
 62
   179
100
AcDbMText
 10
139.7083139457
 20
174.9998969968
 30
0.1
 40
3.5
 41
0.0
 71
     1
 72
     1
  1
21
  7
SLDTEXTSTYLE1
 73
     1
 44
1.0
  0
ENDBLK
  5
284
330
282
100
AcDbEntity
  8
0
100
AcDbBlockEnd
  0
BLOCK
  5
291
330
290
100
AcDbEntity
  8
0
100
AcDbBlockBegin
  2
*D16
 70
     1
 10
0.0
 20
0.0
 30
0.0
  3
*D16
  1

  0
LINE
  5
293
330
290
100
AcDbEntity
  8
SLD-0
 62
   179
100
AcDbLine
 10
63.2437600554
 20
183.0510248823
 30
0.0
 11
60.2437600554
 21
183.8548718823
 31
0.0
  0
LINE
  5
294
330
290
100
AcDbEntity
  8
SLD-0
 62
   179
100
AcDbLine
 10
60.2437600554
 20
183.8548718823
 30
0.0
 11
63.2437600554
 21
184.6587188823
 31
0.0
  0
LINE
  5
295
330
290
100
AcDbEntity
  8
SLD-0
 62
   179
100
AcDbLine
 10
60.2437600554
 20
183.8548718823
 30
0.0
 11
63.2437600554
 21
183.8548718823
 31
0.0
  0
LINE
  5
296
330
290
100
AcDbEntity
  8
SLD-0
 62
   179
100
AcDbLine
 10
149.2437600554
 20
184.6587188823
 30
0.0
 11
152.2437600554
 21
183.8548718823
 31
0.0
  0
LINE
  5
297
330
290
100
AcDbEntity
  8
SLD-0
 62
   179
100
AcDbLine
 10
152.2437600554
 20
183.8548718823
 30
0.0
 11
149.2437600554
 21
183.0510248823
 31
0.0
  0
LINE
  5
298
330
290
100
AcDbEntity
  8
SLD-0
 62
   179
100
AcDbLine
 10
152.2437600554
 20
183.8548718823
 30
0.0
 11
149.2437600554
 21
183.8548718823
 31
0.0
  0
LINE
  5
299
330
290
100
AcDbEntity
  8
SLD-0
 62
   179
100
AcDbLine
 10
60.2437600554
 20
159.8260734524
 30
0.0
 11
60.2437600554
 21
184.8548718823
 31
0.0
  0
LINE
  5
29A
330
290
100
AcDbEntity
  8
SLD-0
 62
   179
100
AcDbLine
 10
152.2437600554
 20
159.8260734524
 30
0.0
 11
152.2437600554
 21
184.8548718823
 31
0.0
  0
LINE
  5
29B
330
290
100
AcDbEntity
  8
SLD-0
 62
   179
100
AcDbLine
 10
60.2437600554
 20
183.8548718823
 30
0.0
 11
152.2437600554
 21
183.8548718823
 31
0.0
  0
MTEXT
  5
29C
330
290
100
AcDbEntity
  8
SLD-0
 62
   179
100
AcDbMText
 10
104.2083139457
 20
188.1858574486
 30
0.1
 40
3.5
 41
0.0
 71
     1
 72
     1
  1
92
  7
SLDTEXTSTYLE1
 73
     1
 44
1.0
  0
ENDBLK
  5
292
330
290
100
AcDbEntity
  8
0
100
AcDbBlockEnd
  0
BLOCK
  5
2A0
330
29F
100
AcDbEntity
  8
0
100
AcDbBlockBegin
  2
*D17
 70
     1
 10
0.0
 20
0.0
 30
0.0
  3
*D17
  1

  0
LINE
  5
2A2
330
29F
100
AcDbEntity
  8
SLD-0
 62
   179
100
AcDbLine
 10
39.4399130554
 20
155.8260734524
 30
0.0
 11
40.2437600554
 21
158.8260734524
 31
0.0
  0
LINE
  5
2A3
330
29F
100
AcDbEntity
  8
SLD-0
 62
   179
100
AcDbLine
 10
40.2437600554
 20
158.8260734524
 30
0.0
 11
41.0476070554
 21
155.8260734524
 31
0.0
  0
LINE
  5
2A4
330
29F
100
AcDbEntity
  8
SLD-0
 62
   179
100
AcDbLine
 10
40.2437600554
 20
158.8260734524
 30
0.0
 11
40.2437600554
 21
155.8260734524
 31
0.0
  0
LINE
  5
2A5
330
29F
100
AcDbEntity
  8
SLD-0
 62
   179
100
AcDbLine
 10
41.0476070554
 20
126.3260734524
 30
0.0
 11
40.2437600554
 21
123.3260734524
 31
0.0
  0
LINE
  5
2A6
330
29F
100
AcDbEntity
  8
SLD-0
 62
   179
100
AcDbLine
 10
40.2437600554
 20
123.3260734524
 30
0.0
 11
39.4399130554
 21
126.3260734524
 31
0.0
  0
LINE
  5
2A7
330
29F
100
AcDbEntity
  8
SLD-0
 62
   179
100
AcDbLine
 10
40.2437600554
 20
123.3260734524
 30
0.0
 11
40.2437600554
 21
126.3260734524
 31
0.0
  0
LINE
  5
2A8
330
29F
100
AcDbEntity
  8
SLD-0
 62
   179
100
AcDbLine
 10
59.2437600554
 20
158.8260734524
 30
0.0
 11
39.2437600554
 21
158.8260734524
 31
0.0
  0
LINE
  5
2A9
330
29F
100
AcDbEntity
  8
SLD-0
 62
   179
100
AcDbLine
 10
59.2437600554
 20
123.3260734524
 30
0.0
 11
39.2437600554
 21
123.3260734524
 31
0.0
  0
LINE
  5
2AA
330
29F
100
AcDbEntity
  8
SLD-0
 62
   179
100
AcDbLine
 10
40.2437600554
 20
158.8260734524
 30
0.0
 11
40.2437600554
 21
123.3260734524
 31
0.0
  0
MTEXT
  5
2AB
330
29F
100
AcDbEntity
  8
SLD-0
 62
   179
100
AcDbMText
 10
35.9127744892
 20
137.0036768383
 30
0.1
 40
3.5
 41
0.0
 71
     1
 72
     1
  1
35.5
  7
SLDTEXTSTYLE1
 11
-7.044195017643634E-15
 21
1.0
 31
0.0
 73
     1
 44
1.0
  0
ENDBLK
  5
2A1
330
29F
100
AcDbEntity
  8
0
100
AcDbBlockEnd
  0
BLOCK
  5
2AE
330
2AD
100
AcDbEntity
  8
0
100
AcDbBlockBegin
  2
*D18
 70
     1
 10
0.0
 20
0.0
 30
0.0
  3
*D18
  1

  0
LINE
  5
2B0
330
2AD
100
AcDbEntity
  8
SLD-0
 62
   179
100
AcDbLine
 10
39.4399130554
 20
120.3260734524
 30
0.0
 11
40.2437600554
 21
123.3260734524
 31
0.0
  0
LINE
  5
2B1
330
2AD
100
AcDbEntity
  8
SLD-0
 62
   179
100
AcDbLine
 10
40.2437600554
 20
123.3260734524
 30
0.0
 11
41.0476070554
 21
120.3260734524
 31
0.0
  0
LINE
  5
2B2
330
2AD
100
AcDbEntity
  8
SLD-0
 62
   179
100
AcDbLine
 10
40.2437600554
 20
123.3260734524
 30
0.0
 11
40.2437600554
 21
120.3260734524
 31
0.0
  0
LINE
  5
2B3
330
2AD
100
AcDbEntity
  8
SLD-0
 62
   179
100
AcDbLine
 10
41.0476070554
 20
96.8260734524
 30
0.0
 11
40.2437600554
 21
93.8260734524
 31
0.0
  0
LINE
  5
2B4
330
2AD
100
AcDbEntity
  8
SLD-0
 62
   179
100
AcDbLine
 10
40.2437600554
 20
93.8260734524
 30
0.0
 11
39.4399130554
 21
96.8260734524
 31
0.0
  0
LINE
  5
2B5
330
2AD
100
AcDbEntity
  8
SLD-0
 62
   179
100
AcDbLine
 10
40.2437600554
 20
93.8260734524
 30
0.0
 11
40.2437600554
 21
96.8260734524
 31
0.0
  0
LINE
  5
2B6
330
2AD
100
AcDbEntity
  8
SLD-0
 62
   179
100
AcDbLine
 10
59.2437600554
 20
123.3260734524
 30
0.0
 11
39.2437600554
 21
123.3260734524
 31
0.0
  0
LINE
  5
2B7
330
2AD
100
AcDbEntity
  8
SLD-0
 62
   179
100
AcDbLine
 10
59.2437600554
 20
93.8260734524
 30
0.0
 11
39.2437600554
 21
93.8260734524
 31
0.0
  0
LINE
  5
2B8
330
2AD
100
AcDbEntity
  8
SLD-0
 62
   179
100
AcDbLine
 10
40.2437600554
 20
123.3260734524
 30
0.0
 11
40.2437600554
 21
93.8260734524
 31
0.0
  0
MTEXT
  5
2B9
330
2AD
100
AcDbEntity
  8
SLD-0
 62
   179
100
AcDbMText
 10
35.9127744892
 20
104.5036768383
 30
0.1
 40
3.5
 41
0.0
 71
     1
 72
     1
  1
29.5
  7
SLDTEXTSTYLE1
 11
-7.044195017643634E-15
 21
1.0
 31
0.0
 73
     1
 44
1.0
  0
ENDBLK
  5
2AF
330
2AD
100
AcDbEntity
  8
0
100
AcDbBlockEnd
  0
BLOCK
  5
2BC
330
2BB
100
AcDbEntity
  8
0
100
AcDbBlockBegin
  2
*D19
 70
     1
 10
0.0
 20
0.0
 30
0.0
  3
*D19
  1

  0
LINE
  5
2BE
330
2BB
100
AcDbEntity
  8
SLD-0
 62
   179
100
AcDbLine
 10
26.8334428646
 20
96.8260734524
 30
0.0
 11
26.0295958646
 21
93.8260734524
 31
0.0
  0
LINE
  5
2BF
330
2BB
100
AcDbEntity
  8
SLD-0
 62
   179
100
AcDbLine
 10
26.0295958646
 20
93.8260734524
 30
0.0
 11
25.2257488646
 21
96.8260734524
 31
0.0
  0
LINE
  5
2C0
330
2BB
100
AcDbEntity
  8
SLD-0
 62
   179
100
AcDbLine
 10
26.0295958646
 20
93.8260734524
 30
0.0
 11
26.0295958646
 21
96.8260734524
 31
0.0
  0
LINE
  5
2C1
330
2BB
100
AcDbEntity
  8
SLD-0
 62
   179
100
AcDbLine
 10
25.2257488646
 20
155.8260734524
 30
0.0
 11
26.0295958646
 21
158.8260734524
 31
0.0
  0
LINE
  5
2C2
330
2BB
100
AcDbEntity
  8
SLD-0
 62
   179
100
AcDbLine
 10
26.0295958646
 20
158.8260734524
 30
0.0
 11
26.8334428646
 21
155.8260734524
 31
0.0
  0
LINE
  5
2C3
330
2BB
100
AcDbEntity
  8
SLD-0
 62
   179
100
AcDbLine
 10
26.0295958646
 20
158.8260734524
 30
0.0
 11
26.0295958646
 21
155.8260734524
 31
0.0
  0
LINE
  5
2C4
330
2BB
100
AcDbEntity
  8
SLD-0
 62
   179
100
AcDbLine
 10
59.2437600554
 20
93.8260734524
 30
0.0
 11
25.0295958646
 21
93.8260734524
 31
0.0
  0
LINE
  5
2C5
330
2BB
100
AcDbEntity
  8
SLD-0
 62
   179
100
AcDbLine
 10
59.2437600554
 20
158.8260734524
 30
0.0
 11
25.0295958646
 21
158.8260734524
 31
0.0
  0
LINE
  5
2C6
330
2BB
100
AcDbEntity
  8
SLD-0
 62
   179
100
AcDbLine
 10
26.0295958646
 20
93.8260734524
 30
0.0
 11
26.0295958646
 21
158.8260734524
 31
0.0
  0
MTEXT
  5
2C7
330
2BB
100
AcDbEntity
  8
SLD-0
 62
   179
100
AcDbMText
 10
21.6986102984
 20
124.2906273427
 30
0.1
 40
3.5
 41
0.0
 71
     1
 72
     1
  1
65
  7
SLDTEXTSTYLE1
 11
6.123233995736766E-17
 21
1.0
 31
0.0
 73
     1
 44
1.0
  0
ENDBLK
  5
2BD
330
2BB
100
AcDbEntity
  8
0
100
AcDbBlockEnd
  0
BLOCK
  5
2CA
330
2C9
100
AcDbEntity
  8
0
100
AcDbBlockBegin
  2
*D20
 70
     1
 10
0.0
 20
0.0
 30
0.0
  3
*D20
  1

  0
LINE
  5
2CC
330
2C9
100
AcDbEntity
  8
SLD-0
 62
   179
100
AcDbLine
 10
57.2437600554
 20
82.4958996558
 30
0.0
 11
60.2437600554
 21
81.6920526558
 31
0.0
  0
LINE
  5
2CD
330
2C9
100
AcDbEntity
  8
SLD-0
 62
   179
100
AcDbLine
 10
60.2437600554
 20
81.6920526558
 30
0.0
 11
57.2437600554
 21
80.8882056558
 31
0.0
  0
LINE
  5
2CE
330
2C9
100
AcDbEntity
  8
SLD-0
 62
   179
100
AcDbLine
 10
60.2437600554
 20
81.6920526558
 30
0.0
 11
57.2437600554
 21
81.6920526558
 31
0.0
  0
LINE
  5
2CF
330
2C9
100
AcDbEntity
  8
SLD-0
 62
   179
100
AcDbLine
 10
71.7437600554
 20
80.8882056558
 30
0.0
 11
68.7437600554
 21
81.6920526558
 31
0.0
  0
LINE
  5
2D0
330
2C9
100
AcDbEntity
  8
SLD-0
 62
   179
100
AcDbLine
 10
68.7437600554
 20
81.6920526558
 30
0.0
 11
71.7437600554
 21
82.4958996558
 31
0.0
  0
LINE
  5
2D1
330
2C9
100
AcDbEntity
  8
SLD-0
 62
   179
100
AcDbLine
 10
68.7437600554
 20
81.6920526558
 30
0.0
 11
71.7437600554
 21
81.6920526558
 31
0.0
  0
LINE
  5
2D2
330
2C9
100
AcDbEntity
  8
SLD-0
 62
   179
100
AcDbLine
 10
60.2437600554
 20
92.8260734524
 30
0.0
 11
60.2437600554
 21
80.6920526558
 31
0.0
  0
LINE
  5
2D3
330
2C9
100
AcDbEntity
  8
SLD-0
 62
   179
100
AcDbLine
 10
68.7437600554
 20
113.8260734524
 30
0.0
 11
68.7437600554
 21
80.6920526558
 31
0.0
  0
LINE
  5
2D4
330
2C9
100
AcDbEntity
  8
SLD-0
 62
   179
100
AcDbLine
 10
60.2437600554
 20
81.6920526558
 30
0.0
 11
48.6289285869
 21
81.6920526558
 31
0.0
  0
LINE
  5
2D5
330
2C9
100
AcDbEntity
  8
SLD-0
 62
   179
100
AcDbLine
 10
60.2437600554
 20
81.6920526558
 30
0.0
 11
68.7437600554
 21
81.6920526558
 31
0.0
  0
LINE
  5
2D6
330
2C9
100
AcDbEntity
  8
SLD-0
 62
   179
100
AcDbLine
 10
68.7437600554
 20
81.6920526558
 30
0.0
 11
73.7437600554
 21
81.6920526558
 31
0.0
  0
MTEXT
  5
2D7
330
2C9
100
AcDbEntity
  8
SLD-0
 62
   179
100
AcDbMText
 10
50.2164285869
 20
86.023038222
 30
0.1
 40
3.5
 41
0.0
 71
     1
 72
     1
  1
8.5
  7
SLDTEXTSTYLE1
 73
     1
 44
1.0
  0
ENDBLK
  5
2CB
330
2C9
100
AcDbEntity
  8
0
100
AcDbBlockEnd
  0
BLOCK
  5
2DA
330
2D9
100
AcDbEntity
  8
0
100
AcDbBlockBegin
  2
*D21
 70
     1
 10
0.0
 20
0.0
 30
0.0
  3
*D21
  1

  0
LINE
  5
2DC
330
2D9
100
AcDbEntity
  8
SLD-0
 62
   179
100
AcDbLine
 10
71.7437600554
 20
80.8882056558
 30
0.0
 11
68.7437600554
 21
81.6920526558
 31
0.0
  0
LINE
  5
2DD
330
2D9
100
AcDbEntity
  8
SLD-0
 62
   179
100
AcDbLine
 10
68.7437600554
 20
81.6920526558
 30
0.0
 11
71.7437600554
 21
82.4958996558
 31
0.0
  0
LINE
  5
2DE
330
2D9
100
AcDbEntity
  8
SLD-0
 62
   179
100
AcDbLine
 10
68.7437600554
 20
81.6920526558
 30
0.0
 11
71.7437600554
 21
81.6920526558
 31
0.0
  0
LINE
  5
2DF
330
2D9
100
AcDbEntity
  8
SLD-0
 62
   179
100
AcDbLine
 10
140.7437600554
 20
82.4958996558
 30
0.0
 11
143.7437600554
 21
81.6920526558
 31
0.0
  0
LINE
  5
2E0
330
2D9
100
AcDbEntity
  8
SLD-0
 62
   179
100
AcDbLine
 10
143.7437600554
 20
81.6920526558
 30
0.0
 11
140.7437600554
 21
80.8882056558
 31
0.0
  0
LINE
  5
2E1
330
2D9
100
AcDbEntity
  8
SLD-0
 62
   179
100
AcDbLine
 10
143.7437600554
 20
81.6920526558
 30
0.0
 11
140.7437600554
 21
81.6920526558
 31
0.0
  0
LINE
  5
2E2
330
2D9
100
AcDbEntity
  8
SLD-0
 62
   179
100
AcDbLine
 10
68.7437600554
 20
113.8260734524
 30
0.0
 11
68.7437600554
 21
80.6920526558
 31
0.0
  0
LINE
  5
2E3
330
2D9
100
AcDbEntity
  8
SLD-0
 62
   179
100
AcDbLine
 10
143.7437600554
 20
113.8260734524
 30
0.0
 11
143.7437600554
 21
80.6920526558
 31
0.0
  0
LINE
  5
2E4
330
2D9
100
AcDbEntity
  8
SLD-0
 62
   179
100
AcDbLine
 10
68.7437600554
 20
81.6920526558
 30
0.0
 11
143.7437600554
 21
81.6920526558
 31
0.0
  0
MTEXT
  5
2E5
330
2D9
100
AcDbEntity
  8
SLD-0
 62
   179
100
AcDbMText
 10
104.2083139457
 20
86.023038222
 30
0.1
 40
3.5
 41
0.0
 71
     1
 72
     1
  1
75
  7
SLDTEXTSTYLE1
 73
     1
 44
1.0
  0
ENDBLK
  5
2DB
330
2D9
100
AcDbEntity
  8
0
100
AcDbBlockEnd
  0
BLOCK
  5
2E8
330
2E7
100
AcDbEntity
  8
0
100
AcDbBlockBegin
  2
*D22
 70
     1
 10
0.0
 20
0.0
 30
0.0
  3
*D22
  1

  0
LINE
  5
2EA
330
2E7
100
AcDbEntity
  8
SLD-0
 62
   179
100
AcDbLine
 10
140.7437600554
 20
82.4958996558
 30
0.0
 11
143.7437600554
 21
81.6920526558
 31
0.0
  0
LINE
  5
2EB
330
2E7
100
AcDbEntity
  8
SLD-0
 62
   179
100
AcDbLine
 10
143.7437600554
 20
81.6920526558
 30
0.0
 11
140.7437600554
 21
80.8882056558
 31
0.0
  0
LINE
  5
2EC
330
2E7
100
AcDbEntity
  8
SLD-0
 62
   179
100
AcDbLine
 10
143.7437600554
 20
81.6920526558
 30
0.0
 11
140.7437600554
 21
81.6920526558
 31
0.0
  0
LINE
  5
2ED
330
2E7
100
AcDbEntity
  8
SLD-0
 62
   179
100
AcDbLine
 10
155.2437600554
 20
80.8882056558
 30
0.0
 11
152.2437600554
 21
81.6920526558
 31
0.0
  0
LINE
  5
2EE
330
2E7
100
AcDbEntity
  8
SLD-0
 62
   179
100
AcDbLine
 10
152.2437600554
 20
81.6920526558
 30
0.0
 11
155.2437600554
 21
82.4958996558
 31
0.0
  0
LINE
  5
2EF
330
2E7
100
AcDbEntity
  8
SLD-0
 62
   179
100
AcDbLine
 10
152.2437600554
 20
81.6920526558
 30
0.0
 11
155.2437600554
 21
81.6920526558
 31
0.0
  0
LINE
  5
2F0
330
2E7
100
AcDbEntity
  8
SLD-0
 62
   179
100
AcDbLine
 10
143.7437600554
 20
113.8260734524
 30
0.0
 11
143.7437600554
 21
80.6920526558
 31
0.0
  0
LINE
  5
2F1
330
2E7
100
AcDbEntity
  8
SLD-0
 62
   179
100
AcDbLine
 10
152.2437600554
 20
92.8260734524
 30
0.0
 11
152.2437600554
 21
80.6920526558
 31
0.0
  0
LINE
  5
2F2
330
2E7
100
AcDbEntity
  8
SLD-0
 62
   179
100
AcDbLine
 10
143.7437600554
 20
81.6920526558
 30
0.0
 11
138.7437600554
 21
81.6920526558
 31
0.0
  0
LINE
  5
2F3
330
2E7
100
AcDbEntity
  8
SLD-0
 62
   179
100
AcDbLine
 10
143.7437600554
 20
81.6920526558
 30
0.0
 11
152.2437600554
 21
81.6920526558
 31
0.0
  0
LINE
  5
2F4
330
2E7
100
AcDbEntity
  8
SLD-0
 62
   179
100
AcDbLine
 10
152.2437600554
 20
81.6920526558
 30
0.0
 11
165.0785602135
 21
81.6920526558
 31
0.0
  0
MTEXT
  5
2F5
330
2E7
100
AcDbEntity
  8
SLD-0
 62
   179
100
AcDbMText
 10
157.3832174897
 20
86.023038222
 30
0.1
 40
3.5
 41
0.0
 71
     1
 72
     1
  1
8.5
  7
SLDTEXTSTYLE1
 73
     1
 44
1.0
  0
ENDBLK
  5
2E9
330
2E7
100
AcDbEntity
  8
0
100
AcDbBlockEnd
  0
BLOCK
  5
2F8
330
2F7
100
AcDbEntity
  8
0
100
AcDbBlockBegin
  2
*D23
 70
     1
 10
0.0
 20
0.0
 30
0.0
  3
*D23
  1

  0
LINE
  5
2FA
330
2F7
100
AcDbEntity
  8
SLD-0
 62
   179
100
AcDbLine
 10
180.444772719
 20
155.8260734524
 30
0.0
 11
181.248619719
 21
158.8260734524
 31
0.0
  0
LINE
  5
2FB
330
2F7
100
AcDbEntity
  8
SLD-0
 62
   179
100
AcDbLine
 10
181.248619719
 20
158.8260734524
 30
0.0
 11
182.052466719
 21
155.8260734524
 31
0.0
  0
LINE
  5
2FC
330
2F7
100
AcDbEntity
  8
SLD-0
 62
   179
100
AcDbLine
 10
181.248619719
 20
158.8260734524
 30
0.0
 11
181.248619719
 21
155.8260734524
 31
0.0
  0
LINE
  5
2FD
330
2F7
100
AcDbEntity
  8
SLD-0
 62
   179
100
AcDbLine
 10
182.052466719
 20
136.3260734524
 30
0.0
 11
181.248619719
 21
133.3260734524
 31
0.0
  0
LINE
  5
2FE
330
2F7
100
AcDbEntity
  8
SLD-0
 62
   179
100
AcDbLine
 10
181.248619719
 20
133.3260734524
 30
0.0
 11
180.444772719
 21
136.3260734524
 31
0.0
  0
LINE
  5
2FF
330
2F7
100
AcDbEntity
  8
SLD-0
 62
   179
100
AcDbLine
 10
181.248619719
 20
133.3260734524
 30
0.0
 11
181.248619719
 21
136.3260734524
 31
0.0
  0
LINE
  5
300
330
2F7
100
AcDbEntity
  8
SLD-0
 62
   179
100
AcDbLine
 10
153.2437600554
 20
158.8260734524
 30
0.0
 11
182.248619719
 21
158.8260734524
 31
0.0
  0
LINE
  5
301
330
2F7
100
AcDbEntity
  8
SLD-0
 62
   179
100
AcDbLine
 10
137.2437600554
 20
133.3260734524
 30
0.0
 11
182.248619719
 21
133.3260734524
 31
0.0
  0
LINE
  5
302
330
2F7
100
AcDbEntity
  8
SLD-0
 62
   179
100
AcDbLine
 10
181.248619719
 20
158.8260734524
 30
0.0
 11
181.248619719
 21
133.3260734524
 31
0.0
  0
MTEXT
  5
303
330
2F7
100
AcDbEntity
  8
SLD-0
 62
   179
100
AcDbMText
 10
176.9176341527
 20
142.0036768383
 30
0.1
 40
3.5
 41
0.0
 71
     1
 72
     1
  1
25.5
  7
SLDTEXTSTYLE1
 11
-7.044195017643634E-15
 21
1.0
 31
0.0
 73
     1
 44
1.0
  0
ENDBLK
  5
2F9
330
2F7
100
AcDbEntity
  8
0
100
AcDbBlockEnd
  0
BLOCK
  5
306
330
305
100
AcDbEntity
  8
0
100
AcDbBlockBegin
  2
*D24
 70
     1
 10
0.0
 20
0.0
 30
0.0
  3
*D24
  1

  0
LINE
  5
308
330
305
100
AcDbEntity
  8
SLD-0
 62
   179
100
AcDbLine
 10
180.444772719
 20
130.3260734524
 30
0.0
 11
181.248619719
 21
133.3260734524
 31
0.0
  0
LINE
  5
309
330
305
100
AcDbEntity
  8
SLD-0
 62
   179
100
AcDbLine
 10
181.248619719
 20
133.3260734524
 30
0.0
 11
182.052466719
 21
130.3260734524
 31
0.0
  0
LINE
  5
30A
330
305
100
AcDbEntity
  8
SLD-0
 62
   179
100
AcDbLine
 10
181.248619719
 20
133.3260734524
 30
0.0
 11
181.248619719
 21
130.3260734524
 31
0.0
  0
LINE
  5
30B
330
305
100
AcDbEntity
  8
SLD-0
 62
   179
100
AcDbLine
 10
182.052466719
 20
116.3260734524
 30
0.0
 11
181.248619719
 21
113.3260734524
 31
0.0
  0
LINE
  5
30C
330
305
100
AcDbEntity
  8
SLD-0
 62
   179
100
AcDbLine
 10
181.248619719
 20
113.3260734524
 30
0.0
 11
180.444772719
 21
116.3260734524
 31
0.0
  0
LINE
  5
30D
330
305
100
AcDbEntity
  8
SLD-0
 62
   179
100
AcDbLine
 10
181.248619719
 20
113.3260734524
 30
0.0
 11
181.248619719
 21
116.3260734524
 31
0.0
  0
LINE
  5
30E
330
305
100
AcDbEntity
  8
SLD-0
 62
   179
100
AcDbLine
 10
137.2437600554
 20
133.3260734524
 30
0.0
 11
182.248619719
 21
133.3260734524
 31
0.0
  0
LINE
  5
30F
330
305
100
AcDbEntity
  8
SLD-0
 62
   179
100
AcDbLine
 10
137.2437600554
 20
113.3260734524
 30
0.0
 11
182.248619719
 21
113.3260734524
 31
0.0
  0
LINE
  5
310
330
305
100
AcDbEntity
  8
SLD-0
 62
   179
100
AcDbLine
 10
181.248619719
 20
133.3260734524
 30
0.0
 11
181.248619719
 21
113.3260734524
 31
0.0
  0
MTEXT
  5
311
330
305
100
AcDbEntity
  8
SLD-0
 62
   179
100
AcDbMText
 10
176.9176341527
 20
121.2906273427
 30
0.1
 40
3.5
 41
0.0
 71
     1
 72
     1
  1
20
  7
SLDTEXTSTYLE1
 11
-7.044195017643634E-15
 21
1.0
 31
0.0
 73
     1
 44
1.0
  0
ENDBLK
  5
307
330
305
100
AcDbEntity
  8
0
100
AcDbBlockEnd
  0
BLOCK
  5
314
330
313
100
AcDbEntity
  8
0
100
AcDbBlockBegin
  2
*D25
 70
     1
 10
0.0
 20
0.0
 30
0.0
  3
*D25
  1

  0
LINE
  5
316
330
313
100
AcDbEntity
  8
SLD-0
 62
   179
100
AcDbLine
 10
182.052466719
 20
116.3260734524
 30
0.0
 11
181.248619719
 21
113.3260734524
 31
0.0
  0
LINE
  5
317
330
313
100
AcDbEntity
  8
SLD-0
 62
   179
100
AcDbLine
 10
181.248619719
 20
113.3260734524
 30
0.0
 11
180.444772719
 21
116.3260734524
 31
0.0
  0
LINE
  5
318
330
313
100
AcDbEntity
  8
SLD-0
 62
   179
100
AcDbLine
 10
181.248619719
 20
113.3260734524
 30
0.0
 11
181.248619719
 21
116.3260734524
 31
0.0
  0
LINE
  5
319
330
313
100
AcDbEntity
  8
SLD-0
 62
   179
100
AcDbLine
 10
180.444772719
 20
90.8260734524
 30
0.0
 11
181.248619719
 21
93.8260734524
 31
0.0
  0
LINE
  5
31A
330
313
100
AcDbEntity
  8
SLD-0
 62
   179
100
AcDbLine
 10
181.248619719
 20
93.8260734524
 30
0.0
 11
182.052466719
 21
90.8260734524
 31
0.0
  0
LINE
  5
31B
330
313
100
AcDbEntity
  8
SLD-0
 62
   179
100
AcDbLine
 10
181.248619719
 20
93.8260734524
 30
0.0
 11
181.248619719
 21
90.8260734524
 31
0.0
  0
LINE
  5
31C
330
313
100
AcDbEntity
  8
SLD-0
 62
   179
100
AcDbLine
 10
137.2437600554
 20
113.3260734524
 30
0.0
 11
182.248619719
 21
113.3260734524
 31
0.0
  0
LINE
  5
31D
330
313
100
AcDbEntity
  8
SLD-0
 62
   179
100
AcDbLine
 10
153.2437600554
 20
93.8260734524
 30
0.0
 11
182.248619719
 21
93.8260734524
 31
0.0
  0
LINE
  5
31E
330
313
100
AcDbEntity
  8
SLD-0
 62
   179
100
AcDbLine
 10
181.248619719
 20
113.3260734524
 30
0.0
 11
181.248619719
 21
118.3260734524
 31
0.0
  0
LINE
  5
31F
330
313
100
AcDbEntity
  8
SLD-0
 62
   179
100
AcDbLine
 10
181.248619719
 20
113.3260734524
 30
0.0
 11
181.248619719
 21
93.8260734524
 31
0.0
  0
LINE
  5
320
330
313
100
AcDbEntity
  8
SLD-0
 62
   179
100
AcDbLine
 10
181.248619719
 20
93.8260734524
 30
0.0
 11
181.248619719
 21
88.8260734524
 31
0.0
  0
MTEXT
  5
321
330
313
100
AcDbEntity
  8
SLD-0
 62
   179
100
AcDbMText
 10
176.9176341527
 20
99.5036768383
 30
0.1
 40
3.5
 41
0.0
 71
     1
 72
     1
  1
19.5
  7
SLDTEXTSTYLE1
 11
-7.044195017643634E-15
 21
1.0
 31
0.0
 73
     1
 44
1.0
  0
ENDBLK
  5
315
330
313
100
AcDbEntity
  8
0
100
AcDbBlockEnd
  0
BLOCK
  5
325
330
324
100
AcDbEntity
  8
0
100
AcDbBlockBegin
  2
*D26
 70
     1
 10
0.0
 20
0.0
 30
0.0
  3
*D26
  1

  0
LINE
  5
327
330
324
100
AcDbEntity
  8
SLD-0
 62
   179
100
AcDbLine
 10
132.8371441851
 20
138.6512304467
 30
0.0
 11
131.6065073829
 21
135.7996163318
 31
0.0
  0
LINE
  5
328
330
324
100
AcDbEntity
  8
SLD-0
 62
   179
100
AcDbLine
 10
131.6065073829
 20
135.7996163318
 30
0.0
 11
131.2464641667
 21
138.8845051275
 31
0.0
  0
LINE
  5
329
330
324
100
AcDbEntity
  8
SLD-0
 62
   179
100
AcDbLine
 10
131.6065073829
 20
135.7996163318
 30
0.0
 11
132.0418041759
 21
138.7678677871
 31
0.0
  0
LINE
  5
32A
330
324
100
AcDbEntity
  8
SLD-0
 62
   179
100
AcDbLine
 10
131.6065073829
 20
135.7996163318
 30
0.0
 11
140.1495816732
 21
194.0541063834
 31
0.0
  0
LINE
  5
32B
330
324
100
AcDbEntity
  8
SLD-0
 62
   179
100
AcDbLine
 10
140.1495816732
 20
194.0541063834
 30
0.0
 11
193.7928762007
 21
194.0541063834
 31
0.0
  0
MTEXT
  5
32C
330
324
100
AcDbEntity
  8
SLD-0
 62
   179
100
AcDbMText
 10
143.3245816732
 20
198.3850919497
 30
0.1
 40
3.5
 41
0.0
 71
     1
 72
     1
  1
4-M6(ツール取付用タップ)
  7
SLDTEXTSTYLE1
 73
     1
 44
1.0
  0
ENDBLK
  5
326
330
324
100
AcDbEntity
  8
0
100
AcDbBlockEnd
  0
BLOCK
  5
32F
330
32E
100
AcDbEntity
  8
0
100
AcDbBlockBegin
  2
*D27
 70
     1
 10
0.0
 20
0.0
 30
0.0
  3
*D27
  1

  0
LINE
  5
331
330
32E
100
AcDbEntity
  8
SLD-0
 62
   179
100
AcDbLine
 10
35.1728286298
 20
232.1014685588
 30
0.0
 11
35.9766756298
 21
235.1014685588
 31
0.0
  0
LINE
  5
332
330
32E
100
AcDbEntity
  8
SLD-0
 62
   179
100
AcDbLine
 10
35.9766756298
 20
235.1014685588
 30
0.0
 11
36.7805226298
 21
232.1014685588
 31
0.0
  0
LINE
  5
333
330
32E
100
AcDbEntity
  8
SLD-0
 62
   179
100
AcDbLine
 10
35.9766756298
 20
235.1014685588
 30
0.0
 11
35.9766756298
 21
232.1014685588
 31
0.0
  0
LINE
  5
334
330
32E
100
AcDbEntity
  8
SLD-0
 62
   179
100
AcDbLine
 10
36.7805226298
 20
217.6014685588
 30
0.0
 11
35.9766756298
 21
214.6014685588
 31
0.0
  0
LINE
  5
335
330
32E
100
AcDbEntity
  8
SLD-0
 62
   179
100
AcDbLine
 10
35.9766756298
 20
214.6014685588
 30
0.0
 11
35.1728286298
 21
217.6014685588
 31
0.0
  0
LINE
  5
336
330
32E
100
AcDbEntity
  8
SLD-0
 62
   179
100
AcDbLine
 10
35.9766756298
 20
214.6014685588
 30
0.0
 11
35.9766756298
 21
217.6014685588
 31
0.0
  0
LINE
  5
337
330
32E
100
AcDbEntity
  8
SLD-0
 62
   179
100
AcDbLine
 10
66.7437600554
 20
235.1014685588
 30
0.0
 11
34.9766756298
 21
235.1014685588
 31
0.0
  0
LINE
  5
338
330
32E
100
AcDbEntity
  8
SLD-0
 62
   179
100
AcDbLine
 10
59.2437600554
 20
214.6014685588
 30
0.0
 11
34.9766756298
 21
214.6014685588
 31
0.0
  0
LINE
  5
339
330
32E
100
AcDbEntity
  8
SLD-0
 62
   179
100
AcDbLine
 10
35.9766756298
 20
235.1014685588
 30
0.0
 11
35.9766756298
 21
214.6014685588
 31
0.0
  0
MTEXT
  5
33A
330
32E
100
AcDbEntity
  8
SLD-0
 62
   179
100
AcDbMText
 10
31.6456900635
 20
222.8160224491
 30
0.1
 40
3.5
 41
0.0
 71
     1
 72
     1
  1
21
  7
SLDTEXTSTYLE1
 11
-7.044195017643634E-15
 21
1.0
 31
0.0
 73
     1
 44
1.0
  0
ENDBLK
  5
330
330
32E
100
AcDbEntity
  8
0
100
AcDbBlockEnd
  0
BLOCK
  5
33D
330
33C
100
AcDbEntity
  8
0
100
AcDbBlockBegin
  2
*D28
 70
     1
 10
0.0
 20
0.0
 30
0.0
  3
*D28
  1

  0
LINE
  5
33F
330
33C
100
AcDbEntity
  8
SLD-0
 62
   179
100
AcDbLine
 10
42.9399836856
 20
226.6014685588
 30
0.0
 11
43.7438306856
 21
229.6014685588
 31
0.0
  0
LINE
  5
340
330
33C
100
AcDbEntity
  8
SLD-0
 62
   179
100
AcDbLine
 10
43.7438306856
 20
229.6014685588
 30
0.0
 11
44.5476776856
 21
226.6014685588
 31
0.0
  0
LINE
  5
341
330
33C
100
AcDbEntity
  8
SLD-0
 62
   179
100
AcDbLine
 10
43.7438306856
 20
229.6014685588
 30
0.0
 11
43.7438306856
 21
226.6014685588
 31
0.0
  0
LINE
  5
342
330
33C
100
AcDbEntity
  8
SLD-0
 62
   179
100
AcDbLine
 10
44.5476776856
 20
217.6014685588
 30
0.0
 11
43.7438306856
 21
214.6014685588
 31
0.0
  0
LINE
  5
343
330
33C
100
AcDbEntity
  8
SLD-0
 62
   179
100
AcDbLine
 10
43.7438306856
 20
214.6014685588
 30
0.0
 11
42.9399836856
 21
217.6014685588
 31
0.0
  0
LINE
  5
344
330
33C
100
AcDbEntity
  8
SLD-0
 62
   179
100
AcDbLine
 10
43.7438306856
 20
214.6014685588
 30
0.0
 11
43.7438306856
 21
217.6014685588
 31
0.0
  0
LINE
  5
345
330
33C
100
AcDbEntity
  8
SLD-0
 62
   179
100
AcDbLine
 10
59.2437600554
 20
229.6014685588
 30
0.0
 11
42.7438306856
 21
229.6014685588
 31
0.0
  0
LINE
  5
346
330
33C
100
AcDbEntity
  8
SLD-0
 62
   179
100
AcDbLine
 10
59.2437600554
 20
214.6014685588
 30
0.0
 11
42.7438306856
 21
214.6014685588
 31
0.0
  0
LINE
  5
347
330
33C
100
AcDbEntity
  8
SLD-0
 62
   179
100
AcDbLine
 10
43.7438306856
 20
229.6014685588
 30
0.0
 11
43.7438306856
 21
214.6014685588
 31
0.0
  0
MTEXT
  5
348
330
33C
100
AcDbEntity
  8
SLD-0
 62
   179
100
AcDbMText
 10
39.4128451193
 20
220.0660224491
 30
0.1
 40
3.5
 41
0.0
 71
     1
 72
     1
  1
15
  7
SLDTEXTSTYLE1
 11
-7.044195017643634E-15
 21
1.0
 31
0.0
 73
     1
 44
1.0
  0
ENDBLK
  5
33E
330
33C
100
AcDbEntity
  8
0
100
AcDbBlockEnd
  0
ENDSEC
  0
SECTION
  2
ENTITIES
  0
VIEWPORT
  5
D8
330
1B
100
AcDbEntity
 67
     1
  8
0
100
AcDbViewport
 10
105.0
 20
148.5
 30
0.0
 40
222.18
 41
314.226
 68
     1
 69
     1
 12
105.0
 22
148.5
 13
0.0
 23
0.0
 14
10.0
 24
10.0
 15
10.0
 25
10.0
 16
0.0
 26
0.0
 36
1.0
 17
0.0
 27
0.0
 37
0.0
 42
50.0
 43
0.0
 44
0.0
 45
314.226
 50
0.0
 51
0.0
 72
   100
 90
   557152
  1

281
     0
 71
     1
 74
     0
110
0.0
120
0.0
130
0.0
111
1.0
121
0.0
131
0.0
112
0.0
122
1.0
132
0.0
 79
     0
146
0.0
  0
LINE
  5
D9
330
1B
100
AcDbEntity
 67
     1
  8
SLD-0
  6
Continuous
 62
   179
370
     0
100
AcDbLine
 10
20.2604743903
 20
285.0
 30
0.0
 11
196.7604743903
 21
285.0
 31
0.0
  0
LINE
  5
DA
330
1B
100
AcDbEntity
 67
     1
  8
SLD-0
  6
Continuous
 62
   179
370
     0
100
AcDbLine
 10
20.2604743903
 20
285.0
 30
0.0
 11
20.2604743903
 21
10.0
 31
0.0
  0
LINE
  5
DB
330
1B
100
AcDbEntity
 67
     1
  8
SLD-0
  6
Continuous
 62
   179
370
     0
100
AcDbLine
 10
20.2604743903
 20
10.0
 30
0.0
 11
196.7604743903
 21
10.0
 31
0.0
  0
LINE
  5
DC
330
1B
100
AcDbEntity
 67
     1
  8
SLD-0
  6
Continuous
 62
   179
370
     0
100
AcDbLine
 10
196.7604743903
 20
285.0
 30
0.0
 11
196.7604743903
 21
10.0
 31
0.0
  0
LINE
  5
DD
330
1B
100
AcDbEntity
 67
     1
  8
SLD-0
  6
Continuous
 62
   179
370
     0
100
AcDbLine
 10
127.0104743903
 20
50.75
 30
0.0
 11
196.7604743903
 21
50.75
 31
0.0
  0
LINE
  5
DE
330
1B
100
AcDbEntity
 67
     1
  8
SLD-0
  6
Continuous
 62
   179
370
     0
100
AcDbLine
 10
127.0104743903
 20
50.75
 30
0.0
 11
127.0104743903
 21
10.0
 31
0.0
  0
LINE
  5
DF
330
1B
100
AcDbEntity
 67
     1
  8
SLD-0
  6
Continuous
 62
   179
370
     0
100
AcDbLine
 10
127.0104743903
 20
22.75
 30
0.0
 11
196.7604743903
 21
22.75
 31
0.0
  0
LINE
  5
E0
330
1B
100
AcDbEntity
 67
     1
  8
SLD-0
  6
Continuous
 62
   179
370
     0
100
AcDbLine
 10
127.0104743903
 20
36.75
 30
0.0
 11
196.7604743903
 21
36.75
 31
0.0
  0
LINE
  5
E1
330
1B
100
AcDbEntity
 67
     1
  8
SLD-0
  6
Continuous
 62
   179
370
     0
100
AcDbLine
 10
162.2437600554
 20
100.2902609343
 30
0.0
 11
170.5634909098
 21
100.2902609343
 31
0.0
  0
LINE
  5
E2
330
1B
100
AcDbEntity
 67
     1
  8
SLD-0
  6
Continuous
 62
   179
370
     0
100
AcDbLine
 10
50.2437600554
 20
100.1032565615
 30
0.0
 11
44.0064772157
 21
100.1032565615
 31
0.0
  0
LINE
  5
E3
330
1B
100
AcDbEntity
 67
     1
  8
SLD-0
  6
Continuous
 62
   179
370
     0
100
AcDbLine
 10
159.7437587329
 20
97.5010734031
 30
0.0
 11
160.7437607595
 21
98.3260736314
 31
0.0
  0
LINE
  5
E4
330
1B
100
AcDbEntity
 67
     1
  8
SLD-0
  6
Continuous
 62
   179
370
     0
100
AcDbLine
 10
160.7437607595
 20
102.3260738214
 30
0.0
 11
159.7437587329
 21
103.151073817
 31
0.0
  0
LINE
  5
E5
330
1B
100
AcDbEntity
 67
     1
  8
SLD-0
  6
Continuous
 62
   179
370
     0
100
AcDbLine
 10
156.7437601038
 20
97.5010734031
 30
0.0
 11
157.7437584051
 21
98.3260736314
 31
0.0
  0
LINE
  5
E6
330
1B
100
AcDbEntity
 67
     1
  8
SLD-0
  6
Continuous
 62
   179
370
     0
100
AcDbLine
 10
157.7437584051
 20
102.3260738214
 30
0.0
 11
156.7437601038
 21
103.151073817
 31
0.0
  0
LINE
  5
E7
330
1B
100
AcDbEntity
 67
     1
  8
SLD-0
  6
Continuous
 62
   179
370
     0
100
AcDbLine
 10
157.7437584051
 20
98.3260736314
 30
0.0
 11
159.7437587329
 21
98.3260736314
 31
0.0
  0
LINE
  5
E8
330
1B
100
AcDbEntity
 67
     1
  8
SLD-0
  6
Continuous
 62
   179
370
     0
100
AcDbLine
 10
159.7437587329
 20
102.3260738214
 30
0.0
 11
157.7437584051
 21
102.3260738214
 31
0.0
  0
LINE
  5
E9
330
1B
100
AcDbEntity
 67
     1
  8
SLD-0
  6
Continuous
 62
   179
370
     0
100
AcDbLine
 10
155.2437607893
 20
98.3260736314
 30
0.0
 11
156.7437601038
 21
98.3260736314
 31
0.0
  0
LINE
  5
EA
330
1B
100
AcDbEntity
 67
     1
  8
SLD-0
  6
Continuous
 62
   179
370
     0
100
AcDbLine
 10
156.7437601038
 20
102.3260738214
 30
0.0
 11
155.2437607893
 21
102.3260738214
 31
0.0
  0
LINE
  5
EB
330
1B
100
AcDbEntity
 67
     1
  8
SLD-0
  6
Continuous
 62
   179
370
     0
100
AcDbLine
 10
160.7437607595
 20
98.3260736314
 30
0.0
 11
162.243760074
 21
98.3260736314
 31
0.0
  0
LINE
  5
EC
330
1B
100
AcDbEntity
 67
     1
  8
SLD-0
  6
Continuous
 62
   179
370
     0
100
AcDbLine
 10
162.243760074
 20
102.3260738214
 30
0.0
 11
160.7437607595
 21
102.3260738214
 31
0.0
  0
LINE
  5
ED
330
1B
100
AcDbEntity
 67
     1
  8
SLD-0
  6
Continuous
 62
   179
370
     0
100
AcDbLine
 10
52.7437616834
 20
140.6510743758
 30
0.0
 11
51.7437596568
 21
139.8260753116
 31
0.0
  0
LINE
  5
EE
330
1B
100
AcDbEntity
 67
     1
  8
SLD-0
  6
Continuous
 62
   179
370
     0
100
AcDbLine
 10
51.7437596568
 20
135.8260746559
 30
0.0
 11
52.7437616834
 21
135.0010718664
 31
0.0
  0
LINE
  5
EF
330
1B
100
AcDbEntity
 67
     1
  8
SLD-0
  6
Continuous
 62
   179
370
     0
100
AcDbLine
 10
55.7437603125
 20
140.6510743758
 30
0.0
 11
54.7437582859
 21
139.8260753116
 31
0.0
  0
LINE
  5
F0
330
1B
100
AcDbEntity
 67
     1
  8
SLD-0
  6
Continuous
 62
   179
370
     0
100
AcDbLine
 10
54.7437582859
 20
135.8260746559
 30
0.0
 11
55.7437603125
 21
135.0010718664
 31
0.0
  0
LINE
  5
F1
330
1B
100
AcDbEntity
 67
     1
  8
SLD-0
  6
Continuous
 62
   179
370
     0
100
AcDbLine
 10
54.7437582859
 20
139.8260753116
 30
0.0
 11
52.7437616834
 21
139.8260753116
 31
0.0
  0
LINE
  5
F2
330
1B
100
AcDbEntity
 67
     1
  8
SLD-0
  6
Continuous
 62
   179
370
     0
100
AcDbLine
 10
52.7437616834
 20
135.8260746559
 30
0.0
 11
54.7437582859
 21
135.8260746559
 31
0.0
  0
LINE
  5
F3
330
1B
100
AcDbEntity
 67
     1
  8
SLD-0
  6
Continuous
 62
   179
370
     0
100
AcDbLine
 10
57.243759627
 20
139.8260753116
 30
0.0
 11
55.7437603125
 21
139.8260753116
 31
0.0
  0
LINE
  5
F4
330
1B
100
AcDbEntity
 67
     1
  8
SLD-0
  6
Continuous
 62
   179
370
     0
100
AcDbLine
 10
55.7437603125
 20
135.8260746559
 30
0.0
 11
57.243759627
 21
135.8260746559
 31
0.0
  0
LINE
  5
F5
330
1B
100
AcDbEntity
 67
     1
  8
SLD-0
  6
Continuous
 62
   179
370
     0
100
AcDbLine
 10
51.7437596568
 20
139.8260753116
 30
0.0
 11
50.2437603423
 21
139.8260753116
 31
0.0
  0
LINE
  5
F6
330
1B
100
AcDbEntity
 67
     1
  8
SLD-0
  6
Continuous
 62
   179
370
     0
100
AcDbLine
 10
50.2437603423
 20
135.8260746559
 30
0.0
 11
51.7437596568
 21
135.8260746559
 31
0.0
  0
LINE
  5
F7
330
1B
100
AcDbEntity
 67
     1
  8
SLD-0
  6
Continuous
 62
   179
370
     0
100
AcDbLine
 10
52.7437616834
 20
103.151073817
 30
0.0
 11
51.7437596568
 21
102.3260738214
 31
0.0
  0
LINE
  5
F8
330
1B
100
AcDbEntity
 67
     1
  8
SLD-0
  6
Continuous
 62
   179
370
     0
100
AcDbLine
 10
51.7437596568
 20
98.3260736314
 30
0.0
 11
52.7437616834
 21
97.5010734031
 31
0.0
  0
LINE
  5
F9
330
1B
100
AcDbEntity
 67
     1
  8
SLD-0
  6
Continuous
 62
   179
370
     0
100
AcDbLine
 10
55.7437603125
 20
103.151073817
 30
0.0
 11
54.7437582859
 21
102.3260738214
 31
0.0
  0
LINE
  5
FA
330
1B
100
AcDbEntity
 67
     1
  8
SLD-0
  6
Continuous
 62
   179
370
     0
100
AcDbLine
 10
54.7437582859
 20
98.3260736314
 30
0.0
 11
55.7437603125
 21
97.5010734031
 31
0.0
  0
LINE
  5
FB
330
1B
100
AcDbEntity
 67
     1
  8
SLD-0
  6
Continuous
 62
   179
370
     0
100
AcDbLine
 10
54.7437582859
 20
102.3260738214
 30
0.0
 11
52.7437616834
 21
102.3260738214
 31
0.0
  0
LINE
  5
FC
330
1B
100
AcDbEntity
 67
     1
  8
SLD-0
  6
Continuous
 62
   179
370
     0
100
AcDbLine
 10
52.7437616834
 20
98.3260736314
 30
0.0
 11
54.7437582859
 21
98.3260736314
 31
0.0
  0
LINE
  5
FD
330
1B
100
AcDbEntity
 67
     1
  8
SLD-0
  6
Continuous
 62
   179
370
     0
100
AcDbLine
 10
51.7437596568
 20
102.3260738214
 30
0.0
 11
50.2437603423
 21
102.3260738214
 31
0.0
  0
LINE
  5
FE
330
1B
100
AcDbEntity
 67
     1
  8
SLD-0
  6
Continuous
 62
   179
370
     0
100
AcDbLine
 10
50.2437603423
 20
98.3260736314
 30
0.0
 11
51.7437596568
 21
98.3260736314
 31
0.0
  0
LINE
  5
FF
330
1B
100
AcDbEntity
 67
     1
  8
SLD-0
  6
Continuous
 62
   179
370
     0
100
AcDbLine
 10
57.243759627
 20
102.3260738214
 30
0.0
 11
55.7437603125
 21
102.3260738214
 31
0.0
  0
LINE
  5
100
330
1B
100
AcDbEntity
 67
     1
  8
SLD-0
  6
Continuous
 62
   179
370
     0
100
AcDbLine
 10
55.7437603125
 20
98.3260736314
 30
0.0
 11
57.243759627
 21
98.3260736314
 31
0.0
  0
LINE
  5
101
330
1B
100
AcDbEntity
 67
     1
  8
SLD-0
  6
Continuous
 62
   179
370
     0
100
AcDbLine
 10
159.7437587329
 20
108.5010731106
 30
0.0
 11
160.7437607595
 21
109.3260731062
 31
0.0
  0
LINE
  5
102
330
1B
100
AcDbEntity
 67
     1
  8
SLD-0
  6
Continuous
 62
   179
370
     0
100
AcDbLine
 10
160.7437607595
 20
113.3260737618
 30
0.0
 11
159.7437587329
 21
114.151072826
 31
0.0
  0
LINE
  5
103
330
1B
100
AcDbEntity
 67
     1
  8
SLD-0
  6
Continuous
 62
   179
370
     0
100
AcDbLine
 10
156.7437601038
 20
108.5010731106
 30
0.0
 11
157.7437584051
 21
109.3260731062
 31
0.0
  0
LINE
  5
104
330
1B
100
AcDbEntity
 67
     1
  8
SLD-0
  6
Continuous
 62
   179
370
     0
100
AcDbLine
 10
157.7437584051
 20
113.3260737618
 30
0.0
 11
156.7437601038
 21
114.151072826
 31
0.0
  0
LINE
  5
105
330
1B
100
AcDbEntity
 67
     1
  8
SLD-0
  6
Continuous
 62
   179
370
     0
100
AcDbLine
 10
157.7437584051
 20
109.3260731062
 30
0.0
 11
159.7437587329
 21
109.3260731062
 31
0.0
  0
LINE
  5
106
330
1B
100
AcDbEntity
 67
     1
  8
SLD-0
  6
Continuous
 62
   179
370
     0
100
AcDbLine
 10
159.7437587329
 20
113.3260737618
 30
0.0
 11
157.7437584051
 21
113.3260737618
 31
0.0
  0
LINE
  5
107
330
1B
100
AcDbEntity
 67
     1
  8
SLD-0
  6
Continuous
 62
   179
370
     0
100
AcDbLine
 10
160.7437607595
 20
109.3260731062
 30
0.0
 11
162.243760074
 21
109.3260731062
 31
0.0
  0
LINE
  5
108
330
1B
100
AcDbEntity
 67
     1
  8
SLD-0
  6
Continuous
 62
   179
370
     0
100
AcDbLine
 10
162.243760074
 20
113.3260737618
 30
0.0
 11
160.7437607595
 21
113.3260737618
 31
0.0
  0
LINE
  5
109
330
1B
100
AcDbEntity
 67
     1
  8
SLD-0
  6
Continuous
 62
   179
370
     0
100
AcDbLine
 10
155.2437607893
 20
109.3260731062
 30
0.0
 11
156.7437601038
 21
109.3260731062
 31
0.0
  0
LINE
  5
10A
330
1B
100
AcDbEntity
 67
     1
  8
SLD-0
  6
Continuous
 62
   179
370
     0
100
AcDbLine
 10
156.7437601038
 20
113.3260737618
 30
0.0
 11
155.2437607893
 21
113.3260737618
 31
0.0
  0
LINE
  5
10B
330
1B
100
AcDbEntity
 67
     1
  8
SLD-0
  6
Continuous
 62
   179
370
     0
100
AcDbLine
 10
159.7437587329
 20
135.0010718664
 30
0.0
 11
160.7437607595
 21
135.8260746559
 31
0.0
  0
LINE
  5
10C
330
1B
100
AcDbEntity
 67
     1
  8
SLD-0
  6
Continuous
 62
   179
370
     0
100
AcDbLine
 10
160.7437607595
 20
139.8260753116
 30
0.0
 11
159.7437587329
 21
140.6510743758
 31
0.0
  0
LINE
  5
10D
330
1B
100
AcDbEntity
 67
     1
  8
SLD-0
  6
Continuous
 62
   179
370
     0
100
AcDbLine
 10
156.7437601038
 20
135.0010718664
 30
0.0
 11
157.7437584051
 21
135.8260746559
 31
0.0
  0
LINE
  5
10E
330
1B
100
AcDbEntity
 67
     1
  8
SLD-0
  6
Continuous
 62
   179
370
     0
100
AcDbLine
 10
157.7437584051
 20
139.8260753116
 30
0.0
 11
156.7437601038
 21
140.6510743758
 31
0.0
  0
LINE
  5
10F
330
1B
100
AcDbEntity
 67
     1
  8
SLD-0
  6
Continuous
 62
   179
370
     0
100
AcDbLine
 10
155.2437607893
 20
135.8260746559
 30
0.0
 11
156.7437601038
 21
135.8260746559
 31
0.0
  0
LINE
  5
110
330
1B
100
AcDbEntity
 67
     1
  8
SLD-0
  6
Continuous
 62
   179
370
     0
100
AcDbLine
 10
156.7437601038
 20
139.8260753116
 30
0.0
 11
155.2437607893
 21
139.8260753116
 31
0.0
  0
LINE
  5
111
330
1B
100
AcDbEntity
 67
     1
  8
SLD-0
  6
Continuous
 62
   179
370
     0
100
AcDbLine
 10
157.7437584051
 20
135.8260746559
 30
0.0
 11
159.7437587329
 21
135.8260746559
 31
0.0
  0
LINE
  5
112
330
1B
100
AcDbEntity
 67
     1
  8
SLD-0
  6
Continuous
 62
   179
370
     0
100
AcDbLine
 10
159.7437587329
 20
139.8260753116
 30
0.0
 11
157.7437584051
 21
139.8260753116
 31
0.0
  0
LINE
  5
113
330
1B
100
AcDbEntity
 67
     1
  8
SLD-0
  6
Continuous
 62
   179
370
     0
100
AcDbLine
 10
160.7437607595
 20
135.8260746559
 30
0.0
 11
162.243760074
 21
135.8260746559
 31
0.0
  0
LINE
  5
114
330
1B
100
AcDbEntity
 67
     1
  8
SLD-0
  6
Continuous
 62
   179
370
     0
100
AcDbLine
 10
162.243760074
 20
139.8260753116
 30
0.0
 11
160.7437607595
 21
139.8260753116
 31
0.0
  0
LINE
  5
115
330
1B
100
AcDbEntity
 67
     1
  8
SLD-0
  6
Continuous
 62
   179
370
     0
100
AcDbLine
 10
52.7437616834
 20
114.151072826
 30
0.0
 11
51.7437596568
 21
113.3260737618
 31
0.0
  0
LINE
  5
116
330
1B
100
AcDbEntity
 67
     1
  8
SLD-0
  6
Continuous
 62
   179
370
     0
100
AcDbLine
 10
51.7437596568
 20
109.3260731062
 30
0.0
 11
52.7437616834
 21
108.5010731106
 31
0.0
  0
LINE
  5
117
330
1B
100
AcDbEntity
 67
     1
  8
SLD-0
  6
Continuous
 62
   179
370
     0
100
AcDbLine
 10
55.7437603125
 20
114.151072826
 30
0.0
 11
54.7437582859
 21
113.3260737618
 31
0.0
  0
LINE
  5
118
330
1B
100
AcDbEntity
 67
     1
  8
SLD-0
  6
Continuous
 62
   179
370
     0
100
AcDbLine
 10
54.7437582859
 20
109.3260731062
 30
0.0
 11
55.7437603125
 21
108.5010731106
 31
0.0
  0
LINE
  5
119
330
1B
100
AcDbEntity
 67
     1
  8
SLD-0
  6
Continuous
 62
   179
370
     0
100
AcDbLine
 10
57.243759627
 20
113.3260737618
 30
0.0
 11
55.7437603125
 21
113.3260737618
 31
0.0
  0
LINE
  5
11A
330
1B
100
AcDbEntity
 67
     1
  8
SLD-0
  6
Continuous
 62
   179
370
     0
100
AcDbLine
 10
55.7437603125
 20
109.3260731062
 30
0.0
 11
57.243759627
 21
109.3260731062
 31
0.0
  0
LINE
  5
11B
330
1B
100
AcDbEntity
 67
     1
  8
SLD-0
  6
Continuous
 62
   179
370
     0
100
AcDbLine
 10
54.7437582859
 20
113.3260737618
 30
0.0
 11
52.7437616834
 21
113.3260737618
 31
0.0
  0
LINE
  5
11C
330
1B
100
AcDbEntity
 67
     1
  8
SLD-0
  6
Continuous
 62
   179
370
     0
100
AcDbLine
 10
52.7437616834
 20
109.3260731062
 30
0.0
 11
54.7437582859
 21
109.3260731062
 31
0.0
  0
LINE
  5
11D
330
1B
100
AcDbEntity
 67
     1
  8
SLD-0
  6
Continuous
 62
   179
370
     0
100
AcDbLine
 10
51.7437596568
 20
113.3260737618
 30
0.0
 11
50.2437603423
 21
113.3260737618
 31
0.0
  0
LINE
  5
11E
330
1B
100
AcDbEntity
 67
     1
  8
SLD-0
  6
Continuous
 62
   179
370
     0
100
AcDbLine
 10
50.2437603423
 20
109.3260731062
 30
0.0
 11
51.7437596568
 21
109.3260731062
 31
0.0
  0
LINE
  5
11F
330
1B
100
AcDbEntity
 67
     1
  8
SLD-0
  6
Continuous
 62
   179
370
     0
100
AcDbLine
 10
155.2437607893
 20
99.5010548716
 30
0.0
 11
152.2437584349
 21
99.5010548716
 31
0.0
  0
LINE
  5
120
330
1B
100
AcDbEntity
 67
     1
  8
SLD-0
  6
Continuous
 62
   179
370
     0
100
AcDbLine
 10
155.2437607893
 20
103.3403455725
 30
0.0
 11
152.2437584349
 21
103.3403455725
 31
0.0
  0
LINE
  5
121
330
1B
100
AcDbEntity
 67
     1
  8
SLD-0
  6
Continuous
 62
   179
370
     0
100
AcDbLine
 10
155.2437607893
 20
99.5010548716
 30
0.0
 11
155.2437607893
 21
103.3403455725
 31
0.0
  0
LINE
  5
122
330
1B
100
AcDbEntity
 67
     1
  8
SLD-0
  6
Continuous
 62
   179
370
     0
100
AcDbLine
 10
155.2437607893
 20
96.4867827928
 30
0.0
 11
152.2437584349
 21
96.4867827928
 31
0.0
  0
LINE
  5
123
330
1B
100
AcDbEntity
 67
     1
  8
SLD-0
  6
Continuous
 62
   179
370
     0
100
AcDbLine
 10
155.2437607893
 20
96.4867827928
 30
0.0
 11
155.2437607893
 21
99.5010548716
 31
0.0
  0
LINE
  5
124
330
1B
100
AcDbEntity
 67
     1
  8
SLD-0
  6
Continuous
 62
   179
370
     0
100
AcDbLine
 10
160.7437607595
 20
98.3260736314
 30
0.0
 11
160.7437607595
 21
102.3260738214
 31
0.0
  0
LINE
  5
125
330
1B
100
AcDbEntity
 67
     1
  8
SLD-0
  6
Continuous
 62
   179
370
     0
100
AcDbLine
 10
159.7437587329
 20
97.5010734031
 30
0.0
 11
159.7437587329
 21
103.151073817
 31
0.0
  0
LINE
  5
126
330
1B
100
AcDbEntity
 67
     1
  8
SLD-0
  6
Continuous
 62
   179
370
     0
100
AcDbLine
 10
157.7437584051
 20
98.3260736314
 30
0.0
 11
157.7437584051
 21
102.3260738214
 31
0.0
  0
LINE
  5
127
330
1B
100
AcDbEntity
 67
     1
  8
SLD-0
  6
Continuous
 62
   179
370
     0
100
AcDbLine
 10
156.7437601038
 20
97.5010734031
 30
0.0
 11
156.7437601038
 21
103.151073817
 31
0.0
  0
LINE
  5
128
330
1B
100
AcDbEntity
 67
     1
  8
SLD-0
  6
Continuous
 62
   179
370
     0
100
AcDbLine
 10
155.2437607893
 20
104.1653641945
 30
0.0
 11
152.2437584349
 21
104.1653641945
 31
0.0
  0
LINE
  5
129
330
1B
100
AcDbEntity
 67
     1
  8
SLD-0
  6
Continuous
 62
   179
370
     0
100
AcDbLine
 10
155.2437607893
 20
103.3403455725
 30
0.0
 11
155.2437607893
 21
104.1653641945
 31
0.0
  0
LINE
  5
12A
330
1B
100
AcDbEntity
 67
     1
  8
SLD-0
  6
Continuous
 62
   179
370
     0
100
AcDbLine
 10
162.243760074
 20
98.3260736314
 30
0.0
 11
162.243760074
 21
102.3260738214
 31
0.0
  0
LINE
  5
12B
330
1B
100
AcDbEntity
 67
     1
  8
SLD-0
  6
Continuous
 62
   179
370
     0
100
AcDbLine
 10
57.243759627
 20
138.7001025935
 30
0.0
 11
60.2437582561
 21
138.7001025935
 31
0.0
  0
LINE
  5
12C
330
1B
100
AcDbEntity
 67
     1
  8
SLD-0
  6
Continuous
 62
   179
370
     0
100
AcDbLine
 10
57.243759627
 20
134.8454292377
 30
0.0
 11
60.2437582561
 21
134.8454292377
 31
0.0
  0
LINE
  5
12D
330
1B
100
AcDbEntity
 67
     1
  8
SLD-0
  6
Continuous
 62
   179
370
     0
100
AcDbLine
 10
57.243759627
 20
138.7001025935
 30
0.0
 11
57.243759627
 21
134.8454292377
 31
0.0
  0
LINE
  5
12E
330
1B
100
AcDbEntity
 67
     1
  8
SLD-0
  6
Continuous
 62
   179
370
     0
100
AcDbLine
 10
51.7437596568
 20
139.1769472023
 30
0.0
 11
51.7437596568
 21
135.8260746559
 31
0.0
  0
LINE
  5
12F
330
1B
100
AcDbEntity
 67
     1
  8
SLD-0
  6
Continuous
 62
   179
370
     0
100
AcDbLine
 10
51.7437596568
 20
139.8260753116
 30
0.0
 11
51.7437596568
 21
139.1769472023
 31
0.0
  0
LINE
  5
130
330
1B
100
AcDbEntity
 67
     1
  8
SLD-0
  6
Continuous
 62
   179
370
     0
100
AcDbLine
 10
52.7437616834
 20
139.7341835758
 30
0.0
 11
52.7437616834
 21
135.0010718664
 31
0.0
  0
LINE
  5
131
330
1B
100
AcDbEntity
 67
     1
  8
SLD-0
  6
Continuous
 62
   179
370
     0
100
AcDbLine
 10
52.7437616834
 20
140.6510743758
 30
0.0
 11
52.7437616834
 21
139.7341835758
 31
0.0
  0
LINE
  5
132
330
1B
100
AcDbEntity
 67
     1
  8
SLD-0
  6
Continuous
 62
   179
370
     0
100
AcDbLine
 10
54.7437582859
 20
139.1769472023
 30
0.0
 11
54.7437582859
 21
135.8260746559
 31
0.0
  0
LINE
  5
133
330
1B
100
AcDbEntity
 67
     1
  8
SLD-0
  6
Continuous
 62
   179
370
     0
100
AcDbLine
 10
54.7437582859
 20
139.8260753116
 30
0.0
 11
54.7437582859
 21
139.1769472023
 31
0.0
  0
LINE
  5
134
330
1B
100
AcDbEntity
 67
     1
  8
SLD-0
  6
Continuous
 62
   179
370
     0
100
AcDbLine
 10
55.7437603125
 20
139.7341835758
 30
0.0
 11
55.7437603125
 21
135.0010718664
 31
0.0
  0
LINE
  5
135
330
1B
100
AcDbEntity
 67
     1
  8
SLD-0
  6
Continuous
 62
   179
370
     0
100
AcDbLine
 10
55.7437603125
 20
140.6510743758
 30
0.0
 11
55.7437603125
 21
139.7341835758
 31
0.0
  0
LINE
  5
136
330
1B
100
AcDbEntity
 67
     1
  8
SLD-0
  6
Continuous
 62
   179
370
     0
100
AcDbLine
 10
57.243759627
 20
141.6807446143
 30
0.0
 11
60.2437582561
 21
141.6807446143
 31
0.0
  0
LINE
  5
137
330
1B
100
AcDbEntity
 67
     1
  8
SLD-0
  6
Continuous
 62
   179
370
     0
100
AcDbLine
 10
57.243759627
 20
141.6807446143
 30
0.0
 11
57.243759627
 21
138.7001025935
 31
0.0
  0
LINE
  5
138
330
1B
100
AcDbEntity
 67
     1
  8
SLD-0
  6
Continuous
 62
   179
370
     0
100
AcDbLine
 10
50.2437603423
 20
139.1769472023
 30
0.0
 11
50.2437603423
 21
135.8260746559
 31
0.0
  0
LINE
  5
139
330
1B
100
AcDbEntity
 67
     1
  8
SLD-0
  6
Continuous
 62
   179
370
     0
100
AcDbLine
 10
50.2437603423
 20
139.8260753116
 30
0.0
 11
50.2437603423
 21
139.1769472023
 31
0.0
  0
LINE
  5
13A
330
1B
100
AcDbEntity
 67
     1
  8
SLD-0
  6
Continuous
 62
   179
370
     0
100
AcDbLine
 10
57.243759627
 20
133.9714016279
 30
0.0
 11
60.2437582561
 21
133.9714016279
 31
0.0
  0
LINE
  5
13B
330
1B
100
AcDbEntity
 67
     1
  8
SLD-0
  6
Continuous
 62
   179
370
     0
100
AcDbLine
 10
57.243759627
 20
134.8454292377
 30
0.0
 11
57.243759627
 21
133.9714016279
 31
0.0
  0
LINE
  5
13C
330
1B
100
AcDbEntity
 67
     1
  8
SLD-0
  6
Continuous
 62
   179
370
     0
100
AcDbLine
 10
57.243759627
 20
100.3508573843
 30
0.0
 11
60.2437582561
 21
100.3508573843
 31
0.0
  0
LINE
  5
13D
330
1B
100
AcDbEntity
 67
     1
  8
SLD-0
  6
Continuous
 62
   179
370
     0
100
AcDbLine
 10
57.243759627
 20
96.8380564803
 30
0.0
 11
60.2437582561
 21
96.8380564803
 31
0.0
  0
LINE
  5
13E
330
1B
100
AcDbEntity
 67
     1
  8
SLD-0
  6
Continuous
 62
   179
370
     0
100
AcDbLine
 10
57.243759627
 20
100.3508573843
 30
0.0
 11
57.243759627
 21
96.8380564803
 31
0.0
  0
LINE
  5
13F
330
1B
100
AcDbEntity
 67
     1
  8
SLD-0
  6
Continuous
 62
   179
370
     0
100
AcDbLine
 10
57.243759627
 20
103.8388741648
 30
0.0
 11
60.2437582561
 21
103.8388741648
 31
0.0
  0
LINE
  5
140
330
1B
100
AcDbEntity
 67
     1
  8
SLD-0
  6
Continuous
 62
   179
370
     0
100
AcDbLine
 10
57.243759627
 20
103.8388741648
 30
0.0
 11
57.243759627
 21
100.3508573843
 31
0.0
  0
LINE
  5
141
330
1B
100
AcDbEntity
 67
     1
  8
SLD-0
  6
Continuous
 62
   179
370
     0
100
AcDbLine
 10
51.7437596568
 20
102.3260356372
 30
0.0
 11
51.7437596568
 21
98.3260736314
 31
0.0
  0
LINE
  5
142
330
1B
100
AcDbEntity
 67
     1
  8
SLD-0
  6
Continuous
 62
   179
370
     0
100
AcDbLine
 10
52.7437616834
 20
103.1510207316
 30
0.0
 11
52.7437616834
 21
97.5010734031
 31
0.0
  0
LINE
  5
143
330
1B
100
AcDbEntity
 67
     1
  8
SLD-0
  6
Continuous
 62
   179
370
     0
100
AcDbLine
 10
54.7437582859
 20
102.3260356372
 30
0.0
 11
54.7437582859
 21
98.3260736314
 31
0.0
  0
LINE
  5
144
330
1B
100
AcDbEntity
 67
     1
  8
SLD-0
  6
Continuous
 62
   179
370
     0
100
AcDbLine
 10
55.7437603125
 20
103.1510207316
 30
0.0
 11
55.7437603125
 21
97.5010734031
 31
0.0
  0
LINE
  5
145
330
1B
100
AcDbEntity
 67
     1
  8
SLD-0
  6
Continuous
 62
   179
370
     0
100
AcDbLine
 10
57.243759627
 20
96.8132725896
 30
0.0
 11
60.2437582561
 21
96.8132725896
 31
0.0
  0
LINE
  5
146
330
1B
100
AcDbEntity
 67
     1
  8
SLD-0
  6
Continuous
 62
   179
370
     0
100
AcDbLine
 10
57.243759627
 20
96.8380564803
 30
0.0
 11
57.243759627
 21
96.8132725896
 31
0.0
  0
LINE
  5
147
330
1B
100
AcDbEntity
 67
     1
  8
SLD-0
  6
Continuous
 62
   179
370
     0
100
AcDbLine
 10
50.2437603423
 20
102.3260356372
 30
0.0
 11
50.2437603423
 21
98.3260736314
 31
0.0
  0
LINE
  5
148
330
1B
100
AcDbEntity
 67
     1
  8
SLD-0
  6
Continuous
 62
   179
370
     0
100
AcDbLine
 10
155.2437607893
 20
110.5010557433
 30
0.0
 11
152.2437584349
 21
110.5010557433
 31
0.0
  0
LINE
  5
149
330
1B
100
AcDbEntity
 67
     1
  8
SLD-0
  6
Continuous
 62
   179
370
     0
100
AcDbLine
 10
155.2437607893
 20
114.3403455129
 30
0.0
 11
152.2437584349
 21
114.3403455129
 31
0.0
  0
LINE
  5
14A
330
1B
100
AcDbEntity
 67
     1
  8
SLD-0
  6
Continuous
 62
   179
370
     0
100
AcDbLine
 10
155.2437607893
 20
110.5010557433
 30
0.0
 11
155.2437607893
 21
114.3403455129
 31
0.0
  0
LINE
  5
14B
330
1B
100
AcDbEntity
 67
     1
  8
SLD-0
  6
Continuous
 62
   179
370
     0
100
AcDbLine
 10
155.2437607893
 20
107.4867827332
 30
0.0
 11
152.2437584349
 21
107.4867827332
 31
0.0
  0
LINE
  5
14C
330
1B
100
AcDbEntity
 67
     1
  8
SLD-0
  6
Continuous
 62
   179
370
     0
100
AcDbLine
 10
155.2437607893
 20
107.4867827332
 30
0.0
 11
155.2437607893
 21
110.5010557433
 31
0.0
  0
LINE
  5
14D
330
1B
100
AcDbEntity
 67
     1
  8
SLD-0
  6
Continuous
 62
   179
370
     0
100
AcDbLine
 10
160.7437607595
 20
109.3260731062
 30
0.0
 11
160.7437607595
 21
113.3260737618
 31
0.0
  0
LINE
  5
14E
330
1B
100
AcDbEntity
 67
     1
  8
SLD-0
  6
Continuous
 62
   179
370
     0
100
AcDbLine
 10
159.7437587329
 20
108.5010731106
 30
0.0
 11
159.7437587329
 21
114.151072826
 31
0.0
  0
LINE
  5
14F
330
1B
100
AcDbEntity
 67
     1
  8
SLD-0
  6
Continuous
 62
   179
370
     0
100
AcDbLine
 10
157.7437584051
 20
109.3260731062
 30
0.0
 11
157.7437584051
 21
113.3260737618
 31
0.0
  0
LINE
  5
150
330
1B
100
AcDbEntity
 67
     1
  8
SLD-0
  6
Continuous
 62
   179
370
     0
100
AcDbLine
 10
156.7437601038
 20
108.5010731106
 30
0.0
 11
156.7437601038
 21
114.151072826
 31
0.0
  0
LINE
  5
151
330
1B
100
AcDbEntity
 67
     1
  8
SLD-0
  6
Continuous
 62
   179
370
     0
100
AcDbLine
 10
155.2437607893
 20
115.1653650662
 30
0.0
 11
152.2437584349
 21
115.1653650662
 31
0.0
  0
LINE
  5
152
330
1B
100
AcDbEntity
 67
     1
  8
SLD-0
  6
Continuous
 62
   179
370
     0
100
AcDbLine
 10
155.2437607893
 20
114.3403455129
 30
0.0
 11
155.2437607893
 21
115.1653650662
 31
0.0
  0
LINE
  5
153
330
1B
100
AcDbEntity
 67
     1
  8
SLD-0
  6
Continuous
 62
   179
370
     0
100
AcDbLine
 10
162.243760074
 20
109.3260731062
 30
0.0
 11
162.243760074
 21
113.3260737618
 31
0.0
  0
LINE
  5
154
330
1B
100
AcDbEntity
 67
     1
  8
SLD-0
  6
Continuous
 62
   179
370
     0
100
AcDbLine
 10
155.2437607893
 20
137.0010535678
 30
0.0
 11
152.2437584349
 21
137.0010535678
 31
0.0
  0
LINE
  5
155
330
1B
100
AcDbEntity
 67
     1
  8
SLD-0
  6
Continuous
 62
   179
370
     0
100
AcDbLine
 10
155.2437607893
 20
140.8403452
 30
0.0
 11
152.2437584349
 21
140.8403452
 31
0.0
  0
LINE
  5
156
330
1B
100
AcDbEntity
 67
     1
  8
SLD-0
  6
Continuous
 62
   179
370
     0
100
AcDbLine
 10
155.2437607893
 20
137.0010535678
 30
0.0
 11
155.2437607893
 21
140.8403452
 31
0.0
  0
LINE
  5
157
330
1B
100
AcDbEntity
 67
     1
  8
SLD-0
  6
Continuous
 62
   179
370
     0
100
AcDbLine
 10
155.2437607893
 20
133.9867833515
 30
0.0
 11
152.2437584349
 21
133.9867833515
 31
0.0
  0
LINE
  5
158
330
1B
100
AcDbEntity
 67
     1
  8
SLD-0
  6
Continuous
 62
   179
370
     0
100
AcDbLine
 10
155.2437607893
 20
133.9867833515
 30
0.0
 11
155.2437607893
 21
137.0010535678
 31
0.0
  0
LINE
  5
159
330
1B
100
AcDbEntity
 67
     1
  8
SLD-0
  6
Continuous
 62
   179
370
     0
100
AcDbLine
 10
160.7437607595
 20
135.8260746559
 30
0.0
 11
160.7437607595
 21
139.8260753116
 31
0.0
  0
LINE
  5
15A
330
1B
100
AcDbEntity
 67
     1
  8
SLD-0
  6
Continuous
 62
   179
370
     0
100
AcDbLine
 10
159.7437587329
 20
135.0010718664
 30
0.0
 11
159.7437587329
 21
140.6510743758
 31
0.0
  0
LINE
  5
15B
330
1B
100
AcDbEntity
 67
     1
  8
SLD-0
  6
Continuous
 62
   179
370
     0
100
AcDbLine
 10
157.7437584051
 20
135.8260746559
 30
0.0
 11
157.7437584051
 21
139.8260753116
 31
0.0
  0
LINE
  5
15C
330
1B
100
AcDbEntity
 67
     1
  8
SLD-0
  6
Continuous
 62
   179
370
     0
100
AcDbLine
 10
156.7437601038
 20
135.0010718664
 30
0.0
 11
156.7437601038
 21
140.6510743758
 31
0.0
  0
LINE
  5
15D
330
1B
100
AcDbEntity
 67
     1
  8
SLD-0
  6
Continuous
 62
   179
370
     0
100
AcDbLine
 10
155.2437607893
 20
141.6653628906
 30
0.0
 11
152.2437584349
 21
141.6653628906
 31
0.0
  0
LINE
  5
15E
330
1B
100
AcDbEntity
 67
     1
  8
SLD-0
  6
Continuous
 62
   179
370
     0
100
AcDbLine
 10
155.2437607893
 20
140.8403452
 30
0.0
 11
155.2437607893
 21
141.6653628906
 31
0.0
  0
LINE
  5
15F
330
1B
100
AcDbEntity
 67
     1
  8
SLD-0
  6
Continuous
 62
   179
370
     0
100
AcDbLine
 10
162.243760074
 20
135.8260746559
 30
0.0
 11
162.243760074
 21
139.8260753116
 31
0.0
  0
LINE
  5
160
330
1B
100
AcDbEntity
 67
     1
  8
SLD-0
  6
Continuous
 62
   179
370
     0
100
AcDbLine
 10
57.243759627
 20
114.616447266
 30
0.0
 11
60.2437582561
 21
114.616447266
 31
0.0
  0
LINE
  5
161
330
1B
100
AcDbEntity
 67
     1
  8
SLD-0
  6
Continuous
 62
   179
370
     0
100
AcDbLine
 10
57.243759627
 20
110.9381850323
 30
0.0
 11
60.2437582561
 21
110.9381850323
 31
0.0
  0
LINE
  5
162
330
1B
100
AcDbEntity
 67
     1
  8
SLD-0
  6
Continuous
 62
   179
370
     0
100
AcDbLine
 10
57.243759627
 20
114.616447266
 30
0.0
 11
57.243759627
 21
110.9381850323
 31
0.0
  0
LINE
  5
163
330
1B
100
AcDbEntity
 67
     1
  8
SLD-0
  6
Continuous
 62
   179
370
     0
100
AcDbLine
 10
57.243759627
 20
107.6478093376
 30
0.0
 11
60.2437582561
 21
107.6478093376
 31
0.0
  0
LINE
  5
164
330
1B
100
AcDbEntity
 67
     1
  8
SLD-0
  6
Continuous
 62
   179
370
     0
100
AcDbLine
 10
57.243759627
 20
110.9381850323
 30
0.0
 11
57.243759627
 21
107.6478093376
 31
0.0
  0
LINE
  5
165
330
1B
100
AcDbEntity
 67
     1
  8
SLD-0
  6
Continuous
 62
   179
370
     0
100
AcDbLine
 10
51.7437596568
 20
113.3260737618
 30
0.0
 11
51.7437596568
 21
109.3260731062
 31
0.0
  0
LINE
  5
166
330
1B
100
AcDbEntity
 67
     1
  8
SLD-0
  6
Continuous
 62
   179
370
     0
100
AcDbLine
 10
52.7437616834
 20
114.151072826
 30
0.0
 11
52.7437616834
 21
108.5010731106
 31
0.0
  0
LINE
  5
167
330
1B
100
AcDbEntity
 67
     1
  8
SLD-0
  6
Continuous
 62
   179
370
     0
100
AcDbLine
 10
54.7437582859
 20
113.3260737618
 30
0.0
 11
54.7437582859
 21
109.3260731062
 31
0.0
  0
LINE
  5
168
330
1B
100
AcDbEntity
 67
     1
  8
SLD-0
  6
Continuous
 62
   179
370
     0
100
AcDbLine
 10
55.7437603125
 20
114.151072826
 30
0.0
 11
55.7437603125
 21
108.5010731106
 31
0.0
  0
LINE
  5
169
330
1B
100
AcDbEntity
 67
     1
  8
SLD-0
  6
Continuous
 62
   179
370
     0
100
AcDbLine
 10
50.2437603423
 20
113.3260737618
 30
0.0
 11
50.2437603423
 21
109.3260731062
 31
0.0
  0
LINE
  5
16A
330
1B
100
AcDbEntity
 67
     1
  8
SLD-0
  6
Continuous
 62
   179
370
     0
100
AcDbLine
 10
57.243759627
 20
115.0043375304
 30
0.0
 11
60.2437582561
 21
115.0043375304
 31
0.0
  0
LINE
  5
16B
330
1B
100
AcDbEntity
 67
     1
  8
SLD-0
  6
Continuous
 62
   179
370
     0
100
AcDbLine
 10
57.243759627
 20
115.0043375304
 30
0.0
 11
57.243759627
 21
114.616447266
 31
0.0
  0
LINE
  5
16C
330
1B
100
AcDbEntity
 67
     1
  8
SLD-0
  6
Continuous
 62
   179
370
     0
100
AcDbLine
 10
125.7437611505
 20
148.8260745814
 30
0.0
 11
125.7437611505
 21
158.8260724953
 31
0.0
  0
LINE
  5
16D
330
1B
100
AcDbEntity
 67
     1
  8
SLD-0
  6
Continuous
 62
   179
370
     0
100
AcDbLine
 10
142.7437623519
 20
145.8260725046
 30
0.0
 11
128.743760873
 21
145.8260733873
 31
0.0
  0
LINE
  5
16E
330
1B
100
AcDbEntity
 67
     1
  8
SLD-0
  6
Continuous
 62
   179
370
     0
100
AcDbLine
 10
145.7437614223
 20
158.8260723315
 30
0.0
 11
145.7437613144
 21
148.8260729459
 31
0.0
  0
LINE
  5
16F
330
1B
100
AcDbEntity
 67
     1
  8
SLD-0
  6
Continuous
 62
   179
370
     0
100
AcDbLine
 10
152.2437584349
 20
158.8260723315
 30
0.0
 11
145.7437614223
 21
158.8260723315
 31
0.0
  0
LINE
  5
170
330
1B
100
AcDbEntity
 67
     1
  8
SLD-0
  6
Continuous
 62
   179
370
     0
100
AcDbLine
 10
152.2437584349
 20
158.8260723315
 30
0.0
 11
152.2437584349
 21
93.8260734524
 31
0.0
  0
LINE
  5
171
330
1B
100
AcDbEntity
 67
     1
  8
SLD-0
  6
Continuous
 62
   179
370
     0
100
AcDbLine
 10
60.2437582561
 20
93.8260734524
 30
0.0
 11
152.2437584349
 21
93.8260734524
 31
0.0
  0
LINE
  5
172
330
1B
100
AcDbEntity
 67
     1
  8
SLD-0
  6
Continuous
 62
   179
370
     0
100
AcDbLine
 10
60.2437582561
 20
93.8260734524
 30
0.0
 11
60.2437582561
 21
158.826072838
 31
0.0
  0
LINE
  5
173
330
1B
100
AcDbEntity
 67
     1
  8
SLD-0
  6
Continuous
 62
   179
370
     0
100
AcDbLine
 10
66.7437602528
 20
158.826072838
 30
0.0
 11
60.2437582561
 21
158.826072838
 31
0.0
  0
LINE
  5
174
330
1B
100
AcDbEntity
 67
     1
  8
SLD-0
  6
Continuous
 62
   179
370
     0
100
AcDbLine
 10
66.7437602528
 20
148.8260749241
 30
0.0
 11
66.7437602528
 21
158.826072838
 31
0.0
  0
LINE
  5
175
330
1B
100
AcDbEntity
 67
     1
  8
SLD-0
  6
Continuous
 62
   179
370
     0
100
AcDbLine
 10
83.7437594128
 20
145.8260726684
 30
0.0
 11
69.7437601541
 21
145.8260735511
 31
0.0
  0
LINE
  5
176
330
1B
100
AcDbEntity
 67
     1
  8
SLD-0
  6
Continuous
 62
   179
370
     0
100
AcDbLine
 10
86.7437603458
 20
158.8260724953
 30
0.0
 11
86.7437605954
 21
148.8260731097
 31
0.0
  0
LINE
  5
177
330
1B
100
AcDbEntity
 67
     1
  8
SLD-0
  6
Continuous
 62
   179
370
     0
100
AcDbLine
 10
125.7437611505
 20
158.8260724953
 30
0.0
 11
86.7437603458
 21
158.8260724953
 31
0.0
  0
LINE
  5
178
330
1B
100
AcDbEntity
 67
     1
  8
SLD-0
  6
Continuous
 62
   179
370
     0
100
AcDbLine
 10
161.7692962086
 20
143.0042664495
 30
0.0
 11
159.871237351
 21
140.5459046835
 31
0.0
  0
LINE
  5
179
330
1B
100
AcDbEntity
 67
     1
  8
SLD-0
  6
Continuous
 62
   179
370
     0
100
AcDbLine
 10
159.871237351
 20
140.5459046835
 30
0.0
 11
160.2858247619
 21
143.6239377045
 31
0.0
  0
LINE
  5
17A
330
1B
100
AcDbEntity
 67
     1
  8
SLD-0
  6
Continuous
 62
   179
370
     0
100
AcDbLine
 10
159.871237351
 20
140.5459046835
 30
0.0
 11
161.0275604853
 21
143.314102077
 31
0.0
  0
LINE
  5
17B
330
1B
100
AcDbEntity
 67
     1
  8
SLD-0
  6
Continuous
 62
   179
370
     0
100
AcDbLine
 10
161.0275604853
 20
143.314102077
 30
0.0
 11
179.0186111948
 21
186.3840521661
 31
0.0
  0
LINE
  5
17C
330
1B
100
AcDbEntity
 67
     1
  8
SLD-0
  6
Continuous
 62
   179
370
     0
100
AcDbLine
 10
50.6902571356
 20
142.9248248927
 30
0.0
 11
50.8998030981
 21
139.8260734524
 31
0.0
  0
LINE
  5
17D
330
1B
100
AcDbEntity
 67
     1
  8
SLD-0
  6
Continuous
 62
   179
370
     0
100
AcDbLine
 10
50.8998030981
 20
139.8260734524
 30
0.0
 11
49.1689561772
 21
142.40489856
 31
0.0
  0
LINE
  5
17E
330
1B
100
AcDbEntity
 67
     1
  8
SLD-0
  6
Continuous
 62
   179
370
     0
100
AcDbLine
 10
50.8998030981
 20
139.8260734524
 30
0.0
 11
49.9296066564
 21
142.6648617264
 31
0.0
  0
LINE
  5
17F
330
1B
100
AcDbEntity
 67
     1
  8
SLD-0
  6
Continuous
 62
   179
370
     0
100
AcDbLine
 10
49.9296066564
 20
142.6648617264
 30
0.0
 11
40.6353548423
 21
169.8597801272
 31
0.0
  0
LINE
  5
180
330
1B
100
AcDbEntity
 67
     1
  8
SLD-0
  6
Continuous
 62
   179
370
     0
100
AcDbLine
 10
162.2437600554
 20
110.8402218605
 30
0.0
 11
170.6065849477
 21
110.8402218605
 31
0.0
  0
LINE
  5
181
330
1B
100
AcDbEntity
 67
     1
  8
SLD-0
  6
Continuous
 62
   179
370
     0
100
AcDbLine
 10
170.6065849477
 20
110.8402218605
 30
0.0
 11
170.6065849477
 21
81.4724986365
 31
0.0
  0
LINE
  5
182
330
1B
100
AcDbEntity
 67
     1
  8
SLD-0
  6
Continuous
 62
   179
370
     0
100
AcDbLine
 10
170.6065849477
 20
81.4724986365
 30
0.0
 11
172.4564412536
 21
81.4771625636
 31
0.0
  0
LINE
  5
183
330
1B
100
AcDbEntity
 67
     1
  8
SLD-0
  6
Continuous
 62
   179
370
     0
100
AcDbLine
 10
50.2437600554
 20
111.2628547202
 30
0.0
 11
44.0465261377
 21
111.2628547202
 31
0.0
  0
LINE
  5
184
330
1B
100
AcDbEntity
 67
     1
  8
SLD-0
  6
Continuous
 62
   179
370
     0
100
AcDbLine
 10
44.0465261377
 20
111.2628547202
 30
0.0
 11
44.0465261377
 21
81.5272347262
 31
0.0
  0
LINE
  5
185
330
1B
100
AcDbEntity
 67
     1
  8
SLD-0
  6
Continuous
 62
   179
370
     0
100
AcDbLine
 10
44.0465261377
 20
81.5272347262
 30
0.0
 11
40.6353548423
 21
81.5523823016
 31
0.0
  0
LINE
  5
186
330
1B
100
AcDbEntity
 67
     1
  8
SLD-0
  6
Continuous
 62
   179
370
     0
100
AcDbLine
 10
80.993759329
 20
229.6014683088
 30
0.0
 11
80.993759329
 21
232.6014688006
 31
0.0
  0
LINE
  5
187
330
1B
100
AcDbEntity
 67
     1
  8
SLD-0
  6
Continuous
 62
   179
370
     0
100
AcDbLine
 10
80.993759329
 20
232.6014688006
 30
0.0
 11
79.9937591651
 21
233.6014689645
 31
0.0
  0
LINE
  5
188
330
1B
100
AcDbEntity
 67
     1
  8
SLD-0
  6
Continuous
 62
   179
370
     0
100
AcDbLine
 10
74.4937610575
 20
233.6014689645
 30
0.0
 11
73.493759031
 21
232.6014688006
 31
0.0
  0
LINE
  5
189
330
1B
100
AcDbEntity
 67
     1
  8
SLD-0
  6
Continuous
 62
   179
370
     0
100
AcDbLine
 10
146.4937616834
 20
229.6014683088
 30
0.0
 11
146.4937616834
 21
232.6014688006
 31
0.0
  0
LINE
  5
18A
330
1B
100
AcDbEntity
 67
     1
  8
SLD-0
  6
Continuous
 62
   179
370
     0
100
AcDbLine
 10
138.9937613853
 20
232.6014688006
 30
0.0
 11
138.9937613853
 21
229.6014683088
 31
0.0
  0
LINE
  5
18B
330
1B
100
AcDbEntity
 67
     1
  8
SLD-0
  6
Continuous
 62
   179
370
     0
100
AcDbLine
 10
146.4937616834
 20
232.6014688006
 30
0.0
 11
145.4937596568
 21
233.6014689645
 31
0.0
  0
LINE
  5
18C
330
1B
100
AcDbEntity
 67
     1
  8
SLD-0
  6
Continuous
 62
   179
370
     0
100
AcDbLine
 10
139.9937596866
 20
233.6014689645
 30
0.0
 11
138.9937613853
 21
232.6014688006
 31
0.0
  0
LINE
  5
18D
330
1B
100
AcDbEntity
 67
     1
  8
SLD-0
  6
Continuous
 62
   179
370
     0
100
AcDbLine
 10
73.493759031
 20
229.6014683088
 30
0.0
 11
73.493759031
 21
232.6014688006
 31
0.0
  0
LINE
  5
18E
330
1B
100
AcDbEntity
 67
     1
  8
SLD-0
  6
Continuous
 62
   179
370
     0
100
AcDbLine
 10
65.9937587329
 20
232.6014688006
 30
0.0
 11
65.9937587329
 21
229.6014683088
 31
0.0
  0
LINE
  5
18F
330
1B
100
AcDbEntity
 67
     1
  8
SLD-0
  6
Continuous
 62
   179
370
     0
100
AcDbLine
 10
73.493759031
 20
232.6014688006
 30
0.0
 11
72.4937607297
 21
233.6014689645
 31
0.0
  0
LINE
  5
190
330
1B
100
AcDbEntity
 67
     1
  8
SLD-0
  6
Continuous
 62
   179
370
     0
100
AcDbLine
 10
66.9937607595
 20
233.6014689645
 30
0.0
 11
65.9937587329
 21
232.6014688006
 31
0.0
  0
LINE
  5
191
330
1B
100
AcDbEntity
 67
     1
  8
SLD-0
  6
Continuous
 62
   179
370
     0
100
AcDbLine
 10
131.4937592247
 20
232.6014688006
 30
0.0
 11
131.4937592247
 21
229.6014683088
 31
0.0
  0
LINE
  5
192
330
1B
100
AcDbEntity
 67
     1
  8
SLD-0
  6
Continuous
 62
   179
370
     0
100
AcDbLine
 10
138.9937613853
 20
232.6014688006
 30
0.0
 11
137.9937593588
 21
233.6014689645
 31
0.0
  0
LINE
  5
193
330
1B
100
AcDbEntity
 67
     1
  8
SLD-0
  6
Continuous
 62
   179
370
     0
100
AcDbLine
 10
132.4937593886
 20
233.6014689645
 30
0.0
 11
131.4937592247
 21
232.6014688006
 31
0.0
  0
LINE
  5
194
330
1B
100
AcDbEntity
 67
     1
  8
SLD-0
  6
Continuous
 62
   179
370
     0
100
AcDbLine
 10
67.4937617728
 20
234.1014681151
 30
0.0
 11
67.4937617728
 21
233.6014689645
 31
0.0
  0
LINE
  5
195
330
1B
100
AcDbEntity
 67
     1
  8
SLD-0
  6
Continuous
 62
   179
370
     0
100
AcDbLine
 10
71.9937597164
 20
233.6014689645
 30
0.0
 11
71.9937597164
 21
234.1014681151
 31
0.0
  0
LINE
  5
196
330
1B
100
AcDbEntity
 67
     1
  8
SLD-0
  6
Continuous
 62
   179
370
     0
100
AcDbLine
 10
71.9937597164
 20
234.1014681151
 30
0.0
 11
71.7437592098
 21
235.101468279
 31
0.0
  0
LINE
  5
197
330
1B
100
AcDbEntity
 67
     1
  8
SLD-0
  6
Continuous
 62
   179
370
     0
100
AcDbLine
 10
67.7437585541
 20
235.101468279
 30
0.0
 11
67.4937617728
 21
234.1014681151
 31
0.0
  0
LINE
  5
198
330
1B
100
AcDbEntity
 67
     1
  8
SLD-0
  6
Continuous
 62
   179
370
     0
100
AcDbLine
 10
132.9937604019
 20
234.1014681151
 30
0.0
 11
132.9937604019
 21
233.6014689645
 31
0.0
  0
LINE
  5
199
330
1B
100
AcDbEntity
 67
     1
  8
SLD-0
  6
Continuous
 62
   179
370
     0
100
AcDbLine
 10
137.4937602081
 20
233.6014689645
 30
0.0
 11
137.4937602081
 21
234.1014681151
 31
0.0
  0
LINE
  5
19A
330
1B
100
AcDbEntity
 67
     1
  8
SLD-0
  6
Continuous
 62
   179
370
     0
100
AcDbLine
 10
133.2437609085
 20
235.101468279
 30
0.0
 11
132.9937604019
 21
234.1014681151
 31
0.0
  0
LINE
  5
19B
330
1B
100
AcDbEntity
 67
     1
  8
SLD-0
  6
Continuous
 62
   179
370
     0
100
AcDbLine
 10
137.4937602081
 20
234.1014681151
 30
0.0
 11
137.2437597015
 21
235.101468279
 31
0.0
  0
LINE
  5
19C
330
1B
100
AcDbEntity
 67
     1
  8
SLD-0
  6
Continuous
 62
   179
370
     0
100
AcDbLine
 10
140.4937606999
 20
234.1014681151
 30
0.0
 11
140.4937606999
 21
233.6014689645
 31
0.0
  0
LINE
  5
19D
330
1B
100
AcDbEntity
 67
     1
  8
SLD-0
  6
Continuous
 62
   179
370
     0
100
AcDbLine
 10
144.9937586435
 20
233.6014689645
 30
0.0
 11
144.9937586435
 21
234.1014681151
 31
0.0
  0
LINE
  5
19E
330
1B
100
AcDbEntity
 67
     1
  8
SLD-0
  6
Continuous
 62
   179
370
     0
100
AcDbLine
 10
144.9937586435
 20
234.1014681151
 30
0.0
 11
144.7437618622
 21
235.101468279
 31
0.0
  0
LINE
  5
19F
330
1B
100
AcDbEntity
 67
     1
  8
SLD-0
  6
Continuous
 62
   179
370
     0
100
AcDbLine
 10
140.7437612065
 20
235.101468279
 30
0.0
 11
140.4937606999
 21
234.1014681151
 31
0.0
  0
LINE
  5
1A0
330
1B
100
AcDbEntity
 67
     1
  8
SLD-0
  6
Continuous
 62
   179
370
     0
100
AcDbLine
 10
74.9937583455
 20
234.1014681151
 30
0.0
 11
74.9937583455
 21
233.6014689645
 31
0.0
  0
LINE
  5
1A1
330
1B
100
AcDbEntity
 67
     1
  8
SLD-0
  6
Continuous
 62
   179
370
     0
100
AcDbLine
 10
79.4937600144
 20
233.6014689645
 30
0.0
 11
79.4937600144
 21
234.1014681151
 31
0.0
  0
LINE
  5
1A2
330
1B
100
AcDbEntity
 67
     1
  8
SLD-0
  6
Continuous
 62
   179
370
     0
100
AcDbLine
 10
55.7437603125
 20
222.4264679244
 30
0.0
 11
54.7437582859
 21
221.6014688602
 31
0.0
  0
LINE
  5
1A3
330
1B
100
AcDbEntity
 67
     1
  8
SLD-0
  6
Continuous
 62
   179
370
     0
100
AcDbLine
 10
54.7437582859
 20
217.6014682045
 30
0.0
 11
55.7437603125
 21
216.7764691403
 31
0.0
  0
LINE
  5
1A4
330
1B
100
AcDbEntity
 67
     1
  8
SLD-0
  6
Continuous
 62
   179
370
     0
100
AcDbLine
 10
52.7437616834
 20
222.4264679244
 30
0.0
 11
51.7437596568
 21
221.6014688602
 31
0.0
  0
LINE
  5
1A5
330
1B
100
AcDbEntity
 67
     1
  8
SLD-0
  6
Continuous
 62
   179
370
     0
100
AcDbLine
 10
51.7437596568
 20
217.6014682045
 30
0.0
 11
52.7437616834
 21
216.7764691403
 31
0.0
  0
LINE
  5
1A6
330
1B
100
AcDbEntity
 67
     1
  8
SLD-0
  6
Continuous
 62
   179
370
     0
100
AcDbLine
 10
54.7437582859
 20
221.6014688602
 30
0.0
 11
52.7437616834
 21
221.6014688602
 31
0.0
  0
LINE
  5
1A7
330
1B
100
AcDbEntity
 67
     1
  8
SLD-0
  6
Continuous
 62
   179
370
     0
100
AcDbLine
 10
52.7437616834
 20
217.6014682045
 30
0.0
 11
54.7437582859
 21
217.6014682045
 31
0.0
  0
LINE
  5
1A8
330
1B
100
AcDbEntity
 67
     1
  8
SLD-0
  6
Continuous
 62
   179
370
     0
100
AcDbLine
 10
57.243759627
 20
221.6014688602
 30
0.0
 11
55.7437603125
 21
221.6014688602
 31
0.0
  0
LINE
  5
1A9
330
1B
100
AcDbEntity
 67
     1
  8
SLD-0
  6
Continuous
 62
   179
370
     0
100
AcDbLine
 10
55.7437603125
 20
217.6014682045
 30
0.0
 11
57.243759627
 21
217.6014682045
 31
0.0
  0
LINE
  5
1AA
330
1B
100
AcDbEntity
 67
     1
  8
SLD-0
  6
Continuous
 62
   179
370
     0
100
AcDbLine
 10
51.7437596568
 20
221.6014688602
 30
0.0
 11
50.2437603423
 21
221.6014688602
 31
0.0
  0
LINE
  5
1AB
330
1B
100
AcDbEntity
 67
     1
  8
SLD-0
  6
Continuous
 62
   179
370
     0
100
AcDbLine
 10
50.2437603423
 20
217.6014682045
 30
0.0
 11
51.7437596568
 21
217.6014682045
 31
0.0
  0
LINE
  5
1AC
330
1B
100
AcDbEntity
 67
     1
  8
SLD-0
  6
Continuous
 62
   179
370
     0
100
AcDbLine
 10
156.7437601038
 20
216.7764691403
 30
0.0
 11
157.7437584051
 21
217.6014682045
 31
0.0
  0
LINE
  5
1AD
330
1B
100
AcDbEntity
 67
     1
  8
SLD-0
  6
Continuous
 62
   179
370
     0
100
AcDbLine
 10
157.7437584051
 20
221.6014688602
 30
0.0
 11
156.7437601038
 21
222.4264679244
 31
0.0
  0
LINE
  5
1AE
330
1B
100
AcDbEntity
 67
     1
  8
SLD-0
  6
Continuous
 62
   179
370
     0
100
AcDbLine
 10
159.7437587329
 20
216.7764691403
 30
0.0
 11
160.7437607595
 21
217.6014682045
 31
0.0
  0
LINE
  5
1AF
330
1B
100
AcDbEntity
 67
     1
  8
SLD-0
  6
Continuous
 62
   179
370
     0
100
AcDbLine
 10
160.7437607595
 20
221.6014688602
 30
0.0
 11
159.7437587329
 21
222.4264679244
 31
0.0
  0
LINE
  5
1B0
330
1B
100
AcDbEntity
 67
     1
  8
SLD-0
  6
Continuous
 62
   179
370
     0
100
AcDbLine
 10
155.2437607893
 20
217.6014682045
 30
0.0
 11
156.7437601038
 21
217.6014682045
 31
0.0
  0
LINE
  5
1B1
330
1B
100
AcDbEntity
 67
     1
  8
SLD-0
  6
Continuous
 62
   179
370
     0
100
AcDbLine
 10
156.7437601038
 20
221.6014688602
 30
0.0
 11
155.2437607893
 21
221.6014688602
 31
0.0
  0
LINE
  5
1B2
330
1B
100
AcDbEntity
 67
     1
  8
SLD-0
  6
Continuous
 62
   179
370
     0
100
AcDbLine
 10
160.7437607595
 20
217.6014682045
 30
0.0
 11
162.243760074
 21
217.6014682045
 31
0.0
  0
LINE
  5
1B3
330
1B
100
AcDbEntity
 67
     1
  8
SLD-0
  6
Continuous
 62
   179
370
     0
100
AcDbLine
 10
162.243760074
 20
221.6014688602
 30
0.0
 11
160.7437607595
 21
221.6014688602
 31
0.0
  0
LINE
  5
1B4
330
1B
100
AcDbEntity
 67
     1
  8
SLD-0
  6
Continuous
 62
   179
370
     0
100
AcDbLine
 10
157.7437584051
 20
217.6014682045
 30
0.0
 11
159.7437587329
 21
217.6014682045
 31
0.0
  0
LINE
  5
1B5
330
1B
100
AcDbEntity
 67
     1
  8
SLD-0
  6
Continuous
 62
   179
370
     0
100
AcDbLine
 10
159.7437587329
 20
221.6014688602
 30
0.0
 11
157.7437584051
 21
221.6014688602
 31
0.0
  0
LINE
  5
1B6
330
1B
100
AcDbEntity
 67
     1
  8
SLD-0
  6
Continuous
 62
   179
370
     0
100
AcDbLine
 10
80.993759329
 20
232.6014688006
 30
0.0
 11
73.493759031
 21
232.6014688006
 31
0.0
  0
LINE
  5
1B7
330
1B
100
AcDbEntity
 67
     1
  8
SLD-0
  6
Continuous
 62
   179
370
     0
100
AcDbLine
 10
79.9937591651
 20
233.6014689645
 30
0.0
 11
74.4937610575
 21
233.6014689645
 31
0.0
  0
LINE
  5
1B8
330
1B
100
AcDbEntity
 67
     1
  8
SLD-0
  6
Continuous
 62
   179
370
     0
100
AcDbLine
 10
146.4937616834
 20
232.6014688006
 30
0.0
 11
138.9937613853
 21
232.6014688006
 31
0.0
  0
LINE
  5
1B9
330
1B
100
AcDbEntity
 67
     1
  8
SLD-0
  6
Continuous
 62
   179
370
     0
100
AcDbLine
 10
145.4937596568
 20
233.6014689645
 30
0.0
 11
139.9937596866
 21
233.6014689645
 31
0.0
  0
LINE
  5
1BA
330
1B
100
AcDbEntity
 67
     1
  8
SLD-0
  6
Continuous
 62
   179
370
     0
100
AcDbLine
 10
66.7772468873
 20
232.6014688006
 30
0.0
 11
65.9937587329
 21
232.6014688006
 31
0.0
  0
LINE
  5
1BB
330
1B
100
AcDbEntity
 67
     1
  8
SLD-0
  6
Continuous
 62
   179
370
     0
100
AcDbLine
 10
73.493759031
 20
232.6014688006
 30
0.0
 11
66.7772468873
 21
232.6014688006
 31
0.0
  0
LINE
  5
1BC
330
1B
100
AcDbEntity
 67
     1
  8
SLD-0
  6
Continuous
 62
   179
370
     0
100
AcDbLine
 10
67.5683160075
 20
233.6014689645
 30
0.0
 11
66.9937607595
 21
233.6014689645
 31
0.0
  0
LINE
  5
1BD
330
1B
100
AcDbEntity
 67
     1
  8
SLD-0
  6
Continuous
 62
   179
370
     0
100
AcDbLine
 10
72.4937607297
 20
233.6014689645
 30
0.0
 11
67.5683160075
 21
233.6014689645
 31
0.0
  0
LINE
  5
1BE
330
1B
100
AcDbEntity
 67
     1
  8
SLD-0
  6
Continuous
 62
   179
370
     0
100
AcDbLine
 10
138.2526186057
 20
232.6014688006
 30
0.0
 11
131.4937592247
 21
232.6014688006
 31
0.0
  0
LINE
  5
1BF
330
1B
100
AcDbEntity
 67
     1
  8
SLD-0
  6
Continuous
 62
   179
370
     0
100
AcDbLine
 10
138.9937613853
 20
232.6014688006
 30
0.0
 11
138.2526186057
 21
232.6014688006
 31
0.0
  0
LINE
  5
1C0
330
1B
100
AcDbEntity
 67
     1
  8
SLD-0
  6
Continuous
 62
   179
370
     0
100
AcDbLine
 10
137.4502544054
 20
233.6014689645
 30
0.0
 11
132.4937593886
 21
233.6014689645
 31
0.0
  0
LINE
  5
1C1
330
1B
100
AcDbEntity
 67
     1
  8
SLD-0
  6
Continuous
 62
   179
370
     0
100
AcDbLine
 10
137.9937593588
 20
233.6014689645
 30
0.0
 11
137.4502544054
 21
233.6014689645
 31
0.0
  0
LINE
  5
1C2
330
1B
100
AcDbEntity
 67
     1
  8
SLD-0
  6
Continuous
 62
   179
370
     0
100
AcDbLine
 10
67.4937617728
 20
234.1014681151
 30
0.0
 11
68.5698975572
 21
234.1014681151
 31
0.0
  0
LINE
  5
1C3
330
1B
100
AcDbEntity
 67
     1
  8
SLD-0
  6
Continuous
 62
   179
370
     0
100
AcDbLine
 10
68.5698975572
 20
234.1014681151
 30
0.0
 11
69.517622585
 21
234.1014681151
 31
0.0
  0
LINE
  5
1C4
330
1B
100
AcDbEntity
 67
     1
  8
SLD-0
  6
Continuous
 62
   179
370
     0
100
AcDbLine
 10
69.517622585
 20
234.1014681151
 30
0.0
 11
71.9937597164
 21
234.1014681151
 31
0.0
  0
LINE
  5
1C5
330
1B
100
AcDbEntity
 67
     1
  8
SLD-0
  6
Continuous
 62
   179
370
     0
100
AcDbLine
 10
69.5997093567
 20
235.101468279
 30
0.0
 11
71.7437592098
 21
235.101468279
 31
0.0
  0
LINE
  5
1C6
330
1B
100
AcDbEntity
 67
     1
  8
SLD-0
  6
Continuous
 62
   179
370
     0
100
AcDbLine
 10
68.9043354937
 20
235.101468279
 30
0.0
 11
68.6519843289
 21
235.101468279
 31
0.0
  0
LINE
  5
1C7
330
1B
100
AcDbEntity
 67
     1
  8
SLD-0
  6
Continuous
 62
   179
370
     0
100
AcDbLine
 10
68.9043354937
 20
234.1014681151
 30
0.0
 11
68.9043354937
 21
235.101468279
 31
0.0
  0
LINE
  5
1C8
330
1B
100
AcDbEntity
 67
     1
  8
SLD-0
  6
Continuous
 62
   179
370
     0
100
AcDbLine
 10
67.7437585541
 20
235.101468279
 30
0.0
 11
68.6519843289
 21
235.101468279
 31
0.0
  0
LINE
  5
1C9
330
1B
100
AcDbEntity
 67
     1
  8
SLD-0
  6
Continuous
 62
   179
370
     0
100
AcDbLine
 10
69.5997093567
 20
235.101468279
 30
0.0
 11
68.9043354937
 21
235.101468279
 31
0.0
  0
LINE
  5
1CA
330
1B
100
AcDbEntity
 67
     1
  8
SLD-0
  6
Continuous
 62
   179
370
     0
100
AcDbLine
 10
135.8852655389
 20
234.1014681151
 30
0.0
 11
136.7564339885
 21
234.1014681151
 31
0.0
  0
LINE
  5
1CB
330
1B
100
AcDbEntity
 67
     1
  8
SLD-0
  6
Continuous
 62
   179
370
     0
100
AcDbLine
 10
136.7564339885
 20
234.1014681151
 30
0.0
 11
137.4937602081
 21
234.1014681151
 31
0.0
  0
LINE
  5
1CC
330
1B
100
AcDbEntity
 67
     1
  8
SLD-0
  6
Continuous
 62
   179
370
     0
100
AcDbLine
 10
132.9937604019
 20
234.1014681151
 30
0.0
 11
135.8852655389
 21
234.1014681151
 31
0.0
  0
LINE
  5
1CD
330
1B
100
AcDbEntity
 67
     1
  8
SLD-0
  6
Continuous
 62
   179
370
     0
100
AcDbLine
 10
133.2437609085
 20
235.101468279
 30
0.0
 11
135.7589595713
 21
235.101468279
 31
0.0
  0
LINE
  5
1CE
330
1B
100
AcDbEntity
 67
     1
  8
SLD-0
  6
Continuous
 62
   179
370
     0
100
AcDbLine
 10
136.2418354251
 20
235.101468279
 30
0.0
 11
135.7589595713
 21
235.101468279
 31
0.0
  0
LINE
  5
1CF
330
1B
100
AcDbEntity
 67
     1
  8
SLD-0
  6
Continuous
 62
   179
370
     0
100
AcDbLine
 10
136.2418354251
 20
235.101468279
 30
0.0
 11
136.2418354251
 21
234.1014681151
 31
0.0
  0
LINE
  5
1D0
330
1B
100
AcDbEntity
 67
     1
  8
SLD-0
  6
Continuous
 62
   179
370
     0
100
AcDbLine
 10
136.6301280209
 20
235.101468279
 30
0.0
 11
136.2418354251
 21
235.101468279
 31
0.0
  0
LINE
  5
1D1
330
1B
100
AcDbEntity
 67
     1
  8
SLD-0
  6
Continuous
 62
   179
370
     0
100
AcDbLine
 10
136.6301280209
 20
235.101468279
 30
0.0
 11
137.2437597015
 21
235.101468279
 31
0.0
  0
LINE
  5
1D2
330
1B
100
AcDbEntity
 67
     1
  8
SLD-0
  6
Continuous
 62
   179
370
     0
100
AcDbLine
 10
140.7330360958
 20
234.1014681151
 30
0.0
 11
141.3691592165
 21
234.1014681151
 31
0.0
  0
LINE
  5
1D3
330
1B
100
AcDbEntity
 67
     1
  8
SLD-0
  6
Continuous
 62
   179
370
     0
100
AcDbLine
 10
141.3691592165
 20
234.1014681151
 30
0.0
 11
144.9937586435
 21
234.1014681151
 31
0.0
  0
LINE
  5
1D4
330
1B
100
AcDbEntity
 67
     1
  8
SLD-0
  6
Continuous
 62
   179
370
     0
100
AcDbLine
 10
140.4937606999
 20
234.1014681151
 30
0.0
 11
140.7330360958
 21
234.1014681151
 31
0.0
  0
LINE
  5
1D5
330
1B
100
AcDbEntity
 67
     1
  8
SLD-0
  6
Continuous
 62
   179
370
     0
100
AcDbLine
 10
141.5676501342
 20
235.101468279
 30
0.0
 11
144.7437618622
 21
235.101468279
 31
0.0
  0
LINE
  5
1D6
330
1B
100
AcDbEntity
 67
     1
  8
SLD-0
  6
Continuous
 62
   179
370
     0
100
AcDbLine
 10
141.5417332897
 20
234.9711743882
 30
0.0
 11
141.5417332897
 21
235.101468279
 31
0.0
  0
LINE
  5
1D7
330
1B
100
AcDbEntity
 67
     1
  8
SLD-0
  6
Continuous
 62
   179
370
     0
100
AcDbLine
 10
141.5676501342
 20
235.101468279
 30
0.0
 11
141.5417332897
 21
235.101468279
 31
0.0
  0
LINE
  5
1D8
330
1B
100
AcDbEntity
 67
     1
  8
SLD-0
  6
Continuous
 62
   179
370
     0
100
AcDbLine
 10
141.5417332897
 20
235.101468279
 30
0.0
 11
140.9315270135
 21
235.101468279
 31
0.0
  0
LINE
  5
1D9
330
1B
100
AcDbEntity
 67
     1
  8
SLD-0
  6
Continuous
 62
   179
370
     0
100
AcDbLine
 10
140.7437612065
 20
235.101468279
 30
0.0
 11
140.9315270135
 21
235.101468279
 31
0.0
  0
LINE
  5
1DA
330
1B
100
AcDbEntity
 67
     1
  8
SLD-0
  6
Continuous
 62
   179
370
     0
100
AcDbLine
 10
79.4296347299
 20
234.1014681151
 30
0.0
 11
79.4937600144
 21
234.1014681151
 31
0.0
  0
LINE
  5
1DB
330
1B
100
AcDbEntity
 67
     1
  8
SLD-0
  6
Continuous
 62
   179
370
     0
100
AcDbLine
 10
74.9937583455
 20
234.1014681151
 30
0.0
 11
75.0426620939
 21
234.1014681151
 31
0.0
  0
LINE
  5
1DC
330
1B
100
AcDbEntity
 67
     1
  8
SLD-0
  6
Continuous
 62
   179
370
     0
100
AcDbLine
 10
75.0426620939
 20
234.1014681151
 30
0.0
 11
79.4296347299
 21
234.1014681151
 31
0.0
  0
LINE
  5
1DD
330
1B
100
AcDbEntity
 67
     1
  8
SLD-0
  6
Continuous
 62
   179
370
     0
100
AcDbLine
 10
75.2998803505
 20
235.101468279
 30
0.0
 11
79.1724146107
 21
235.101468279
 31
0.0
  0
LINE
  5
1DE
330
1B
100
AcDbEntity
 67
     1
  8
SLD-0
  6
Continuous
 62
   179
370
     0
100
AcDbLine
 10
79.1876398722
 20
235.101468279
 30
0.0
 11
79.1724146107
 21
235.101468279
 31
0.0
  0
LINE
  5
1DF
330
1B
100
AcDbEntity
 67
     1
  8
SLD-0
  6
Continuous
 62
   179
370
     0
100
AcDbLine
 10
57.243759627
 20
222.3315847805
 30
0.0
 11
60.2437582561
 21
222.3315847805
 31
0.0
  0
LINE
  5
1E0
330
1B
100
AcDbEntity
 67
     1
  8
SLD-0
  6
Continuous
 62
   179
370
     0
100
AcDbLine
 10
57.243759627
 20
218.385213404
 30
0.0
 11
60.2437582561
 21
218.385213404
 31
0.0
  0
LINE
  5
1E1
330
1B
100
AcDbEntity
 67
     1
  8
SLD-0
  6
Continuous
 62
   179
370
     0
100
AcDbLine
 10
57.243759627
 20
222.3315847805
 30
0.0
 11
57.243759627
 21
218.385213404
 31
0.0
  0
LINE
  5
1E2
330
1B
100
AcDbEntity
 67
     1
  8
SLD-0
  6
Continuous
 62
   179
370
     0
100
AcDbLine
 10
54.7437582859
 20
218.1266335538
 30
0.0
 11
54.7437582859
 21
217.6014682045
 31
0.0
  0
LINE
  5
1E3
330
1B
100
AcDbEntity
 67
     1
  8
SLD-0
  6
Continuous
 62
   179
370
     0
100
AcDbLine
 10
54.7437582859
 20
221.6014688602
 30
0.0
 11
54.7437582859
 21
218.1266335538
 31
0.0
  0
LINE
  5
1E4
330
1B
100
AcDbEntity
 67
     1
  8
SLD-0
  6
Continuous
 62
   179
370
     0
100
AcDbLine
 10
55.7437603125
 20
217.5182638457
 30
0.0
 11
55.7437603125
 21
216.7764691403
 31
0.0
  0
LINE
  5
1E5
330
1B
100
AcDbEntity
 67
     1
  8
SLD-0
  6
Continuous
 62
   179
370
     0
100
AcDbLine
 10
55.7437603125
 20
222.4264679244
 30
0.0
 11
55.7437603125
 21
217.5182638457
 31
0.0
  0
LINE
  5
1E6
330
1B
100
AcDbEntity
 67
     1
  8
SLD-0
  6
Continuous
 62
   179
370
     0
100
AcDbLine
 10
51.7437596568
 20
218.1266335538
 30
0.0
 11
51.7437596568
 21
217.6014682045
 31
0.0
  0
LINE
  5
1E7
330
1B
100
AcDbEntity
 67
     1
  8
SLD-0
  6
Continuous
 62
   179
370
     0
100
AcDbLine
 10
51.7437596568
 20
221.6014688602
 30
0.0
 11
51.7437596568
 21
218.1266335538
 31
0.0
  0
LINE
  5
1E8
330
1B
100
AcDbEntity
 67
     1
  8
SLD-0
  6
Continuous
 62
   179
370
     0
100
AcDbLine
 10
52.7437616834
 20
217.5182638457
 30
0.0
 11
52.7437616834
 21
216.7764691403
 31
0.0
  0
LINE
  5
1E9
330
1B
100
AcDbEntity
 67
     1
  8
SLD-0
  6
Continuous
 62
   179
370
     0
100
AcDbLine
 10
52.7437616834
 20
222.4264679244
 30
0.0
 11
52.7437616834
 21
217.5182638457
 31
0.0
  0
LINE
  5
1EA
330
1B
100
AcDbEntity
 67
     1
  8
SLD-0
  6
Continuous
 62
   179
370
     0
100
AcDbLine
 10
57.243759627
 20
215.6550971558
 30
0.0
 11
60.2437582561
 21
215.6550971558
 31
0.0
  0
LINE
  5
1EB
330
1B
100
AcDbEntity
 67
     1
  8
SLD-0
  6
Continuous
 62
   179
370
     0
100
AcDbLine
 10
57.243759627
 20
218.385213404
 30
0.0
 11
57.243759627
 21
215.6550971558
 31
0.0
  0
LINE
  5
1EC
330
1B
100
AcDbEntity
 67
     1
  8
SLD-0
  6
Continuous
 62
   179
370
     0
100
AcDbLine
 10
57.243759627
 20
223.5478380462
 30
0.0
 11
60.2437582561
 21
223.5478380462
 31
0.0
  0
LINE
  5
1ED
330
1B
100
AcDbEntity
 67
     1
  8
SLD-0
  6
Continuous
 62
   179
370
     0
100
AcDbLine
 10
57.243759627
 20
223.5478380462
 30
0.0
 11
57.243759627
 21
222.3315847805
 31
0.0
  0
LINE
  5
1EE
330
1B
100
AcDbEntity
 67
     1
  8
SLD-0
  6
Continuous
 62
   179
370
     0
100
AcDbLine
 10
50.2437603423
 20
218.1266335538
 30
0.0
 11
50.2437603423
 21
217.6014682045
 31
0.0
  0
LINE
  5
1EF
330
1B
100
AcDbEntity
 67
     1
  8
SLD-0
  6
Continuous
 62
   179
370
     0
100
AcDbLine
 10
50.2437603423
 20
221.6014688602
 30
0.0
 11
50.2437603423
 21
218.1266335538
 31
0.0
  0
LINE
  5
1F0
330
1B
100
AcDbEntity
 67
     1
  8
SLD-0
  6
Continuous
 62
   179
370
     0
100
AcDbLine
 10
57.243759627
 20
215.5595434597
 30
0.0
 11
60.2437582561
 21
215.5595434597
 31
0.0
  0
LINE
  5
1F1
330
1B
100
AcDbEntity
 67
     1
  8
SLD-0
  6
Continuous
 62
   179
370
     0
100
AcDbLine
 10
57.243759627
 20
215.5781252077
 30
0.0
 11
57.243759627
 21
215.5595434597
 31
0.0
  0
LINE
  5
1F2
330
1B
100
AcDbEntity
 67
     1
  8
SLD-0
  6
Continuous
 62
   179
370
     0
100
AcDbLine
 10
57.243759627
 20
223.6433917424
 30
0.0
 11
60.2437582561
 21
223.6433917424
 31
0.0
  0
LINE
  5
1F3
330
1B
100
AcDbEntity
 67
     1
  8
SLD-0
  6
Continuous
 62
   179
370
     0
100
AcDbLine
 10
57.243759627
 20
223.6433917424
 30
0.0
 11
57.243759627
 21
223.6248137196
 31
0.0
  0
LINE
  5
1F4
330
1B
100
AcDbEntity
 67
     1
  8
SLD-0
  6
Continuous
 62
   179
370
     0
100
AcDbLine
 10
155.2437607893
 20
220.8654353162
 30
0.0
 11
152.2437584349
 21
220.8654353162
 31
0.0
  0
LINE
  5
1F5
330
1B
100
AcDbEntity
 67
     1
  8
SLD-0
  6
Continuous
 62
   179
370
     0
100
AcDbLine
 10
155.2437607893
 20
223.5583750298
 30
0.0
 11
152.2437584349
 21
223.5583750298
 31
0.0
  0
LINE
  5
1F6
330
1B
100
AcDbEntity
 67
     1
  8
SLD-0
  6
Continuous
 62
   179
370
     0
100
AcDbLine
 10
155.2437607893
 20
220.8654353162
 30
0.0
 11
155.2437607893
 21
223.5583750298
 31
0.0
  0
LINE
  5
1F7
330
1B
100
AcDbEntity
 67
     1
  8
SLD-0
  6
Continuous
 62
   179
370
     0
100
AcDbLine
 10
155.2437607893
 20
216.9085269561
 30
0.0
 11
152.2437584349
 21
216.9085269561
 31
0.0
  0
LINE
  5
1F8
330
1B
100
AcDbEntity
 67
     1
  8
SLD-0
  6
Continuous
 62
   179
370
     0
100
AcDbLine
 10
155.2437607893
 20
216.9085269561
 30
0.0
 11
155.2437607893
 21
220.8654353162
 31
0.0
  0
LINE
  5
1F9
330
1B
100
AcDbEntity
 67
     1
  8
SLD-0
  6
Continuous
 62
   179
370
     0
100
AcDbLine
 10
157.7437584051
 20
217.6014682045
 30
0.0
 11
157.7437584051
 21
221.6014688602
 31
0.0
  0
LINE
  5
1FA
330
1B
100
AcDbEntity
 67
     1
  8
SLD-0
  6
Continuous
 62
   179
370
     0
100
AcDbLine
 10
156.7437601038
 20
216.7764691403
 30
0.0
 11
156.7437601038
 21
222.4264679244
 31
0.0
  0
LINE
  5
1FB
330
1B
100
AcDbEntity
 67
     1
  8
SLD-0
  6
Continuous
 62
   179
370
     0
100
AcDbLine
 10
160.7437607595
 20
217.6014682045
 30
0.0
 11
160.7437607595
 21
221.6014688602
 31
0.0
  0
LINE
  5
1FC
330
1B
100
AcDbEntity
 67
     1
  8
SLD-0
  6
Continuous
 62
   179
370
     0
100
AcDbLine
 10
159.7437587329
 20
216.7764691403
 30
0.0
 11
159.7437587329
 21
222.4264679244
 31
0.0
  0
LINE
  5
1FD
330
1B
100
AcDbEntity
 67
     1
  8
SLD-0
  6
Continuous
 62
   179
370
     0
100
AcDbLine
 10
155.2437607893
 20
215.6445620349
 30
0.0
 11
152.2437584349
 21
215.6445620349
 31
0.0
  0
LINE
  5
1FE
330
1B
100
AcDbEntity
 67
     1
  8
SLD-0
  6
Continuous
 62
   179
370
     0
100
AcDbLine
 10
155.2437607893
 20
215.6445620349
 30
0.0
 11
155.2437607893
 21
216.9085269561
 31
0.0
  0
LINE
  5
1FF
330
1B
100
AcDbEntity
 67
     1
  8
SLD-0
  6
Continuous
 62
   179
370
     0
100
AcDbLine
 10
162.243760074
 20
217.6014682045
 30
0.0
 11
162.243760074
 21
221.6014688602
 31
0.0
  0
LINE
  5
200
330
1B
100
AcDbEntity
 67
     1
  8
SLD-0
  6
Continuous
 62
   179
370
     0
100
AcDbLine
 10
57.243759627
 20
223.6248137196
 30
0.0
 11
60.2437582561
 21
223.6248137196
 31
0.0
  0
LINE
  5
201
330
1B
100
AcDbEntity
 67
     1
  8
SLD-0
  6
Continuous
 62
   179
370
     0
100
AcDbLine
 10
57.243759627
 20
223.6248137196
 30
0.0
 11
57.243759627
 21
223.5478380462
 31
0.0
  0
LINE
  5
202
330
1B
100
AcDbEntity
 67
     1
  8
SLD-0
  6
Continuous
 62
   179
370
     0
100
AcDbLine
 10
57.243759627
 20
215.5781252077
 30
0.0
 11
60.2437582561
 21
215.5781252077
 31
0.0
  0
LINE
  5
203
330
1B
100
AcDbEntity
 67
     1
  8
SLD-0
  6
Continuous
 62
   179
370
     0
100
AcDbLine
 10
57.243759627
 20
215.6550971558
 30
0.0
 11
57.243759627
 21
215.5781252077
 31
0.0
  0
LINE
  5
204
330
1B
100
AcDbEntity
 67
     1
  8
SLD-0
  6
Continuous
 62
   179
370
     0
100
AcDbLine
 10
86.7437598058
 20
226.6014678171
 30
0.0
 11
93.2437599399
 21
226.6014678171
 31
0.0
  0
LINE
  5
205
330
1B
100
AcDbEntity
 67
     1
  8
SLD-0
  6
Continuous
 62
   179
370
     0
100
AcDbLine
 10
93.2437599399
 20
226.6014678171
 30
0.0
 11
93.2437599399
 21
229.6014683088
 31
0.0
  0
LINE
  5
206
330
1B
100
AcDbEntity
 67
     1
  8
SLD-0
  6
Continuous
 62
   179
370
     0
100
AcDbLine
 10
93.2437599399
 20
229.6014683088
 30
0.0
 11
119.2437604764
 21
229.6014683088
 31
0.0
  0
LINE
  5
207
330
1B
100
AcDbEntity
 67
     1
  8
SLD-0
  6
Continuous
 62
   179
370
     0
100
AcDbLine
 10
119.2437604764
 20
226.6014678171
 30
0.0
 11
119.2437604764
 21
229.6014683088
 31
0.0
  0
LINE
  5
208
330
1B
100
AcDbEntity
 67
     1
  8
SLD-0
  6
Continuous
 62
   179
370
     0
100
AcDbLine
 10
119.2437604764
 20
226.6014678171
 30
0.0
 11
125.7437606105
 21
226.6014678171
 31
0.0
  0
LINE
  5
209
330
1B
100
AcDbEntity
 67
     1
  8
SLD-0
  6
Continuous
 62
   179
370
     0
100
AcDbLine
 10
125.7437606105
 20
226.6014678171
 30
0.0
 11
125.7437606105
 21
214.6014695754
 31
0.0
  0
LINE
  5
20A
330
1B
100
AcDbEntity
 67
     1
  8
SLD-0
  6
Continuous
 62
   179
370
     0
100
AcDbLine
 10
125.7437606105
 20
214.6014695754
 30
0.0
 11
86.7437598058
 21
214.6014695754
 31
0.0
  0
LINE
  5
20B
330
1B
100
AcDbEntity
 67
     1
  8
SLD-0
  6
Continuous
 62
   179
370
     0
100
AcDbLine
 10
86.7437598058
 20
226.6014678171
 30
0.0
 11
86.7437598058
 21
214.6014695754
 31
0.0
  0
LINE
  5
20C
330
1B
100
AcDbEntity
 67
     1
  8
SLD-0
  6
Continuous
 62
   179
370
     0
100
AcDbLine
 10
145.7437601634
 20
226.6012685141
 30
0.0
 11
145.7437601634
 21
214.6014695754
 31
0.0
  0
LINE
  5
20D
330
1B
100
AcDbEntity
 67
     1
  8
SLD-0
  6
Continuous
 62
   179
370
     0
100
AcDbLine
 10
145.7437601634
 20
226.6012685141
 30
0.0
 11
152.2437584349
 21
226.6012685141
 31
0.0
  0
LINE
  5
20E
330
1B
100
AcDbEntity
 67
     1
  8
SLD-0
  6
Continuous
 62
   179
370
     0
100
AcDbLine
 10
152.2437584349
 20
214.6014695754
 30
0.0
 11
145.7437601634
 21
214.6014695754
 31
0.0
  0
LINE
  5
20F
330
1B
100
AcDbEntity
 67
     1
  8
SLD-0
  6
Continuous
 62
   179
370
     0
100
AcDbLine
 10
152.2437584349
 20
226.6012685141
 30
0.0
 11
152.2437584349
 21
214.6014695754
 31
0.0
  0
LINE
  5
210
330
1B
100
AcDbEntity
 67
     1
  8
SLD-0
  6
Continuous
 62
   179
370
     0
100
AcDbLine
 10
66.7437602528
 20
214.6014695754
 30
0.0
 11
60.2437582561
 21
214.6014695754
 31
0.0
  0
LINE
  5
211
330
1B
100
AcDbEntity
 67
     1
  8
SLD-0
  6
Continuous
 62
   179
370
     0
100
AcDbLine
 10
66.7437602528
 20
226.6012685141
 30
0.0
 11
60.2437582561
 21
226.6012685141
 31
0.0
  0
LINE
  5
212
330
1B
100
AcDbEntity
 67
     1
  8
SLD-0
  6
Continuous
 62
   179
370
     0
100
AcDbLine
 10
66.7437602528
 20
226.6012685141
 30
0.0
 11
66.7437602528
 21
214.6014695754
 31
0.0
  0
LINE
  5
213
330
1B
100
AcDbEntity
 67
     1
  8
SLD-0
  6
Continuous
 62
   179
370
     0
100
AcDbLine
 10
60.2437582561
 20
214.6014695754
 30
0.0
 11
60.2437582561
 21
226.6012685141
 31
0.0
  0
LINE
  5
214
330
1B
100
AcDbEntity
 67
     1
  8
SLD-0
  6
Continuous
 62
   179
370
     0
100
AcDbLine
 10
83.7437593141
 20
226.6014678171
 30
0.0
 11
83.7437593141
 21
214.6014695754
 31
0.0
  0
LINE
  5
215
330
1B
100
AcDbEntity
 67
     1
  8
SLD-0
  6
Continuous
 62
   179
370
     0
100
AcDbLine
 10
86.7437598058
 20
214.6014695754
 30
0.0
 11
83.7437593141
 21
214.6014695754
 31
0.0
  0
LINE
  5
216
330
1B
100
AcDbEntity
 67
     1
  8
SLD-0
  6
Continuous
 62
   179
370
     0
100
AcDbLine
 10
86.7437598058
 20
226.6014678171
 30
0.0
 11
83.7437593141
 21
226.6014678171
 31
0.0
  0
LINE
  5
217
330
1B
100
AcDbEntity
 67
     1
  8
SLD-0
  6
Continuous
 62
   179
370
     0
100
AcDbLine
 10
142.7437615343
 20
226.6012685141
 30
0.0
 11
142.7437615343
 21
214.6014695754
 31
0.0
  0
LINE
  5
218
330
1B
100
AcDbEntity
 67
     1
  8
SLD-0
  6
Continuous
 62
   179
370
     0
100
AcDbLine
 10
145.7437601634
 20
214.6014695754
 30
0.0
 11
142.7437615343
 21
214.6014695754
 31
0.0
  0
LINE
  5
219
330
1B
100
AcDbEntity
 67
     1
  8
SLD-0
  6
Continuous
 62
   179
370
     0
100
AcDbLine
 10
145.7437601634
 20
226.6012685141
 30
0.0
 11
142.7437615343
 21
226.6012685141
 31
0.0
  0
LINE
  5
21A
330
1B
100
AcDbEntity
 67
     1
  8
SLD-0
  6
Continuous
 62
   179
370
     0
100
AcDbLine
 10
128.7437592396
 20
226.6014678171
 30
0.0
 11
128.7437592396
 21
214.6014695754
 31
0.0
  0
LINE
  5
21B
330
1B
100
AcDbEntity
 67
     1
  8
SLD-0
  6
Continuous
 62
   179
370
     0
100
AcDbLine
 10
128.7437592396
 20
214.6014695754
 30
0.0
 11
125.7437606105
 21
214.6014695754
 31
0.0
  0
LINE
  5
21C
330
1B
100
AcDbEntity
 67
     1
  8
SLD-0
  6
Continuous
 62
   179
370
     0
100
AcDbLine
 10
128.7437592396
 20
226.6014678171
 30
0.0
 11
125.7437606105
 21
226.6014678171
 31
0.0
  0
LINE
  5
21D
330
1B
100
AcDbEntity
 67
     1
  8
SLD-0
  6
Continuous
 62
   179
370
     0
100
AcDbLine
 10
69.7437588819
 20
226.6012685141
 30
0.0
 11
69.7437588819
 21
214.6014695754
 31
0.0
  0
LINE
  5
21E
330
1B
100
AcDbEntity
 67
     1
  8
SLD-0
  6
Continuous
 62
   179
370
     0
100
AcDbLine
 10
69.7437588819
 20
214.6014695754
 30
0.0
 11
66.7437602528
 21
214.6014695754
 31
0.0
  0
LINE
  5
21F
330
1B
100
AcDbEntity
 67
     1
  8
SLD-0
  6
Continuous
 62
   179
370
     0
100
AcDbLine
 10
69.7437588819
 20
226.6012685141
 30
0.0
 11
66.7437602528
 21
226.6012685141
 31
0.0
  0
LINE
  5
220
330
1B
100
AcDbEntity
 67
     1
  8
SLD-0
  6
Continuous
 62
   179
370
     0
100
AcDbLine
 10
142.7437615343
 20
214.6014695754
 30
0.0
 11
128.7437592396
 21
214.6014695754
 31
0.0
  0
LINE
  5
221
330
1B
100
AcDbEntity
 67
     1
  8
SLD-0
  6
Continuous
 62
   179
370
     0
100
AcDbLine
 10
119.2437604764
 20
229.6014683088
 30
0.0
 11
152.2437584349
 21
229.6014683088
 31
0.0
  0
LINE
  5
222
330
1B
100
AcDbEntity
 67
     1
  8
SLD-0
  6
Continuous
 62
   179
370
     0
100
AcDbLine
 10
152.2437584349
 20
229.6014683088
 30
0.0
 11
152.2437584349
 21
226.6012685141
 31
0.0
  0
LINE
  5
223
330
1B
100
AcDbEntity
 67
     1
  8
SLD-0
  6
Continuous
 62
   179
370
     0
100
AcDbLine
 10
83.7437593141
 20
214.6014695754
 30
0.0
 11
69.7437588819
 21
214.6014695754
 31
0.0
  0
LINE
  5
224
330
1B
100
AcDbEntity
 67
     1
  8
SLD-0
  6
Continuous
 62
   179
370
     0
100
AcDbLine
 10
60.2437582561
 20
229.6014683088
 30
0.0
 11
93.2437599399
 21
229.6014683088
 31
0.0
  0
LINE
  5
225
330
1B
100
AcDbEntity
 67
     1
  8
SLD-0
  6
Continuous
 62
   179
370
     0
100
AcDbLine
 10
60.2437582561
 20
229.6014683088
 30
0.0
 11
60.2437582561
 21
226.6012685141
 31
0.0
  0
CIRCLE
  5
226
330
1B
100
AcDbEntity
 67
     1
  8
SLD-0
  6
Continuous
 62
   179
370
     0
100
AcDbCircle
 10
68.7437600554
 20
123.3260734524
 30
0.0
 40
5.735509528937314
  0
CIRCLE
  5
227
330
1B
100
AcDbEntity
 67
     1
  8
SLD-0
  6
Continuous
 62
   179
370
     0
100
AcDbCircle
 10
68.7437600554
 20
123.3260734524
 30
0.0
 40
4.000000000000014
  0
CIRCLE
  5
228
330
1B
100
AcDbEntity
 67
     1
  8
SLD-0
  6
Continuous
 62
   179
370
     0
100
AcDbCircle
 10
143.7437600554
 20
123.3260734524
 30
0.0
 40
5.735509528937314
  0
CIRCLE
  5
229
330
1B
100
AcDbEntity
 67
     1
  8
SLD-0
  6
Continuous
 62
   179
370
     0
100
AcDbCircle
 10
143.7437600554
 20
123.3260734524
 30
0.0
 40
4.0
  0
ARC
  5
22A
330
1B
100
AcDbEntity
 67
     1
  8
SLD-0
  6
Continuous
 62
   179
370
     0
100
AcDbCircle
 10
94.7681765096
 20
111.7501943098
 30
0.0
 40
0.3000000000000093
100
AcDbArc
 50
45.2497672661
 51
95.8075284408
  0
ARC
  5
22B
330
1B
100
AcDbEntity
 67
     1
  8
SLD-0
  6
Continuous
 62
   179
370
     0
100
AcDbCircle
 10
106.2437600554
 20
123.3260734524
 30
0.0
 40
15.99999986623577
100
AcDbArc
 50
225.2492801234
 51
314.7507181623
  0
ARC
  5
22C
330
1B
100
AcDbEntity
 67
     1
  8
SLD-0
  6
Continuous
 62
   179
370
     0
100
AcDbCircle
 10
117.7193450583
 20
111.7501957543
 30
0.0
 40
0.3000000000174038
100
AcDbArc
 50
84.1926319904
 51
134.7507160198
  0
ARC
  5
22D
330
1B
100
AcDbEntity
 67
     1
  8
SLD-0
  6
Continuous
 62
   179
370
     0
100
AcDbCircle
 10
118.1949110558
 20
116.4260739587
 30
0.0
 40
4.400000000011088
100
AcDbArc
 50
264.1926307148
 51
35.8073844378
  0
ARC
  5
22E
330
1B
100
AcDbEntity
 67
     1
  8
SLD-0
  6
Continuous
 62
   179
370
     0
100
AcDbCircle
 10
122.0065572194
 20
119.1758655006
 30
0.0
 40
0.3000000000098704
100
AcDbArc
 50
165.249440829
 51
215.8071939723
  0
ARC
  5
22F
330
1B
100
AcDbEntity
 67
     1
  8
SLD-0
  6
Continuous
 62
   179
370
     0
100
AcDbCircle
 10
106.2437600554
 20
123.3260734524
 30
0.0
 40
16.00000001460953
100
AcDbArc
 50
345.2492839799
 51
74.7507158278
  0
ARC
  5
230
330
1B
100
AcDbEntity
 67
     1
  8
SLD-0
  6
Continuous
 62
   179
370
     0
100
AcDbCircle
 10
110.5309724481
 20
139.0521603902
 30
0.0
 40
0.2999999999913193
100
AcDbArc
 50
204.1926280751
 51
254.7507024602
  0
ARC
  5
231
330
1B
100
AcDbEntity
 67
     1
  8
SLD-0
  6
Continuous
 62
   179
370
     0
100
AcDbCircle
 10
106.2437601132
 20
137.1260735812
 30
0.0
 40
4.400000000001829
100
AcDbArc
 50
24.1926301522
 51
155.8073698478
  0
ARC
  5
232
330
1B
100
AcDbEntity
 67
     1
  8
SLD-0
  6
Continuous
 62
   179
370
     0
100
AcDbCircle
 10
101.9565477868
 20
139.0521604089
 30
0.0
 40
0.3000000000017942
100
AcDbArc
 50
285.2492839801
 51
335.8073680138
  0
ARC
  5
233
330
1B
100
AcDbEntity
 67
     1
  8
SLD-0
  6
Continuous
 62
   179
370
     0
100
AcDbCircle
 10
106.2437600554
 20
123.3260734524
 30
0.0
 40
15.9999999999913
100
AcDbArc
 50
105.2492839802
 51
194.7507160199
  0
ARC
  5
234
330
1B
100
AcDbEntity
 67
     1
  8
SLD-0
  6
Continuous
 62
   179
370
     0
100
AcDbCircle
 10
90.4809631147
 20
119.1758647101
 30
0.0
 40
0.299999999975578
100
AcDbArc
 50
324.1926319904
 51
14.750716033
  0
ARC
  5
235
330
1B
100
AcDbEntity
 67
     1
  8
SLD-0
  6
Continuous
 62
   179
370
     0
100
AcDbCircle
 10
94.2926086713
 20
116.426072327
 30
0.0
 40
4.399999999980336
100
AcDbArc
 50
144.19261392
 51
275.8073824414
  0
CIRCLE
  5
236
330
1B
100
AcDbEntity
 67
     1
  8
SLD-0
  6
Continuous
 62
   179
370
     0
100
AcDbCircle
 10
131.2437600554
 20
113.3260734524
 30
0.0
 40
2.5
  0
CIRCLE
  5
237
330
1B
100
AcDbEntity
 67
     1
  8
SLD-0
  6
Continuous
 62
   179
370
     0
100
AcDbCircle
 10
131.2437600554
 20
133.3260734524
 30
0.0
 40
2.5
  0
CIRCLE
  5
238
330
1B
100
AcDbEntity
 67
     1
  8
SLD-0
  6
Continuous
 62
   179
370
     0
100
AcDbCircle
 10
81.2437600554
 20
113.3260734524
 30
0.0
 40
2.5
  0
CIRCLE
  5
239
330
1B
100
AcDbEntity
 67
     1
  8
SLD-0
  6
Continuous
 62
   179
370
     0
100
AcDbCircle
 10
81.2437600554
 20
133.3260734524
 30
0.0
 40
2.5
  0
CIRCLE
  5
23A
330
1B
100
AcDbEntity
 67
     1
  8
SLD-0
  6
Continuous
 62
   179
370
     0
100
AcDbCircle
 10
143.7437600554
 20
123.3260734524
 30
0.0
 40
6.000000000000028
  0
CIRCLE
  5
23B
330
1B
100
AcDbEntity
 67
     1
  8
SLD-0
  6
Continuous
 62
   179
370
     0
100
AcDbCircle
 10
68.7437600554
 20
123.3260734524
 30
0.0
 40
6.000000000000014
  0
ARC
  5
23C
330
1B
100
AcDbEntity
 67
     1
  8
SLD-0
  6
Continuous
 62
   179
370
     0
100
AcDbCircle
 10
128.743760873
 20
148.8260731097
 30
0.0
 40
2.999999722450212
100
AcDbArc
 50
179.9999718926
 51
270.0
  0
ARC
  5
23D
330
1B
100
AcDbEntity
 67
     1
  8
SLD-0
  6
Continuous
 62
   179
370
     0
100
AcDbCircle
 10
142.743760873
 20
148.8260729459
 30
0.0
 40
3.000000441350233
100
AcDbArc
 50
270.0000282449
 51
0.0
  0
ARC
  5
23E
330
1B
100
AcDbEntity
 67
     1
  8
SLD-0
  6
Continuous
 62
   179
370
     0
100
AcDbCircle
 10
69.7437601541
 20
148.8260734524
 30
0.0
 40
2.999999901300185
100
AcDbArc
 50
179.9999718926
 51
270.0
  0
ARC
  5
23F
330
1B
100
AcDbEntity
 67
     1
  8
SLD-0
  6
Continuous
 62
   179
370
     0
100
AcDbCircle
 10
83.7437601541
 20
148.8260731097
 30
0.0
 40
3.000000441350053
100
AcDbArc
 50
269.9999858422
 51
0.0
  0
CIRCLE
  5
240
330
1B
100
AcDbEntity
 67
     1
  8
SLD-0
  6
Continuous
 62
   179
370
     0
100
AcDbCircle
 10
64.2437600554
 20
152.3260734524
 30
0.0
 40
1.249999999999972
  0
CIRCLE
  5
241
330
1B
100
AcDbEntity
 67
     1
  8
SLD-0
  6
Continuous
 62
   179
370
     0
100
AcDbCircle
 10
89.2337600554
 20
152.3260734524
 30
0.0
 40
1.249999999999972
  0
CIRCLE
  5
242
330
1B
100
AcDbEntity
 67
     1
  8
SLD-0
  6
Continuous
 62
   179
370
     0
100
AcDbCircle
 10
123.2537600554
 20
152.3260734524
 30
0.0
 40
1.249999999999972
  0
CIRCLE
  5
243
330
1B
100
AcDbEntity
 67
     1
  8
SLD-0
  6
Continuous
 62
   179
370
     0
100
AcDbCircle
 10
148.2437600554
 20
152.3260734524
 30
0.0
 40
1.25
  0
SPLINE
  5
244
330
1B
100
AcDbEntity
 67
     1
  8
SLD-0
  6
Continuous
 62
   179
370
     0
100
AcDbSpline
210
0.0
220
0.0
230
1.0
 70
     8
 71
     3
 72
    18
 73
    14
 74
     0
 42
0.00000001
 43
0.00000001
 40
0.0
 40
0.0
 40
0.0
 40
0.0
 40
0.0372932237904972
 40
0.141376573434617
 40
0.1965683736850003
 40
0.2536519651210927
 40
0.3695084226170414
 40
0.4857034170283744
 40
0.5989544884165797
 40
0.7061084369804252
 40
0.8058332524108968
 40
0.9028465481621509
 40
1.0
 40
1.0
 40
1.0
 40
1.0
 10
94.73782040371756
 20
112.0486545363908
 30
0.0
 10
94.733438280814
 20
112.0530071696638
 30
0.0
 10
94.7168258923556
 20
112.0695077645443
 30
0.0
 10
94.52622178148157
 20
112.258839742539
 30
0.0
 10
94.19071458810323
 20
112.6168968213764
 30
0.0
 10
93.76006118287181
 20
113.103368791187
 30
0.0
 10
93.11474797117604
 20
113.9111050597066
 30
0.0
 10
92.3433502544834
 20
115.0794366324781
 30
0.0
 10
91.69480169556898
 20
116.299339033124
 30
0.0
 10
91.22483820787403
 20
117.4090825842873
 30
0.0
 10
90.92547021511291
 20
118.2820781475675
 30
0.0
 10
90.75455047161954
 20
118.8820179592648
 30
0.0
 10
90.7343614758252
 20
118.9608844230597
 30
0.0
 10
90.72425969138007
 20
119.0003461191898
 30
0.0
  0
SPLINE
  5
245
330
1B
100
AcDbEntity
 67
     1
  8
SLD-0
  6
Continuous
 62
   179
370
     0
100
AcDbSpline
210
0.0
220
0.0
230
1.0
 70
     8
 71
     3
 72
    20
 73
    16
 74
     0
 42
0.00000001
 43
0.00000001
 40
0.0
 40
0.0
 40
0.0
 40
0.0
 40
0.0979759286696165
 40
0.195434604455122
 40
0.2950538784532776
 40
0.401533246891512
 40
0.5137315905032039
 40
0.5715301953919575
 40
0.6293255953688414
 40
0.6872116180449558
 40
0.7450857298612384
 40
0.801321947970749
 40
0.8575388192629638
 40
0.9623735486661993
 40
0.9999999999999999
 40
0.9999999999999999
 40
0.9999999999999999
 40
0.9999999999999999
 10
90.77107594177436
 20
119.2522489201358
 30
0.0
 10
90.78163373953979
 20
119.2110072710303
 30
0.0
 10
90.80269359636611
 20
119.1287417034621
 30
0.0
 10
90.98133907269494
 20
118.5014408658272
 30
0.0
 10
91.29492484714818
 20
117.5864843232897
 30
0.0
 10
91.78749428822391
 20
116.4225708458675
 30
0.0
 10
92.35258860880793
 20
115.3595908031185
 30
0.0
 10
92.8704983561624
 20
114.5328351822065
 30
0.0
 10
93.2787515754814
 20
113.9411079618234
 30
0.0
 10
93.68526682220141
 20
113.405830244953
 30
0.0
 10
94.06715331756156
 20
112.9416335912719
 30
0.0
 10
94.40426666847556
 20
112.5607477595571
 30
0.0
 10
94.75761164876293
 20
112.1834257108055
 30
0.0
 10
94.95737152989946
 20
111.9851228849804
 30
0.0
 10
94.9747830975236
 20
111.9678192520751
 30
0.0
 10
94.9793817923994
 20
111.9632490646175
 30
0.0
  0
SPLINE
  5
246
330
1B
100
AcDbEntity
 67
     1
  8
SLD-0
  6
Continuous
 62
   179
370
     0
100
AcDbSpline
210
0.0
220
0.0
230
1.0
 70
     8
 71
     3
 72
    18
 73
    14
 74
     0
 42
0.00000001
 43
0.00000001
 40
0.0
 40
0.0
 40
0.0
 40
0.0
 40
0.0372932282751861
 40
0.1413765319409203
 40
0.1965683638261894
 40
0.2536519823205728
 40
0.3695084336708109
 40
0.4857034101612735
 40
0.5989544845838338
 40
0.7061084147580944
 40
0.8058332863379651
 40
0.9028465385693205
 40
1.0
 40
1.0
 40
1.0
 40
1.0
 10
102.2301996337391
 20
138.9292186883007
 30
0.0
 10
102.2361603335749
 20
138.9308378577702
 30
0.0
 10
102.2587570115697
 20
138.936976038207
 30
0.0
 10
102.5180232145515
 20
139.0073733612356
 30
0.0
 10
102.9958637045253
 20
139.118907295775
 30
0.0
 10
103.6324890256289
 20
139.248621475735
 30
0.0
 10
104.6546644904703
 20
139.4036175350285
 30
0.0
 10
106.0521684562924
 20
139.4874993520681
 30
0.0
 10
107.43290888351
 20
139.4392069470756
 30
0.0
 10
108.6289569142613
 20
139.291338905283
 30
0.0
 10
109.5346775431222
 20
139.1140968548735
 30
0.0
 10
110.1396995306433
 20
138.9621516150063
 30
0.0
 10
110.2180947021414
 20
138.9402016139545
 30
0.0
 10
110.2573205927528
 20
138.9292186883007
 30
0.0
  0
SPLINE
  5
247
330
1B
100
AcDbEntity
 67
     1
  8
SLD-0
  6
Continuous
 62
   179
370
     0
100
AcDbSpline
210
0.0
220
0.0
230
1.0
 70
     8
 71
     3
 72
    20
 73
    16
 74
     0
 42
0.00000001
 43
0.00000001
 40
0.0
 40
0.0
 40
0.0
 40
0.0
 40
0.097975907933871
 40
0.1954346421541831
 40
0.2950538704380055
 40
0.4015332303756885
 40
0.5137315343359404
 40
0.5715302135174971
 40
0.6293255706435632
 40
0.6872116233330042
 40
0.7450857389946051
 40
0.8013219549286641
 40
0.8575388418401936
 40
0.9623735458671797
 40
1.0
 40
1.0
 40
1.0
 40
1.0
 10
110.4520666323063
 20
138.7627232256595
 30
0.0
 10
110.4110717351776
 20
138.7741991477363
 30
0.0
 10
110.3292983357832
 20
138.7970904153119
 30
0.0
 10
109.6967158253401
 20
138.9560361152856
 30
0.0
 10
108.7475471174217
 20
139.141932672341
 30
0.0
 10
107.4932846035477
 20
139.2973188632875
 30
0.0
 10
106.2901696110908
 20
139.3394198449419
 30
0.0
 10
105.315223069403
 20
139.3042786900173
 30
0.0
 10
104.5986460798758
 20
139.2465773342907
 30
0.0
 10
103.9318238484032
 20
139.1621674537498
 30
0.0
 10
103.3388742213004
 20
139.0635425957429
 30
0.0
 10
102.8404605573848
 20
138.9620383942663
 30
0.0
 10
102.3370173919404
 20
138.8446902738447
 30
0.0
 10
102.0654038291333
 20
138.7708467733738
 30
0.0
 10
102.0417111738346
 20
138.7644205122833
 30
0.0
 10
102.0354535340724
 20
138.7627232256595
 30
0.0
  0
SPLINE
  5
248
330
1B
100
AcDbEntity
 67
     1
  8
SLD-0
  6
Continuous
 62
   179
370
     0
100
AcDbSpline
210
0.0
220
0.0
230
1.0
 70
     8
 71
     3
 72
    18
 73
    14
 74
     0
 42
0.00000001
 43
0.00000001
 40
0.0
 40
0.0
 40
0.0
 40
0.0
 40
0.0372932304912675
 40
0.1413765334355307
 40
0.1965683234264704
 40
0.2536519926794154
 40
0.3695084545251831
 40
0.4857034321520963
 40
0.5989544815668509
 40
0.7061084144371961
 40
0.805833251706713
 40
0.9028465353653723
 40
1.0
 40
1.0
 40
1.0
 40
1.0
 10
121.7632601095304
 20
119.0003476486762
 30
0.0
 10
121.7616816983137
 20
118.9943758878644
 30
0.0
 10
121.7556980304147
 20
118.9717372794375
 30
0.0
 10
121.6870361019964
 20
118.7120058669648
 30
0.0
 10
121.5447017268524
 20
118.242420057266
 30
0.0
 10
121.3387309804629
 20
117.6262258087101
 30
0.0
 10
120.9618687393928
 20
116.6635000531024
 30
0.0
 10
120.3357617780678
 20
115.4112847399179
 30
0.0
 10
119.6035701573184
 20
114.2396740093957
 30
0.0
 10
118.8774854377453
 20
113.2778025418129
 30
0.0
 10
118.2711324751867
 20
112.5820444975271
 30
0.0
 10
117.8370296958855
 20
112.1340543835312
 30
0.0
 10
117.7788241250384
 20
112.0771358694263
 30
0.0
 10
117.7497003285154
 20
112.0486560658772
 30
0.0
  0
SPLINE
  5
249
330
1B
100
AcDbEntity
 67
     1
  8
SLD-0
  6
Continuous
 62
   179
370
     0
100
AcDbSpline
210
0.0
220
0.0
230
1.0
 70
     8
 71
     3
 72
    20
 73
    16
 74
     0
 42
0.00000001
 43
0.00000001
 40
0.0
 40
0.0
 40
0.0
 40
0.0
 40
0.0979759210518197
 40
0.1954345948896932
 40
0.2950539037624629
 40
0.4015332038361151
 40
0.5137315097790924
 40
0.5715302099805925
 40
0.6293255894323724
 40
0.6872116695353521
 40
0.7450857391310545
 40
0.8013219201551174
 40
0.8575388531614723
 40
0.9623735429308238
 40
1.0
 40
1.0
 40
1.0
 40
1.0
 10
117.5081379784299
 20
111.9632487275923
 30
0.0
 10
117.5385754195383
 20
111.9930126071037
 30
0.0
 10
117.5992896124607
 20
112.0523832327859
 30
0.0
 10
118.0532268011379
 20
112.5207439623817
 30
0.0
 10
118.6888073044367
 20
113.2497979884896
 30
0.0
 10
119.4505015815969
 20
114.2583311613382
 30
0.0
 10
120.0885217049528
 20
115.2792075798142
 30
0.0
 10
120.5455585082437
 20
116.1411085105793
 30
0.0
 10
120.8538820776047
 20
116.790530564413
 30
0.0
 10
121.1141891804563
 20
117.4102219938724
 30
0.0
 10
121.32525362145
 20
117.9730429357218
 30
0.0
 10
121.4865530967148
 20
118.4554336219736
 30
0.0
 10
121.6366519895821
 20
118.9501030881221
 30
0.0
 10
121.7085048931011
 20
119.2222481962303
 30
0.0
 10
121.7147853940411
 20
119.2459807403071
 30
0.0
 10
121.7164441831512
 20
119.2522489163724
 30
0.0
  0
SPLINE
  5
24A
330
1B
100
AcDbEntity
 67
     1
  8
SLD-0
  6
Continuous
 62
   179
370
     0
100
AcDbSpline
210
0.0
220
0.0
230
1.0
 70
     8
 71
     3
 72
     9
 73
     5
 74
     0
 42
0.00000001
 43
0.00000001
 40
0.0
 40
0.0
 40
0.0
 40
0.0
 40
0.5922367266820816
 40
1.0
 40
1.0
 40
1.0
 40
1.0
 10
69.517622585
 20
234.1014681151
 30
0.0
 10
69.53378907165231
 20
234.2989106953024
 30
0.0
 10
69.56108641057772
 20
234.6322952547311
 30
0.0
 10
69.58852209304004
 20
234.9655707657308
 30
0.0
 10
69.5997093567266
 20
235.1014682790127
 30
0.0
  0
SPLINE
  5
24B
330
1B
100
AcDbEntity
 67
     1
  8
SLD-0
  6
Continuous
 62
   179
370
     0
100
AcDbSpline
210
0.0
220
0.0
230
1.0
 70
     8
 71
     3
 72
     9
 73
     5
 74
     0
 42
0.00000001
 43
0.00000001
 40
0.0
 40
0.0
 40
0.0
 40
0.0
 40
0.4077632733179184
 40
1.0
 40
1.0
 40
1.0
 40
1.0
 10
68.6519843289266
 20
235.1014682790127
 30
0.0
 10
68.64079706524004
 20
234.9655707657308
 30
0.0
 10
68.61336138277773
 20
234.6322952547311
 30
0.0
 10
68.58606404385232
 20
234.2989106953024
 30
0.0
 10
68.5698975572
 20
234.1014681151
 30
0.0
  0
SPLINE
  5
24C
330
1B
100
AcDbEntity
 67
     1
  8
SLD-0
  6
Continuous
 62
   179
370
     0
100
AcDbSpline
210
0.0
220
0.0
230
1.0
 70
     8
 71
     3
 72
     9
 73
     5
 74
     0
 42
0.00000001
 43
0.00000001
 40
0.0
 40
0.0
 40
0.0
 40
0.0
 40
0.40776315871254
 40
1.0
 40
1.0
 40
1.0
 40
1.0
 10
135.7589595713307
 20
235.1014682790127
 30
0.0
 10
135.7761719307843
 20
234.9655707525767
 30
0.0
 10
135.8183835898953
 20
234.6322951156479
 30
0.0
 10
135.8603886153227
 20
234.2989106675662
 30
0.0
 10
135.8852655389
 20
234.1014681151
 30
0.0
  0
SPLINE
  5
24D
330
1B
100
AcDbEntity
 67
     1
  8
SLD-0
  6
Continuous
 62
   179
370
     0
100
AcDbSpline
210
0.0
220
0.0
230
1.0
 70
     8
 71
     3
 72
     9
 73
     5
 74
     0
 42
0.00000001
 43
0.00000001
 40
0.0
 40
0.0
 40
0.0
 40
0.0
 40
0.5922368163728887
 40
1.0
 40
1.0
 40
1.0
 40
1.0
 10
136.7564339885
 20
234.1014681151
 30
0.0
 10
136.7315581359256
 20
234.2989106735959
 30
0.0
 10
136.6895549171344
 20
234.6322951458838
 30
0.0
 10
136.6473412146488
 20
234.9655707554363
 30
0.0
 10
136.6301280209306
 20
235.1014682790127
 30
0.0
  0
SPLINE
  5
24E
330
1B
100
AcDbEntity
 67
     1
  8
SLD-0
  6
Continuous
 62
   179
370
     0
100
AcDbSpline
210
0.0
220
0.0
230
1.0
 70
     8
 71
     3
 72
     9
 73
     5
 74
     0
 42
0.00000001
 43
0.00000001
 40
0.0
 40
0.0
 40
0.0
 40
0.0
 40
0.5922364785256935
 40
1.0
 40
1.0
 40
1.0
 40
1.0
 10
141.3691592165
 20
234.1014681151
 30
0.0
 10
141.408252542623
 20
234.2989107553597
 30
0.0
 10
141.4742621984624
 20
234.6322955558896
 30
0.0
 10
141.5405999990203
 20
234.9655707942136
 30
0.0
 10
141.5676501341827
 20
235.1014682790127
 30
0.0
  0
SPLINE
  5
24F
330
1B
100
AcDbEntity
 67
     1
  8
SLD-0
  6
Continuous
 62
   179
370
     0
100
AcDbSpline
210
0.0
220
0.0
230
1.0
 70
     8
 71
     3
 72
     9
 73
     5
 74
     0
 42
0.00000001
 43
0.00000001
 40
0.0
 40
0.0
 40
0.0
 40
0.0
 40
0.4077635214743066
 40
1.0
 40
1.0
 40
1.0
 40
1.0
 10
140.9315270134827
 20
235.1014682790127
 30
0.0
 10
140.9044768783203
 20
234.9655707942136
 30
0.0
 10
140.8381390777624
 20
234.6322955558896
 30
0.0
 10
140.772129421923
 20
234.2989107553597
 30
0.0
 10
140.7330360958
 20
234.1014681151
 30
0.0
  0
SPLINE
  5
250
330
1B
100
AcDbEntity
 67
     1
  8
SLD-0
  6
Continuous
 62
   179
370
     0
100
AcDbSpline
210
0.0
220
0.0
230
1.0
 70
     8
 71
     3
 72
     9
 73
     5
 74
     0
 42
0.00000001
 43
0.00000001
 40
0.0
 40
0.0
 40
0.0
 40
0.0
 40
0.4077634843230545
 40
1.0
 40
1.0
 40
1.0
 40
1.0
 10
79.17241461066209
 20
235.1014682790127
 30
0.0
 10
79.20746833496996
 20
234.9655707899494
 30
0.0
 10
79.29343415990414
 20
234.6322955108034
 30
0.0
 10
79.37897457343873
 20
234.2989107463686
 30
0.0
 10
79.4296347299
 20
234.1014681151
 30
0.0
  0
SPLINE
  5
251
330
1B
100
AcDbEntity
 67
     1
  8
SLD-0
  6
Continuous
 62
   179
370
     0
100
AcDbSpline
210
0.0
220
0.0
230
1.0
 70
     8
 71
     3
 72
     9
 73
     5
 74
     0
 42
0.00000001
 43
0.00000001
 40
0.0
 40
0.0
 40
0.0
 40
0.0
 40
0.5922367837235971
 40
1.0
 40
1.0
 40
1.0
 40
1.0
 10
75.0426620939
 20
234.1014681151
 30
0.0
 10
75.0933225006472
 20
234.2989106814975
 30
0.0
 10
75.17886329807739
 20
234.6322951855064
 30
0.0
 10
75.26482736576732
 20
234.9655707591837
 30
0.0
 10
75.29988035049276
 20
235.1014682790127
 30
0.0
  0
INSERT
  5
252
330
1B
100
AcDbEntity
 67
     1
  8
0
  6
Continuous
 62
     7
100
AcDbBlockReference
  2
_OPEN30
 10
162.2437600554
 20
100.2902609343
 30
0.0
 41
3.0
 42
3.0
 43
3.0
 50
180.0
  0
INSERT
  5
253
330
1B
100
AcDbEntity
 67
     1
  8
0
  6
Continuous
 62
     7
100
AcDbBlockReference
  2
_OPEN30
 10
50.2437600554
 20
100.1032565615
 30
0.0
 41
3.0
 42
3.0
 43
3.0
  0
INSERT
  5
254
330
1B
100
AcDbEntity
 67
     1
  8
0
  6
Continuous
 62
     7
100
AcDbBlockReference
  2
SW_NOTE_1
 10
172.4584618981
 20
81.4778619474
 30
0.0
  0
INSERT
  5
255
330
1B
100
AcDbEntity
 67
     1
  8
0
  6
Continuous
 62
     7
100
AcDbBlockReference
  2
SW_NOTE_0
 10
179.0186111948
 20
186.3840521661
 30
0.0
  0
INSERT
  5
256
330
1B
100
AcDbEntity
 67
     1
  8
0
  6
Continuous
 62
     7
100
AcDbBlockReference
  2
SW_NOTE_2
 10
32.4896549004
 20
81.5532020342
 30
0.0
  0
INSERT
  5
257
330
1B
100
AcDbEntity
 67
     1
  8
0
  6
Continuous
 62
     7
100
AcDbBlockReference
  2
SW_CENTERMARKSYMBOL_3
 10
131.2437600554
 20
133.3260734524
 30
0.0
  0
INSERT
  5
258
330
1B
100
AcDbEntity
 67
     1
  8
0
  6
Continuous
 62
     7
100
AcDbBlockReference
  2
SW_NOTE_3
 10
40.6353548423
 20
169.8597801272
 30
0.0
  0
INSERT
  5
259
330
1B
100
AcDbEntity
 67
     1
  8
0
  6
Continuous
 62
     7
100
AcDbBlockReference
  2
SW_CENTERMARKSYMBOL_1
 10
81.2437600554
 20
113.3260734524
 30
0.0
  0
INSERT
  5
25A
330
1B
100
AcDbEntity
 67
     1
  8
0
  6
Continuous
 62
     7
100
AcDbBlockReference
  2
SW_CENTERMARKSYMBOL_0
 10
81.2437600554
 20
133.3260734524
 30
0.0
  0
INSERT
  5
25B
330
1B
100
AcDbEntity
 67
     1
  8
0
  6
Continuous
 62
     7
100
AcDbBlockReference
  2
SW_CENTERMARKSYMBOL_2
 10
131.2437600554
 20
113.3260734524
 30
0.0
  0
INSERT
  5
25C
330
1B
100
AcDbEntity
 67
     1
  8
0
  6
Continuous
 62
     7
100
AcDbBlockReference
  2
SW_CENTERMARKSYMBOL_5
 10
143.7437600554
 20
123.3260734524
 30
0.0
  0
INSERT
  5
25D
330
1B
100
AcDbEntity
 67
     1
  8
0
  6
Continuous
 62
     7
100
AcDbBlockReference
  2
_OPEN30
 10
50.2437600554
 20
111.2628547202
 30
0.0
 41
3.0
 42
3.0
 43
3.0
  0
INSERT
  5
25E
330
1B
100
AcDbEntity
 67
     1
  8
0
  6
Continuous
 62
     7
100
AcDbBlockReference
  2
SW_CENTERMARKSYMBOL_4
 10
68.7437600554
 20
123.3260734524
 30
0.0
  0
INSERT
  5
25F
330
1B
100
AcDbEntity
 67
     1
  8
0
  6
Continuous
 62
     7
100
AcDbBlockReference
  2
_OPEN30
 10
162.2437600554
 20
110.8402218605
 30
0.0
 41
3.0
 42
3.0
 43
3.0
 50
180.0
  0
DIMENSION
  5
260
330
1B
100
AcDbEntity
 67
     1
  8
SLD-0
 62
   179
100
AcDbDimension
  2
*D13
 10
60.2437600554
 20
170.6689114306
 30
0.0
 11
70.7437600554
 21
170.6689114306
 31
0.0
 70
   160
 71
     2
 42
-1.0
  3
SLDDIMSTYLE0
100
AcDbAlignedDimension
 13
81.2437600554
 23
138.3260734524
 33
0.0
 14
60.2437600554
 24
158.8260734524
 34
0.0
100
AcDbRotatedDimension
  0
DIMENSION
  5
273
330
1B
100
AcDbEntity
 67
     1
  8
SLD-0
 62
   179
100
AcDbDimension
  2
*D14
 10
81.2437600554
 20
170.6689114306
 30
0.0
 11
106.2437600554
 21
170.6689114306
 31
0.0
 70
   160
 71
     2
 42
-1.0
  3
SLDDIMSTYLE0
100
AcDbAlignedDimension
 13
131.2437600554
 23
138.3260734524
 33
0.0
 14
81.2437600554
 24
138.3260734524
 34
0.0
100
AcDbRotatedDimension
  0
DIMENSION
  5
281
330
1B
100
AcDbEntity
 67
     1
  8
SLD-0
 62
   179
100
AcDbDimension
  2
*D15
 10
131.2437600554
 20
170.6689114306
 30
0.0
 11
141.7437600554
 21
170.6689114306
 31
0.0
 70
   160
 71
     2
 42
-1.0
  3
SLDDIMSTYLE0
100
AcDbAlignedDimension
 13
152.2437600554
 23
158.8260734524
 33
0.0
 14
131.2437600554
 24
138.3260734524
 34
0.0
100
AcDbRotatedDimension
  0
DIMENSION
  5
28F
330
1B
100
AcDbEntity
 67
     1
  8
SLD-0
 62
   179
100
AcDbDimension
  2
*D16
 10
60.2437600554
 20
183.8548718823
 30
0.0
 11
106.2437600554
 21
183.8548718823
 31
0.0
 70
   160
 71
     2
 42
-1.0
  3
SLDDIMSTYLE0
100
AcDbAlignedDimension
 13
152.2437600554
 23
158.8260734524
 33
0.0
 14
60.2437600554
 24
158.8260734524
 34
0.0
100
AcDbRotatedDimension
  0
DIMENSION
  5
29D
330
1B
100
AcDbEntity
 67
     1
  8
SLD-0
 62
   179
100
AcDbDimension
  2
*D17
 10
40.2437600554
 20
158.8260734524
 30
0.0
 11
40.2437600554
 21
141.0760734524
 31
0.0
 70
   160
 71
     2
 42
-1.0
  3
SLDDIMSTYLE1
100
AcDbAlignedDimension
 13
60.2437600554
 23
123.3260734524
 33
0.0
 14
60.2437600554
 24
158.8260734524
 34
0.0
 50
90.0
100
AcDbRotatedDimension
  0
DIMENSION
  5
2AC
330
1B
100
AcDbEntity
 67
     1
  8
SLD-0
 62
   179
100
AcDbDimension
  2
*D18
 10
40.2437600554
 20
123.3260734524
 30
0.0
 11
40.2437600554
 21
108.5760734524
 31
0.0
 70
   160
 71
     2
 42
-1.0
  3
SLDDIMSTYLE1
100
AcDbAlignedDimension
 13
60.2437600554
 23
93.8260734524
 33
0.0
 14
60.2437600554
 24
123.3260734524
 34
0.0
 50
90.0
100
AcDbRotatedDimension
  0
DIMENSION
  5
2BA
330
1B
100
AcDbEntity
 67
     1
  8
SLD-0
 62
   179
100
AcDbDimension
  2
*D19
 10
26.0295958646
 20
93.8260734524
 30
0.0
 11
26.0295958646
 21
126.3260734524
 31
0.0
 70
   160
 71
     2
 42
-1.0
  3
SLDDIMSTYLE0
100
AcDbAlignedDimension
 13
60.2437600554
 23
158.8260734524
 33
0.0
 14
60.2437600554
 24
93.8260734524
 34
0.0
 50
90.0
100
AcDbRotatedDimension
  0
DIMENSION
  5
2C8
330
1B
100
AcDbEntity
 67
     1
  8
SLD-0
 62
   179
100
AcDbDimension
  2
*D20
 10
60.2437600554
 20
81.6920526558
 30
0.0
 11
53.2703499487
 21
81.6920526558
 31
0.0
 70
   160
 71
     2
 42
-1.0
  3
SLDDIMSTYLE1
100
AcDbAlignedDimension
 13
68.7437600554
 23
114.8260734524
 33
0.0
 14
60.2437600554
 24
93.8260734524
 34
0.0
100
AcDbRotatedDimension
  0
DIMENSION
  5
2D8
330
1B
100
AcDbEntity
 67
     1
  8
SLD-0
 62
   179
100
AcDbDimension
  2
*D21
 10
68.7437600554
 20
81.6920526558
 30
0.0
 11
106.2437600554
 21
81.6920526558
 31
0.0
 70
   160
 71
     2
 42
-1.0
  3
SLDDIMSTYLE0
100
AcDbAlignedDimension
 13
143.7437600554
 23
114.8260734524
 33
0.0
 14
68.7437600554
 24
114.8260734524
 34
0.0
100
AcDbRotatedDimension
  0
DIMENSION
  5
2E6
330
1B
100
AcDbEntity
 67
     1
  8
SLD-0
 62
   179
100
AcDbDimension
  2
*D22
 10
143.7437600554
 20
81.6920526558
 30
0.0
 11
160.4371388516
 21
81.6920526558
 31
0.0
 70
   160
 71
     2
 42
-1.0
  3
SLDDIMSTYLE1
100
AcDbAlignedDimension
 13
152.2437600554
 23
93.8260734524
 33
0.0
 14
143.7437600554
 24
114.8260734524
 34
0.0
100
AcDbRotatedDimension
  0
DIMENSION
  5
2F6
330
1B
100
AcDbEntity
 67
     1
  8
SLD-0
 62
   179
100
AcDbDimension
  2
*D23
 10
181.248619719
 20
158.8260734524
 30
0.0
 11
181.248619719
 21
146.0760734524
 31
0.0
 70
   160
 71
     2
 42
-1.0
  3
SLDDIMSTYLE1
100
AcDbAlignedDimension
 13
136.2437600554
 23
133.3260734524
 33
0.0
 14
152.2437600554
 24
158.8260734524
 34
0.0
 50
90.0
100
AcDbRotatedDimension
  0
DIMENSION
  5
304
330
1B
100
AcDbEntity
 67
     1
  8
SLD-0
 62
   179
100
AcDbDimension
  2
*D24
 10
181.248619719
 20
133.3260734524
 30
0.0
 11
181.248619719
 21
123.3260734524
 31
0.0
 70
   160
 71
     2
 42
-1.0
  3
SLDDIMSTYLE0
100
AcDbAlignedDimension
 13
136.2437600554
 23
113.3260734524
 33
0.0
 14
136.2437600554
 24
133.3260734524
 34
0.0
 50
90.0
100
AcDbRotatedDimension
  0
DIMENSION
  5
312
330
1B
100
AcDbEntity
 67
     1
  8
SLD-0
 62
   179
100
AcDbDimension
  2
*D25
 10
181.248619719
 20
113.3260734524
 30
0.0
 11
181.248619719
 21
103.5760734524
 31
0.0
 70
   160
 71
     2
 42
-1.0
  3
SLDDIMSTYLE1
100
AcDbAlignedDimension
 13
152.2437600554
 23
93.8260734524
 33
0.0
 14
136.2437600554
 24
113.3260734524
 34
0.0
 50
90.0
100
AcDbRotatedDimension
  0
DIMENSION
  5
322
330
1B
100
AcDbEntity
 67
     1
  8
SLD-0
 62
   179
100
AcDbDimension
  2
*D26
 10
3.5075981257
 20
3.5632496749
 30
0.0
 11
167.764978937
 21
196.0895524931
 31
0.0
 70
   163
  1
<>-M6(ツール取付用タップ)<>
 71
     1
 42
-1.0
  3
SLDDIMSTYLE2
100
AcDbDiametricDimension
 15
0.0
 25
0.0
 35
0.0
 40
0.0
  0
DIMENSION
  5
32D
330
1B
100
AcDbEntity
 67
     1
  8
SLD-0
 62
   179
100
AcDbDimension
  2
*D27
 10
35.9766756298
 20
235.1014685588
 30
0.0
 11
35.9766756298
 21
224.8514685588
 31
0.0
 70
   160
 71
     2
 42
-1.0
  3
SLDDIMSTYLE0
100
AcDbAlignedDimension
 13
60.2437600554
 23
214.6014685588
 33
0.0
 14
67.7437600554
 24
235.1014685588
 34
0.0
 50
90.0
100
AcDbRotatedDimension
  0
DIMENSION
  5
33B
330
1B
100
AcDbEntity
 67
     1
  8
SLD-0
 62
   179
100
AcDbDimension
  2
*D28
 10
43.7438306856
 20
229.6014685588
 30
0.0
 11
43.7438306856
 21
222.1014685588
 31
0.0
 70
   160
 71
     2
 42
-1.0
  3
SLDDIMSTYLE0
100
AcDbAlignedDimension
 13
60.2437600554
 23
214.6014685588
 33
0.0
 14
60.2437600554
 24
229.6014685588
 34
0.0
 50
90.0
100
AcDbRotatedDimension
  0
MTEXT
  5
349
330
1B
100
AcDbEntity
 67
     1
  8
SLD-0
 62
   179
100
AcDbMText
 10
154.077812517
 20
29.4771744232
 30
0.0
 40
4.2333333333
 41
0.0
 71
     1
 72
     1
  1
OX-特Ｉ
  7
SLDTEXTSTYLE0
 73
     1
 44
1.0
  0
MTEXT
  5
34A
330
1B
100
AcDbEntity
 67
     1
  8
SLD-0
 62
   179
100
AcDbMText
 10
134.012815228
 20
43.2828319182
 30
0.0
 40
3.175
 41
0.0
 71
     1
 72
     1
  1
チャックワンタッチ・自動・ツール側
  7
SLDTEXTSTYLE0
 73
     1
 44
1.0
  0
MTEXT
  5
34B
330
1B
100
AcDbEntity
 67
     1
  8
SLD-0
 62
   179
100
AcDbMText
 10
155.561197012
 20
15.8828352685
 30
0.0
 40
4.2333333333
 41
0.0
 71
     1
 72
     1
  1
999999
  7
SLDTEXTSTYLE0
 73
     1
 44
1.0
  0
ENDSEC
  0
SECTION
  2
OBJECTS
  0
DICTIONARY
  5
C
330
0
100
AcDbDictionary
281
     1
  3
ACAD_GROUP
350
D
  3
ACAD_LAYOUT
350
1A
  3
ACAD_MLINESTYLE
350
17
  3
ACAD_PLOTSETTINGS
350
19
  3
ACAD_PLOTSTYLENAME
350
E
  3
ACAD_SCALELIST
350
55
  3
AcDbVariableDictionary
350
34C
  0
DICTIONARY
  5
D
102
{ACAD_REACTORS
330
C
102
}
330
C
100
AcDbDictionary
281
     1
  0
DICTIONARY
  5
1A
102
{ACAD_REACTORS
330
C
102
}
330
C
100
AcDbDictionary
281
     1
  3
Model
350
22
  3
SW_Model_1
350
1E
  0
DICTIONARY
  5
17
102
{ACAD_REACTORS
330
C
102
}
330
C
100
AcDbDictionary
281
     1
  3
Standard
350
18
  0
DICTIONARY
  5
19
102
{ACAD_REACTORS
330
C
102
}
330
C
100
AcDbDictionary
281
     1
  0
ACDBDICTIONARYWDFLT
  5
E
102
{ACAD_REACTORS
330
C
102
}
330
C
100
AcDbDictionary
281
     1
  3
Normal
350
F
100
AcDbDictionaryWithDefault
340
F
  0
DICTIONARY
  5
55
102
{ACAD_REACTORS
330
C
102
}
330
C
100
AcDbDictionary
281
     1
  3
A0
350
56
  3
A1
350
57
  3
A2
350
58
  3
A3
350
59
  3
A4
350
5A
  3
A5
350
5B
  3
A6
350
5C
  3
A7
350
5D
  3
A8
350
5E
  3
A9
350
5F
  3
B0
350
60
  3
B1
350
61
  3
B2
350
62
  3
B3
350
63
  3
B4
350
64
  3
B5
350
65
  3
B6
350
66
  3
B7
350
67
  3
B8
350
68
  3
B9
350
69
  3
C0
350
6A
  3
C1
350
6B
  3
C2
350
6C
  3
C3
350
6D
  3
C4
350
6E
  3
C5
350
6F
  3
C6
350
70
  3
C7
350
71
  3
C8
350
72
  3
C9
350
73
  3
D0
350
74
  3
D1
350
75
  3
D2
350
76
  0
DICTIONARY
  5
34C
102
{ACAD_REACTORS
330
C
102
}
330
C
100
AcDbDictionary
281
     1
  3
CANNOSCALE
350
34D
  0
LAYOUT
  5
22
102
{ACAD_REACTORS
330
1A
102
}
330
1A
100
AcDbPlotSettings
  1

  2
none_device
  4

  6

 40
0.0
 41
0.0
 42
0.0
 43
0.0
 44
0.0
 45
0.0
 46
0.0
 47
0.0
 48
0.0
 49
0.0
140
0.0
141
0.0
142
1.0
143
1.0
 70
  1712
 72
     0
 73
     0
 74
     0
  7

 75
     0
147
1.0
148
0.0
149
0.0
100
AcDbLayout
  1
Model
 70
     1
 71
     0
 10
0.0
 20
0.0
 11
210.0
 21
297.0
 12
0.0
 22
0.0
 32
0.0
 14
0.0
 24
0.0
 34
0.0
 15
210.0
 25
297.0
 35
0.0
146
0.0
 13
0.0
 23
0.0
 33
0.0
 16
1.0
 26
0.0
 36
0.0
 17
0.0
 27
1.0
 37
0.0
 76
     0
330
1F
331
29
  0
LAYOUT
  5
1E
102
{ACAD_REACTORS
330
1A
102
}
330
1A
100
AcDbPlotSettings
  1

  2
none_device
  4
ISO_A4_(210.00_x_297.00_MM)
  6

 40
7.5
 41
20.0
 42
7.5
 43
20.0
 44
210.0
 45
297.0
 46
0.0
 47
0.0
 48
0.0
 49
0.0
140
0.0
141
0.0
142
1.0
143
1.0
 70
  4832
 72
     0
 73
     0
 74
     1
  7

 75
     0
147
1.0
148
0.0
149
0.0
100
AcDbLayout
  1
SW_Model_1
 70
     1
 71
     1
 10
0.0
 20
0.0
 11
210.0
 21
297.0
 12
0.0
 22
0.0
 32
0.0
 14
0.0
 24
0.0
 34
0.0
 15
210.0
 25
297.0
 35
0.0
146
0.0
 13
0.0
 23
0.0
 33
0.0
 16
1.0
 26
0.0
 36
0.0
 17
0.0
 27
1.0
 37
0.0
 76
     0
330
1B
331
D8
  0
MLINESTYLE
  5
18
102
{ACAD_REACTORS
330
17
102
}
330
17
100
AcDbMlineStyle
  2
Standard
 70
     0
  3

 62
   256
 51
90.0
 52
90.0
 71
     2
 49
0.5
 62
   256
  6
BYLAYER
 49
-0.5
 62
   256
  6
BYLAYER
  0
ACDBPLACEHOLDER
  5
F
102
{ACAD_REACTORS
330
E
102
}
330
E
  0
SCALE
  5
56
102
{ACAD_REACTORS
330
55
102
}
330
55
100
AcDbScale
 70
     0
300
1:1
140
1.0
141
1.0
290
     1
  0
SCALE
  5
57
102
{ACAD_REACTORS
330
55
102
}
330
55
100
AcDbScale
 70
     0
300
1:2
140
1.0
141
2.0
290
     0
  0
SCALE
  5
58
102
{ACAD_REACTORS
330
55
102
}
330
55
100
AcDbScale
 70
     0
300
1:4
140
1.0
141
4.0
290
     0
  0
SCALE
  5
59
102
{ACAD_REACTORS
330
55
102
}
330
55
100
AcDbScale
 70
     0
300
1:5
140
1.0
141
5.0
290
     0
  0
SCALE
  5
5A
102
{ACAD_REACTORS
330
55
102
}
330
55
100
AcDbScale
 70
     0
300
1:8
140
1.0
141
8.0
290
     0
  0
SCALE
  5
5B
102
{ACAD_REACTORS
330
55
102
}
330
55
100
AcDbScale
 70
     0
300
1:10
140
1.0
141
10.0
290
     0
  0
SCALE
  5
5C
102
{ACAD_REACTORS
330
55
102
}
330
55
100
AcDbScale
 70
     0
300
1:16
140
1.0
141
16.0
290
     0
  0
SCALE
  5
5D
102
{ACAD_REACTORS
330
55
102
}
330
55
100
AcDbScale
 70
     0
300
1:20
140
1.0
141
20.0
290
     0
  0
SCALE
  5
5E
102
{ACAD_REACTORS
330
55
102
}
330
55
100
AcDbScale
 70
     0
300
1:30
140
1.0
141
30.0
290
     0
  0
SCALE
  5
5F
102
{ACAD_REACTORS
330
55
102
}
330
55
100
AcDbScale
 70
     0
300
1:40
140
1.0
141
40.0
290
     0
  0
SCALE
  5
60
102
{ACAD_REACTORS
330
55
102
}
330
55
100
AcDbScale
 70
     0
300
1:50
140
1.0
141
50.0
290
     0
  0
SCALE
  5
61
102
{ACAD_REACTORS
330
55
102
}
330
55
100
AcDbScale
 70
     0
300
1:100
140
1.0
141
100.0
290
     0
  0
SCALE
  5
62
102
{ACAD_REACTORS
330
55
102
}
330
55
100
AcDbScale
 70
     0
300
2:1
140
2.0
141
1.0
290
     0
  0
SCALE
  5
63
102
{ACAD_REACTORS
330
55
102
}
330
55
100
AcDbScale
 70
     0
300
4:1
140
4.0
141
1.0
290
     0
  0
SCALE
  5
64
102
{ACAD_REACTORS
330
55
102
}
330
55
100
AcDbScale
 70
     0
300
8:1
140
8.0
141
1.0
290
     0
  0
SCALE
  5
65
102
{ACAD_REACTORS
330
55
102
}
330
55
100
AcDbScale
 70
     0
300
10:1
140
10.0
141
1.0
290
     0
  0
SCALE
  5
66
102
{ACAD_REACTORS
330
55
102
}
330
55
100
AcDbScale
 70
     0
300
100:1
140
100.0
141
1.0
290
     0
  0
SCALE
  5
67
102
{ACAD_REACTORS
330
55
102
}
330
55
100
AcDbScale
 70
     0
300
1/128" = 1'-0"
140
0.0078125
141
12.0
290
     0
  0
SCALE
  5
68
102
{ACAD_REACTORS
330
55
102
}
330
55
100
AcDbScale
 70
     0
300
1/64" = 1'-0"
140
0.015625
141
12.0
290
     0
  0
SCALE
  5
69
102
{ACAD_REACTORS
330
55
102
}
330
55
100
AcDbScale
 70
     0
300
1/32" = 1'-0"
140
0.03125
141
12.0
290
     0
  0
SCALE
  5
6A
102
{ACAD_REACTORS
330
55
102
}
330
55
100
AcDbScale
 70
     0
300
1/16" = 1'-0"
140
0.0625
141
12.0
290
     0
  0
SCALE
  5
6B
102
{ACAD_REACTORS
330
55
102
}
330
55
100
AcDbScale
 70
     0
300
3/32" = 1'-0"
140
0.09375
141
12.0
290
     0
  0
SCALE
  5
6C
102
{ACAD_REACTORS
330
55
102
}
330
55
100
AcDbScale
 70
     0
300
1/8" = 1'-0"
140
0.125
141
12.0
290
     0
  0
SCALE
  5
6D
102
{ACAD_REACTORS
330
55
102
}
330
55
100
AcDbScale
 70
     0
300
3/16" = 1'-0"
140
0.1875
141
12.0
290
     0
  0
SCALE
  5
6E
102
{ACAD_REACTORS
330
55
102
}
330
55
100
AcDbScale
 70
     0
300
1/4" = 1'-0"
140
0.25
141
12.0
290
     0
  0
SCALE
  5
6F
102
{ACAD_REACTORS
330
55
102
}
330
55
100
AcDbScale
 70
     0
300
3/8" = 1'-0"
140
0.375
141
12.0
290
     0
  0
SCALE
  5
70
102
{ACAD_REACTORS
330
55
102
}
330
55
100
AcDbScale
 70
     0
300
1/2" = 1'-0"
140
0.5
141
12.0
290
     0
  0
SCALE
  5
71
102
{ACAD_REACTORS
330
55
102
}
330
55
100
AcDbScale
 70
     0
300
3/4" = 1'-0"
140
0.75
141
12.0
290
     0
  0
SCALE
  5
72
102
{ACAD_REACTORS
330
55
102
}
330
55
100
AcDbScale
 70
     0
300
1" = 1'-0"
140
1.0
141
12.0
290
     0
  0
SCALE
  5
73
102
{ACAD_REACTORS
330
55
102
}
330
55
100
AcDbScale
 70
     0
300
1-1/2" = 1'-0"
140
1.5
141
12.0
290
     0
  0
SCALE
  5
74
102
{ACAD_REACTORS
330
55
102
}
330
55
100
AcDbScale
 70
     0
300
3" = 1'-0"
140
3.0
141
12.0
290
     0
  0
SCALE
  5
75
102
{ACAD_REACTORS
330
55
102
}
330
55
100
AcDbScale
 70
     0
300
6" = 1'-0"
140
6.0
141
12.0
290
     0
  0
SCALE
  5
76
102
{ACAD_REACTORS
330
55
102
}
330
55
100
AcDbScale
 70
     0
300
1'-0" = 1'-0"
140
12.0
141
12.0
290
     0
  0
DICTIONARYVAR
  5
34D
102
{ACAD_REACTORS
330
34C
102
}
330
34C
100
DictionaryVariables
280
     0
  1
1:1
  0
ENDSEC
  0
EOF
