  0
SECTION
  2
HEADER
  9
$ACADVER
  1
AC1015
  9
$ACADMAINTVER
 70
     6
  9
$DWGCODEPAGE
  3
DOS932
  9
$INSBASE
 10
0.0
 20
0.0
 30
0.0
  9
$EXTMIN
 10
0.0
 20
0.0
 30
0.0
  9
$EXTMAX
 10
210.0
 20
297.0
 30
0.0
  9
$LIMMIN
 10
0.0
 20
0.0
  9
$LIMMAX
 10
210.0
 20
297.0
  9
$ORTHOMODE
 70
     0
  9
$REGENMODE
 70
     1
  9
$FILLMODE
 70
     1
  9
$QTEXTMODE
 70
     0
  9
$MIRRTEXT
 70
     1
  9
$LTSCALE
 40
1.0
  9
$ATTMODE
 70
     1
  9
$TEXTSIZE
 40
3.5
  9
$TRACEWID
 40
1.0
  9
$TEXTSTYLE
  7
Standard
  9
$CLAYER
  8
0
  9
$CELTYPE
  6
ByLayer
  9
$CECOLOR
 62
   256
  9
$CELTSCALE
 40
1.0
  9
$DISPSILH
 70
     0
  9
$DIMSCALE
 40
1.0
  9
$DIMASZ
 40
3.0
  9
$DIMEXO
 40
1.0
  9
$DIMDLI
 40
3.75
  9
$DIMRND
 40
0.0
  9
$DIMDLE
 40
0.0
  9
$DIMEXE
 40
1.0
  9
$DIMTP
 40
0.0
  9
$DIMTM
 40
0.0
  9
$DIMTXT
 40
3.5
  9
$DIMCEN
 40
2.5
  9
$DIMTSZ
 40
0.0
  9
$DIMTOL
 70
     0
  9
$DIMLIM
 70
     0
  9
$DIMTIH
 70
     1
  9
$DIMTOH
 70
     1
  9
$DIMSE1
 70
     0
  9
$DIMSE2
 70
     0
  9
$DIMTAD
 70
     1
  9
$DIMZIN
 70
     0
  9
$DIMBLK
  1

  9
$DIMASO
 70
     1
  9
$DIMSHO
 70
     1
  9
$DIMPOST
  1

  9
$DIMAPOST
  1

  9
$DIMALT
 70
     0
  9
$DIMALTD
 70
     3
  9
$DIMALTF
 40
0.0393700787
  9
$DIMLFAC
 40
1.0
  9
$DIMTOFL
 70
     1
  9
$DIMTVP
 40
0.0
  9
$DIMTIX
 70
     0
  9
$DIMSOXD
 70
     0
  9
$DIMSAH
 70
     0
  9
$DIMBLK1
  1

  9
$DIMBLK2
  1

  9
$DIMSTYLE
  2
ISO-25
  9
$DIMCLRD
 70
     0
  9
$DIMCLRE
 70
     0
  9
$DIMCLRT
 70
     0
  9
$DIMTFAC
 40
1.0
  9
$DIMGAP
 40
1.524
  9
$DIMJUST
 70
     0
  9
$DIMSD1
 70
     0
  9
$DIMSD2
 70
     0
  9
$DIMTOLJ
 70
     0
  9
$DIMTZIN
 70
     0
  9
$DIMALTZ
 70
     0
  9
$DIMALTTZ
 70
     0
  9
$DIMUPT
 70
     0
  9
$DIMDEC
 70
     1
  9
$DIMTDEC
 70
     3
  9
$DIMALTU
 70
     2
  9
$DIMALTTD
 70
     3
  9
$DIMTXSTY
  7
Standard
  9
$DIMAUNIT
 70
     0
  9
$DIMADEC
 70
     2
  9
$DIMALTRND
 40
0.0
  9
$DIMAZIN
 70
     0
  9
$DIMDSEP
 70
    44
  9
$DIMATFIT
 70
     3
  9
$DIMFRAC
 70
     0
  9
$DIMLDRBLK
  1

  9
$DIMLUNIT
 70
     2
  9
$DIMLWD
 70
    -2
  9
$DIMLWE
 70
    -2
  9
$DIMTMOVE
 70
     0
  9
$LUNITS
 70
     2
  9
$LUPREC
 70
     1
  9
$SKETCHINC
 40
1.0
  9
$FILLETRAD
 40
10.0
  9
$AUNITS
 70
     0
  9
$AUPREC
 70
     2
  9
$MENU
  1
.
  9
$ELEVATION
 40
0.0
  9
$PELEVATION
 40
0.0
  9
$THICKNESS
 40
0.0
  9
$LIMCHECK
 70
     0
  9
$CHAMFERA
 40
10.0
  9
$CHAMFERB
 40
10.0
  9
$CHAMFERC
 40
20.0
  9
$CHAMFERD
 40
0.0
  9
$SKPOLY
 70
     0
  9
$TDCREATE
 40
2456645.804307037
  9
$TDUCREATE
 40
2456645.429307037
  9
$TDUPDATE
 40
2456645.804307755
  9
$TDUUPDATE
 40
2456645.429307755
  9
$TDINDWG
 40
0.0000000116
  9
$TDUSRTIMER
 40
0.0000000116
  9
$USRTIMER
 70
     1
  9
$ANGBASE
 50
0.0
  9
$ANGDIR
 70
     0
  9
$PDMODE
 70
     0
  9
$PDSIZE
 40
-1.0
  9
$PLINEWID
 40
0.0
  9
$SPLFRAME
 70
     0
  9
$SPLINETYPE
 70
     6
  9
$SPLINESEGS
 70
     8
  9
$HANDSEED
  5
1F7
  9
$SURFTAB1
 70
     6
  9
$SURFTAB2
 70
     6
  9
$SURFTYPE
 70
     6
  9
$SURFU
 70
     6
  9
$SURFV
 70
     6
  9
$UCSBASE
  2

  9
$UCSNAME
  2

  9
$UCSORG
 10
0.0
 20
0.0
 30
0.0
  9
$UCSXDIR
 10
1.0
 20
0.0
 30
0.0
  9
$UCSYDIR
 10
0.0
 20
1.0
 30
0.0
  9
$UCSORTHOREF
  2

  9
$UCSORTHOVIEW
 70
     0
  9
$UCSORGTOP
 10
0.0
 20
0.0
 30
0.0
  9
$UCSORGBOTTOM
 10
0.0
 20
0.0
 30
0.0
  9
$UCSORGLEFT
 10
0.0
 20
0.0
 30
0.0
  9
$UCSORGRIGHT
 10
0.0
 20
0.0
 30
0.0
  9
$UCSORGFRONT
 10
0.0
 20
0.0
 30
0.0
  9
$UCSORGBACK
 10
0.0
 20
0.0
 30
0.0
  9
$PUCSBASE
  2

  9
$PUCSNAME
  2

  9
$PUCSORG
 10
0.0
 20
0.0
 30
0.0
  9
$PUCSXDIR
 10
1.0
 20
0.0
 30
0.0
  9
$PUCSYDIR
 10
0.0
 20
1.0
 30
0.0
  9
$PUCSORTHOREF
  2

  9
$PUCSORTHOVIEW
 70
     0
  9
$PUCSORGTOP
 10
0.0
 20
0.0
 30
0.0
  9
$PUCSORGBOTTOM
 10
0.0
 20
0.0
 30
0.0
  9
$PUCSORGLEFT
 10
0.0
 20
0.0
 30
0.0
  9
$PUCSORGRIGHT
 10
0.0
 20
0.0
 30
0.0
  9
$PUCSORGFRONT
 10
0.0
 20
0.0
 30
0.0
  9
$PUCSORGBACK
 10
0.0
 20
0.0
 30
0.0
  9
$USERI1
 70
     0
  9
$USERI2
 70
     0
  9
$USERI3
 70
     0
  9
$USERI4
 70
     0
  9
$USERI5
 70
     0
  9
$USERR1
 40
0.0
  9
$USERR2
 40
0.0
  9
$USERR3
 40
0.0
  9
$USERR4
 40
0.0
  9
$USERR5
 40
0.0
  9
$WORLDVIEW
 70
     1
  9
$SHADEDGE
 70
     3
  9
$SHADEDIF
 70
    70
  9
$TILEMODE
 70
     1
  9
$MAXACTVP
 70
    64
  9
$PINSBASE
 10
0.0
 20
0.0
 30
0.0
  9
$PLIMCHECK
 70
     0
  9
$PEXTMIN
 10
1.0000000000E+20
 20
1.0000000000E+20
 30
1.0000000000E+20
  9
$PEXTMAX
 10
-1.0000000000E+20
 20
-1.0000000000E+20
 30
-1.0000000000E+20
  9
$PLIMMIN
 10
0.0
 20
0.0
  9
$PLIMMAX
 10
420.0
 20
297.0
  9
$UNITMODE
 70
     0
  9
$VISRETAIN
 70
     1
  9
$PLINEGEN
 70
     0
  9
$PSLTSCALE
 70
     1
  9
$TREEDEPTH
 70
  3020
  9
$CMLSTYLE
  2
Standard
  9
$CMLJUST
 70
     0
  9
$CMLSCALE
 40
20.0
  9
$PROXYGRAPHICS
 70
     1
  9
$MEASUREMENT
 70
     1
  9
$CELWEIGHT
370
    -1
  9
$ENDCAPS
280
     0
  9
$JOINSTYLE
280
     0
  9
$LWDISPLAY
290
     1
  9
$INSUNITS
 70
     4
  9
$HYPERLINKBASE
  1

  9
$STYLESHEET
  1

  9
$XEDIT
290
     1
  9
$CEPSNTYPE
380
     0
  9
$PSTYLEMODE
290
     1
  9
$FINGERPRINTGUID
  2
{F7BD90F0-ED30-4809-A4F4-B203F0836325}
  9
$VERSIONGUID
  2
{FAEB1C32-E019-11D5-929B-00C0DF256EC4}
  9
$EXTNAMES
290
     1
  9
$PSVPSCALE
 40
0.0
  9
$OLESTARTUP
290
     0
  0
ENDSEC
  0
SECTION
  2
CLASSES
  0
CLASS
  1
ACDBDICTIONARYWDFLT
  2
AcDbDictionaryWithDefault
  3
ObjectDBX Classes
 90
        0
280
     0
281
     0
  0
CLASS
  1
VISUALSTYLE
  2
AcDbVisualStyle
  3
ObjectDBX Classes
 90
     4095
280
     0
281
     0
  0
CLASS
  1
MATERIAL
  2
AcDbMaterial
  3
ObjectDBX Classes
 90
     1153
280
     0
281
     0
  0
CLASS
  1
ACDBPLACEHOLDER
  2
AcDbPlaceHolder
  3
ObjectDBX Classes
 90
        0
280
     0
281
     0
  0
CLASS
  1
LAYOUT
  2
AcDbLayout
  3
ObjectDBX Classes
 90
        0
280
     0
281
     0
  0
ENDSEC
  0
SECTION
  2
TABLES
  0
TABLE
  2
VPORT
  5
8
330
0
100
AcDbSymbolTable
 70
     1
  0
VPORT
  5
29
330
8
100
AcDbSymbolTableRecord
100
AcDbViewportTableRecord
  2
*Active
 70
     0
 10
0.0
 20
0.0
 11
1.0
 21
1.0
 12
105.0
 22
148.5
 13
0.0
 23
0.0
 14
10.0
 24
10.0
 15
10.0
 25
10.0
 16
0.0
 26
0.0
 36
1.0
 17
0.0
 27
0.0
 37
0.0
 40
297.0
 41
0.7070707071
 42
50.0
 43
0.0
 44
0.0
 50
0.0
 51
0.0
 71
     0
 72
  2000
 73
     1
 74
     3
 75
     0
 76
     0
 77
     0
 78
     0
281
     0
 65
     1
110
0.0
120
0.0
130
0.0
111
1.0
121
0.0
131
0.0
112
0.0
122
1.0
132
0.0
 79
     0
146
0.0
  0
ENDTAB
  0
TABLE
  2
LTYPE
  5
5
330
0
100
AcDbSymbolTable
 70
     6
  0
LTYPE
  5
14
330
5
100
AcDbSymbolTableRecord
100
AcDbLinetypeTableRecord
  2
ByBlock
 70
     0
  3

 72
    65
 73
     0
 40
0.0
  0
LTYPE
  5
15
330
5
100
AcDbSymbolTableRecord
100
AcDbLinetypeTableRecord
  2
ByLayer
 70
     0
  3

 72
    65
 73
     0
 40
0.0
  0
LTYPE
  5
16
330
5
100
AcDbSymbolTableRecord
100
AcDbLinetypeTableRecord
  2
Continuous
 70
     0
  3
Solid line
 72
    65
 73
     0
 40
0.0
  0
LTYPE
  5
3F
330
5
100
AcDbSymbolTableRecord
100
AcDbLinetypeTableRecord
  2
HIDDEN
 70
     0
  3
Hidden __ __ __ __ __ __ __ __ __ __ __ __ __ __
 72
    65
 73
     2
 40
1.905
 49
1.27
 74
     0
 49
-0.635
 74
     0
  0
LTYPE
  5
40
330
5
100
AcDbSymbolTableRecord
100
AcDbLinetypeTableRecord
  2
PHANTOM
 70
     0
  3
Phantom ______  __  __  ______  __  __  ______
 72
    65
 73
     6
 40
12.7
 49
6.35
 74
     0
 49
-1.27
 74
     0
 49
1.27
 74
     0
 49
-1.27
 74
     0
 49
1.27
 74
     0
 49
-1.27
 74
     0
  0
LTYPE
  5
41
330
5
100
AcDbSymbolTableRecord
100
AcDbLinetypeTableRecord
  2
CENTER
 70
     0
  3
Center ____ _ ____ _ ____ _ ____ _ ____ _ ____
 72
    65
 73
     4
 40
10.16
 49
6.35
 74
     0
 49
-1.27
 74
     0
 49
1.27
 74
     0
 49
-1.27
 74
     0
  0
LTYPE
  5
42
330
5
100
AcDbSymbolTableRecord
100
AcDbLinetypeTableRecord
  2
CENTERX2
 70
     0
  3
Center (2x) ________  __  ________  __  _____
 72
    65
 73
     4
 40
20.32
 49
12.7
 74
     0
 49
-2.54
 74
     0
 49
2.54
 74
     0
 49
-2.54
 74
     0
  0
LTYPE
  5
43
330
5
100
AcDbSymbolTableRecord
100
AcDbLinetypeTableRecord
  2
DOT2
 70
     0
  3
Dot (.5x) ........................................
 72
    65
 73
     2
 40
0.635
 49
0.0
 74
     0
 49
-0.635
 74
     0
  0
ENDTAB
  0
TABLE
  2
LAYER
  5
2
330
0
100
AcDbSymbolTable
 70
     1
  0
LAYER
  5
10
330
2
100
AcDbSymbolTableRecord
100
AcDbLayerTableRecord
  2
0
 70
     0
 62
     7
  6
Continuous
370
    -3
390
F
  0
ENDTAB
  0
TABLE
  2
STYLE
  5
3
330
0
100
AcDbSymbolTable
 70
     2
  0
STYLE
  5
11
330
3
100
AcDbSymbolTableRecord
100
AcDbTextStyleTableRecord
  2
Standard
 70
     0
 40
0.0
 41
1.0
 50
0.0
 71
     0
 42
3.5
  3
txt
  4
bigfont
  0
STYLE
  5
4C
330
3
100
AcDbSymbolTableRecord
100
AcDbTextStyleTableRecord
  2
SLDTEXTSTYLE0
 70
     0
 40
0.0
 41
0.7
 50
0.0
 71
     0
 42
0.2
  3
TXT
  4
bigfont
  0
ENDTAB
  0
TABLE
  2
VIEW
  5
6
330
0
100
AcDbSymbolTable
 70
     0
  0
ENDTAB
  0
TABLE
  2
UCS
  5
7
330
0
100
AcDbSymbolTable
 70
     0
  0
ENDTAB
  0
TABLE
  2
APPID
  5
9
330
0
100
AcDbSymbolTable
 70
     1
  0
APPID
  5
12
330
9
100
AcDbSymbolTableRecord
100
AcDbRegAppTableRecord
  2
ACAD
 70
     0
  0
ENDTAB
  0
TABLE
  2
DIMSTYLE
  5
A
330
0
100
AcDbSymbolTable
 70
     3
100
AcDbDimStyleTable
  0
DIMSTYLE
105
27
330
A
100
AcDbSymbolTableRecord
100
AcDbDimStyleTableRecord
  2
ISO-25
 70
     0
 41
2.5
 42
0.625
 43
3.75
 44
1.25
 73
     0
 74
     0
 77
     1
 78
     8
140
2.5
141
2.5
143
0.0393700787
147
0.625
171
     3
172
     1
178
     0
271
     2
272
     2
274
     3
278
    44
283
     0
284
     8
340
11
  0
DIMSTYLE
105
F7
102
{ACAD_REACTORS
330
F6
330
1C0
330
1ED
102
}
330
A
100
AcDbSymbolTableRecord
100
AcDbDimStyleTableRecord
  2
SLDDIMSTYLE0
 70
     0
 41
3.0
 44
0.0
 45
0.000000001
 73
     0
 74
     0
 77
     3
 78
    12
 79
     3
140
3.5
147
0.875
173
     1
178
     0
271
     1
272
     3
276
     2
284
    12
340
4C
  0
DIMSTYLE
105
102
102
{ACAD_REACTORS
330
101
102
}
330
A
100
AcDbSymbolTableRecord
100
AcDbDimStyleTableRecord
  2
SLDDIMSTYLE1
 70
     0
  3
<>
 41
3.0
 44
0.0
 45
0.000000001
 78
    12
 79
     3
140
3.5
141
0.0
147
0.875
173
     1
178
     0
271
     1
272
     3
276
     2
284
    12
340
4C
  0
ENDTAB
  0
TABLE
  2
BLOCK_RECORD
  5
1
330
0
100
AcDbSymbolTable
 70
     5
  0
BLOCK_RECORD
  5
1F
330
1
100
AcDbSymbolTableRecord
100
AcDbBlockTableRecord
  2
*Model_Space
340
22
  0
BLOCK_RECORD
  5
1B
330
1
100
AcDbSymbolTableRecord
100
AcDbBlockTableRecord
  2
*Paper_Space
340
1E
  0
BLOCK_RECORD
  5
23
330
1
100
AcDbSymbolTableRecord
100
AcDbBlockTableRecord
  2
*Paper_Space0
340
26
  0
BLOCK_RECORD
  5
F8
330
1
100
AcDbSymbolTableRecord
100
AcDbBlockTableRecord
  2
_D
340
0
  0
BLOCK_RECORD
  5
103
330
1
100
AcDbSymbolTableRecord
100
AcDbBlockTableRecord
  2
_D_1
340
0
  0
BLOCK_RECORD
  5
1C1
330
1
100
AcDbSymbolTableRecord
100
AcDbBlockTableRecord
  2
_D_2
340
0
  0
BLOCK_RECORD
  5
1EE
330
1
100
AcDbSymbolTableRecord
100
AcDbBlockTableRecord
  2
_D_3
340
0
  0
ENDTAB
  0
ENDSEC
  0
SECTION
  2
BLOCKS
  0
BLOCK
  5
20
330
1F
100
AcDbEntity
  8
0
100
AcDbBlockBegin
  2
*Model_Space
 70
     0
 10
0.0
 20
0.0
 30
0.0
  3
*Model_Space
  1

  0
ENDBLK
  5
21
330
1F
100
AcDbEntity
  8
0
100
AcDbBlockEnd
  0
BLOCK
  5
1C
330
1B
100
AcDbEntity
 67
     1
  8
0
100
AcDbBlockBegin
  2
*Paper_Space
 70
     0
 10
0.0
 20
0.0
 30
0.0
  3
*Paper_Space
  1

  0
ENDBLK
  5
1D
330
1B
100
AcDbEntity
 67
     1
  8
0
100
AcDbBlockEnd
  0
BLOCK
  5
24
330
23
100
AcDbEntity
  8
0
100
AcDbBlockBegin
  2
*Paper_Space0
 70
     0
 10
0.0
 20
0.0
 30
0.0
  3
*Paper_Space0
  1

  0
ENDBLK
  5
25
330
23
100
AcDbEntity
  8
0
100
AcDbBlockEnd
  0
BLOCK
  5
F9
330
F8
100
AcDbEntity
  8
0
100
AcDbBlockBegin
  2
_D
 70
     0
 10
0.0
 20
0.0
 30
0.0
  3
_D
  1

  0
SOLID
  5
FB
330
F8
100
AcDbEntity
  8
0
  6
Continuous
 62
     7
370
     0
100
AcDbTrace
 10
83.898112488
 20
231.4376519127
 30
0.0
 11
80.898112488
 21
232.1876519127
 31
0.0
 12
80.898112488
 22
230.6876519127
 32
0.0
 13
80.898112488
 23
230.6876519127
 33
0.0
  0
SOLID
  5
FC
330
F8
100
AcDbEntity
  8
0
  6
Continuous
 62
     7
370
     0
100
AcDbTrace
 10
63.398112488
 20
231.4376519127
 30
0.0
 11
66.398112488
 21
230.6876519127
 31
0.0
 12
66.398112488
 22
232.1876519127
 32
0.0
 13
66.398112488
 23
232.1876519127
 33
0.0
  0
LINE
  5
FD
330
F8
100
AcDbEntity
  8
0
  6
Continuous
 62
     7
370
     0
100
AcDbLine
 10
83.898112488
 20
217.8598128036
 30
0.0
 11
83.898112488
 21
232.4376519127
 31
0.0
  0
LINE
  5
FE
330
F8
100
AcDbEntity
  8
0
  6
Continuous
 62
     7
370
     0
100
AcDbLine
 10
63.398112488
 20
222.4376519127
 30
0.0
 11
63.398112488
 21
232.4376519127
 31
0.0
  0
LINE
  5
FF
330
F8
100
AcDbEntity
  8
0
  6
Continuous
 62
     7
370
     0
100
AcDbLine
 10
83.898112488
 20
231.4376519127
 30
0.0
 11
63.398112488
 21
231.4376519127
 31
0.0
  0
MTEXT
  5
100
330
F8
100
AcDbEntity
  8
0
  6
Continuous
 62
     7
370
     0
100
AcDbMText
 10
69.5745014931
 20
235.9493887691
 30
2.6
 40
3.5
 41
0.0
 71
     1
 72
     1
  1
20.5
  7
SLDTEXTSTYLE0
 73
     1
 44
1.0
  0
ENDBLK
  5
FA
330
F8
100
AcDbEntity
  8
0
100
AcDbBlockEnd
  0
BLOCK
  5
104
330
103
100
AcDbEntity
  8
0
100
AcDbBlockBegin
  2
_D_1
 70
     0
 10
0.0
 20
0.0
 30
0.0
  3
_D_1
  1

  0
SOLID
  5
106
330
103
100
AcDbEntity
  8
0
  6
Continuous
 62
     7
370
     0
100
AcDbTrace
 10
65.9565378705
 20
217.8792265302
 30
0.0
 11
64.3655476129
 21
220.5308769597
 31
0.0
 12
63.3048874411
 22
219.4702167879
 32
0.0
 13
63.3048874411
 23
219.4702167879
 33
0.0
  0
LINE
  5
107
330
103
100
AcDbEntity
  8
0
  6
Continuous
 62
     7
370
     0
100
AcDbLine
 10
65.9565378705
 20
217.8792265302
 30
0.0
 11
52.398112488
 21
231.4376519127
 31
0.0
  0
LINE
  5
108
330
103
100
AcDbEntity
  8
0
  6
Continuous
 62
     7
370
     0
100
AcDbLine
 10
52.398112488
 20
231.4376519127
 30
0.0
 11
36.5529747042
 21
231.4376519127
 31
0.0
  0
MTEXT
  5
109
330
103
100
AcDbEntity
  8
0
  6
Continuous
 62
     7
370
     0
100
AcDbMText
 10
36.5529747042
 20
235.9493887691
 30
2.6
 40
3.5
 41
0.0
 71
     1
 72
     1
  1
4-Rc1/8
  7
SLDTEXTSTYLE0
 73
     1
 44
1.0
  0
ENDBLK
  5
105
330
103
100
AcDbEntity
  8
0
100
AcDbBlockEnd
  0
BLOCK
  5
1C2
330
1C1
100
AcDbEntity
  8
0
100
AcDbBlockBegin
  2
_D_2
 70
     0
 10
0.0
 20
0.0
 30
0.0
  3
_D_2
  1

  0
SOLID
  5
1C4
330
1C1
100
AcDbEntity
  8
0
  6
Continuous
 62
     7
370
     0
100
AcDbTrace
 10
154.3472561817
 20
221.4376519127
 30
0.0
 11
153.5972561817
 21
218.4376519127
 31
0.0
 12
155.0972561817
 22
218.4376519127
 32
0.0
 13
155.0972561817
 23
218.4376519127
 33
0.0
  0
SOLID
  5
1C5
330
1C1
100
AcDbEntity
  8
0
  6
Continuous
 62
     7
370
     0
100
AcDbTrace
 10
154.3472561817
 20
129.4376519127
 30
0.0
 11
155.0972561817
 21
132.4376519127
 31
0.0
 12
153.5972561817
 22
132.4376519127
 32
0.0
 13
153.5972561817
 23
132.4376519127
 33
0.0
  0
LINE
  5
1C6
330
1C1
100
AcDbEntity
  8
0
  6
Continuous
 62
     7
370
     0
100
AcDbLine
 10
141.2165618285
 20
221.4376519127
 30
0.0
 11
155.3472561817
 21
221.4376519127
 31
0.0
  0
LINE
  5
1C7
330
1C1
100
AcDbEntity
  8
0
  6
Continuous
 62
     7
370
     0
100
AcDbLine
 10
141.2165618285
 20
129.4376519127
 30
0.0
 11
155.3472561817
 21
129.4376519127
 31
0.0
  0
LINE
  5
1C8
330
1C1
100
AcDbEntity
  8
0
  6
Continuous
 62
     7
370
     0
100
AcDbLine
 10
154.3472561817
 20
221.4376519127
 30
0.0
 11
154.3472561817
 21
129.4376519127
 31
0.0
  0
MTEXT
  5
1C9
330
1C1
100
AcDbEntity
  8
0
  6
Continuous
 62
     7
370
     0
100
AcDbMText
 10
149.8355193254
 20
173.4008464152
 30
-26.0823210412
 40
3.5
 41
0.0
 71
     1
 72
     1
  1
92
  7
SLDTEXTSTYLE0
 11
-7.044195017643634E-15
 21
1.0
 31
0.0
 73
     1
 44
1.0
  0
ENDBLK
  5
1C3
330
1C1
100
AcDbEntity
  8
0
100
AcDbBlockEnd
  0
BLOCK
  5
1EF
330
1EE
100
AcDbEntity
  8
0
100
AcDbBlockBegin
  2
_D_3
 70
     0
 10
0.0
 20
0.0
 30
0.0
  3
_D_3
  1

  0
SOLID
  5
1F1
330
1EE
100
AcDbEntity
  8
0
  6
Continuous
 62
     7
370
     0
100
AcDbTrace
 10
119.2165618285
 20
78.4869853549
 30
0.0
 11
122.2165618285
 21
77.7369853549
 31
0.0
 12
122.2165618285
 22
79.2369853549
 32
0.0
 13
122.2165618285
 23
79.2369853549
 33
0.0
  0
SOLID
  5
1F2
330
1EE
100
AcDbEntity
  8
0
  6
Continuous
 62
     7
370
     0
100
AcDbTrace
 10
143.2165618285
 20
78.4869853549
 30
0.0
 11
140.2165618285
 21
79.2369853549
 31
0.0
 12
140.2165618285
 22
77.7369853549
 32
0.0
 13
140.2165618285
 23
77.7369853549
 33
0.0
  0
LINE
  5
1F3
330
1EE
100
AcDbEntity
  8
0
  6
Continuous
 62
     7
370
     0
100
AcDbLine
 10
119.2165618285
 20
98.3541068549
 30
0.0
 11
119.2165618285
 21
77.4869853549
 31
0.0
  0
LINE
  5
1F4
330
1EE
100
AcDbEntity
  8
0
  6
Continuous
 62
     7
370
     0
100
AcDbLine
 10
143.2165618285
 20
92.9869853549
 30
0.0
 11
143.2165618285
 21
77.4869853549
 31
0.0
  0
LINE
  5
1F5
330
1EE
100
AcDbEntity
  8
0
  6
Continuous
 62
     7
370
     0
100
AcDbLine
 10
119.2165618285
 20
78.4869853549
 30
0.0
 11
143.2165618285
 21
78.4869853549
 31
0.0
  0
MTEXT
  5
1F6
330
1EE
100
AcDbEntity
  8
0
  6
Continuous
 62
     7
370
     0
100
AcDbMText
 10
129.179756331
 20
82.9987222113
 30
44.9494577007
 40
3.5
 41
0.0
 71
     1
 72
     1
  1
24
  7
SLDTEXTSTYLE0
 73
     1
 44
1.0
  0
ENDBLK
  5
1F0
330
1EE
100
AcDbEntity
  8
0
100
AcDbBlockEnd
  0
ENDSEC
  0
SECTION
  2
ENTITIES
  0
LINE
  5
44
330
1F
100
AcDbEntity
  8
0
  6
Continuous
 62
     7
370
     0
100
AcDbLine
 10
20.2604743903
 20
285.0
 30
0.0
 11
196.7604743903
 21
285.0
 31
0.0
  0
LINE
  5
45
330
1F
100
AcDbEntity
  8
0
  6
Continuous
 62
     7
370
     0
100
AcDbLine
 10
20.2604743903
 20
285.0
 30
0.0
 11
20.2604743903
 21
10.0
 31
0.0
  0
LINE
  5
46
330
1F
100
AcDbEntity
  8
0
  6
Continuous
 62
     7
370
     0
100
AcDbLine
 10
20.2604743903
 20
10.0
 30
0.0
 11
196.7604743903
 21
10.0
 31
0.0
  0
LINE
  5
47
330
1F
100
AcDbEntity
  8
0
  6
Continuous
 62
     7
370
     0
100
AcDbLine
 10
196.7604743903
 20
285.0
 30
0.0
 11
196.7604743903
 21
10.0
 31
0.0
  0
LINE
  5
48
330
1F
100
AcDbEntity
  8
0
  6
Continuous
 62
     7
370
     0
100
AcDbLine
 10
127.0104743903
 20
50.75
 30
0.0
 11
196.7604743903
 21
50.75
 31
0.0
  0
LINE
  5
49
330
1F
100
AcDbEntity
  8
0
  6
Continuous
 62
     7
370
     0
100
AcDbLine
 10
127.0104743903
 20
50.75
 30
0.0
 11
127.0104743903
 21
10.0
 31
0.0
  0
LINE
  5
4A
330
1F
100
AcDbEntity
  8
0
  6
Continuous
 62
     7
370
     0
100
AcDbLine
 10
127.0104743903
 20
22.75
 30
0.0
 11
196.7604743903
 21
22.75
 31
0.0
  0
LINE
  5
4B
330
1F
100
AcDbEntity
  8
0
  6
Continuous
 62
     7
370
     0
100
AcDbLine
 10
127.0104743903
 20
36.75
 30
0.0
 11
196.7604743903
 21
36.75
 31
0.0
  0
MTEXT
  5
4D
330
1F
100
AcDbEntity
  8
0
  6
Continuous
 62
     7
370
     0
100
AcDbMText
 10
162.270096432
 20
30.4171582345
 30
0.0
 40
4.2333333333
 41
0.0
 71
     2
 72
     1
  1
OX-SBIA1
  7
SLDTEXTSTYLE0
 73
     1
 44
1.0
  0
MTEXT
  5
4E
330
1F
100
AcDbEntity
  8
0
  6
Continuous
 62
     7
370
     0
100
AcDbMText
 10
160.3171784291
 20
43.9409718514
 30
0.0
 40
4.2333333333
 41
0.0
 71
     2
 72
     1
  1
エアーオプション(OX用)
  7
SLDTEXTSTYLE0
 73
     1
 44
1.0
  0
MTEXT
  5
4F
330
1F
100
AcDbEntity
  8
0
  6
Continuous
 62
     7
370
     0
100
AcDbMText
 10
162.5697152489
 20
16.8228189052
 30
0.0
 40
4.2333333333
 41
0.0
 71
     2
 72
     1
  1
140252
  7
SLDTEXTSTYLE0
 73
     1
 44
1.0
  0
LINE
  5
50
330
1F
100
AcDbEntity
  8
0
  6
Continuous
 62
     7
370
     0
100
AcDbLine
 10
82.898111535
 20
217.4376527277
 30
0.0
 11
82.398114247
 21
217.4376527277
 31
0.0
  0
LINE
  5
51
330
1F
100
AcDbEntity
  8
0
  6
Continuous
 62
     7
370
     0
100
AcDbLine
 10
82.398114247
 20
211.4376554695
 30
0.0
 11
82.898111535
 21
211.4376554695
 31
0.0
  0
LINE
  5
52
330
1F
100
AcDbEntity
  8
0
  6
Continuous
 62
     7
370
     0
100
AcDbLine
 10
82.898111535
 20
211.4376554695
 30
0.0
 11
83.8981135615
 21
211.6876522509
 31
0.0
  0
LINE
  5
53
330
1F
100
AcDbEntity
  8
0
  6
Continuous
 62
     7
370
     0
100
AcDbLine
 10
83.8981135615
 20
217.1876484958
 30
0.0
 11
82.898111535
 21
217.4376527277
 31
0.0
  0
LINE
  5
54
330
1F
100
AcDbEntity
  8
0
  6
Continuous
 62
     7
370
     0
100
AcDbLine
 10
82.898111535
 20
200.4376555291
 30
0.0
 11
82.398114247
 21
200.4376555291
 31
0.0
  0
LINE
  5
55
330
1F
100
AcDbEntity
  8
0
  6
Continuous
 62
     7
370
     0
100
AcDbLine
 10
82.398114247
 20
194.4376508204
 30
0.0
 11
82.898111535
 21
194.4376508204
 31
0.0
  0
LINE
  5
56
330
1F
100
AcDbEntity
  8
0
  6
Continuous
 62
     7
370
     0
100
AcDbLine
 10
82.898111535
 20
194.4376508204
 30
0.0
 11
83.8981135615
 21
194.6876550523
 31
0.0
  0
LINE
  5
57
330
1F
100
AcDbEntity
  8
0
  6
Continuous
 62
     7
370
     0
100
AcDbLine
 10
83.8981135615
 20
200.1876512972
 30
0.0
 11
82.898111535
 21
200.4376555291
 31
0.0
  0
LINE
  5
58
330
1F
100
AcDbEntity
  8
0
  6
Continuous
 62
     7
370
     0
100
AcDbLine
 10
82.898111535
 20
139.4376520497
 30
0.0
 11
82.398114247
 21
139.4376520497
 31
0.0
  0
LINE
  5
59
330
1F
100
AcDbEntity
  8
0
  6
Continuous
 62
     7
370
     0
100
AcDbLine
 10
82.398114247
 20
133.4376519975
 30
0.0
 11
82.898111535
 21
133.4376519975
 31
0.0
  0
LINE
  5
5A
330
1F
100
AcDbEntity
  8
0
  6
Continuous
 62
     7
370
     0
100
AcDbLine
 10
82.898111535
 20
133.4376519975
 30
0.0
 11
83.8981135615
 21
133.6876518057
 31
0.0
  0
LINE
  5
5B
330
1F
100
AcDbEntity
  8
0
  6
Continuous
 62
     7
370
     0
100
AcDbLine
 10
83.8981135615
 20
139.1876515431
 30
0.0
 11
82.898111535
 21
139.4376520497
 31
0.0
  0
LINE
  5
5C
330
1F
100
AcDbEntity
  8
0
  6
Continuous
 62
     7
370
     0
100
AcDbLine
 10
82.898111535
 20
156.4376520422
 30
0.0
 11
82.398114247
 21
156.4376520422
 31
0.0
  0
LINE
  5
5D
330
1F
100
AcDbEntity
  8
0
  6
Continuous
 62
     7
370
     0
100
AcDbLine
 10
82.398114247
 20
150.4376510588
 30
0.0
 11
82.898111535
 21
150.4376510588
 31
0.0
  0
LINE
  5
5E
330
1F
100
AcDbEntity
  8
0
  6
Continuous
 62
     7
370
     0
100
AcDbLine
 10
82.898111535
 20
150.4376510588
 30
0.0
 11
83.8981135615
 21
150.6876515654
 31
0.0
  0
LINE
  5
5F
330
1F
100
AcDbEntity
  8
0
  6
Continuous
 62
     7
370
     0
100
AcDbLine
 10
83.8981135615
 20
156.1876515356
 30
0.0
 11
82.898111535
 21
156.4376520422
 31
0.0
  0
LINE
  5
60
330
1F
100
AcDbEntity
  8
0
  6
Continuous
 62
     7
370
     0
100
AcDbLine
 10
77.8981125781
 20
209.9376524297
 30
0.0
 11
81.3981122204
 21
209.9376524297
 31
0.0
  0
LINE
  5
61
330
1F
100
AcDbEntity
  8
0
  6
Continuous
 62
     7
370
     0
100
AcDbLine
 10
81.3981122204
 20
218.937648317
 30
0.0
 11
77.8981125781
 21
218.937648317
 31
0.0
  0
LINE
  5
62
330
1F
100
AcDbEntity
  8
0
  6
Continuous
 62
     7
370
     0
100
AcDbLine
 10
81.3981122204
 20
209.9376524297
 30
0.0
 11
82.398114247
 21
210.9376544562
 31
0.0
  0
LINE
  5
63
330
1F
100
AcDbEntity
  8
0
  6
Continuous
 62
     7
370
     0
100
AcDbLine
 10
82.398114247
 20
217.937653741
 30
0.0
 11
81.3981122204
 21
218.937648317
 31
0.0
  0
LINE
  5
64
330
1F
100
AcDbEntity
  8
0
  6
Continuous
 62
     7
370
     0
100
AcDbLine
 10
77.8981125781
 20
192.9376515058
 30
0.0
 11
81.3981122204
 21
192.9376515058
 31
0.0
  0
LINE
  5
65
330
1F
100
AcDbEntity
  8
0
  6
Continuous
 62
     7
370
     0
100
AcDbLine
 10
81.3981122204
 20
201.9376511184
 30
0.0
 11
77.8981125781
 21
201.9376511184
 31
0.0
  0
LINE
  5
66
330
1F
100
AcDbEntity
  8
0
  6
Continuous
 62
     7
370
     0
100
AcDbLine
 10
81.3981122204
 20
192.9376515058
 30
0.0
 11
82.398114247
 21
193.9376498071
 31
0.0
  0
LINE
  5
67
330
1F
100
AcDbEntity
  8
0
  6
Continuous
 62
     7
370
     0
100
AcDbLine
 10
82.398114247
 20
200.9376490918
 30
0.0
 11
81.3981122204
 21
201.9376511184
 31
0.0
  0
LINE
  5
68
330
1F
100
AcDbEntity
  8
0
  6
Continuous
 62
     7
370
     0
100
AcDbLine
 10
77.8981125781
 20
148.9376517442
 30
0.0
 11
81.3981122204
 21
148.9376517442
 31
0.0
  0
LINE
  5
69
330
1F
100
AcDbEntity
  8
0
  6
Continuous
 62
     7
370
     0
100
AcDbLine
 10
81.3981122204
 20
157.9376513568
 30
0.0
 11
77.8981125781
 21
157.9376513568
 31
0.0
  0
LINE
  5
6A
330
1F
100
AcDbEntity
  8
0
  6
Continuous
 62
     7
370
     0
100
AcDbLine
 10
81.3981122204
 20
148.9376517442
 30
0.0
 11
82.398114247
 21
149.9376519081
 31
0.0
  0
LINE
  5
6B
330
1F
100
AcDbEntity
  8
0
  6
Continuous
 62
     7
370
     0
100
AcDbLine
 10
82.398114247
 20
156.9376511929
 30
0.0
 11
81.3981122204
 21
157.9376513568
 31
0.0
  0
LINE
  5
6C
330
1F
100
AcDbEntity
  8
0
  6
Continuous
 62
     7
370
     0
100
AcDbLine
 10
77.8981125781
 20
131.9376518681
 30
0.0
 11
81.3981122204
 21
131.9376518681
 31
0.0
  0
LINE
  5
6D
330
1F
100
AcDbEntity
  8
0
  6
Continuous
 62
     7
370
     0
100
AcDbLine
 10
81.3981122204
 20
140.9376522956
 30
0.0
 11
77.8981125781
 21
140.9376522956
 31
0.0
  0
LINE
  5
6E
330
1F
100
AcDbEntity
  8
0
  6
Continuous
 62
     7
370
     0
100
AcDbLine
 10
81.3981122204
 20
131.9376518681
 30
0.0
 11
82.398114247
 21
132.9376519156
 31
0.0
  0
LINE
  5
6F
330
1F
100
AcDbEntity
  8
0
  6
Continuous
 62
     7
370
     0
100
AcDbLine
 10
82.398114247
 20
139.9376521317
 30
0.0
 11
81.3981122204
 21
140.9376522956
 31
0.0
  0
LINE
  5
70
330
1F
100
AcDbEntity
  8
0
  6
Continuous
 62
     7
370
     0
100
AcDbLine
 10
70.5981119403
 20
215.6250829307
 30
0.0
 11
70.5981119403
 21
213.250217816
 31
0.0
  0
LINE
  5
71
330
1F
100
AcDbEntity
  8
0
  6
Continuous
 62
     7
370
     0
100
AcDbLine
 10
70.39811228
 20
212.9376510588
 30
0.0
 11
70.39811228
 21
215.9376496879
 31
0.0
  0
LINE
  5
72
330
1F
100
AcDbEntity
  8
0
  6
Continuous
 62
     7
370
     0
100
AcDbLine
 10
82.898111535
 20
216.4320776669
 30
0.0
 11
82.898111535
 21
217.05783703
 31
0.0
  0
LINE
  5
73
330
1F
100
AcDbEntity
  8
0
  6
Continuous
 62
     7
370
     0
100
AcDbLine
 10
82.898111535
 20
216.4320776669
 30
0.0
 11
82.898111535
 21
212.9766175953
 31
0.0
  0
LINE
  5
74
330
1F
100
AcDbEntity
  8
0
  6
Continuous
 62
     7
370
     0
100
AcDbLine
 10
82.898111535
 20
212.9766175953
 30
0.0
 11
82.898111535
 21
212.196608862
 31
0.0
  0
LINE
  5
75
330
1F
100
AcDbEntity
  8
0
  6
Continuous
 62
     7
370
     0
100
AcDbLine
 10
82.898111535
 20
212.196608862
 30
0.0
 11
82.898111535
 21
211.4376554695
 31
0.0
  0
LINE
  5
76
330
1F
100
AcDbEntity
  8
0
  6
Continuous
 62
     7
370
     0
100
AcDbLine
 10
82.898111535
 20
217.4376527277
 30
0.0
 11
82.898111535
 21
217.05783703
 31
0.0
  0
LINE
  5
77
330
1F
100
AcDbEntity
  8
0
  6
Continuous
 62
     7
370
     0
100
AcDbLine
 10
83.8981135615
 20
216.2340486852
 30
0.0
 11
83.8981135615
 21
213.1354863254
 31
0.0
  0
SPLINE
  5
78
330
1F
100
AcDbEntity
  8
0
  6
Continuous
 62
     7
370
     0
100
AcDbSpline
210
0.0
220
0.0
230
1.0
 70
     8
 71
     3
 72
    11
 73
     7
 74
     0
 42
0.00000001
 43
0.00000001
 12
1.0
 22
0.0
 32
0.0
 13
1.0
 23
0.0
 33
0.0
 40
0.0041996937790339
 40
0.0041996937790339
 40
0.0041996937790339
 40
0.0041996937790339
 40
0.0045714279294727
 40
0.0045714279294727
 40
0.0045714279294727
 40
0.0052314151081104
 40
0.0052314151081104
 40
0.0052314151081104
 40
0.0052314151081104
 10
83.89811248803721
 20
213.1354857870857
 30
0.0
 10
83.77802122770345
 20
213.1163800991137
 30
0.0
 10
83.65792588888225
 20
213.0972844473988
 30
0.0
 10
83.53782686436747
 20
213.0781978799077
 30
0.0
 10
83.32459973150895
 20
213.0443110596053
 30
0.0
 10
83.11136099578435
 20
213.0104528193287
 30
0.0
 10
82.89811248803723
 20
212.9766187096562
 30
0.0
  0
SPLINE
  5
79
330
1F
100
AcDbEntity
  8
0
  6
Continuous
 62
     7
370
     0
100
AcDbSpline
210
0.0
220
0.0
230
1.0
 70
     8
 71
     3
 72
     8
 73
     4
 74
     0
 42
0.00000001
 43
0.00000001
 12
1.0
 22
0.0
 32
0.0
 13
1.0
 23
0.0
 33
0.0
 40
0.0
 40
0.0
 40
0.0
 40
0.0
 40
1.0
 40
1.0
 40
1.0
 40
1.0
 10
82.89811248803719
 20
216.4320739517453
 30
0.0
 10
83.23147205120652
 20
216.3661457723972
 30
0.0
 10
83.56480803948872
 20
216.3001444565808
 30
0.0
 10
83.8981124880372
 20
216.2340474486381
 30
0.0
  0
LINE
  5
7A
330
1F
100
AcDbEntity
  8
0
  6
Continuous
 62
     7
370
     0
100
AcDbLine
 10
83.7620026299
 20
216.2610197869
 30
0.0
 11
83.8981135615
 21
216.2610197869
 31
0.0
  0
LINE
  5
7B
330
1F
100
AcDbEntity
  8
0
  6
Continuous
 62
     7
370
     0
100
AcDbLine
 10
83.8981135615
 20
216.2340486852
 30
0.0
 11
83.8981135615
 21
216.2610197869
 31
0.0
  0
LINE
  5
7C
330
1F
100
AcDbEntity
  8
0
  6
Continuous
 62
     7
370
     0
100
AcDbLine
 10
83.8981135615
 20
212.8358537761
 30
0.0
 11
82.898111535
 21
212.8358537761
 31
0.0
  0
SPLINE
  5
7D
330
1F
100
AcDbEntity
  8
0
  6
Continuous
 62
     7
370
     0
100
AcDbSpline
210
0.0
220
0.0
230
1.0
 70
     8
 71
     3
 72
     8
 73
     4
 74
     0
 42
0.00000001
 43
0.00000001
 12
1.0
 22
0.0
 32
0.0
 13
1.0
 23
0.0
 33
0.0
 40
0.0
 40
0.0
 40
0.0
 40
0.0
 40
1.0
 40
1.0
 40
1.0
 40
1.0
 10
82.89811248803724
 20
212.1966073504105
 30
0.0
 10
83.23147202387348
 20
212.2494983329313
 30
0.0
 10
83.56480800225046
 20
212.3024479920493
 30
0.0
 10
83.89811248803723
 20
212.35547442784
 30
0.0
  0
LINE
  5
7E
330
1F
100
AcDbEntity
  8
0
  6
Continuous
 62
     7
370
     0
100
AcDbLine
 10
83.8981135615
 20
212.3554775921
 30
0.0
 11
83.8981135615
 21
211.6876522509
 31
0.0
  0
LINE
  5
7F
330
1F
100
AcDbEntity
  8
0
  6
Continuous
 62
     7
370
     0
100
AcDbLine
 10
83.8981135615
 20
212.3554775921
 30
0.0
 11
83.8981135615
 21
212.8358537761
 31
0.0
  0
LINE
  5
80
330
1F
100
AcDbEntity
  8
0
  6
Continuous
 62
     7
370
     0
100
AcDbLine
 10
83.8981135615
 20
217.1876484958
 30
0.0
 11
83.8981135615
 21
216.8598154989
 31
0.0
  0
SPLINE
  5
81
330
1F
100
AcDbEntity
  8
0
  6
Continuous
 62
     7
370
     0
100
AcDbSpline
210
0.0
220
0.0
230
1.0
 70
     8
 71
     3
 72
    11
 73
     7
 74
     0
 42
0.00000001
 43
0.00000001
 12
1.0
 22
0.0
 32
0.0
 13
1.0
 23
0.0
 33
0.0
 40
0.0041333666424306
 40
0.0041333666424306
 40
0.0041333666424306
 40
0.0041333666424306
 40
0.0046138376121395
 40
0.0046138376121395
 40
0.0046138376121395
 40
0.0051650880369003
 40
0.0051650880369003
 40
0.0051650880369003
 40
0.0051650880369003
 10
83.89811248803717
 20
216.8598128035817
 30
0.0
 10
83.74289307029615
 20
216.890594088176
 30
0.0
 10
83.58766684345511
 20
216.9213544879706
 30
0.0
 10
83.43243463933504
 20
216.9520965167818
 30
0.0
 10
83.25433477840708
 20
216.9873672332348
 30
0.0
 10
83.07622704586548
 20
217.0226137730298
 30
0.0
 10
82.89811248803717
 20
217.057839306689
 30
0.0
  0
LINE
  5
82
330
1F
100
AcDbEntity
  8
0
  6
Continuous
 62
     7
370
     0
100
AcDbLine
 10
83.8981135615
 20
216.2610197869
 30
0.0
 11
83.8981135615
 21
216.8598154989
 31
0.0
  0
LINE
  5
83
330
1F
100
AcDbEntity
  8
0
  6
Continuous
 62
     7
370
     0
100
AcDbLine
 10
83.8981135615
 20
212.8358537761
 30
0.0
 11
83.8981135615
 21
213.1354863254
 31
0.0
  0
LINE
  5
84
330
1F
100
AcDbEntity
  8
0
  6
Continuous
 62
     7
370
     0
100
AcDbLine
 10
70.39811228
 20
195.9376538602
 30
0.0
 11
70.39811228
 21
198.9376524893
 31
0.0
  0
LINE
  5
85
330
1F
100
AcDbEntity
  8
0
  6
Continuous
 62
     7
370
     0
100
AcDbLine
 10
70.5981119403
 20
198.6250857321
 30
0.0
 11
70.5981119403
 21
196.2502206174
 31
0.0
  0
LINE
  5
86
330
1F
100
AcDbEntity
  8
0
  6
Continuous
 62
     7
370
     0
100
AcDbLine
 10
82.898111535
 20
200.2099806872
 30
0.0
 11
82.898111535
 21
197.2661370841
 31
0.0
  0
SPLINE
  5
87
330
1F
100
AcDbEntity
  8
0
  6
Continuous
 62
     7
370
     0
100
AcDbSpline
210
0.0
220
0.0
230
1.0
 70
     8
 71
     3
 72
     8
 73
     4
 74
     0
 42
0.00000001
 43
0.00000001
 12
1.0
 22
0.0
 32
0.0
 13
1.0
 23
0.0
 33
0.0
 40
0.0
 40
0.0
 40
0.0
 40
0.0
 40
1.0
 40
1.0
 40
1.0
 40
1.0
 10
82.89811248803736
 20
200.2099782350034
 30
0.0
 10
83.23147202387358
 20
200.1275800539946
 30
0.0
 10
83.56480800225056
 20
200.04509046147
 30
0.0
 10
83.89811248803736
 20
199.9624812595552
 30
0.0
  0
LINE
  5
88
330
1F
100
AcDbEntity
  8
0
  6
Continuous
 62
     7
370
     0
100
AcDbLine
 10
83.8981135615
 20
199.9624798504
 30
0.0
 11
83.8981135615
 21
197.3226869908
 31
0.0
  0
SPLINE
  5
89
330
1F
100
AcDbEntity
  8
0
  6
Continuous
 62
     7
370
     0
100
AcDbSpline
210
0.0
220
0.0
230
1.0
 70
     8
 71
     3
 72
    11
 73
     7
 74
     0
 42
0.00000001
 43
0.00000001
 12
1.0
 22
0.0
 32
0.0
 13
1.0
 23
0.0
 33
0.0
 40
0.0041333666424306
 40
0.0041333666424306
 40
0.0041333666424306
 40
0.0041333666424306
 40
0.0046138376121395
 40
0.0046138376121395
 40
0.0046138376121395
 40
0.0051650880369003
 40
0.0051650880369003
 40
0.0051650880369003
 40
0.0051650880369003
 10
83.89811248803738
 20
197.3226903384532
 30
0.0
 10
83.74289307029635
 20
197.3138993843369
 30
0.0
 10
83.58766684345531
 20
197.3051143947968
 30
0.0
 10
83.43243463933524
 20
197.2963346519016
 30
0.0
 10
83.2543347784073
 20
197.2862615424107
 30
0.0
 10
83.07622704586568
 20
197.2761953376313
 30
0.0
 10
82.89811248803738
 20
197.266135132081
 30
0.0
  0
LINE
  5
8A
330
1F
100
AcDbEntity
  8
0
  6
Continuous
 62
     7
370
     0
100
AcDbLine
 10
82.898111535
 20
196.2912658659
 30
0.0
 11
82.898111535
 21
197.2661370841
 31
0.0
  0
LINE
  5
8B
330
1F
100
AcDbEntity
  8
0
  6
Continuous
 62
     7
370
     0
100
AcDbLine
 10
82.898111535
 20
196.2912658659
 30
0.0
 11
82.898111535
 21
194.4376508204
 31
0.0
  0
LINE
  5
8C
330
1F
100
AcDbEntity
  8
0
  6
Continuous
 62
     7
370
     0
100
AcDbLine
 10
82.898111535
 20
200.4376555291
 30
0.0
 11
82.898111535
 21
200.4327455965
 31
0.0
  0
LINE
  5
8D
330
1F
100
AcDbEntity
  8
0
  6
Continuous
 62
     7
370
     0
100
AcDbLine
 10
82.898111535
 20
200.4327455965
 30
0.0
 11
82.898111535
 21
200.2099806872
 31
0.0
  0
LINE
  5
8E
330
1F
100
AcDbEntity
  8
0
  6
Continuous
 62
     7
370
     0
100
AcDbLine
 10
83.8981135615
 20
196.3478157726
 30
0.0
 11
83.8981135615
 21
194.6876550523
 31
0.0
  0
SPLINE
  5
8F
330
1F
100
AcDbEntity
  8
0
  6
Continuous
 62
     7
370
     0
100
AcDbSpline
210
0.0
220
0.0
230
1.0
 70
     8
 71
     3
 72
     8
 73
     4
 74
     0
 42
0.00000001
 43
0.00000001
 12
1.0
 22
0.0
 32
0.0
 13
1.0
 23
0.0
 33
0.0
 40
0.0
 40
0.0
 40
0.0
 40
0.0
 40
1.0
 40
1.0
 40
1.0
 40
1.0
 10
82.89811248803741
 20
196.2912633386621
 30
0.0
 10
83.23147205120674
 20
196.3100920395192
 30
0.0
 10
83.56480803948892
 20
196.3289416277221
 30
0.0
 10
83.89811248803741
 20
196.3478185450344
 30
0.0
  0
LINE
  5
90
330
1F
100
AcDbEntity
  8
0
  6
Continuous
 62
     7
370
     0
100
AcDbLine
 10
83.8981135615
 20
196.5188289491
 30
0.0
 11
82.898111535
 21
196.5188289491
 31
0.0
  0
LINE
  5
91
330
1F
100
AcDbEntity
  8
0
  6
Continuous
 62
     7
370
     0
100
AcDbLine
 10
83.8981135615
 20
196.3478157726
 30
0.0
 11
83.8981135615
 21
196.5188289491
 31
0.0
  0
LINE
  5
92
330
1F
100
AcDbEntity
  8
0
  6
Continuous
 62
     7
370
     0
100
AcDbLine
 10
83.8981135615
 20
196.5188289491
 30
0.0
 11
83.8981135615
 21
197.3226869908
 31
0.0
  0
LINE
  5
93
330
1F
100
AcDbEntity
  8
0
  6
Continuous
 62
     7
370
     0
100
AcDbLine
 10
83.8981135615
 20
199.9624798504
 30
0.0
 11
83.8981135615
 21
200.1852447597
 31
0.0
  0
SPLINE
  5
94
330
1F
100
AcDbEntity
  8
0
  6
Continuous
 62
     7
370
     0
100
AcDbSpline
210
0.0
220
0.0
230
1.0
 70
     8
 71
     3
 72
    11
 73
     7
 74
     0
 42
0.00000001
 43
0.00000001
 12
1.0
 22
0.0
 32
0.0
 13
1.0
 23
0.0
 33
0.0
 40
0.004199693779034
 40
0.004199693779034
 40
0.004199693779034
 40
0.004199693779034
 40
0.0045714279294727
 40
0.0045714279294727
 40
0.0045714279294727
 40
0.0052314151081104
 40
0.0052314151081104
 40
0.0052314151081104
 40
0.0052314151081104
 10
83.89811248803734
 20
200.1852479231209
 30
0.0
 10
83.77802122770356
 20
200.2150124285392
 30
0.0
 10
83.65792588888237
 20
200.2447612986016
 30
0.0
 10
83.53782686436762
 20
200.2744960164687
 30
0.0
 10
83.32459973150908
 20
200.3272878577244
 30
0.0
 10
83.11136099578447
 20
200.3800351745256
 30
0.0
 10
82.89811248803736
 20
200.4327448985692
 30
0.0
  0
LINE
  5
95
330
1F
100
AcDbEntity
  8
0
  6
Continuous
 62
     7
370
     0
100
AcDbLine
 10
83.8981135615
 20
200.1876512972
 30
0.0
 11
83.8981135615
 21
200.1852447597
 31
0.0
  0
LINE
  5
96
330
1F
100
AcDbEntity
  8
0
  6
Continuous
 62
     7
370
     0
100
AcDbLine
 10
70.5981119403
 20
137.6250859779
 30
0.0
 11
70.5981119403
 21
135.2502176036
 31
0.0
  0
LINE
  5
97
330
1F
100
AcDbEntity
  8
0
  6
Continuous
 62
     7
370
     0
100
AcDbLine
 10
70.39811228
 20
134.9376517778
 30
0.0
 11
70.39811228
 21
137.9376518038
 31
0.0
  0
LINE
  5
98
330
1F
100
AcDbEntity
  8
0
  6
Continuous
 62
     7
370
     0
100
AcDbLine
 10
82.898111535
 20
138.5877429006
 30
0.0
 11
82.898111535
 21
135.1684009155
 31
0.0
  0
SPLINE
  5
99
330
1F
100
AcDbEntity
  8
0
  6
Continuous
 62
     7
370
     0
100
AcDbSpline
210
0.0
220
0.0
230
1.0
 70
     8
 71
     3
 72
     8
 73
     4
 74
     0
 42
0.00000001
 43
0.00000001
 12
1.0
 22
0.0
 32
0.0
 13
1.0
 23
0.0
 33
0.0
 40
0.0
 40
0.0
 40
0.0
 40
0.0
 40
1.0
 40
1.0
 40
1.0
 40
1.0
 10
82.89811248803801
 20
138.5877425366629
 30
0.0
 10
83.23147202387423
 20
138.5181890342868
 30
0.0
 10
83.56480800225121
 20
138.4485583701214
 30
0.0
 10
83.89811248803801
 20
138.3788267419311
 30
0.0
  0
LINE
  5
9A
330
1F
100
AcDbEntity
  8
0
  6
Continuous
 62
     7
370
     0
100
AcDbLine
 10
83.8981135615
 20
138.378826758
 30
0.0
 11
83.8981135615
 21
135.3126488124
 31
0.0
  0
SPLINE
  5
9B
330
1F
100
AcDbEntity
  8
0
  6
Continuous
 62
     7
370
     0
100
AcDbSpline
210
0.0
220
0.0
230
1.0
 70
     8
 71
     3
 72
    11
 73
     7
 74
     0
 42
0.00000001
 43
0.00000001
 12
1.0
 22
0.0
 32
0.0
 13
1.0
 23
0.0
 33
0.0
 40
0.0041333666424306
 40
0.0041333666424306
 40
0.0041333666424306
 40
0.0041333666424306
 40
0.0046138376121395
 40
0.0046138376121395
 40
0.0046138376121395
 40
0.0051650880369003
 40
0.0051650880369003
 40
0.0051650880369003
 40
0.0051650880369003
 10
83.89811248803804
 20
135.3126487237334
 30
0.0
 10
83.742893070297
 20
135.2902268091158
 30
0.0
 10
83.58766684345598
 20
135.2678201075473
 30
0.0
 10
83.43243463933591
 20
135.2454267878967
 30
0.0
 10
83.25433477840795
 20
135.2197346505074
 30
0.0
 10
83.07622704586635
 20
135.1940601240454
 30
0.0
 10
82.89811248803805
 20
135.168400899017
 30
0.0
  0
LINE
  5
9C
330
1F
100
AcDbEntity
  8
0
  6
Continuous
 62
     7
370
     0
100
AcDbLine
 10
82.898111535
 20
134.3454975599
 30
0.0
 11
82.898111535
 21
135.1684009155
 31
0.0
  0
LINE
  5
9D
330
1F
100
AcDbEntity
  8
0
  6
Continuous
 62
     7
370
     0
100
AcDbLine
 10
82.898111535
 20
134.3454975599
 30
0.0
 11
82.898111535
 21
133.4376519975
 31
0.0
  0
LINE
  5
9E
330
1F
100
AcDbEntity
  8
0
  6
Continuous
 62
     7
370
     0
100
AcDbLine
 10
82.898111535
 20
139.4376520497
 30
0.0
 11
82.898111535
 21
139.1559241769
 31
0.0
  0
LINE
  5
9F
330
1F
100
AcDbEntity
  8
0
  6
Continuous
 62
     7
370
     0
100
AcDbLine
 10
82.898111535
 20
139.1559241769
 30
0.0
 11
82.898111535
 21
138.5877429006
 31
0.0
  0
LINE
  5
A0
330
1F
100
AcDbEntity
  8
0
  6
Continuous
 62
     7
370
     0
100
AcDbLine
 10
83.8981135615
 20
134.489745224
 30
0.0
 11
83.8981135615
 21
133.6876518057
 31
0.0
  0
SPLINE
  5
A1
330
1F
100
AcDbEntity
  8
0
  6
Continuous
 62
     7
370
     0
100
AcDbSpline
210
0.0
220
0.0
230
1.0
 70
     8
 71
     3
 72
     8
 73
     4
 74
     0
 42
0.00000001
 43
0.00000001
 12
1.0
 22
0.0
 32
0.0
 13
1.0
 23
0.0
 33
0.0
 40
0.0
 40
0.0
 40
0.0
 40
0.0
 40
1.0
 40
1.0
 40
1.0
 40
1.0
 10
82.89811248803807
 20
134.3454974469047
 30
0.0
 10
83.23147205120739
 20
134.3935213038594
 30
0.0
 10
83.56480803948956
 20
134.4415984353826
 30
0.0
 10
83.89811248803807
 20
134.4897452716211
 30
0.0
  0
LINE
  5
A2
330
1F
100
AcDbEntity
  8
0
  6
Continuous
 62
     7
370
     0
100
AcDbLine
 10
83.8981135615
 20
134.9259217699
 30
0.0
 11
82.898111535
 21
134.9259217699
 31
0.0
  0
LINE
  5
A3
330
1F
100
AcDbEntity
  8
0
  6
Continuous
 62
     7
370
     0
100
AcDbLine
 10
83.8981135615
 20
134.489745224
 30
0.0
 11
83.8981135615
 21
134.9259217699
 31
0.0
  0
LINE
  5
A4
330
1F
100
AcDbEntity
  8
0
  6
Continuous
 62
     7
370
     0
100
AcDbLine
 10
83.8981135615
 20
135.1281966512
 30
0.0
 11
83.8981135615
 21
135.3126488124
 31
0.0
  0
LINE
  5
A5
330
1F
100
AcDbEntity
  8
0
  6
Continuous
 62
     7
370
     0
100
AcDbLine
 10
83.8981135615
 20
135.1281966512
 30
0.0
 11
82.898111535
 21
135.1281966512
 31
0.0
  0
LINE
  5
A6
330
1F
100
AcDbEntity
  8
0
  6
Continuous
 62
     7
370
     0
100
AcDbLine
 10
83.8981135615
 20
139.1876515431
 30
0.0
 11
83.8981135615
 21
138.9470080343
 31
0.0
  0
SPLINE
  5
A7
330
1F
100
AcDbEntity
  8
0
  6
Continuous
 62
     7
370
     0
100
AcDbSpline
210
0.0
220
0.0
230
1.0
 70
     8
 71
     3
 72
    11
 73
     7
 74
     0
 42
0.00000001
 43
0.00000001
 12
1.0
 22
0.0
 32
0.0
 13
1.0
 23
0.0
 33
0.0
 40
0.004199693779034
 40
0.004199693779034
 40
0.004199693779034
 40
0.004199693779034
 40
0.0045714279294727
 40
0.0045714279294727
 40
0.0045714279294727
 40
0.0052314151081104
 40
0.0052314151081104
 40
0.0052314151081104
 40
0.0052314151081104
 10
83.89811248803798
 20
138.9470079705031
 30
0.0
 10
83.77802122770422
 20
138.9721326222003
 30
0.0
 10
83.65792588888303
 20
138.9972440758664
 30
0.0
 10
83.53782686436826
 20
139.0223435834586
 30
0.0
 10
83.32459973150972
 20
139.0669059440746
 30
0.0
 10
83.11136099578512
 20
139.1114307209514
 30
0.0
 10
82.89811248803801
 20
139.1559237652349
 30
0.0
  0
LINE
  5
A8
330
1F
100
AcDbEntity
  8
0
  6
Continuous
 62
     7
370
     0
100
AcDbLine
 10
83.8981135615
 20
138.378826758
 30
0.0
 11
83.8981135615
 21
138.9470080343
 31
0.0
  0
LINE
  5
A9
330
1F
100
AcDbEntity
  8
0
  6
Continuous
 62
     7
370
     0
100
AcDbLine
 10
83.8981135615
 20
134.9259217699
 30
0.0
 11
83.8981135615
 21
135.1281966512
 31
0.0
  0
LINE
  5
AA
330
1F
100
AcDbEntity
  8
0
  6
Continuous
 62
     7
370
     0
100
AcDbLine
 10
70.5981119403
 20
154.6250859705
 30
0.0
 11
70.5981119403
 21
152.2502171305
 31
0.0
  0
LINE
  5
AB
330
1F
100
AcDbEntity
  8
0
  6
Continuous
 62
     7
370
     0
100
AcDbLine
 10
70.39811228
 20
151.937652236
 30
0.0
 11
70.39811228
 21
154.9376527277
 31
0.0
  0
LINE
  5
AC
330
1F
100
AcDbEntity
  8
0
  6
Continuous
 62
     7
370
     0
100
AcDbLine
 10
82.898111535
 20
155.5877419618
 30
0.0
 11
82.898111535
 21
152.1684004423
 31
0.0
  0
SPLINE
  5
AD
330
1F
100
AcDbEntity
  8
0
  6
Continuous
 62
     7
370
     0
100
AcDbSpline
210
0.0
220
0.0
230
1.0
 70
     8
 71
     3
 72
     8
 73
     4
 74
     0
 42
0.00000001
 43
0.00000001
 12
1.0
 22
0.0
 32
0.0
 13
1.0
 23
0.0
 33
0.0
 40
0.0
 40
0.0
 40
0.0
 40
0.0
 40
1.0
 40
1.0
 40
1.0
 40
1.0
 10
82.89811248803782
 20
155.5877425366629
 30
0.0
 10
83.23147202387405
 20
155.5181890342868
 30
0.0
 10
83.56480800225103
 20
155.4485583701215
 30
0.0
 10
83.89811248803782
 20
155.3788267419311
 30
0.0
  0
LINE
  5
AE
330
1F
100
AcDbEntity
  8
0
  6
Continuous
 62
     7
370
     0
100
AcDbLine
 10
83.8981135615
 20
155.3788258192
 30
0.0
 11
83.8981135615
 21
152.3126492706
 31
0.0
  0
SPLINE
  5
AF
330
1F
100
AcDbEntity
  8
0
  6
Continuous
 62
     7
370
     0
100
AcDbSpline
210
0.0
220
0.0
230
1.0
 70
     8
 71
     3
 72
    11
 73
     7
 74
     0
 42
0.00000001
 43
0.00000001
 12
1.0
 22
0.0
 32
0.0
 13
1.0
 23
0.0
 33
0.0
 40
0.0041333666424306
 40
0.0041333666424306
 40
0.0041333666424306
 40
0.0041333666424306
 40
0.0046138376121395
 40
0.0046138376121395
 40
0.0046138376121395
 40
0.0051650880369003
 40
0.0051650880369003
 40
0.0051650880369003
 40
0.0051650880369003
 10
83.89811248803785
 20
152.3126487237334
 30
0.0
 10
83.74289307029682
 20
152.2902268091158
 30
0.0
 10
83.58766684345578
 20
152.2678201075473
 30
0.0
 10
83.43243463933571
 20
152.2454267878967
 30
0.0
 10
83.25433477840777
 20
152.2197346505075
 30
0.0
 10
83.07622704586615
 20
152.1940601240454
 30
0.0
 10
82.89811248803785
 20
152.168400899017
 30
0.0
  0
LINE
  5
B0
330
1F
100
AcDbEntity
  8
0
  6
Continuous
 62
     7
370
     0
100
AcDbLine
 10
82.898111535
 20
151.3454968539
 30
0.0
 11
82.898111535
 21
152.1684004423
 31
0.0
  0
LINE
  5
B1
330
1F
100
AcDbEntity
  8
0
  6
Continuous
 62
     7
370
     0
100
AcDbLine
 10
82.898111535
 20
151.3454968539
 30
0.0
 11
82.898111535
 21
150.4376510588
 31
0.0
  0
LINE
  5
B2
330
1F
100
AcDbEntity
  8
0
  6
Continuous
 62
     7
370
     0
100
AcDbLine
 10
82.898111535
 20
156.4376520422
 30
0.0
 11
82.898111535
 21
156.1559232381
 31
0.0
  0
LINE
  5
B3
330
1F
100
AcDbEntity
  8
0
  6
Continuous
 62
     7
370
     0
100
AcDbLine
 10
82.898111535
 20
156.1559232381
 30
0.0
 11
82.898111535
 21
155.5877419618
 31
0.0
  0
LINE
  5
B4
330
1F
100
AcDbEntity
  8
0
  6
Continuous
 62
     7
370
     0
100
AcDbLine
 10
83.8981135615
 20
151.4897456822
 30
0.0
 11
83.8981135615
 21
150.6876515654
 31
0.0
  0
SPLINE
  5
B5
330
1F
100
AcDbEntity
  8
0
  6
Continuous
 62
     7
370
     0
100
AcDbSpline
210
0.0
220
0.0
230
1.0
 70
     8
 71
     3
 72
     8
 73
     4
 74
     0
 42
0.00000001
 43
0.00000001
 12
1.0
 22
0.0
 32
0.0
 13
1.0
 23
0.0
 33
0.0
 40
0.0
 40
0.0
 40
0.0
 40
0.0
 40
1.0
 40
1.0
 40
1.0
 40
1.0
 10
82.89811248803788
 20
151.3454974469047
 30
0.0
 10
83.2314720512072
 20
151.3935213038595
 30
0.0
 10
83.56480803948939
 20
151.4415984353826
 30
0.0
 10
83.89811248803787
 20
151.4897452716211
 30
0.0
  0
LINE
  5
B6
330
1F
100
AcDbEntity
  8
0
  6
Continuous
 62
     7
370
     0
100
AcDbLine
 10
83.8981135615
 20
151.9259212968
 30
0.0
 11
82.898111535
 21
151.9259212968
 31
0.0
  0
LINE
  5
B7
330
1F
100
AcDbEntity
  8
0
  6
Continuous
 62
     7
370
     0
100
AcDbLine
 10
83.8981135615
 20
151.4897456822
 30
0.0
 11
83.8981135615
 21
151.9259212968
 31
0.0
  0
LINE
  5
B8
330
1F
100
AcDbEntity
  8
0
  6
Continuous
 62
     7
370
     0
100
AcDbLine
 10
83.8981135615
 20
152.1281971094
 30
0.0
 11
83.8981135615
 21
152.3126492706
 31
0.0
  0
LINE
  5
B9
330
1F
100
AcDbEntity
  8
0
  6
Continuous
 62
     7
370
     0
100
AcDbLine
 10
83.8981135615
 20
152.1281971094
 30
0.0
 11
82.898111535
 21
152.1281971094
 31
0.0
  0
LINE
  5
BA
330
1F
100
AcDbEntity
  8
0
  6
Continuous
 62
     7
370
     0
100
AcDbLine
 10
83.8981135615
 20
156.1876515356
 30
0.0
 11
83.8981135615
 21
155.9470070956
 31
0.0
  0
SPLINE
  5
BB
330
1F
100
AcDbEntity
  8
0
  6
Continuous
 62
     7
370
     0
100
AcDbSpline
210
0.0
220
0.0
230
1.0
 70
     8
 71
     3
 72
    11
 73
     7
 74
     0
 42
0.00000001
 43
0.00000001
 12
1.0
 22
0.0
 32
0.0
 13
1.0
 23
0.0
 33
0.0
 40
0.004199693779034
 40
0.004199693779034
 40
0.004199693779034
 40
0.004199693779034
 40
0.0045714279294727
 40
0.0045714279294727
 40
0.0045714279294727
 40
0.0052314151081104
 40
0.0052314151081104
 40
0.0052314151081104
 40
0.0052314151081104
 10
83.8981124880378
 20
155.9470079705031
 30
0.0
 10
83.77802122770403
 20
155.9721326222003
 30
0.0
 10
83.65792588888284
 20
155.9972440758665
 30
0.0
 10
83.53782686436807
 20
156.0223435834587
 30
0.0
 10
83.32459973150955
 20
156.0669059440746
 30
0.0
 10
83.11136099578493
 20
156.1114307209514
 30
0.0
 10
82.89811248803781
 20
156.1559237652349
 30
0.0
  0
LINE
  5
BC
330
1F
100
AcDbEntity
  8
0
  6
Continuous
 62
     7
370
     0
100
AcDbLine
 10
83.8981135615
 20
155.3788258192
 30
0.0
 11
83.8981135615
 21
155.9470070956
 31
0.0
  0
LINE
  5
BD
330
1F
100
AcDbEntity
  8
0
  6
Continuous
 62
     7
370
     0
100
AcDbLine
 10
83.8981135615
 20
151.9259212968
 30
0.0
 11
83.8981135615
 21
152.1281971094
 31
0.0
  0
LINE
  5
BE
330
1F
100
AcDbEntity
  8
0
  6
Continuous
 62
     7
370
     0
100
AcDbLine
 10
81.3981122204
 20
209.9376524297
 30
0.0
 11
81.3981122204
 21
218.937648317
 31
0.0
  0
LINE
  5
BF
330
1F
100
AcDbEntity
  8
0
  6
Continuous
 62
     7
370
     0
100
AcDbLine
 10
82.398114247
 20
210.9376544562
 30
0.0
 11
82.398114247
 21
217.937653741
 31
0.0
  0
LINE
  5
C0
330
1F
100
AcDbEntity
  8
0
  6
Continuous
 62
     7
370
     0
100
AcDbLine
 10
81.3981122204
 20
192.9376515058
 30
0.0
 11
81.3981122204
 21
201.9376511184
 31
0.0
  0
LINE
  5
C1
330
1F
100
AcDbEntity
  8
0
  6
Continuous
 62
     7
370
     0
100
AcDbLine
 10
82.398114247
 20
193.9376498071
 30
0.0
 11
82.398114247
 21
200.9376490918
 31
0.0
  0
LINE
  5
C2
330
1F
100
AcDbEntity
  8
0
  6
Continuous
 62
     7
370
     0
100
AcDbLine
 10
81.3981122204
 20
148.9376517442
 30
0.0
 11
81.3981122204
 21
157.9376513568
 31
0.0
  0
LINE
  5
C3
330
1F
100
AcDbEntity
  8
0
  6
Continuous
 62
     7
370
     0
100
AcDbLine
 10
82.398114247
 20
149.9376519081
 30
0.0
 11
82.398114247
 21
156.9376511929
 31
0.0
  0
LINE
  5
C4
330
1F
100
AcDbEntity
  8
0
  6
Continuous
 62
     7
370
     0
100
AcDbLine
 10
81.3981122204
 20
131.9376518681
 30
0.0
 11
81.3981122204
 21
140.9376522956
 31
0.0
  0
LINE
  5
C5
330
1F
100
AcDbEntity
  8
0
  6
Continuous
 62
     7
370
     0
100
AcDbLine
 10
82.398114247
 20
132.9376519156
 30
0.0
 11
82.398114247
 21
139.9376521317
 31
0.0
  0
CIRCLE
  5
C6
330
1F
100
AcDbEntity
  8
0
  6
Continuous
 62
     7
370
     0
100
AcDbCircle
 10
69.398112488
 20
136.4376519127
 30
0.0
 40
4.867121500000025
  0
CIRCLE
  5
C7
330
1F
100
AcDbEntity
  8
0
  6
Continuous
 62
     7
370
     0
100
AcDbCircle
 10
69.398112488
 20
136.4376519127
 30
0.0
 40
4.632996842010158
  0
CIRCLE
  5
C8
330
1F
100
AcDbEntity
  8
0
  6
Continuous
 62
     7
370
     0
100
AcDbCircle
 10
69.398112488
 20
214.4376519127
 30
0.0
 40
4.867121500000025
  0
CIRCLE
  5
C9
330
1F
100
AcDbEntity
  8
0
  6
Continuous
 62
     7
370
     0
100
AcDbCircle
 10
69.398112488
 20
214.4376519127
 30
0.0
 40
4.632996842010158
  0
LINE
  5
CA
330
1F
100
AcDbEntity
  8
0
  6
Continuous
 62
     7
370
     0
100
AcDbLine
 10
77.8981125781
 20
221.4376533834
 30
0.0
 11
63.3981129953
 21
221.4376533834
 31
0.0
  0
LINE
  5
CB
330
1F
100
AcDbEntity
  8
0
  6
Continuous
 62
     7
370
     0
100
AcDbLine
 10
77.8981125781
 20
129.437651924
 30
0.0
 11
77.8981125781
 21
221.4376533834
 31
0.0
  0
LINE
  5
CC
330
1F
100
AcDbEntity
  8
0
  6
Continuous
 62
     7
370
     0
100
AcDbLine
 10
63.3981129953
 20
129.437651924
 30
0.0
 11
77.8981125781
 21
129.437651924
 31
0.0
  0
CIRCLE
  5
CD
330
1F
100
AcDbEntity
  8
0
  6
Continuous
 62
     7
370
     0
100
AcDbCircle
 10
69.398112488
 20
153.4376519127
 30
0.0
 40
4.867121499999996
  0
CIRCLE
  5
CE
330
1F
100
AcDbEntity
  8
0
  6
Continuous
 62
     7
370
     0
100
AcDbCircle
 10
69.398112488
 20
197.4376519127
 30
0.0
 40
4.867121500000025
  0
CIRCLE
  5
CF
330
1F
100
AcDbEntity
  8
0
  6
Continuous
 62
     7
370
     0
100
AcDbCircle
 10
67.898112488
 20
187.4376519127
 30
0.0
 40
3.75
  0
LINE
  5
D0
330
1F
100
AcDbEntity
  8
0
  6
Continuous
 62
     7
370
     0
100
AcDbLine
 10
63.3981129953
 20
221.4376533834
 30
0.0
 11
63.3981129953
 21
129.437651924
 31
0.0
  0
CIRCLE
  5
D1
330
1F
100
AcDbEntity
  8
0
  6
Continuous
 62
     7
370
     0
100
AcDbCircle
 10
67.898112488
 20
163.4376519127
 30
0.0
 40
3.75
  0
CIRCLE
  5
D2
330
1F
100
AcDbEntity
  8
0
  6
Continuous
 62
     7
370
     0
100
AcDbCircle
 10
69.398112488
 20
153.4376519127
 30
0.0
 40
4.632996842010158
  0
CIRCLE
  5
D3
330
1F
100
AcDbEntity
  8
0
  6
Continuous
 62
     7
370
     0
100
AcDbCircle
 10
69.398112488
 20
197.4376519127
 30
0.0
 40
4.632996842010158
  0
CIRCLE
  5
D4
330
1F
100
AcDbEntity
  8
0
  6
Continuous
 62
     7
370
     0
100
AcDbCircle
 10
67.898112488
 20
163.4376519127
 30
0.0
 40
2.25
  0
CIRCLE
  5
D5
330
1F
100
AcDbEntity
  8
0
  6
Continuous
 62
     7
370
     0
100
AcDbCircle
 10
67.898112488
 20
187.4376519127
 30
0.0
 40
2.25
  0
CIRCLE
  5
D6
330
1F
100
AcDbEntity
  8
0
  6
Continuous
 62
     7
370
     0
100
AcDbCircle
 10
69.398112488
 20
153.4376519127
 30
0.0
 40
3.949999999999989
  0
CIRCLE
  5
D7
330
1F
100
AcDbEntity
  8
0
  6
Continuous
 62
     7
370
     0
100
AcDbCircle
 10
69.398112488
 20
197.4376519127
 30
0.0
 40
3.950000000000017
  0
CIRCLE
  5
D8
330
1F
100
AcDbEntity
  8
0
  6
Continuous
 62
     7
370
     0
100
AcDbCircle
 10
69.398112488
 20
214.4376519127
 30
0.0
 40
3.950000000000017
  0
CIRCLE
  5
D9
330
1F
100
AcDbEntity
  8
0
  6
Continuous
 62
     7
370
     0
100
AcDbCircle
 10
69.398112488
 20
136.4376519127
 30
0.0
 40
3.950000000000017
  0
CIRCLE
  5
DA
330
1F
100
AcDbEntity
  8
0
  6
Continuous
 62
     7
370
     0
100
AcDbCircle
 10
68.398112488
 20
197.4376519127
 30
0.0
 40
2.5
  0
CIRCLE
  5
DB
330
1F
100
AcDbEntity
  8
0
  6
Continuous
 62
     7
370
     0
100
AcDbCircle
 10
68.398112488
 20
136.4376519127
 30
0.0
 40
2.5
  0
CIRCLE
  5
DC
330
1F
100
AcDbEntity
  8
0
  6
Continuous
 62
     7
370
     0
100
AcDbCircle
 10
68.398112488
 20
153.4376519127
 30
0.0
 40
2.5
  0
CIRCLE
  5
DD
330
1F
100
AcDbEntity
  8
0
  6
Continuous
 62
     7
370
     0
100
AcDbCircle
 10
68.398112488
 20
214.4376519127
 30
0.0
 40
2.5
  0
LINE
  5
DE
330
1F
100
AcDbEntity
  8
0
  6
Continuous
 62
     7
370
     0
100
AcDbLine
 10
66.8981126377
 20
195.4376528469
 30
0.0
 11
66.8981126377
 21
199.4376535026
 31
0.0
  0
LINE
  5
DF
330
1F
100
AcDbEntity
  8
0
  6
Continuous
 62
     7
370
     0
100
AcDbLine
 10
68.8981129655
 20
199.7289414016
 30
0.0
 11
67.3981117883
 21
199.7289414016
 31
0.0
  0
LINE
  5
E0
330
1F
100
AcDbEntity
  8
0
  6
Continuous
 62
     7
370
     0
100
AcDbLine
 10
67.3981117883
 20
195.1463649479
 30
0.0
 11
68.8981129655
 21
195.1463649479
 31
0.0
  0
LINE
  5
E1
330
1F
100
AcDbEntity
  8
0
  6
Continuous
 62
     7
370
     0
100
AcDbLine
 10
68.8981129655
 20
195.1463649479
 30
0.0
 11
68.8981129655
 21
199.7289414016
 31
0.0
  0
LINE
  5
E2
330
1F
100
AcDbEntity
  8
0
  6
Continuous
 62
     7
370
     0
100
AcDbLine
 10
66.8981126377
 20
212.4376500455
 30
0.0
 11
66.8981126377
 21
216.4376507011
 31
0.0
  0
LINE
  5
E3
330
1F
100
AcDbEntity
  8
0
  6
Continuous
 62
     7
370
     0
100
AcDbLine
 10
68.8981129655
 20
216.7289386002
 30
0.0
 11
67.3981117883
 21
216.7289386002
 31
0.0
  0
LINE
  5
E4
330
1F
100
AcDbEntity
  8
0
  6
Continuous
 62
     7
370
     0
100
AcDbLine
 10
67.3981117883
 20
212.1463621465
 30
0.0
 11
68.8981129655
 21
212.1463621465
 31
0.0
  0
LINE
  5
E5
330
1F
100
AcDbEntity
  8
0
  6
Continuous
 62
     7
370
     0
100
AcDbLine
 10
68.8981129655
 20
212.1463621465
 30
0.0
 11
68.8981129655
 21
216.7289386002
 31
0.0
  0
LINE
  5
E6
330
1F
100
AcDbEntity
  8
0
  6
Continuous
 62
     7
370
     0
100
AcDbLine
 10
66.8981126377
 20
134.4376519286
 30
0.0
 11
66.8981126377
 21
138.4376518858
 31
0.0
  0
LINE
  5
E7
330
1F
100
AcDbEntity
  8
0
  6
Continuous
 62
     7
370
     0
100
AcDbLine
 10
68.8981129655
 20
138.7289397848
 30
0.0
 11
67.3981117883
 21
138.7289397848
 31
0.0
  0
LINE
  5
E8
330
1F
100
AcDbEntity
  8
0
  6
Continuous
 62
     7
370
     0
100
AcDbLine
 10
67.3981117883
 20
134.1463640296
 30
0.0
 11
68.8981129655
 21
134.1463640296
 31
0.0
  0
LINE
  5
E9
330
1F
100
AcDbEntity
  8
0
  6
Continuous
 62
     7
370
     0
100
AcDbLine
 10
68.8981129655
 20
134.1463640296
 30
0.0
 11
68.8981129655
 21
138.7289397848
 31
0.0
  0
LINE
  5
EA
330
1F
100
AcDbEntity
  8
0
  6
Continuous
 62
     7
370
     0
100
AcDbLine
 10
66.8981126377
 20
151.4376512227
 30
0.0
 11
66.8981126377
 21
155.4376518783
 31
0.0
  0
LINE
  5
EB
330
1F
100
AcDbEntity
  8
0
  6
Continuous
 62
     7
370
     0
100
AcDbLine
 10
68.8981129655
 20
155.7289397774
 30
0.0
 11
67.3981117883
 21
155.7289397774
 31
0.0
  0
LINE
  5
EC
330
1F
100
AcDbEntity
  8
0
  6
Continuous
 62
     7
370
     0
100
AcDbLine
 10
67.3981117883
 20
151.1463633237
 30
0.0
 11
68.8981129655
 21
151.1463633237
 31
0.0
  0
LINE
  5
ED
330
1F
100
AcDbEntity
  8
0
  6
Continuous
 62
     7
370
     0
100
AcDbLine
 10
68.8981129655
 20
151.1463633237
 30
0.0
 11
68.8981129655
 21
155.7289397774
 31
0.0
  0
LINE
  5
EE
330
1F
100
AcDbEntity
  8
0
  6
Continuous
 62
     7
370
     0
100
AcDbLine
 10
68.8981129655
 20
134.1463640296
 30
0.0
 11
68.8981129655
 21
133.9881621265
 31
0.0
  0
LINE
  5
EF
330
1F
100
AcDbEntity
  8
0
  6
Continuous
 62
     7
370
     0
100
AcDbLine
 10
68.8981129655
 20
216.8871442286
 30
0.0
 11
68.8981129655
 21
216.7289386002
 31
0.0
  0
LINE
  5
F0
330
1F
100
AcDbEntity
  8
0
  6
Continuous
 62
     7
370
     0
100
AcDbLine
 10
68.8981129655
 20
151.1463633237
 30
0.0
 11
68.8981129655
 21
150.9881614206
 31
0.0
  0
LINE
  5
F1
330
1F
100
AcDbEntity
  8
0
  6
Continuous
 62
     7
370
     0
100
AcDbLine
 10
68.8981129655
 20
155.8871416805
 30
0.0
 11
68.8981129655
 21
155.7289397774
 31
0.0
  0
LINE
  5
F2
330
1F
100
AcDbEntity
  8
0
  6
Continuous
 62
     7
370
     0
100
AcDbLine
 10
68.8981129655
 20
195.1463649479
 30
0.0
 11
68.8981129655
 21
194.9881593195
 31
0.0
  0
LINE
  5
F3
330
1F
100
AcDbEntity
  8
0
  6
Continuous
 62
     7
370
     0
100
AcDbLine
 10
68.8981129655
 20
199.8871395794
 30
0.0
 11
68.8981129655
 21
199.7289414016
 31
0.0
  0
LINE
  5
F4
330
1F
100
AcDbEntity
  8
0
  6
Continuous
 62
     7
370
     0
100
AcDbLine
 10
68.8981129655
 20
212.1463621465
 30
0.0
 11
68.8981129655
 21
211.9881639687
 31
0.0
  0
LINE
  5
F5
330
1F
100
AcDbEntity
  8
0
  6
Continuous
 62
     7
370
     0
100
AcDbLine
 10
68.8981129655
 20
138.8871416879
 30
0.0
 11
68.8981129655
 21
138.7289397848
 31
0.0
  0
DIMENSION
  5
F6
330
1F
100
AcDbEntity
  8
0
  6
Continuous
 62
     7
370
     0
100
AcDbDimension
  2
_D
 10
63.398112488
 20
231.4376519127
 30
0.0
 11
73.648112488
 21
231.4376519127
 31
0.0
 70
   160
  1
<>
 71
     2
 42
-1.0
  3
SLDDIMSTYLE0
100
AcDbAlignedDimension
 13
83.898112488
 23
216.8598128036
 33
0.0
 14
63.398112488
 24
221.4376519127
 34
0.0
 50
0.0
100
AcDbRotatedDimension
  0
DIMENSION
  5
101
330
1F
100
AcDbEntity
  8
0
  6
Continuous
 62
     7
370
     0
100
AcDbDimension
  2
_D_1
 10
72.8396871055
 20
210.9960772952
 30
0.0
 11
43.6817935961
 21
233.4744574102
 31
0.0
 70
   163
  1
4-Rc1/8
 71
     1
 42
-1.0
  3
SLDDIMSTYLE1
100
AcDbDiametricDimension
 15
65.9565378705
 25
217.8792265302
 35
0.0
 40
0.0
  0
ARC
  5
10A
330
1F
100
AcDbEntity
  8
0
  6
Continuous
 62
     7
370
     0
100
AcDbCircle
 10
133.2165618285
 20
214.4376519127
 30
0.0
 40
3.000000000000035
100
AcDbArc
 50
228.3324527712
 51
299.1443163175
  0
SPLINE
  5
10B
330
1F
100
AcDbEntity
  8
0
  6
Continuous
 62
     7
370
     0
100
AcDbSpline
210
0.0
220
0.0
230
1.0
 70
    24
 71
     3
 72
     8
 73
     4
 74
     0
 42
0.00000001
 43
0.00000001
 12
1.0
 22
0.0
 32
0.0
 13
1.0
 23
0.0
 33
0.0
 40
0.0
 40
0.0
 40
0.0
 40
0.0
 40
1.0
 40
1.0
 40
1.0
 40
1.0
 10
131.2221397894203
 20
212.1966073504105
 30
0.0
 10
131.2880679633628
 20
212.2494983329313
 30
0.0
 10
131.3540692772002
 20
212.3024479920493
 30
0.0
 10
131.4201662925275
 20
212.35547442784
 30
0.0
  0
ARC
  5
10C
330
1F
100
AcDbEntity
  8
0
  6
Continuous
 62
     7
370
     0
100
AcDbCircle
 10
133.2165618285
 20
214.4376519127
 30
0.0
 40
2.75000000000003
100
AcDbArc
 50
229.2140662407
 51
298.2627028479
  0
SPLINE
  5
10D
330
1F
100
AcDbEntity
  8
0
  6
Continuous
 62
     7
370
     0
100
AcDbSpline
210
0.0
220
0.0
230
1.0
 70
    24
 71
     3
 72
    11
 73
     7
 74
     0
 42
0.00000001
 43
0.00000001
 12
1.0
 22
0.0
 32
0.0
 13
1.0
 23
0.0
 33
0.0
 40
0.0041333666424306
 40
0.0041333666424306
 40
0.0041333666424306
 40
0.0041333666424306
 40
0.0046138376121394
 40
0.0046138376121394
 40
0.0046138376121394
 40
0.0051650880369003
 40
0.0051650880369003
 40
0.0051650880369003
 40
0.0051650880369003
 10
134.51872795408
 20
212.0154910218313
 30
0.0
 10
134.5434222886578
 20
211.9847097372371
 30
0.0
 10
134.5680998683719
 20
211.9539493374424
 30
0.0
 10
134.5927627099353
 20
211.9232073086313
 30
0.0
 10
134.6210586983702
 20
211.8879365921783
 30
0.0
 10
134.6493352910429
 20
211.8526900523832
 30
0.0
 10
134.6775950315094
 20
211.8174645187241
 30
0.0
  0
LINE
  5
10E
330
1F
100
AcDbEntity
  8
0
  6
Continuous
 62
     7
370
     0
100
AcDbLine
 10
131.4201663367
 20
212.3554775921
 30
0.0
 11
132.0189590218
 21
212.8358537761
 31
0.0
  0
ARC
  5
10F
330
1F
100
AcDbEntity
  8
0
  6
Continuous
 62
     7
370
     0
100
AcDbCircle
 10
133.2165618285
 20
214.4376519127
 30
0.0
 40
2.000000000000045
100
AcDbArc
 50
233.2158967302
 51
294.2608723584
  0
LINE
  5
110
330
1F
100
AcDbEntity
  8
0
  6
Continuous
 62
     7
370
     0
100
AcDbLine
 10
134.0383455276
 20
212.6142809597
 30
0.0
 11
134.5187277651
 21
212.0154926983
 31
0.0
  0
ARC
  5
111
330
1F
100
AcDbEntity
  8
0
  6
Continuous
 62
     7
370
     0
100
AcDbCircle
 10
133.2165618285
 20
214.4376519127
 30
0.0
 40
2.750000000000077
100
AcDbArc
 50
319.2140662407
 51
28.2627028479
  0
SPLINE
  5
112
330
1F
100
AcDbEntity
  8
0
  6
Continuous
 62
     7
370
     0
100
AcDbSpline
210
0.0
220
0.0
230
1.0
 70
    24
 71
     3
 72
    11
 73
     7
 74
     0
 42
0.00000001
 43
0.00000001
 12
1.0
 22
0.0
 32
0.0
 13
1.0
 23
0.0
 33
0.0
 40
0.004199693779034
 40
0.004199693779034
 40
0.004199693779034
 40
0.004199693779034
 40
0.0045714279294727
 40
0.0045714279294727
 40
0.0045714279294727
 40
0.0052314151081104
 40
0.0052314151081104
 40
0.0052314151081104
 40
0.0052314151081104
 10
135.6387227193344
 20
215.7398180383274
 30
0.0
 10
135.6625378019794
 20
215.7589237262993
 30
0.0
 10
135.6863403745126
 20
215.7780193780143
 30
0.0
 10
135.7101316236357
 20
215.7971059455053
 30
0.0
 10
135.7523712659485
 20
215.8309927658078
 30
0.0
 10
135.7945752834947
 20
215.8648510060844
 30
0.0
 10
135.8367492224416
 20
215.8986851157568
 30
0.0
  0
ARC
  5
113
330
1F
100
AcDbEntity
  8
0
  6
Continuous
 62
     7
370
     0
100
AcDbCircle
 10
133.2165618285
 20
214.4376519127
 30
0.0
 40
3.00000000000006
100
AcDbArc
 50
318.3324527712
 51
29.1443163175
  0
SPLINE
  5
114
330
1F
100
AcDbEntity
  8
0
  6
Continuous
 62
     7
370
     0
100
AcDbSpline
210
0.0
220
0.0
230
1.0
 70
    24
 71
     3
 72
     8
 73
     4
 74
     0
 42
0.00000001
 43
0.00000001
 12
1.0
 22
0.0
 32
0.0
 13
1.0
 23
0.0
 33
0.0
 40
0.0
 40
0.0
 40
0.0
 40
0.0
 40
1.0
 40
1.0
 40
1.0
 40
1.0
 10
135.4576063907551
 20
212.4432298736677
 30
0.0
 10
135.4047154038976
 20
212.5091580530158
 30
0.0
 10
135.3517657431919
 20
212.5751593688323
 30
0.0
 10
135.2987393133256
 20
212.6412563767749
 30
0.0
  0
LINE
  5
115
330
1F
100
AcDbEntity
  8
0
  6
Continuous
 62
     7
370
     0
100
AcDbLine
 10
135.0399298712
 20
215.2594382373
 30
0.0
 11
135.6387227892
 21
215.7398144213
 31
0.0
  0
ARC
  5
116
330
1F
100
AcDbEntity
  8
0
  6
Continuous
 62
     7
370
     0
100
AcDbCircle
 10
133.2165618285
 20
214.4376519127
 30
0.0
 40
2.000000000000053
100
AcDbArc
 50
323.2158967302
 51
24.2608723584
  0
LINE
  5
117
330
1F
100
AcDbEntity
  8
0
  6
Continuous
 62
     7
370
     0
100
AcDbLine
 10
135.2987392924
 20
212.641259512
 30
0.0
 11
134.8183570548
 21
213.2400477735
 31
0.0
  0
ARC
  5
118
330
1F
100
AcDbEntity
  8
0
  6
Continuous
 62
     7
370
     0
100
AcDbCircle
 10
133.2165618285
 20
214.4376519127
 30
0.0
 40
2.74999999999999
100
AcDbArc
 50
139.2140662407
 51
208.2627028479
  0
ARC
  5
119
330
1F
100
AcDbEntity
  8
0
  6
Continuous
 62
     7
370
     0
100
AcDbCircle
 10
133.2165618285
 20
214.4376519127
 30
0.0
 40
2.999999999999958
100
AcDbArc
 50
138.3324527712
 51
209.1443163175
  0
SPLINE
  5
11A
330
1F
100
AcDbEntity
  8
0
  6
Continuous
 62
     7
370
     0
100
AcDbSpline
210
0.0
220
0.0
230
1.0
 70
    24
 71
     3
 72
     8
 73
     4
 74
     0
 42
0.00000001
 43
0.00000001
 12
1.0
 22
0.0
 32
0.0
 13
1.0
 23
0.0
 33
0.0
 40
0.0
 40
0.0
 40
0.0
 40
0.0
 40
1.0
 40
1.0
 40
1.0
 40
1.0
 10
130.9755172661632
 20
216.4320739517453
 30
0.0
 10
131.0284082530207
 20
216.3661457723972
 30
0.0
 10
131.0813579137264
 20
216.3001444565808
 30
0.0
 10
131.1343843435926
 20
216.2340474486381
 30
0.0
  0
SPLINE
  5
11B
330
1F
100
AcDbEntity
  8
0
  6
Continuous
 62
     7
370
     0
100
AcDbSpline
210
0.0
220
0.0
230
1.0
 70
    24
 71
     3
 72
    11
 73
     7
 74
     0
 42
0.00000001
 43
0.00000001
 12
1.0
 22
0.0
 32
0.0
 13
1.0
 23
0.0
 33
0.0
 40
0.0041996937790339
 40
0.0041996937790339
 40
0.0041996937790339
 40
0.0041996937790339
 40
0.0045714279294727
 40
0.0045714279294727
 40
0.0045714279294727
 40
0.0052314151081104
 40
0.0052314151081104
 40
0.0052314151081104
 40
0.0052314151081104
 10
130.7944009375839
 20
213.1354857870857
 30
0.0
 10
130.7705858549389
 20
213.1163800991137
 30
0.0
 10
130.7467832824056
 20
213.0972844473988
 30
0.0
 10
130.7229920332826
 20
213.0781978799077
 30
0.0
 10
130.6807523909697
 20
213.0443110596053
 30
0.0
 10
130.6385483734236
 20
213.0104528193287
 30
0.0
 10
130.5963744344767
 20
212.9766187096562
 30
0.0
  0
LINE
  5
11C
330
1F
100
AcDbEntity
  8
0
  6
Continuous
 62
     7
370
     0
100
AcDbLine
 10
131.1343843585
 20
216.2340486852
 30
0.0
 11
131.6147667707
 21
215.6352529732
 31
0.0
  0
LINE
  5
11D
330
1F
100
AcDbEntity
  8
0
  6
Continuous
 62
     7
370
     0
100
AcDbLine
 10
131.3931936051
 20
213.6158699599
 30
0.0
 11
130.7944009199
 21
213.1354863254
 31
0.0
  0
ARC
  5
11E
330
1F
100
AcDbEntity
  8
0
  6
Continuous
 62
     7
370
     0
100
AcDbCircle
 10
133.2165618285
 20
214.4376519127
 30
0.0
 40
1.999999999999994
100
AcDbArc
 50
143.2158967302
 51
204.2608723584
  0
ARC
  5
11F
330
1F
100
AcDbEntity
  8
0
  6
Continuous
 62
     7
370
     0
100
AcDbCircle
 10
133.2165618285
 20
214.4376519127
 30
0.0
 40
2.999999999999997
100
AcDbArc
 50
48.3324527712
 51
119.1443163175
  0
ARC
  5
120
330
1F
100
AcDbEntity
  8
0
  6
Continuous
 62
     7
370
     0
100
AcDbCircle
 10
133.2165618285
 20
214.4376519127
 30
0.0
 40
2.750000000000014
100
AcDbArc
 50
49.2140662407
 51
118.2627028479
  0
SPLINE
  5
121
330
1F
100
AcDbEntity
  8
0
  6
Continuous
 62
     7
370
     0
100
AcDbSpline
210
0.0
220
0.0
230
1.0
 70
    24
 71
     3
 72
    11
 73
     7
 74
     0
 42
0.00000001
 43
0.00000001
 12
1.0
 22
0.0
 32
0.0
 13
1.0
 23
0.0
 33
0.0
 40
0.0041333666424306
 40
0.0041333666424306
 40
0.0041333666424306
 40
0.0041333666424306
 40
0.0046138376121395
 40
0.0046138376121395
 40
0.0046138376121395
 40
0.0051650880369003
 40
0.0051650880369003
 40
0.0051650880369003
 40
0.0051650880369003
 10
131.9143957028383
 20
216.8598128035817
 30
0.0
 10
131.8897013682605
 20
216.890594088176
 30
0.0
 10
131.8650237885463
 20
216.9213544879706
 30
0.0
 10
131.840360946983
 20
216.9520965167818
 30
0.0
 10
131.812064958548
 20
216.9873672332348
 30
0.0
 10
131.7837883658754
 20
217.0226137730298
 30
0.0
 10
131.7555286254088
 20
217.057839306689
 30
0.0
  0
SPLINE
  5
122
330
1F
100
AcDbEntity
  8
0
  6
Continuous
 62
     7
370
     0
100
AcDbSpline
210
0.0
220
0.0
230
1.0
 70
    24
 71
     3
 72
     8
 73
     4
 74
     0
 42
0.00000001
 43
0.00000001
 12
1.0
 22
0.0
 32
0.0
 13
1.0
 23
0.0
 33
0.0
 40
0.0
 40
0.0
 40
0.0
 40
0.0
 40
1.0
 40
1.0
 40
1.0
 40
1.0
 10
135.2109838674979
 20
216.6786964750025
 30
0.0
 10
135.1450556935555
 20
216.6258054924817
 30
0.0
 10
135.079054379718
 20
216.5728558333637
 30
0.0
 10
135.0129573643907
 20
216.519829397573
 30
0.0
  0
LINE
  5
123
330
1F
100
AcDbEntity
  8
0
  6
Continuous
 62
     7
370
     0
100
AcDbLine
 10
132.3947781815
 20
216.2610197869
 30
0.0
 11
131.9143957111
 21
216.8598154989
 31
0.0
  0
LINE
  5
124
330
1F
100
AcDbEntity
  8
0
  6
Continuous
 62
     7
370
     0
100
AcDbLine
 10
135.0129573724
 20
216.5198306051
 30
0.0
 11
134.4141644544
 21
216.0394469706
 31
0.0
  0
ARC
  5
125
330
1F
100
AcDbEntity
  8
0
  6
Continuous
 62
     7
370
     0
100
AcDbCircle
 10
133.2165618285
 20
214.4376519127
 30
0.0
 40
2.000000000000048
100
AcDbArc
 50
53.2158967302
 51
114.2608723584
  0
ARC
  5
126
330
1F
100
AcDbEntity
  8
0
  6
Continuous
 62
     7
370
     0
100
AcDbCircle
 10
133.2165618285
 20
214.4376519127
 30
0.0
 40
3.00000000000006
100
AcDbArc
 50
299.1443163175
 51
318.3324527712
  0
ARC
  5
127
330
1F
100
AcDbEntity
  8
0
  6
Continuous
 62
     7
370
     0
100
AcDbCircle
 10
133.2165618285
 20
214.4376519127
 30
0.0
 40
2.000000000000053
100
AcDbArc
 50
294.2608723584
 51
323.2158967302
  0
ARC
  5
128
330
1F
100
AcDbEntity
  8
0
  6
Continuous
 62
     7
370
     0
100
AcDbCircle
 10
133.2165618285
 20
214.4376519127
 30
0.0
 40
2.99999999999998
100
AcDbArc
 50
209.1443163175
 51
228.3324527712
  0
ARC
  5
129
330
1F
100
AcDbEntity
  8
0
  6
Continuous
 62
     7
370
     0
100
AcDbCircle
 10
133.2165618285
 20
214.4376519127
 30
0.0
 40
1.999999999999994
100
AcDbArc
 50
204.2608723584
 51
233.2158967302
  0
ARC
  5
12A
330
1F
100
AcDbEntity
  8
0
  6
Continuous
 62
     7
370
     0
100
AcDbCircle
 10
133.2165618285
 20
214.4376519127
 30
0.0
 40
3.000000000000018
100
AcDbArc
 50
29.1443163175
 51
48.3324527712
  0
ARC
  5
12B
330
1F
100
AcDbEntity
  8
0
  6
Continuous
 62
     7
370
     0
100
AcDbCircle
 10
133.2165618285
 20
214.4376519127
 30
0.0
 40
2.000000000000048
100
AcDbArc
 50
24.2608723584
 51
53.2158967302
  0
ARC
  5
12C
330
1F
100
AcDbEntity
  8
0
  6
Continuous
 62
     7
370
     0
100
AcDbCircle
 10
133.2165618285
 20
214.4376519127
 30
0.0
 40
2.999999999999941
100
AcDbArc
 50
119.1443163175
 51
138.3324527712
  0
ARC
  5
12D
330
1F
100
AcDbEntity
  8
0
  6
Continuous
 62
     7
370
     0
100
AcDbCircle
 10
133.2165618285
 20
214.4376519127
 30
0.0
 40
1.999999999999973
100
AcDbArc
 50
114.2608723584
 51
143.2158967302
  0
CIRCLE
  5
12E
330
1F
100
AcDbEntity
  8
0
  6
Continuous
 62
     7
370
     0
100
AcDbCircle
 10
133.2165618285
 20
214.4376519127
 30
0.0
 40
5.000000000000001
  0
CIRCLE
  5
12F
330
1F
100
AcDbEntity
  8
0
  6
Continuous
 62
     7
370
     0
100
AcDbCircle
 10
133.2165618285
 20
214.4376519127
 30
0.0
 40
4.799999999999967
  0
ARC
  5
130
330
1F
100
AcDbEntity
  8
0
  6
Continuous
 62
     7
370
     0
100
AcDbCircle
 10
133.2165618285
 20
197.4376519127
 30
0.0
 40
3.00000000000004
100
AcDbArc
 50
292.4656528437
 51
3.27751639
  0
SPLINE
  5
131
330
1F
100
AcDbEntity
  8
0
  6
Continuous
 62
     7
370
     0
100
AcDbSpline
210
0.0
220
0.0
230
1.0
 70
    24
 71
     3
 72
     8
 73
     4
 74
     0
 42
0.00000001
 43
0.00000001
 12
1.0
 22
0.0
 32
0.0
 13
1.0
 23
0.0
 33
0.0
 40
0.0
 40
0.0
 40
0.0
 40
0.0
 40
1.0
 40
1.0
 40
1.0
 40
1.0
 10
134.3629504025035
 20
194.6653255904096
 30
0.0
 10
134.3441217031902
 20
194.7477237714185
 30
0.0
 10
134.3252721155525
 20
194.830213363943
 30
0.0
 10
134.3063951961313
 20
194.9128225658579
 30
0.0
  0
ARC
  5
132
330
1F
100
AcDbEntity
  8
0
  6
Continuous
 62
     7
370
     0
100
AcDbCircle
 10
133.2165618285
 20
197.4376519127
 30
0.0
 40
2.749999999999989
100
AcDbArc
 50
293.3472663133
 51
2.3959029205
  0
SPLINE
  5
133
330
1F
100
AcDbEntity
  8
0
  6
Continuous
 62
     7
370
     0
100
AcDbSpline
210
0.0
220
0.0
230
1.0
 70
    24
 71
     3
 72
    11
 73
     7
 74
     0
 42
0.00000001
 43
0.00000001
 12
1.0
 22
0.0
 32
0.0
 13
1.0
 23
0.0
 33
0.0
 40
0.0041333666424306
 40
0.0041333666424306
 40
0.0041333666424306
 40
0.0041333666424306
 40
0.0046138376121394
 40
0.0046138376121394
 40
0.0046138376121394
 40
0.0051650880369003
 40
0.0051650880369003
 40
0.0051650880369003
 40
0.0051650880369003
 10
135.9641578388735
 20
197.5526134869598
 30
0.0
 10
136.002628824918
 20
197.5614044410761
 30
0.0
 10
136.041073708776
 20
197.5701894306163
 30
0.0
 10
136.0794956322585
 20
197.5789691735115
 30
0.0
 10
136.1235775884969
 20
197.5890422830023
 30
0.0
 10
136.1676293283268
 20
197.5991084877817
 30
0.0
 10
136.2116548143218
 20
197.609168693332
 30
0.0
  0
LINE
  5
134
330
1F
100
AcDbEntity
  8
0
  6
Continuous
 62
     7
370
     0
100
AcDbLine
 10
134.3063950657
 20
194.9128190485
 30
0.0
 11
134.1353832862
 21
195.6612075177
 31
0.0
  0
ARC
  5
135
330
1F
100
AcDbEntity
  8
0
  6
Continuous
 62
     7
370
     0
100
AcDbCircle
 10
133.2165618285
 20
197.4376519127
 30
0.0
 40
2.000000000000008
100
AcDbArc
 50
297.3490968028
 51
358.394072431
  0
LINE
  5
136
330
1F
100
AcDbEntity
  8
0
  6
Continuous
 62
     7
370
     0
100
AcDbLine
 10
135.2157761461
 20
197.3815987316
 30
0.0
 11
135.9641576304
 21
197.5526119081
 31
0.0
  0
ARC
  5
137
330
1F
100
AcDbEntity
  8
0
  6
Continuous
 62
     7
370
     0
100
AcDbCircle
 10
133.2165618285
 20
197.4376519127
 30
0.0
 40
2.75
100
AcDbArc
 50
203.3472663133
 51
272.3959029205
  0
ARC
  5
138
330
1F
100
AcDbEntity
  8
0
  6
Continuous
 62
     7
370
     0
100
AcDbCircle
 10
133.2165618285
 20
197.4376519127
 30
0.0
 40
2.999999999999979
100
AcDbArc
 50
202.4656528437
 51
273.27751639
  0
SPLINE
  5
139
330
1F
100
AcDbEntity
  8
0
  6
Continuous
 62
     7
370
     0
100
AcDbSpline
210
0.0
220
0.0
230
1.0
 70
    24
 71
     3
 72
     8
 73
     4
 74
     0
 42
0.00000001
 43
0.00000001
 12
1.0
 22
0.0
 32
0.0
 13
1.0
 23
0.0
 33
0.0
 40
0.0
 40
0.0
 40
0.0
 40
0.0
 40
1.0
 40
1.0
 40
1.0
 40
1.0
 10
130.4442355061622
 20
196.2912633386621
 30
0.0
 10
130.5266336939271
 20
196.3100920395192
 30
0.0
 10
130.6091232889251
 20
196.3289416277221
 30
0.0
 10
130.6917324816104
 20
196.3478185450344
 30
0.0
  0
SPLINE
  5
13A
330
1F
100
AcDbEntity
  8
0
  6
Continuous
 62
     7
370
     0
100
AcDbSpline
210
0.0
220
0.0
230
1.0
 70
    24
 71
     3
 72
    11
 73
     7
 74
     0
 42
0.00000001
 43
0.00000001
 12
1.0
 22
0.0
 32
0.0
 13
1.0
 23
0.0
 33
0.0
 40
0.0041996937790339
 40
0.0041996937790339
 40
0.0041996937790339
 40
0.0041996937790339
 40
0.0045714279294727
 40
0.0045714279294727
 40
0.0045714279294727
 40
0.0052314151081104
 40
0.0052314151081104
 40
0.0052314151081104
 40
0.0052314151081104
 10
133.3315234027123
 20
194.6900559022921
 30
0.0
 10
133.3383248504611
 20
194.6602913968738
 30
0.0
 10
133.3451227253954
 20
194.6305425268114
 30
0.0
 10
133.3519173664303
 20
194.6008078089444
 30
0.0
 10
133.3639807602216
 20
194.5480159676887
 30
0.0
 10
133.3760339797887
 20
194.4952686508874
 30
0.0
 10
133.3880786090845
 20
194.4425589268438
 30
0.0
  0
ARC
  5
13B
330
1F
100
AcDbEntity
  8
0
  6
Continuous
 62
     7
370
     0
100
AcDbCircle
 10
133.2165618285
 20
197.4376519127
 30
0.0
 40
2.000000000000036
100
AcDbArc
 50
207.3490968028
 51
268.394072431
  0
LINE
  5
13C
330
1F
100
AcDbEntity
  8
0
  6
Continuous
 62
     7
370
     0
100
AcDbLine
 10
130.6917324722
 20
196.3478157726
 30
0.0
 11
131.440114102
 21
196.5188289491
 31
0.0
  0
LINE
  5
13D
330
1F
100
AcDbEntity
  8
0
  6
Continuous
 62
     7
370
     0
100
AcDbLine
 10
133.1605118352
 20
195.4384351579
 30
0.0
 11
133.3315233818
 21
194.6900541392
 31
0.0
  0
LINE
  5
13E
330
1F
100
AcDbEntity
  8
0
  6
Continuous
 62
     7
370
     0
100
AcDbLine
 10
133.2726118739
 20
199.436863741
 30
0.0
 11
133.1016003272
 21
200.1852447597
 31
0.0
  0
ARC
  5
13F
330
1F
100
AcDbEntity
  8
0
  6
Continuous
 62
     7
370
     0
100
AcDbCircle
 10
133.2165618285
 20
197.4376519127
 30
0.0
 40
2.750000000000055
100
AcDbArc
 50
23.3472663133
 51
92.3959029205
  0
LINE
  5
140
330
1F
100
AcDbEntity
  8
0
  6
Continuous
 62
     7
370
     0
100
AcDbLine
 10
135.7413913242
 20
198.5274831263
 30
0.0
 11
134.9930093742
 21
198.3564699498
 31
0.0
  0
ARC
  5
141
330
1F
100
AcDbEntity
  8
0
  6
Continuous
 62
     7
370
     0
100
AcDbCircle
 10
133.2165618285
 20
197.4376519127
 30
0.0
 40
2.000000000000037
100
AcDbArc
 50
27.3490968028
 51
88.394072431
  0
ARC
  5
142
330
1F
100
AcDbEntity
  8
0
  6
Continuous
 62
     7
370
     0
100
AcDbCircle
 10
133.2165618285
 20
197.4376519127
 30
0.0
 40
2.750000000000026
100
AcDbArc
 50
113.3472663133
 51
182.3959029205
  0
LINE
  5
143
330
1F
100
AcDbEntity
  8
0
  6
Continuous
 62
     7
370
     0
100
AcDbLine
 10
132.1267284106
 20
199.9624798504
 30
0.0
 11
132.29774019
 21
199.2140988317
 31
0.0
  0
LINE
  5
144
330
1F
100
AcDbEntity
  8
0
  6
Continuous
 62
     7
370
     0
100
AcDbLine
 10
131.2173473301
 20
197.4937001673
 30
0.0
 11
130.4689658167
 21
197.3226869908
 31
0.0
  0
ARC
  5
145
330
1F
100
AcDbEntity
  8
0
  6
Continuous
 62
     7
370
     0
100
AcDbCircle
 10
133.2165618285
 20
197.4376519127
 30
0.0
 40
2.000000000000038
100
AcDbArc
 50
117.3490968028
 51
178.394072431
  0
ARC
  5
146
330
1F
100
AcDbEntity
  8
0
  6
Continuous
 62
     7
370
     0
100
AcDbCircle
 10
133.2165618285
 20
197.4376519127
 30
0.0
 40
3.000000000000006
100
AcDbArc
 50
112.4656528437
 51
183.27751639
  0
SPLINE
  5
147
330
1F
100
AcDbEntity
  8
0
  6
Continuous
 62
     7
370
     0
100
AcDbSpline
210
0.0
220
0.0
230
1.0
 70
    24
 71
     3
 72
     8
 73
     4
 74
     0
 42
0.00000001
 43
0.00000001
 12
1.0
 22
0.0
 32
0.0
 13
1.0
 23
0.0
 33
0.0
 40
0.0
 40
0.0
 40
0.0
 40
0.0
 40
1.0
 40
1.0
 40
1.0
 40
1.0
 10
132.0701732544147
 20
200.2099782350034
 30
0.0
 10
132.089001953728
 20
200.1275800539946
 30
0.0
 10
132.1078515413657
 20
200.04509046147
 30
0.0
 10
132.1267284607869
 20
199.9624812595552
 30
0.0
  0
SPLINE
  5
148
330
1F
100
AcDbEntity
  8
0
  6
Continuous
 62
     7
370
     0
100
AcDbSpline
210
0.0
220
0.0
230
1.0
 70
    24
 71
     3
 72
    11
 73
     7
 74
     0
 42
0.00000001
 43
0.00000001
 12
1.0
 22
0.0
 32
0.0
 13
1.0
 23
0.0
 33
0.0
 40
0.0041333666424306
 40
0.0041333666424306
 40
0.0041333666424306
 40
0.0041333666424306
 40
0.0046138376121395
 40
0.0046138376121395
 40
0.0046138376121395
 40
0.0051650880369003
 40
0.0051650880369003
 40
0.0051650880369003
 40
0.0051650880369003
 10
130.4689658180447
 20
197.3226903384532
 30
0.0
 10
130.4304948320002
 20
197.3138993843369
 30
0.0
 10
130.3920499481422
 20
197.3051143947968
 30
0.0
 10
130.3536280246597
 20
197.2963346519016
 30
0.0
 10
130.3095460684213
 20
197.2862615424107
 30
0.0
 10
130.2654943285914
 20
197.2761953376313
 30
0.0
 10
130.2214688425964
 20
197.266135132081
 30
0.0
  0
SPLINE
  5
149
330
1F
100
AcDbEntity
  8
0
  6
Continuous
 62
     7
370
     0
100
AcDbSpline
210
0.0
220
0.0
230
1.0
 70
    24
 71
     3
 72
    11
 73
     7
 74
     0
 42
0.00000001
 43
0.00000001
 12
1.0
 22
0.0
 32
0.0
 13
1.0
 23
0.0
 33
0.0
 40
0.004199693779034
 40
0.004199693779034
 40
0.004199693779034
 40
0.004199693779034
 40
0.0045714279294727
 40
0.0045714279294727
 40
0.0045714279294727
 40
0.0052314151081104
 40
0.0052314151081104
 40
0.0052314151081104
 40
0.0052314151081104
 10
133.1016002542058
 20
200.1852479231209
 30
0.0
 10
133.094798806457
 20
200.2150124285392
 30
0.0
 10
133.0880009315227
 20
200.2447612986016
 30
0.0
 10
133.0812062904879
 20
200.2744960164687
 30
0.0
 10
133.0691428966966
 20
200.3272878577244
 30
0.0
 10
133.0570896771295
 20
200.3800351745256
 30
0.0
 10
133.0450450478337
 20
200.4327448985692
 30
0.0
  0
ARC
  5
14A
330
1F
100
AcDbEntity
  8
0
  6
Continuous
 62
     7
370
     0
100
AcDbCircle
 10
133.2165618285
 20
197.4376519127
 30
0.0
 40
3.00000000000002
100
AcDbArc
 50
22.4656528437
 51
93.27751639
  0
SPLINE
  5
14B
330
1F
100
AcDbEntity
  8
0
  6
Continuous
 62
     7
370
     0
100
AcDbSpline
210
0.0
220
0.0
230
1.0
 70
    24
 71
     3
 72
     8
 73
     4
 74
     0
 42
0.00000001
 43
0.00000001
 12
1.0
 22
0.0
 32
0.0
 13
1.0
 23
0.0
 33
0.0
 40
0.0
 40
0.0
 40
0.0
 40
0.0
 40
1.0
 40
1.0
 40
1.0
 40
1.0
 10
135.9888881507561
 20
198.5840404867508
 30
0.0
 10
135.9064899629911
 20
198.5652117858938
 30
0.0
 10
135.8240003679931
 20
198.5463621976909
 30
0.0
 10
135.7413911753078
 20
198.5274852803787
 30
0.0
  0
ARC
  5
14C
330
1F
100
AcDbEntity
  8
0
  6
Continuous
 62
     7
370
     0
100
AcDbCircle
 10
133.2165618285
 20
197.4376519127
 30
0.0
 40
2.999999999999979
100
AcDbArc
 50
273.27751639
 51
292.4656528437
  0
ARC
  5
14D
330
1F
100
AcDbEntity
  8
0
  6
Continuous
 62
     7
370
     0
100
AcDbCircle
 10
133.2165618285
 20
197.4376519127
 30
0.0
 40
2.000000000000036
100
AcDbArc
 50
268.394072431
 51
297.3490968028
  0
ARC
  5
14E
330
1F
100
AcDbEntity
  8
0
  6
Continuous
 62
     7
370
     0
100
AcDbCircle
 10
133.2165618285
 20
197.4376519127
 30
0.0
 40
3.000000000000006
100
AcDbArc
 50
183.27751639
 51
202.4656528437
  0
ARC
  5
14F
330
1F
100
AcDbEntity
  8
0
  6
Continuous
 62
     7
370
     0
100
AcDbCircle
 10
133.2165618285
 20
197.4376519127
 30
0.0
 40
1.99999999999998
100
AcDbArc
 50
178.394072431
 51
207.3490968028
  0
ARC
  5
150
330
1F
100
AcDbEntity
  8
0
  6
Continuous
 62
     7
370
     0
100
AcDbCircle
 10
133.2165618285
 20
197.4376519127
 30
0.0
 40
3.00000000000004
100
AcDbArc
 50
3.27751639
 51
22.4656528437
  0
ARC
  5
151
330
1F
100
AcDbEntity
  8
0
  6
Continuous
 62
     7
370
     0
100
AcDbCircle
 10
133.2165618285
 20
197.4376519127
 30
0.0
 40
2.000000000000012
100
AcDbArc
 50
358.394072431
 51
27.3490968028
  0
ARC
  5
152
330
1F
100
AcDbEntity
  8
0
  6
Continuous
 62
     7
370
     0
100
AcDbCircle
 10
133.2165618285
 20
197.4376519127
 30
0.0
 40
3.000000000000008
100
AcDbArc
 50
93.27751639
 51
112.4656528437
  0
ARC
  5
153
330
1F
100
AcDbEntity
  8
0
  6
Continuous
 62
     7
370
     0
100
AcDbCircle
 10
133.2165618285
 20
197.4376519127
 30
0.0
 40
2.000000000000038
100
AcDbArc
 50
88.394072431
 51
117.3490968028
  0
CIRCLE
  5
154
330
1F
100
AcDbEntity
  8
0
  6
Continuous
 62
     7
370
     0
100
AcDbCircle
 10
133.2165618285
 20
197.4376519127
 30
0.0
 40
4.800000000000006
  0
CIRCLE
  5
155
330
1F
100
AcDbEntity
  8
0
  6
Continuous
 62
     7
370
     0
100
AcDbCircle
 10
133.2165618285
 20
197.4376519127
 30
0.0
 40
4.999999999999991
  0
ARC
  5
156
330
1F
100
AcDbEntity
  8
0
  6
Continuous
 62
     7
370
     0
100
AcDbCircle
 10
133.2165618285
 20
136.4376519127
 30
0.0
 40
2.749999999999992
100
AcDbArc
 50
225.0991761232
 51
294.1478127304
  0
SPLINE
  5
157
330
1F
100
AcDbEntity
  8
0
  6
Continuous
 62
     7
370
     0
100
AcDbSpline
210
0.0
220
0.0
230
1.0
 70
    24
 71
     3
 72
    11
 73
     7
 74
     0
 42
0.00000001
 43
0.00000001
 12
1.0
 22
0.0
 32
0.0
 13
1.0
 23
0.0
 33
0.0
 40
0.004199693779034
 40
0.004199693779034
 40
0.004199693779034
 40
0.004199693779034
 40
0.0045714279294727
 40
0.0045714279294727
 40
0.0045714279294727
 40
0.0052314151081104
 40
0.0052314151081104
 40
0.0052314151081104
 40
0.0052314151081104
 10
134.3415650174322
 20
133.9282958549099
 30
0.0
 10
134.3589125634074
 20
133.9031712032127
 30
0.0
 10
134.3762509966813
 20
133.8780597495466
 30
0.0
 10
134.3935811816789
 20
133.8529602419543
 30
0.0
 10
134.4243496718801
 20
133.8083978813383
 30
0.0
 10
134.4550922120442
 20
133.7638731044616
 30
0.0
 10
134.4858128421486
 20
133.7193800601781
 30
0.0
  0
ARC
  5
158
330
1F
100
AcDbEntity
  8
0
  6
Continuous
 62
     7
370
     0
100
AcDbCircle
 10
133.2165618285
 20
136.4376519127
 30
0.0
 40
2.999999999999984
100
AcDbArc
 50
224.2175626536
 51
295.0294261999
  0
SPLINE
  5
159
330
1F
100
AcDbEntity
  8
0
  6
Continuous
 62
     7
370
     0
100
AcDbSpline
210
0.0
220
0.0
230
1.0
 70
    24
 71
     3
 72
     8
 73
     4
 74
     0
 42
0.00000001
 43
0.00000001
 12
1.0
 22
0.0
 32
0.0
 13
1.0
 23
0.0
 33
0.0
 40
0.0
 40
0.0
 40
0.0
 40
0.0
 40
1.0
 40
1.0
 40
1.0
 40
1.0
 10
131.0664712045026
 20
134.3454974469047
 30
0.0
 10
131.1360247125817
 20
134.3935213038594
 30
0.0
 10
131.2056553788348
 20
134.4415984353826
 30
0.0
 10
131.2753869992345
 20
134.4897452716211
 30
0.0
  0
ARC
  5
15A
330
1F
100
AcDbEntity
  8
0
  6
Continuous
 62
     7
370
     0
100
AcDbCircle
 10
133.2165618285
 20
136.4376519127
 30
0.0
 40
2.999999999999996
100
AcDbArc
 50
314.2175626536
 51
25.0294261999
  0
ARC
  5
15B
330
1F
100
AcDbEntity
  8
0
  6
Continuous
 62
     7
370
     0
100
AcDbCircle
 10
133.2165618285
 20
136.4376519127
 30
0.0
 40
2.749999999999999
100
AcDbArc
 50
315.0991761232
 51
24.1478127304
  0
SPLINE
  5
15C
330
1F
100
AcDbEntity
  8
0
  6
Continuous
 62
     7
370
     0
100
AcDbSpline
210
0.0
220
0.0
230
1.0
 70
    24
 71
     3
 72
    11
 73
     7
 74
     0
 42
0.00000001
 43
0.00000001
 12
1.0
 22
0.0
 32
0.0
 13
1.0
 23
0.0
 33
0.0
 40
0.0041333666424306
 40
0.0041333666424306
 40
0.0041333666424306
 40
0.0041333666424306
 40
0.0046138376121394
 40
0.0046138376121394
 40
0.0046138376121394
 40
0.0051650880369003
 40
0.0051650880369003
 40
0.0051650880369003
 40
0.0051650880369003
 10
135.7259178862557
 20
137.5626551016796
 30
0.0
 10
135.7583918048119
 20
137.5850770162972
 30
0.0
 10
135.7908436901329
 20
137.6074837178657
 30
0.0
 10
135.8232761942673
 20
137.6298770375163
 30
0.0
 10
135.8604864143284
 20
137.6555691749055
 30
0.0
 10
135.8976711282798
 20
137.6812437013676
 30
0.0
 10
135.9348336809875
 20
137.7069029263959
 30
0.0
  0
SPLINE
  5
15D
330
1F
100
AcDbEntity
  8
0
  6
Continuous
 62
     7
370
     0
100
AcDbSpline
210
0.0
220
0.0
230
1.0
 70
    24
 71
     3
 72
     8
 73
     4
 74
     0
 42
0.00000001
 43
0.00000001
 12
1.0
 22
0.0
 32
0.0
 13
1.0
 23
0.0
 33
0.0
 40
0.0
 40
0.0
 40
0.0
 40
0.0
 40
1.0
 40
1.0
 40
1.0
 40
1.0
 10
135.3087162942609
 20
134.28756128875
 30
0.0
 10
135.2606924412438
 20
134.3571147911262
 30
0.0
 10
135.2126153111623
 20
134.4267454552915
 30
0.0
 10
135.1644684695445
 20
134.4964770834819
 30
0.0
  0
LINE
  5
15E
330
1F
100
AcDbEntity
  8
0
  6
Continuous
 62
     7
370
     0
100
AcDbLine
 10
133.905388287
 20
134.5600158406
 30
0.0
 11
134.3415650657
 21
133.9282957801
 31
0.0
  0
LINE
  5
15F
330
1F
100
AcDbEntity
  8
0
  6
Continuous
 62
     7
370
     0
100
AcDbLine
 10
131.2753870037
 20
134.489745224
 30
0.0
 11
131.907106715
 21
134.9259217699
 31
0.0
  0
ARC
  5
160
330
1F
100
AcDbEntity
  8
0
  6
Continuous
 62
     7
370
     0
100
AcDbCircle
 10
133.2165618285
 20
136.4376519127
 30
0.0
 40
1.999999999999998
100
AcDbArc
 50
229.1010066127
 51
290.1459822408
  0
LINE
  5
161
330
1F
100
AcDbEntity
  8
0
  6
Continuous
 62
     7
370
     0
100
AcDbLine
 10
135.0941980376
 20
137.1264782232
 30
0.0
 11
135.7259178652
 21
137.5626552348
 31
0.0
  0
ARC
  5
162
330
1F
100
AcDbEntity
  8
0
  6
Continuous
 62
     7
370
     0
100
AcDbCircle
 10
133.2165618285
 20
136.4376519127
 30
0.0
 40
2.000000000000035
100
AcDbArc
 50
319.1010066127
 51
20.1459822408
  0
LINE
  5
163
330
1F
100
AcDbEntity
  8
0
  6
Continuous
 62
     7
370
     0
100
AcDbLine
 10
135.1644686542
 20
134.4964772892
 30
0.0
 11
134.7282916426
 21
135.1281966512
 31
0.0
  0
ARC
  5
164
330
1F
100
AcDbEntity
  8
0
  6
Continuous
 62
     7
370
     0
100
AcDbCircle
 10
133.2165618285
 20
136.4376519127
 30
0.0
 40
2.750000000000007
100
AcDbArc
 50
135.0991761232
 51
204.1478127304
  0
LINE
  5
165
330
1F
100
AcDbEntity
  8
0
  6
Continuous
 62
     7
370
     0
100
AcDbLine
 10
131.2686551713
 20
138.378826758
 30
0.0
 11
131.7048318337
 21
137.7471069304
 31
0.0
  0
LINE
  5
166
330
1F
100
AcDbEntity
  8
0
  6
Continuous
 62
     7
370
     0
100
AcDbLine
 10
131.3389255551
 20
135.7488253583
 30
0.0
 11
130.7072057856
 21
135.3126488124
 31
0.0
  0
ARC
  5
167
330
1F
100
AcDbEntity
  8
0
  6
Continuous
 62
     7
370
     0
100
AcDbCircle
 10
133.2165618285
 20
136.4376519127
 30
0.0
 40
2.000000000000063
100
AcDbArc
 50
139.1010066127
 51
200.1459822408
  0
ARC
  5
168
330
1F
100
AcDbEntity
  8
0
  6
Continuous
 62
     7
370
     0
100
AcDbCircle
 10
133.2165618285
 20
136.4376519127
 30
0.0
 40
2.999999999999986
100
AcDbArc
 50
134.2175626536
 51
205.0294261999
  0
SPLINE
  5
169
330
1F
100
AcDbEntity
  8
0
  6
Continuous
 62
     7
370
     0
100
AcDbSpline
210
0.0
220
0.0
230
1.0
 70
    24
 71
     3
 72
     8
 73
     4
 74
     0
 42
0.00000001
 43
0.00000001
 12
1.0
 22
0.0
 32
0.0
 13
1.0
 23
0.0
 33
0.0
 40
0.0
 40
0.0
 40
0.0
 40
0.0
 40
1.0
 40
1.0
 40
1.0
 40
1.0
 10
131.1244073626573
 20
138.5877425366629
 30
0.0
 10
131.1724312156745
 20
138.5181890342868
 30
0.0
 10
131.220508345756
 20
138.4485583701214
 30
0.0
 10
131.2686551873737
 20
138.3788267419311
 30
0.0
  0
SPLINE
  5
16A
330
1F
100
AcDbEntity
  8
0
  6
Continuous
 62
     7
370
     0
100
AcDbSpline
210
0.0
220
0.0
230
1.0
 70
    24
 71
     3
 72
    11
 73
     7
 74
     0
 42
0.00000001
 43
0.00000001
 12
1.0
 22
0.0
 32
0.0
 13
1.0
 23
0.0
 33
0.0
 40
0.0041333666424306
 40
0.0041333666424306
 40
0.0041333666424306
 40
0.0041333666424306
 40
0.0046138376121395
 40
0.0046138376121395
 40
0.0046138376121395
 40
0.0051650880369003
 40
0.0051650880369003
 40
0.0051650880369003
 40
0.0051650880369003
 10
130.7072057706625
 20
135.3126487237334
 30
0.0
 10
130.6747318521064
 20
135.2902268091158
 30
0.0
 10
130.6422799667853
 20
135.2678201075473
 30
0.0
 10
130.6098474626509
 20
135.2454267878967
 30
0.0
 10
130.5726372425898
 20
135.2197346505074
 30
0.0
 10
130.5354525286384
 20
135.1940601240454
 30
0.0
 10
130.4982899759307
 20
135.168400899017
 30
0.0
  0
ARC
  5
16B
330
1F
100
AcDbEntity
  8
0
  6
Continuous
 62
     7
370
     0
100
AcDbCircle
 10
133.2165618285
 20
136.4376519127
 30
0.0
 40
2.750000000000071
100
AcDbArc
 50
45.0991761232
 51
114.1478127304
  0
SPLINE
  5
16C
330
1F
100
AcDbEntity
  8
0
  6
Continuous
 62
     7
370
     0
100
AcDbSpline
210
0.0
220
0.0
230
1.0
 70
    24
 71
     3
 72
    11
 73
     7
 74
     0
 42
0.00000001
 43
0.00000001
 12
1.0
 22
0.0
 32
0.0
 13
1.0
 23
0.0
 33
0.0
 40
0.004199693779034
 40
0.004199693779034
 40
0.004199693779034
 40
0.004199693779034
 40
0.0045714279294727
 40
0.0045714279294727
 40
0.0045714279294727
 40
0.0052314151081104
 40
0.0052314151081104
 40
0.0052314151081104
 40
0.0052314151081104
 10
132.0915586394861
 20
138.9470079705031
 30
0.0
 10
132.0742110935108
 20
138.9721326222003
 30
0.0
 10
132.0568726602369
 20
138.9972440758664
 30
0.0
 10
132.0395424752393
 20
139.0223435834586
 30
0.0
 10
132.0087739850381
 20
139.0669059440746
 30
0.0
 10
131.978031444874
 20
139.1114307209514
 30
0.0
 10
131.9473108147697
 20
139.1559237652349
 30
0.0
  0
ARC
  5
16D
330
1F
100
AcDbEntity
  8
0
  6
Continuous
 62
     7
370
     0
100
AcDbCircle
 10
133.2165618285
 20
136.4376519127
 30
0.0
 40
3.00000000000004
100
AcDbArc
 50
44.2175626536
 51
115.0294261999
  0
SPLINE
  5
16E
330
1F
100
AcDbEntity
  8
0
  6
Continuous
 62
     7
370
     0
100
AcDbSpline
210
0.0
220
0.0
230
1.0
 70
    24
 71
     3
 72
     8
 73
     4
 74
     0
 42
0.00000001
 43
0.00000001
 12
1.0
 22
0.0
 32
0.0
 13
1.0
 23
0.0
 33
0.0
 40
0.0
 40
0.0
 40
0.0
 40
0.0
 40
1.0
 40
1.0
 40
1.0
 40
1.0
 10
135.3666524524156
 20
138.5298063785083
 30
0.0
 10
135.2970989443366
 20
138.4817825215535
 30
0.0
 10
135.2274682780834
 20
138.4337053900304
 30
0.0
 10
135.1577366576838
 20
138.3855585537919
 30
0.0
  0
LINE
  5
16F
330
1F
100
AcDbEntity
  8
0
  6
Continuous
 62
     7
370
     0
100
AcDbLine
 10
132.5277354221
 20
138.3152882067
 30
0.0
 11
132.0915586433
 21
138.9470080343
 31
0.0
  0
LINE
  5
170
330
1F
100
AcDbEntity
  8
0
  6
Continuous
 62
     7
370
     0
100
AcDbLine
 10
135.1577365889
 20
138.3855583576
 30
0.0
 11
134.5260167613
 21
137.9493818117
 31
0.0
  0
ARC
  5
171
330
1F
100
AcDbEntity
  8
0
  6
Continuous
 62
     7
370
     0
100
AcDbCircle
 10
133.2165618285
 20
136.4376519127
 30
0.0
 40
2.000000000000045
100
AcDbArc
 50
49.1010066127
 51
110.1459822408
  0
ARC
  5
172
330
1F
100
AcDbEntity
  8
0
  6
Continuous
 62
     7
370
     0
100
AcDbCircle
 10
133.2165618285
 20
136.4376519127
 30
0.0
 40
2.999999999999984
100
AcDbArc
 50
295.0294261999
 51
314.2175626536
  0
ARC
  5
173
330
1F
100
AcDbEntity
  8
0
  6
Continuous
 62
     7
370
     0
100
AcDbCircle
 10
133.2165618285
 20
136.4376519127
 30
0.0
 40
2.000000000000004
100
AcDbArc
 50
290.1459822408
 51
319.1010066127
  0
ARC
  5
174
330
1F
100
AcDbEntity
  8
0
  6
Continuous
 62
     7
370
     0
100
AcDbCircle
 10
133.2165618285
 20
136.4376519127
 30
0.0
 40
2.999999999999986
100
AcDbArc
 50
205.0294261999
 51
224.2175626536
  0
ARC
  5
175
330
1F
100
AcDbEntity
  8
0
  6
Continuous
 62
     7
370
     0
100
AcDbCircle
 10
133.2165618285
 20
136.4376519127
 30
0.0
 40
1.999999999999979
100
AcDbArc
 50
200.1459822408
 51
229.1010066127
  0
ARC
  5
176
330
1F
100
AcDbEntity
  8
0
  6
Continuous
 62
     7
370
     0
100
AcDbCircle
 10
133.2165618285
 20
136.4376519127
 30
0.0
 40
3.00000000000004
100
AcDbArc
 50
25.0294261999
 51
44.2175626536
  0
ARC
  5
177
330
1F
100
AcDbEntity
  8
0
  6
Continuous
 62
     7
370
     0
100
AcDbCircle
 10
133.2165618285
 20
136.4376519127
 30
0.0
 40
2.000000000000045
100
AcDbArc
 50
20.1459822408
 51
49.1010066127
  0
ARC
  5
178
330
1F
100
AcDbEntity
  8
0
  6
Continuous
 62
     7
370
     0
100
AcDbCircle
 10
133.2165618285
 20
136.4376519127
 30
0.0
 40
3.00000000000001
100
AcDbArc
 50
115.0294261999
 51
134.2175626536
  0
ARC
  5
179
330
1F
100
AcDbEntity
  8
0
  6
Continuous
 62
     7
370
     0
100
AcDbCircle
 10
133.2165618285
 20
136.4376519127
 30
0.0
 40
2.000000000000045
100
AcDbArc
 50
110.1459822408
 51
139.1010066127
  0
CIRCLE
  5
17A
330
1F
100
AcDbEntity
  8
0
  6
Continuous
 62
     7
370
     0
100
AcDbCircle
 10
133.2165618285
 20
136.4376519127
 30
0.0
 40
4.799999999999985
  0
CIRCLE
  5
17B
330
1F
100
AcDbEntity
  8
0
  6
Continuous
 62
     7
370
     0
100
AcDbCircle
 10
133.2165618285
 20
136.4376519127
 30
0.0
 40
5.000000000000018
  0
ARC
  5
17C
330
1F
100
AcDbEntity
  8
0
  6
Continuous
 62
     7
370
     0
100
AcDbCircle
 10
133.2165618285
 20
153.4376519127
 30
0.0
 40
2.000000000000025
100
AcDbArc
 50
229.1010066127
 51
290.1459822408
  0
LINE
  5
17D
330
1F
100
AcDbEntity
  8
0
  6
Continuous
 62
     7
370
     0
100
AcDbLine
 10
133.905388287
 20
151.5600158331
 30
0.0
 11
134.3415650657
 21
150.9282960055
 31
0.0
  0
ARC
  5
17E
330
1F
100
AcDbEntity
  8
0
  6
Continuous
 62
     7
370
     0
100
AcDbCircle
 10
133.2165618285
 20
153.4376519127
 30
0.0
 40
2.749999999999992
100
AcDbArc
 50
225.0991761232
 51
294.1478127304
  0
LINE
  5
17F
330
1F
100
AcDbEntity
  8
0
  6
Continuous
 62
     7
370
     0
100
AcDbLine
 10
131.2753870037
 20
151.4897456822
 30
0.0
 11
131.907106715
 21
151.9259212968
 31
0.0
  0
SPLINE
  5
180
330
1F
100
AcDbEntity
  8
0
  6
Continuous
 62
     7
370
     0
100
AcDbSpline
210
0.0
220
0.0
230
1.0
 70
    24
 71
     3
 72
    11
 73
     7
 74
     0
 42
0.00000001
 43
0.00000001
 12
1.0
 22
0.0
 32
0.0
 13
1.0
 23
0.0
 33
0.0
 40
0.0041996937790339
 40
0.0041996937790339
 40
0.0041996937790339
 40
0.0041996937790339
 40
0.0045714279294727
 40
0.0045714279294727
 40
0.0045714279294727
 40
0.0052314151081104
 40
0.0052314151081104
 40
0.0052314151081104
 40
0.0052314151081104
 10
134.3415650174322
 20
150.9282958549099
 30
0.0
 10
134.3589125634074
 20
150.9031712032127
 30
0.0
 10
134.3762509966813
 20
150.8780597495466
 30
0.0
 10
134.3935811816789
 20
150.8529602419543
 30
0.0
 10
134.4243496718801
 20
150.8083978813384
 30
0.0
 10
134.4550922120442
 20
150.7638731044616
 30
0.0
 10
134.4858128421486
 20
150.7193800601781
 30
0.0
  0
ARC
  5
181
330
1F
100
AcDbEntity
  8
0
  6
Continuous
 62
     7
370
     0
100
AcDbCircle
 10
133.2165618285
 20
153.4376519127
 30
0.0
 40
2.999999999999959
100
AcDbArc
 50
224.2175626536
 51
295.0294261999
  0
SPLINE
  5
182
330
1F
100
AcDbEntity
  8
0
  6
Continuous
 62
     7
370
     0
100
AcDbSpline
210
0.0
220
0.0
230
1.0
 70
    24
 71
     3
 72
     8
 73
     4
 74
     0
 42
0.00000001
 43
0.00000001
 12
1.0
 22
0.0
 32
0.0
 13
1.0
 23
0.0
 33
0.0
 40
0.0
 40
0.0
 40
0.0
 40
0.0
 40
1.0
 40
1.0
 40
1.0
 40
1.0
 10
131.0664712045026
 20
151.3454974469047
 30
0.0
 10
131.1360247125817
 20
151.3935213038595
 30
0.0
 10
131.2056553788348
 20
151.4415984353826
 30
0.0
 10
131.2753869992345
 20
151.4897452716211
 30
0.0
  0
ARC
  5
183
330
1F
100
AcDbEntity
  8
0
  6
Continuous
 62
     7
370
     0
100
AcDbCircle
 10
133.2165618285
 20
153.4376519127
 30
0.0
 40
3.000000000000034
100
AcDbArc
 50
314.2175626536
 51
25.0294261999
  0
ARC
  5
184
330
1F
100
AcDbEntity
  8
0
  6
Continuous
 62
     7
370
     0
100
AcDbCircle
 10
133.2165618285
 20
153.4376519127
 30
0.0
 40
2.750000000000019
100
AcDbArc
 50
315.0991761232
 51
24.1478127304
  0
SPLINE
  5
185
330
1F
100
AcDbEntity
  8
0
  6
Continuous
 62
     7
370
     0
100
AcDbSpline
210
0.0
220
0.0
230
1.0
 70
    24
 71
     3
 72
    11
 73
     7
 74
     0
 42
0.00000001
 43
0.00000001
 12
1.0
 22
0.0
 32
0.0
 13
1.0
 23
0.0
 33
0.0
 40
0.0041333666424306
 40
0.0041333666424306
 40
0.0041333666424306
 40
0.0041333666424306
 40
0.0046138376121394
 40
0.0046138376121394
 40
0.0046138376121394
 40
0.0051650880369003
 40
0.0051650880369003
 40
0.0051650880369003
 40
0.0051650880369003
 10
135.7259178862557
 20
154.5626551016796
 30
0.0
 10
135.7583918048119
 20
154.5850770162972
 30
0.0
 10
135.7908436901329
 20
154.6074837178657
 30
0.0
 10
135.8232761942673
 20
154.6298770375163
 30
0.0
 10
135.8604864143284
 20
154.6555691749056
 30
0.0
 10
135.8976711282798
 20
154.6812437013676
 30
0.0
 10
135.9348336809875
 20
154.706902926396
 30
0.0
  0
SPLINE
  5
186
330
1F
100
AcDbEntity
  8
0
  6
Continuous
 62
     7
370
     0
100
AcDbSpline
210
0.0
220
0.0
230
1.0
 70
    24
 71
     3
 72
     8
 73
     4
 74
     0
 42
0.00000001
 43
0.00000001
 12
1.0
 22
0.0
 32
0.0
 13
1.0
 23
0.0
 33
0.0
 40
0.0
 40
0.0
 40
0.0
 40
0.0
 40
1.0
 40
1.0
 40
1.0
 40
1.0
 10
135.3087162942609
 20
151.28756128875
 30
0.0
 10
135.2606924412438
 20
151.3571147911262
 30
0.0
 10
135.2126153111623
 20
151.4267454552915
 30
0.0
 10
135.1644684695446
 20
151.4964770834819
 30
0.0
  0
LINE
  5
187
330
1F
100
AcDbEntity
  8
0
  6
Continuous
 62
     7
370
     0
100
AcDbLine
 10
135.0941980376
 20
154.1264782158
 30
0.0
 11
135.7259178652
 21
154.562655693
 31
0.0
  0
LINE
  5
188
330
1F
100
AcDbEntity
  8
0
  6
Continuous
 62
     7
370
     0
100
AcDbLine
 10
135.1644686542
 20
151.4964772818
 30
0.0
 11
134.7282916426
 21
152.1281971094
 31
0.0
  0
ARC
  5
189
330
1F
100
AcDbEntity
  8
0
  6
Continuous
 62
     7
370
     0
100
AcDbCircle
 10
133.2165618285
 20
153.4376519127
 30
0.0
 40
2.000000000000035
100
AcDbArc
 50
319.1010066127
 51
20.1459822408
  0
ARC
  5
18A
330
1F
100
AcDbEntity
  8
0
  6
Continuous
 62
     7
370
     0
100
AcDbCircle
 10
133.2165618285
 20
153.4376519127
 30
0.0
 40
2.999999999999986
100
AcDbArc
 50
134.2175626536
 51
205.0294261999
  0
SPLINE
  5
18B
330
1F
100
AcDbEntity
  8
0
  6
Continuous
 62
     7
370
     0
100
AcDbSpline
210
0.0
220
0.0
230
1.0
 70
    24
 71
     3
 72
     8
 73
     4
 74
     0
 42
0.00000001
 43
0.00000001
 12
1.0
 22
0.0
 32
0.0
 13
1.0
 23
0.0
 33
0.0
 40
0.0
 40
0.0
 40
0.0
 40
0.0
 40
1.0
 40
1.0
 40
1.0
 40
1.0
 10
131.1244073626573
 20
155.5877425366629
 30
0.0
 10
131.1724312156745
 20
155.5181890342868
 30
0.0
 10
131.220508345756
 20
155.4485583701215
 30
0.0
 10
131.2686551873737
 20
155.3788267419311
 30
0.0
  0
ARC
  5
18C
330
1F
100
AcDbEntity
  8
0
  6
Continuous
 62
     7
370
     0
100
AcDbCircle
 10
133.2165618285
 20
153.4376519127
 30
0.0
 40
2.750000000000019
100
AcDbArc
 50
135.0991761232
 51
204.1478127304
  0
SPLINE
  5
18D
330
1F
100
AcDbEntity
  8
0
  6
Continuous
 62
     7
370
     0
100
AcDbSpline
210
0.0
220
0.0
230
1.0
 70
    24
 71
     3
 72
    11
 73
     7
 74
     0
 42
0.00000001
 43
0.00000001
 12
1.0
 22
0.0
 32
0.0
 13
1.0
 23
0.0
 33
0.0
 40
0.0041333666424306
 40
0.0041333666424306
 40
0.0041333666424306
 40
0.0041333666424306
 40
0.0046138376121395
 40
0.0046138376121395
 40
0.0046138376121395
 40
0.0051650880369003
 40
0.0051650880369003
 40
0.0051650880369003
 40
0.0051650880369003
 10
130.7072057706626
 20
152.3126487237334
 30
0.0
 10
130.6747318521064
 20
152.2902268091158
 30
0.0
 10
130.6422799667853
 20
152.2678201075473
 30
0.0
 10
130.6098474626509
 20
152.2454267878967
 30
0.0
 10
130.5726372425898
 20
152.2197346505075
 30
0.0
 10
130.5354525286384
 20
152.1940601240454
 30
0.0
 10
130.4982899759307
 20
152.168400899017
 30
0.0
  0
LINE
  5
18E
330
1F
100
AcDbEntity
  8
0
  6
Continuous
 62
     7
370
     0
100
AcDbLine
 10
131.2686551713
 20
155.3788258192
 30
0.0
 11
131.7048318337
 21
154.7471078542
 31
0.0
  0
LINE
  5
18F
330
1F
100
AcDbEntity
  8
0
  6
Continuous
 62
     7
370
     0
100
AcDbLine
 10
131.3389255551
 20
152.7488248852
 30
0.0
 11
130.7072057856
 21
152.3126492706
 31
0.0
  0
ARC
  5
190
330
1F
100
AcDbEntity
  8
0
  6
Continuous
 62
     7
370
     0
100
AcDbCircle
 10
133.2165618285
 20
153.4376519127
 30
0.0
 40
2.000000000000026
100
AcDbArc
 50
139.1010066127
 51
200.1459822408
  0
ARC
  5
191
330
1F
100
AcDbEntity
  8
0
  6
Continuous
 62
     7
370
     0
100
AcDbCircle
 10
133.2165618285
 20
153.4376519127
 30
0.0
 40
2.750000000000044
100
AcDbArc
 50
45.0991761232
 51
114.1478127304
  0
SPLINE
  5
192
330
1F
100
AcDbEntity
  8
0
  6
Continuous
 62
     7
370
     0
100
AcDbSpline
210
0.0
220
0.0
230
1.0
 70
    24
 71
     3
 72
    11
 73
     7
 74
     0
 42
0.00000001
 43
0.00000001
 12
1.0
 22
0.0
 32
0.0
 13
1.0
 23
0.0
 33
0.0
 40
0.004199693779034
 40
0.004199693779034
 40
0.004199693779034
 40
0.004199693779034
 40
0.0045714279294727
 40
0.0045714279294727
 40
0.0045714279294727
 40
0.0052314151081104
 40
0.0052314151081104
 40
0.0052314151081104
 40
0.0052314151081104
 10
132.0915586394861
 20
155.9470079705031
 30
0.0
 10
132.0742110935108
 20
155.9721326222003
 30
0.0
 10
132.0568726602369
 20
155.9972440758665
 30
0.0
 10
132.0395424752393
 20
156.0223435834587
 30
0.0
 10
132.0087739850381
 20
156.0669059440746
 30
0.0
 10
131.978031444874
 20
156.1114307209514
 30
0.0
 10
131.9473108147697
 20
156.1559237652349
 30
0.0
  0
ARC
  5
193
330
1F
100
AcDbEntity
  8
0
  6
Continuous
 62
     7
370
     0
100
AcDbCircle
 10
133.2165618285
 20
153.4376519127
 30
0.0
 40
3.00000000000006
100
AcDbArc
 50
44.2175626536
 51
115.0294261999
  0
SPLINE
  5
194
330
1F
100
AcDbEntity
  8
0
  6
Continuous
 62
     7
370
     0
100
AcDbSpline
210
0.0
220
0.0
230
1.0
 70
    24
 71
     3
 72
     8
 73
     4
 74
     0
 42
0.00000001
 43
0.00000001
 12
1.0
 22
0.0
 32
0.0
 13
1.0
 23
0.0
 33
0.0
 40
0.0
 40
0.0
 40
0.0
 40
0.0
 40
1.0
 40
1.0
 40
1.0
 40
1.0
 10
135.3666524524156
 20
155.5298063785083
 30
0.0
 10
135.2970989443366
 20
155.4817825215535
 30
0.0
 10
135.2274682780834
 20
155.4337053900304
 30
0.0
 10
135.1577366576838
 20
155.3855585537919
 30
0.0
  0
LINE
  5
195
330
1F
100
AcDbEntity
  8
0
  6
Continuous
 62
     7
370
     0
100
AcDbLine
 10
132.5277354221
 20
155.3152891305
 30
0.0
 11
132.0915586433
 21
155.9470070956
 31
0.0
  0
LINE
  5
196
330
1F
100
AcDbEntity
  8
0
  6
Continuous
 62
     7
370
     0
100
AcDbLine
 10
135.1577365889
 20
155.3855592814
 30
0.0
 11
134.5260167613
 21
154.9493818042
 31
0.0
  0
ARC
  5
197
330
1F
100
AcDbEntity
  8
0
  6
Continuous
 62
     7
370
     0
100
AcDbCircle
 10
133.2165618285
 20
153.4376519127
 30
0.0
 40
2.000000000000023
100
AcDbArc
 50
49.1010066127
 51
110.1459822408
  0
ARC
  5
198
330
1F
100
AcDbEntity
  8
0
  6
Continuous
 62
     7
370
     0
100
AcDbCircle
 10
133.2165618285
 20
153.4376519127
 30
0.0
 40
2.99999999999996
100
AcDbArc
 50
295.0294261999
 51
314.2175626536
  0
ARC
  5
199
330
1F
100
AcDbEntity
  8
0
  6
Continuous
 62
     7
370
     0
100
AcDbCircle
 10
133.2165618285
 20
153.4376519127
 30
0.0
 40
1.999999999999998
100
AcDbArc
 50
290.1459822408
 51
319.1010066127
  0
ARC
  5
19A
330
1F
100
AcDbEntity
  8
0
  6
Continuous
 62
     7
370
     0
100
AcDbCircle
 10
133.2165618285
 20
153.4376519127
 30
0.0
 40
2.999999999999986
100
AcDbArc
 50
205.0294261999
 51
224.2175626536
  0
ARC
  5
19B
330
1F
100
AcDbEntity
  8
0
  6
Continuous
 62
     7
370
     0
100
AcDbCircle
 10
133.2165618285
 20
153.4376519127
 30
0.0
 40
1.999999999999969
100
AcDbArc
 50
200.1459822408
 51
229.1010066127
  0
ARC
  5
19C
330
1F
100
AcDbEntity
  8
0
  6
Continuous
 62
     7
370
     0
100
AcDbCircle
 10
133.2165618285
 20
153.4376519127
 30
0.0
 40
3.00000000000006
100
AcDbArc
 50
25.0294261999
 51
44.2175626536
  0
ARC
  5
19D
330
1F
100
AcDbEntity
  8
0
  6
Continuous
 62
     7
370
     0
100
AcDbCircle
 10
133.2165618285
 20
153.4376519127
 30
0.0
 40
2.000000000000035
100
AcDbArc
 50
20.1459822408
 51
49.1010066127
  0
ARC
  5
19E
330
1F
100
AcDbEntity
  8
0
  6
Continuous
 62
     7
370
     0
100
AcDbCircle
 10
133.2165618285
 20
153.4376519127
 30
0.0
 40
3.000000000000036
100
AcDbArc
 50
115.0294261999
 51
134.2175626536
  0
ARC
  5
19F
330
1F
100
AcDbEntity
  8
0
  6
Continuous
 62
     7
370
     0
100
AcDbCircle
 10
133.2165618285
 20
153.4376519127
 30
0.0
 40
2.000000000000045
100
AcDbArc
 50
110.1459822408
 51
139.1010066127
  0
CIRCLE
  5
1A0
330
1F
100
AcDbEntity
  8
0
  6
Continuous
 62
     7
370
     0
100
AcDbCircle
 10
133.2165618285
 20
153.4376519127
 30
0.0
 40
4.800000000000032
  0
CIRCLE
  5
1A1
330
1F
100
AcDbEntity
  8
0
  6
Continuous
 62
     7
370
     0
100
AcDbCircle
 10
133.2165618285
 20
153.4376519127
 30
0.0
 40
5.000000000000041
  0
CIRCLE
  5
1A2
330
1F
100
AcDbEntity
  8
0
  6
Continuous
 62
     7
370
     0
100
AcDbCircle
 10
133.2165618285
 20
214.4376519127
 30
0.0
 40
4.500000000000028
  0
CIRCLE
  5
1A3
330
1F
100
AcDbEntity
  8
0
  6
Continuous
 62
     7
370
     0
100
AcDbCircle
 10
133.2165618285
 20
214.4376519127
 30
0.0
 40
3.500000000000028
  0
CIRCLE
  5
1A4
330
1F
100
AcDbEntity
  8
0
  6
Continuous
 62
     7
370
     0
100
AcDbCircle
 10
133.2165618285
 20
197.4376519127
 30
0.0
 40
4.500000000000028
  0
CIRCLE
  5
1A5
330
1F
100
AcDbEntity
  8
0
  6
Continuous
 62
     7
370
     0
100
AcDbCircle
 10
133.2165618285
 20
197.4376519127
 30
0.0
 40
3.500000000000028
  0
LINE
  5
1A6
330
1F
100
AcDbEntity
  8
0
  6
Continuous
 62
     7
370
     0
100
AcDbLine
 10
135.2165617167
 20
197.4376494494
 30
0.0
 11
135.2157761461
 21
197.3815987316
 31
0.0
  0
ARC
  5
1A7
330
1F
100
AcDbEntity
  8
0
  6
Continuous
 62
     7
370
     0
100
AcDbCircle
 10
133.2165618285
 20
197.4376519127
 30
0.0
 40
2.000000000000038
100
AcDbArc
 50
0.0
 51
27.3490968028
  0
CIRCLE
  5
1A8
330
1F
100
AcDbEntity
  8
0
  6
Continuous
 62
     7
370
     0
100
AcDbCircle
 10
133.2165618285
 20
153.4376519127
 30
0.0
 40
4.499999999999993
  0
CIRCLE
  5
1A9
330
1F
100
AcDbEntity
  8
0
  6
Continuous
 62
     7
370
     0
100
AcDbCircle
 10
133.2165618285
 20
153.4376519127
 30
0.0
 40
3.499999999999985
  0
CIRCLE
  5
1AA
330
1F
100
AcDbEntity
  8
0
  6
Continuous
 62
     7
370
     0
100
AcDbCircle
 10
133.2165618285
 20
136.4376519127
 30
0.0
 40
4.500000000000028
  0
CIRCLE
  5
1AB
330
1F
100
AcDbEntity
  8
0
  6
Continuous
 62
     7
370
     0
100
AcDbCircle
 10
133.2165618285
 20
136.4376519127
 30
0.0
 40
3.500000000000028
  0
LINE
  5
1AC
330
1F
100
AcDbEntity
  8
0
  6
Continuous
 62
     7
370
     0
100
AcDbLine
 10
140.2165616049
 20
170.4376506117
 30
0.0
 11
143.2165620967
 21
170.4376506117
 31
0.0
  0
LINE
  5
1AD
330
1F
100
AcDbEntity
  8
0
  6
Continuous
 62
     7
370
     0
100
AcDbLine
 10
140.2165616049
 20
129.437651924
 30
0.0
 11
140.2165616049
 21
170.4376506117
 31
0.0
  0
LINE
  5
1AE
330
1F
100
AcDbEntity
  8
0
  6
Continuous
 62
     7
370
     0
100
AcDbLine
 10
119.2165618881
 20
129.437651924
 30
0.0
 11
140.2165616049
 21
129.437651924
 31
0.0
  0
LINE
  5
1AF
330
1F
100
AcDbEntity
  8
0
  6
Continuous
 62
     7
370
     0
100
AcDbLine
 10
119.2165618881
 20
129.437651924
 30
0.0
 11
119.2165618881
 21
221.4376533834
 31
0.0
  0
LINE
  5
1B0
330
1F
100
AcDbEntity
  8
0
  6
Continuous
 62
     7
370
     0
100
AcDbLine
 10
119.2165618881
 20
221.4376533834
 30
0.0
 11
140.2165616049
 21
221.4376533834
 31
0.0
  0
LINE
  5
1B1
330
1F
100
AcDbEntity
  8
0
  6
Continuous
 62
     7
370
     0
100
AcDbLine
 10
140.2165616049
 20
180.4376522509
 30
0.0
 11
140.2165616049
 21
221.4376533834
 31
0.0
  0
LINE
  5
1B2
330
1F
100
AcDbEntity
  8
0
  6
Continuous
 62
     7
370
     0
100
AcDbLine
 10
143.2165620967
 20
180.4376522509
 30
0.0
 11
140.2165616049
 21
180.4376522509
 31
0.0
  0
LINE
  5
1B3
330
1F
100
AcDbEntity
  8
0
  6
Continuous
 62
     7
370
     0
100
AcDbLine
 10
143.2165620967
 20
170.4376506117
 30
0.0
 11
143.2165620967
 21
180.4376522509
 31
0.0
  0
CIRCLE
  5
1B4
330
1F
100
AcDbEntity
  8
0
  6
Continuous
 62
     7
370
     0
100
AcDbCircle
 10
133.2165618285
 20
153.4376519127
 30
0.0
 40
6.0
  0
CIRCLE
  5
1B5
330
1F
100
AcDbEntity
  8
0
  6
Continuous
 62
     7
370
     0
100
AcDbCircle
 10
133.2165618285
 20
136.4376519127
 30
0.0
 40
6.0
  0
CIRCLE
  5
1B6
330
1F
100
AcDbEntity
  8
0
  6
Continuous
 62
     7
370
     0
100
AcDbCircle
 10
133.2165618285
 20
197.4376519127
 30
0.0
 40
6.0
  0
CIRCLE
  5
1B7
330
1F
100
AcDbEntity
  8
0
  6
Continuous
 62
     7
370
     0
100
AcDbCircle
 10
133.2165618285
 20
214.4376519127
 30
0.0
 40
6.000000000000028
  0
CIRCLE
  5
1B8
330
1F
100
AcDbEntity
  8
0
  6
Continuous
 62
     7
370
     0
100
AcDbCircle
 10
133.2165618285
 20
136.4376519127
 30
0.0
 40
5.500000000000028
  0
CIRCLE
  5
1B9
330
1F
100
AcDbEntity
  8
0
  6
Continuous
 62
     7
370
     0
100
AcDbCircle
 10
133.2165618285
 20
153.4376519127
 30
0.0
 40
5.500000000000028
  0
CIRCLE
  5
1BA
330
1F
100
AcDbEntity
  8
0
  6
Continuous
 62
     7
370
     0
100
AcDbCircle
 10
133.2165618285
 20
197.4376519127
 30
0.0
 40
5.500000000000028
  0
CIRCLE
  5
1BB
330
1F
100
AcDbEntity
  8
0
  6
Continuous
 62
     7
370
     0
100
AcDbCircle
 10
133.2165618285
 20
214.4376519127
 30
0.0
 40
5.500000000000028
  0
SPLINE
  5
1BC
330
1F
100
AcDbEntity
  8
0
  6
Continuous
 62
     7
370
     0
100
AcDbSpline
210
0.0
220
0.0
230
1.0
 70
    24
 71
     3
 72
    16
 73
    12
 74
     0
 42
0.00000001
 43
0.00000001
 12
1.0
 22
0.0
 32
0.0
 13
1.0
 23
0.0
 33
0.0
 40
0.0
 40
0.0
 40
0.0
 40
0.0
 40
0.2499999999999995
 40
0.2499999999999995
 40
0.3749999999999996
 40
0.3749999999999996
 40
0.4999999999999997
 40
0.4999999999999997
 40
0.7499999999999998
 40
0.7499999999999998
 40
1.0
 40
1.0
 40
1.0
 40
1.0
 10
132.2165618284591
 20
138.1749964190408
 30
0.0
 10
132.2165618284591
 20
137.8994093269754
 30
0.0
 10
132.2165618284591
 20
137.6215548075777
 30
0.0
 10
132.2165618284591
 20
137.1880345545065
 30
0.0
 10
132.2165618284591
 20
137.0415111282216
 30
0.0
 10
132.2165618284591
 20
136.7412437471532
 30
0.0
 10
132.2165618284591
 20
136.5844238869718
 30
0.0
 10
132.2165618284591
 20
136.1217386906524
 30
0.0
 10
132.2165618284591
 20
135.8201510733698
 30
0.0
 10
132.2165618284591
 20
135.2482721560135
 30
0.0
 10
132.2165618284591
 20
134.9731616231409
 30
0.0
 10
132.2165618284591
 20
134.7003074063718
 30
0.0
  0
SPLINE
  5
1BD
330
1F
100
AcDbEntity
  8
0
  6
Continuous
 62
     7
370
     0
100
AcDbSpline
210
0.0
220
0.0
230
1.0
 70
    24
 71
     3
 72
    16
 73
    12
 74
     0
 42
0.00000001
 43
0.00000001
 12
1.0
 22
0.0
 32
0.0
 13
1.0
 23
0.0
 33
0.0
 40
0.0
 40
0.0
 40
0.0
 40
0.0
 40
0.249999999999998
 40
0.249999999999998
 40
0.3749999999999983
 40
0.3749999999999983
 40
0.4999999999999987
 40
0.4999999999999987
 40
0.7499999999999993
 40
0.7499999999999993
 40
1.0
 40
1.0
 40
1.0
 40
1.0
 10
132.2165618284591
 20
155.1749964190408
 30
0.0
 10
132.2165618284591
 20
154.8994093269754
 30
0.0
 10
132.2165618284591
 20
154.6215548075777
 30
0.0
 10
132.2165618284591
 20
154.1880345545065
 30
0.0
 10
132.2165618284591
 20
154.0415111282216
 30
0.0
 10
132.2165618284591
 20
153.7412437471532
 30
0.0
 10
132.2165618284591
 20
153.5844238869718
 30
0.0
 10
132.2165618284591
 20
153.1217386906524
 30
0.0
 10
132.2165618284591
 20
152.8201510733698
 30
0.0
 10
132.2165618284591
 20
152.2482721560135
 30
0.0
 10
132.2165618284591
 20
151.9731616231409
 30
0.0
 10
132.2165618284591
 20
151.7003074063718
 30
0.0
  0
SPLINE
  5
1BE
330
1F
100
AcDbEntity
  8
0
  6
Continuous
 62
     7
370
     0
100
AcDbSpline
210
0.0
220
0.0
230
1.0
 70
    24
 71
     3
 72
    16
 73
    12
 74
     0
 42
0.00000001
 43
0.00000001
 12
1.0
 22
0.0
 32
0.0
 13
1.0
 23
0.0
 33
0.0
 40
0.0
 40
0.0
 40
0.0
 40
0.0
 40
0.25
 40
0.25
 40
0.375
 40
0.375
 40
0.5
 40
0.5
 40
0.75
 40
0.75
 40
1.0
 40
1.0
 40
1.0
 40
1.0
 10
132.2165618284591
 20
199.1749964190408
 30
0.0
 10
132.2165618284591
 20
198.8994093269754
 30
0.0
 10
132.2165618284591
 20
198.6215548075776
 30
0.0
 10
132.2165618284591
 20
198.1880345545065
 30
0.0
 10
132.2165618284591
 20
198.0415111282216
 30
0.0
 10
132.2165618284591
 20
197.7412437471532
 30
0.0
 10
132.2165618284591
 20
197.5844238869719
 30
0.0
 10
132.2165618284591
 20
197.1217386906524
 30
0.0
 10
132.2165618284591
 20
196.8201510733698
 30
0.0
 10
132.2165618284591
 20
196.2482721560135
 30
0.0
 10
132.2165618284591
 20
195.9731616231409
 30
0.0
 10
132.2165618284591
 20
195.7003074063718
 30
0.0
  0
SPLINE
  5
1BF
330
1F
100
AcDbEntity
  8
0
  6
Continuous
 62
     7
370
     0
100
AcDbSpline
210
0.0
220
0.0
230
1.0
 70
    24
 71
     3
 72
    16
 73
    12
 74
     0
 42
0.00000001
 43
0.00000001
 12
1.0
 22
0.0
 32
0.0
 13
1.0
 23
0.0
 33
0.0
 40
0.0
 40
0.0
 40
0.0
 40
0.0
 40
0.25
 40
0.25
 40
0.375
 40
0.375
 40
0.5
 40
0.5
 40
0.75
 40
0.75
 40
1.0
 40
1.0
 40
1.0
 40
1.0
 10
132.2165618284591
 20
216.1749964190408
 30
0.0
 10
132.2165618284591
 20
215.8994093269754
 30
0.0
 10
132.2165618284591
 20
215.6215548075777
 30
0.0
 10
132.2165618284591
 20
215.1880345545065
 30
0.0
 10
132.2165618284591
 20
215.0415111282216
 30
0.0
 10
132.2165618284591
 20
214.7412437471532
 30
0.0
 10
132.2165618284591
 20
214.5844238869719
 30
0.0
 10
132.2165618284591
 20
214.1217386906524
 30
0.0
 10
132.2165618284591
 20
213.8201510733698
 30
0.0
 10
132.2165618284591
 20
213.2482721560135
 30
0.0
 10
132.2165618284591
 20
212.9731616231409
 30
0.0
 10
132.2165618284591
 20
212.7003074063718
 30
0.0
  0
DIMENSION
  5
1C0
330
1F
100
AcDbEntity
  8
0
  6
Continuous
 62
     7
370
     0
100
AcDbDimension
  2
_D_2
 10
154.3472561817
 20
129.4376519127
 30
0.0
 11
154.3472561817
 21
175.4376519127
 31
0.0
 70
   160
  1
<>
 71
     2
 42
-1.0
  3
SLDDIMSTYLE0
100
AcDbAlignedDimension
 13
140.2165618285
 23
221.4376519127
 33
0.0
 14
140.2165618285
 24
129.4376519127
 34
0.0
 50
90.0
100
AcDbRotatedDimension
  0
LINE
  5
1CA
330
1F
100
AcDbEntity
  8
0
  6
Continuous
 62
     7
370
     0
100
AcDbLine
 10
130.2165618285
 20
107.9869844018
 30
0.0
 11
130.2165618285
 21
107.4869871138
 31
0.0
  0
LINE
  5
1CB
330
1F
100
AcDbEntity
  8
0
  6
Continuous
 62
     7
370
     0
100
AcDbLine
 10
136.2165618806
 20
107.4869871138
 30
0.0
 11
136.2165618806
 21
107.9869844018
 31
0.0
  0
LINE
  5
1CC
330
1F
100
AcDbEntity
  8
0
  6
Continuous
 62
     7
370
     0
100
AcDbLine
 10
136.2165618806
 20
107.9869844018
 30
0.0
 11
135.9665618396
 21
108.9869864284
 31
0.0
  0
LINE
  5
1CD
330
1F
100
AcDbEntity
  8
0
  6
Continuous
 62
     7
370
     0
100
AcDbLine
 10
130.4665618403
 20
108.9869864284
 30
0.0
 11
130.2165618285
 21
107.9869844018
 31
0.0
  0
LINE
  5
1CE
330
1F
100
AcDbEntity
  8
0
  6
Continuous
 62
     7
370
     0
100
AcDbLine
 10
137.7165616608
 20
102.9869854449
 30
0.0
 11
137.7165616608
 21
106.4869850873
 31
0.0
  0
LINE
  5
1CF
330
1F
100
AcDbEntity
  8
0
  6
Continuous
 62
     7
370
     0
100
AcDbLine
 10
128.7165618154
 20
106.4869850873
 30
0.0
 11
128.7165618154
 21
102.9869854449
 31
0.0
  0
LINE
  5
1D0
330
1F
100
AcDbEntity
  8
0
  6
Continuous
 62
     7
370
     0
100
AcDbLine
 10
137.7165616608
 20
106.4869850873
 30
0.0
 11
136.7165619626
 21
107.4869871138
 31
0.0
  0
LINE
  5
1D1
330
1F
100
AcDbEntity
  8
0
  6
Continuous
 62
     7
370
     0
100
AcDbLine
 10
129.7165618047
 20
107.4869871138
 30
0.0
 11
128.7165618154
 21
106.4869850873
 31
0.0
  0
LINE
  5
1D2
330
1F
100
AcDbEntity
  8
0
  6
Continuous
 62
     7
370
     0
100
AcDbLine
 10
131.0664712104
 20
107.9869844018
 30
0.0
 11
130.4982899632
 21
107.9869844018
 31
0.0
  0
LINE
  5
1D3
330
1F
100
AcDbEntity
  8
0
  6
Continuous
 62
     7
370
     0
100
AcDbLine
 10
131.0664712104
 20
107.9869844018
 30
0.0
 11
134.4858129627
 21
107.9869844018
 31
0.0
  0
LINE
  5
1D4
330
1F
100
AcDbEntity
  8
0
  6
Continuous
 62
     7
370
     0
100
AcDbLine
 10
134.4858129627
 20
107.9869844018
 30
0.0
 11
135.3087160855
 21
107.9869844018
 31
0.0
  0
LINE
  5
1D5
330
1F
100
AcDbEntity
  8
0
  6
Continuous
 62
     7
370
     0
100
AcDbLine
 10
135.3087160855
 20
107.9869844018
 30
0.0
 11
136.2165618806
 21
107.9869844018
 31
0.0
  0
LINE
  5
1D6
330
1F
100
AcDbEntity
  8
0
  6
Continuous
 62
     7
370
     0
100
AcDbLine
 10
130.2165618285
 20
107.9869844018
 30
0.0
 11
130.4982899632
 21
107.9869844018
 31
0.0
  0
LINE
  5
1D7
330
1F
100
AcDbEntity
  8
0
  6
Continuous
 62
     7
370
     0
100
AcDbLine
 10
131.2753870037
 20
108.9869864284
 30
0.0
 11
134.3415650657
 21
108.9869864284
 31
0.0
  0
SPLINE
  5
1D8
330
1F
100
AcDbEntity
  8
0
  6
Continuous
 62
     7
370
     0
100
AcDbSpline
210
0.0
220
0.0
230
1.0
 70
     8
 71
     3
 72
    11
 73
     7
 74
     0
 42
0.00000001
 43
0.00000001
 12
1.0
 22
0.0
 32
0.0
 13
1.0
 23
0.0
 33
0.0
 40
0.004199693779034
 40
0.004199693779034
 40
0.004199693779034
 40
0.004199693779034
 40
0.0045714279294727
 40
0.0045714279294727
 40
0.0045714279294727
 40
0.0052314151081104
 40
0.0052314151081104
 40
0.0052314151081104
 40
0.0052314151081104
 10
134.3415650174322
 20
108.9869853548886
 30
0.0
 10
134.3589125634074
 20
108.8668940945549
 30
0.0
 10
134.3762509966813
 20
108.7467987557337
 30
0.0
 10
134.3935811816789
 20
108.6266997312189
 30
0.0
 10
134.4243496718801
 20
108.4134725983604
 30
0.0
 10
134.4550922120442
 20
108.2002338626358
 30
0.0
 10
134.4858128421486
 20
107.9869853548887
 30
0.0
  0
SPLINE
  5
1D9
330
1F
100
AcDbEntity
  8
0
  6
Continuous
 62
     7
370
     0
100
AcDbSpline
210
0.0
220
0.0
230
1.0
 70
     8
 71
     3
 72
     8
 73
     4
 74
     0
 42
0.00000001
 43
0.00000001
 12
1.0
 22
0.0
 32
0.0
 13
1.0
 23
0.0
 33
0.0
 40
0.0
 40
0.0
 40
0.0
 40
0.0
 40
1.0
 40
1.0
 40
1.0
 40
1.0
 10
131.0664712045026
 20
107.9869853548886
 30
0.0
 10
131.1360247125817
 20
108.320344918058
 30
0.0
 10
131.2056553788348
 20
108.6536809063401
 30
0.0
 10
131.2753869992345
 20
108.9869853548886
 30
0.0
  0
LINE
  5
1DA
330
1F
100
AcDbEntity
  8
0
  6
Continuous
 62
     7
370
     0
100
AcDbLine
 10
134.7282916426
 20
108.9869864284
 30
0.0
 11
134.7282916426
 21
107.9869844018
 31
0.0
  0
LINE
  5
1DB
330
1F
100
AcDbEntity
  8
0
  6
Continuous
 62
     7
370
     0
100
AcDbLine
 10
135.1644686542
 20
108.9869864284
 30
0.0
 11
134.7282916426
 21
108.9869864284
 31
0.0
  0
SPLINE
  5
1DC
330
1F
100
AcDbEntity
  8
0
  6
Continuous
 62
     7
370
     0
100
AcDbSpline
210
0.0
220
0.0
230
1.0
 70
     8
 71
     3
 72
     8
 73
     4
 74
     0
 42
0.00000001
 43
0.00000001
 12
1.0
 22
0.0
 32
0.0
 13
1.0
 23
0.0
 33
0.0
 40
0.0
 40
0.0
 40
0.0
 40
0.0
 40
1.0
 40
1.0
 40
1.0
 40
1.0
 10
135.3087162942609
 20
107.9869853548887
 30
0.0
 10
135.2606924412438
 20
108.3203448907249
 30
0.0
 10
135.2126153111623
 20
108.6536808691018
 30
0.0
 10
135.1644684695445
 20
108.9869853548886
 30
0.0
  0
LINE
  5
1DD
330
1F
100
AcDbEntity
  8
0
  6
Continuous
 62
     7
370
     0
100
AcDbLine
 10
135.1644686542
 20
108.9869864284
 30
0.0
 11
135.9665618396
 21
108.9869864284
 31
0.0
  0
LINE
  5
1DE
330
1F
100
AcDbEntity
  8
0
  6
Continuous
 62
     7
370
     0
100
AcDbLine
 10
134.5260167613
 20
108.9869864284
 30
0.0
 11
134.3415650657
 21
108.9869864284
 31
0.0
  0
LINE
  5
1DF
330
1F
100
AcDbEntity
  8
0
  6
Continuous
 62
     7
370
     0
100
AcDbLine
 10
134.5260167613
 20
108.9869864284
 30
0.0
 11
134.5260167613
 21
107.9869844018
 31
0.0
  0
LINE
  5
1E0
330
1F
100
AcDbEntity
  8
0
  6
Continuous
 62
     7
370
     0
100
AcDbLine
 10
130.4665618403
 20
108.9869864284
 30
0.0
 11
130.7072057856
 21
108.9869864284
 31
0.0
  0
SPLINE
  5
1E1
330
1F
100
AcDbEntity
  8
0
  6
Continuous
 62
     7
370
     0
100
AcDbSpline
210
0.0
220
0.0
230
1.0
 70
     8
 71
     3
 72
    11
 73
     7
 74
     0
 42
0.00000001
 43
0.00000001
 12
1.0
 22
0.0
 32
0.0
 13
1.0
 23
0.0
 33
0.0
 40
0.0041333666424306
 40
0.0041333666424306
 40
0.0041333666424306
 40
0.0041333666424306
 40
0.0046138376121395
 40
0.0046138376121395
 40
0.0046138376121395
 40
0.0051650880369003
 40
0.0051650880369003
 40
0.0051650880369003
 40
0.0051650880369003
 10
130.7072057706625
 20
108.9869853548886
 30
0.0
 10
130.6747318521064
 20
108.8317659371476
 30
0.0
 10
130.6422799667853
 20
108.6765397103066
 30
0.0
 10
130.6098474626509
 20
108.5213075061865
 30
0.0
 10
130.5726372425898
 20
108.3432076452585
 30
0.0
 10
130.5354525286384
 20
108.1650999127169
 30
0.0
 10
130.4982899759307
 20
107.9869853548886
 30
0.0
  0
LINE
  5
1E2
330
1F
100
AcDbEntity
  8
0
  6
Continuous
 62
     7
370
     0
100
AcDbLine
 10
131.2753870037
 20
108.9869864284
 30
0.0
 11
130.7072057856
 21
108.9869864284
 31
0.0
  0
LINE
  5
1E3
330
1F
100
AcDbEntity
  8
0
  6
Continuous
 62
     7
370
     0
100
AcDbLine
 10
134.7282916426
 20
108.9869864284
 30
0.0
 11
134.5260167613
 21
108.9869864284
 31
0.0
  0
LINE
  5
1E4
330
1F
100
AcDbEntity
  8
0
  6
Continuous
 62
     7
370
     0
100
AcDbLine
 10
137.7165616608
 20
106.4869850873
 30
0.0
 11
128.7165618154
 21
106.4869850873
 31
0.0
  0
LINE
  5
1E5
330
1F
100
AcDbEntity
  8
0
  6
Continuous
 62
     7
370
     0
100
AcDbLine
 10
136.7165619626
 20
107.4869871138
 30
0.0
 11
129.7165618047
 21
107.4869871138
 31
0.0
  0
LINE
  5
1E6
330
1F
100
AcDbEntity
  8
0
  6
Continuous
 62
     7
370
     0
100
AcDbLine
 10
119.2165618881
 20
88.4869858621
 30
0.0
 11
119.2165618881
 21
102.9869854449
 31
0.0
  0
LINE
  5
1E7
330
1F
100
AcDbEntity
  8
0
  6
Continuous
 62
     7
370
     0
100
AcDbLine
 10
119.2165618881
 20
102.9869854449
 30
0.0
 11
140.2165616049
 21
102.9869854449
 31
0.0
  0
LINE
  5
1E8
330
1F
100
AcDbEntity
  8
0
  6
Continuous
 62
     7
370
     0
100
AcDbLine
 10
119.2165618881
 20
88.4869858621
 30
0.0
 11
140.2165616049
 21
88.4869858621
 31
0.0
  0
LINE
  5
1E9
330
1F
100
AcDbEntity
  8
0
  6
Continuous
 62
     7
370
     0
100
AcDbLine
 10
140.2165616049
 20
102.9869854449
 30
0.0
 11
140.2165616049
 21
88.4869858621
 31
0.0
  0
LINE
  5
1EA
330
1F
100
AcDbEntity
  8
0
  6
Continuous
 62
     7
370
     0
100
AcDbLine
 10
143.2165620967
 20
102.9869854449
 30
0.0
 11
143.2165620967
 21
93.9869858323
 31
0.0
  0
LINE
  5
1EB
330
1F
100
AcDbEntity
  8
0
  6
Continuous
 62
     7
370
     0
100
AcDbLine
 10
140.2165616049
 20
93.9869858323
 30
0.0
 11
143.2165620967
 21
93.9869858323
 31
0.0
  0
LINE
  5
1EC
330
1F
100
AcDbEntity
  8
0
  6
Continuous
 62
     7
370
     0
100
AcDbLine
 10
140.2165616049
 20
102.9869854449
 30
0.0
 11
143.2165620967
 21
102.9869854449
 31
0.0
  0
DIMENSION
  5
1ED
330
1F
100
AcDbEntity
  8
0
  6
Continuous
 62
     7
370
     0
100
AcDbDimension
  2
_D_3
 10
143.2165618285
 20
78.4869853549
 30
0.0
 11
131.2165618285
 21
78.4869853549
 31
0.0
 70
   160
  1
<>
 71
     2
 42
-1.0
  3
SLDDIMSTYLE0
100
AcDbAlignedDimension
 13
119.2165618285
 23
99.3541068549
 33
0.0
 14
143.2165618285
 24
93.9869853549
 34
0.0
 50
0.0
100
AcDbRotatedDimension
  0
ENDSEC
  0
SECTION
  2
OBJECTS
  0
DICTIONARY
  5
C
330
0
100
AcDbDictionary
281
     1
  3
ACAD_GROUP
350
D
  3
ACAD_LAYOUT
350
1A
  3
ACAD_MLINESTYLE
350
17
  3
ACAD_PLOTSETTINGS
350
19
  3
ACAD_PLOTSTYLENAME
350
E
  0
DICTIONARY
  5
D
102
{ACAD_REACTORS
330
C
102
}
330
C
100
AcDbDictionary
281
     1
  0
DICTIONARY
  5
1A
102
{ACAD_REACTORS
330
C
102
}
330
C
100
AcDbDictionary
281
     1
  3
Layout1
350
1E
  3
Layout2
350
26
  3
Model
350
22
  0
DICTIONARY
  5
17
102
{ACAD_REACTORS
330
C
102
}
330
C
100
AcDbDictionary
281
     1
  3
Standard
350
18
  0
DICTIONARY
  5
19
102
{ACAD_REACTORS
330
C
102
}
330
C
100
AcDbDictionary
281
     1
  0
ACDBDICTIONARYWDFLT
  5
E
102
{ACAD_REACTORS
330
C
102
}
330
C
100
AcDbDictionary
281
     1
  3
Normal
350
F
100
AcDbDictionaryWithDefault
340
F
  0
LAYOUT
  5
1E
102
{ACAD_REACTORS
330
1A
102
}
330
1A
100
AcDbPlotSettings
  1

  2
none_device
  4

  6

 40
0.0
 41
0.0
 42
0.0
 43
0.0
 44
0.0
 45
0.0
 46
0.0
 47
0.0
 48
0.0
 49
0.0
140
0.0
141
0.0
142
1.0
143
1.0
 70
   688
 72
     0
 73
     0
 74
     5
  7

 75
    16
147
1.0
148
0.0
149
0.0
100
AcDbLayout
  1
Layout1
 70
     1
 71
     1
 10
0.0
 20
0.0
 11
420.0
 21
297.0
 12
0.0
 22
0.0
 32
0.0
 14
1.0000000000E+20
 24
1.0000000000E+20
 34
1.0000000000E+20
 15
-1.0000000000E+20
 25
-1.0000000000E+20
 35
-1.0000000000E+20
146
0.0
 13
0.0
 23
0.0
 33
0.0
 16
1.0
 26
0.0
 36
0.0
 17
0.0
 27
1.0
 37
0.0
 76
     0
330
1B
  0
LAYOUT
  5
26
102
{ACAD_REACTORS
330
1A
102
}
330
1A
100
AcDbPlotSettings
  1

  2
none_device
  4

  6

 40
0.0
 41
0.0
 42
0.0
 43
0.0
 44
0.0
 45
0.0
 46
0.0
 47
0.0
 48
0.0
 49
0.0
140
0.0
141
0.0
142
1.0
143
1.0
 70
   688
 72
     0
 73
     0
 74
     5
  7

 75
    16
147
1.0
148
0.0
149
0.0
100
AcDbLayout
  1
Layout2
 70
     1
 71
     2
 10
0.0
 20
0.0
 11
0.0
 21
0.0
 12
0.0
 22
0.0
 32
0.0
 14
0.0
 24
0.0
 34
0.0
 15
0.0
 25
0.0
 35
0.0
146
0.0
 13
0.0
 23
0.0
 33
0.0
 16
1.0
 26
0.0
 36
0.0
 17
0.0
 27
1.0
 37
0.0
 76
     0
330
23
  0
LAYOUT
  5
22
102
{ACAD_REACTORS
330
1A
102
}
330
1A
100
AcDbPlotSettings
  1

  2
none_device
  4

  6

 40
0.0
 41
0.0
 42
0.0
 43
0.0
 44
0.0
 45
0.0
 46
0.0
 47
0.0
 48
0.0
 49
0.0
140
0.0
141
0.0
142
1.0
143
1.0
 70
  1712
 72
     0
 73
     0
 74
     0
  7

 75
     0
147
1.0
148
0.0
149
0.0
100
AcDbLayout
  1
Model
 70
     1
 71
     0
 10
0.0
 20
0.0
 11
210.0
 21
297.0
 12
0.0
 22
0.0
 32
0.0
 14
0.0
 24
0.0
 34
0.0
 15
210.0
 25
297.0
 35
0.0
146
0.0
 13
0.0
 23
0.0
 33
0.0
 16
1.0
 26
0.0
 36
0.0
 17
0.0
 27
1.0
 37
0.0
 76
     0
330
1F
331
29
  0
MLINESTYLE
  5
18
102
{ACAD_REACTORS
330
17
102
}
330
17
100
AcDbMlineStyle
  2
Standard
 70
     0
  3

 62
   256
 51
90.0
 52
90.0
 71
     2
 49
0.5
 62
   256
  6
BYLAYER
 49
-0.5
 62
   256
  6
BYLAYER
  0
ACDBPLACEHOLDER
  5
F
102
{ACAD_REACTORS
330
E
102
}
330
E
  0
ENDSEC
  0
EOF
