  0
SECTION
  2
HEADER
  9
$ACADVER
  1
AC1015
  9
$ACADMAINTVER
 70
     6
  9
$DWGCODEPAGE
  3
DOS932
  9
$INSBASE
 10
0.0
 20
0.0
 30
0.0
  9
$EXTMIN
 10
0.0
 20
0.0
 30
0.0
  9
$EXTMAX
 10
210.0
 20
297.0
 30
0.0
  9
$LIMMIN
 10
0.0
 20
0.0
  9
$LIMMAX
 10
210.0
 20
297.0
  9
$ORTHOMODE
 70
     0
  9
$REGENMODE
 70
     1
  9
$FILLMODE
 70
     1
  9
$QTEXTMODE
 70
     0
  9
$MIRRTEXT
 70
     1
  9
$LTSCALE
 40
1.0
  9
$ATTMODE
 70
     1
  9
$TEXTSIZE
 40
3.5
  9
$TRACEWID
 40
1.0
  9
$TEXTSTYLE
  7
Standard
  9
$CLAYER
  8
0
  9
$CELTYPE
  6
ByLayer
  9
$CECOLOR
 62
   256
  9
$CELTSCALE
 40
1.0
  9
$DISPSILH
 70
     0
  9
$DIMSCALE
 40
1.0
  9
$DIMASZ
 40
3.0
  9
$DIMEXO
 40
1.0
  9
$DIMDLI
 40
3.75
  9
$DIMRND
 40
0.0
  9
$DIMDLE
 40
0.0
  9
$DIMEXE
 40
1.0
  9
$DIMTP
 40
0.0
  9
$DIMTM
 40
0.0
  9
$DIMTXT
 40
3.5
  9
$DIMCEN
 40
2.5
  9
$DIMTSZ
 40
0.0
  9
$DIMTOL
 70
     0
  9
$DIMLIM
 70
     0
  9
$DIMTIH
 70
     1
  9
$DIMTOH
 70
     1
  9
$DIMSE1
 70
     0
  9
$DIMSE2
 70
     0
  9
$DIMTAD
 70
     1
  9
$DIMZIN
 70
     0
  9
$DIMBLK
  1

  9
$DIMASO
 70
     1
  9
$DIMSHO
 70
     1
  9
$DIMPOST
  1

  9
$DIMAPOST
  1

  9
$DIMALT
 70
     0
  9
$DIMALTD
 70
     3
  9
$DIMALTF
 40
0.0393700787
  9
$DIMLFAC
 40
1.0
  9
$DIMTOFL
 70
     1
  9
$DIMTVP
 40
0.0
  9
$DIMTIX
 70
     0
  9
$DIMSOXD
 70
     0
  9
$DIMSAH
 70
     0
  9
$DIMBLK1
  1

  9
$DIMBLK2
  1

  9
$DIMSTYLE
  2
ISO-25
  9
$DIMCLRD
 70
     0
  9
$DIMCLRE
 70
     0
  9
$DIMCLRT
 70
     0
  9
$DIMTFAC
 40
1.0
  9
$DIMGAP
 40
1.524
  9
$DIMJUST
 70
     0
  9
$DIMSD1
 70
     0
  9
$DIMSD2
 70
     0
  9
$DIMTOLJ
 70
     0
  9
$DIMTZIN
 70
     0
  9
$DIMALTZ
 70
     0
  9
$DIMALTTZ
 70
     0
  9
$DIMUPT
 70
     0
  9
$DIMDEC
 70
     1
  9
$DIMTDEC
 70
     3
  9
$DIMALTU
 70
     2
  9
$DIMALTTD
 70
     3
  9
$DIMTXSTY
  7
Standard
  9
$DIMAUNIT
 70
     0
  9
$DIMADEC
 70
     2
  9
$DIMALTRND
 40
0.0
  9
$DIMAZIN
 70
     0
  9
$DIMDSEP
 70
    44
  9
$DIMATFIT
 70
     3
  9
$DIMFRAC
 70
     0
  9
$DIMLDRBLK
  1

  9
$DIMLUNIT
 70
     2
  9
$DIMLWD
 70
    -2
  9
$DIMLWE
 70
    -2
  9
$DIMTMOVE
 70
     0
  9
$LUNITS
 70
     2
  9
$LUPREC
 70
     1
  9
$SKETCHINC
 40
1.0
  9
$FILLETRAD
 40
10.0
  9
$AUNITS
 70
     0
  9
$AUPREC
 70
     2
  9
$MENU
  1
.
  9
$ELEVATION
 40
0.0
  9
$PELEVATION
 40
0.0
  9
$THICKNESS
 40
0.0
  9
$LIMCHECK
 70
     0
  9
$CHAMFERA
 40
10.0
  9
$CHAMFERB
 40
10.0
  9
$CHAMFERC
 40
20.0
  9
$CHAMFERD
 40
0.0
  9
$SKPOLY
 70
     0
  9
$TDCREATE
 40
2456645.819748449
  9
$TDUCREATE
 40
2456645.444748449
  9
$TDUPDATE
 40
2456645.819749178
  9
$TDUUPDATE
 40
2456645.444749178
  9
$TDINDWG
 40
0.0000000116
  9
$TDUSRTIMER
 40
0.0000000116
  9
$USRTIMER
 70
     1
  9
$ANGBASE
 50
0.0
  9
$ANGDIR
 70
     0
  9
$PDMODE
 70
     0
  9
$PDSIZE
 40
-1.0
  9
$PLINEWID
 40
0.0
  9
$SPLFRAME
 70
     0
  9
$SPLINETYPE
 70
     6
  9
$SPLINESEGS
 70
     8
  9
$HANDSEED
  5
272
  9
$SURFTAB1
 70
     6
  9
$SURFTAB2
 70
     6
  9
$SURFTYPE
 70
     6
  9
$SURFU
 70
     6
  9
$SURFV
 70
     6
  9
$UCSBASE
  2

  9
$UCSNAME
  2

  9
$UCSORG
 10
0.0
 20
0.0
 30
0.0
  9
$UCSXDIR
 10
1.0
 20
0.0
 30
0.0
  9
$UCSYDIR
 10
0.0
 20
1.0
 30
0.0
  9
$UCSORTHOREF
  2

  9
$UCSORTHOVIEW
 70
     0
  9
$UCSORGTOP
 10
0.0
 20
0.0
 30
0.0
  9
$UCSORGBOTTOM
 10
0.0
 20
0.0
 30
0.0
  9
$UCSORGLEFT
 10
0.0
 20
0.0
 30
0.0
  9
$UCSORGRIGHT
 10
0.0
 20
0.0
 30
0.0
  9
$UCSORGFRONT
 10
0.0
 20
0.0
 30
0.0
  9
$UCSORGBACK
 10
0.0
 20
0.0
 30
0.0
  9
$PUCSBASE
  2

  9
$PUCSNAME
  2

  9
$PUCSORG
 10
0.0
 20
0.0
 30
0.0
  9
$PUCSXDIR
 10
1.0
 20
0.0
 30
0.0
  9
$PUCSYDIR
 10
0.0
 20
1.0
 30
0.0
  9
$PUCSORTHOREF
  2

  9
$PUCSORTHOVIEW
 70
     0
  9
$PUCSORGTOP
 10
0.0
 20
0.0
 30
0.0
  9
$PUCSORGBOTTOM
 10
0.0
 20
0.0
 30
0.0
  9
$PUCSORGLEFT
 10
0.0
 20
0.0
 30
0.0
  9
$PUCSORGRIGHT
 10
0.0
 20
0.0
 30
0.0
  9
$PUCSORGFRONT
 10
0.0
 20
0.0
 30
0.0
  9
$PUCSORGBACK
 10
0.0
 20
0.0
 30
0.0
  9
$USERI1
 70
     0
  9
$USERI2
 70
     0
  9
$USERI3
 70
     0
  9
$USERI4
 70
     0
  9
$USERI5
 70
     0
  9
$USERR1
 40
0.0
  9
$USERR2
 40
0.0
  9
$USERR3
 40
0.0
  9
$USERR4
 40
0.0
  9
$USERR5
 40
0.0
  9
$WORLDVIEW
 70
     1
  9
$SHADEDGE
 70
     3
  9
$SHADEDIF
 70
    70
  9
$TILEMODE
 70
     1
  9
$MAXACTVP
 70
    64
  9
$PINSBASE
 10
0.0
 20
0.0
 30
0.0
  9
$PLIMCHECK
 70
     0
  9
$PEXTMIN
 10
1.0000000000E+20
 20
1.0000000000E+20
 30
1.0000000000E+20
  9
$PEXTMAX
 10
-1.0000000000E+20
 20
-1.0000000000E+20
 30
-1.0000000000E+20
  9
$PLIMMIN
 10
0.0
 20
0.0
  9
$PLIMMAX
 10
420.0
 20
297.0
  9
$UNITMODE
 70
     0
  9
$VISRETAIN
 70
     1
  9
$PLINEGEN
 70
     0
  9
$PSLTSCALE
 70
     1
  9
$TREEDEPTH
 70
  3020
  9
$CMLSTYLE
  2
Standard
  9
$CMLJUST
 70
     0
  9
$CMLSCALE
 40
20.0
  9
$PROXYGRAPHICS
 70
     1
  9
$MEASUREMENT
 70
     1
  9
$CELWEIGHT
370
    -1
  9
$ENDCAPS
280
     0
  9
$JOINSTYLE
280
     0
  9
$LWDISPLAY
290
     1
  9
$INSUNITS
 70
     4
  9
$HYPERLINKBASE
  1

  9
$STYLESHEET
  1

  9
$XEDIT
290
     1
  9
$CEPSNTYPE
380
     0
  9
$PSTYLEMODE
290
     1
  9
$FINGERPRINTGUID
  2
{DBE595EA-BED0-4692-9B41-7121956A038F}
  9
$VERSIONGUID
  2
{FAEB1C32-E019-11D5-929B-00C0DF256EC4}
  9
$EXTNAMES
290
     1
  9
$PSVPSCALE
 40
0.0
  9
$OLESTARTUP
290
     0
  0
ENDSEC
  0
SECTION
  2
CLASSES
  0
CLASS
  1
ACDBDICTIONARYWDFLT
  2
AcDbDictionaryWithDefault
  3
ObjectDBX Classes
 90
        0
280
     0
281
     0
  0
CLASS
  1
VISUALSTYLE
  2
AcDbVisualStyle
  3
ObjectDBX Classes
 90
     4095
280
     0
281
     0
  0
CLASS
  1
MATERIAL
  2
AcDbMaterial
  3
ObjectDBX Classes
 90
     1153
280
     0
281
     0
  0
CLASS
  1
ACDBPLACEHOLDER
  2
AcDbPlaceHolder
  3
ObjectDBX Classes
 90
        0
280
     0
281
     0
  0
CLASS
  1
LAYOUT
  2
AcDbLayout
  3
ObjectDBX Classes
 90
        0
280
     0
281
     0
  0
ENDSEC
  0
SECTION
  2
TABLES
  0
TABLE
  2
VPORT
  5
8
330
0
100
AcDbSymbolTable
 70
     1
  0
VPORT
  5
29
330
8
100
AcDbSymbolTableRecord
100
AcDbViewportTableRecord
  2
*Active
 70
     0
 10
0.0
 20
0.0
 11
1.0
 21
1.0
 12
105.0
 22
148.5
 13
0.0
 23
0.0
 14
10.0
 24
10.0
 15
10.0
 25
10.0
 16
0.0
 26
0.0
 36
1.0
 17
0.0
 27
0.0
 37
0.0
 40
297.0
 41
0.7070707071
 42
50.0
 43
0.0
 44
0.0
 50
0.0
 51
0.0
 71
     0
 72
  2000
 73
     1
 74
     3
 75
     0
 76
     0
 77
     0
 78
     0
281
     0
 65
     1
110
0.0
120
0.0
130
0.0
111
1.0
121
0.0
131
0.0
112
0.0
122
1.0
132
0.0
 79
     0
146
0.0
  0
ENDTAB
  0
TABLE
  2
LTYPE
  5
5
330
0
100
AcDbSymbolTable
 70
     6
  0
LTYPE
  5
14
330
5
100
AcDbSymbolTableRecord
100
AcDbLinetypeTableRecord
  2
ByBlock
 70
     0
  3

 72
    65
 73
     0
 40
0.0
  0
LTYPE
  5
15
330
5
100
AcDbSymbolTableRecord
100
AcDbLinetypeTableRecord
  2
ByLayer
 70
     0
  3

 72
    65
 73
     0
 40
0.0
  0
LTYPE
  5
16
330
5
100
AcDbSymbolTableRecord
100
AcDbLinetypeTableRecord
  2
Continuous
 70
     0
  3
Solid line
 72
    65
 73
     0
 40
0.0
  0
LTYPE
  5
3F
330
5
100
AcDbSymbolTableRecord
100
AcDbLinetypeTableRecord
  2
HIDDEN
 70
     0
  3
Hidden __ __ __ __ __ __ __ __ __ __ __ __ __ __
 72
    65
 73
     2
 40
1.905
 49
1.27
 74
     0
 49
-0.635
 74
     0
  0
LTYPE
  5
40
330
5
100
AcDbSymbolTableRecord
100
AcDbLinetypeTableRecord
  2
PHANTOM
 70
     0
  3
Phantom ______  __  __  ______  __  __  ______
 72
    65
 73
     6
 40
12.7
 49
6.35
 74
     0
 49
-1.27
 74
     0
 49
1.27
 74
     0
 49
-1.27
 74
     0
 49
1.27
 74
     0
 49
-1.27
 74
     0
  0
LTYPE
  5
41
330
5
100
AcDbSymbolTableRecord
100
AcDbLinetypeTableRecord
  2
CENTER
 70
     0
  3
Center ____ _ ____ _ ____ _ ____ _ ____ _ ____
 72
    65
 73
     4
 40
10.16
 49
6.35
 74
     0
 49
-1.27
 74
     0
 49
1.27
 74
     0
 49
-1.27
 74
     0
  0
LTYPE
  5
42
330
5
100
AcDbSymbolTableRecord
100
AcDbLinetypeTableRecord
  2
CENTERX2
 70
     0
  3
Center (2x) ________  __  ________  __  _____
 72
    65
 73
     4
 40
20.32
 49
12.7
 74
     0
 49
-2.54
 74
     0
 49
2.54
 74
     0
 49
-2.54
 74
     0
  0
LTYPE
  5
43
330
5
100
AcDbSymbolTableRecord
100
AcDbLinetypeTableRecord
  2
DOT2
 70
     0
  3
Dot (.5x) ........................................
 72
    65
 73
     2
 40
0.635
 49
0.0
 74
     0
 49
-0.635
 74
     0
  0
ENDTAB
  0
TABLE
  2
LAYER
  5
2
330
0
100
AcDbSymbolTable
 70
     1
  0
LAYER
  5
10
330
2
100
AcDbSymbolTableRecord
100
AcDbLayerTableRecord
  2
0
 70
     0
 62
     7
  6
Continuous
370
    -3
390
F
  0
ENDTAB
  0
TABLE
  2
STYLE
  5
3
330
0
100
AcDbSymbolTable
 70
     2
  0
STYLE
  5
11
330
3
100
AcDbSymbolTableRecord
100
AcDbTextStyleTableRecord
  2
Standard
 70
     0
 40
0.0
 41
1.0
 50
0.0
 71
     0
 42
3.5
  3
txt
  4
bigfont
  0
STYLE
  5
4C
330
3
100
AcDbSymbolTableRecord
100
AcDbTextStyleTableRecord
  2
SLDTEXTSTYLE0
 70
     0
 40
0.0
 41
0.7
 50
0.0
 71
     0
 42
0.2
  3
TXT
  4
bigfont
  0
ENDTAB
  0
TABLE
  2
VIEW
  5
6
330
0
100
AcDbSymbolTable
 70
     0
  0
ENDTAB
  0
TABLE
  2
UCS
  5
7
330
0
100
AcDbSymbolTable
 70
     0
  0
ENDTAB
  0
TABLE
  2
APPID
  5
9
330
0
100
AcDbSymbolTable
 70
     1
  0
APPID
  5
12
330
9
100
AcDbSymbolTableRecord
100
AcDbRegAppTableRecord
  2
ACAD
 70
     0
  0
ENDTAB
  0
TABLE
  2
DIMSTYLE
  5
A
330
0
100
AcDbSymbolTable
 70
     3
100
AcDbDimStyleTable
  0
DIMSTYLE
105
27
330
A
100
AcDbSymbolTableRecord
100
AcDbDimStyleTableRecord
  2
ISO-25
 70
     0
 41
2.5
 42
0.625
 43
3.75
 44
1.25
 73
     0
 74
     0
 77
     1
 78
     8
140
2.5
141
2.5
143
0.0393700787
147
0.625
171
     3
172
     1
178
     0
271
     2
272
     2
274
     3
278
    44
283
     0
284
     8
340
11
  0
DIMSTYLE
105
121
102
{ACAD_REACTORS
330
120
330
221
330
268
102
}
330
A
100
AcDbSymbolTableRecord
100
AcDbDimStyleTableRecord
  2
SLDDIMSTYLE0
 70
     0
 41
3.0
 44
0.0
 45
0.000000001
 73
     0
 74
     0
 77
     3
 78
    12
 79
     3
140
3.5
147
0.875
173
     1
178
     0
271
     1
272
     3
276
     2
284
    12
340
4C
  0
DIMSTYLE
105
22C
102
{ACAD_REACTORS
330
22B
102
}
330
A
100
AcDbSymbolTableRecord
100
AcDbDimStyleTableRecord
  2
SLDDIMSTYLE1
 70
     0
  3
<>
 41
3.0
 44
0.0
 45
0.000000001
 78
    12
 79
     3
140
3.5
141
0.0
147
0.875
173
     1
178
     0
271
     1
272
     3
276
     2
284
    12
340
4C
  0
ENDTAB
  0
TABLE
  2
BLOCK_RECORD
  5
1
330
0
100
AcDbSymbolTable
 70
     5
  0
BLOCK_RECORD
  5
1F
330
1
100
AcDbSymbolTableRecord
100
AcDbBlockTableRecord
  2
*Model_Space
340
22
  0
BLOCK_RECORD
  5
1B
330
1
100
AcDbSymbolTableRecord
100
AcDbBlockTableRecord
  2
*Paper_Space
340
1E
  0
BLOCK_RECORD
  5
23
330
1
100
AcDbSymbolTableRecord
100
AcDbBlockTableRecord
  2
*Paper_Space0
340
26
  0
BLOCK_RECORD
  5
122
330
1
100
AcDbSymbolTableRecord
100
AcDbBlockTableRecord
  2
_D
340
0
  0
BLOCK_RECORD
  5
222
330
1
100
AcDbSymbolTableRecord
100
AcDbBlockTableRecord
  2
_D_1
340
0
  0
BLOCK_RECORD
  5
22D
330
1
100
AcDbSymbolTableRecord
100
AcDbBlockTableRecord
  2
_D_2
340
0
  0
BLOCK_RECORD
  5
269
330
1
100
AcDbSymbolTableRecord
100
AcDbBlockTableRecord
  2
_D_3
340
0
  0
ENDTAB
  0
ENDSEC
  0
SECTION
  2
BLOCKS
  0
BLOCK
  5
20
330
1F
100
AcDbEntity
  8
0
100
AcDbBlockBegin
  2
*Model_Space
 70
     0
 10
0.0
 20
0.0
 30
0.0
  3
*Model_Space
  1

  0
ENDBLK
  5
21
330
1F
100
AcDbEntity
  8
0
100
AcDbBlockEnd
  0
BLOCK
  5
1C
330
1B
100
AcDbEntity
 67
     1
  8
0
100
AcDbBlockBegin
  2
*Paper_Space
 70
     0
 10
0.0
 20
0.0
 30
0.0
  3
*Paper_Space
  1

  0
ENDBLK
  5
1D
330
1B
100
AcDbEntity
 67
     1
  8
0
100
AcDbBlockEnd
  0
BLOCK
  5
24
330
23
100
AcDbEntity
  8
0
100
AcDbBlockBegin
  2
*Paper_Space0
 70
     0
 10
0.0
 20
0.0
 30
0.0
  3
*Paper_Space0
  1

  0
ENDBLK
  5
25
330
23
100
AcDbEntity
  8
0
100
AcDbBlockEnd
  0
BLOCK
  5
123
330
122
100
AcDbEntity
  8
0
100
AcDbBlockBegin
  2
_D
 70
     0
 10
0.0
 20
0.0
 30
0.0
  3
_D
  1

  0
SOLID
  5
125
330
122
100
AcDbEntity
  8
0
  6
Continuous
 62
     7
370
     0
100
AcDbTrace
 10
171.3996927687
 20
222.6512342772
 30
0.0
 11
170.6496927687
 21
219.6512342772
 31
0.0
 12
172.1496927687
 22
219.6512342772
 32
0.0
 13
172.1496927687
 23
219.6512342772
 33
0.0
  0
SOLID
  5
126
330
122
100
AcDbEntity
  8
0
  6
Continuous
 62
     7
370
     0
100
AcDbTrace
 10
171.3996927687
 20
112.6512342772
 30
0.0
 11
172.1496927687
 21
115.6512342772
 31
0.0
 12
170.6496927687
 22
115.6512342772
 32
0.0
 13
170.6496927687
 23
115.6512342772
 33
0.0
  0
LINE
  5
127
330
122
100
AcDbEntity
  8
0
  6
Continuous
 62
     7
370
     0
100
AcDbLine
 10
149.3996927687
 20
222.6512342772
 30
0.0
 11
172.3996927687
 21
222.6512342772
 31
0.0
  0
LINE
  5
128
330
122
100
AcDbEntity
  8
0
  6
Continuous
 62
     7
370
     0
100
AcDbLine
 10
149.3996927687
 20
112.6512342772
 30
0.0
 11
172.3996927687
 21
112.6512342772
 31
0.0
  0
LINE
  5
129
330
122
100
AcDbEntity
  8
0
  6
Continuous
 62
     7
370
     0
100
AcDbLine
 10
171.3996927687
 20
222.6512342772
 30
0.0
 11
171.3996927687
 21
112.6512342772
 31
0.0
  0
MTEXT
  5
12A
330
122
100
AcDbEntity
  8
0
  6
Continuous
 62
     7
370
     0
100
AcDbMText
 10
166.8879559124
 20
164.5960259145
 30
-19.2965810082
 40
3.5
 41
0.0
 71
     1
 72
     1
  1
110
  7
SLDTEXTSTYLE0
 11
-1.770233605404514E-14
 21
1.0
 31
0.0
 73
     1
 44
1.0
  0
ENDBLK
  5
124
330
122
100
AcDbEntity
  8
0
100
AcDbBlockEnd
  0
BLOCK
  5
223
330
222
100
AcDbEntity
  8
0
100
AcDbBlockBegin
  2
_D_1
 70
     0
 10
0.0
 20
0.0
 30
0.0
  3
_D_1
  1

  0
SOLID
  5
225
330
222
100
AcDbEntity
  8
0
  6
Continuous
 62
     7
370
     0
100
AcDbTrace
 10
84.4344115706
 20
238.6512592772
 30
0.0
 11
81.4344115706
 21
239.4012592772
 31
0.0
 12
81.4344115706
 22
237.9012592772
 32
0.0
 13
81.4344115706
 23
237.9012592772
 33
0.0
  0
SOLID
  5
226
330
222
100
AcDbEntity
  8
0
  6
Continuous
 62
     7
370
     0
100
AcDbTrace
 10
61.4344115706
 20
238.6512592772
 30
0.0
 11
64.4344115706
 21
237.9012592772
 31
0.0
 12
64.4344115706
 22
239.4012592772
 32
0.0
 13
64.4344115706
 23
239.4012592772
 33
0.0
  0
LINE
  5
227
330
222
100
AcDbEntity
  8
0
  6
Continuous
 62
     7
370
     0
100
AcDbLine
 10
84.4344115706
 20
219.2631619595
 30
0.0
 11
84.4344115706
 21
239.6512592772
 31
0.0
  0
LINE
  5
228
330
222
100
AcDbEntity
  8
0
  6
Continuous
 62
     7
370
     0
100
AcDbLine
 10
61.4344115706
 20
223.6512342772
 30
0.0
 11
61.4344115706
 21
239.6512592772
 31
0.0
  0
LINE
  5
229
330
222
100
AcDbEntity
  8
0
  6
Continuous
 62
     7
370
     0
100
AcDbLine
 10
84.4344115706
 20
238.6512592772
 30
0.0
 11
61.4344115706
 21
238.6512592772
 31
0.0
  0
MTEXT
  5
22A
330
222
100
AcDbEntity
  8
0
  6
Continuous
 62
     7
370
     0
100
AcDbMText
 10
70.8976060731
 20
243.1629961335
 30
-14.0441573112
 40
3.5
 41
0.0
 71
     1
 72
     1
  1
23
  7
SLDTEXTSTYLE0
 73
     1
 44
1.0
  0
ENDBLK
  5
224
330
222
100
AcDbEntity
  8
0
100
AcDbBlockEnd
  0
BLOCK
  5
22E
330
22D
100
AcDbEntity
  8
0
100
AcDbBlockBegin
  2
_D_2
 70
     0
 10
0.0
 20
0.0
 30
0.0
  3
_D_2
  1

  0
SOLID
  5
230
330
22D
100
AcDbEntity
  8
0
  6
Continuous
 62
     7
370
     0
100
AcDbTrace
 10
65.5086548206
 20
219.852768215
 30
0.0
 11
64.6581738735
 21
222.8258444263
 31
0.0
 12
63.3591357678
 22
222.0758444263
 32
0.0
 13
63.3591357678
 23
222.0758444263
 33
0.0
  0
LINE
  5
231
330
22D
100
AcDbEntity
  8
0
  6
Continuous
 62
     7
370
     0
100
AcDbLine
 10
65.5086548206
 20
219.852768215
 30
0.0
 11
54.7490002607
 21
238.4890365847
 31
0.0
  0
LINE
  5
232
330
22D
100
AcDbEntity
  8
0
  6
Continuous
 62
     7
370
     0
100
AcDbLine
 10
54.7490002607
 20
238.4890365847
 30
0.0
 11
38.9038624768
 21
238.4890365847
 31
0.0
  0
MTEXT
  5
233
330
22D
100
AcDbEntity
  8
0
  6
Continuous
 62
     7
370
     0
100
AcDbMText
 10
38.9038624768
 20
243.000773441
 30
-14.0441573112
 40
3.5
 41
0.0
 71
     1
 72
     1
  1
5-Rc1/8
  7
SLDTEXTSTYLE0
 73
     1
 44
1.0
  0
ENDBLK
  5
22F
330
22D
100
AcDbEntity
  8
0
100
AcDbBlockEnd
  0
BLOCK
  5
26A
330
269
100
AcDbEntity
  8
0
100
AcDbBlockBegin
  2
_D_3
 70
     0
 10
0.0
 20
0.0
 30
0.0
  3
_D_3
  1

  0
SOLID
  5
26C
330
269
100
AcDbEntity
  8
0
  6
Continuous
 62
     7
370
     0
100
AcDbTrace
 10
127.3996927687
 20
59.9932023268
 30
0.0
 11
130.3996927687
 21
59.2432023268
 31
0.0
 12
130.3996927687
 22
60.7432023268
 32
0.0
 13
130.3996927687
 23
60.7432023268
 33
0.0
  0
SOLID
  5
26D
330
269
100
AcDbEntity
  8
0
  6
Continuous
 62
     7
370
     0
100
AcDbTrace
 10
151.3996927687
 20
59.9932023268
 30
0.0
 11
148.3996927687
 21
60.7432023268
 31
0.0
 12
148.3996927687
 22
59.2432023268
 32
0.0
 13
148.3996927687
 23
59.2432023268
 33
0.0
  0
LINE
  5
26E
330
269
100
AcDbEntity
  8
0
  6
Continuous
 62
     7
370
     0
100
AcDbLine
 10
127.3996927687
 20
68.9932023268
 30
0.0
 11
127.3996927687
 21
58.9932023268
 31
0.0
  0
LINE
  5
26F
330
269
100
AcDbEntity
  8
0
  6
Continuous
 62
     7
370
     0
100
AcDbLine
 10
151.3996927687
 20
76.9932023268
 30
0.0
 11
151.3996927687
 21
58.9932023268
 31
0.0
  0
LINE
  5
270
330
269
100
AcDbEntity
  8
0
  6
Continuous
 62
     7
370
     0
100
AcDbLine
 10
127.3996927687
 20
59.9932023268
 30
0.0
 11
151.3996927687
 21
59.9932023268
 31
0.0
  0
MTEXT
  5
271
330
269
100
AcDbEntity
  8
0
  6
Continuous
 62
     7
370
     0
100
AcDbMText
 10
137.3628872713
 20
64.5049391832
 30
-2.4450915754
 40
3.5
 41
0.0
 71
     1
 72
     1
  1
24
  7
SLDTEXTSTYLE0
 73
     1
 44
1.0
  0
ENDBLK
  5
26B
330
269
100
AcDbEntity
  8
0
100
AcDbBlockEnd
  0
ENDSEC
  0
SECTION
  2
ENTITIES
  0
LINE
  5
44
330
1F
100
AcDbEntity
  8
0
  6
Continuous
 62
     7
370
     0
100
AcDbLine
 10
20.2604743903
 20
285.0
 30
0.0
 11
196.7604743903
 21
285.0
 31
0.0
  0
LINE
  5
45
330
1F
100
AcDbEntity
  8
0
  6
Continuous
 62
     7
370
     0
100
AcDbLine
 10
20.2604743903
 20
285.0
 30
0.0
 11
20.2604743903
 21
10.0
 31
0.0
  0
LINE
  5
46
330
1F
100
AcDbEntity
  8
0
  6
Continuous
 62
     7
370
     0
100
AcDbLine
 10
20.2604743903
 20
10.0
 30
0.0
 11
196.7604743903
 21
10.0
 31
0.0
  0
LINE
  5
47
330
1F
100
AcDbEntity
  8
0
  6
Continuous
 62
     7
370
     0
100
AcDbLine
 10
196.7604743903
 20
285.0
 30
0.0
 11
196.7604743903
 21
10.0
 31
0.0
  0
LINE
  5
48
330
1F
100
AcDbEntity
  8
0
  6
Continuous
 62
     7
370
     0
100
AcDbLine
 10
127.0104743903
 20
50.75
 30
0.0
 11
196.7604743903
 21
50.75
 31
0.0
  0
LINE
  5
49
330
1F
100
AcDbEntity
  8
0
  6
Continuous
 62
     7
370
     0
100
AcDbLine
 10
127.0104743903
 20
50.75
 30
0.0
 11
127.0104743903
 21
10.0
 31
0.0
  0
LINE
  5
4A
330
1F
100
AcDbEntity
  8
0
  6
Continuous
 62
     7
370
     0
100
AcDbLine
 10
127.0104743903
 20
22.75
 30
0.0
 11
196.7604743903
 21
22.75
 31
0.0
  0
LINE
  5
4B
330
1F
100
AcDbEntity
  8
0
  6
Continuous
 62
     7
370
     0
100
AcDbLine
 10
127.0104743903
 20
36.75
 30
0.0
 11
196.7604743903
 21
36.75
 31
0.0
  0
MTEXT
  5
4D
330
1F
100
AcDbEntity
  8
0
  6
Continuous
 62
     7
370
     0
100
AcDbMText
 10
162.2745062444
 20
30.4171582345
 30
0.0
 40
4.2333333333
 41
0.0
 71
     2
 72
     1
  1
OX-LBIA1
  7
SLDTEXTSTYLE0
 73
     1
 44
1.0
  0
MTEXT
  5
4E
330
1F
100
AcDbEntity
  8
0
  6
Continuous
 62
     7
370
     0
100
AcDbMText
 10
160.3171784291
 20
43.9409718514
 30
0.0
 40
4.2333333333
 41
0.0
 71
     2
 72
     1
  1
エアーオプション(OX用)
  7
SLDTEXTSTYLE0
 73
     1
 44
1.0
  0
MTEXT
  5
4F
330
1F
100
AcDbEntity
  8
0
  6
Continuous
 62
     7
370
     0
100
AcDbMText
 10
162.5569766187
 20
16.8228189052
 30
0.0
 40
4.2333333333
 41
0.0
 71
     2
 72
     1
  1
140254
  7
SLDTEXTSTYLE0
 73
     1
 44
1.0
  0
ARC
  5
50
330
1F
100
AcDbEntity
  8
0
  6
Continuous
 62
     7
370
     0
100
AcDbCircle
 10
141.3996927687
 20
215.6512342772
 30
0.0
 40
2.750000000000067
100
AcDbArc
 50
108.2330215156
 51
177.2816581228
  0
SPLINE
  5
51
330
1F
100
AcDbEntity
  8
0
  6
Continuous
 62
     7
370
     0
100
AcDbSpline
210
0.0
220
0.0
230
1.0
 70
    24
 71
     3
 72
    11
 73
     7
 74
     0
 42
0.00000001
 43
0.00000001
 12
1.0
 22
0.0
 32
0.0
 13
1.0
 23
0.0
 33
0.0
 40
0.004199693779034
 40
0.004199693779034
 40
0.004199693779034
 40
0.004199693779034
 40
0.0045714279294727
 40
0.0045714279294727
 40
0.0045714279294727
 40
0.0052314151081104
 40
0.0052314151081104
 40
0.0052314151081104
 40
0.0052314151081104
 10
138.6527872233663
 20
215.7816563795896
 30
0.0
 10
138.6225349182443
 20
215.7775352742673
 30
0.0
 10
138.5922985047202
 20
215.7734163337699
 30
0.0
 10
138.5620764753268
 20
215.7692993527438
 30
0.0
 10
138.5084194476969
 20
215.7619899506584
 30
0.0
 10
138.4548076742165
 20
215.7546867132971
 30
0.0
 10
138.4012341095879
 20
215.7473886809179
 30
0.0
  0
ARC
  5
52
330
1F
100
AcDbEntity
  8
0
  6
Continuous
 62
     7
370
     0
100
AcDbCircle
 10
141.3996927687
 20
215.6512342772
 30
0.0
 40
3.000000000000009
100
AcDbArc
 50
107.351408046
 51
178.1632715923
  0
SPLINE
  5
53
330
1F
100
AcDbEntity
  8
0
  6
Continuous
 62
     7
370
     0
100
AcDbSpline
210
0.0
220
0.0
230
1.0
 70
    24
 71
     3
 72
     8
 73
     4
 74
     0
 42
0.00000001
 43
0.00000001
 12
1.0
 22
0.0
 32
0.0
 13
1.0
 23
0.0
 33
0.0
 40
0.0
 40
0.0
 40
0.0
 40
0.0
 40
1.0
 40
1.0
 40
1.0
 40
1.0
 10
140.5049985581686
 20
218.5147150732663
 30
0.0
 10
140.516407167362
 20
218.4309664914324
 30
0.0
 10
140.5278284325302
 20
218.3471250043255
 30
0.0
 10
140.5392662568404
 20
218.2631619594879
 30
0.0
  0
ARC
  5
54
330
1F
100
AcDbEntity
  8
0
  6
Continuous
 62
     7
370
     0
100
AcDbCircle
 10
141.3996927687
 20
215.6512342772
 30
0.0
 40
2.750000000000067
100
AcDbArc
 50
198.2330215156
 51
267.2816581228
  0
LINE
  5
55
330
1F
100
AcDbEntity
  8
0
  6
Continuous
 62
     7
370
     0
100
AcDbLine
 10
138.787764401
 20
214.79080744
 30
0.0
 11
139.548410938
 21
214.8944263896
 31
0.0
  0
ARC
  5
56
330
1F
100
AcDbEntity
  8
0
  6
Continuous
 62
     7
370
     0
100
AcDbCircle
 10
141.3996927687
 20
215.6512342772
 30
0.0
 40
2.000000000000071
100
AcDbArc
 50
202.2348520051
 51
263.2798276332
  0
LINE
  5
57
330
1F
100
AcDbEntity
  8
0
  6
Continuous
 62
     7
370
     0
100
AcDbLine
 10
141.1656516574
 20
213.664976283
 30
0.0
 11
141.2692706071
 21
212.9043278834
 31
0.0
  0
ARC
  5
58
330
1F
100
AcDbEntity
  8
0
  6
Continuous
 62
     7
370
     0
100
AcDbCircle
 10
141.3996927687
 20
215.6512342772
 30
0.0
 40
2.000000000000027
100
AcDbArc
 50
112.2348520051
 51
173.2798276332
  0
LINE
  5
59
330
1F
100
AcDbEntity
  8
0
  6
Continuous
 62
     7
370
     0
100
AcDbLine
 10
139.4134343572
 20
215.8852753779
 30
0.0
 11
138.6527878203
 21
215.7816564283
 31
0.0
  0
LINE
  5
5A
330
1F
100
AcDbEntity
  8
0
  6
Continuous
 62
     7
370
     0
100
AcDbLine
 10
140.5392664455
 20
218.263161703
 30
0.0
 11
140.6428853952
 21
217.5025170287
 31
0.0
  0
ARC
  5
5B
330
1F
100
AcDbEntity
  8
0
  6
Continuous
 62
     7
370
     0
100
AcDbCircle
 10
141.3996927687
 20
215.6512342772
 30
0.0
 40
2.999999999999984
100
AcDbArc
 50
197.351408046
 51
268.1632715923
  0
SPLINE
  5
5C
330
1F
100
AcDbEntity
  8
0
  6
Continuous
 62
     7
370
     0
100
AcDbSpline
210
0.0
220
0.0
230
1.0
 70
    24
 71
     3
 72
     8
 73
     4
 74
     0
 42
0.00000001
 43
0.00000001
 12
1.0
 22
0.0
 32
0.0
 13
1.0
 23
0.0
 33
0.0
 40
0.0
 40
0.0
 40
0.0
 40
0.0
 40
1.0
 40
1.0
 40
1.0
 40
1.0
 10
138.5362119726505
 20
214.7565400666063
 30
0.0
 10
138.6199605476176
 20
214.7679486748642
 30
0.0
 10
138.7038020322106
 20
214.77936993969
 30
0.0
 10
138.7877650864288
 20
214.790807765278
 30
0.0
  0
SPLINE
  5
5D
330
1F
100
AcDbEntity
  8
0
  6
Continuous
 62
     7
370
     0
100
AcDbSpline
210
0.0
220
0.0
230
1.0
 70
    24
 71
     3
 72
    11
 73
     7
 74
     0
 42
0.00000001
 43
0.00000001
 12
1.0
 22
0.0
 32
0.0
 13
1.0
 23
0.0
 33
0.0
 40
0.0041333666424306
 40
0.0041333666424306
 40
0.0041333666424306
 40
0.0041333666424306
 40
0.0046138376121395
 40
0.0046138376121395
 40
0.0046138376121395
 40
0.0051650880369003
 40
0.0051650880369003
 40
0.0051650880369003
 40
0.0051650880369003
 10
141.2692706663272
 20
212.904328731804
 30
0.0
 10
141.2745972451874
 20
212.8652272586967
 30
0.0
 10
141.279920210016
 20
212.8261523155553
 30
0.0
 10
141.2852399958191
 20
212.7871007090786
 30
0.0
 10
141.2913434530048
 20
212.7422963096182
 30
0.0
 10
141.297442726516
 20
212.6975226217722
 30
0.0
 10
141.303538364999
 20
212.6527756180257
 30
0.0
  0
ARC
  5
5E
330
1F
100
AcDbEntity
  8
0
  6
Continuous
 62
     7
370
     0
100
AcDbCircle
 10
141.3996927687
 20
215.6512342772
 30
0.0
 40
2.749999999999994
100
AcDbArc
 50
288.2330215156
 51
357.2816581228
  0
ARC
  5
5F
330
1F
100
AcDbEntity
  8
0
  6
Continuous
 62
     7
370
     0
100
AcDbCircle
 10
141.3996927687
 20
215.6512342772
 30
0.0
 40
2.999999999999983
100
AcDbArc
 50
287.351408046
 51
358.1632715923
  0
SPLINE
  5
60
330
1F
100
AcDbEntity
  8
0
  6
Continuous
 62
     7
370
     0
100
AcDbSpline
210
0.0
220
0.0
230
1.0
 70
    24
 71
     3
 72
    11
 73
     7
 74
     0
 42
0.00000001
 43
0.00000001
 12
1.0
 22
0.0
 32
0.0
 13
1.0
 23
0.0
 33
0.0
 40
0.004199693779034
 40
0.004199693779034
 40
0.004199693779034
 40
0.004199693779034
 40
0.0045714279294727
 40
0.0045714279294727
 40
0.0045714279294727
 40
0.0052314151081104
 40
0.0052314151081104
 40
0.0052314151081104
 40
0.0052314151081104
 10
144.1465983141128
 20
215.5208121747649
 30
0.0
 10
144.1768506192348
 20
215.5249332800872
 30
0.0
 10
144.2070870327588
 20
215.5290522205845
 30
0.0
 10
144.2373090621522
 20
215.5331692016106
 30
0.0
 10
144.2909660897822
 20
215.5404786036961
 30
0.0
 10
144.3445778632625
 20
215.5477818410573
 30
0.0
 10
144.3981514278912
 20
215.5550798734366
 30
0.0
  0
SPLINE
  5
61
330
1F
100
AcDbEntity
  8
0
  6
Continuous
 62
     7
370
     0
100
AcDbSpline
210
0.0
220
0.0
230
1.0
 70
    24
 71
     3
 72
     8
 73
     4
 74
     0
 42
0.00000001
 43
0.00000001
 12
1.0
 22
0.0
 32
0.0
 13
1.0
 23
0.0
 33
0.0
 40
0.0
 40
0.0
 40
0.0
 40
0.0
 40
1.0
 40
1.0
 40
1.0
 40
1.0
 10
142.2943869793104
 20
212.7877534810882
 30
0.0
 10
142.2829783701171
 20
212.871502062922
 30
0.0
 10
142.2715571049488
 20
212.955343550029
 30
0.0
 10
142.2601192806387
 20
213.0393065948665
 30
0.0
  0
ARC
  5
62
330
1F
100
AcDbEntity
  8
0
  6
Continuous
 62
     7
370
     0
100
AcDbCircle
 10
141.3996927687
 20
215.6512342772
 30
0.0
 40
2.999999999999983
100
AcDbArc
 50
17.351408046
 51
88.1632715923
  0
SPLINE
  5
63
330
1F
100
AcDbEntity
  8
0
  6
Continuous
 62
     7
370
     0
100
AcDbSpline
210
0.0
220
0.0
230
1.0
 70
    24
 71
     3
 72
     8
 73
     4
 74
     0
 42
0.00000001
 43
0.00000001
 12
1.0
 22
0.0
 32
0.0
 13
1.0
 23
0.0
 33
0.0
 40
0.0
 40
0.0
 40
0.0
 40
0.0
 40
1.0
 40
1.0
 40
1.0
 40
1.0
 10
144.2631735648286
 20
216.5459284877482
 30
0.0
 10
144.1794249898615
 20
216.5345198794902
 30
0.0
 10
144.0955835052685
 20
216.5230986146644
 30
0.0
 10
144.0116204510502
 20
216.5116607890765
 30
0.0
  0
ARC
  5
64
330
1F
100
AcDbEntity
  8
0
  6
Continuous
 62
     7
370
     0
100
AcDbCircle
 10
141.3996927687
 20
215.6512342772
 30
0.0
 40
2.749999999999994
100
AcDbArc
 50
18.2330215156
 51
87.2816581228
  0
SPLINE
  5
65
330
1F
100
AcDbEntity
  8
0
  6
Continuous
 62
     7
370
     0
100
AcDbSpline
210
0.0
220
0.0
230
1.0
 70
    24
 71
     3
 72
    11
 73
     7
 74
     0
 42
0.00000001
 43
0.00000001
 12
1.0
 22
0.0
 32
0.0
 13
1.0
 23
0.0
 33
0.0
 40
0.0041333666424306
 40
0.0041333666424306
 40
0.0041333666424306
 40
0.0041333666424306
 40
0.0046138376121394
 40
0.0046138376121394
 40
0.0046138376121394
 40
0.0051650880369003
 40
0.0051650880369003
 40
0.0051650880369003
 40
0.0051650880369003
 10
141.5301148711518
 20
218.3981398225505
 30
0.0
 10
141.5247882922917
 20
218.4372412956577
 30
0.0
 10
141.519465327463
 20
218.4763162387992
 30
0.0
 10
141.51414554166
 20
218.5153678452759
 30
0.0
 10
141.5080420844743
 20
218.5601722447363
 30
0.0
 10
141.501942810963
 20
218.6049459325823
 30
0.0
 10
141.4958471724801
 20
218.6496929363288
 30
0.0
  0
ARC
  5
66
330
1F
100
AcDbEntity
  8
0
  6
Continuous
 62
     7
370
     0
100
AcDbCircle
 10
141.3996927687
 20
215.6512342772
 30
0.0
 40
1.999999999999998
100
AcDbArc
 50
292.2348520051
 51
353.2798276332
  0
LINE
  5
67
330
1F
100
AcDbEntity
  8
0
  6
Continuous
 62
     7
370
     0
100
AcDbLine
 10
143.3859516837
 20
215.4171926519
 30
0.0
 11
144.1465982206
 21
215.5208116016
 31
0.0
  0
LINE
  5
68
330
1F
100
AcDbEntity
  8
0
  6
Continuous
 62
     7
370
     0
100
AcDbLine
 10
142.2601195954
 20
213.0393063268
 30
0.0
 11
142.1565006457
 21
213.7999547264
 31
0.0
  0
LINE
  5
69
330
1F
100
AcDbEntity
  8
0
  6
Continuous
 62
     7
370
     0
100
AcDbLine
 10
144.0116207086
 20
216.5116605899
 30
0.0
 11
143.2509741716
 21
216.4080416402
 31
0.0
  0
LINE
  5
6A
330
1F
100
AcDbEntity
  8
0
  6
Continuous
 62
     7
370
     0
100
AcDbLine
 10
141.6337334521
 20
217.6374917468
 30
0.0
 11
141.5301145025
 21
218.3981401464
 31
0.0
  0
ARC
  5
6B
330
1F
100
AcDbEntity
  8
0
  6
Continuous
 62
     7
370
     0
100
AcDbCircle
 10
141.3996927687
 20
215.6512342772
 30
0.0
 40
1.999999999999995
100
AcDbArc
 50
22.2348520051
 51
83.2798276332
  0
ARC
  5
6C
330
1F
100
AcDbEntity
  8
0
  6
Continuous
 62
     7
370
     0
100
AcDbCircle
 10
141.3996927687
 20
215.6512342772
 30
0.0
 40
3.000000000000009
100
AcDbArc
 50
178.1632715923
 51
197.351408046
  0
ARC
  5
6D
330
1F
100
AcDbEntity
  8
0
  6
Continuous
 62
     7
370
     0
100
AcDbCircle
 10
141.3996927687
 20
215.6512342772
 30
0.0
 40
2.000000000000071
100
AcDbArc
 50
173.2798276332
 51
202.2348520051
  0
ARC
  5
6E
330
1F
100
AcDbEntity
  8
0
  6
Continuous
 62
     7
370
     0
100
AcDbCircle
 10
141.3996927687
 20
215.6512342772
 30
0.0
 40
2.999999999999992
100
AcDbArc
 50
88.1632715923
 51
107.351408046
  0
ARC
  5
6F
330
1F
100
AcDbEntity
  8
0
  6
Continuous
 62
     7
370
     0
100
AcDbCircle
 10
141.3996927687
 20
215.6512342772
 30
0.0
 40
2.000000000000008
100
AcDbArc
 50
83.2798276332
 51
112.2348520051
  0
ARC
  5
70
330
1F
100
AcDbEntity
  8
0
  6
Continuous
 62
     7
370
     0
100
AcDbCircle
 10
141.3996927687
 20
215.6512342772
 30
0.0
 40
2.999999999999983
100
AcDbArc
 50
358.1632715923
 51
17.351408046
  0
ARC
  5
71
330
1F
100
AcDbEntity
  8
0
  6
Continuous
 62
     7
370
     0
100
AcDbCircle
 10
141.3996927687
 20
215.6512342772
 30
0.0
 40
1.999999999999998
100
AcDbArc
 50
353.2798276332
 51
22.2348520051
  0
ARC
  5
72
330
1F
100
AcDbEntity
  8
0
  6
Continuous
 62
     7
370
     0
100
AcDbCircle
 10
141.3996927687
 20
215.6512342772
 30
0.0
 40
2.999999999999984
100
AcDbArc
 50
268.1632715923
 51
287.351408046
  0
ARC
  5
73
330
1F
100
AcDbEntity
  8
0
  6
Continuous
 62
     7
370
     0
100
AcDbCircle
 10
141.3996927687
 20
215.6512342772
 30
0.0
 40
2.000000000000002
100
AcDbArc
 50
263.2798276332
 51
292.2348520051
  0
CIRCLE
  5
74
330
1F
100
AcDbEntity
  8
0
  6
Continuous
 62
     7
370
     0
100
AcDbCircle
 10
141.3996927687
 20
215.6512342772
 30
0.0
 40
4.800000000000018
  0
CIRCLE
  5
75
330
1F
100
AcDbEntity
  8
0
  6
Continuous
 62
     7
370
     0
100
AcDbCircle
 10
141.3996927687
 20
215.6512342772
 30
0.0
 40
5.000000000000018
  0
ARC
  5
76
330
1F
100
AcDbEntity
  8
0
  6
Continuous
 62
     7
370
     0
100
AcDbCircle
 10
141.3996927687
 20
189.6512342772
 30
0.0
 40
2.750000000000052
100
AcDbArc
 50
206.8044064497
 51
275.8530430569
  0
SPLINE
  5
77
330
1F
100
AcDbEntity
  8
0
  6
Continuous
 62
     7
370
     0
100
AcDbSpline
210
0.0
220
0.0
230
1.0
 70
    24
 71
     3
 72
    11
 73
     7
 74
     0
 42
0.00000001
 43
0.00000001
 12
1.0
 22
0.0
 32
0.0
 13
1.0
 23
0.0
 33
0.0
 40
0.004199693779034
 40
0.004199693779034
 40
0.004199693779034
 40
0.004199693779034
 40
0.0045714279294727
 40
0.0045714279294727
 40
0.0045714279294727
 40
0.0052314151081104
 40
0.0052314151081104
 40
0.0052314151081104
 40
0.0052314151081104
 10
141.6801303173882
 20
186.9155707778945
 30
0.0
 10
141.6887142431661
 20
186.8862705783642
 30
0.0
 10
141.6972936597901
 20
186.8569857702889
 30
0.0
 10
141.7058689949959
 20
186.8277148936444
 30
0.0
 10
141.7210938825137
 20
186.775746568936
 30
0.0
 10
141.7363059294146
 20
186.7238220741311
 30
0.0
 10
141.7515071347631
 20
186.6719345856625
 30
0.0
  0
ARC
  5
78
330
1F
100
AcDbEntity
  8
0
  6
Continuous
 62
     7
370
     0
100
AcDbCircle
 10
141.3996927687
 20
189.6512342772
 30
0.0
 40
3.000000000000018
100
AcDbArc
 50
205.9227929802
 51
276.7346565265
  0
SPLINE
  5
79
330
1F
100
AcDbEntity
  8
0
  6
Continuous
 62
     7
370
     0
100
AcDbSpline
210
0.0
220
0.0
230
1.0
 70
    24
 71
     3
 72
     8
 73
     4
 74
     0
 42
0.00000001
 43
0.00000001
 12
1.0
 22
0.0
 32
0.0
 13
1.0
 23
0.0
 33
0.0
 40
0.0
 40
0.0
 40
0.0
 40
0.0
 40
1.0
 40
1.0
 40
1.0
 40
1.0
 10
138.7015409411001
 20
188.3397554496683
 30
0.0
 10
138.7826537736004
 20
188.3635186507719
 30
0.0
 10
138.8638565874435
 20
188.3873082132376
 30
0.0
 10
138.945177133332
 20
188.4111322670432
 30
0.0
  0
ARC
  5
7A
330
1F
100
AcDbEntity
  8
0
  6
Continuous
 62
     7
370
     0
100
AcDbCircle
 10
141.3996927687
 20
189.6512342772
 30
0.0
 40
2.000000000000027
100
AcDbArc
 50
30.8062369392
 51
91.8512125674
  0
ARC
  5
7B
330
1F
100
AcDbEntity
  8
0
  6
Continuous
 62
     7
370
     0
100
AcDbCircle
 10
141.3996927687
 20
189.6512342772
 30
0.0
 40
2.749999999999996
100
AcDbArc
 50
26.8044064497
 51
95.8530430569
  0
LINE
  5
7C
330
1F
100
AcDbEntity
  8
0
  6
Continuous
 62
     7
370
     0
100
AcDbLine
 10
143.854208567
 20
190.8913360527
 30
0.0
 11
143.1175007455
 21
190.675507634
 31
0.0
  0
LINE
  5
7D
330
1F
100
AcDbEntity
  8
0
  6
Continuous
 62
     7
370
     0
100
AcDbLine
 10
141.3350843795
 20
191.650190725
 30
0.0
 11
141.1192550294
 21
192.3868985465
 31
0.0
  0
ARC
  5
7E
330
1F
100
AcDbEntity
  8
0
  6
Continuous
 62
     7
370
     0
100
AcDbCircle
 10
141.3996927687
 20
189.6512342772
 30
0.0
 40
2.000000000000027
100
AcDbArc
 50
210.8062369393
 51
271.8512125674
  0
LINE
  5
7F
330
1F
100
AcDbEntity
  8
0
  6
Continuous
 62
     7
370
     0
100
AcDbLine
 10
138.9451765426
 20
188.4111327669
 30
0.0
 11
139.6818843641
 21
188.6269611856
 31
0.0
  0
LINE
  5
80
330
1F
100
AcDbEntity
  8
0
  6
Continuous
 62
     7
370
     0
100
AcDbLine
 10
141.4643007301
 20
187.6522780946
 30
0.0
 11
141.6801300802
 21
186.9155702731
 31
0.0
  0
ARC
  5
81
330
1F
100
AcDbEntity
  8
0
  6
Continuous
 62
     7
370
     0
100
AcDbCircle
 10
141.3996927687
 20
189.6512342772
 30
0.0
 40
2.750000000000052
100
AcDbArc
 50
296.8044064497
 51
5.8530430569
  0
LINE
  5
82
330
1F
100
AcDbEntity
  8
0
  6
Continuous
 62
     7
370
     0
100
AcDbLine
 10
142.6397946634
 20
187.1967179319
 30
0.0
 11
142.4239653133
 21
187.9334257534
 31
0.0
  0
ARC
  5
83
330
1F
100
AcDbEntity
  8
0
  6
Continuous
 62
     7
370
     0
100
AcDbCircle
 10
141.3996927687
 20
189.6512342772
 30
0.0
 40
2.000000000000032
100
AcDbArc
 50
300.8062369393
 51
1.8512125674
  0
LINE
  5
84
330
1F
100
AcDbEntity
  8
0
  6
Continuous
 62
     7
370
     0
100
AcDbLine
 10
143.3986493357
 20
189.7158430508
 30
0.0
 11
144.1353562258
 21
189.9316714695
 31
0.0
  0
ARC
  5
85
330
1F
100
AcDbEntity
  8
0
  6
Continuous
 62
     7
370
     0
100
AcDbCircle
 10
141.3996927687
 20
189.6512342772
 30
0.0
 40
2.999999999999976
100
AcDbArc
 50
25.9227929802
 51
96.7346565265
  0
SPLINE
  5
86
330
1F
100
AcDbEntity
  8
0
  6
Continuous
 62
     7
370
     0
100
AcDbSpline
210
0.0
220
0.0
230
1.0
 70
    24
 71
     3
 72
     8
 73
     4
 74
     0
 42
0.00000001
 43
0.00000001
 12
1.0
 22
0.0
 32
0.0
 13
1.0
 23
0.0
 33
0.0
 40
0.0
 40
0.0
 40
0.0
 40
0.0
 40
1.0
 40
1.0
 40
1.0
 40
1.0
 10
144.0978445963796
 20
190.9627131046862
 30
0.0
 10
144.0167317638793
 20
190.9389499035825
 30
0.0
 10
143.9355289500362
 20
190.9151603411168
 30
0.0
 10
143.8542084041476
 20
190.8913362873113
 30
0.0
  0
SPLINE
  5
87
330
1F
100
AcDbEntity
  8
0
  6
Continuous
 62
     7
370
     0
100
AcDbSpline
210
0.0
220
0.0
230
1.0
 70
    24
 71
     3
 72
    11
 73
     7
 74
     0
 42
0.00000001
 43
0.00000001
 12
1.0
 22
0.0
 32
0.0
 13
1.0
 23
0.0
 33
0.0
 40
0.004199693779034
 40
0.004199693779034
 40
0.004199693779034
 40
0.004199693779034
 40
0.0045714279294727
 40
0.0045714279294727
 40
0.0045714279294727
 40
0.0052314151081104
 40
0.0052314151081104
 40
0.0052314151081104
 40
0.0052314151081104
 10
141.1192552200914
 20
192.38689777646
 30
0.0
 10
141.1106712943136
 20
192.4161979759903
 30
0.0
 10
141.1020918776895
 20
192.4454827840656
 30
0.0
 10
141.0935165424837
 20
192.47475366071
 30
0.0
 10
141.078291654966
 20
192.5267219854184
 30
0.0
 10
141.0630796080651
 20
192.5786464802234
 30
0.0
 10
141.0478784027165
 20
192.630533968692
 30
0.0
  0
ARC
  5
88
330
1F
100
AcDbEntity
  8
0
  6
Continuous
 62
     7
370
     0
100
AcDbCircle
 10
141.3996927687
 20
189.6512342772
 30
0.0
 40
2.999999999999986
100
AcDbArc
 50
115.9227929802
 51
186.7346565265
  0
SPLINE
  5
89
330
1F
100
AcDbEntity
  8
0
  6
Continuous
 62
     7
370
     0
100
AcDbSpline
210
0.0
220
0.0
230
1.0
 70
    24
 71
     3
 72
     8
 73
     4
 74
     0
 42
0.00000001
 43
0.00000001
 12
1.0
 22
0.0
 32
0.0
 13
1.0
 23
0.0
 33
0.0
 40
0.0
 40
0.0
 40
0.0
 40
0.0
 40
1.0
 40
1.0
 40
1.0
 40
1.0
 10
140.0882139412308
 20
192.349386104817
 30
0.0
 10
140.1119771403861
 20
192.2682732789673
 30
0.0
 10
140.1357667021385
 20
192.1870704675591
 30
0.0
 10
140.1595907586057
 20
192.1057499125851
 30
0.0
  0
ARC
  5
8A
330
1F
100
AcDbEntity
  8
0
  6
Continuous
 62
     7
370
     0
100
AcDbCircle
 10
141.3996927687
 20
189.6512342772
 30
0.0
 40
2.750000000000029
100
AcDbArc
 50
116.8044064497
 51
185.8530430569
  0
SPLINE
  5
8B
330
1F
100
AcDbEntity
  8
0
  6
Continuous
 62
     7
370
     0
100
AcDbSpline
210
0.0
220
0.0
230
1.0
 70
    24
 71
     3
 72
    11
 73
     7
 74
     0
 42
0.00000001
 43
0.00000001
 12
1.0
 22
0.0
 32
0.0
 13
1.0
 23
0.0
 33
0.0
 40
0.0041333666424306
 40
0.0041333666424306
 40
0.0041333666424306
 40
0.0041333666424306
 40
0.0046138376121394
 40
0.0046138376121394
 40
0.0046138376121394
 40
0.0051650880369003
 40
0.0051650880369003
 40
0.0051650880369003
 40
0.0051650880369003
 10
138.6640292694571
 20
189.3707967285288
 30
0.0
 10
138.6261584044321
 20
189.3597018998338
 30
0.0
 10
138.5883132344174
 20
189.3486145988712
 30
0.0
 10
138.5504906666121
 20
189.3375339195593
 30
0.0
 10
138.5070963586832
 20
189.324820916767
 30
0.0
 10
138.4637317958077
 20
189.3121166282269
 30
0.0
 10
138.4203930772251
 20
189.2994199111539
 30
0.0
  0
LINE
  5
8C
330
1F
100
AcDbEntity
  8
0
  6
Continuous
 62
     7
370
     0
100
AcDbLine
 10
140.1595904462
 20
192.105749025
 30
0.0
 11
140.3754197963
 21
191.3690430662
 31
0.0
  0
ARC
  5
8D
330
1F
100
AcDbEntity
  8
0
  6
Continuous
 62
     7
370
     0
100
AcDbCircle
 10
141.3996927687
 20
189.6512342772
 30
0.0
 40
1.999999999999999
100
AcDbArc
 50
120.8062369393
 51
181.8512125674
  0
LINE
  5
8E
330
1F
100
AcDbEntity
  8
0
  6
Continuous
 62
     7
370
     0
100
AcDbLine
 10
139.4007367052
 20
189.5866257688
 30
0.0
 11
138.6640288837
 21
189.3707973501
 31
0.0
  0
ARC
  5
8F
330
1F
100
AcDbEntity
  8
0
  6
Continuous
 62
     7
370
     0
100
AcDbCircle
 10
141.3996927687
 20
189.6512342772
 30
0.0
 40
3.000000000000029
100
AcDbArc
 50
295.9227929802
 51
6.7346565265
  0
SPLINE
  5
90
330
1F
100
AcDbEntity
  8
0
  6
Continuous
 62
     7
370
     0
100
AcDbSpline
210
0.0
220
0.0
230
1.0
 70
    24
 71
     3
 72
     8
 73
     4
 74
     0
 42
0.00000001
 43
0.00000001
 12
1.0
 22
0.0
 32
0.0
 13
1.0
 23
0.0
 33
0.0
 40
0.0
 40
0.0
 40
0.0
 40
0.0
 40
1.0
 40
1.0
 40
1.0
 40
1.0
 10
142.7111715962488
 20
186.9530824495375
 30
0.0
 10
142.6874083970936
 20
187.0341952753871
 30
0.0
 10
142.6636188353412
 20
187.1153980867954
 30
0.0
 10
142.6397947788739
 20
187.1967186417695
 30
0.0
  0
SPLINE
  5
91
330
1F
100
AcDbEntity
  8
0
  6
Continuous
 62
     7
370
     0
100
AcDbSpline
210
0.0
220
0.0
230
1.0
 70
    24
 71
     3
 72
    11
 73
     7
 74
     0
 42
0.00000001
 43
0.00000001
 12
1.0
 22
0.0
 32
0.0
 13
1.0
 23
0.0
 33
0.0
 40
0.0041333666424306
 40
0.0041333666424306
 40
0.0041333666424306
 40
0.0041333666424306
 40
0.0046138376121395
 40
0.0046138376121395
 40
0.0046138376121395
 40
0.0051650880369003
 40
0.0051650880369003
 40
0.0051650880369003
 40
0.0051650880369003
 10
144.1353562680226
 20
189.9316718258257
 30
0.0
 10
144.1732271330476
 20
189.9427666545207
 30
0.0
 10
144.2110723030622
 20
189.9538539554833
 30
0.0
 10
144.2488948708676
 20
189.9649346347952
 30
0.0
 10
144.2922891787964
 20
189.9776476375875
 30
0.0
 10
144.335653741672
 20
189.9903519261275
 30
0.0
 10
144.3789924602545
 20
190.0030486432006
 30
0.0
  0
ARC
  5
92
330
1F
100
AcDbEntity
  8
0
  6
Continuous
 62
     7
370
     0
100
AcDbCircle
 10
141.3996927687
 20
189.6512342772
 30
0.0
 40
3.000000000000029
100
AcDbArc
 50
6.7346565265
 51
25.9227929802
  0
ARC
  5
93
330
1F
100
AcDbEntity
  8
0
  6
Continuous
 62
     7
370
     0
100
AcDbCircle
 10
141.3996927687
 20
189.6512342772
 30
0.0
 40
1.999999999999997
100
AcDbArc
 50
1.8512125674
 51
30.8062369392
  0
ARC
  5
94
330
1F
100
AcDbEntity
  8
0
  6
Continuous
 62
     7
370
     0
100
AcDbCircle
 10
141.3996927687
 20
189.6512342772
 30
0.0
 40
3.000000000000018
100
AcDbArc
 50
186.7346565265
 51
205.9227929802
  0
ARC
  5
95
330
1F
100
AcDbEntity
  8
0
  6
Continuous
 62
     7
370
     0
100
AcDbCircle
 10
141.3996927687
 20
189.6512342772
 30
0.0
 40
1.999999999999999
100
AcDbArc
 50
181.8512125674
 51
210.8062369393
  0
ARC
  5
96
330
1F
100
AcDbEntity
  8
0
  6
Continuous
 62
     7
370
     0
100
AcDbCircle
 10
141.3996927687
 20
189.6512342772
 30
0.0
 40
2.999999999999976
100
AcDbArc
 50
96.7346565265
 51
115.9227929802
  0
ARC
  5
97
330
1F
100
AcDbEntity
  8
0
  6
Continuous
 62
     7
370
     0
100
AcDbCircle
 10
141.3996927687
 20
189.6512342772
 30
0.0
 40
2.000000000000027
100
AcDbArc
 50
91.8512125674
 51
120.8062369393
  0
ARC
  5
98
330
1F
100
AcDbEntity
  8
0
  6
Continuous
 62
     7
370
     0
100
AcDbCircle
 10
141.3996927687
 20
189.6512342772
 30
0.0
 40
3.000000000000008
100
AcDbArc
 50
276.7346565265
 51
295.9227929802
  0
ARC
  5
99
330
1F
100
AcDbEntity
  8
0
  6
Continuous
 62
     7
370
     0
100
AcDbCircle
 10
141.3996927687
 20
189.6512342772
 30
0.0
 40
2.000000000000032
100
AcDbArc
 50
271.8512125674
 51
300.8062369393
  0
CIRCLE
  5
9A
330
1F
100
AcDbEntity
  8
0
  6
Continuous
 62
     7
370
     0
100
AcDbCircle
 10
141.3996927687
 20
189.6512342772
 30
0.0
 40
4.800000000000002
  0
CIRCLE
  5
9B
330
1F
100
AcDbEntity
  8
0
  6
Continuous
 62
     7
370
     0
100
AcDbCircle
 10
141.3996927687
 20
189.6512342772
 30
0.0
 40
5.000000000000008
  0
ARC
  5
9C
330
1F
100
AcDbEntity
  8
0
  6
Continuous
 62
     7
370
     0
100
AcDbCircle
 10
141.3996927687
 20
145.6512342772
 30
0.0
 40
3.000000000000035
100
AcDbArc
 50
123.5986980043
 51
194.4105615506
  0
SPLINE
  5
9D
330
1F
100
AcDbEntity
  8
0
  6
Continuous
 62
     7
370
     0
100
AcDbSpline
210
0.0
220
0.0
230
1.0
 70
    24
 71
     3
 72
     8
 73
     4
 74
     0
 42
0.00000001
 43
0.00000001
 12
1.0
 22
0.0
 32
0.0
 13
1.0
 23
0.0
 33
0.0
 40
0.0
 40
0.0
 40
0.0
 40
0.0
 40
1.0
 40
1.0
 40
1.0
 40
1.0
 10
139.7395749036264
 20
148.1500357246576
 30
0.0
 10
139.7739593654604
 20
148.0728237506134
 30
0.0
 10
139.808381972988
 20
147.995526118567
 30
0.0
 10
139.84285449308
 20
147.9181164054404
 30
0.0
  0
ARC
  5
9E
330
1F
100
AcDbEntity
  8
0
  6
Continuous
 62
     7
370
     0
100
AcDbCircle
 10
141.3996927687
 20
145.6512342772
 30
0.0
 40
2.750000000000002
100
AcDbArc
 50
124.4803114738
 51
193.528948081
  0
SPLINE
  5
9F
330
1F
100
AcDbEntity
  8
0
  6
Continuous
 62
     7
370
     0
100
AcDbSpline
210
0.0
220
0.0
230
1.0
 70
    24
 71
     3
 72
    11
 73
     7
 74
     0
 42
0.00000001
 43
0.00000001
 12
1.0
 22
0.0
 32
0.0
 13
1.0
 23
0.0
 33
0.0
 40
0.0041333666424306
 40
0.0041333666424306
 40
0.0041333666424306
 40
0.0041333666424306
 40
0.0046138376121394
 40
0.0046138376121394
 40
0.0046138376121394
 40
0.0051650880369003
 40
0.0051650880369003
 40
0.0051650880369003
 40
0.0051650880369003
 10
138.726000179817
 20
145.0079085898798
 30
0.0
 10
138.6899505881931
 20
144.9918547870511
 30
0.0
 10
138.6539254558634
 20
144.9758118765701
 30
0.0
 10
138.6179218387649
 20
144.9597785473704
 30
0.0
 10
138.5766144358682
 20
144.9413833070473
 30
0.0
 10
138.5353353475352
 20
144.9230006759218
 30
0.0
 10
138.4940808605998
 20
144.9046290004263
 30
0.0
  0
ARC
  5
A0
330
1F
100
AcDbEntity
  8
0
  6
Continuous
 62
     7
370
     0
100
AcDbCircle
 10
141.3996927687
 20
145.6512342772
 30
0.0
 40
2.750000000000037
100
AcDbArc
 50
304.4803114738
 51
13.528948081
  0
LINE
  5
A1
330
1F
100
AcDbEntity
  8
0
  6
Continuous
 62
     7
370
     0
100
AcDbLine
 10
142.9565309517
 20
143.3843517294
 30
0.0
 11
142.6442342781
 21
144.0856301775
 31
0.0
  0
ARC
  5
A2
330
1F
100
AcDbEntity
  8
0
  6
Continuous
 62
     7
370
     0
100
AcDbCircle
 10
141.3996927687
 20
145.6512342772
 30
0.0
 40
2.000000000000072
100
AcDbArc
 50
308.4821419633
 51
9.5271175915
  0
LINE
  5
A3
330
1F
100
AcDbEntity
  8
0
  6
Continuous
 62
     7
370
     0
100
AcDbLine
 10
143.3721075736
 20
145.9822630128
 30
0.0
 11
144.0733850904
 21
146.2945596865
 31
0.0
  0
ARC
  5
A4
330
1F
100
AcDbEntity
  8
0
  6
Continuous
 62
     7
370
     0
100
AcDbCircle
 10
141.3996927687
 20
145.6512342772
 30
0.0
 40
2.749999999999967
100
AcDbArc
 50
34.4803114738
 51
103.528948081
  0
ARC
  5
A5
330
1F
100
AcDbEntity
  8
0
  6
Continuous
 62
     7
370
     0
100
AcDbCircle
 10
141.3996927687
 20
145.6512342772
 30
0.0
 40
2.999999999999959
100
AcDbArc
 50
33.5986980043
 51
104.4105615505
  0
SPLINE
  5
A6
330
1F
100
AcDbEntity
  8
0
  6
Continuous
 62
     7
370
     0
100
AcDbSpline
210
0.0
220
0.0
230
1.0
 70
    24
 71
     3
 72
     8
 73
     4
 74
     0
 42
0.00000001
 43
0.00000001
 12
1.0
 22
0.0
 32
0.0
 13
1.0
 23
0.0
 33
0.0
 40
0.0
 40
0.0
 40
0.0
 40
0.0
 40
1.0
 40
1.0
 40
1.0
 40
1.0
 10
143.8984942162207
 20
147.311352142291
 30
0.0
 10
143.8212822358457
 20
147.2769676776378
 30
0.0
 10
143.7439846014815
 20
147.2425450690781
 30
0.0
 10
143.6665748970035
 20
147.2080725528375
 30
0.0
  0
SPLINE
  5
A7
330
1F
100
AcDbEntity
  8
0
  6
Continuous
 62
     7
370
     0
100
AcDbSpline
210
0.0
220
0.0
230
1.0
 70
    24
 71
     3
 72
    11
 73
     7
 74
     0
 42
0.00000001
 43
0.00000001
 12
1.0
 22
0.0
 32
0.0
 13
1.0
 23
0.0
 33
0.0
 40
0.004199693779034
 40
0.004199693779034
 40
0.004199693779034
 40
0.004199693779034
 40
0.0045714279294727
 40
0.0045714279294727
 40
0.0045714279294727
 40
0.0052314151081104
 40
0.0052314151081104
 40
0.0052314151081104
 40
0.0052314151081104
 10
140.7563670814429
 20
148.3249268661005
 30
0.0
 10
140.7439464613755
 20
148.3528179699046
 30
0.0
 10
140.7315323658853
 20
148.3806944224547
 30
0.0
 10
140.7191241760548
 20
148.4085576135598
 30
0.0
 10
140.6970943323304
 20
148.4580266943922
 30
0.0
 10
140.6750830684993
 20
148.5074540531748
 30
0.0
 10
140.6530874919894
 20
148.5568461853177
 30
0.0
  0
ARC
  5
A8
330
1F
100
AcDbEntity
  8
0
  6
Continuous
 62
     7
370
     0
100
AcDbCircle
 10
141.3996927687
 20
145.6512342772
 30
0.0
 40
1.999999999999975
100
AcDbArc
 50
38.4821419633
 51
99.5271175915
  0
LINE
  5
A9
330
1F
100
AcDbEntity
  8
0
  6
Continuous
 62
     7
370
     0
100
AcDbLine
 10
143.6665750079
 20
147.2080716482
 30
0.0
 11
142.9652974911
 21
146.8957749745
 31
0.0
  0
LINE
  5
AA
330
1F
100
AcDbEntity
  8
0
  6
Continuous
 62
     7
370
     0
100
AcDbLine
 10
141.0686637245
 20
147.62364827
 30
0.0
 11
140.7563670509
 21
148.3249267182
 31
0.0
  0
ARC
  5
AB
330
1F
100
AcDbEntity
  8
0
  6
Continuous
 62
     7
370
     0
100
AcDbCircle
 10
141.3996927687
 20
145.6512342772
 30
0.0
 40
2.00000000000005
100
AcDbArc
 50
218.4821419633
 51
279.5271175915
  0
LINE
  5
AC
330
1F
100
AcDbEntity
  8
0
  6
Continuous
 62
     7
370
     0
100
AcDbLine
 10
141.730721385
 20
143.6788191637
 30
0.0
 11
142.0430180587
 21
142.9775425783
 31
0.0
  0
ARC
  5
AD
330
1F
100
AcDbEntity
  8
0
  6
Continuous
 62
     7
370
     0
100
AcDbCircle
 10
141.3996927687
 20
145.6512342772
 30
0.0
 40
2.750000000000071
100
AcDbArc
 50
214.4803114738
 51
283.528948081
  0
LINE
  5
AE
330
1F
100
AcDbEntity
  8
0
  6
Continuous
 62
     7
370
     0
100
AcDbLine
 10
139.1328101017
 20
144.0943957856
 30
0.0
 11
139.8340885498
 21
144.4066924593
 31
0.0
  0
LINE
  5
AF
330
1F
100
AcDbEntity
  8
0
  6
Continuous
 62
     7
370
     0
100
AcDbLine
 10
139.8428541579
 20
147.9181157043
 30
0.0
 11
140.1551517628
 21
147.2168391189
 31
0.0
  0
ARC
  5
B0
330
1F
100
AcDbEntity
  8
0
  6
Continuous
 62
     7
370
     0
100
AcDbCircle
 10
141.3996927687
 20
145.6512342772
 30
0.0
 40
2.000000000000007
100
AcDbArc
 50
128.4821419633
 51
189.5271175915
  0
LINE
  5
B1
330
1F
100
AcDbEntity
  8
0
  6
Continuous
 62
     7
370
     0
100
AcDbLine
 10
139.427277536
 20
145.3202062836
 30
0.0
 11
138.7260009505
 21
145.0079077473
 31
0.0
  0
ARC
  5
B2
330
1F
100
AcDbEntity
  8
0
  6
Continuous
 62
     7
370
     0
100
AcDbCircle
 10
141.3996927687
 20
145.6512342772
 30
0.0
 40
3.000000000000056
100
AcDbArc
 50
213.5986980043
 51
284.4105615505
  0
SPLINE
  5
B3
330
1F
100
AcDbEntity
  8
0
  6
Continuous
 62
     7
370
     0
100
AcDbSpline
210
0.0
220
0.0
230
1.0
 70
    24
 71
     3
 72
     8
 73
     4
 74
     0
 42
0.00000001
 43
0.00000001
 12
1.0
 22
0.0
 32
0.0
 13
1.0
 23
0.0
 33
0.0
 40
0.0
 40
0.0
 40
0.0
 40
0.0
 40
1.0
 40
1.0
 40
1.0
 40
1.0
 10
138.9008913212599
 20
143.9911164120634
 30
0.0
 10
138.9781033016349
 20
144.0255008767166
 30
0.0
 10
139.055400935999
 20
144.0599234852764
 30
0.0
 10
139.1328106404771
 20
144.0943960015169
 30
0.0
  0
SPLINE
  5
B4
330
1F
100
AcDbEntity
  8
0
  6
Continuous
 62
     7
370
     0
100
AcDbSpline
210
0.0
220
0.0
230
1.0
 70
    24
 71
     3
 72
    11
 73
     7
 74
     0
 42
0.00000001
 43
0.00000001
 12
1.0
 22
0.0
 32
0.0
 13
1.0
 23
0.0
 33
0.0
 40
0.004199693779034
 40
0.004199693779034
 40
0.004199693779034
 40
0.004199693779034
 40
0.0045714279294727
 40
0.0045714279294727
 40
0.0045714279294727
 40
0.0052314151081104
 40
0.0052314151081104
 40
0.0052314151081104
 40
0.0052314151081104
 10
142.0430184560377
 20
142.977541688254
 30
0.0
 10
142.0554390761051
 20
142.9496505844498
 30
0.0
 10
142.0678531715953
 20
142.9217741318998
 30
0.0
 10
142.0802613614258
 20
142.8939109407947
 30
0.0
 10
142.1022912051502
 20
142.8444418599622
 30
0.0
 10
142.1243024689813
 20
142.7950145011797
 30
0.0
 10
142.1462980454912
 20
142.7456223690368
 30
0.0
  0
ARC
  5
B5
330
1F
100
AcDbEntity
  8
0
  6
Continuous
 62
     7
370
     0
100
AcDbCircle
 10
141.3996927687
 20
145.6512342772
 30
0.0
 40
2.999999999999999
100
AcDbArc
 50
303.5986980043
 51
14.4105615505
  0
SPLINE
  5
B6
330
1F
100
AcDbEntity
  8
0
  6
Continuous
 62
     7
370
     0
100
AcDbSpline
210
0.0
220
0.0
230
1.0
 70
    24
 71
     3
 72
     8
 73
     4
 74
     0
 42
0.00000001
 43
0.00000001
 12
1.0
 22
0.0
 32
0.0
 13
1.0
 23
0.0
 33
0.0
 40
0.0
 40
0.0
 40
0.0
 40
0.0
 40
1.0
 40
1.0
 40
1.0
 40
1.0
 10
143.0598106338541
 20
143.1524328296969
 30
0.0
 10
143.0254261720202
 20
143.229644803741
 30
0.0
 10
142.9910035644926
 20
143.3069424357874
 30
0.0
 10
142.9565310444006
 20
143.3843521489141
 30
0.0
  0
SPLINE
  5
B7
330
1F
100
AcDbEntity
  8
0
  6
Continuous
 62
     7
370
     0
100
AcDbSpline
210
0.0
220
0.0
230
1.0
 70
    24
 71
     3
 72
    11
 73
     7
 74
     0
 42
0.00000001
 43
0.00000001
 12
1.0
 22
0.0
 32
0.0
 13
1.0
 23
0.0
 33
0.0
 40
0.0041333666424306
 40
0.0041333666424306
 40
0.0041333666424306
 40
0.0041333666424306
 40
0.0046138376121395
 40
0.0046138376121395
 40
0.0046138376121395
 40
0.0051650880369003
 40
0.0051650880369003
 40
0.0051650880369003
 40
0.0051650880369003
 10
144.0733853576636
 20
146.2945599644746
 30
0.0
 10
144.1094349492874
 20
146.3106137673034
 30
0.0
 10
144.1454600816172
 20
146.3266566777844
 30
0.0
 10
144.1814636987156
 20
146.342690006984
 30
0.0
 10
144.2227711016125
 20
146.3610852473072
 30
0.0
 10
144.2640501899454
 20
146.3794678784326
 30
0.0
 10
144.3053046768808
 20
146.3978395539282
 30
0.0
  0
ARC
  5
B8
330
1F
100
AcDbEntity
  8
0
  6
Continuous
 62
     7
370
     0
100
AcDbCircle
 10
141.3996927687
 20
145.6512342772
 30
0.0
 40
3.000000000000013
100
AcDbArc
 50
284.4105615505
 51
303.5986980043
  0
ARC
  5
B9
330
1F
100
AcDbEntity
  8
0
  6
Continuous
 62
     7
370
     0
100
AcDbCircle
 10
141.3996927687
 20
145.6512342772
 30
0.0
 40
2.000000000000072
100
AcDbArc
 50
279.5271175915
 51
308.4821419633
  0
ARC
  5
BA
330
1F
100
AcDbEntity
  8
0
  6
Continuous
 62
     7
370
     0
100
AcDbCircle
 10
141.3996927687
 20
145.6512342772
 30
0.0
 40
2.999999999999959
100
AcDbArc
 50
104.4105615505
 51
123.5986980043
  0
ARC
  5
BB
330
1F
100
AcDbEntity
  8
0
  6
Continuous
 62
     7
370
     0
100
AcDbCircle
 10
141.3996927687
 20
145.6512342772
 30
0.0
 40
1.999999999999988
100
AcDbArc
 50
99.5271175915
 51
128.4821419633
  0
ARC
  5
BC
330
1F
100
AcDbEntity
  8
0
  6
Continuous
 62
     7
370
     0
100
AcDbCircle
 10
141.3996927687
 20
145.6512342772
 30
0.0
 40
2.999999999999999
100
AcDbArc
 50
14.4105615505
 51
33.5986980043
  0
ARC
  5
BD
330
1F
100
AcDbEntity
  8
0
  6
Continuous
 62
     7
370
     0
100
AcDbCircle
 10
141.3996927687
 20
145.6512342772
 30
0.0
 40
1.999999999999956
100
AcDbArc
 50
9.5271175915
 51
38.4821419633
  0
ARC
  5
BE
330
1F
100
AcDbEntity
  8
0
  6
Continuous
 62
     7
370
     0
100
AcDbCircle
 10
141.3996927687
 20
145.6512342772
 30
0.0
 40
3.000000000000056
100
AcDbArc
 50
194.4105615506
 51
213.5986980043
  0
ARC
  5
BF
330
1F
100
AcDbEntity
  8
0
  6
Continuous
 62
     7
370
     0
100
AcDbCircle
 10
141.3996927687
 20
145.6512342772
 30
0.0
 40
2.00000000000005
100
AcDbArc
 50
189.5271175915
 51
218.4821419633
  0
CIRCLE
  5
C0
330
1F
100
AcDbEntity
  8
0
  6
Continuous
 62
     7
370
     0
100
AcDbCircle
 10
141.3996927687
 20
145.6512342772
 30
0.0
 40
4.800000000000001
  0
CIRCLE
  5
C1
330
1F
100
AcDbEntity
  8
0
  6
Continuous
 62
     7
370
     0
100
AcDbCircle
 10
141.3996927687
 20
145.6512342772
 30
0.0
 40
5.000000000000013
  0
ARC
  5
C2
330
1F
100
AcDbEntity
  8
0
  6
Continuous
 62
     7
370
     0
100
AcDbCircle
 10
141.3996927687
 20
119.6512342772
 30
0.0
 40
2.000000000000023
100
AcDbArc
 50
110.1095193689
 51
171.1544949971
  0
LINE
  5
C3
330
1F
100
AcDbEntity
  8
0
  6
Continuous
 62
     7
370
     0
100
AcDbLine
 10
139.4234796025
 20
119.958774521
 30
0.0
 11
138.6595138319
 21
119.8834379753
 31
0.0
  0
ARC
  5
C4
330
1F
100
AcDbEntity
  8
0
  6
Continuous
 62
     7
370
     0
100
AcDbCircle
 10
141.3996927687
 20
119.6512342772
 30
0.0
 40
2.749999999999986
100
AcDbArc
 50
106.1076888794
 51
175.1563254866
  0
LINE
  5
C5
330
1F
100
AcDbEntity
  8
0
  6
Continuous
 62
     7
370
     0
100
AcDbLine
 10
140.6367228337
 20
122.2932761153
 30
0.0
 11
140.712061242
 21
121.5293084821
 31
0.0
  0
ARC
  5
C6
330
1F
100
AcDbEntity
  8
0
  6
Continuous
 62
     7
370
     0
100
AcDbCircle
 10
141.3996927687
 20
119.6512342772
 30
0.0
 40
3.000000000000021
100
AcDbArc
 50
195.2260754099
 51
266.0379389561
  0
SPLINE
  5
C7
330
1F
100
AcDbEntity
  8
0
  6
Continuous
 62
     7
370
     0
100
AcDbSpline
210
0.0
220
0.0
230
1.0
 70
    24
 71
     3
 72
     8
 73
     4
 74
     0
 42
0.00000001
 43
0.00000001
 12
1.0
 22
0.0
 32
0.0
 13
1.0
 23
0.0
 33
0.0
 40
0.0
 40
0.0
 40
0.0
 40
0.0
 40
1.0
 40
1.0
 40
1.0
 40
1.0
 10
138.5050015533857
 20
118.8633492806532
 30
0.0
 10
138.5891156117172
 20
118.8716441792312
 30
0.0
 10
138.6733229851372
 20
118.8799482800665
 30
0.0
 10
138.757652458719
 20
118.8882644217957
 30
0.0
  0
ARC
  5
C8
330
1F
100
AcDbEntity
  8
0
  6
Continuous
 62
     7
370
     0
100
AcDbCircle
 10
141.3996927687
 20
119.6512342772
 30
0.0
 40
2.75000000000004
100
AcDbArc
 50
196.1076888794
 51
265.1563254866
  0
SPLINE
  5
C9
330
1F
100
AcDbEntity
  8
0
  6
Continuous
 62
     7
370
     0
100
AcDbSpline
210
0.0
220
0.0
230
1.0
 70
    24
 71
     3
 72
    11
 73
     7
 74
     0
 42
0.00000001
 43
0.00000001
 12
1.0
 22
0.0
 32
0.0
 13
1.0
 23
0.0
 33
0.0
 40
0.0041333666424306
 40
0.0041333666424306
 40
0.0041333666424306
 40
0.0041333666424306
 40
0.0046138376121394
 40
0.0046138376121394
 40
0.0046138376121394
 40
0.0051650880369003
 40
0.0051650880369003
 40
0.0051650880369003
 40
0.0051650880369003
 10
141.1674898922332
 20
116.9110551180452
 30
0.0
 10
141.171362707428
 20
116.8717830039694
 30
0.0
 10
141.1752328949558
 20
116.8325375356377
 30
0.0
 10
141.1791007710977
 20
116.7933155058133
 30
0.0
 10
141.1835384340611
 20
116.7483155775017
 30
0.0
 10
141.1879730551851
 20
116.7033464948316
 30
0.0
 10
141.1924050333757
 20
116.6584042127119
 30
0.0
  0
LINE
  5
CA
330
1F
100
AcDbEntity
  8
0
  6
Continuous
 62
     7
370
     0
100
AcDbLine
 10
138.7576528795
 20
118.888263925
 30
0.0
 11
139.5216186501
 21
118.963604196
 31
0.0
  0
ARC
  5
CB
330
1F
100
AcDbEntity
  8
0
  6
Continuous
 62
     7
370
     0
100
AcDbCircle
 10
141.3996927687
 20
119.6512342772
 30
0.0
 40
2.000000000000021
100
AcDbArc
 50
200.1095193689
 51
261.1544949971
  0
LINE
  5
CC
330
1F
100
AcDbEntity
  8
0
  6
Continuous
 62
     7
370
     0
100
AcDbLine
 10
141.0921516799
 20
117.6750225565
 30
0.0
 11
141.1674900882
 21
116.9110549232
 31
0.0
  0
ARC
  5
CD
330
1F
100
AcDbEntity
  8
0
  6
Continuous
 62
     7
370
     0
100
AcDbCircle
 10
141.3996927687
 20
119.6512342772
 30
0.0
 40
2.999999999999998
100
AcDbArc
 50
15.2260754099
 51
86.0379389561
  0
SPLINE
  5
CE
330
1F
100
AcDbEntity
  8
0
  6
Continuous
 62
     7
370
     0
100
AcDbSpline
210
0.0
220
0.0
230
1.0
 70
    24
 71
     3
 72
     8
 73
     4
 74
     0
 42
0.00000001
 43
0.00000001
 12
1.0
 22
0.0
 32
0.0
 13
1.0
 23
0.0
 33
0.0
 40
0.0
 40
0.0
 40
0.0
 40
0.0
 40
1.0
 40
1.0
 40
1.0
 40
1.0
 10
144.2943839840954
 20
120.4391192737013
 30
0.0
 10
144.210269925764
 20
120.4308243751232
 30
0.0
 10
144.1260625523439
 20
120.422520274288
 30
0.0
 10
144.0417330787621
 20
120.4142041325589
 30
0.0
  0
ARC
  5
CF
330
1F
100
AcDbEntity
  8
0
  6
Continuous
 62
     7
370
     0
100
AcDbCircle
 10
141.3996927687
 20
119.6512342772
 30
0.0
 40
2.75000000000003
100
AcDbArc
 50
16.1076888794
 51
85.1563254866
  0
SPLINE
  5
D0
330
1F
100
AcDbEntity
  8
0
  6
Continuous
 62
     7
370
     0
100
AcDbSpline
210
0.0
220
0.0
230
1.0
 70
    24
 71
     3
 72
    11
 73
     7
 74
     0
 42
0.00000001
 43
0.00000001
 12
1.0
 22
0.0
 32
0.0
 13
1.0
 23
0.0
 33
0.0
 40
0.0041333666424306
 40
0.0041333666424306
 40
0.0041333666424306
 40
0.0041333666424306
 40
0.0046138376121395
 40
0.0046138376121395
 40
0.0046138376121395
 40
0.0051650880369003
 40
0.0051650880369003
 40
0.0051650880369003
 40
0.0051650880369003
 10
141.6318956452479
 20
122.3914134363093
 30
0.0
 10
141.6280228300531
 20
122.430685550385
 30
0.0
 10
141.6241526425254
 20
122.4699310187167
 30
0.0
 10
141.6202847663835
 20
122.5091530485412
 30
0.0
 10
141.61584710342
 20
122.5541529768528
 30
0.0
 10
141.6114124822961
 20
122.5991220595228
 30
0.0
 10
141.6069805041055
 20
122.6440643416425
 30
0.0
  0
LINE
  5
D1
330
1F
100
AcDbEntity
  8
0
  6
Continuous
 62
     7
370
     0
100
AcDbLine
 10
144.0417331614
 20
120.4142024359
 30
0.0
 11
143.2777673908
 21
120.3388658902
 31
0.0
  0
ARC
  5
D2
330
1F
100
AcDbEntity
  8
0
  6
Continuous
 62
     7
370
     0
100
AcDbCircle
 10
141.3996927687
 20
119.6512342772
 30
0.0
 40
2.000000000000042
100
AcDbArc
 50
20.1095193689
 51
81.1544949971
  0
LINE
  5
D3
330
1F
100
AcDbEntity
  8
0
  6
Continuous
 62
     7
370
     0
100
AcDbLine
 10
141.707234361
 20
121.6274475297
 30
0.0
 11
141.6318959527
 21
122.391415163
 31
0.0
  0
ARC
  5
D4
330
1F
100
AcDbEntity
  8
0
  6
Continuous
 62
     7
370
     0
100
AcDbCircle
 10
141.3996927687
 20
119.6512342772
 30
0.0
 40
2.750000000000045
100
AcDbArc
 50
286.1076888794
 51
355.1563254866
  0
ARC
  5
D5
330
1F
100
AcDbEntity
  8
0
  6
Continuous
 62
     7
370
     0
100
AcDbCircle
 10
141.3996927687
 20
119.6512342772
 30
0.0
 40
3.000000000000028
100
AcDbArc
 50
285.2260754099
 51
356.0379389561
  0
SPLINE
  5
D6
330
1F
100
AcDbEntity
  8
0
  6
Continuous
 62
     7
370
     0
100
AcDbSpline
210
0.0
220
0.0
230
1.0
 70
    24
 71
     3
 72
     8
 73
     4
 74
     0
 42
0.00000001
 43
0.00000001
 12
1.0
 22
0.0
 32
0.0
 13
1.0
 23
0.0
 33
0.0
 40
0.0
 40
0.0
 40
0.0
 40
0.0
 40
1.0
 40
1.0
 40
1.0
 40
1.0
 10
142.1875777652646
 20
116.7565430618224
 30
0.0
 10
142.1792828660064
 20
116.8406571270506
 30
0.0
 10
142.1709787649222
 20
116.9248645029955
 30
0.0
 10
142.1626626241221
 20
117.0091939671556
 30
0.0
  0
SPLINE
  5
D7
330
1F
100
AcDbEntity
  8
0
  6
Continuous
 62
     7
370
     0
100
AcDbSpline
210
0.0
220
0.0
230
1.0
 70
    24
 71
     3
 72
    11
 73
     7
 74
     0
 42
0.00000001
 43
0.00000001
 12
1.0
 22
0.0
 32
0.0
 13
1.0
 23
0.0
 33
0.0
 40
0.004199693779034
 40
0.004199693779034
 40
0.004199693779034
 40
0.004199693779034
 40
0.0045714279294727
 40
0.0045714279294727
 40
0.0045714279294727
 40
0.0052314151081104
 40
0.0052314151081104
 40
0.0052314151081104
 40
0.0052314151081104
 10
144.1398719278726
 20
119.4190314006699
 30
0.0
 10
144.1702562557097
 20
119.4220277478058
 30
0.0
 10
144.2006246225971
 20
119.4250225209544
 30
0.0
 10
144.2309785425807
 20
119.4280158694232
 30
0.0
 10
144.2848697324156
 20
119.4333303431604
 30
0.0
 10
144.3387154706094
 20
119.438640334689
 30
0.0
 10
144.3925228332058
 20
119.4439465418123
 30
0.0
  0
ARC
  5
D8
330
1F
100
AcDbEntity
  8
0
  6
Continuous
 62
     7
370
     0
100
AcDbCircle
 10
141.3996927687
 20
119.6512342772
 30
0.0
 40
3.000000000000009
100
AcDbArc
 50
105.2260754099
 51
176.0379389561
  0
SPLINE
  5
D9
330
1F
100
AcDbEntity
  8
0
  6
Continuous
 62
     7
370
     0
100
AcDbSpline
210
0.0
220
0.0
230
1.0
 70
    24
 71
     3
 72
     8
 73
     4
 74
     0
 42
0.00000001
 43
0.00000001
 12
1.0
 22
0.0
 32
0.0
 13
1.0
 23
0.0
 33
0.0
 40
0.0
 40
0.0
 40
0.0
 40
0.0
 40
1.0
 40
1.0
 40
1.0
 40
1.0
 10
140.6118077722166
 20
122.545925492532
 30
0.0
 10
140.6201026714747
 20
122.4618114273039
 30
0.0
 10
140.6284067725589
 20
122.3776040513589
 30
0.0
 10
140.636722913359
 20
122.2932745871988
 30
0.0
  0
SPLINE
  5
DA
330
1F
100
AcDbEntity
  8
0
  6
Continuous
 62
     7
370
     0
100
AcDbSpline
210
0.0
220
0.0
230
1.0
 70
    24
 71
     3
 72
    11
 73
     7
 74
     0
 42
0.00000001
 43
0.00000001
 12
1.0
 22
0.0
 32
0.0
 13
1.0
 23
0.0
 33
0.0
 40
0.0041996937790339
 40
0.0041996937790339
 40
0.0041996937790339
 40
0.0041996937790339
 40
0.0045714279294727
 40
0.0045714279294727
 40
0.0045714279294727
 40
0.0052314151081104
 40
0.0052314151081104
 40
0.0052314151081104
 40
0.0052314151081104
 10
138.6595136096085
 20
119.8834371536846
 30
0.0
 10
138.6291292817714
 20
119.8804408065487
 30
0.0
 10
138.5987609148841
 20
119.8774460334001
 30
0.0
 10
138.5684069949005
 20
119.8744526849313
 30
0.0
 10
138.5145158050655
 20
119.8691382111941
 30
0.0
 10
138.4606700668717
 20
119.8638282196655
 30
0.0
 10
138.4068627042753
 20
119.8585220125422
 30
0.0
  0
LINE
  5
DB
330
1F
100
AcDbEntity
  8
0
  6
Continuous
 62
     7
370
     0
100
AcDbLine
 10
142.1626622759
 20
117.0091939708
 30
0.0
 11
142.0873238675
 21
117.7731616041
 31
0.0
  0
ARC
  5
DC
330
1F
100
AcDbEntity
  8
0
  6
Continuous
 62
     7
370
     0
100
AcDbCircle
 10
141.3996927687
 20
119.6512342772
 30
0.0
 40
2.000000000000028
100
AcDbArc
 50
290.1095193689
 51
351.1544949971
  0
LINE
  5
DD
330
1F
100
AcDbEntity
  8
0
  6
Continuous
 62
     7
370
     0
100
AcDbLine
 10
143.3759055071
 20
119.3436918399
 30
0.0
 11
144.139872209
 21
119.4190321108
 31
0.0
  0
ARC
  5
DE
330
1F
100
AcDbEntity
  8
0
  6
Continuous
 62
     7
370
     0
100
AcDbCircle
 10
141.3996927687
 20
119.6512342772
 30
0.0
 40
3.000000000000009
100
AcDbArc
 50
176.0379389561
 51
195.2260754099
  0
ARC
  5
DF
330
1F
100
AcDbEntity
  8
0
  6
Continuous
 62
     7
370
     0
100
AcDbCircle
 10
141.3996927687
 20
119.6512342772
 30
0.0
 40
2.000000000000023
100
AcDbArc
 50
171.1544949971
 51
200.1095193689
  0
ARC
  5
E0
330
1F
100
AcDbEntity
  8
0
  6
Continuous
 62
     7
370
     0
100
AcDbCircle
 10
141.3996927687
 20
119.6512342772
 30
0.0
 40
2.999999999999998
100
AcDbArc
 50
86.0379389561
 51
105.2260754099
  0
ARC
  5
E1
330
1F
100
AcDbEntity
  8
0
  6
Continuous
 62
     7
370
     0
100
AcDbCircle
 10
141.3996927687
 20
119.6512342772
 30
0.0
 40
1.999999999999988
100
AcDbArc
 50
81.1544949971
 51
110.1095193689
  0
ARC
  5
E2
330
1F
100
AcDbEntity
  8
0
  6
Continuous
 62
     7
370
     0
100
AcDbCircle
 10
141.3996927687
 20
119.6512342772
 30
0.0
 40
3.000000000000028
100
AcDbArc
 50
266.0379389561
 51
285.2260754099
  0
ARC
  5
E3
330
1F
100
AcDbEntity
  8
0
  6
Continuous
 62
     7
370
     0
100
AcDbCircle
 10
141.3996927687
 20
119.6512342772
 30
0.0
 40
2.000000000000021
100
AcDbArc
 50
261.1544949971
 51
290.1095193689
  0
ARC
  5
E4
330
1F
100
AcDbEntity
  8
0
  6
Continuous
 62
     7
370
     0
100
AcDbCircle
 10
141.3996927687
 20
119.6512342772
 30
0.0
 40
3.000000000000009
100
AcDbArc
 50
356.0379389561
 51
15.2260754099
  0
ARC
  5
E5
330
1F
100
AcDbEntity
  8
0
  6
Continuous
 62
     7
370
     0
100
AcDbCircle
 10
141.3996927687
 20
119.6512342772
 30
0.0
 40
2.000000000000042
100
AcDbArc
 50
351.1544949971
 51
20.1095193689
  0
CIRCLE
  5
E6
330
1F
100
AcDbEntity
  8
0
  6
Continuous
 62
     7
370
     0
100
AcDbCircle
 10
141.3996927687
 20
119.6512342772
 30
0.0
 40
4.800000000000042
  0
CIRCLE
  5
E7
330
1F
100
AcDbEntity
  8
0
  6
Continuous
 62
     7
370
     0
100
AcDbCircle
 10
141.3996927687
 20
119.6512342772
 30
0.0
 40
5.000000000000016
  0
ARC
  5
E8
330
1F
100
AcDbEntity
  8
0
  6
Continuous
 62
     7
370
     0
100
AcDbCircle
 10
141.3996927687
 20
167.6512342772
 30
0.0
 40
2.750000000000008
100
AcDbArc
 50
120.1963673797
 51
189.2450039869
  0
ARC
  5
E9
330
1F
100
AcDbEntity
  8
0
  6
Continuous
 62
     7
370
     0
100
AcDbCircle
 10
141.3996927687
 20
167.6512342772
 30
0.0
 40
1.999999999999999
100
AcDbArc
 50
124.1981978693
 51
185.2431734974
  0
LINE
  5
EA
330
1F
100
AcDbEntity
  8
0
  6
Continuous
 62
     7
370
     0
100
AcDbLine
 10
139.408060626
 20
167.4684682945
 30
0.0
 11
138.6854139127
 21
167.2094288366
 31
0.0
  0
LINE
  5
EB
330
1F
100
AcDbEntity
  8
0
  6
Continuous
 62
     7
370
     0
100
AcDbLine
 10
140.0165383674
 20
170.0280776855
 30
0.0
 11
140.275578291
 21
169.3054307685
 31
0.0
  0
ARC
  5
EC
330
1F
100
AcDbEntity
  8
0
  6
Continuous
 62
     7
370
     0
100
AcDbCircle
 10
141.3996927687
 20
167.6512342772
 30
0.0
 40
3.000000000000002
100
AcDbArc
 50
119.3147539102
 51
190.1266174565
  0
SPLINE
  5
ED
330
1F
100
AcDbEntity
  8
0
  6
Continuous
 62
     7
370
     0
100
AcDbSpline
210
0.0
220
0.0
230
1.0
 70
    24
 71
     3
 72
    11
 73
     7
 74
     0
 42
0.00000001
 43
0.00000001
 12
1.0
 22
0.0
 32
0.0
 13
1.0
 23
0.0
 33
0.0
 40
0.0041333666424306
 40
0.0041333666424306
 40
0.0041333666424306
 40
0.0041333666424306
 40
0.0046138376121394
 40
0.0046138376121394
 40
0.0046138376121394
 40
0.0051650880369003
 40
0.0051650880369003
 40
0.0051650880369003
 40
0.0051650880369003
 10
138.6854142263311
 20
167.2094288967004
 30
0.0
 10
138.6482661458804
 20
167.196112825195
 30
0.0
 10
138.6111432700377
 20
167.1828057885134
 30
0.0
 10
138.5740425650299
 20
167.1695066991717
 30
0.0
 10
138.531476459371
 20
167.15424848664
 30
0.0
 10
138.4889395310661
 20
167.1390007329994
 30
0.0
 10
138.4464279538028
 20
167.1237620666733
 30
0.0
  0
SPLINE
  5
EE
330
1F
100
AcDbEntity
  8
0
  6
Continuous
 62
     7
370
     0
100
AcDbSpline
210
0.0
220
0.0
230
1.0
 70
    24
 71
     3
 72
     8
 73
     4
 74
     0
 42
0.00000001
 43
0.00000001
 12
1.0
 22
0.0
 32
0.0
 13
1.0
 23
0.0
 33
0.0
 40
0.0
 40
0.0
 40
0.0
 40
0.0
 40
1.0
 40
1.0
 40
1.0
 40
1.0
 10
139.9308717773869
 20
170.2670639534674
 30
0.0
 10
139.9593924934654
 20
170.1874992068407
 30
0.0
 10
139.987944850071
 20
170.1078461920751
 30
0.0
 10
140.0165386074141
 20
170.0280776809392
 30
0.0
  0
ARC
  5
EF
330
1F
100
AcDbEntity
  8
0
  6
Continuous
 62
     7
370
     0
100
AcDbCircle
 10
141.3996927687
 20
167.6512342772
 30
0.0
 40
2.750000000000038
100
AcDbArc
 50
210.1963673797
 51
279.2450039869
  0
SPLINE
  5
F0
330
1F
100
AcDbEntity
  8
0
  6
Continuous
 62
     7
370
     0
100
AcDbSpline
210
0.0
220
0.0
230
1.0
 70
    24
 71
     3
 72
    11
 73
     7
 74
     0
 42
0.00000001
 43
0.00000001
 12
1.0
 22
0.0
 32
0.0
 13
1.0
 23
0.0
 33
0.0
 40
0.004199693779034
 40
0.004199693779034
 40
0.004199693779034
 40
0.004199693779034
 40
0.0045714279294727
 40
0.0045714279294727
 40
0.0045714279294727
 40
0.0052314151081104
 40
0.0052314151081104
 40
0.0052314151081104
 40
0.0052314151081104
 10
141.8414981492168
 20
164.9369557347683
 30
0.0
 10
141.851800621891
 20
164.9082147443353
 30
0.0
 10
141.8620976826552
 20
164.8794888516035
 30
0.0
 10
141.8723898448798
 20
164.8507766244143
 30
0.0
 10
141.8906628346143
 20
164.7998001414138
 30
0.0
 10
141.908920412973
 20
164.7488666518011
 30
0.0
 10
141.927164979244
 20
164.69796946224
 30
0.0
  0
ARC
  5
F1
330
1F
100
AcDbEntity
  8
0
  6
Continuous
 62
     7
370
     0
100
AcDbCircle
 10
141.3996927687
 20
167.6512342772
 30
0.0
 40
3.000000000000024
100
AcDbArc
 50
209.3147539102
 51
280.1266174565
  0
SPLINE
  5
F2
330
1F
100
AcDbEntity
  8
0
  6
Continuous
 62
     7
370
     0
100
AcDbSpline
210
0.0
220
0.0
230
1.0
 70
    24
 71
     3
 72
     8
 73
     4
 74
     0
 42
0.00000001
 43
0.00000001
 12
1.0
 22
0.0
 32
0.0
 13
1.0
 23
0.0
 33
0.0
 40
0.0
 40
0.0
 40
0.0
 40
0.0
 40
1.0
 40
1.0
 40
1.0
 40
1.0
 10
138.7838630924498
 20
166.1824132858241
 30
0.0
 10
138.8634278456003
 20
166.2109340042411
 30
0.0
 10
138.9430808627542
 20
166.2394863617028
 30
0.0
 10
139.0228493649781
 20
166.2680801158513
 30
0.0
  0
ARC
  5
F3
330
1F
100
AcDbEntity
  8
0
  6
Continuous
 62
     7
370
     0
100
AcDbCircle
 10
141.3996927687
 20
167.6512342772
 30
0.0
 40
2.750000000000008
100
AcDbArc
 50
30.1963673797
 51
99.2450039869
  0
ARC
  5
F4
330
1F
100
AcDbEntity
  8
0
  6
Continuous
 62
     7
370
     0
100
AcDbCircle
 10
141.3996927687
 20
167.6512342772
 30
0.0
 40
2.999999999999987
100
AcDbArc
 50
29.3147539102
 51
100.1266174565
  0
SPLINE
  5
F5
330
1F
100
AcDbEntity
  8
0
  6
Continuous
 62
     7
370
     0
100
AcDbSpline
210
0.0
220
0.0
230
1.0
 70
    24
 71
     3
 72
     8
 73
     4
 74
     0
 42
0.00000001
 43
0.00000001
 12
1.0
 22
0.0
 32
0.0
 13
1.0
 23
0.0
 33
0.0
 40
0.0
 40
0.0
 40
0.0
 40
0.0
 40
1.0
 40
1.0
 40
1.0
 40
1.0
 10
144.0155224450302
 20
169.1200552685304
 30
0.0
 10
143.9359576918798
 20
169.0915345501134
 30
0.0
 10
143.8563046747259
 20
169.0629821926516
 30
0.0
 10
143.776536172502
 20
169.0343884385032
 30
0.0
  0
SPLINE
  5
F6
330
1F
100
AcDbEntity
  8
0
  6
Continuous
 62
     7
370
     0
100
AcDbSpline
210
0.0
220
0.0
230
1.0
 70
    24
 71
     3
 72
    11
 73
     7
 74
     0
 42
0.00000001
 43
0.00000001
 12
1.0
 22
0.0
 32
0.0
 13
1.0
 23
0.0
 33
0.0
 40
0.004199693779034
 40
0.004199693779034
 40
0.004199693779034
 40
0.004199693779034
 40
0.0045714279294727
 40
0.0045714279294727
 40
0.0045714279294727
 40
0.0052314151081104
 40
0.0052314151081104
 40
0.0052314151081104
 40
0.0052314151081104
 10
140.9578873882633
 20
170.3655128195862
 30
0.0
 10
140.9475849155891
 20
170.3942538100192
 30
0.0
 10
140.9372878548249
 20
170.422979702751
 30
0.0
 10
140.9269956926003
 20
170.4516919299402
 30
0.0
 10
140.9087227028658
 20
170.5026684129406
 30
0.0
 10
140.8904651245071
 20
170.5536019025535
 30
0.0
 10
140.8722205582361
 20
170.6044990921145
 30
0.0
  0
ARC
  5
F7
330
1F
100
AcDbEntity
  8
0
  6
Continuous
 62
     7
370
     0
100
AcDbCircle
 10
141.3996927687
 20
167.6512342772
 30
0.0
 40
3.000000000000015
100
AcDbArc
 50
299.3147539102
 51
10.1266174565
  0
ARC
  5
F8
330
1F
100
AcDbEntity
  8
0
  6
Continuous
 62
     7
370
     0
100
AcDbCircle
 10
141.3996927687
 20
167.6512342772
 30
0.0
 40
2.750000000000062
100
AcDbArc
 50
300.1963673797
 51
9.2450039869
  0
SPLINE
  5
F9
330
1F
100
AcDbEntity
  8
0
  6
Continuous
 62
     7
370
     0
100
AcDbSpline
210
0.0
220
0.0
230
1.0
 70
    24
 71
     3
 72
    11
 73
     7
 74
     0
 42
0.00000001
 43
0.00000001
 12
1.0
 22
0.0
 32
0.0
 13
1.0
 23
0.0
 33
0.0
 40
0.0041333666424306
 40
0.0041333666424306
 40
0.0041333666424306
 40
0.0041333666424306
 40
0.0046138376121395
 40
0.0046138376121395
 40
0.0046138376121395
 40
0.0051650880369003
 40
0.0051650880369003
 40
0.0051650880369003
 40
0.0051650880369003
 10
144.113971311149
 20
168.093039657654
 30
0.0
 10
144.1511193915997
 20
168.1063557291595
 30
0.0
 10
144.1882422674424
 20
168.1196627658411
 30
0.0
 10
144.2253429724503
 20
168.1329618551828
 30
0.0
 10
144.2679090781091
 20
168.1482200677145
 30
0.0
 10
144.310446006414
 20
168.163467821355
 30
0.0
 10
144.3529575836772
 20
168.1787064876812
 30
0.0
  0
SPLINE
  5
FA
330
1F
100
AcDbEntity
  8
0
  6
Continuous
 62
     7
370
     0
100
AcDbSpline
210
0.0
220
0.0
230
1.0
 70
    24
 71
     3
 72
     8
 73
     4
 74
     0
 42
0.00000001
 43
0.00000001
 12
1.0
 22
0.0
 32
0.0
 13
1.0
 23
0.0
 33
0.0
 40
0.0
 40
0.0
 40
0.0
 40
0.0
 40
1.0
 40
1.0
 40
1.0
 40
1.0
 10
142.8685137600932
 20
165.0354046008871
 30
0.0
 10
142.8399930440148
 20
165.1149693475138
 30
0.0
 10
142.8114406874091
 20
165.1946223622793
 30
0.0
 10
142.7828469300661
 20
165.2743908734153
 30
0.0
  0
ARC
  5
FB
330
1F
100
AcDbEntity
  8
0
  6
Continuous
 62
     7
370
     0
100
AcDbCircle
 10
141.3996927687
 20
167.6512342772
 30
0.0
 40
2.000000000000054
100
AcDbArc
 50
304.1981978693
 51
5.2431734974
  0
LINE
  5
FC
330
1F
100
AcDbEntity
  8
0
  6
Continuous
 62
     7
370
     0
100
AcDbLine
 10
143.3913244836
 20
167.8340002978
 30
0.0
 11
144.1139711969
 21
168.0930397557
 31
0.0
  0
LINE
  5
FD
330
1F
100
AcDbEntity
  8
0
  6
Continuous
 62
     7
370
     0
100
AcDbLine
 10
142.7828467421
 20
165.2743908195
 30
0.0
 11
142.5238077499
 21
165.9970379984
 31
0.0
  0
LINE
  5
FE
330
1F
100
AcDbEntity
  8
0
  6
Continuous
 62
     7
370
     0
100
AcDbLine
 10
141.5824585565
 20
165.6596026002
 30
0.0
 11
141.84149848
 21
164.9369558869
 31
0.0
  0
LINE
  5
FF
330
1F
100
AcDbEntity
  8
0
  6
Continuous
 62
     7
370
     0
100
AcDbLine
 10
139.0228488453
 20
166.2680803416
 30
0.0
 11
139.7454955585
 21
166.5271195667
 31
0.0
  0
ARC
  5
100
330
1F
100
AcDbEntity
  8
0
  6
Continuous
 62
     7
370
     0
100
AcDbCircle
 10
141.3996927687
 20
167.6512342772
 30
0.0
 40
2.000000000000024
100
AcDbArc
 50
214.1981978693
 51
275.2431734974
  0
LINE
  5
101
330
1F
100
AcDbEntity
  8
0
  6
Continuous
 62
     7
370
     0
100
AcDbLine
 10
143.7765362643
 20
169.0343884835
 30
0.0
 11
143.053889551
 21
168.7753490256
 31
0.0
  0
ARC
  5
102
330
1F
100
AcDbEntity
  8
0
  6
Continuous
 62
     7
370
     0
100
AcDbCircle
 10
141.3996927687
 20
167.6512342772
 30
0.0
 40
2.000000000000024
100
AcDbArc
 50
34.1981978692
 51
95.2431734974
  0
LINE
  5
103
330
1F
100
AcDbEntity
  8
0
  6
Continuous
 62
     7
370
     0
100
AcDbLine
 10
141.2169265531
 20
169.642865934
 30
0.0
 11
140.9578875609
 21
170.3655128218
 31
0.0
  0
ARC
  5
104
330
1F
100
AcDbEntity
  8
0
  6
Continuous
 62
     7
370
     0
100
AcDbCircle
 10
141.3996927687
 20
167.6512342772
 30
0.0
 40
2.999999999999997
100
AcDbArc
 50
280.1266174565
 51
299.3147539102
  0
ARC
  5
105
330
1F
100
AcDbEntity
  8
0
  6
Continuous
 62
     7
370
     0
100
AcDbCircle
 10
141.3996927687
 20
167.6512342772
 30
0.0
 40
2.000000000000054
100
AcDbArc
 50
275.2431734974
 51
304.1981978693
  0
ARC
  5
106
330
1F
100
AcDbEntity
  8
0
  6
Continuous
 62
     7
370
     0
100
AcDbCircle
 10
141.3996927687
 20
167.6512342772
 30
0.0
 40
3.000000000000015
100
AcDbArc
 50
10.1266174565
 51
29.3147539102
  0
ARC
  5
107
330
1F
100
AcDbEntity
  8
0
  6
Continuous
 62
     7
370
     0
100
AcDbCircle
 10
141.3996927687
 20
167.6512342772
 30
0.0
 40
1.999999999999991
100
AcDbArc
 50
5.2431734974
 51
34.1981978692
  0
ARC
  5
108
330
1F
100
AcDbEntity
  8
0
  6
Continuous
 62
     7
370
     0
100
AcDbCircle
 10
141.3996927687
 20
167.6512342772
 30
0.0
 40
2.999999999999987
100
AcDbArc
 50
100.1266174565
 51
119.3147539102
  0
ARC
  5
109
330
1F
100
AcDbEntity
  8
0
  6
Continuous
 62
     7
370
     0
100
AcDbCircle
 10
141.3996927687
 20
167.6512342772
 30
0.0
 40
2.000000000000024
100
AcDbArc
 50
95.2431734974
 51
124.1981978693
  0
ARC
  5
10A
330
1F
100
AcDbEntity
  8
0
  6
Continuous
 62
     7
370
     0
100
AcDbCircle
 10
141.3996927687
 20
167.6512342772
 30
0.0
 40
3.000000000000024
100
AcDbArc
 50
190.1266174565
 51
209.3147539102
  0
ARC
  5
10B
330
1F
100
AcDbEntity
  8
0
  6
Continuous
 62
     7
370
     0
100
AcDbCircle
 10
141.3996927687
 20
167.6512342772
 30
0.0
 40
1.999999999999996
100
AcDbArc
 50
185.2431734974
 51
214.1981978693
  0
CIRCLE
  5
10C
330
1F
100
AcDbEntity
  8
0
  6
Continuous
 62
     7
370
     0
100
AcDbCircle
 10
141.3996927687
 20
167.6512342772
 30
0.0
 40
5.000000000000004
  0
CIRCLE
  5
10D
330
1F
100
AcDbEntity
  8
0
  6
Continuous
 62
     7
370
     0
100
AcDbCircle
 10
141.3996927687
 20
167.6512342772
 30
0.0
 40
4.800000000000008
  0
CIRCLE
  5
10E
330
1F
100
AcDbEntity
  8
0
  6
Continuous
 62
     7
370
     0
100
AcDbCircle
 10
141.3996927687
 20
215.6512342772
 30
0.0
 40
3.49999999999998
  0
CIRCLE
  5
10F
330
1F
100
AcDbEntity
  8
0
  6
Continuous
 62
     7
370
     0
100
AcDbCircle
 10
141.3996927687
 20
215.6512342772
 30
0.0
 40
4.50000000000002
  0
CIRCLE
  5
110
330
1F
100
AcDbEntity
  8
0
  6
Continuous
 62
     7
370
     0
100
AcDbCircle
 10
141.3996927687
 20
189.6512342772
 30
0.0
 40
3.500000000000026
  0
CIRCLE
  5
111
330
1F
100
AcDbEntity
  8
0
  6
Continuous
 62
     7
370
     0
100
AcDbCircle
 10
141.3996927687
 20
189.6512342772
 30
0.0
 40
4.500000000000003
  0
CIRCLE
  5
112
330
1F
100
AcDbEntity
  8
0
  6
Continuous
 62
     7
370
     0
100
AcDbCircle
 10
141.3996927687
 20
145.6512342772
 30
0.0
 40
3.49999999999999
  0
CIRCLE
  5
113
330
1F
100
AcDbEntity
  8
0
  6
Continuous
 62
     7
370
     0
100
AcDbCircle
 10
141.3996927687
 20
145.6512342772
 30
0.0
 40
4.499999999999991
  0
CIRCLE
  5
114
330
1F
100
AcDbEntity
  8
0
  6
Continuous
 62
     7
370
     0
100
AcDbCircle
 10
141.3996927687
 20
119.6512342772
 30
0.0
 40
4.499999999999986
  0
CIRCLE
  5
115
330
1F
100
AcDbEntity
  8
0
  6
Continuous
 62
     7
370
     0
100
AcDbCircle
 10
141.3996927687
 20
119.6512342772
 30
0.0
 40
3.499999999999986
  0
CIRCLE
  5
116
330
1F
100
AcDbEntity
  8
0
  6
Continuous
 62
     7
370
     0
100
AcDbCircle
 10
141.3996927687
 20
167.6512342772
 30
0.0
 40
4.500000000000002
  0
CIRCLE
  5
117
330
1F
100
AcDbEntity
  8
0
  6
Continuous
 62
     7
370
     0
100
AcDbCircle
 10
141.3996927687
 20
167.6512342772
 30
0.0
 40
3.50000000000002
  0
LINE
  5
118
330
1F
100
AcDbEntity
  8
0
  6
Continuous
 62
     7
370
     0
100
AcDbLine
 10
148.3996927709
 20
172.6512341844
 30
0.0
 11
148.3996927709
 21
222.6512332997
 31
0.0
  0
LINE
  5
119
330
1F
100
AcDbEntity
  8
0
  6
Continuous
 62
     7
370
     0
100
AcDbLine
 10
151.3996927969
 20
172.6512341844
 30
0.0
 11
148.3996927709
 21
172.6512341844
 31
0.0
  0
LINE
  5
11A
330
1F
100
AcDbEntity
  8
0
  6
Continuous
 62
     7
370
     0
100
AcDbLine
 10
151.3996927969
 20
172.6512341844
 30
0.0
 11
151.3996927969
 21
162.6512341751
 31
0.0
  0
LINE
  5
11B
330
1F
100
AcDbEntity
  8
0
  6
Continuous
 62
     7
370
     0
100
AcDbLine
 10
151.3996927969
 20
162.6512341751
 30
0.0
 11
148.3996927709
 21
162.6512341751
 31
0.0
  0
LINE
  5
11C
330
1F
100
AcDbEntity
  8
0
  6
Continuous
 62
     7
370
     0
100
AcDbLine
 10
148.3996927709
 20
112.6512338957
 30
0.0
 11
148.3996927709
 21
162.6512341751
 31
0.0
  0
LINE
  5
11D
330
1F
100
AcDbEntity
  8
0
  6
Continuous
 62
     7
370
     0
100
AcDbLine
 10
127.3996935196
 20
112.6512338957
 30
0.0
 11
148.3996927709
 21
112.6512338957
 31
0.0
  0
LINE
  5
11E
330
1F
100
AcDbEntity
  8
0
  6
Continuous
 62
     7
370
     0
100
AcDbLine
 10
127.3996935196
 20
222.6512332997
 30
0.0
 11
127.3996935196
 21
112.6512338957
 31
0.0
  0
LINE
  5
11F
330
1F
100
AcDbEntity
  8
0
  6
Continuous
 62
     7
370
     0
100
AcDbLine
 10
148.3996927709
 20
222.6512332997
 30
0.0
 11
127.3996935196
 21
222.6512332997
 31
0.0
  0
DIMENSION
  5
120
330
1F
100
AcDbEntity
  8
0
  6
Continuous
 62
     7
370
     0
100
AcDbDimension
  2
_D
 10
171.3996927687
 20
112.6512342772
 30
0.0
 11
171.3996927687
 21
167.6512342772
 31
0.0
 70
   160
  1
<>
 71
     2
 42
-1.0
  3
SLDDIMSTYLE0
100
AcDbAlignedDimension
 13
148.3996927687
 23
222.6512342772
 33
0.0
 14
148.3996927687
 24
112.6512342772
 34
0.0
 50
90.0
100
AcDbRotatedDimension
  0
LINE
  5
12B
330
1F
100
AcDbEntity
  8
0
  6
Continuous
 62
     7
370
     0
100
AcDbLine
 10
75.1344113062
 20
220.6512329718
 30
0.0
 11
74.9344116459
 21
220.4512333116
 31
0.0
  0
LINE
  5
12C
330
1F
100
AcDbEntity
  8
0
  6
Continuous
 62
     7
370
     0
100
AcDbLine
 10
74.9344116459
 20
210.8512347182
 30
0.0
 11
75.1344113062
 21
210.651235058
 31
0.0
  0
LINE
  5
12D
330
1F
100
AcDbEntity
  8
0
  6
Continuous
 62
     7
370
     0
100
AcDbLine
 10
75.1344113062
 20
210.651235058
 30
0.0
 11
76.7344123135
 21
210.651235058
 31
0.0
  0
LINE
  5
12E
330
1F
100
AcDbEntity
  8
0
  6
Continuous
 62
     7
370
     0
100
AcDbLine
 10
76.7344123135
 20
220.6512329718
 30
0.0
 11
75.1344113062
 21
220.6512329718
 31
0.0
  0
LINE
  5
12F
330
1F
100
AcDbEntity
  8
0
  6
Continuous
 62
     7
370
     0
100
AcDbLine
 10
76.7344123135
 20
210.651235058
 30
0.0
 11
76.9344119738
 21
210.8512347182
 31
0.0
  0
LINE
  5
130
330
1F
100
AcDbEntity
  8
0
  6
Continuous
 62
     7
370
     0
100
AcDbLine
 10
76.9344119738
 20
220.4512333116
 30
0.0
 11
76.7344123135
 21
220.6512329718
 31
0.0
  0
LINE
  5
131
330
1F
100
AcDbEntity
  8
0
  6
Continuous
 62
     7
370
     0
100
AcDbLine
 10
83.4344121079
 20
218.651232644
 30
0.0
 11
82.9344110946
 21
218.651232644
 31
0.0
  0
LINE
  5
132
330
1F
100
AcDbEntity
  8
0
  6
Continuous
 62
     7
370
     0
100
AcDbLine
 10
82.9344110946
 20
212.6512353858
 30
0.0
 11
83.4344121079
 21
212.6512353858
 31
0.0
  0
LINE
  5
133
330
1F
100
AcDbEntity
  8
0
  6
Continuous
 62
     7
370
     0
100
AcDbLine
 10
75.1344113062
 20
194.651234298
 30
0.0
 11
74.9344116459
 21
194.4512346378
 31
0.0
  0
LINE
  5
134
330
1F
100
AcDbEntity
  8
0
  6
Continuous
 62
     7
370
     0
100
AcDbLine
 10
74.9344116459
 20
184.8512341818
 30
0.0
 11
75.1344113062
 21
184.6512345215
 31
0.0
  0
LINE
  5
135
330
1F
100
AcDbEntity
  8
0
  6
Continuous
 62
     7
370
     0
100
AcDbLine
 10
75.1344113062
 20
184.6512345215
 30
0.0
 11
76.7344123135
 21
184.6512345215
 31
0.0
  0
LINE
  5
136
330
1F
100
AcDbEntity
  8
0
  6
Continuous
 62
     7
370
     0
100
AcDbLine
 10
76.7344123135
 20
194.651234298
 30
0.0
 11
75.1344113062
 21
194.651234298
 31
0.0
  0
LINE
  5
137
330
1F
100
AcDbEntity
  8
0
  6
Continuous
 62
     7
370
     0
100
AcDbLine
 10
76.7344123135
 20
184.6512345215
 30
0.0
 11
76.9344119738
 21
184.8512341818
 31
0.0
  0
LINE
  5
138
330
1F
100
AcDbEntity
  8
0
  6
Continuous
 62
     7
370
     0
100
AcDbLine
 10
76.9344119738
 20
194.4512346378
 30
0.0
 11
76.7344123135
 21
194.651234298
 31
0.0
  0
LINE
  5
139
330
1F
100
AcDbEntity
  8
0
  6
Continuous
 62
     7
370
     0
100
AcDbLine
 10
83.4344121079
 20
192.6512339702
 30
0.0
 11
82.9344110946
 21
192.6512339702
 31
0.0
  0
LINE
  5
13A
330
1F
100
AcDbEntity
  8
0
  6
Continuous
 62
     7
370
     0
100
AcDbLine
 10
82.9344110946
 20
186.6512348494
 30
0.0
 11
83.4344121079
 21
186.6512348494
 31
0.0
  0
LINE
  5
13B
330
1F
100
AcDbEntity
  8
0
  6
Continuous
 62
     7
370
     0
100
AcDbLine
 10
83.4344121079
 20
186.6512348494
 30
0.0
 11
84.4344122718
 21
186.9012334934
 31
0.0
  0
LINE
  5
13C
330
1F
100
AcDbEntity
  8
0
  6
Continuous
 62
     7
370
     0
100
AcDbLine
 10
84.4344122718
 20
192.4012334636
 30
0.0
 11
83.4344121079
 21
192.6512339702
 31
0.0
  0
LINE
  5
13D
330
1F
100
AcDbEntity
  8
0
  6
Continuous
 62
     7
370
     0
100
AcDbLine
 10
75.1344113062
 20
140.65123476
 30
0.0
 11
76.7344123135
 21
140.65123476
 31
0.0
  0
LINE
  5
13E
330
1F
100
AcDbEntity
  8
0
  6
Continuous
 62
     7
370
     0
100
AcDbLine
 10
76.7344123135
 20
150.6512345364
 30
0.0
 11
75.1344113062
 21
150.6512345364
 31
0.0
  0
LINE
  5
13F
330
1F
100
AcDbEntity
  8
0
  6
Continuous
 62
     7
370
     0
100
AcDbLine
 10
75.1344113062
 20
150.6512345364
 30
0.0
 11
74.9344116459
 21
150.4512348762
 31
0.0
  0
LINE
  5
140
330
1F
100
AcDbEntity
  8
0
  6
Continuous
 62
     7
370
     0
100
AcDbLine
 10
74.9344116459
 20
140.8512344202
 30
0.0
 11
75.1344113062
 21
140.65123476
 31
0.0
  0
LINE
  5
141
330
1F
100
AcDbEntity
  8
0
  6
Continuous
 62
     7
370
     0
100
AcDbLine
 10
76.7344123135
 20
140.65123476
 30
0.0
 11
76.9344119738
 21
140.8512344202
 31
0.0
  0
LINE
  5
142
330
1F
100
AcDbEntity
  8
0
  6
Continuous
 62
     7
370
     0
100
AcDbLine
 10
76.9344119738
 20
150.4512348762
 30
0.0
 11
76.7344123135
 21
150.6512345364
 31
0.0
  0
LINE
  5
143
330
1F
100
AcDbEntity
  8
0
  6
Continuous
 62
     7
370
     0
100
AcDbLine
 10
83.4344121079
 20
148.6512342086
 30
0.0
 11
82.9344110946
 21
148.6512342086
 31
0.0
  0
LINE
  5
144
330
1F
100
AcDbEntity
  8
0
  6
Continuous
 62
     7
370
     0
100
AcDbLine
 10
82.9344110946
 20
142.6512350878
 30
0.0
 11
83.4344121079
 21
142.6512350878
 31
0.0
  0
LINE
  5
145
330
1F
100
AcDbEntity
  8
0
  6
Continuous
 62
     7
370
     0
100
AcDbLine
 10
83.4344121079
 20
142.6512350878
 30
0.0
 11
84.4344122718
 21
142.9012337318
 31
0.0
  0
LINE
  5
146
330
1F
100
AcDbEntity
  8
0
  6
Continuous
 62
     7
370
     0
100
AcDbLine
 10
84.4344122718
 20
148.401233702
 30
0.0
 11
83.4344121079
 21
148.6512342086
 31
0.0
  0
LINE
  5
147
330
1F
100
AcDbEntity
  8
0
  6
Continuous
 62
     7
370
     0
100
AcDbLine
 10
75.1344113062
 20
114.6512342235
 30
0.0
 11
76.7344123135
 21
114.6512342235
 31
0.0
  0
LINE
  5
148
330
1F
100
AcDbEntity
  8
0
  6
Continuous
 62
     7
370
     0
100
AcDbLine
 10
76.7344123135
 20
124.6512358627
 30
0.0
 11
75.1344113062
 21
124.6512358627
 31
0.0
  0
LINE
  5
149
330
1F
100
AcDbEntity
  8
0
  6
Continuous
 62
     7
370
     0
100
AcDbLine
 10
75.1344113062
 20
124.6512358627
 30
0.0
 11
74.9344116459
 21
124.4512324771
 31
0.0
  0
LINE
  5
14A
330
1F
100
AcDbEntity
  8
0
  6
Continuous
 62
     7
370
     0
100
AcDbLine
 10
74.9344116459
 20
114.8512338838
 30
0.0
 11
75.1344113062
 21
114.6512342235
 31
0.0
  0
LINE
  5
14B
330
1F
100
AcDbEntity
  8
0
  6
Continuous
 62
     7
370
     0
100
AcDbLine
 10
76.7344123135
 20
114.6512342235
 30
0.0
 11
76.9344119738
 21
114.8512338838
 31
0.0
  0
LINE
  5
14C
330
1F
100
AcDbEntity
  8
0
  6
Continuous
 62
     7
370
     0
100
AcDbLine
 10
76.9344119738
 20
124.4512324771
 30
0.0
 11
76.7344123135
 21
124.6512358627
 31
0.0
  0
LINE
  5
14D
330
1F
100
AcDbEntity
  8
0
  6
Continuous
 62
     7
370
     0
100
AcDbLine
 10
83.4344121079
 20
122.6512355348
 30
0.0
 11
82.9344110946
 21
122.6512355348
 31
0.0
  0
LINE
  5
14E
330
1F
100
AcDbEntity
  8
0
  6
Continuous
 62
     7
370
     0
100
AcDbLine
 10
82.9344110946
 20
116.6512345513
 30
0.0
 11
83.4344121079
 21
116.6512345513
 31
0.0
  0
LINE
  5
14F
330
1F
100
AcDbEntity
  8
0
  6
Continuous
 62
     7
370
     0
100
AcDbLine
 10
75.1344113062
 20
162.6512341751
 30
0.0
 11
76.7344123135
 21
162.6512341751
 31
0.0
  0
LINE
  5
150
330
1F
100
AcDbEntity
  8
0
  6
Continuous
 62
     7
370
     0
100
AcDbLine
 10
76.7344123135
 20
172.6512341844
 30
0.0
 11
75.1344113062
 21
172.6512341844
 31
0.0
  0
LINE
  5
151
330
1F
100
AcDbEntity
  8
0
  6
Continuous
 62
     7
370
     0
100
AcDbLine
 10
75.1344113062
 20
172.6512341844
 30
0.0
 11
74.9344116459
 21
172.4512342913
 31
0.0
  0
LINE
  5
152
330
1F
100
AcDbEntity
  8
0
  6
Continuous
 62
     7
370
     0
100
AcDbLine
 10
74.9344116459
 20
162.851234301
 30
0.0
 11
75.1344113062
 21
162.6512341751
 31
0.0
  0
LINE
  5
153
330
1F
100
AcDbEntity
  8
0
  6
Continuous
 62
     7
370
     0
100
AcDbLine
 10
76.7344123135
 20
162.6512341751
 30
0.0
 11
76.9344119738
 21
162.851234301
 31
0.0
  0
LINE
  5
154
330
1F
100
AcDbEntity
  8
0
  6
Continuous
 62
     7
370
     0
100
AcDbLine
 10
76.9344119738
 20
172.4512342913
 30
0.0
 11
76.7344123135
 21
172.6512341844
 31
0.0
  0
LINE
  5
155
330
1F
100
AcDbEntity
  8
0
  6
Continuous
 62
     7
370
     0
100
AcDbLine
 10
83.4344121079
 20
170.651234264
 30
0.0
 11
82.9344110946
 21
170.651234264
 31
0.0
  0
LINE
  5
156
330
1F
100
AcDbEntity
  8
0
  6
Continuous
 62
     7
370
     0
100
AcDbLine
 10
82.9344110946
 20
164.6512345029
 30
0.0
 11
83.4344121079
 21
164.6512345029
 31
0.0
  0
LINE
  5
157
330
1F
100
AcDbEntity
  8
0
  6
Continuous
 62
     7
370
     0
100
AcDbLine
 10
83.4344121079
 20
164.6512345029
 30
0.0
 11
84.4344122718
 21
164.9012340782
 31
0.0
  0
LINE
  5
158
330
1F
100
AcDbEntity
  8
0
  6
Continuous
 62
     7
370
     0
100
AcDbLine
 10
84.4344122718
 20
170.4012342813
 30
0.0
 11
83.4344121079
 21
170.651234264
 31
0.0
  0
LINE
  5
159
330
1F
100
AcDbEntity
  8
0
  6
Continuous
 62
     7
370
     0
100
AcDbLine
 10
76.9344119738
 20
211.1512360713
 30
0.0
 11
81.9344109307
 21
211.1512360713
 31
0.0
  0
LINE
  5
15A
330
1F
100
AcDbEntity
  8
0
  6
Continuous
 62
     7
370
     0
100
AcDbLine
 10
81.9344109307
 20
220.1512356838
 30
0.0
 11
76.9344119738
 21
220.1512356838
 31
0.0
  0
LINE
  5
15B
330
1F
100
AcDbEntity
  8
0
  6
Continuous
 62
     7
370
     0
100
AcDbLine
 10
81.9344109307
 20
211.1512360713
 30
0.0
 11
82.9344110946
 21
212.1512343725
 31
0.0
  0
LINE
  5
15C
330
1F
100
AcDbEntity
  8
0
  6
Continuous
 62
     7
370
     0
100
AcDbLine
 10
82.9344110946
 20
219.1512336573
 30
0.0
 11
81.9344109307
 21
220.1512356838
 31
0.0
  0
LINE
  5
15D
330
1F
100
AcDbEntity
  8
0
  6
Continuous
 62
     7
370
     0
100
AcDbLine
 10
76.9344119738
 20
185.1512346035
 30
0.0
 11
81.9344109307
 21
185.1512346035
 31
0.0
  0
LINE
  5
15E
330
1F
100
AcDbEntity
  8
0
  6
Continuous
 62
     7
370
     0
100
AcDbLine
 10
81.9344109307
 20
194.1512351474
 30
0.0
 11
76.9344119738
 21
194.1512351474
 31
0.0
  0
LINE
  5
15F
330
1F
100
AcDbEntity
  8
0
  6
Continuous
 62
     7
370
     0
100
AcDbLine
 10
81.9344109307
 20
185.1512346035
 30
0.0
 11
82.9344110946
 21
186.1512338361
 31
0.0
  0
LINE
  5
160
330
1F
100
AcDbEntity
  8
0
  6
Continuous
 62
     7
370
     0
100
AcDbLine
 10
82.9344110946
 20
193.1512349835
 30
0.0
 11
81.9344109307
 21
194.1512351474
 31
0.0
  0
LINE
  5
161
330
1F
100
AcDbEntity
  8
0
  6
Continuous
 62
     7
370
     0
100
AcDbLine
 10
76.9344119738
 20
141.1512339106
 30
0.0
 11
81.9344109307
 21
141.1512339106
 31
0.0
  0
LINE
  5
162
330
1F
100
AcDbEntity
  8
0
  6
Continuous
 62
     7
370
     0
100
AcDbLine
 10
81.9344109307
 20
150.1512335232
 30
0.0
 11
76.9344119738
 21
150.1512335232
 31
0.0
  0
LINE
  5
163
330
1F
100
AcDbEntity
  8
0
  6
Continuous
 62
     7
370
     0
100
AcDbLine
 10
81.9344109307
 20
141.1512339106
 30
0.0
 11
82.9344110946
 21
142.1512340745
 31
0.0
  0
LINE
  5
164
330
1F
100
AcDbEntity
  8
0
  6
Continuous
 62
     7
370
     0
100
AcDbLine
 10
82.9344110946
 20
149.1512333593
 30
0.0
 11
81.9344109307
 21
150.1512335232
 31
0.0
  0
LINE
  5
165
330
1F
100
AcDbEntity
  8
0
  6
Continuous
 62
     7
370
     0
100
AcDbLine
 10
76.9344119738
 20
115.1512352368
 30
0.0
 11
81.9344109307
 21
115.1512352368
 31
0.0
  0
LINE
  5
166
330
1F
100
AcDbEntity
  8
0
  6
Continuous
 62
     7
370
     0
100
AcDbLine
 10
81.9344109307
 20
124.1512348494
 30
0.0
 11
76.9344119738
 21
124.1512348494
 31
0.0
  0
LINE
  5
167
330
1F
100
AcDbEntity
  8
0
  6
Continuous
 62
     7
370
     0
100
AcDbLine
 10
81.9344109307
 20
115.1512352368
 30
0.0
 11
82.9344110946
 21
116.1512335381
 31
0.0
  0
LINE
  5
168
330
1F
100
AcDbEntity
  8
0
  6
Continuous
 62
     7
370
     0
100
AcDbLine
 10
82.9344110946
 20
123.1512328228
 30
0.0
 11
81.9344109307
 21
124.1512348494
 31
0.0
  0
LINE
  5
169
330
1F
100
AcDbEntity
  8
0
  6
Continuous
 62
     7
370
     0
100
AcDbLine
 10
76.9344119738
 20
163.1512342571
 30
0.0
 11
81.9344109307
 21
163.1512342571
 31
0.0
  0
LINE
  5
16A
330
1F
100
AcDbEntity
  8
0
  6
Continuous
 62
     7
370
     0
100
AcDbLine
 10
81.9344109307
 20
172.1512343353
 30
0.0
 11
76.9344119738
 21
172.1512343353
 31
0.0
  0
LINE
  5
16B
330
1F
100
AcDbEntity
  8
0
  6
Continuous
 62
     7
370
     0
100
AcDbLine
 10
81.9344109307
 20
163.1512342571
 30
0.0
 11
82.9344110946
 21
164.151234421
 31
0.0
  0
LINE
  5
16C
330
1F
100
AcDbEntity
  8
0
  6
Continuous
 62
     7
370
     0
100
AcDbLine
 10
82.9344110946
 20
171.1512342878
 30
0.0
 11
81.9344109307
 21
172.1512343353
 31
0.0
  0
LINE
  5
16D
330
1F
100
AcDbEntity
  8
0
  6
Continuous
 62
     7
370
     0
100
AcDbLine
 10
74.4344124953
 20
185.1512346035
 30
0.0
 11
74.9344116459
 21
185.1512346035
 31
0.0
  0
LINE
  5
16E
330
1F
100
AcDbEntity
  8
0
  6
Continuous
 62
     7
370
     0
100
AcDbLine
 10
74.9344116459
 20
194.1512351474
 30
0.0
 11
74.4344124953
 21
194.1512351474
 31
0.0
  0
LINE
  5
16F
330
1F
100
AcDbEntity
  8
0
  6
Continuous
 62
     7
370
     0
100
AcDbLine
 10
74.4344124953
 20
115.1512352368
 30
0.0
 11
74.9344116459
 21
115.1512352368
 31
0.0
  0
LINE
  5
170
330
1F
100
AcDbEntity
  8
0
  6
Continuous
 62
     7
370
     0
100
AcDbLine
 10
74.9344116459
 20
124.1512348494
 30
0.0
 11
74.4344124953
 21
124.1512348494
 31
0.0
  0
LINE
  5
171
330
1F
100
AcDbEntity
  8
0
  6
Continuous
 62
     7
370
     0
100
AcDbLine
 10
74.4344124953
 20
211.1512360713
 30
0.0
 11
74.9344116459
 21
211.1512360713
 31
0.0
  0
LINE
  5
172
330
1F
100
AcDbEntity
  8
0
  6
Continuous
 62
     7
370
     0
100
AcDbLine
 10
74.9344116459
 20
220.1512356838
 30
0.0
 11
74.4344124953
 21
220.1512356838
 31
0.0
  0
LINE
  5
173
330
1F
100
AcDbEntity
  8
0
  6
Continuous
 62
     7
370
     0
100
AcDbLine
 10
74.4344124953
 20
141.1512339106
 30
0.0
 11
74.9344116459
 21
141.1512339106
 31
0.0
  0
LINE
  5
174
330
1F
100
AcDbEntity
  8
0
  6
Continuous
 62
     7
370
     0
100
AcDbLine
 10
74.9344116459
 20
150.1512335232
 30
0.0
 11
74.4344124953
 21
150.1512335232
 31
0.0
  0
LINE
  5
175
330
1F
100
AcDbEntity
  8
0
  6
Continuous
 62
     7
370
     0
100
AcDbLine
 10
74.4344124953
 20
163.1512342571
 30
0.0
 11
74.9344116459
 21
163.1512342571
 31
0.0
  0
LINE
  5
176
330
1F
100
AcDbEntity
  8
0
  6
Continuous
 62
     7
370
     0
100
AcDbLine
 10
74.9344116459
 20
172.1512343353
 30
0.0
 11
74.4344124953
 21
172.1512343353
 31
0.0
  0
LINE
  5
177
330
1F
100
AcDbEntity
  8
0
  6
Continuous
 62
     7
370
     0
100
AcDbLine
 10
74.9344116459
 20
210.8512347182
 30
0.0
 11
74.9344116459
 21
220.4512333116
 31
0.0
  0
LINE
  5
178
330
1F
100
AcDbEntity
  8
0
  6
Continuous
 62
     7
370
     0
100
AcDbLine
 10
75.1344113062
 20
220.6512329718
 30
0.0
 11
75.1344113062
 21
210.651235058
 31
0.0
  0
LINE
  5
179
330
1F
100
AcDbEntity
  8
0
  6
Continuous
 62
     7
370
     0
100
AcDbLine
 10
76.7344123135
 20
210.651235058
 30
0.0
 11
76.7344123135
 21
220.6512329718
 31
0.0
  0
LINE
  5
17A
330
1F
100
AcDbEntity
  8
0
  6
Continuous
 62
     7
370
     0
100
AcDbLine
 10
76.9344119738
 20
220.4512333116
 30
0.0
 11
76.9344119738
 21
210.8512347182
 31
0.0
  0
LINE
  5
17B
330
1F
100
AcDbEntity
  8
0
  6
Continuous
 62
     7
370
     0
100
AcDbLine
 10
83.4344121079
 20
212.6512353858
 30
0.0
 11
83.4344121079
 21
212.6527739307
 31
0.0
  0
LINE
  5
17C
330
1F
100
AcDbEntity
  8
0
  6
Continuous
 62
     7
370
     0
100
AcDbLine
 10
83.4344121079
 20
218.5147156557
 30
0.0
 11
83.4344121079
 21
218.651232644
 31
0.0
  0
LINE
  5
17D
330
1F
100
AcDbEntity
  8
0
  6
Continuous
 62
     7
370
     0
100
AcDbLine
 10
83.4344121079
 20
218.5147156557
 30
0.0
 11
83.4344121079
 21
215.7473874828
 31
0.0
  0
LINE
  5
17E
330
1F
100
AcDbEntity
  8
0
  6
Continuous
 62
     7
370
     0
100
AcDbLine
 10
83.4344121079
 20
215.7473874828
 30
0.0
 11
83.4344121079
 21
214.7565384945
 31
0.0
  0
LINE
  5
17F
330
1F
100
AcDbEntity
  8
0
  6
Continuous
 62
     7
370
     0
100
AcDbLine
 10
83.4344121079
 20
214.7565384945
 30
0.0
 11
83.4344121079
 21
212.6527739307
 31
0.0
  0
LINE
  5
180
330
1F
100
AcDbEntity
  8
0
  6
Continuous
 62
     7
370
     0
100
AcDbLine
 10
84.4344122718
 20
218.263161703
 30
0.0
 11
84.4344122718
 21
215.7816564283
 31
0.0
  0
SPLINE
  5
181
330
1F
100
AcDbEntity
  8
0
  6
Continuous
 62
     7
370
     0
100
AcDbSpline
210
0.0
220
0.0
230
1.0
 70
     8
 71
     3
 72
    11
 73
     7
 74
     0
 42
0.00000001
 43
0.00000001
 12
1.0
 22
0.0
 32
0.0
 13
1.0
 23
0.0
 33
0.0
 40
0.004199693779034
 40
0.004199693779034
 40
0.004199693779034
 40
0.004199693779034
 40
0.0045714279294727
 40
0.0045714279294727
 40
0.0045714279294727
 40
0.0052314151081104
 40
0.0052314151081104
 40
0.0052314151081104
 40
0.0052314151081104
 10
84.43441157061562
 20
215.7816563795896
 30
0.0
 10
84.31432031028186
 20
215.7775352742673
 30
0.0
 10
84.19422497146067
 20
215.7734163337699
 30
0.0
 10
84.0741259469459
 20
215.7692993527438
 30
0.0
 10
83.86089881408736
 20
215.7619899506584
 30
0.0
 10
83.64766007836276
 20
215.7546867132971
 30
0.0
 10
83.43441157061564
 20
215.7473886809179
 30
0.0
  0
SPLINE
  5
182
330
1F
100
AcDbEntity
  8
0
  6
Continuous
 62
     7
370
     0
100
AcDbSpline
210
0.0
220
0.0
230
1.0
 70
     8
 71
     3
 72
     8
 73
     4
 74
     0
 42
0.00000001
 43
0.00000001
 12
1.0
 22
0.0
 32
0.0
 13
1.0
 23
0.0
 33
0.0
 40
0.0
 40
0.0
 40
0.0
 40
0.0
 40
1.0
 40
1.0
 40
1.0
 40
1.0
 10
83.43441157061564
 20
218.5147150732663
 30
0.0
 10
83.76777113378498
 20
218.4309664914324
 30
0.0
 10
84.10110712206716
 20
218.3471250043255
 30
0.0
 10
84.43441157061565
 20
218.2631619594879
 30
0.0
  0
LINE
  5
183
330
1F
100
AcDbEntity
  8
0
  6
Continuous
 62
     7
370
     0
100
AcDbLine
 10
84.4344122718
 20
214.8944263896
 30
0.0
 11
83.4344121079
 21
214.8944263896
 31
0.0
  0
LINE
  5
184
330
1F
100
AcDbEntity
  8
0
  6
Continuous
 62
     7
370
     0
100
AcDbLine
 10
84.4344122718
 20
214.79080744
 30
0.0
 11
84.4344122718
 21
214.8944263896
 31
0.0
  0
SPLINE
  5
185
330
1F
100
AcDbEntity
  8
0
  6
Continuous
 62
     7
370
     0
100
AcDbSpline
210
0.0
220
0.0
230
1.0
 70
     8
 71
     3
 72
     8
 73
     4
 74
     0
 42
0.00000001
 43
0.00000001
 12
1.0
 22
0.0
 32
0.0
 13
1.0
 23
0.0
 33
0.0
 40
0.0
 40
0.0
 40
0.0
 40
0.0
 40
1.0
 40
1.0
 40
1.0
 40
1.0
 10
83.43441157061565
 20
214.7565400666063
 30
0.0
 10
83.76777110645186
 20
214.7679486748642
 30
0.0
 10
84.10110708482884
 20
214.77936993969
 30
0.0
 10
84.43441157061564
 20
214.790807765278
 30
0.0
  0
LINE
  5
186
330
1F
100
AcDbEntity
  8
0
  6
Continuous
 62
     7
370
     0
100
AcDbLine
 10
84.4344122718
 20
214.79080744
 30
0.0
 11
84.4344122718
 21
212.9043278834
 31
0.0
  0
SPLINE
  5
187
330
1F
100
AcDbEntity
  8
0
  6
Continuous
 62
     7
370
     0
100
AcDbSpline
210
0.0
220
0.0
230
1.0
 70
     8
 71
     3
 72
    11
 73
     7
 74
     0
 42
0.00000001
 43
0.00000001
 12
1.0
 22
0.0
 32
0.0
 13
1.0
 23
0.0
 33
0.0
 40
0.0041333666424306
 40
0.0041333666424306
 40
0.0041333666424306
 40
0.0041333666424306
 40
0.0046138376121395
 40
0.0046138376121395
 40
0.0046138376121395
 40
0.0051650880369003
 40
0.0051650880369003
 40
0.0051650880369003
 40
0.0051650880369003
 10
84.43441157061564
 20
212.904328731804
 30
0.0
 10
84.2791921528746
 20
212.8652272586967
 30
0.0
 10
84.12396592603358
 20
212.8261523155553
 30
0.0
 10
83.9687337219135
 20
212.7871007090786
 30
0.0
 10
83.79063386098555
 20
212.7422963096182
 30
0.0
 10
83.61252612844395
 20
212.6975226217722
 30
0.0
 10
83.43441157061565
 20
212.6527756180257
 30
0.0
  0
LINE
  5
188
330
1F
100
AcDbEntity
  8
0
  6
Continuous
 62
     7
370
     0
100
AcDbLine
 10
83.4344121079
 20
215.4171926519
 30
0.0
 11
84.4344122718
 21
215.4171926519
 31
0.0
  0
LINE
  5
189
330
1F
100
AcDbEntity
  8
0
  6
Continuous
 62
     7
370
     0
100
AcDbLine
 10
84.4344122718
 20
214.8944263896
 30
0.0
 11
84.4344122718
 21
215.4171926519
 31
0.0
  0
LINE
  5
18A
330
1F
100
AcDbEntity
  8
0
  6
Continuous
 62
     7
370
     0
100
AcDbLine
 10
84.4344122718
 20
218.263161703
 30
0.0
 11
84.4344122718
 21
218.3981401464
 31
0.0
  0
SPLINE
  5
18B
330
1F
100
AcDbEntity
  8
0
  6
Continuous
 62
     7
370
     0
100
AcDbSpline
210
0.0
220
0.0
230
1.0
 70
     8
 71
     3
 72
    11
 73
     7
 74
     0
 42
0.00000001
 43
0.00000001
 12
1.0
 22
0.0
 32
0.0
 13
1.0
 23
0.0
 33
0.0
 40
0.0041333666424306
 40
0.0041333666424306
 40
0.0041333666424306
 40
0.0041333666424306
 40
0.0046138376121394
 40
0.0046138376121394
 40
0.0046138376121394
 40
0.0051650880369003
 40
0.0051650880369003
 40
0.0051650880369003
 40
0.0051650880369003
 10
84.43441157061565
 20
218.3981398225505
 30
0.0
 10
84.27919215287461
 20
218.4372412956577
 30
0.0
 10
84.12396592603358
 20
218.4763162387992
 30
0.0
 10
83.9687337219135
 20
218.5153678452759
 30
0.0
 10
83.79063386098555
 20
218.5601722447363
 30
0.0
 10
83.61252612844395
 20
218.6049459325823
 30
0.0
 10
83.43441157061564
 20
218.6496929363288
 30
0.0
  0
SPLINE
  5
18C
330
1F
100
AcDbEntity
  8
0
  6
Continuous
 62
     7
370
     0
100
AcDbSpline
210
0.0
220
0.0
230
1.0
 70
     8
 71
     3
 72
    11
 73
     7
 74
     0
 42
0.00000001
 43
0.00000001
 12
1.0
 22
0.0
 32
0.0
 13
1.0
 23
0.0
 33
0.0
 40
0.004199693779034
 40
0.004199693779034
 40
0.004199693779034
 40
0.004199693779034
 40
0.0045714279294727
 40
0.0045714279294727
 40
0.0045714279294727
 40
0.0052314151081104
 40
0.0052314151081104
 40
0.0052314151081104
 40
0.0052314151081104
 10
84.43441157061565
 20
215.5208121747649
 30
0.0
 10
84.31432031028187
 20
215.5249332800872
 30
0.0
 10
84.19422497146067
 20
215.5290522205845
 30
0.0
 10
84.0741259469459
 20
215.5331692016106
 30
0.0
 10
83.86089881408736
 20
215.5404786036961
 30
0.0
 10
83.64766007836278
 20
215.5477818410573
 30
0.0
 10
83.43441157061565
 20
215.5550798734366
 30
0.0
  0
LINE
  5
18D
330
1F
100
AcDbEntity
  8
0
  6
Continuous
 62
     7
370
     0
100
AcDbLine
 10
84.4344122718
 20
215.4171926519
 30
0.0
 11
84.4344122718
 21
215.5208116016
 31
0.0
  0
LINE
  5
18E
330
1F
100
AcDbEntity
  8
0
  6
Continuous
 62
     7
370
     0
100
AcDbLine
 10
74.9344116459
 20
194.2576238504
 30
0.0
 11
74.9344116459
 21
194.4512346378
 31
0.0
  0
LINE
  5
18F
330
1F
100
AcDbEntity
  8
0
  6
Continuous
 62
     7
370
     0
100
AcDbLine
 10
74.9344116459
 20
184.8512341818
 30
0.0
 11
74.9344116459
 21
194.2576238504
 31
0.0
  0
LINE
  5
190
330
1F
100
AcDbEntity
  8
0
  6
Continuous
 62
     7
370
     0
100
AcDbLine
 10
75.1344113062
 20
194.4495563945
 30
0.0
 11
75.1344113062
 21
184.6512345215
 31
0.0
  0
LINE
  5
191
330
1F
100
AcDbEntity
  8
0
  6
Continuous
 62
     7
370
     0
100
AcDbLine
 10
75.1344113062
 20
194.651234298
 30
0.0
 11
75.1344113062
 21
194.4495563945
 31
0.0
  0
LINE
  5
192
330
1F
100
AcDbEntity
  8
0
  6
Continuous
 62
     7
370
     0
100
AcDbLine
 10
76.7344123135
 20
194.4495563945
 30
0.0
 11
76.7344123135
 21
194.651234298
 31
0.0
  0
LINE
  5
193
330
1F
100
AcDbEntity
  8
0
  6
Continuous
 62
     7
370
     0
100
AcDbLine
 10
76.7344123135
 20
184.6512345215
 30
0.0
 11
76.7344123135
 21
194.4495563945
 31
0.0
  0
LINE
  5
194
330
1F
100
AcDbEntity
  8
0
  6
Continuous
 62
     7
370
     0
100
AcDbLine
 10
76.9344119738
 20
194.2576238504
 30
0.0
 11
76.9344119738
 21
184.8512341818
 31
0.0
  0
LINE
  5
195
330
1F
100
AcDbEntity
  8
0
  6
Continuous
 62
     7
370
     0
100
AcDbLine
 10
76.9344119738
 20
194.4512346378
 30
0.0
 11
76.9344119738
 21
194.2576238504
 31
0.0
  0
LINE
  5
196
330
1F
100
AcDbEntity
  8
0
  6
Continuous
 62
     7
370
     0
100
AcDbLine
 10
83.4344121079
 20
192.6512339702
 30
0.0
 11
83.4344121079
 21
192.6305343947
 31
0.0
  0
LINE
  5
197
330
1F
100
AcDbEntity
  8
0
  6
Continuous
 62
     7
370
     0
100
AcDbLine
 10
83.4344121079
 20
192.6305343947
 30
0.0
 11
83.4344121079
 21
192.3493867358
 31
0.0
  0
LINE
  5
198
330
1F
100
AcDbEntity
  8
0
  6
Continuous
 62
     7
370
     0
100
AcDbLine
 10
83.4344121079
 20
192.3493867358
 30
0.0
 11
83.4344121079
 21
189.299420788
 31
0.0
  0
LINE
  5
199
330
1F
100
AcDbEntity
  8
0
  6
Continuous
 62
     7
370
     0
100
AcDbLine
 10
83.4344121079
 20
188.3397562048
 30
0.0
 11
83.4344121079
 21
189.299420788
 31
0.0
  0
LINE
  5
19A
330
1F
100
AcDbEntity
  8
0
  6
Continuous
 62
     7
370
     0
100
AcDbLine
 10
83.4344121079
 20
188.3397562048
 30
0.0
 11
83.4344121079
 21
186.6512348494
 31
0.0
  0
SPLINE
  5
19B
330
1F
100
AcDbEntity
  8
0
  6
Continuous
 62
     7
370
     0
100
AcDbSpline
210
0.0
220
0.0
230
1.0
 70
     8
 71
     3
 72
     8
 73
     4
 74
     0
 42
0.00000001
 43
0.00000001
 12
1.0
 22
0.0
 32
0.0
 13
1.0
 23
0.0
 33
0.0
 40
0.0
 40
0.0
 40
0.0
 40
0.0
 40
1.0
 40
1.0
 40
1.0
 40
1.0
 10
83.43441157061565
 20
192.349386104817
 30
0.0
 10
83.76777110645187
 20
192.2682732789673
 30
0.0
 10
84.10110708482885
 20
192.1870704675591
 30
0.0
 10
84.43441157061565
 20
192.1057499125851
 30
0.0
  0
LINE
  5
19C
330
1F
100
AcDbEntity
  8
0
  6
Continuous
 62
     7
370
     0
100
AcDbLine
 10
84.4344122718
 20
192.105749025
 30
0.0
 11
84.4344122718
 21
189.3707973501
 31
0.0
  0
SPLINE
  5
19D
330
1F
100
AcDbEntity
  8
0
  6
Continuous
 62
     7
370
     0
100
AcDbSpline
210
0.0
220
0.0
230
1.0
 70
     8
 71
     3
 72
    11
 73
     7
 74
     0
 42
0.00000001
 43
0.00000001
 12
1.0
 22
0.0
 32
0.0
 13
1.0
 23
0.0
 33
0.0
 40
0.0041333666424306
 40
0.0041333666424306
 40
0.0041333666424306
 40
0.0041333666424306
 40
0.0046138376121394
 40
0.0046138376121394
 40
0.0046138376121394
 40
0.0051650880369003
 40
0.0051650880369003
 40
0.0051650880369003
 40
0.0051650880369003
 10
84.43441157061565
 20
189.3707967285288
 30
0.0
 10
84.27919215287461
 20
189.3597018998338
 30
0.0
 10
84.12396592603358
 20
189.3486145988712
 30
0.0
 10
83.9687337219135
 20
189.3375339195593
 30
0.0
 10
83.79063386098555
 20
189.324820916767
 30
0.0
 10
83.61252612844393
 20
189.3121166282269
 30
0.0
 10
83.43441157061564
 20
189.2994199111539
 30
0.0
  0
LINE
  5
19E
330
1F
100
AcDbEntity
  8
0
  6
Continuous
 62
     7
370
     0
100
AcDbLine
 10
84.4344122718
 20
188.6269611856
 30
0.0
 11
83.4344121079
 21
188.6269611856
 31
0.0
  0
LINE
  5
19F
330
1F
100
AcDbEntity
  8
0
  6
Continuous
 62
     7
370
     0
100
AcDbLine
 10
84.4344122718
 20
188.4111327669
 30
0.0
 11
84.4344122718
 21
188.6269611856
 31
0.0
  0
SPLINE
  5
1A0
330
1F
100
AcDbEntity
  8
0
  6
Continuous
 62
     7
370
     0
100
AcDbSpline
210
0.0
220
0.0
230
1.0
 70
     8
 71
     3
 72
     8
 73
     4
 74
     0
 42
0.00000001
 43
0.00000001
 12
1.0
 22
0.0
 32
0.0
 13
1.0
 23
0.0
 33
0.0
 40
0.0
 40
0.0
 40
0.0
 40
0.0
 40
1.0
 40
1.0
 40
1.0
 40
1.0
 10
83.43441157061564
 20
188.3397554496683
 30
0.0
 10
83.76777113378498
 20
188.3635186507719
 30
0.0
 10
84.10110712206716
 20
188.3873082132376
 30
0.0
 10
84.43441157061565
 20
188.4111322670432
 30
0.0
  0
LINE
  5
1A1
330
1F
100
AcDbEntity
  8
0
  6
Continuous
 62
     7
370
     0
100
AcDbLine
 10
84.4344122718
 20
188.4111327669
 30
0.0
 11
84.4344122718
 21
186.9012334934
 31
0.0
  0
LINE
  5
1A2
330
1F
100
AcDbEntity
  8
0
  6
Continuous
 62
     7
370
     0
100
AcDbLine
 10
84.4344122718
 20
188.6269611856
 30
0.0
 11
84.4344122718
 21
189.3707973501
 31
0.0
  0
LINE
  5
1A3
330
1F
100
AcDbEntity
  8
0
  6
Continuous
 62
     7
370
     0
100
AcDbLine
 10
84.4344122718
 20
192.4012334636
 30
0.0
 11
84.4344122718
 21
192.3868985465
 31
0.0
  0
SPLINE
  5
1A4
330
1F
100
AcDbEntity
  8
0
  6
Continuous
 62
     7
370
     0
100
AcDbSpline
210
0.0
220
0.0
230
1.0
 70
     8
 71
     3
 72
    11
 73
     7
 74
     0
 42
0.00000001
 43
0.00000001
 12
1.0
 22
0.0
 32
0.0
 13
1.0
 23
0.0
 33
0.0
 40
0.004199693779034
 40
0.004199693779034
 40
0.004199693779034
 40
0.004199693779034
 40
0.0045714279294727
 40
0.0045714279294727
 40
0.0045714279294727
 40
0.0052314151081104
 40
0.0052314151081104
 40
0.0052314151081104
 40
0.0052314151081104
 10
84.43441157061565
 20
192.38689777646
 30
0.0
 10
84.31432031028187
 20
192.4161979759903
 30
0.0
 10
84.19422497146067
 20
192.4454827840656
 30
0.0
 10
84.0741259469459
 20
192.47475366071
 30
0.0
 10
83.86089881408736
 20
192.5267219854184
 30
0.0
 10
83.64766007836278
 20
192.5786464802234
 30
0.0
 10
83.43441157061565
 20
192.630533968692
 30
0.0
  0
LINE
  5
1A5
330
1F
100
AcDbEntity
  8
0
  6
Continuous
 62
     7
370
     0
100
AcDbLine
 10
84.4344122718
 20
192.105749025
 30
0.0
 11
84.4344122718
 21
192.3868985465
 31
0.0
  0
LINE
  5
1A6
330
1F
100
AcDbEntity
  8
0
  6
Continuous
 62
     7
370
     0
100
AcDbLine
 10
75.1344113062
 20
150.2187972507
 30
0.0
 11
75.1344113062
 21
140.65123476
 31
0.0
  0
LINE
  5
1A7
330
1F
100
AcDbEntity
  8
0
  6
Continuous
 62
     7
370
     0
100
AcDbLine
 10
75.1344113062
 20
150.6512345364
 30
0.0
 11
75.1344113062
 21
150.2187972507
 31
0.0
  0
LINE
  5
1A8
330
1F
100
AcDbEntity
  8
0
  6
Continuous
 62
     7
370
     0
100
AcDbLine
 10
76.7344123135
 20
150.2187972507
 30
0.0
 11
76.7344123135
 21
150.6512345364
 31
0.0
  0
LINE
  5
1A9
330
1F
100
AcDbEntity
  8
0
  6
Continuous
 62
     7
370
     0
100
AcDbLine
 10
76.7344123135
 20
140.65123476
 30
0.0
 11
76.7344123135
 21
150.2187972507
 31
0.0
  0
LINE
  5
1AA
330
1F
100
AcDbEntity
  8
0
  6
Continuous
 62
     7
370
     0
100
AcDbLine
 10
74.9344116459
 20
150.0360941133
 30
0.0
 11
74.9344116459
 21
150.4512348762
 31
0.0
  0
LINE
  5
1AB
330
1F
100
AcDbEntity
  8
0
  6
Continuous
 62
     7
370
     0
100
AcDbLine
 10
74.9344116459
 20
140.8512344202
 30
0.0
 11
74.9344116459
 21
150.0360941133
 31
0.0
  0
LINE
  5
1AC
330
1F
100
AcDbEntity
  8
0
  6
Continuous
 62
     7
370
     0
100
AcDbLine
 10
76.9344119738
 20
150.0360941133
 30
0.0
 11
76.9344119738
 21
140.8512344202
 31
0.0
  0
LINE
  5
1AD
330
1F
100
AcDbEntity
  8
0
  6
Continuous
 62
     7
370
     0
100
AcDbLine
 10
76.9344119738
 20
150.4512348762
 30
0.0
 11
76.9344119738
 21
150.0360941133
 31
0.0
  0
LINE
  5
1AE
330
1F
100
AcDbEntity
  8
0
  6
Continuous
 62
     7
370
     0
100
AcDbLine
 10
83.4344121079
 20
148.6512342086
 30
0.0
 11
83.4344121079
 21
148.5568465283
 31
0.0
  0
LINE
  5
1AF
330
1F
100
AcDbEntity
  8
0
  6
Continuous
 62
     7
370
     0
100
AcDbLine
 10
83.4344121079
 20
148.5568465283
 30
0.0
 11
83.4344121079
 21
148.1500355145
 31
0.0
  0
LINE
  5
1B0
330
1F
100
AcDbEntity
  8
0
  6
Continuous
 62
     7
370
     0
100
AcDbLine
 10
83.4344121079
 20
148.1500355145
 30
0.0
 11
83.4344121079
 21
144.9046296617
 31
0.0
  0
LINE
  5
1B1
330
1F
100
AcDbEntity
  8
0
  6
Continuous
 62
     7
370
     0
100
AcDbLine
 10
83.4344121079
 20
143.9911158374
 30
0.0
 11
83.4344121079
 21
144.9046296617
 31
0.0
  0
LINE
  5
1B2
330
1F
100
AcDbEntity
  8
0
  6
Continuous
 62
     7
370
     0
100
AcDbLine
 10
83.4344121079
 20
143.9911158374
 30
0.0
 11
83.4344121079
 21
142.6512350878
 31
0.0
  0
SPLINE
  5
1B3
330
1F
100
AcDbEntity
  8
0
  6
Continuous
 62
     7
370
     0
100
AcDbSpline
210
0.0
220
0.0
230
1.0
 70
     8
 71
     3
 72
     8
 73
     4
 74
     0
 42
0.00000001
 43
0.00000001
 12
1.0
 22
0.0
 32
0.0
 13
1.0
 23
0.0
 33
0.0
 40
0.0
 40
0.0
 40
0.0
 40
0.0
 40
1.0
 40
1.0
 40
1.0
 40
1.0
 10
83.43441157061567
 20
148.1500357246576
 30
0.0
 10
83.76777110645187
 20
148.0728237506134
 30
0.0
 10
84.10110708482885
 20
147.995526118567
 30
0.0
 10
84.43441157061565
 20
147.9181164054404
 30
0.0
  0
LINE
  5
1B4
330
1F
100
AcDbEntity
  8
0
  6
Continuous
 62
     7
370
     0
100
AcDbLine
 10
84.4344122718
 20
147.9181157043
 30
0.0
 11
84.4344122718
 21
145.0079077473
 31
0.0
  0
SPLINE
  5
1B5
330
1F
100
AcDbEntity
  8
0
  6
Continuous
 62
     7
370
     0
100
AcDbSpline
210
0.0
220
0.0
230
1.0
 70
     8
 71
     3
 72
    11
 73
     7
 74
     0
 42
0.00000001
 43
0.00000001
 12
1.0
 22
0.0
 32
0.0
 13
1.0
 23
0.0
 33
0.0
 40
0.0041333666424306
 40
0.0041333666424306
 40
0.0041333666424306
 40
0.0041333666424306
 40
0.0046138376121394
 40
0.0046138376121394
 40
0.0046138376121394
 40
0.0051650880369003
 40
0.0051650880369003
 40
0.0051650880369003
 40
0.0051650880369003
 10
84.43441157061565
 20
145.0079085898798
 30
0.0
 10
84.27919215287461
 20
144.9918547870511
 30
0.0
 10
84.12396592603358
 20
144.9758118765701
 30
0.0
 10
83.96873372191351
 20
144.9597785473704
 30
0.0
 10
83.79063386098555
 20
144.9413833070473
 30
0.0
 10
83.61252612844395
 20
144.9230006759218
 30
0.0
 10
83.43441157061565
 20
144.9046290004263
 30
0.0
  0
LINE
  5
1B6
330
1F
100
AcDbEntity
  8
0
  6
Continuous
 62
     7
370
     0
100
AcDbLine
 10
84.4344122718
 20
144.4066924593
 30
0.0
 11
83.4344121079
 21
144.4066924593
 31
0.0
  0
LINE
  5
1B7
330
1F
100
AcDbEntity
  8
0
  6
Continuous
 62
     7
370
     0
100
AcDbLine
 10
84.4344122718
 20
144.0943957856
 30
0.0
 11
84.4344122718
 21
144.4066924593
 31
0.0
  0
SPLINE
  5
1B8
330
1F
100
AcDbEntity
  8
0
  6
Continuous
 62
     7
370
     0
100
AcDbSpline
210
0.0
220
0.0
230
1.0
 70
     8
 71
     3
 72
     8
 73
     4
 74
     0
 42
0.00000001
 43
0.00000001
 12
1.0
 22
0.0
 32
0.0
 13
1.0
 23
0.0
 33
0.0
 40
0.0
 40
0.0
 40
0.0
 40
0.0
 40
1.0
 40
1.0
 40
1.0
 40
1.0
 10
83.43441157061564
 20
143.9911164120634
 30
0.0
 10
83.76777113378498
 20
144.0255008767166
 30
0.0
 10
84.10110712206716
 20
144.0599234852764
 30
0.0
 10
84.43441157061565
 20
144.0943960015169
 30
0.0
  0
LINE
  5
1B9
330
1F
100
AcDbEntity
  8
0
  6
Continuous
 62
     7
370
     0
100
AcDbLine
 10
84.4344122718
 20
144.0943957856
 30
0.0
 11
84.4344122718
 21
142.9012337318
 31
0.0
  0
LINE
  5
1BA
330
1F
100
AcDbEntity
  8
0
  6
Continuous
 62
     7
370
     0
100
AcDbLine
 10
84.4344122718
 20
144.4066924593
 30
0.0
 11
84.4344122718
 21
145.0079077473
 31
0.0
  0
LINE
  5
1BB
330
1F
100
AcDbEntity
  8
0
  6
Continuous
 62
     7
370
     0
100
AcDbLine
 10
84.4344122718
 20
148.401233702
 30
0.0
 11
84.4344122718
 21
148.3249267182
 31
0.0
  0
SPLINE
  5
1BC
330
1F
100
AcDbEntity
  8
0
  6
Continuous
 62
     7
370
     0
100
AcDbSpline
210
0.0
220
0.0
230
1.0
 70
     8
 71
     3
 72
    11
 73
     7
 74
     0
 42
0.00000001
 43
0.00000001
 12
1.0
 22
0.0
 32
0.0
 13
1.0
 23
0.0
 33
0.0
 40
0.004199693779034
 40
0.004199693779034
 40
0.004199693779034
 40
0.004199693779034
 40
0.0045714279294727
 40
0.0045714279294727
 40
0.0045714279294727
 40
0.0052314151081104
 40
0.0052314151081104
 40
0.0052314151081104
 40
0.0052314151081104
 10
84.43441157061565
 20
148.3249268661005
 30
0.0
 10
84.31432031028189
 20
148.3528179699046
 30
0.0
 10
84.19422497146067
 20
148.3806944224547
 30
0.0
 10
84.07412594694591
 20
148.4085576135598
 30
0.0
 10
83.86089881408736
 20
148.4580266943922
 30
0.0
 10
83.64766007836278
 20
148.5074540531748
 30
0.0
 10
83.43441157061565
 20
148.5568461853177
 30
0.0
  0
LINE
  5
1BD
330
1F
100
AcDbEntity
  8
0
  6
Continuous
 62
     7
370
     0
100
AcDbLine
 10
84.4344122718
 20
147.9181157043
 30
0.0
 11
84.4344122718
 21
148.3249267182
 31
0.0
  0
LINE
  5
1BE
330
1F
100
AcDbEntity
  8
0
  6
Continuous
 62
     7
370
     0
100
AcDbLine
 10
75.1344113062
 20
119.1605416676
 30
0.0
 11
75.1344113062
 21
114.6512342235
 31
0.0
  0
LINE
  5
1BF
330
1F
100
AcDbEntity
  8
0
  6
Continuous
 62
     7
370
     0
100
AcDbLine
 10
75.1344113062
 20
124.6512358627
 30
0.0
 11
75.1344113062
 21
119.1605416676
 31
0.0
  0
LINE
  5
1C0
330
1F
100
AcDbEntity
  8
0
  6
Continuous
 62
     7
370
     0
100
AcDbLine
 10
76.7344123135
 20
119.1605416676
 30
0.0
 11
76.7344123135
 21
124.6512358627
 31
0.0
  0
LINE
  5
1C1
330
1F
100
AcDbEntity
  8
0
  6
Continuous
 62
     7
370
     0
100
AcDbLine
 10
76.7344123135
 20
114.6512342235
 30
0.0
 11
76.7344123135
 21
119.1605416676
 31
0.0
  0
LINE
  5
1C2
330
1F
100
AcDbEntity
  8
0
  6
Continuous
 62
     7
370
     0
100
AcDbLine
 10
74.9344116459
 20
119.1801664969
 30
0.0
 11
74.9344116459
 21
124.4512324771
 31
0.0
  0
LINE
  5
1C3
330
1F
100
AcDbEntity
  8
0
  6
Continuous
 62
     7
370
     0
100
AcDbLine
 10
74.9344116459
 20
114.8512338838
 30
0.0
 11
74.9344116459
 21
119.1801664969
 31
0.0
  0
LINE
  5
1C4
330
1F
100
AcDbEntity
  8
0
  6
Continuous
 62
     7
370
     0
100
AcDbLine
 10
76.9344119738
 20
119.1801664969
 30
0.0
 11
76.9344119738
 21
114.8512338838
 31
0.0
  0
LINE
  5
1C5
330
1F
100
AcDbEntity
  8
0
  6
Continuous
 62
     7
370
     0
100
AcDbLine
 10
76.9344119738
 20
124.4512324771
 30
0.0
 11
76.9344119738
 21
119.1801664969
 31
0.0
  0
LINE
  5
1C6
330
1F
100
AcDbEntity
  8
0
  6
Continuous
 62
     7
370
     0
100
AcDbLine
 10
83.4344121079
 20
122.5459253034
 30
0.0
 11
83.4344121079
 21
122.6512355348
 31
0.0
  0
LINE
  5
1C7
330
1F
100
AcDbEntity
  8
0
  6
Continuous
 62
     7
370
     0
100
AcDbLine
 10
83.4344121079
 20
122.5459253034
 30
0.0
 11
83.4344121079
 21
119.8585232338
 31
0.0
  0
LINE
  5
1C8
330
1F
100
AcDbEntity
  8
0
  6
Continuous
 62
     7
370
     0
100
AcDbLine
 10
83.4344121079
 20
119.8585232338
 30
0.0
 11
83.4344121079
 21
118.8633491835
 31
0.0
  0
LINE
  5
1C9
330
1F
100
AcDbEntity
  8
0
  6
Continuous
 62
     7
370
     0
100
AcDbLine
 10
83.4344121079
 20
118.8633491835
 30
0.0
 11
83.4344121079
 21
116.6584057352
 31
0.0
  0
LINE
  5
1CA
330
1F
100
AcDbEntity
  8
0
  6
Continuous
 62
     7
370
     0
100
AcDbLine
 10
83.4344121079
 20
116.6512345513
 30
0.0
 11
83.4344121079
 21
116.6584057352
 31
0.0
  0
LINE
  5
1CB
330
1F
100
AcDbEntity
  8
0
  6
Continuous
 62
     7
370
     0
100
AcDbLine
 10
84.4344122718
 20
122.2932761153
 30
0.0
 11
84.4344122718
 21
119.8834379753
 31
0.0
  0
SPLINE
  5
1CC
330
1F
100
AcDbEntity
  8
0
  6
Continuous
 62
     7
370
     0
100
AcDbSpline
210
0.0
220
0.0
230
1.0
 70
     8
 71
     3
 72
    11
 73
     7
 74
     0
 42
0.00000001
 43
0.00000001
 12
1.0
 22
0.0
 32
0.0
 13
1.0
 23
0.0
 33
0.0
 40
0.0041996937790339
 40
0.0041996937790339
 40
0.0041996937790339
 40
0.0041996937790339
 40
0.0045714279294727
 40
0.0045714279294727
 40
0.0045714279294727
 40
0.0052314151081104
 40
0.0052314151081104
 40
0.0052314151081104
 40
0.0052314151081104
 10
84.43441157061565
 20
119.8834371536846
 30
0.0
 10
84.31432031028189
 20
119.8804408065487
 30
0.0
 10
84.19422497146068
 20
119.8774460334001
 30
0.0
 10
84.07412594694591
 20
119.8744526849313
 30
0.0
 10
83.86089881408738
 20
119.8691382111941
 30
0.0
 10
83.64766007836278
 20
119.8638282196655
 30
0.0
 10
83.43441157061565
 20
119.8585220125422
 30
0.0
  0
SPLINE
  5
1CD
330
1F
100
AcDbEntity
  8
0
  6
Continuous
 62
     7
370
     0
100
AcDbSpline
210
0.0
220
0.0
230
1.0
 70
     8
 71
     3
 72
     8
 73
     4
 74
     0
 42
0.00000001
 43
0.00000001
 12
1.0
 22
0.0
 32
0.0
 13
1.0
 23
0.0
 33
0.0
 40
0.0
 40
0.0
 40
0.0
 40
0.0
 40
1.0
 40
1.0
 40
1.0
 40
1.0
 10
83.43441157061565
 20
122.545925492532
 30
0.0
 10
83.76777113378499
 20
122.4618114273039
 30
0.0
 10
84.10110712206718
 20
122.3776040513589
 30
0.0
 10
84.43441157061567
 20
122.2932745871988
 30
0.0
  0
SPLINE
  5
1CE
330
1F
100
AcDbEntity
  8
0
  6
Continuous
 62
     7
370
     0
100
AcDbSpline
210
0.0
220
0.0
230
1.0
 70
     8
 71
     3
 72
     8
 73
     4
 74
     0
 42
0.00000001
 43
0.00000001
 12
1.0
 22
0.0
 32
0.0
 13
1.0
 23
0.0
 33
0.0
 40
0.0
 40
0.0
 40
0.0
 40
0.0
 40
1.0
 40
1.0
 40
1.0
 40
1.0
 10
83.43441157061567
 20
118.8633492806532
 30
0.0
 10
83.76777110645187
 20
118.8716441792312
 30
0.0
 10
84.10110708482885
 20
118.8799482800665
 30
0.0
 10
84.43441157061565
 20
118.8882644217957
 30
0.0
  0
LINE
  5
1CF
330
1F
100
AcDbEntity
  8
0
  6
Continuous
 62
     7
370
     0
100
AcDbLine
 10
84.4344122718
 20
118.888263925
 30
0.0
 11
84.4344122718
 21
116.9110549232
 31
0.0
  0
SPLINE
  5
1D0
330
1F
100
AcDbEntity
  8
0
  6
Continuous
 62
     7
370
     0
100
AcDbSpline
210
0.0
220
0.0
230
1.0
 70
     8
 71
     3
 72
    11
 73
     7
 74
     0
 42
0.00000001
 43
0.00000001
 12
1.0
 22
0.0
 32
0.0
 13
1.0
 23
0.0
 33
0.0
 40
0.0041333666424306
 40
0.0041333666424306
 40
0.0041333666424306
 40
0.0041333666424306
 40
0.0046138376121394
 40
0.0046138376121394
 40
0.0046138376121394
 40
0.0051650880369003
 40
0.0051650880369003
 40
0.0051650880369003
 40
0.0051650880369003
 10
84.43441157061565
 20
116.9110551180452
 30
0.0
 10
84.27919215287463
 20
116.8717830039694
 30
0.0
 10
84.12396592603358
 20
116.8325375356377
 30
0.0
 10
83.96873372191351
 20
116.7933155058133
 30
0.0
 10
83.79063386098555
 20
116.7483155775017
 30
0.0
 10
83.61252612844395
 20
116.7033464948316
 30
0.0
 10
83.43441157061565
 20
116.6584042127119
 30
0.0
  0
LINE
  5
1D1
330
1F
100
AcDbEntity
  8
0
  6
Continuous
 62
     7
370
     0
100
AcDbLine
 10
84.4344122718
 20
118.963604196
 30
0.0
 11
83.4344121079
 21
118.963604196
 31
0.0
  0
LINE
  5
1D2
330
1F
100
AcDbEntity
  8
0
  6
Continuous
 62
     7
370
     0
100
AcDbLine
 10
84.4344122718
 20
118.888263925
 30
0.0
 11
84.4344122718
 21
118.963604196
 31
0.0
  0
LINE
  5
1D3
330
1F
100
AcDbEntity
  8
0
  6
Continuous
 62
     7
370
     0
100
AcDbLine
 10
83.4344121079
 20
119.3436918399
 30
0.0
 11
84.4344122718
 21
119.3436918399
 31
0.0
  0
LINE
  5
1D4
330
1F
100
AcDbEntity
  8
0
  6
Continuous
 62
     7
370
     0
100
AcDbLine
 10
84.4344122718
 20
118.963604196
 30
0.0
 11
84.4344122718
 21
119.3436918399
 31
0.0
  0
LINE
  5
1D5
330
1F
100
AcDbEntity
  8
0
  6
Continuous
 62
     7
370
     0
100
AcDbLine
 10
84.4344122718
 20
122.2932761153
 30
0.0
 11
84.4344122718
 21
122.391415163
 31
0.0
  0
SPLINE
  5
1D6
330
1F
100
AcDbEntity
  8
0
  6
Continuous
 62
     7
370
     0
100
AcDbSpline
210
0.0
220
0.0
230
1.0
 70
     8
 71
     3
 72
    11
 73
     7
 74
     0
 42
0.00000001
 43
0.00000001
 12
1.0
 22
0.0
 32
0.0
 13
1.0
 23
0.0
 33
0.0
 40
0.0041333666424306
 40
0.0041333666424306
 40
0.0041333666424306
 40
0.0041333666424306
 40
0.0046138376121395
 40
0.0046138376121395
 40
0.0046138376121395
 40
0.0051650880369003
 40
0.0051650880369003
 40
0.0051650880369003
 40
0.0051650880369003
 10
84.43441157061564
 20
122.3914134363093
 30
0.0
 10
84.2791921528746
 20
122.430685550385
 30
0.0
 10
84.12396592603358
 20
122.4699310187167
 30
0.0
 10
83.96873372191351
 20
122.5091530485412
 30
0.0
 10
83.79063386098557
 20
122.5541529768528
 30
0.0
 10
83.61252612844395
 20
122.5991220595228
 30
0.0
 10
83.43441157061565
 20
122.6440643416425
 30
0.0
  0
SPLINE
  5
1D7
330
1F
100
AcDbEntity
  8
0
  6
Continuous
 62
     7
370
     0
100
AcDbSpline
210
0.0
220
0.0
230
1.0
 70
     8
 71
     3
 72
    11
 73
     7
 74
     0
 42
0.00000001
 43
0.00000001
 12
1.0
 22
0.0
 32
0.0
 13
1.0
 23
0.0
 33
0.0
 40
0.004199693779034
 40
0.004199693779034
 40
0.004199693779034
 40
0.004199693779034
 40
0.0045714279294727
 40
0.0045714279294727
 40
0.0045714279294727
 40
0.0052314151081104
 40
0.0052314151081104
 40
0.0052314151081104
 40
0.0052314151081104
 10
84.43441157061564
 20
119.4190314006699
 30
0.0
 10
84.31432031028186
 20
119.4220277478058
 30
0.0
 10
84.19422497146067
 20
119.4250225209544
 30
0.0
 10
84.07412594694591
 20
119.4280158694232
 30
0.0
 10
83.86089881408738
 20
119.4333303431604
 30
0.0
 10
83.64766007836276
 20
119.438640334689
 30
0.0
 10
83.43441157061565
 20
119.4439465418123
 30
0.0
  0
LINE
  5
1D8
330
1F
100
AcDbEntity
  8
0
  6
Continuous
 62
     7
370
     0
100
AcDbLine
 10
84.4344122718
 20
119.3436918399
 30
0.0
 11
84.4344122718
 21
119.4190321108
 31
0.0
  0
LINE
  5
1D9
330
1F
100
AcDbEntity
  8
0
  6
Continuous
 62
     7
370
     0
100
AcDbLine
 10
75.1344113062
 20
172.357978168
 30
0.0
 11
75.1344113062
 21
162.6512341751
 31
0.0
  0
LINE
  5
1DA
330
1F
100
AcDbEntity
  8
0
  6
Continuous
 62
     7
370
     0
100
AcDbLine
 10
75.1344113062
 20
172.6512341844
 30
0.0
 11
75.1344113062
 21
172.357978168
 31
0.0
  0
LINE
  5
1DB
330
1F
100
AcDbEntity
  8
0
  6
Continuous
 62
     7
370
     0
100
AcDbLine
 10
76.7344123135
 20
172.357978168
 30
0.0
 11
76.7344123135
 21
172.6512341844
 31
0.0
  0
LINE
  5
1DC
330
1F
100
AcDbEntity
  8
0
  6
Continuous
 62
     7
370
     0
100
AcDbLine
 10
76.7344123135
 20
162.6512341751
 30
0.0
 11
76.7344123135
 21
172.357978168
 31
0.0
  0
LINE
  5
1DD
330
1F
100
AcDbEntity
  8
0
  6
Continuous
 62
     7
370
     0
100
AcDbLine
 10
74.9344116459
 20
172.1697085155
 30
0.0
 11
74.9344116459
 21
172.4512342913
 31
0.0
  0
LINE
  5
1DE
330
1F
100
AcDbEntity
  8
0
  6
Continuous
 62
     7
370
     0
100
AcDbLine
 10
74.9344116459
 20
162.851234301
 30
0.0
 11
74.9344116459
 21
172.1697085155
 31
0.0
  0
LINE
  5
1DF
330
1F
100
AcDbEntity
  8
0
  6
Continuous
 62
     7
370
     0
100
AcDbLine
 10
76.9344119738
 20
172.1697085155
 30
0.0
 11
76.9344119738
 21
162.851234301
 31
0.0
  0
LINE
  5
1E0
330
1F
100
AcDbEntity
  8
0
  6
Continuous
 62
     7
370
     0
100
AcDbLine
 10
76.9344119738
 20
172.4512342913
 30
0.0
 11
76.9344119738
 21
172.1697085155
 31
0.0
  0
LINE
  5
1E1
330
1F
100
AcDbEntity
  8
0
  6
Continuous
 62
     7
370
     0
100
AcDbLine
 10
83.4344121079
 20
170.651234264
 30
0.0
 11
83.4344121079
 21
170.6044991003
 31
0.0
  0
LINE
  5
1E2
330
1F
100
AcDbEntity
  8
0
  6
Continuous
 62
     7
370
     0
100
AcDbLine
 10
83.4344121079
 20
170.6044991003
 30
0.0
 11
83.4344121079
 21
170.2670639567
 31
0.0
  0
LINE
  5
1E3
330
1F
100
AcDbEntity
  8
0
  6
Continuous
 62
     7
370
     0
100
AcDbLine
 10
83.4344121079
 20
170.2670639567
 30
0.0
 11
83.4344121079
 21
167.1237620609
 31
0.0
  0
LINE
  5
1E4
330
1F
100
AcDbEntity
  8
0
  6
Continuous
 62
     7
370
     0
100
AcDbLine
 10
83.4344121079
 20
166.1824131003
 30
0.0
 11
83.4344121079
 21
167.1237620609
 31
0.0
  0
LINE
  5
1E5
330
1F
100
AcDbEntity
  8
0
  6
Continuous
 62
     7
370
     0
100
AcDbLine
 10
83.4344121079
 20
166.1824131003
 30
0.0
 11
83.4344121079
 21
164.6512345029
 31
0.0
  0
SPLINE
  5
1E6
330
1F
100
AcDbEntity
  8
0
  6
Continuous
 62
     7
370
     0
100
AcDbSpline
210
0.0
220
0.0
230
1.0
 70
     8
 71
     3
 72
     8
 73
     4
 74
     0
 42
0.00000001
 43
0.00000001
 12
1.0
 22
0.0
 32
0.0
 13
1.0
 23
0.0
 33
0.0
 40
0.0
 40
0.0
 40
0.0
 40
0.0
 40
1.0
 40
1.0
 40
1.0
 40
1.0
 10
83.43441157061565
 20
170.2670639534674
 30
0.0
 10
83.76777110645187
 20
170.1874992068407
 30
0.0
 10
84.10110708482885
 20
170.1078461920751
 30
0.0
 10
84.43441157061565
 20
170.0280776809392
 30
0.0
  0
LINE
  5
1E7
330
1F
100
AcDbEntity
  8
0
  6
Continuous
 62
     7
370
     0
100
AcDbLine
 10
84.4344122718
 20
170.0280776855
 30
0.0
 11
84.4344122718
 21
167.2094288366
 31
0.0
  0
SPLINE
  5
1E8
330
1F
100
AcDbEntity
  8
0
  6
Continuous
 62
     7
370
     0
100
AcDbSpline
210
0.0
220
0.0
230
1.0
 70
     8
 71
     3
 72
    11
 73
     7
 74
     0
 42
0.00000001
 43
0.00000001
 12
1.0
 22
0.0
 32
0.0
 13
1.0
 23
0.0
 33
0.0
 40
0.0041333666424306
 40
0.0041333666424306
 40
0.0041333666424306
 40
0.0041333666424306
 40
0.0046138376121394
 40
0.0046138376121394
 40
0.0046138376121394
 40
0.0051650880369003
 40
0.0051650880369003
 40
0.0051650880369003
 40
0.0051650880369003
 10
84.43441157061565
 20
167.2094288967004
 30
0.0
 10
84.27919215287461
 20
167.196112825195
 30
0.0
 10
84.12396592603358
 20
167.1828057885134
 30
0.0
 10
83.96873372191351
 20
167.1695066991717
 30
0.0
 10
83.79063386098555
 20
167.15424848664
 30
0.0
 10
83.61252612844395
 20
167.1390007329994
 30
0.0
 10
83.43441157061565
 20
167.1237620666733
 30
0.0
  0
LINE
  5
1E9
330
1F
100
AcDbEntity
  8
0
  6
Continuous
 62
     7
370
     0
100
AcDbLine
 10
84.4344122718
 20
166.5271195667
 30
0.0
 11
83.4344121079
 21
166.5271195667
 31
0.0
  0
LINE
  5
1EA
330
1F
100
AcDbEntity
  8
0
  6
Continuous
 62
     7
370
     0
100
AcDbLine
 10
84.4344122718
 20
166.2680803416
 30
0.0
 11
84.4344122718
 21
166.5271195667
 31
0.0
  0
SPLINE
  5
1EB
330
1F
100
AcDbEntity
  8
0
  6
Continuous
 62
     7
370
     0
100
AcDbSpline
210
0.0
220
0.0
230
1.0
 70
     8
 71
     3
 72
     8
 73
     4
 74
     0
 42
0.00000001
 43
0.00000001
 12
1.0
 22
0.0
 32
0.0
 13
1.0
 23
0.0
 33
0.0
 40
0.0
 40
0.0
 40
0.0
 40
0.0
 40
1.0
 40
1.0
 40
1.0
 40
1.0
 10
83.43441157061564
 20
166.1824132858241
 30
0.0
 10
83.76777113378498
 20
166.2109340042411
 30
0.0
 10
84.10110712206716
 20
166.2394863617028
 30
0.0
 10
84.43441157061565
 20
166.2680801158513
 30
0.0
  0
LINE
  5
1EC
330
1F
100
AcDbEntity
  8
0
  6
Continuous
 62
     7
370
     0
100
AcDbLine
 10
84.4344122718
 20
166.2680803416
 30
0.0
 11
84.4344122718
 21
164.9012340782
 31
0.0
  0
LINE
  5
1ED
330
1F
100
AcDbEntity
  8
0
  6
Continuous
 62
     7
370
     0
100
AcDbLine
 10
84.4344122718
 20
166.5271195667
 30
0.0
 11
84.4344122718
 21
167.2094288366
 31
0.0
  0
LINE
  5
1EE
330
1F
100
AcDbEntity
  8
0
  6
Continuous
 62
     7
370
     0
100
AcDbLine
 10
84.4344122718
 20
170.4012342813
 30
0.0
 11
84.4344122718
 21
170.3655128218
 31
0.0
  0
SPLINE
  5
1EF
330
1F
100
AcDbEntity
  8
0
  6
Continuous
 62
     7
370
     0
100
AcDbSpline
210
0.0
220
0.0
230
1.0
 70
     8
 71
     3
 72
    11
 73
     7
 74
     0
 42
0.00000001
 43
0.00000001
 12
1.0
 22
0.0
 32
0.0
 13
1.0
 23
0.0
 33
0.0
 40
0.004199693779034
 40
0.004199693779034
 40
0.004199693779034
 40
0.004199693779034
 40
0.0045714279294727
 40
0.0045714279294727
 40
0.0045714279294727
 40
0.0052314151081104
 40
0.0052314151081104
 40
0.0052314151081104
 40
0.0052314151081104
 10
84.43441157061565
 20
170.3655128195862
 30
0.0
 10
84.31432031028187
 20
170.3942538100192
 30
0.0
 10
84.19422497146067
 20
170.422979702751
 30
0.0
 10
84.07412594694591
 20
170.4516919299402
 30
0.0
 10
83.86089881408736
 20
170.5026684129406
 30
0.0
 10
83.64766007836278
 20
170.5536019025535
 30
0.0
 10
83.43441157061565
 20
170.6044990921145
 30
0.0
  0
LINE
  5
1F0
330
1F
100
AcDbEntity
  8
0
  6
Continuous
 62
     7
370
     0
100
AcDbLine
 10
84.4344122718
 20
170.0280776855
 30
0.0
 11
84.4344122718
 21
170.3655128218
 31
0.0
  0
LINE
  5
1F1
330
1F
100
AcDbEntity
  8
0
  6
Continuous
 62
     7
370
     0
100
AcDbLine
 10
81.9344109307
 20
211.1512360713
 30
0.0
 11
81.9344109307
 21
220.1512356838
 31
0.0
  0
LINE
  5
1F2
330
1F
100
AcDbEntity
  8
0
  6
Continuous
 62
     7
370
     0
100
AcDbLine
 10
82.9344110946
 20
212.1512343725
 30
0.0
 11
82.9344110946
 21
219.1512336573
 31
0.0
  0
LINE
  5
1F3
330
1F
100
AcDbEntity
  8
0
  6
Continuous
 62
     7
370
     0
100
AcDbLine
 10
81.9344109307
 20
185.1512346035
 30
0.0
 11
81.9344109307
 21
194.1512351474
 31
0.0
  0
LINE
  5
1F4
330
1F
100
AcDbEntity
  8
0
  6
Continuous
 62
     7
370
     0
100
AcDbLine
 10
82.9344110946
 20
186.1512338361
 30
0.0
 11
82.9344110946
 21
193.1512349835
 31
0.0
  0
LINE
  5
1F5
330
1F
100
AcDbEntity
  8
0
  6
Continuous
 62
     7
370
     0
100
AcDbLine
 10
81.9344109307
 20
141.1512339106
 30
0.0
 11
81.9344109307
 21
150.1512335232
 31
0.0
  0
LINE
  5
1F6
330
1F
100
AcDbEntity
  8
0
  6
Continuous
 62
     7
370
     0
100
AcDbLine
 10
82.9344110946
 20
142.1512340745
 30
0.0
 11
82.9344110946
 21
149.1512333593
 31
0.0
  0
LINE
  5
1F7
330
1F
100
AcDbEntity
  8
0
  6
Continuous
 62
     7
370
     0
100
AcDbLine
 10
81.9344109307
 20
115.1512352368
 30
0.0
 11
81.9344109307
 21
124.1512348494
 31
0.0
  0
LINE
  5
1F8
330
1F
100
AcDbEntity
  8
0
  6
Continuous
 62
     7
370
     0
100
AcDbLine
 10
82.9344110946
 20
116.1512335381
 30
0.0
 11
82.9344110946
 21
123.1512328228
 31
0.0
  0
LINE
  5
1F9
330
1F
100
AcDbEntity
  8
0
  6
Continuous
 62
     7
370
     0
100
AcDbLine
 10
81.9344109307
 20
163.1512342571
 30
0.0
 11
81.9344109307
 21
172.1512343353
 31
0.0
  0
LINE
  5
1FA
330
1F
100
AcDbEntity
  8
0
  6
Continuous
 62
     7
370
     0
100
AcDbLine
 10
82.9344110946
 20
164.151234421
 30
0.0
 11
82.9344110946
 21
171.1512342878
 31
0.0
  0
LINE
  5
1FB
330
1F
100
AcDbEntity
  8
0
  6
Continuous
 62
     7
370
     0
100
AcDbLine
 10
74.4344124953
 20
222.6512332997
 30
0.0
 11
61.4344112958
 21
222.6512332997
 31
0.0
  0
LINE
  5
1FC
330
1F
100
AcDbEntity
  8
0
  6
Continuous
 62
     7
370
     0
100
AcDbLine
 10
74.4344124953
 20
222.6512332997
 30
0.0
 11
74.4344124953
 21
112.6512338957
 31
0.0
  0
LINE
  5
1FD
330
1F
100
AcDbEntity
  8
0
  6
Continuous
 62
     7
370
     0
100
AcDbLine
 10
74.4344124953
 20
112.6512338957
 30
0.0
 11
61.4344112958
 21
112.6512338957
 31
0.0
  0
CIRCLE
  5
1FE
330
1F
100
AcDbEntity
  8
0
  6
Continuous
 62
     7
370
     0
100
AcDbCircle
 10
67.9344115706
 20
167.6512342772
 30
0.0
 40
4.851513499999989
  0
CIRCLE
  5
1FF
330
1F
100
AcDbEntity
  8
0
  6
Continuous
 62
     7
370
     0
100
AcDbCircle
 10
67.9344115706
 20
145.6512342772
 30
0.0
 40
4.851513499999989
  0
CIRCLE
  5
200
330
1F
100
AcDbEntity
  8
0
  6
Continuous
 62
     7
370
     0
100
AcDbCircle
 10
67.9344115706
 20
189.6512342772
 30
0.0
 40
4.851513499999989
  0
CIRCLE
  5
201
330
1F
100
AcDbEntity
  8
0
  6
Continuous
 62
     7
370
     0
100
AcDbCircle
 10
67.9344115706
 20
119.6512342772
 30
0.0
 40
4.851513499999989
  0
CIRCLE
  5
202
330
1F
100
AcDbEntity
  8
0
  6
Continuous
 62
     7
370
     0
100
AcDbCircle
 10
67.9344115706
 20
215.6512342772
 30
0.0
 40
4.851513499999989
  0
CIRCLE
  5
203
330
1F
100
AcDbEntity
  8
0
  6
Continuous
 62
     7
370
     0
100
AcDbCircle
 10
67.9344115706
 20
132.6512342772
 30
0.0
 40
5.499999999999993
  0
CIRCLE
  5
204
330
1F
100
AcDbEntity
  8
0
  6
Continuous
 62
     7
370
     0
100
AcDbCircle
 10
67.9344115706
 20
202.6512342772
 30
0.0
 40
5.499999999999993
  0
LINE
  5
205
330
1F
100
AcDbEntity
  8
0
  6
Continuous
 62
     7
370
     0
100
AcDbLine
 10
61.4344112958
 20
222.6512332997
 30
0.0
 11
61.4344112958
 21
112.6512338957
 31
0.0
  0
CIRCLE
  5
206
330
1F
100
AcDbEntity
  8
0
  6
Continuous
 62
     7
370
     0
100
AcDbCircle
 10
67.9344115706
 20
215.6512342772
 30
0.0
 40
4.632997152542814
  0
CIRCLE
  5
207
330
1F
100
AcDbEntity
  8
0
  6
Continuous
 62
     7
370
     0
100
AcDbCircle
 10
67.9344115706
 20
189.6512342772
 30
0.0
 40
4.632997152542814
  0
CIRCLE
  5
208
330
1F
100
AcDbEntity
  8
0
  6
Continuous
 62
     7
370
     0
100
AcDbCircle
 10
67.9344115706
 20
167.6512342772
 30
0.0
 40
4.632997152542814
  0
CIRCLE
  5
209
330
1F
100
AcDbEntity
  8
0
  6
Continuous
 62
     7
370
     0
100
AcDbCircle
 10
67.9344115706
 20
145.6512342772
 30
0.0
 40
4.632997152542814
  0
CIRCLE
  5
20A
330
1F
100
AcDbEntity
  8
0
  6
Continuous
 62
     7
370
     0
100
AcDbCircle
 10
67.9344115706
 20
119.6512342772
 30
0.0
 40
4.632997152542814
  0
CIRCLE
  5
20B
330
1F
100
AcDbEntity
  8
0
  6
Continuous
 62
     7
370
     0
100
AcDbCircle
 10
67.9344115706
 20
215.6512342772
 30
0.0
 40
3.949999999999996
  0
CIRCLE
  5
20C
330
1F
100
AcDbEntity
  8
0
  6
Continuous
 62
     7
370
     0
100
AcDbCircle
 10
67.9344115706
 20
189.6512342772
 30
0.0
 40
3.949999999999996
  0
CIRCLE
  5
20D
330
1F
100
AcDbEntity
  8
0
  6
Continuous
 62
     7
370
     0
100
AcDbCircle
 10
67.9344115706
 20
167.6512342772
 30
0.0
 40
3.949999999999996
  0
CIRCLE
  5
20E
330
1F
100
AcDbEntity
  8
0
  6
Continuous
 62
     7
370
     0
100
AcDbCircle
 10
67.9344115706
 20
145.6512342772
 30
0.0
 40
3.949999999999996
  0
CIRCLE
  5
20F
330
1F
100
AcDbEntity
  8
0
  6
Continuous
 62
     7
370
     0
100
AcDbCircle
 10
67.9344115706
 20
119.6512342772
 30
0.0
 40
3.949999999999996
  0
CIRCLE
  5
210
330
1F
100
AcDbEntity
  8
0
  6
Continuous
 62
     7
370
     0
100
AcDbCircle
 10
67.9344115706
 20
202.6512342772
 30
0.0
 40
3.299999999999997
  0
CIRCLE
  5
211
330
1F
100
AcDbEntity
  8
0
  6
Continuous
 62
     7
370
     0
100
AcDbCircle
 10
67.9344115706
 20
132.6512342772
 30
0.0
 40
3.299999999999997
  0
CIRCLE
  5
212
330
1F
100
AcDbEntity
  8
0
  6
Continuous
 62
     7
370
     0
100
AcDbCircle
 10
67.9344115706
 20
215.6512342772
 30
0.0
 40
2.5
  0
CIRCLE
  5
213
330
1F
100
AcDbEntity
  8
0
  6
Continuous
 62
     7
370
     0
100
AcDbCircle
 10
67.9344115706
 20
189.6512342772
 30
0.0
 40
2.499999999999986
  0
CIRCLE
  5
214
330
1F
100
AcDbEntity
  8
0
  6
Continuous
 62
     7
370
     0
100
AcDbCircle
 10
67.9344115706
 20
167.6512342772
 30
0.0
 40
2.499999999999986
  0
CIRCLE
  5
215
330
1F
100
AcDbEntity
  8
0
  6
Continuous
 62
     7
370
     0
100
AcDbCircle
 10
67.9344115706
 20
145.6512342772
 30
0.0
 40
2.499999999999986
  0
CIRCLE
  5
216
330
1F
100
AcDbEntity
  8
0
  6
Continuous
 62
     7
370
     0
100
AcDbCircle
 10
67.9344115706
 20
119.6512342772
 30
0.0
 40
2.5
  0
LINE
  5
217
330
1F
100
AcDbEntity
  8
0
  6
Continuous
 62
     7
370
     0
100
AcDbLine
 10
66.934411266
 20
217.9425222417
 30
0.0
 11
68.9344115938
 21
217.9425222417
 31
0.0
  0
LINE
  5
218
330
1F
100
AcDbEntity
  8
0
  6
Continuous
 62
     7
370
     0
100
AcDbLine
 10
68.9344115938
 20
213.3599457881
 30
0.0
 11
66.934411266
 21
213.3599457881
 31
0.0
  0
LINE
  5
219
330
1F
100
AcDbEntity
  8
0
  6
Continuous
 62
     7
370
     0
100
AcDbLine
 10
66.934411266
 20
191.9425217053
 30
0.0
 11
68.9344115938
 21
191.9425217053
 31
0.0
  0
LINE
  5
21A
330
1F
100
AcDbEntity
  8
0
  6
Continuous
 62
     7
370
     0
100
AcDbLine
 10
68.9344115938
 20
187.3599471143
 30
0.0
 11
66.934411266
 21
187.3599471143
 31
0.0
  0
LINE
  5
21B
330
1F
100
AcDbEntity
  8
0
  6
Continuous
 62
     7
370
     0
100
AcDbLine
 10
66.934411266
 20
169.9425221156
 30
0.0
 11
68.9344115938
 21
169.9425221156
 31
0.0
  0
LINE
  5
21C
330
1F
100
AcDbEntity
  8
0
  6
Continuous
 62
     7
370
     0
100
AcDbLine
 10
68.9344115938
 20
165.3599463022
 30
0.0
 11
66.934411266
 21
165.3599463022
 31
0.0
  0
LINE
  5
21D
330
1F
100
AcDbEntity
  8
0
  6
Continuous
 62
     7
370
     0
100
AcDbLine
 10
66.934411266
 20
147.9425219437
 30
0.0
 11
68.9344115938
 21
147.9425219437
 31
0.0
  0
LINE
  5
21E
330
1F
100
AcDbEntity
  8
0
  6
Continuous
 62
     7
370
     0
100
AcDbLine
 10
68.9344115938
 20
143.3599473527
 30
0.0
 11
66.934411266
 21
143.3599473527
 31
0.0
  0
LINE
  5
21F
330
1F
100
AcDbEntity
  8
0
  6
Continuous
 62
     7
370
     0
100
AcDbLine
 10
66.934411266
 20
121.9425214073
 30
0.0
 11
68.9344115938
 21
121.9425214073
 31
0.0
  0
LINE
  5
220
330
1F
100
AcDbEntity
  8
0
  6
Continuous
 62
     7
370
     0
100
AcDbLine
 10
68.9344115938
 20
117.3599449536
 30
0.0
 11
66.934411266
 21
117.3599449536
 31
0.0
  0
DIMENSION
  5
221
330
1F
100
AcDbEntity
  8
0
  6
Continuous
 62
     7
370
     0
100
AcDbDimension
  2
_D_1
 10
61.4344115706
 20
238.6512592772
 30
0.0
 11
72.9344115706
 21
238.6512592772
 31
0.0
 70
   160
  1
<>
 71
     2
 42
-1.0
  3
SLDDIMSTYLE0
100
AcDbAlignedDimension
 13
84.4344115706
 23
218.2631619595
 33
0.0
 14
61.4344115706
 24
222.6512342772
 34
0.0
100
AcDbRotatedDimension
  0
DIMENSION
  5
22B
330
1F
100
AcDbEntity
  8
0
  6
Continuous
 62
     7
370
     0
100
AcDbDimension
  2
_D_2
 10
70.3601683206
 20
211.4497003394
 30
0.0
 11
46.0326813687
 21
240.5258420822
 31
0.0
 70
   163
  1
5-Rc1/8
 71
     1
 42
-1.0
  3
SLDDIMSTYLE1
100
AcDbDiametricDimension
 15
65.5086548206
 25
219.852768215
 35
0.0
 40
0.0
  0
LINE
  5
234
330
1F
100
AcDbEntity
  8
0
  6
Continuous
 62
     7
370
     0
100
AcDbLine
 10
144.3996925809
 20
91.993202864
 30
0.0
 11
144.1496930055
 21
92.993203028
 31
0.0
  0
LINE
  5
235
330
1F
100
AcDbEntity
  8
0
  6
Continuous
 62
     7
370
     0
100
AcDbLine
 10
138.649692104
 20
92.993203028
 30
0.0
 11
138.4787627466
 21
92.309481873
 31
0.0
  0
LINE
  5
236
330
1F
100
AcDbEntity
  8
0
  6
Continuous
 62
     7
370
     0
100
AcDbLine
 10
146.3996929087
 20
83.6932020624
 30
0.0
 11
146.3996929087
 21
85.2932030697
 31
0.0
  0
LINE
  5
237
330
1F
100
AcDbEntity
  8
0
  6
Continuous
 62
     7
370
     0
100
AcDbLine
 10
136.3996931322
 20
85.2932030697
 30
0.0
 11
136.3996931322
 21
83.6932020624
 31
0.0
  0
LINE
  5
238
330
1F
100
AcDbEntity
  8
0
  6
Continuous
 62
     7
370
     0
100
AcDbLine
 10
136.3996931322
 20
83.6932020624
 30
0.0
 11
136.5996927925
 21
83.4932024021
 31
0.0
  0
LINE
  5
239
330
1F
100
AcDbEntity
  8
0
  6
Continuous
 62
     7
370
     0
100
AcDbLine
 10
146.1996923171
 20
83.4932024021
 30
0.0
 11
146.3996929087
 21
83.6932020624
 31
0.0
  0
LINE
  5
23A
330
1F
100
AcDbEntity
  8
0
  6
Continuous
 62
     7
370
     0
100
AcDbLine
 10
146.3996929087
 20
85.2932030697
 30
0.0
 11
146.1996923171
 21
85.4932027299
 31
0.0
  0
LINE
  5
23B
330
1F
100
AcDbEntity
  8
0
  6
Continuous
 62
     7
370
     0
100
AcDbLine
 10
136.5996927925
 20
85.4932027299
 30
0.0
 11
136.3996931322
 21
85.2932030697
 31
0.0
  0
LINE
  5
23C
330
1F
100
AcDbEntity
  8
0
  6
Continuous
 62
     7
370
     0
100
AcDbLine
 10
138.39969346
 20
91.993202864
 30
0.0
 11
138.39969346
 21
91.4932018508
 31
0.0
  0
LINE
  5
23D
330
1F
100
AcDbEntity
  8
0
  6
Continuous
 62
     7
370
     0
100
AcDbLine
 10
144.3996925809
 20
91.4932018508
 30
0.0
 11
144.3996925809
 21
91.993202864
 31
0.0
  0
LINE
  5
23E
330
1F
100
AcDbEntity
  8
0
  6
Continuous
 62
     7
370
     0
100
AcDbLine
 10
145.8996928267
 20
85.4932027299
 30
0.0
 11
145.8996928267
 21
90.4932016869
 31
0.0
  0
LINE
  5
23F
330
1F
100
AcDbEntity
  8
0
  6
Continuous
 62
     7
370
     0
100
AcDbLine
 10
136.8996922828
 20
90.4932016869
 30
0.0
 11
136.8996922828
 21
85.4932027299
 31
0.0
  0
LINE
  5
240
330
1F
100
AcDbEntity
  8
0
  6
Continuous
 62
     7
370
     0
100
AcDbLine
 10
145.8996928267
 20
90.4932016869
 30
0.0
 11
144.8996926628
 21
91.4932018508
 31
0.0
  0
LINE
  5
241
330
1F
100
AcDbEntity
  8
0
  6
Continuous
 62
     7
370
     0
100
AcDbLine
 10
137.8996924468
 20
91.4932018508
 30
0.0
 11
136.8996922828
 21
90.4932016869
 31
0.0
  0
LINE
  5
242
330
1F
100
AcDbEntity
  8
0
  6
Continuous
 62
     7
370
     0
100
AcDbLine
 10
145.8996928267
 20
82.9932032515
 30
0.0
 11
145.8996928267
 21
83.4932024021
 31
0.0
  0
LINE
  5
243
330
1F
100
AcDbEntity
  8
0
  6
Continuous
 62
     7
370
     0
100
AcDbLine
 10
136.8996922828
 20
83.4932024021
 30
0.0
 11
136.8996922828
 21
82.9932032515
 31
0.0
  0
LINE
  5
244
330
1F
100
AcDbEntity
  8
0
  6
Continuous
 62
     7
370
     0
100
AcDbLine
 10
141.2169265531
 20
92.993203028
 30
0.0
 11
141.6344682656
 21
92.993203028
 31
0.0
  0
LINE
  5
245
330
1F
100
AcDbEntity
  8
0
  6
Continuous
 62
     7
370
     0
100
AcDbLine
 10
144.139872209
 20
92.993203028
 30
0.0
 11
144.1496930055
 21
92.993203028
 31
0.0
  0
LINE
  5
246
330
1F
100
AcDbEntity
  8
0
  6
Continuous
 62
     7
370
     0
100
AcDbLine
 10
136.3996931322
 20
83.6932020624
 30
0.0
 11
146.3996929087
 21
83.6932020624
 31
0.0
  0
LINE
  5
247
330
1F
100
AcDbEntity
  8
0
  6
Continuous
 62
     7
370
     0
100
AcDbLine
 10
136.4238292881
 20
85.2932030697
 30
0.0
 11
136.3996931322
 21
85.2932030697
 31
0.0
  0
LINE
  5
248
330
1F
100
AcDbEntity
  8
0
  6
Continuous
 62
     7
370
     0
100
AcDbLine
 10
146.3996929087
 20
85.2932030697
 30
0.0
 11
136.4238292881
 21
85.2932030697
 31
0.0
  0
LINE
  5
249
330
1F
100
AcDbEntity
  8
0
  6
Continuous
 62
     7
370
     0
100
AcDbLine
 10
136.6228640981
 20
83.4932024021
 30
0.0
 11
136.5996927925
 21
83.4932024021
 31
0.0
  0
LINE
  5
24A
330
1F
100
AcDbEntity
  8
0
  6
Continuous
 62
     7
370
     0
100
AcDbLine
 10
146.1996923171
 20
83.4932024021
 30
0.0
 11
136.6228640981
 21
83.4932024021
 31
0.0
  0
LINE
  5
24B
330
1F
100
AcDbEntity
  8
0
  6
Continuous
 62
     7
370
     0
100
AcDbLine
 10
136.5996927925
 20
85.4932027299
 30
0.0
 11
146.1996923171
 21
85.4932027299
 31
0.0
  0
LINE
  5
24C
330
1F
100
AcDbEntity
  8
0
  6
Continuous
 62
     7
370
     0
100
AcDbLine
 10
138.39969346
 20
91.993202864
 30
0.0
 11
138.5050018288
 21
91.993202864
 31
0.0
  0
LINE
  5
24D
330
1F
100
AcDbEntity
  8
0
  6
Continuous
 62
     7
370
     0
100
AcDbLine
 10
138.5050018288
 20
91.993202864
 30
0.0
 11
141.1924048297
 21
91.993202864
 31
0.0
  0
LINE
  5
24E
330
1F
100
AcDbEntity
  8
0
  6
Continuous
 62
     7
370
     0
100
AcDbLine
 10
142.1875779487
 20
91.993202864
 30
0.0
 11
141.1924048297
 21
91.993202864
 31
0.0
  0
LINE
  5
24F
330
1F
100
AcDbEntity
  8
0
  6
Continuous
 62
     7
370
     0
100
AcDbLine
 10
142.1875779487
 20
91.993202864
 30
0.0
 11
144.3925232597
 21
91.993202864
 31
0.0
  0
LINE
  5
250
330
1F
100
AcDbEntity
  8
0
  6
Continuous
 62
     7
370
     0
100
AcDbLine
 10
144.3925232597
 20
91.993202864
 30
0.0
 11
144.3996925809
 21
91.993202864
 31
0.0
  0
SPLINE
  5
251
330
1F
100
AcDbEntity
  8
0
  6
Continuous
 62
     7
370
     0
100
AcDbSpline
210
0.0
220
0.0
230
1.0
 70
     8
 71
     3
 72
     8
 73
     4
 74
     0
 42
0.00000001
 43
0.00000001
 12
1.0
 22
0.0
 32
0.0
 13
1.0
 23
0.0
 33
0.0
 40
0.0
 40
0.0
 40
0.0
 40
0.0
 40
1.0
 40
1.0
 40
1.0
 40
1.0
 10
138.5050015533857
 20
91.99320232678166
 30
0.0
 10
138.5891156117172
 20
92.32656186261787
 30
0.0
 10
138.6733229851372
 20
92.65989784099484
 30
0.0
 10
138.757652458719
 20
92.99320232678164
 30
0.0
  0
LINE
  5
252
330
1F
100
AcDbEntity
  8
0
  6
Continuous
 62
     7
370
     0
100
AcDbLine
 10
138.7576528795
 20
92.993203028
 30
0.0
 11
141.1674900882
 21
92.993203028
 31
0.0
  0
SPLINE
  5
253
330
1F
100
AcDbEntity
  8
0
  6
Continuous
 62
     7
370
     0
100
AcDbSpline
210
0.0
220
0.0
230
1.0
 70
     8
 71
     3
 72
    11
 73
     7
 74
     0
 42
0.00000001
 43
0.00000001
 12
1.0
 22
0.0
 32
0.0
 13
1.0
 23
0.0
 33
0.0
 40
0.0041333666424306
 40
0.0041333666424306
 40
0.0041333666424306
 40
0.0041333666424306
 40
0.0046138376121394
 40
0.0046138376121394
 40
0.0046138376121394
 40
0.0051650880369003
 40
0.0051650880369003
 40
0.0051650880369003
 40
0.0051650880369003
 10
141.1674898922332
 20
92.99320232678164
 30
0.0
 10
141.171362707428
 20
92.8379829090406
 30
0.0
 10
141.1752328949558
 20
92.68275668219957
 30
0.0
 10
141.1791007710977
 20
92.5275244780795
 30
0.0
 10
141.1835384340611
 20
92.34942461715154
 30
0.0
 10
141.1879730551851
 20
92.17131688460992
 30
0.0
 10
141.1924050333757
 20
91.99320232678163
 30
0.0
  0
LINE
  5
254
330
1F
100
AcDbEntity
  8
0
  6
Continuous
 62
     7
370
     0
100
AcDbLine
 10
142.1626622759
 20
92.993203028
 30
0.0
 11
144.139872209
 21
92.993203028
 31
0.0
  0
SPLINE
  5
255
330
1F
100
AcDbEntity
  8
0
  6
Continuous
 62
     7
370
     0
100
AcDbSpline
210
0.0
220
0.0
230
1.0
 70
     8
 71
     3
 72
    11
 73
     7
 74
     0
 42
0.00000001
 43
0.00000001
 12
1.0
 22
0.0
 32
0.0
 13
1.0
 23
0.0
 33
0.0
 40
0.004199693779034
 40
0.004199693779034
 40
0.004199693779034
 40
0.004199693779034
 40
0.0045714279294727
 40
0.0045714279294727
 40
0.0045714279294727
 40
0.0052314151081104
 40
0.0052314151081104
 40
0.0052314151081104
 40
0.0052314151081104
 10
144.1398719278726
 20
92.99320232678163
 30
0.0
 10
144.1702562557097
 20
92.87311106644785
 30
0.0
 10
144.2006246225971
 20
92.75301572762666
 30
0.0
 10
144.2309785425807
 20
92.63291670311189
 30
0.0
 10
144.2848697324156
 20
92.41968957025337
 30
0.0
 10
144.3387154706094
 20
92.20645083452875
 30
0.0
 10
144.3925228332058
 20
91.99320232678163
 30
0.0
  0
SPLINE
  5
256
330
1F
100
AcDbEntity
  8
0
  6
Continuous
 62
     7
370
     0
100
AcDbSpline
210
0.0
220
0.0
230
1.0
 70
     8
 71
     3
 72
     8
 73
     4
 74
     0
 42
0.00000001
 43
0.00000001
 12
1.0
 22
0.0
 32
0.0
 13
1.0
 23
0.0
 33
0.0
 40
0.0
 40
0.0
 40
0.0
 40
0.0
 40
1.0
 40
1.0
 40
1.0
 40
1.0
 10
142.1875777652646
 20
91.99320232678163
 30
0.0
 10
142.1792828660064
 20
92.32656188995097
 30
0.0
 10
142.1709787649222
 20
92.65989787823314
 30
0.0
 10
142.1626626241221
 20
92.99320232678164
 30
0.0
  0
LINE
  5
257
330
1F
100
AcDbEntity
  8
0
  6
Continuous
 62
     7
370
     0
100
AcDbLine
 10
142.0873238675
 20
92.993203028
 30
0.0
 11
142.0873238675
 21
91.993202864
 31
0.0
  0
LINE
  5
258
330
1F
100
AcDbEntity
  8
0
  6
Continuous
 62
     7
370
     0
100
AcDbLine
 10
142.1626622759
 20
92.993203028
 30
0.0
 11
142.0873238675
 21
92.993203028
 31
0.0
  0
LINE
  5
259
330
1F
100
AcDbEntity
  8
0
  6
Continuous
 62
     7
370
     0
100
AcDbLine
 10
141.707234361
 20
91.993202864
 30
0.0
 11
141.707234361
 21
92.993203028
 31
0.0
  0
LINE
  5
25A
330
1F
100
AcDbEntity
  8
0
  6
Continuous
 62
     7
370
     0
100
AcDbLine
 10
142.0873238675
 20
92.993203028
 30
0.0
 11
141.707234361
 21
92.993203028
 31
0.0
  0
LINE
  5
25B
330
1F
100
AcDbEntity
  8
0
  6
Continuous
 62
     7
370
     0
100
AcDbLine
 10
138.7576528795
 20
92.993203028
 30
0.0
 11
138.6595138319
 21
92.993203028
 31
0.0
  0
SPLINE
  5
25C
330
1F
100
AcDbEntity
  8
0
  6
Continuous
 62
     7
370
     0
100
AcDbSpline
210
0.0
220
0.0
230
1.0
 70
     8
 71
     3
 72
    11
 73
     7
 74
     0
 42
0.00000001
 43
0.00000001
 12
1.0
 22
0.0
 32
0.0
 13
1.0
 23
0.0
 33
0.0
 40
0.0041996937790339
 40
0.0041996937790339
 40
0.0041996937790339
 40
0.0041996937790339
 40
0.0045714279294727
 40
0.0045714279294727
 40
0.0045714279294727
 40
0.0052314151081104
 40
0.0052314151081104
 40
0.0052314151081104
 40
0.0052314151081104
 10
138.6595136096085
 20
92.99320232678164
 30
0.0
 10
138.6291292817714
 20
92.87311106644786
 30
0.0
 10
138.5987609148841
 20
92.75301572762667
 30
0.0
 10
138.5684069949005
 20
92.63291670311189
 30
0.0
 10
138.5145158050655
 20
92.41968957025337
 30
0.0
 10
138.4606700668717
 20
92.20645083452877
 30
0.0
 10
138.4068627042753
 20
91.99320232678164
 30
0.0
  0
SPLINE
  5
25D
330
1F
100
AcDbEntity
  8
0
  6
Continuous
 62
     7
370
     0
100
AcDbSpline
210
0.0
220
0.0
230
1.0
 70
     8
 71
     3
 72
    11
 73
     7
 74
     0
 42
0.00000001
 43
0.00000001
 12
1.0
 22
0.0
 32
0.0
 13
1.0
 23
0.0
 33
0.0
 40
0.0041333666424306
 40
0.0041333666424306
 40
0.0041333666424306
 40
0.0041333666424306
 40
0.0046138376121395
 40
0.0046138376121395
 40
0.0046138376121395
 40
0.0051650880369003
 40
0.0051650880369003
 40
0.0051650880369003
 40
0.0051650880369003
 10
141.6318956452479
 20
92.99320232678163
 30
0.0
 10
141.6280228300531
 20
92.83798290904059
 30
0.0
 10
141.6241526425254
 20
92.68275668219955
 30
0.0
 10
141.6202847663835
 20
92.5275244780795
 30
0.0
 10
141.61584710342
 20
92.34942461715154
 30
0.0
 10
141.6114124822961
 20
92.17131688460994
 30
0.0
 10
141.6069805041055
 20
91.99320232678164
 30
0.0
  0
LINE
  5
25E
330
1F
100
AcDbEntity
  8
0
  6
Continuous
 62
     7
370
     0
100
AcDbLine
 10
141.707234361
 20
92.993203028
 30
0.0
 11
141.6318959527
 21
92.993203028
 31
0.0
  0
LINE
  5
25F
330
1F
100
AcDbEntity
  8
0
  6
Continuous
 62
     7
370
     0
100
AcDbLine
 10
145.8996928267
 20
90.4932016869
 30
0.0
 11
136.8996922828
 21
90.4932016869
 31
0.0
  0
LINE
  5
260
330
1F
100
AcDbEntity
  8
0
  6
Continuous
 62
     7
370
     0
100
AcDbLine
 10
144.8996926628
 20
91.4932018508
 30
0.0
 11
137.8996924468
 21
91.4932018508
 31
0.0
  0
LINE
  5
261
330
1F
100
AcDbEntity
  8
0
  6
Continuous
 62
     7
370
     0
100
AcDbLine
 10
127.3996935196
 20
82.9932032515
 30
0.0
 11
127.3996935196
 21
69.9932020519
 31
0.0
  0
LINE
  5
262
330
1F
100
AcDbEntity
  8
0
  6
Continuous
 62
     7
370
     0
100
AcDbLine
 10
127.3996935196
 20
69.9932020519
 30
0.0
 11
148.3996927709
 21
69.9932020519
 31
0.0
  0
LINE
  5
263
330
1F
100
AcDbEntity
  8
0
  6
Continuous
 62
     7
370
     0
100
AcDbLine
 10
148.3996927709
 20
82.9932032515
 30
0.0
 11
148.3996927709
 21
69.9932020519
 31
0.0
  0
LINE
  5
264
330
1F
100
AcDbEntity
  8
0
  6
Continuous
 62
     7
370
     0
100
AcDbLine
 10
127.3996935196
 20
82.9932032515
 30
0.0
 11
148.3996927709
 21
82.9932032515
 31
0.0
  0
LINE
  5
265
330
1F
100
AcDbEntity
  8
0
  6
Continuous
 62
     7
370
     0
100
AcDbLine
 10
151.3996927969
 20
82.9932032515
 30
0.0
 11
151.3996927969
 21
77.9932024319
 31
0.0
  0
LINE
  5
266
330
1F
100
AcDbEntity
  8
0
  6
Continuous
 62
     7
370
     0
100
AcDbLine
 10
151.3996927969
 20
77.9932024319
 30
0.0
 11
148.3996927709
 21
77.9932024319
 31
0.0
  0
LINE
  5
267
330
1F
100
AcDbEntity
  8
0
  6
Continuous
 62
     7
370
     0
100
AcDbLine
 10
151.3996927969
 20
82.9932032515
 30
0.0
 11
148.3996927709
 21
82.9932032515
 31
0.0
  0
DIMENSION
  5
268
330
1F
100
AcDbEntity
  8
0
  6
Continuous
 62
     7
370
     0
100
AcDbDimension
  2
_D_3
 10
151.3996927687
 20
59.9932023268
 30
0.0
 11
139.3996927687
 21
59.9932023268
 31
0.0
 70
   160
  1
<>
 71
     2
 42
-1.0
  3
SLDDIMSTYLE0
100
AcDbAlignedDimension
 13
127.3996927687
 23
69.9932023268
 33
0.0
 14
151.3996927687
 24
77.9932023268
 34
0.0
 50
0.0
100
AcDbRotatedDimension
  0
ENDSEC
  0
SECTION
  2
OBJECTS
  0
DICTIONARY
  5
C
330
0
100
AcDbDictionary
281
     1
  3
ACAD_GROUP
350
D
  3
ACAD_LAYOUT
350
1A
  3
ACAD_MLINESTYLE
350
17
  3
ACAD_PLOTSETTINGS
350
19
  3
ACAD_PLOTSTYLENAME
350
E
  0
DICTIONARY
  5
D
102
{ACAD_REACTORS
330
C
102
}
330
C
100
AcDbDictionary
281
     1
  0
DICTIONARY
  5
1A
102
{ACAD_REACTORS
330
C
102
}
330
C
100
AcDbDictionary
281
     1
  3
Layout1
350
1E
  3
Layout2
350
26
  3
Model
350
22
  0
DICTIONARY
  5
17
102
{ACAD_REACTORS
330
C
102
}
330
C
100
AcDbDictionary
281
     1
  3
Standard
350
18
  0
DICTIONARY
  5
19
102
{ACAD_REACTORS
330
C
102
}
330
C
100
AcDbDictionary
281
     1
  0
ACDBDICTIONARYWDFLT
  5
E
102
{ACAD_REACTORS
330
C
102
}
330
C
100
AcDbDictionary
281
     1
  3
Normal
350
F
100
AcDbDictionaryWithDefault
340
F
  0
LAYOUT
  5
1E
102
{ACAD_REACTORS
330
1A
102
}
330
1A
100
AcDbPlotSettings
  1

  2
none_device
  4

  6

 40
0.0
 41
0.0
 42
0.0
 43
0.0
 44
0.0
 45
0.0
 46
0.0
 47
0.0
 48
0.0
 49
0.0
140
0.0
141
0.0
142
1.0
143
1.0
 70
   688
 72
     0
 73
     0
 74
     5
  7

 75
    16
147
1.0
148
0.0
149
0.0
100
AcDbLayout
  1
Layout1
 70
     1
 71
     1
 10
0.0
 20
0.0
 11
420.0
 21
297.0
 12
0.0
 22
0.0
 32
0.0
 14
1.0000000000E+20
 24
1.0000000000E+20
 34
1.0000000000E+20
 15
-1.0000000000E+20
 25
-1.0000000000E+20
 35
-1.0000000000E+20
146
0.0
 13
0.0
 23
0.0
 33
0.0
 16
1.0
 26
0.0
 36
0.0
 17
0.0
 27
1.0
 37
0.0
 76
     0
330
1B
  0
LAYOUT
  5
26
102
{ACAD_REACTORS
330
1A
102
}
330
1A
100
AcDbPlotSettings
  1

  2
none_device
  4

  6

 40
0.0
 41
0.0
 42
0.0
 43
0.0
 44
0.0
 45
0.0
 46
0.0
 47
0.0
 48
0.0
 49
0.0
140
0.0
141
0.0
142
1.0
143
1.0
 70
   688
 72
     0
 73
     0
 74
     5
  7

 75
    16
147
1.0
148
0.0
149
0.0
100
AcDbLayout
  1
Layout2
 70
     1
 71
     2
 10
0.0
 20
0.0
 11
0.0
 21
0.0
 12
0.0
 22
0.0
 32
0.0
 14
0.0
 24
0.0
 34
0.0
 15
0.0
 25
0.0
 35
0.0
146
0.0
 13
0.0
 23
0.0
 33
0.0
 16
1.0
 26
0.0
 36
0.0
 17
0.0
 27
1.0
 37
0.0
 76
     0
330
23
  0
LAYOUT
  5
22
102
{ACAD_REACTORS
330
1A
102
}
330
1A
100
AcDbPlotSettings
  1

  2
none_device
  4

  6

 40
0.0
 41
0.0
 42
0.0
 43
0.0
 44
0.0
 45
0.0
 46
0.0
 47
0.0
 48
0.0
 49
0.0
140
0.0
141
0.0
142
1.0
143
1.0
 70
  1712
 72
     0
 73
     0
 74
     0
  7

 75
     0
147
1.0
148
0.0
149
0.0
100
AcDbLayout
  1
Model
 70
     1
 71
     0
 10
0.0
 20
0.0
 11
210.0
 21
297.0
 12
0.0
 22
0.0
 32
0.0
 14
0.0
 24
0.0
 34
0.0
 15
210.0
 25
297.0
 35
0.0
146
0.0
 13
0.0
 23
0.0
 33
0.0
 16
1.0
 26
0.0
 36
0.0
 17
0.0
 27
1.0
 37
0.0
 76
     0
330
1F
331
29
  0
MLINESTYLE
  5
18
102
{ACAD_REACTORS
330
17
102
}
330
17
100
AcDbMlineStyle
  2
Standard
 70
     0
  3

 62
   256
 51
90.0
 52
90.0
 71
     2
 49
0.5
 62
   256
  6
BYLAYER
 49
-0.5
 62
   256
  6
BYLAYER
  0
ACDBPLACEHOLDER
  5
F
102
{ACAD_REACTORS
330
E
102
}
330
E
  0
ENDSEC
  0
EOF
