  0
SECTION
  2
HEADER
  9
$ACADVER
  1
AC1015
  9
$ACADMAINTVER
 70
     6
  9
$DWGCODEPAGE
  3
DOS932
  9
$INSBASE
 10
0.0
 20
0.0
 30
0.0
  9
$EXTMIN
 10
0.0
 20
0.0
 30
0.0
  9
$EXTMAX
 10
210.0
 20
297.0
 30
0.0
  9
$LIMMIN
 10
0.0
 20
0.0
  9
$LIMMAX
 10
210.0
 20
297.0
  9
$ORTHOMODE
 70
     0
  9
$REGENMODE
 70
     1
  9
$FILLMODE
 70
     1
  9
$QTEXTMODE
 70
     0
  9
$MIRRTEXT
 70
     1
  9
$LTSCALE
 40
1.0
  9
$ATTMODE
 70
     1
  9
$TEXTSIZE
 40
3.5
  9
$TRACEWID
 40
1.0
  9
$TEXTSTYLE
  7
Standard
  9
$CLAYER
  8
0
  9
$CELTYPE
  6
ByLayer
  9
$CECOLOR
 62
   256
  9
$CELTSCALE
 40
1.0
  9
$DISPSILH
 70
     0
  9
$DIMSCALE
 40
1.0
  9
$DIMASZ
 40
3.0
  9
$DIMEXO
 40
1.0
  9
$DIMDLI
 40
3.75
  9
$DIMRND
 40
0.0
  9
$DIMDLE
 40
0.0
  9
$DIMEXE
 40
1.0
  9
$DIMTP
 40
0.0
  9
$DIMTM
 40
0.0
  9
$DIMTXT
 40
3.5
  9
$DIMCEN
 40
2.5
  9
$DIMTSZ
 40
0.0
  9
$DIMTOL
 70
     0
  9
$DIMLIM
 70
     0
  9
$DIMTIH
 70
     1
  9
$DIMTOH
 70
     1
  9
$DIMSE1
 70
     0
  9
$DIMSE2
 70
     0
  9
$DIMTAD
 70
     1
  9
$DIMZIN
 70
     0
  9
$DIMBLK
  1

  9
$DIMASO
 70
     1
  9
$DIMSHO
 70
     1
  9
$DIMPOST
  1

  9
$DIMAPOST
  1

  9
$DIMALT
 70
     0
  9
$DIMALTD
 70
     3
  9
$DIMALTF
 40
0.0393700787
  9
$DIMLFAC
 40
1.0
  9
$DIMTOFL
 70
     1
  9
$DIMTVP
 40
0.0
  9
$DIMTIX
 70
     0
  9
$DIMSOXD
 70
     0
  9
$DIMSAH
 70
     0
  9
$DIMBLK1
  1

  9
$DIMBLK2
  1

  9
$DIMSTYLE
  2
ISO-25
  9
$DIMCLRD
 70
     0
  9
$DIMCLRE
 70
     0
  9
$DIMCLRT
 70
     0
  9
$DIMTFAC
 40
1.0
  9
$DIMGAP
 40
1.524
  9
$DIMJUST
 70
     0
  9
$DIMSD1
 70
     0
  9
$DIMSD2
 70
     0
  9
$DIMTOLJ
 70
     0
  9
$DIMTZIN
 70
     0
  9
$DIMALTZ
 70
     0
  9
$DIMALTTZ
 70
     0
  9
$DIMUPT
 70
     0
  9
$DIMDEC
 70
     1
  9
$DIMTDEC
 70
     3
  9
$DIMALTU
 70
     2
  9
$DIMALTTD
 70
     3
  9
$DIMTXSTY
  7
Standard
  9
$DIMAUNIT
 70
     0
  9
$DIMADEC
 70
     2
  9
$DIMALTRND
 40
0.0
  9
$DIMAZIN
 70
     0
  9
$DIMDSEP
 70
    44
  9
$DIMATFIT
 70
     3
  9
$DIMFRAC
 70
     0
  9
$DIMLDRBLK
  1

  9
$DIMLUNIT
 70
     2
  9
$DIMLWD
 70
    -2
  9
$DIMLWE
 70
    -2
  9
$DIMTMOVE
 70
     0
  9
$LUNITS
 70
     2
  9
$LUPREC
 70
     1
  9
$SKETCHINC
 40
1.0
  9
$FILLETRAD
 40
10.0
  9
$AUNITS
 70
     0
  9
$AUPREC
 70
     2
  9
$MENU
  1
.
  9
$ELEVATION
 40
0.0
  9
$PELEVATION
 40
0.0
  9
$THICKNESS
 40
0.0
  9
$LIMCHECK
 70
     0
  9
$CHAMFERA
 40
10.0
  9
$CHAMFERB
 40
10.0
  9
$CHAMFERC
 40
20.0
  9
$CHAMFERD
 40
0.0
  9
$SKPOLY
 70
     0
  9
$TDCREATE
 40
2456917.47278684
  9
$TDUCREATE
 40
2456917.09778684
  9
$TDUPDATE
 40
2456917.472789004
  9
$TDUUPDATE
 40
2456917.097789004
  9
$TDINDWG
 40
0.0000000116
  9
$TDUSRTIMER
 40
0.0000000116
  9
$USRTIMER
 70
     1
  9
$ANGBASE
 50
0.0
  9
$ANGDIR
 70
     0
  9
$PDMODE
 70
     0
  9
$PDSIZE
 40
-1.0
  9
$PLINEWID
 40
0.0
  9
$SPLFRAME
 70
     0
  9
$SPLINETYPE
 70
     6
  9
$SPLINESEGS
 70
     8
  9
$HANDSEED
  5
268
  9
$SURFTAB1
 70
     6
  9
$SURFTAB2
 70
     6
  9
$SURFTYPE
 70
     6
  9
$SURFU
 70
     6
  9
$SURFV
 70
     6
  9
$UCSBASE
  2

  9
$UCSNAME
  2

  9
$UCSORG
 10
0.0
 20
0.0
 30
0.0
  9
$UCSXDIR
 10
1.0
 20
0.0
 30
0.0
  9
$UCSYDIR
 10
0.0
 20
1.0
 30
0.0
  9
$UCSORTHOREF
  2

  9
$UCSORTHOVIEW
 70
     0
  9
$UCSORGTOP
 10
0.0
 20
0.0
 30
0.0
  9
$UCSORGBOTTOM
 10
0.0
 20
0.0
 30
0.0
  9
$UCSORGLEFT
 10
0.0
 20
0.0
 30
0.0
  9
$UCSORGRIGHT
 10
0.0
 20
0.0
 30
0.0
  9
$UCSORGFRONT
 10
0.0
 20
0.0
 30
0.0
  9
$UCSORGBACK
 10
0.0
 20
0.0
 30
0.0
  9
$PUCSBASE
  2

  9
$PUCSNAME
  2

  9
$PUCSORG
 10
0.0
 20
0.0
 30
0.0
  9
$PUCSXDIR
 10
1.0
 20
0.0
 30
0.0
  9
$PUCSYDIR
 10
0.0
 20
1.0
 30
0.0
  9
$PUCSORTHOREF
  2

  9
$PUCSORTHOVIEW
 70
     0
  9
$PUCSORGTOP
 10
0.0
 20
0.0
 30
0.0
  9
$PUCSORGBOTTOM
 10
0.0
 20
0.0
 30
0.0
  9
$PUCSORGLEFT
 10
0.0
 20
0.0
 30
0.0
  9
$PUCSORGRIGHT
 10
0.0
 20
0.0
 30
0.0
  9
$PUCSORGFRONT
 10
0.0
 20
0.0
 30
0.0
  9
$PUCSORGBACK
 10
0.0
 20
0.0
 30
0.0
  9
$USERI1
 70
     0
  9
$USERI2
 70
     0
  9
$USERI3
 70
     0
  9
$USERI4
 70
     0
  9
$USERI5
 70
     0
  9
$USERR1
 40
0.0
  9
$USERR2
 40
0.0
  9
$USERR3
 40
0.0
  9
$USERR4
 40
0.0
  9
$USERR5
 40
0.0
  9
$WORLDVIEW
 70
     1
  9
$SHADEDGE
 70
     3
  9
$SHADEDIF
 70
    70
  9
$TILEMODE
 70
     1
  9
$MAXACTVP
 70
    64
  9
$PINSBASE
 10
0.0
 20
0.0
 30
0.0
  9
$PLIMCHECK
 70
     0
  9
$PEXTMIN
 10
1.0000000000E+20
 20
1.0000000000E+20
 30
1.0000000000E+20
  9
$PEXTMAX
 10
-1.0000000000E+20
 20
-1.0000000000E+20
 30
-1.0000000000E+20
  9
$PLIMMIN
 10
0.0
 20
0.0
  9
$PLIMMAX
 10
420.0
 20
297.0
  9
$UNITMODE
 70
     0
  9
$VISRETAIN
 70
     1
  9
$PLINEGEN
 70
     0
  9
$PSLTSCALE
 70
     1
  9
$TREEDEPTH
 70
  3020
  9
$CMLSTYLE
  2
Standard
  9
$CMLJUST
 70
     0
  9
$CMLSCALE
 40
20.0
  9
$PROXYGRAPHICS
 70
     1
  9
$MEASUREMENT
 70
     1
  9
$CELWEIGHT
370
    -1
  9
$ENDCAPS
280
     0
  9
$JOINSTYLE
280
     0
  9
$LWDISPLAY
290
     1
  9
$INSUNITS
 70
     4
  9
$HYPERLINKBASE
  1

  9
$STYLESHEET
  1

  9
$XEDIT
290
     1
  9
$CEPSNTYPE
380
     0
  9
$PSTYLEMODE
290
     1
  9
$FINGERPRINTGUID
  2
{14A60F95-6352-4B86-B4D2-4BA01CECFF8F}
  9
$VERSIONGUID
  2
{FAEB1C32-E019-11D5-929B-00C0DF256EC4}
  9
$EXTNAMES
290
     1
  9
$PSVPSCALE
 40
0.0
  9
$OLESTARTUP
290
     0
  0
ENDSEC
  0
SECTION
  2
CLASSES
  0
CLASS
  1
ACDBDICTIONARYWDFLT
  2
AcDbDictionaryWithDefault
  3
ObjectDBX Classes
 90
        0
280
     0
281
     0
  0
CLASS
  1
VISUALSTYLE
  2
AcDbVisualStyle
  3
ObjectDBX Classes
 90
     4095
280
     0
281
     0
  0
CLASS
  1
MATERIAL
  2
AcDbMaterial
  3
ObjectDBX Classes
 90
     1153
280
     0
281
     0
  0
CLASS
  1
ACDBPLACEHOLDER
  2
AcDbPlaceHolder
  3
ObjectDBX Classes
 90
        0
280
     0
281
     0
  0
CLASS
  1
LAYOUT
  2
AcDbLayout
  3
ObjectDBX Classes
 90
        0
280
     0
281
     0
  0
ENDSEC
  0
SECTION
  2
TABLES
  0
TABLE
  2
VPORT
  5
8
330
0
100
AcDbSymbolTable
 70
     1
  0
VPORT
  5
29
330
8
100
AcDbSymbolTableRecord
100
AcDbViewportTableRecord
  2
*Active
 70
     0
 10
0.0
 20
0.0
 11
1.0
 21
1.0
 12
105.0
 22
148.5
 13
0.0
 23
0.0
 14
10.0
 24
10.0
 15
10.0
 25
10.0
 16
0.0
 26
0.0
 36
1.0
 17
0.0
 27
0.0
 37
0.0
 40
297.0
 41
0.7070707071
 42
50.0
 43
0.0
 44
0.0
 50
0.0
 51
0.0
 71
     0
 72
  2000
 73
     1
 74
     3
 75
     0
 76
     0
 77
     0
 78
     0
281
     0
 65
     1
110
0.0
120
0.0
130
0.0
111
1.0
121
0.0
131
0.0
112
0.0
122
1.0
132
0.0
 79
     0
146
0.0
  0
ENDTAB
  0
TABLE
  2
LTYPE
  5
5
330
0
100
AcDbSymbolTable
 70
     6
  0
LTYPE
  5
14
330
5
100
AcDbSymbolTableRecord
100
AcDbLinetypeTableRecord
  2
ByBlock
 70
     0
  3

 72
    65
 73
     0
 40
0.0
  0
LTYPE
  5
15
330
5
100
AcDbSymbolTableRecord
100
AcDbLinetypeTableRecord
  2
ByLayer
 70
     0
  3

 72
    65
 73
     0
 40
0.0
  0
LTYPE
  5
16
330
5
100
AcDbSymbolTableRecord
100
AcDbLinetypeTableRecord
  2
Continuous
 70
     0
  3
Solid line
 72
    65
 73
     0
 40
0.0
  0
LTYPE
  5
3F
330
5
100
AcDbSymbolTableRecord
100
AcDbLinetypeTableRecord
  2
HIDDEN
 70
     0
  3
Hidden __ __ __ __ __ __ __ __ __ __ __ __ __ __
 72
    65
 73
     2
 40
1.905
 49
1.27
 74
     0
 49
-0.635
 74
     0
  0
LTYPE
  5
40
330
5
100
AcDbSymbolTableRecord
100
AcDbLinetypeTableRecord
  2
PHANTOM
 70
     0
  3
Phantom ______  __  __  ______  __  __  ______
 72
    65
 73
     6
 40
12.7
 49
6.35
 74
     0
 49
-1.27
 74
     0
 49
1.27
 74
     0
 49
-1.27
 74
     0
 49
1.27
 74
     0
 49
-1.27
 74
     0
  0
LTYPE
  5
41
330
5
100
AcDbSymbolTableRecord
100
AcDbLinetypeTableRecord
  2
CENTER
 70
     0
  3
Center ____ _ ____ _ ____ _ ____ _ ____ _ ____
 72
    65
 73
     4
 40
10.16
 49
6.35
 74
     0
 49
-1.27
 74
     0
 49
1.27
 74
     0
 49
-1.27
 74
     0
  0
LTYPE
  5
42
330
5
100
AcDbSymbolTableRecord
100
AcDbLinetypeTableRecord
  2
CENTERX2
 70
     0
  3
Center (2x) ________  __  ________  __  _____
 72
    65
 73
     4
 40
20.32
 49
12.7
 74
     0
 49
-2.54
 74
     0
 49
2.54
 74
     0
 49
-2.54
 74
     0
  0
LTYPE
  5
43
330
5
100
AcDbSymbolTableRecord
100
AcDbLinetypeTableRecord
  2
DOT2
 70
     0
  3
Dot (.5x) ........................................
 72
    65
 73
     2
 40
0.635
 49
0.0
 74
     0
 49
-0.635
 74
     0
  0
ENDTAB
  0
TABLE
  2
LAYER
  5
2
330
0
100
AcDbSymbolTable
 70
     1
  0
LAYER
  5
10
330
2
100
AcDbSymbolTableRecord
100
AcDbLayerTableRecord
  2
0
 70
     0
 62
     7
  6
Continuous
370
    -3
390
F
  0
ENDTAB
  0
TABLE
  2
STYLE
  5
3
330
0
100
AcDbSymbolTable
 70
     2
  0
STYLE
  5
11
330
3
100
AcDbSymbolTableRecord
100
AcDbTextStyleTableRecord
  2
Standard
 70
     0
 40
0.0
 41
1.0
 50
0.0
 71
     0
 42
3.5
  3
txt
  4
bigfont
  0
STYLE
  5
4C
330
3
100
AcDbSymbolTableRecord
100
AcDbTextStyleTableRecord
  2
SLDTEXTSTYLE0
 70
     0
 40
0.0
 41
0.7
 50
0.0
 71
     0
 42
0.2
  3
TXT
  4
bigfont
  0
ENDTAB
  0
TABLE
  2
VIEW
  5
6
330
0
100
AcDbSymbolTable
 70
     0
  0
ENDTAB
  0
TABLE
  2
UCS
  5
7
330
0
100
AcDbSymbolTable
 70
     0
  0
ENDTAB
  0
TABLE
  2
APPID
  5
9
330
0
100
AcDbSymbolTable
 70
     1
  0
APPID
  5
12
330
9
100
AcDbSymbolTableRecord
100
AcDbRegAppTableRecord
  2
ACAD
 70
     0
  0
ENDTAB
  0
TABLE
  2
DIMSTYLE
  5
A
330
0
100
AcDbSymbolTable
 70
     5
100
AcDbDimStyleTable
  0
DIMSTYLE
105
27
330
A
100
AcDbSymbolTableRecord
100
AcDbDimStyleTableRecord
  2
ISO-25
 70
     0
 41
2.5
 42
0.625
 43
3.75
 44
1.25
 73
     0
 74
     0
 77
     1
 78
     8
140
2.5
141
2.5
143
0.0393700787
147
0.625
171
     3
172
     1
178
     0
271
     2
272
     2
274
     3
278
    44
283
     0
284
     8
340
11
  0
DIMSTYLE
105
155
102
{ACAD_REACTORS
330
154
330
160
330
25E
102
}
330
A
100
AcDbSymbolTableRecord
100
AcDbDimStyleTableRecord
  2
SLDDIMSTYLE0
 70
     0
 41
3.0
 44
0.0
 45
0.000000001
 73
     0
 74
     0
 77
     3
 78
    12
 79
     3
140
3.5
147
0.875
173
     1
178
     0
271
     1
272
     3
276
     2
284
    12
340
4C
  0
DIMSTYLE
105
16C
102
{ACAD_REACTORS
330
16B
102
}
330
A
100
AcDbSymbolTableRecord
100
AcDbDimStyleTableRecord
  2
SLDDIMSTYLE1
 70
     0
 41
3.0
 44
0.0
 73
     0
 74
     0
 77
     3
 78
    12
 79
     3
140
3.5
147
0.875
173
     1
178
     0
179
     2
272
     3
276
     2
284
    12
340
4C
  0
DIMSTYLE
105
177
102
{ACAD_REACTORS
330
176
102
}
330
A
100
AcDbSymbolTableRecord
100
AcDbDimStyleTableRecord
  2
SLDDIMSTYLE2
 70
     0
  3
<>
 41
3.0
 44
0.0
 45
0.000000001
 78
    12
 79
     3
140
3.5
141
0.0
147
0.875
173
     1
178
     0
271
     1
272
     3
276
     2
284
    12
340
4C
  0
DIMSTYLE
105
252
102
{ACAD_REACTORS
330
251
102
}
330
A
100
AcDbSymbolTableRecord
100
AcDbDimStyleTableRecord
  2
SLDDIMSTYLE3
 70
     0
 41
3.0
 44
0.0
 45
0.000000001
 73
     0
 74
     0
 77
     3
 78
    12
 79
     3
140
3.5
147
0.875
172
     1
173
     1
178
     0
271
     1
272
     3
276
     2
284
    12
289
     0
340
4C
  0
ENDTAB
  0
TABLE
  2
BLOCK_RECORD
  5
1
330
0
100
AcDbSymbolTable
 70
     9
  0
BLOCK_RECORD
  5
1F
330
1
100
AcDbSymbolTableRecord
100
AcDbBlockTableRecord
  2
*Model_Space
340
22
  0
BLOCK_RECORD
  5
1B
330
1
100
AcDbSymbolTableRecord
100
AcDbBlockTableRecord
  2
*Paper_Space
340
1E
  0
BLOCK_RECORD
  5
23
330
1
100
AcDbSymbolTableRecord
100
AcDbBlockTableRecord
  2
*Paper_Space0
340
26
  0
BLOCK_RECORD
  5
156
330
1
100
AcDbSymbolTableRecord
100
AcDbBlockTableRecord
  2
_D
340
0
  0
BLOCK_RECORD
  5
161
330
1
100
AcDbSymbolTableRecord
100
AcDbBlockTableRecord
  2
_D_1
340
0
  0
BLOCK_RECORD
  5
16D
330
1
100
AcDbSymbolTableRecord
100
AcDbBlockTableRecord
  2
_D_2
340
0
  0
BLOCK_RECORD
  5
178
330
1
100
AcDbSymbolTableRecord
100
AcDbBlockTableRecord
  2
_D_3
340
0
  0
BLOCK_RECORD
  5
184
330
1
100
AcDbSymbolTableRecord
100
AcDbBlockTableRecord
  2
SW_CENTERMARKSYMBOL_0
340
0
102
{BLKREFS
331
18F
102
}
  0
BLOCK_RECORD
  5
190
330
1
100
AcDbSymbolTableRecord
100
AcDbBlockTableRecord
  2
SW_CENTERMARKSYMBOL_1
340
0
102
{BLKREFS
331
1B7
102
}
  0
BLOCK_RECORD
  5
253
330
1
100
AcDbSymbolTableRecord
100
AcDbBlockTableRecord
  2
_D_4
340
0
  0
BLOCK_RECORD
  5
25F
330
1
100
AcDbSymbolTableRecord
100
AcDbBlockTableRecord
  2
_D_5
340
0
  0
ENDTAB
  0
ENDSEC
  0
SECTION
  2
BLOCKS
  0
BLOCK
  5
20
330
1F
100
AcDbEntity
  8
0
100
AcDbBlockBegin
  2
*Model_Space
 70
     0
 10
0.0
 20
0.0
 30
0.0
  3
*Model_Space
  1

  0
ENDBLK
  5
21
330
1F
100
AcDbEntity
  8
0
100
AcDbBlockEnd
  0
BLOCK
  5
1C
330
1B
100
AcDbEntity
 67
     1
  8
0
100
AcDbBlockBegin
  2
*Paper_Space
 70
     0
 10
0.0
 20
0.0
 30
0.0
  3
*Paper_Space
  1

  0
ENDBLK
  5
1D
330
1B
100
AcDbEntity
 67
     1
  8
0
100
AcDbBlockEnd
  0
BLOCK
  5
24
330
23
100
AcDbEntity
  8
0
100
AcDbBlockBegin
  2
*Paper_Space0
 70
     0
 10
0.0
 20
0.0
 30
0.0
  3
*Paper_Space0
  1

  0
ENDBLK
  5
25
330
23
100
AcDbEntity
  8
0
100
AcDbBlockEnd
  0
BLOCK
  5
157
330
156
100
AcDbEntity
  8
0
100
AcDbBlockBegin
  2
_D
 70
     0
 10
0.0
 20
0.0
 30
0.0
  3
_D
  1

  0
SOLID
  5
159
330
156
100
AcDbEntity
  8
0
  6
Continuous
 62
     7
370
     0
100
AcDbTrace
 10
80.7386614189
 20
94.7687944565
 30
0.0
 11
83.7386614189
 21
94.0187944565
 31
0.0
 12
83.7386614189
 22
95.5187944565
 32
0.0
 13
83.7386614189
 23
95.5187944565
 33
0.0
  0
SOLID
  5
15A
330
156
100
AcDbEntity
  8
0
  6
Continuous
 62
     7
370
     0
100
AcDbTrace
 10
136.7386614189
 20
94.7687944565
 30
0.0
 11
133.7386614189
 21
95.5187944565
 31
0.0
 12
133.7386614189
 22
94.0187944565
 32
0.0
 13
133.7386614189
 23
94.0187944565
 33
0.0
  0
LINE
  5
15B
330
156
100
AcDbEntity
  8
0
  6
Continuous
 62
     7
370
     0
100
AcDbLine
 10
80.7386614189
 20
145.4693895257
 30
0.0
 11
80.7386614189
 21
93.7687944565
 31
0.0
  0
LINE
  5
15C
330
156
100
AcDbEntity
  8
0
  6
Continuous
 62
     7
370
     0
100
AcDbLine
 10
136.7386614189
 20
145.4693895257
 30
0.0
 11
136.7386614189
 21
93.7687944565
 31
0.0
  0
LINE
  5
15D
330
156
100
AcDbEntity
  8
0
  6
Continuous
 62
     7
370
     0
100
AcDbLine
 10
80.7386614189
 20
94.7687944565
 30
0.0
 11
136.7386614189
 21
94.7687944565
 31
0.0
  0
MTEXT
  5
15E
330
156
100
AcDbEntity
  8
0
  6
Continuous
 62
     7
370
     0
100
AcDbMText
 10
104.7668905474
 20
99.2805317786
 30
0.1
 40
3.5
 41
0.0
 71
     1
 72
     1
  1
%%c
  7
SLDTEXTSTYLE0
 73
     1
 44
1.0
  0
MTEXT
  5
15F
330
156
100
AcDbEntity
  8
0
  6
Continuous
 62
     7
370
     0
100
AcDbMText
 10
108.6368210625
 20
99.2805317786
 30
0.1
 40
3.5
 41
0.0
 71
     1
 72
     1
  1
56
  7
SLDTEXTSTYLE0
 73
     1
 44
1.0
  0
ENDBLK
  5
158
330
156
100
AcDbEntity
  8
0
100
AcDbBlockEnd
  0
BLOCK
  5
162
330
161
100
AcDbEntity
  8
0
100
AcDbBlockBegin
  2
_D_1
 70
     0
 10
0.0
 20
0.0
 30
0.0
  3
_D_1
  1

  0
SOLID
  5
164
330
161
100
AcDbEntity
  8
0
  6
Continuous
 62
     7
370
     0
100
AcDbTrace
 10
128.7386614189
 20
104.8327843583
 30
0.0
 11
125.7386614189
 21
105.5827843583
 31
0.0
 12
125.7386614189
 22
104.0827843583
 32
0.0
 13
125.7386614189
 23
104.0827843583
 33
0.0
  0
SOLID
  5
165
330
161
100
AcDbEntity
  8
0
  6
Continuous
 62
     7
370
     0
100
AcDbTrace
 10
88.7386614189
 20
104.8327843583
 30
0.0
 11
91.7386614189
 21
104.0827843583
 31
0.0
 12
91.7386614189
 22
105.5827843583
 32
0.0
 13
91.7386614189
 23
105.5827843583
 33
0.0
  0
LINE
  5
166
330
161
100
AcDbEntity
  8
0
  6
Continuous
 62
     7
370
     0
100
AcDbLine
 10
128.7386614189
 20
145.4693895257
 30
0.0
 11
128.7386614189
 21
103.8327843583
 31
0.0
  0
LINE
  5
167
330
161
100
AcDbEntity
  8
0
  6
Continuous
 62
     7
370
     0
100
AcDbLine
 10
88.7386614189
 20
145.4693895257
 30
0.0
 11
88.7386614189
 21
103.8327843583
 31
0.0
  0
LINE
  5
168
330
161
100
AcDbEntity
  8
0
  6
Continuous
 62
     7
370
     0
100
AcDbLine
 10
128.7386614189
 20
104.8327843583
 30
0.0
 11
88.7386614189
 21
104.8327843583
 31
0.0
  0
MTEXT
  5
169
330
161
100
AcDbEntity
  8
0
  6
Continuous
 62
     7
370
     0
100
AcDbMText
 10
100.5914394289
 20
109.3445212146
 30
0.1
 40
3.5
 41
0.0
 71
     1
 72
     1
  1
P.C.D.
  7
SLDTEXTSTYLE0
 73
     1
 44
1.0
  0
MTEXT
  5
16A
330
161
100
AcDbEntity
  8
0
  6
Continuous
 62
     7
370
     0
100
AcDbMText
 10
112.8122728795
 20
109.3445212146
 30
0.1
 40
3.5
 41
0.0
 71
     1
 72
     1
  1
40
  7
SLDTEXTSTYLE0
 73
     1
 44
1.0
  0
ENDBLK
  5
163
330
161
100
AcDbEntity
  8
0
100
AcDbBlockEnd
  0
BLOCK
  5
16E
330
16D
100
AcDbEntity
  8
0
100
AcDbBlockBegin
  2
_D_2
 70
     0
 10
0.0
 20
0.0
 30
0.0
  3
_D_2
  1

  0
ARC
  5
170
330
16D
100
AcDbEntity
  8
0
  6
Continuous
 62
     7
370
     0
100
AcDbCircle
 10
108.7386614189
 20
146.4693895257
 30
0.0
 40
40.84733145556619
100
AcDbArc
 50
0.0
 51
45.0
  0
SOLID
  5
171
330
16D
100
AcDbEntity
  8
0
  6
Continuous
 62
     7
370
     0
100
AcDbTrace
 10
149.5859928744
 20
146.4693895257
 30
0.0
 11
150.225544802
 21
149.4948602877
 31
0.0
 12
148.7265524519
 22
149.439888164
 32
0.0
 13
148.7265524519
 23
149.439888164
 33
0.0
  0
SOLID
  5
172
330
16D
100
AcDbEntity
  8
0
  6
Continuous
 62
     7
370
     0
100
AcDbTrace
 10
137.6220864845
 20
175.3528145913
 30
0.0
 11
139.1148300643
 21
172.6446387098
 31
0.0
 12
140.2136488815
 22
173.6657152041
 32
0.0
 13
140.2136488815
 23
173.6657152041
 33
0.0
  0
LINE
  5
173
330
16D
100
AcDbEntity
  8
0
  6
Continuous
 62
     7
370
     0
100
AcDbLine
 10
140.2386614189
 20
146.4693895257
 30
0.0
 11
150.5859928744
 21
146.4693895257
 31
0.0
  0
LINE
  5
174
330
16D
100
AcDbEntity
  8
0
  6
Continuous
 62
     7
370
     0
100
AcDbLine
 10
127.1234377297
 20
164.8541658365
 30
0.0
 11
138.3291932656
 21
176.0599213725
 31
0.0
  0
MTEXT
  5
175
330
16D
100
AcDbEntity
  8
0
  6
Continuous
 62
     7
370
     0
100
AcDbMText
 10
149.0860728084
 20
167.5910792978
 30
4.4673602554
 40
3.5
 41
0.0
 71
     1
 72
     1
  1
45°
  7
SLDTEXTSTYLE0
 11
0.3826834323650825
 21
-0.9238795325112898
 31
0.0
 73
     1
 44
1.0
  0
ENDBLK
  5
16F
330
16D
100
AcDbEntity
  8
0
100
AcDbBlockEnd
  0
BLOCK
  5
179
330
178
100
AcDbEntity
  8
0
100
AcDbBlockBegin
  2
_D_3
 70
     0
 10
0.0
 20
0.0
 30
0.0
  3
_D_3
  1

  0
SOLID
  5
17B
330
178
100
AcDbEntity
  8
0
  6
Continuous
 62
     7
370
     0
100
AcDbTrace
 10
92.810519316
 20
162.3608624114
 30
0.0
 11
91.1921127196
 21
164.9958690696
 31
0.0
 12
90.1425103623
 22
163.9242651821
 32
0.0
 13
90.1425103623
 23
163.9242651821
 33
0.0
  0
LINE
  5
17C
330
178
100
AcDbEntity
  8
0
  6
Continuous
 62
     7
370
     0
100
AcDbLine
 10
92.810519316
 20
162.3608624114
 30
0.0
 11
80.6274030203
 21
174.293842248
 31
0.0
  0
LINE
  5
17D
330
178
100
AcDbEntity
  8
0
  6
Continuous
 62
     7
370
     0
100
AcDbLine
 10
80.6274030203
 20
174.293842248
 30
0.0
 11
40.7479606921
 21
174.293842248
 31
0.0
  0
MTEXT
  5
17E
330
178
100
AcDbEntity
  8
0
  6
Continuous
 62
     7
370
     0
100
AcDbMText
 10
40.7479606921
 20
178.80557957
 30
4.4673602554
 40
3.5
 41
0.0
 71
     1
 72
     1
  1
4-M
  7
SLDTEXTSTYLE0
 73
     1
 44
1.0
  0
MTEXT
  5
17F
330
178
100
AcDbEntity
  8
0
  6
Continuous
 62
     7
370
     0
100
AcDbMText
 10
46.8583774173
 20
178.80557957
 30
4.4673602554
 40
3.5
 41
0.0
 71
     1
 72
     1
  1
6
  7
SLDTEXTSTYLE0
 73
     1
 44
1.0
  0
MTEXT
  5
180
330
178
100
AcDbEntity
  8
0
  6
Continuous
 62
     7
370
     0
100
AcDbMText
 10
48.895182682
 20
178.80557957
 30
4.4673602554
 40
3.5
 41
0.0
 71
     1
 72
     1
  1
(90
  7
SLDTEXTSTYLE0
 73
     1
 44
1.0
  0
MTEXT
  5
181
330
178
100
AcDbEntity
  8
0
  6
Continuous
 62
     7
370
     0
100
AcDbMText
 10
55.0055994073
 20
178.80557957
 30
4.4673602554
 40
3.5
 41
0.0
 71
     1
 72
     1
  1
%%d
  7
SLDTEXTSTYLE0
 73
     1
 44
1.0
  0
MTEXT
  5
182
330
178
100
AcDbEntity
  8
0
  6
Continuous
 62
     7
370
     0
100
AcDbMText
 10
56.6350441778
 20
178.80557957
 30
4.4673602554
 40
3.5
 41
0.0
 71
     1
 72
     1
  1
等配)　　　
  7
SLDTEXTSTYLE0
 73
     1
 44
1.0
  0
ENDBLK
  5
17A
330
178
100
AcDbEntity
  8
0
100
AcDbBlockEnd
  0
BLOCK
  5
185
330
184
100
AcDbEntity
  8
0
100
AcDbBlockBegin
  2
SW_CENTERMARKSYMBOL_0
 70
     0
 10
0.0
 20
0.0
 30
0.0
  3
SW_CENTERMARKSYMBOL_0
  1

  0
LINE
  5
187
330
184
100
AcDbEntity
  8
0
  6
Continuous
 62
     0
370
     0
100
AcDbLine
 10
0.0
 20
0.0
 30
0.0
 11
0.0
 21
2.5
 31
0.0
  0
LINE
  5
188
330
184
100
AcDbEntity
  8
0
  6
Continuous
 62
     0
370
     0
100
AcDbLine
 10
0.0
 20
0.0
 30
0.0
 11
-2.5
 21
0.0
 31
0.0
  0
LINE
  5
189
330
184
100
AcDbEntity
  8
0
  6
Continuous
 62
     0
370
     0
100
AcDbLine
 10
0.0
 20
0.0
 30
0.0
 11
0.0
 21
-2.5
 31
0.0
  0
LINE
  5
18A
330
184
100
AcDbEntity
  8
0
  6
Continuous
 62
     0
370
     0
100
AcDbLine
 10
0.0
 20
0.0
 30
0.0
 11
2.5
 21
0.0
 31
0.0
  0
LINE
  5
18B
330
184
100
AcDbEntity
  8
0
  6
Continuous
 62
     0
370
     0
100
AcDbLine
 10
0.0
 20
5.0
 30
0.0
 11
0.0
 21
30.5
 31
0.0
  0
LINE
  5
18C
330
184
100
AcDbEntity
  8
0
  6
Continuous
 62
     0
370
     0
100
AcDbLine
 10
-5.0
 20
0.0
 30
0.0
 11
-30.5
 21
0.0
 31
0.0
  0
LINE
  5
18D
330
184
100
AcDbEntity
  8
0
  6
Continuous
 62
     0
370
     0
100
AcDbLine
 10
0.0
 20
-5.0
 30
0.0
 11
0.0
 21
-30.5
 31
0.0
  0
LINE
  5
18E
330
184
100
AcDbEntity
  8
0
  6
Continuous
 62
     0
370
     0
100
AcDbLine
 10
5.0
 20
0.0
 30
0.0
 11
30.5
 21
0.0
 31
0.0
  0
ENDBLK
  5
186
330
184
100
AcDbEntity
  8
0
100
AcDbBlockEnd
  0
BLOCK
  5
191
330
190
100
AcDbEntity
  8
0
100
AcDbBlockBegin
  2
SW_CENTERMARKSYMBOL_1
 70
     0
 10
0.0
 20
0.0
 30
0.0
  3
SW_CENTERMARKSYMBOL_1
  1

  0
ARC
  5
193
330
190
100
AcDbEntity
  8
0
  6
Continuous
 62
     0
370
     0
100
AcDbCircle
 10
14.1421356237
 20
14.1421356237
 30
0.0
 40
20.00000000000001
100
AcDbArc
 50
225.0
 51
232.1619724391
  0
ARC
  5
194
330
190
100
AcDbEntity
  8
0
  6
Continuous
 62
     0
370
     0
100
AcDbCircle
 10
14.1421356237
 20
14.1421356237
 30
0.0
 40
20.00000000000001
100
AcDbArc
 50
217.8380275609
 51
225.0
  0
ARC
  5
195
330
190
100
AcDbEntity
  8
0
  6
Continuous
 62
     0
370
     0
100
AcDbCircle
 10
14.1421356237
 20
14.1421356237
 30
0.0
 40
20.0
100
AcDbArc
 50
315.0
 51
322.1619724391
  0
ARC
  5
196
330
190
100
AcDbEntity
  8
0
  6
Continuous
 62
     0
370
     0
100
AcDbCircle
 10
14.1421356237
 20
14.1421356237
 30
0.0
 40
20.00000000000001
100
AcDbArc
 50
307.8380275609
 51
315.0
  0
ARC
  5
197
330
190
100
AcDbEntity
  8
0
  6
Continuous
 62
     0
370
     0
100
AcDbCircle
 10
14.1421356237
 20
14.1421356237
 30
0.0
 40
20.00000000000001
100
AcDbArc
 50
45.0
 51
52.1619724391
  0
ARC
  5
198
330
190
100
AcDbEntity
  8
0
  6
Continuous
 62
     0
370
     0
100
AcDbCircle
 10
14.1421356237
 20
14.1421356237
 30
0.0
 40
20.0
100
AcDbArc
 50
37.8380275609
 51
45.0
  0
ARC
  5
199
330
190
100
AcDbEntity
  8
0
  6
Continuous
 62
     0
370
     0
100
AcDbCircle
 10
14.1421356237
 20
14.1421356237
 30
0.0
 40
20.00000000000001
100
AcDbArc
 50
135.0
 51
142.1619724391
  0
ARC
  5
19A
330
190
100
AcDbEntity
  8
0
  6
Continuous
 62
     0
370
     0
100
AcDbCircle
 10
14.1421356237
 20
14.1421356237
 30
0.0
 40
20.00000000000001
100
AcDbArc
 50
127.8380275609
 51
135.0
  0
ARC
  5
19B
330
190
100
AcDbEntity
  8
0
  6
Continuous
 62
     0
370
     0
100
AcDbCircle
 10
14.1421356237
 20
14.1421356237
 30
0.0
 40
20.0
100
AcDbArc
 50
239.3239448783
 51
300.6760551217
  0
ARC
  5
19C
330
190
100
AcDbEntity
  8
0
  6
Continuous
 62
     0
370
     0
100
AcDbCircle
 10
14.1421356237
 20
14.1421356237
 30
0.0
 40
20.00000000000001
100
AcDbArc
 50
329.3239448783
 51
30.6760551217
  0
ARC
  5
19D
330
190
100
AcDbEntity
  8
0
  6
Continuous
 62
     0
370
     0
100
AcDbCircle
 10
14.1421356237
 20
14.1421356237
 30
0.0
 40
20.00000000000001
100
AcDbArc
 50
59.3239448783
 51
120.6760551217
  0
ARC
  5
19E
330
190
100
AcDbEntity
  8
0
  6
Continuous
 62
     0
370
     0
100
AcDbCircle
 10
14.1421356237
 20
14.1421356237
 30
0.0
 40
20.00000000000001
100
AcDbArc
 50
149.3239448783
 51
210.6760551217
  0
LINE
  5
19F
330
190
100
AcDbEntity
  8
0
  6
Continuous
 62
     0
370
     0
100
AcDbLine
 10
0.0
 20
0.0
 30
0.0
 11
-1.767766953
 21
-1.767766953
 31
0.0
  0
LINE
  5
1A0
330
190
100
AcDbEntity
  8
0
  6
Continuous
 62
     0
370
     0
100
AcDbLine
 10
0.0
 20
0.0
 30
0.0
 11
1.767766953
 21
1.767766953
 31
0.0
  0
LINE
  5
1A1
330
190
100
AcDbEntity
  8
0
  6
Continuous
 62
     0
370
     0
100
AcDbLine
 10
-1.767766953
 20
-1.767766953
 30
0.0
 11
-3.5355339059
 21
-3.5355339059
 31
0.0
  0
LINE
  5
1A2
330
190
100
AcDbEntity
  8
0
  6
Continuous
 62
     0
370
     0
100
AcDbLine
 10
1.767766953
 20
1.767766953
 30
0.0
 11
3.5355339059
 21
3.5355339059
 31
0.0
  0
LINE
  5
1A3
330
190
100
AcDbEntity
  8
0
  6
Continuous
 62
     0
370
     0
100
AcDbLine
 10
28.2842712475
 20
0.0
 30
0.0
 11
30.0520382004
 21
-1.767766953
 31
0.0
  0
LINE
  5
1A4
330
190
100
AcDbEntity
  8
0
  6
Continuous
 62
     0
370
     0
100
AcDbLine
 10
28.2842712475
 20
0.0
 30
0.0
 11
26.5165042945
 21
1.767766953
 31
0.0
  0
LINE
  5
1A5
330
190
100
AcDbEntity
  8
0
  6
Continuous
 62
     0
370
     0
100
AcDbLine
 10
30.0520382004
 20
-1.767766953
 30
0.0
 11
31.8198051534
 21
-3.5355339059
 31
0.0
  0
LINE
  5
1A6
330
190
100
AcDbEntity
  8
0
  6
Continuous
 62
     0
370
     0
100
AcDbLine
 10
26.5165042945
 20
1.767766953
 30
0.0
 11
24.7487373415
 21
3.5355339059
 31
0.0
  0
LINE
  5
1A7
330
190
100
AcDbEntity
  8
0
  6
Continuous
 62
     0
370
     0
100
AcDbLine
 10
28.2842712475
 20
28.2842712475
 30
0.0
 11
30.0520382004
 21
30.0520382004
 31
0.0
  0
LINE
  5
1A8
330
190
100
AcDbEntity
  8
0
  6
Continuous
 62
     0
370
     0
100
AcDbLine
 10
28.2842712475
 20
28.2842712475
 30
0.0
 11
26.5165042945
 21
26.5165042945
 31
0.0
  0
LINE
  5
1A9
330
190
100
AcDbEntity
  8
0
  6
Continuous
 62
     0
370
     0
100
AcDbLine
 10
30.0520382004
 20
30.0520382004
 30
0.0
 11
31.8198051534
 21
31.8198051534
 31
0.0
  0
LINE
  5
1AA
330
190
100
AcDbEntity
  8
0
  6
Continuous
 62
     0
370
     0
100
AcDbLine
 10
26.5165042945
 20
26.5165042945
 30
0.0
 11
24.7487373415
 21
24.7487373415
 31
0.0
  0
LINE
  5
1AB
330
190
100
AcDbEntity
  8
0
  6
Continuous
 62
     0
370
     0
100
AcDbLine
 10
14.1421356237
 20
14.1421356237
 30
0.0
 11
14.1421356237
 21
16.6421356237
 31
0.0
  0
LINE
  5
1AC
330
190
100
AcDbEntity
  8
0
  6
Continuous
 62
     0
370
     0
100
AcDbLine
 10
14.1421356237
 20
14.1421356237
 30
0.0
 11
11.6421356237
 21
14.1421356237
 31
0.0
  0
LINE
  5
1AD
330
190
100
AcDbEntity
  8
0
  6
Continuous
 62
     0
370
     0
100
AcDbLine
 10
14.1421356237
 20
14.1421356237
 30
0.0
 11
14.1421356237
 21
11.6421356237
 31
0.0
  0
LINE
  5
1AE
330
190
100
AcDbEntity
  8
0
  6
Continuous
 62
     0
370
     0
100
AcDbLine
 10
14.1421356237
 20
14.1421356237
 30
0.0
 11
16.6421356237
 21
14.1421356237
 31
0.0
  0
LINE
  5
1AF
330
190
100
AcDbEntity
  8
0
  6
Continuous
 62
     0
370
     0
100
AcDbLine
 10
14.1421356237
 20
19.1421356237
 30
0.0
 11
14.1421356237
 21
30.7842712475
 31
0.0
  0
LINE
  5
1B0
330
190
100
AcDbEntity
  8
0
  6
Continuous
 62
     0
370
     0
100
AcDbLine
 10
9.1421356237
 20
14.1421356237
 30
0.0
 11
-2.5
 21
14.1421356237
 31
0.0
  0
LINE
  5
1B1
330
190
100
AcDbEntity
  8
0
  6
Continuous
 62
     0
370
     0
100
AcDbLine
 10
14.1421356237
 20
9.1421356237
 30
0.0
 11
14.1421356237
 21
-2.5
 31
0.0
  0
LINE
  5
1B2
330
190
100
AcDbEntity
  8
0
  6
Continuous
 62
     0
370
     0
100
AcDbLine
 10
19.1421356237
 20
14.1421356237
 30
0.0
 11
30.7842712475
 21
14.1421356237
 31
0.0
  0
LINE
  5
1B3
330
190
100
AcDbEntity
  8
0
  6
Continuous
 62
     0
370
     0
100
AcDbLine
 10
0.0
 20
28.2842712475
 30
0.0
 11
-1.767766953
 21
30.0520382004
 31
0.0
  0
LINE
  5
1B4
330
190
100
AcDbEntity
  8
0
  6
Continuous
 62
     0
370
     0
100
AcDbLine
 10
0.0
 20
28.2842712475
 30
0.0
 11
1.767766953
 21
26.5165042945
 31
0.0
  0
LINE
  5
1B5
330
190
100
AcDbEntity
  8
0
  6
Continuous
 62
     0
370
     0
100
AcDbLine
 10
-1.767766953
 20
30.0520382004
 30
0.0
 11
-3.5355339059
 21
31.8198051534
 31
0.0
  0
LINE
  5
1B6
330
190
100
AcDbEntity
  8
0
  6
Continuous
 62
     0
370
     0
100
AcDbLine
 10
1.767766953
 20
26.5165042945
 30
0.0
 11
3.5355339059
 21
24.7487373415
 31
0.0
  0
ENDBLK
  5
192
330
190
100
AcDbEntity
  8
0
100
AcDbBlockEnd
  0
BLOCK
  5
254
330
253
100
AcDbEntity
  8
0
100
AcDbBlockBegin
  2
_D_4
 70
     0
 10
0.0
 20
0.0
 30
0.0
  3
_D_4
  1

  0
SOLID
  5
256
330
253
100
AcDbEntity
  8
0
  6
Continuous
 62
     7
370
     0
100
AcDbTrace
 10
70.7386614189
 20
227.8011471333
 30
0.0
 11
71.4886614189
 21
230.8011471333
 31
0.0
 12
69.9886614189
 22
230.8011471333
 32
0.0
 13
69.9886614189
 23
230.8011471333
 33
0.0
  0
SOLID
  5
257
330
253
100
AcDbEntity
  8
0
  6
Continuous
 62
     7
370
     0
100
AcDbTrace
 10
70.7386614189
 20
215.3011471333
 30
0.0
 11
69.9886614189
 21
212.3011471333
 31
0.0
 12
71.4886614189
 22
212.3011471333
 32
0.0
 13
71.4886614189
 23
212.3011471333
 33
0.0
  0
LINE
  5
258
330
253
100
AcDbEntity
  8
0
  6
Continuous
 62
     7
370
     0
100
AcDbLine
 10
80.2386614189
 20
227.8011471333
 30
0.0
 11
69.7386614189
 21
227.8011471333
 31
0.0
  0
LINE
  5
259
330
253
100
AcDbEntity
  8
0
  6
Continuous
 62
     7
370
     0
100
AcDbLine
 10
80.2574879495
 20
215.3011471333
 30
0.0
 11
69.7386614189
 21
215.3011471333
 31
0.0
  0
LINE
  5
25A
330
253
100
AcDbEntity
  8
0
  6
Continuous
 62
     7
370
     0
100
AcDbLine
 10
70.7386614189
 20
227.8011471333
 30
0.0
 11
70.7386614189
 21
232.8011471333
 31
0.0
  0
LINE
  5
25B
330
253
100
AcDbEntity
  8
0
  6
Continuous
 62
     7
370
     0
100
AcDbLine
 10
70.7386614189
 20
227.8011471333
 30
0.0
 11
70.7386614189
 21
215.3011471333
 31
0.0
  0
LINE
  5
25C
330
253
100
AcDbEntity
  8
0
  6
Continuous
 62
     7
370
     0
100
AcDbLine
 10
70.7386614189
 20
215.3011471333
 30
0.0
 11
70.7386614189
 21
210.3011471333
 31
0.0
  0
MTEXT
  5
25D
330
253
100
AcDbEntity
  8
0
  6
Continuous
 62
     7
370
     0
100
AcDbMText
 10
66.2269245625
 20
217.4775361384
 30
0.1
 40
3.5
 41
0.0
 71
     1
 72
     1
  1
12.5
  7
SLDTEXTSTYLE0
 11
-7.044195017643634E-15
 21
1.0
 31
0.0
 73
     1
 44
1.0
  0
ENDBLK
  5
255
330
253
100
AcDbEntity
  8
0
100
AcDbBlockEnd
  0
BLOCK
  5
260
330
25F
100
AcDbEntity
  8
0
100
AcDbBlockBegin
  2
_D_5
 70
     0
 10
0.0
 20
0.0
 30
0.0
  3
_D_5
  1

  0
SOLID
  5
262
330
25F
100
AcDbEntity
  8
0
  6
Continuous
 62
     7
370
     0
100
AcDbTrace
 10
60.5917926794
 20
227.8011471333
 30
0.0
 11
59.8417926794
 21
224.8011471333
 31
0.0
 12
61.3417926794
 22
224.8011471333
 32
0.0
 13
61.3417926794
 23
224.8011471333
 33
0.0
  0
SOLID
  5
263
330
25F
100
AcDbEntity
  8
0
  6
Continuous
 62
     7
370
     0
100
AcDbTrace
 10
60.5917926794
 20
211.5011471333
 30
0.0
 11
61.3417926794
 21
214.5011471333
 31
0.0
 12
59.8417926794
 22
214.5011471333
 32
0.0
 13
59.8417926794
 23
214.5011471333
 33
0.0
  0
LINE
  5
264
330
25F
100
AcDbEntity
  8
0
  6
Continuous
 62
     7
370
     0
100
AcDbLine
 10
80.2386614189
 20
227.8011471333
 30
0.0
 11
59.5917926794
 21
227.8011471333
 31
0.0
  0
LINE
  5
265
330
25F
100
AcDbEntity
  8
0
  6
Continuous
 62
     7
370
     0
100
AcDbLine
 10
85.3159141707
 20
211.5011471333
 30
0.0
 11
59.5917926794
 21
211.5011471333
 31
0.0
  0
LINE
  5
266
330
25F
100
AcDbEntity
  8
0
  6
Continuous
 62
     7
370
     0
100
AcDbLine
 10
60.5917926794
 20
227.8011471333
 30
0.0
 11
60.5917926794
 21
211.5011471333
 31
0.0
  0
MTEXT
  5
267
330
25F
100
AcDbEntity
  8
0
  6
Continuous
 62
     7
370
     0
100
AcDbMText
 10
56.080055823
 20
215.5775361384
 30
0.1
 40
3.5
 41
0.0
 71
     1
 72
     1
  1
16.3
  7
SLDTEXTSTYLE0
 11
-6.156016597943509E-15
 21
1.0
 31
0.0
 73
     1
 44
1.0
  0
ENDBLK
  5
261
330
25F
100
AcDbEntity
  8
0
100
AcDbBlockEnd
  0
ENDSEC
  0
SECTION
  2
ENTITIES
  0
LINE
  5
44
330
1F
100
AcDbEntity
  8
0
  6
Continuous
 62
     7
370
     0
100
AcDbLine
 10
20.2604743903
 20
285.0
 30
0.0
 11
196.7604743903
 21
285.0
 31
0.0
  0
LINE
  5
45
330
1F
100
AcDbEntity
  8
0
  6
Continuous
 62
     7
370
     0
100
AcDbLine
 10
20.2604743903
 20
285.0
 30
0.0
 11
20.2604743903
 21
10.0
 31
0.0
  0
LINE
  5
46
330
1F
100
AcDbEntity
  8
0
  6
Continuous
 62
     7
370
     0
100
AcDbLine
 10
20.2604743903
 20
10.0
 30
0.0
 11
196.7604743903
 21
10.0
 31
0.0
  0
LINE
  5
47
330
1F
100
AcDbEntity
  8
0
  6
Continuous
 62
     7
370
     0
100
AcDbLine
 10
196.7604743903
 20
285.0
 30
0.0
 11
196.7604743903
 21
10.0
 31
0.0
  0
LINE
  5
48
330
1F
100
AcDbEntity
  8
0
  6
Continuous
 62
     7
370
     0
100
AcDbLine
 10
127.0104743903
 20
50.75
 30
0.0
 11
196.7604743903
 21
50.75
 31
0.0
  0
LINE
  5
49
330
1F
100
AcDbEntity
  8
0
  6
Continuous
 62
     7
370
     0
100
AcDbLine
 10
127.0104743903
 20
50.75
 30
0.0
 11
127.0104743903
 21
10.0
 31
0.0
  0
LINE
  5
4A
330
1F
100
AcDbEntity
  8
0
  6
Continuous
 62
     7
370
     0
100
AcDbLine
 10
127.0104743903
 20
22.75
 30
0.0
 11
196.7604743903
 21
22.75
 31
0.0
  0
LINE
  5
4B
330
1F
100
AcDbEntity
  8
0
  6
Continuous
 62
     7
370
     0
100
AcDbLine
 10
127.0104743903
 20
36.75
 30
0.0
 11
196.7604743903
 21
36.75
 31
0.0
  0
MTEXT
  5
4D
330
1F
100
AcDbEntity
  8
0
  6
Continuous
 62
     7
370
     0
100
AcDbMText
 10
162.4753935862
 20
30.4171582345
 30
0.0
 40
4.2333333333
 41
0.0
 71
     2
 72
     1
  1
OX-10BI
  7
SLDTEXTSTYLE0
 73
     1
 44
1.0
  0
MTEXT
  5
4E
330
1F
100
AcDbEntity
  8
0
  6
Continuous
 62
     7
370
     0
100
AcDbMText
 10
159.7922876668
 20
44.1474041745
 30
0.0
 40
3.175
 41
0.0
 71
     2
 72
     1
  1
ツールチェンジャー・ツール側
  7
SLDTEXTSTYLE0
 73
     1
 44
1.0
  0
MTEXT
  5
4F
330
1F
100
AcDbEntity
  8
0
  6
Continuous
 62
     7
370
     0
100
AcDbMText
 10
162.5721655586
 20
16.8228189052
 30
0.0
 40
4.2333333333
 41
0.0
 71
     2
 72
     1
  1
140263
  7
SLDTEXTSTYLE0
 73
     1
 44
1.0
  0
SPLINE
  5
50
330
1F
100
AcDbEntity
  8
0
  6
Continuous
 62
     7
370
     0
100
AcDbSpline
210
0.0
220
0.0
230
1.0
 70
    24
 71
     3
 72
     8
 73
     4
 74
     0
 42
0.00000001
 43
0.00000001
 12
1.0
 22
0.0
 32
0.0
 13
1.0
 23
0.0
 33
0.0
 40
0.0
 40
0.0
 40
0.0
 40
0.0
 40
1.0
 40
1.0
 40
1.0
 40
1.0
 10
89.31535519027662
 20
139.6847490502908
 30
0.0
 10
89.41536945182594
 20
139.6504155400365
 30
0.0
 10
89.51454527773677
 20
139.6163698531201
 30
0.0
 10
89.61323982572527
 20
139.5824893822461
 30
0.0
  0
ARC
  5
51
330
1F
100
AcDbEntity
  8
0
  6
Continuous
 62
     7
370
     0
100
AcDbCircle
 10
87.8154180604
 20
139.6710156494
 30
0.0
 40
1.500000000000013
100
AcDbArc
 50
0.524584601
 51
141.582143332
  0
SPLINE
  5
52
330
1F
100
AcDbEntity
  8
0
  6
Continuous
 62
     7
370
     0
100
AcDbSpline
210
0.0
220
0.0
230
1.0
 70
    24
 71
     3
 72
     8
 73
     4
 74
     0
 42
0.00000001
 43
0.00000001
 12
1.0
 22
0.0
 32
0.0
 13
1.0
 23
0.0
 33
0.0
 40
0.0
 40
0.0
 40
0.0
 40
0.0
 40
1.0
 40
1.0
 40
1.0
 40
1.0
 10
86.34228367419539
 20
140.7053633087261
 30
0.0
 10
86.44097609270595
 20
140.6714835688724
 30
0.0
 10
86.54014069850247
 20
140.6374417336658
 30
0.0
 10
86.64016830964407
 20
140.6031036406814
 30
0.0
  0
ARC
  5
53
330
1F
100
AcDbEntity
  8
0
  6
Continuous
 62
     7
370
     0
100
AcDbCircle
 10
87.8154180604
 20
139.6710156494
 30
0.0
 40
1.800000000000007
100
AcDbArc
 50
357.1809841796
 51
144.9257437533
  0
LINE
  5
54
330
1F
100
AcDbEntity
  8
0
  6
Continuous
 62
     7
370
     0
100
AcDbLine
 10
87.1243441389
 20
139.3796107162
 30
0.0
 11
86.3154809304
 21
139.6572822486
 31
0.0
  0
ARC
  5
55
330
1F
100
AcDbEntity
  8
0
  6
Continuous
 62
     7
370
     0
100
AcDbCircle
 10
87.8154180604
 20
139.6710156494
 30
0.0
 40
0.7500000000000026
100
AcDbArc
 50
202.8636788623
 51
299.2430490707
  0
LINE
  5
56
330
1F
100
AcDbEntity
  8
0
  6
Continuous
 62
     7
370
     0
100
AcDbLine
 10
88.9906678111
 20
138.7389276582
 30
0.0
 11
88.1818046026
 21
139.0165991905
 31
0.0
  0
ARC
  5
57
330
1F
100
AcDbEntity
  8
0
  6
Continuous
 62
     7
370
     0
100
AcDbCircle
 10
87.8154180604
 20
139.6710156494
 30
0.0
 40
1.499999999999998
100
AcDbArc
 50
180.524584601
 51
321.582143332
  0
ARC
  5
58
330
1F
100
AcDbEntity
  8
0
  6
Continuous
 62
     7
370
     0
100
AcDbCircle
 10
87.8154180604
 20
139.6710156494
 30
0.0
 40
0.7500000000000157
100
AcDbArc
 50
22.8636788623
 51
119.2430490707
  0
LINE
  5
59
330
1F
100
AcDbEntity
  8
0
  6
Continuous
 62
     7
370
     0
100
AcDbLine
 10
87.4490315181
 20
140.3254321083
 30
0.0
 11
86.6401683096
 21
140.6031036407
 31
0.0
  0
LINE
  5
5A
330
1F
100
AcDbEntity
  8
0
  6
Continuous
 62
     7
370
     0
100
AcDbLine
 10
89.3153551903
 20
139.6847490503
 30
0.0
 11
88.5064919818
 21
139.9624205827
 31
0.0
  0
SPLINE
  5
5B
330
1F
100
AcDbEntity
  8
0
  6
Continuous
 62
     7
370
     0
100
AcDbSpline
210
0.0
220
0.0
230
1.0
 70
    24
 71
     3
 72
     8
 73
     4
 74
     0
 42
0.00000001
 43
0.00000001
 12
1.0
 22
0.0
 32
0.0
 13
1.0
 23
0.0
 33
0.0
 40
0.0
 40
0.0
 40
0.0
 40
0.0
 40
1.0
 40
1.0
 40
1.0
 40
1.0
 10
89.2885524465258
 20
138.6366679901278
 30
0.0
 10
89.18986002801523
 20
138.6705477299815
 30
0.0
 10
89.09069542221872
 20
138.7045895651882
 30
0.0
 10
88.99066781107712
 20
138.7389276581725
 30
0.0
  0
ARC
  5
5C
330
1F
100
AcDbEntity
  8
0
  6
Continuous
 62
     7
370
     0
100
AcDbCircle
 10
87.8154180604
 20
139.6710156494
 30
0.0
 40
1.800000000000002
100
AcDbArc
 50
177.1809841796
 51
324.9257437533
  0
SPLINE
  5
5D
330
1F
100
AcDbEntity
  8
0
  6
Continuous
 62
     7
370
     0
100
AcDbSpline
210
0.0
220
0.0
230
1.0
 70
    24
 71
     3
 72
     8
 73
     4
 74
     0
 42
0.00000001
 43
0.00000001
 12
1.0
 22
0.0
 32
0.0
 13
1.0
 23
0.0
 33
0.0
 40
0.0
 40
0.0
 40
0.0
 40
0.0
 40
1.0
 40
1.0
 40
1.0
 40
1.0
 10
86.31548093044456
 20
139.6572822485631
 30
0.0
 10
86.21546666889525
 20
139.6916157588174
 30
0.0
 10
86.11629084298438
 20
139.7256614457338
 30
0.0
 10
86.01759629499591
 20
139.7595419166078
 30
0.0
  0
ARC
  5
5E
330
1F
100
AcDbEntity
  8
0
  6
Continuous
 62
     7
370
     0
100
AcDbCircle
 10
87.8154180604
 20
139.6710156494
 30
0.0
 40
1.800000000000007
100
AcDbArc
 50
144.9257437533
 51
177.1809841796
  0
ARC
  5
5F
330
1F
100
AcDbEntity
  8
0
  6
Continuous
 62
     7
370
     0
100
AcDbCircle
 10
87.8154180604
 20
139.6710156494
 30
0.0
 40
0.7500000000000026
100
AcDbArc
 50
119.2430490707
 51
202.8636788623
  0
ARC
  5
60
330
1F
100
AcDbEntity
  8
0
  6
Continuous
 62
     7
370
     0
100
AcDbCircle
 10
87.8154180604
 20
139.6710156494
 30
0.0
 40
1.800000000000002
100
AcDbArc
 50
324.9257437533
 51
357.1809841796
  0
ARC
  5
61
330
1F
100
AcDbEntity
  8
0
  6
Continuous
 62
     7
370
     0
100
AcDbCircle
 10
87.8154180604
 20
139.6710156494
 30
0.0
 40
0.7500000000000157
100
AcDbArc
 50
299.2430490707
 51
22.8636788623
  0
CIRCLE
  5
62
330
1F
100
AcDbEntity
  8
0
  6
Continuous
 62
     7
370
     0
100
AcDbCircle
 10
87.8154180604
 20
139.6710156494
 30
0.0
 40
3.799999999999991
  0
ARC
  5
63
330
1F
100
AcDbEntity
  8
0
  6
Continuous
 62
     7
370
     0
100
AcDbCircle
 10
87.8154180604
 20
139.6710156494
 30
0.0
 40
1.000000000000008
100
AcDbArc
 50
311.0533639665
 51
11.0533639665
  0
ARC
  5
64
330
1F
100
AcDbEntity
  8
0
  6
Continuous
 62
     7
370
     0
100
AcDbCircle
 10
87.8154180604
 20
139.6710156494
 30
0.0
 40
0.9999999999999898
100
AcDbArc
 50
131.0533639665
 51
191.0533639665
  0
CIRCLE
  5
65
330
1F
100
AcDbEntity
  8
0
  6
Continuous
 62
     7
370
     0
100
AcDbCircle
 10
87.8154180604
 20
139.6710156494
 30
0.0
 40
2.150000000000019
  0
CIRCLE
  5
66
330
1F
100
AcDbEntity
  8
0
  6
Continuous
 62
     7
370
     0
100
AcDbCircle
 10
87.8154180604
 20
139.6710156494
 30
0.0
 40
2.650000000000014
  0
SPLINE
  5
67
330
1F
100
AcDbEntity
  8
0
  6
Continuous
 62
     7
370
     0
100
AcDbSpline
210
0.0
220
0.0
230
1.0
 70
    24
 71
     3
 72
     8
 73
     4
 74
     0
 42
0.00000001
 43
0.00000001
 12
1.0
 22
0.0
 32
0.0
 13
1.0
 23
0.0
 33
0.0
 40
0.0
 40
0.0
 40
0.0
 40
0.0
 40
1.0
 40
1.0
 40
1.0
 40
1.0
 10
131.1618419072635
 20
153.2814968027881
 30
0.0
 10
131.2618561688128
 20
153.2471632925338
 30
0.0
 10
131.3610319947237
 20
153.2131176056174
 30
0.0
 10
131.4597265427122
 20
153.1792371347433
 30
0.0
  0
ARC
  5
68
330
1F
100
AcDbEntity
  8
0
  6
Continuous
 62
     7
370
     0
100
AcDbCircle
 10
129.6619047773
 20
153.2677634019
 30
0.0
 40
1.500000000000027
100
AcDbArc
 50
0.524584601
 51
141.582143332
  0
SPLINE
  5
69
330
1F
100
AcDbEntity
  8
0
  6
Continuous
 62
     7
370
     0
100
AcDbSpline
210
0.0
220
0.0
230
1.0
 70
    24
 71
     3
 72
     8
 73
     4
 74
     0
 42
0.00000001
 43
0.00000001
 12
1.0
 22
0.0
 32
0.0
 13
1.0
 23
0.0
 33
0.0
 40
0.0
 40
0.0
 40
0.0
 40
0.0
 40
1.0
 40
1.0
 40
1.0
 40
1.0
 10
128.1887703911823
 20
154.3021110612234
 30
0.0
 10
128.2874628096929
 20
154.2682313213697
 30
0.0
 10
128.3866274154894
 20
154.234189486163
 30
0.0
 10
128.486655026631
 20
154.1998513931787
 30
0.0
  0
ARC
  5
6A
330
1F
100
AcDbEntity
  8
0
  6
Continuous
 62
     7
370
     0
100
AcDbCircle
 10
129.6619047773
 20
153.2677634019
 30
0.0
 40
1.800000000000025
100
AcDbArc
 50
357.1809841796
 51
144.9257437533
  0
LINE
  5
6B
330
1F
100
AcDbEntity
  8
0
  6
Continuous
 62
     7
370
     0
100
AcDbLine
 10
130.3529786988
 20
153.5591683352
 30
0.0
 11
131.1618419073
 21
153.2814968028
 31
0.0
  0
ARC
  5
6C
330
1F
100
AcDbEntity
  8
0
  6
Continuous
 62
     7
370
     0
100
AcDbCircle
 10
129.6619047773
 20
153.2677634019
 30
0.0
 40
0.7500000000000288
100
AcDbArc
 50
22.8636788623
 51
119.2430490707
  0
LINE
  5
6D
330
1F
100
AcDbEntity
  8
0
  6
Continuous
 62
     7
370
     0
100
AcDbLine
 10
128.4866550266
 20
154.1998513932
 30
0.0
 11
129.2955182351
 21
153.9221798608
 31
0.0
  0
ARC
  5
6E
330
1F
100
AcDbEntity
  8
0
  6
Continuous
 62
     7
370
     0
100
AcDbCircle
 10
129.6619047773
 20
153.2677634019
 30
0.0
 40
1.50000000000001
100
AcDbArc
 50
180.524584601
 51
321.582143332
  0
ARC
  5
6F
330
1F
100
AcDbEntity
  8
0
  6
Continuous
 62
     7
370
     0
100
AcDbCircle
 10
129.6619047773
 20
153.2677634019
 30
0.0
 40
1.800000000000018
100
AcDbArc
 50
177.1809841796
 51
324.9257437533
  0
SPLINE
  5
70
330
1F
100
AcDbEntity
  8
0
  6
Continuous
 62
     7
370
     0
100
AcDbSpline
210
0.0
220
0.0
230
1.0
 70
    24
 71
     3
 72
     8
 73
     4
 74
     0
 42
0.00000001
 43
0.00000001
 12
1.0
 22
0.0
 32
0.0
 13
1.0
 23
0.0
 33
0.0
 40
0.0
 40
0.0
 40
0.0
 40
0.0
 40
1.0
 40
1.0
 40
1.0
 40
1.0
 10
131.1350391635127
 20
152.2334157426251
 30
0.0
 10
131.0363467450021
 20
152.2672954824788
 30
0.0
 10
130.9371821392056
 20
152.3013373176854
 30
0.0
 10
130.837154528064
 20
152.3356754106698
 30
0.0
  0
SPLINE
  5
71
330
1F
100
AcDbEntity
  8
0
  6
Continuous
 62
     7
370
     0
100
AcDbSpline
210
0.0
220
0.0
230
1.0
 70
    24
 71
     3
 72
     8
 73
     4
 74
     0
 42
0.00000001
 43
0.00000001
 12
1.0
 22
0.0
 32
0.0
 13
1.0
 23
0.0
 33
0.0
 40
0.0
 40
0.0
 40
0.0
 40
0.0
 40
1.0
 40
1.0
 40
1.0
 40
1.0
 10
128.1619676474315
 20
153.2540300010604
 30
0.0
 10
128.0619533858822
 20
153.2883635113147
 30
0.0
 10
127.9627775599713
 20
153.3224091982312
 30
0.0
 10
127.8640830119828
 20
153.3562896691051
 30
0.0
  0
ARC
  5
72
330
1F
100
AcDbEntity
  8
0
  6
Continuous
 62
     7
370
     0
100
AcDbCircle
 10
129.6619047773
 20
153.2677634019
 30
0.0
 40
0.7500000000000108
100
AcDbArc
 50
202.8636788623
 51
299.2430490707
  0
LINE
  5
73
330
1F
100
AcDbEntity
  8
0
  6
Continuous
 62
     7
370
     0
100
AcDbLine
 10
130.0282913196
 20
152.613346943
 30
0.0
 11
130.8371545281
 21
152.3356754107
 31
0.0
  0
LINE
  5
74
330
1F
100
AcDbEntity
  8
0
  6
Continuous
 62
     7
370
     0
100
AcDbLine
 10
128.1619676474
 20
153.2540300011
 30
0.0
 11
128.9708308559
 21
152.9763584687
 31
0.0
  0
ARC
  5
75
330
1F
100
AcDbEntity
  8
0
  6
Continuous
 62
     7
370
     0
100
AcDbCircle
 10
129.6619047773
 20
153.2677634019
 30
0.0
 40
1.800000000000025
100
AcDbArc
 50
324.9257437533
 51
357.1809841796
  0
ARC
  5
76
330
1F
100
AcDbEntity
  8
0
  6
Continuous
 62
     7
370
     0
100
AcDbCircle
 10
129.6619047773
 20
153.2677634019
 30
0.0
 40
0.7500000000000288
100
AcDbArc
 50
299.2430490707
 51
22.8636788623
  0
ARC
  5
77
330
1F
100
AcDbEntity
  8
0
  6
Continuous
 62
     7
370
     0
100
AcDbCircle
 10
129.6619047773
 20
153.2677634019
 30
0.0
 40
1.799999999999982
100
AcDbArc
 50
144.9257437533
 51
177.1809841796
  0
ARC
  5
78
330
1F
100
AcDbEntity
  8
0
  6
Continuous
 62
     7
370
     0
100
AcDbCircle
 10
129.6619047773
 20
153.2677634019
 30
0.0
 40
0.7500000000000026
100
AcDbArc
 50
119.2430490707
 51
202.8636788623
  0
CIRCLE
  5
79
330
1F
100
AcDbEntity
  8
0
  6
Continuous
 62
     7
370
     0
100
AcDbCircle
 10
129.6619047773
 20
153.2677634019
 30
0.0
 40
3.80000000000004
  0
CIRCLE
  5
7A
330
1F
100
AcDbEntity
  8
0
  6
Continuous
 62
     7
370
     0
100
AcDbCircle
 10
129.6619047773
 20
153.2677634019
 30
0.0
 40
2.149999999999991
  0
ARC
  5
7B
330
1F
100
AcDbEntity
  8
0
  6
Continuous
 62
     7
370
     0
100
AcDbCircle
 10
129.6619047773
 20
153.2677634019
 30
0.0
 40
1.000000000000002
100
AcDbArc
 50
131.0533639665
 51
191.0533639665
  0
ARC
  5
7C
330
1F
100
AcDbEntity
  8
0
  6
Continuous
 62
     7
370
     0
100
AcDbCircle
 10
129.6619047773
 20
153.2677634019
 30
0.0
 40
1.000000000000048
100
AcDbArc
 50
311.0533639665
 51
11.0533639665
  0
CIRCLE
  5
7D
330
1F
100
AcDbEntity
  8
0
  6
Continuous
 62
     7
370
     0
100
AcDbCircle
 10
129.6619047773
 20
153.2677634019
 30
0.0
 40
2.65000000000001
  0
LINE
  5
7E
330
1F
100
AcDbEntity
  8
0
  6
Continuous
 62
     7
370
     0
100
AcDbLine
 10
88.5162326336
 20
153.5348943321
 30
0.0
 11
89.31492195
 21
153.2291876985
 31
0.0
  0
LINE
  5
7F
330
1F
100
AcDbEntity
  8
0
  6
Continuous
 62
     7
370
     0
100
AcDbLine
 10
86.6733836053
 20
154.2402639435
 30
0.0
 11
87.4720729216
 21
153.9345573099
 31
0.0
  0
ARC
  5
80
330
1F
100
AcDbEntity
  8
0
  6
Continuous
 62
     7
370
     0
100
AcDbCircle
 10
87.8154180604
 20
153.2677634019
 30
0.0
 40
1.499999999999998
100
AcDbArc
 50
358.5263542008
 51
139.5839129318
  0
ARC
  5
81
330
1F
100
AcDbEntity
  8
0
  6
Continuous
 62
     7
370
     0
100
AcDbCircle
 10
87.8154180604
 20
153.2677634019
 30
0.0
 40
0.7500000000000068
100
AcDbArc
 50
20.8654484621
 51
117.2448186706
  0
SPLINE
  5
82
330
1F
100
AcDbEntity
  8
0
  6
Continuous
 62
     7
370
     0
100
AcDbSpline
210
0.0
220
0.0
230
1.0
 70
    24
 71
     3
 72
     8
 73
     4
 74
     0
 42
0.00000001
 43
0.00000001
 12
1.0
 22
0.0
 32
0.0
 13
1.0
 23
0.0
 33
0.0
 40
0.0
 40
0.0
 40
0.0
 40
0.0
 40
1.0
 40
1.0
 40
1.0
 40
1.0
 10
89.31492195002129
 20
153.2291876985273
 30
0.0
 10
89.41367823086973
 20
153.1913877060323
 30
0.0
 10
89.51160662193425
 20
153.1539045969533
 30
0.0
 10
89.60905978859644
 20
153.1166033849514
 30
0.0
  0
SPLINE
  5
83
330
1F
100
AcDbEntity
  8
0
  6
Continuous
 62
     7
370
     0
100
AcDbSpline
210
0.0
220
0.0
230
1.0
 70
    24
 71
     3
 72
     8
 73
     4
 74
     0
 42
0.00000001
 43
0.00000001
 12
1.0
 22
0.0
 32
0.0
 13
1.0
 23
0.0
 33
0.0
 40
0.0
 40
0.0
 40
0.0
 40
0.0
 40
1.0
 40
1.0
 40
1.0
 40
1.0
 10
86.37924576668163
 20
154.3528482570712
 30
0.0
 10
86.4766968306505
 20
154.3155478498971
 30
0.0
 10
86.57461414272743
 20
154.2780689814157
 30
0.0
 10
86.67338360525679
 20
154.2402639434954
 30
0.0
  0
ARC
  5
84
330
1F
100
AcDbEntity
  8
0
  6
Continuous
 62
     7
370
     0
100
AcDbCircle
 10
87.8154180604
 20
153.2677634019
 30
0.0
 40
1.800000000000003
100
AcDbArc
 50
355.1827537795
 51
142.9275133532
  0
LINE
  5
85
330
1F
100
AcDbEntity
  8
0
  6
Continuous
 62
     7
370
     0
100
AcDbLine
 10
86.3159141707
 20
153.3063391053
 30
0.0
 11
87.1146034871
 21
153.0006324717
 31
0.0
  0
LINE
  5
86
330
1F
100
AcDbEntity
  8
0
  6
Continuous
 62
     7
370
     0
100
AcDbLine
 10
88.1587631991
 20
152.600969494
 30
0.0
 11
88.9574525155
 21
152.2952628604
 31
0.0
  0
ARC
  5
87
330
1F
100
AcDbEntity
  8
0
  6
Continuous
 62
     7
370
     0
100
AcDbCircle
 10
87.8154180604
 20
153.2677634019
 30
0.0
 40
1.500000000000014
100
AcDbArc
 50
178.5263542008
 51
319.5839129318
  0
ARC
  5
88
330
1F
100
AcDbEntity
  8
0
  6
Continuous
 62
     7
370
     0
100
AcDbCircle
 10
87.8154180604
 20
153.2677634019
 30
0.0
 40
0.7500000000000123
100
AcDbArc
 50
200.8654484621
 51
297.2448186706
  0
SPLINE
  5
89
330
1F
100
AcDbEntity
  8
0
  6
Continuous
 62
     7
370
     0
100
AcDbSpline
210
0.0
220
0.0
230
1.0
 70
    24
 71
     3
 72
     8
 73
     4
 74
     0
 42
0.00000001
 43
0.00000001
 12
1.0
 22
0.0
 32
0.0
 13
1.0
 23
0.0
 33
0.0
 40
0.0
 40
0.0
 40
0.0
 40
0.0
 40
1.0
 40
1.0
 40
1.0
 40
1.0
 10
86.3159141707
 20
153.3063391053218
 30
0.0
 10
86.21715788985155
 20
153.3441390978167
 30
0.0
 10
86.11922949878705
 20
153.3816222068957
 30
0.0
 10
86.02177633212484
 20
153.4189234188976
 30
0.0
  0
SPLINE
  5
8A
330
1F
100
AcDbEntity
  8
0
  6
Continuous
 62
     7
370
     0
100
AcDbSpline
210
0.0
220
0.0
230
1.0
 70
    24
 71
     3
 72
     8
 73
     4
 74
     0
 42
0.00000001
 43
0.00000001
 12
1.0
 22
0.0
 32
0.0
 13
1.0
 23
0.0
 33
0.0
 40
0.0
 40
0.0
 40
0.0
 40
0.0
 40
1.0
 40
1.0
 40
1.0
 40
1.0
 10
89.25159035403965
 20
152.1826785467778
 30
0.0
 10
89.15413929007077
 20
152.2199789539519
 30
0.0
 10
89.05622197799387
 20
152.2574578224334
 30
0.0
 10
88.9574525154645
 20
152.2952628603536
 30
0.0
  0
ARC
  5
8B
330
1F
100
AcDbEntity
  8
0
  6
Continuous
 62
     7
370
     0
100
AcDbCircle
 10
87.8154180604
 20
153.2677634019
 30
0.0
 40
1.800000000000007
100
AcDbArc
 50
175.1827537795
 51
322.9275133532
  0
ARC
  5
8C
330
1F
100
AcDbEntity
  8
0
  6
Continuous
 62
     7
370
     0
100
AcDbCircle
 10
87.8154180604
 20
153.2677634019
 30
0.0
 40
1.8
100
AcDbArc
 50
142.9275133532
 51
175.1827537795
  0
ARC
  5
8D
330
1F
100
AcDbEntity
  8
0
  6
Continuous
 62
     7
370
     0
100
AcDbCircle
 10
87.8154180604
 20
153.2677634019
 30
0.0
 40
0.7500000000000123
100
AcDbArc
 50
117.2448186706
 51
200.8654484621
  0
ARC
  5
8E
330
1F
100
AcDbEntity
  8
0
  6
Continuous
 62
     7
370
     0
100
AcDbCircle
 10
87.8154180604
 20
153.2677634019
 30
0.0
 40
1.800000000000007
100
AcDbArc
 50
322.9275133532
 51
355.1827537795
  0
ARC
  5
8F
330
1F
100
AcDbEntity
  8
0
  6
Continuous
 62
     7
370
     0
100
AcDbCircle
 10
87.8154180604
 20
153.2677634019
 30
0.0
 40
0.7500000000000068
100
AcDbArc
 50
297.2448186706
 51
20.8654484621
  0
CIRCLE
  5
90
330
1F
100
AcDbEntity
  8
0
  6
Continuous
 62
     7
370
     0
100
AcDbCircle
 10
87.8154180604
 20
153.2677634019
 30
0.0
 40
3.800000000000022
  0
CIRCLE
  5
91
330
1F
100
AcDbEntity
  8
0
  6
Continuous
 62
     7
370
     0
100
AcDbCircle
 10
87.8154180604
 20
153.2677634019
 30
0.0
 40
2.150000000000012
  0
CIRCLE
  5
92
330
1F
100
AcDbEntity
  8
0
  6
Continuous
 62
     7
370
     0
100
AcDbCircle
 10
87.8154180604
 20
153.2677634019
 30
0.0
 40
2.650000000000007
  0
ARC
  5
93
330
1F
100
AcDbEntity
  8
0
  6
Continuous
 62
     7
370
     0
100
AcDbCircle
 10
87.8154180604
 20
153.2677634019
 30
0.0
 40
1.000000000000004
100
AcDbArc
 50
129.0551335663
 51
189.0551335663
  0
ARC
  5
94
330
1F
100
AcDbEntity
  8
0
  6
Continuous
 62
     7
370
     0
100
AcDbCircle
 10
87.8154180604
 20
153.2677634019
 30
0.0
 40
1.000000000000005
100
AcDbArc
 50
309.0551335663
 51
9.0551335663
  0
ARC
  5
95
330
1F
100
AcDbEntity
  8
0
  6
Continuous
 62
     7
370
     0
100
AcDbCircle
 10
129.6619047773
 20
139.6710156494
 30
0.0
 40
1.499999999999998
100
AcDbArc
 50
178.5263542008
 51
319.5839129318
  0
SPLINE
  5
96
330
1F
100
AcDbEntity
  8
0
  6
Continuous
 62
     7
370
     0
100
AcDbSpline
210
0.0
220
0.0
230
1.0
 70
    24
 71
     3
 72
     8
 73
     4
 74
     0
 42
0.00000001
 43
0.00000001
 12
1.0
 22
0.0
 32
0.0
 13
1.0
 23
0.0
 33
0.0
 40
0.0
 40
0.0
 40
0.0
 40
0.0
 40
1.0
 40
1.0
 40
1.0
 40
1.0
 10
131.0980770710264
 20
138.5859307942799
 30
0.0
 10
131.0006260070576
 20
138.6232312014541
 30
0.0
 10
130.9027086949807
 20
138.6607100699355
 30
0.0
 10
130.8039392324513
 20
138.6985151078558
 30
0.0
  0
ARC
  5
97
330
1F
100
AcDbEntity
  8
0
  6
Continuous
 62
     7
370
     0
100
AcDbCircle
 10
129.6619047773
 20
139.6710156494
 30
0.0
 40
1.800000000000003
100
AcDbArc
 50
175.1827537795
 51
322.9275133532
  0
SPLINE
  5
98
330
1F
100
AcDbEntity
  8
0
  6
Continuous
 62
     7
370
     0
100
AcDbSpline
210
0.0
220
0.0
230
1.0
 70
    24
 71
     3
 72
     8
 73
     4
 74
     0
 42
0.00000001
 43
0.00000001
 12
1.0
 22
0.0
 32
0.0
 13
1.0
 23
0.0
 33
0.0
 40
0.0
 40
0.0
 40
0.0
 40
0.0
 40
1.0
 40
1.0
 40
1.0
 40
1.0
 10
128.1624008876868
 20
139.7095913528239
 30
0.0
 10
128.0636446068383
 20
139.7473913453189
 30
0.0
 10
127.9657162157739
 20
139.7848744543979
 30
0.0
 10
127.8682630491116
 20
139.8221756663998
 30
0.0
  0
LINE
  5
99
330
1F
100
AcDbEntity
  8
0
  6
Continuous
 62
     7
370
     0
100
AcDbLine
 10
130.8039392325
 20
138.6985151079
 30
0.0
 11
130.0052499161
 21
139.0042217415
 31
0.0
  0
ARC
  5
9A
330
1F
100
AcDbEntity
  8
0
  6
Continuous
 62
     7
370
     0
100
AcDbCircle
 10
129.6619047773
 20
139.6710156494
 30
0.0
 40
0.7500000000000154
100
AcDbArc
 50
200.8654484621
 51
297.2448186706
  0
LINE
  5
9B
330
1F
100
AcDbEntity
  8
0
  6
Continuous
 62
     7
370
     0
100
AcDbLine
 10
128.9610902041
 20
139.4038847192
 30
0.0
 11
128.1624008877
 21
139.7095913528
 31
0.0
  0
SPLINE
  5
9C
330
1F
100
AcDbEntity
  8
0
  6
Continuous
 62
     7
370
     0
100
AcDbSpline
210
0.0
220
0.0
230
1.0
 70
    24
 71
     3
 72
     8
 73
     4
 74
     0
 42
0.00000001
 43
0.00000001
 12
1.0
 22
0.0
 32
0.0
 13
1.0
 23
0.0
 33
0.0
 40
0.0
 40
0.0
 40
0.0
 40
0.0
 40
1.0
 40
1.0
 40
1.0
 40
1.0
 10
131.1614086670081
 20
139.6324399460295
 30
0.0
 10
131.2601649478565
 20
139.5946399535345
 30
0.0
 10
131.358093338921
 20
139.5571568444554
 30
0.0
 10
131.4555465055832
 20
139.5198556324536
 30
0.0
  0
ARC
  5
9D
330
1F
100
AcDbEntity
  8
0
  6
Continuous
 62
     7
370
     0
100
AcDbCircle
 10
129.6619047773
 20
139.6710156494
 30
0.0
 40
1.500000000000024
100
AcDbArc
 50
358.5263542008
 51
139.5839129318
  0
ARC
  5
9E
330
1F
100
AcDbEntity
  8
0
  6
Continuous
 62
     7
370
     0
100
AcDbCircle
 10
129.6619047773
 20
139.6710156494
 30
0.0
 40
1.800000000000018
100
AcDbArc
 50
355.1827537795
 51
142.9275133532
  0
SPLINE
  5
9F
330
1F
100
AcDbEntity
  8
0
  6
Continuous
 62
     7
370
     0
100
AcDbSpline
210
0.0
220
0.0
230
1.0
 70
    24
 71
     3
 72
     8
 73
     4
 74
     0
 42
0.00000001
 43
0.00000001
 12
1.0
 22
0.0
 32
0.0
 13
1.0
 23
0.0
 33
0.0
 40
0.0
 40
0.0
 40
0.0
 40
0.0
 40
1.0
 40
1.0
 40
1.0
 40
1.0
 10
128.2257324836684
 20
140.7561005045734
 30
0.0
 10
128.3231835476373
 20
140.7188000973993
 30
0.0
 10
128.4211008597142
 20
140.6813212289178
 30
0.0
 10
128.5198703222436
 20
140.6435161909976
 30
0.0
  0
LINE
  5
A0
330
1F
100
AcDbEntity
  8
0
  6
Continuous
 62
     7
370
     0
100
AcDbLine
 10
131.161408667
 20
139.632439946
 30
0.0
 11
130.3627193506
 21
139.9381465796
 31
0.0
  0
ARC
  5
A1
330
1F
100
AcDbEntity
  8
0
  6
Continuous
 62
     7
370
     0
100
AcDbCircle
 10
129.6619047773
 20
139.6710156494
 30
0.0
 40
0.7500000000000068
100
AcDbArc
 50
20.8654484621
 51
117.2448186706
  0
LINE
  5
A2
330
1F
100
AcDbEntity
  8
0
  6
Continuous
 62
     7
370
     0
100
AcDbLine
 10
129.3185596386
 20
140.3378095574
 30
0.0
 11
128.5198703222
 21
140.643516191
 31
0.0
  0
ARC
  5
A3
330
1F
100
AcDbEntity
  8
0
  6
Continuous
 62
     7
370
     0
100
AcDbCircle
 10
129.6619047773
 20
139.6710156494
 30
0.0
 40
1.800000000000003
100
AcDbArc
 50
142.9275133532
 51
175.1827537795
  0
ARC
  5
A4
330
1F
100
AcDbEntity
  8
0
  6
Continuous
 62
     7
370
     0
100
AcDbCircle
 10
129.6619047773
 20
139.6710156494
 30
0.0
 40
0.7500000000000154
100
AcDbArc
 50
117.2448186706
 51
200.8654484621
  0
ARC
  5
A5
330
1F
100
AcDbEntity
  8
0
  6
Continuous
 62
     7
370
     0
100
AcDbCircle
 10
129.6619047773
 20
139.6710156494
 30
0.0
 40
1.8
100
AcDbArc
 50
322.9275133532
 51
355.1827537795
  0
ARC
  5
A6
330
1F
100
AcDbEntity
  8
0
  6
Continuous
 62
     7
370
     0
100
AcDbCircle
 10
129.6619047773
 20
139.6710156494
 30
0.0
 40
0.749999999999999
100
AcDbArc
 50
297.2448186706
 51
20.8654484621
  0
CIRCLE
  5
A7
330
1F
100
AcDbEntity
  8
0
  6
Continuous
 62
     7
370
     0
100
AcDbCircle
 10
129.6619047773
 20
139.6710156494
 30
0.0
 40
3.800000000000008
  0
CIRCLE
  5
A8
330
1F
100
AcDbEntity
  8
0
  6
Continuous
 62
     7
370
     0
100
AcDbCircle
 10
129.6619047773
 20
139.6710156494
 30
0.0
 40
2.150000000000009
  0
CIRCLE
  5
A9
330
1F
100
AcDbEntity
  8
0
  6
Continuous
 62
     7
370
     0
100
AcDbCircle
 10
129.6619047773
 20
139.6710156494
 30
0.0
 40
2.650000000000007
  0
ARC
  5
AA
330
1F
100
AcDbEntity
  8
0
  6
Continuous
 62
     7
370
     0
100
AcDbCircle
 10
129.6619047773
 20
139.6710156494
 30
0.0
 40
0.9999999999999811
100
AcDbArc
 50
309.0551335663
 51
9.0551335663
  0
ARC
  5
AB
330
1F
100
AcDbEntity
  8
0
  6
Continuous
 62
     7
370
     0
100
AcDbCircle
 10
129.6619047773
 20
139.6710156494
 30
0.0
 40
1.000000000000005
100
AcDbArc
 50
129.0551335663
 51
189.0551335663
  0
ARC
  5
AC
330
1F
100
AcDbEntity
  8
0
  6
Continuous
 62
     7
370
     0
100
AcDbCircle
 10
108.7386614189
 20
146.4693895257
 30
0.0
 40
28.0
100
AcDbArc
 50
305.0708868111
 51
298.9291131889
  0
LINE
  5
AD
330
1F
100
AcDbEntity
  8
0
  6
Continuous
 62
     7
370
     0
100
AcDbLine
 10
124.8271662646
 20
123.5530195726
 30
0.0
 11
124.5618186656
 21
123.9776644975
 31
0.0
  0
ARC
  5
AE
330
1F
100
AcDbEntity
  8
0
  6
Continuous
 62
     7
370
     0
100
AcDbCircle
 10
108.7386614189
 20
146.4693895257
 30
0.0
 40
27.49999999999998
100
AcDbArc
 50
305.1267761136
 51
357.879778616
  0
ARC
  5
AF
330
1F
100
AcDbEntity
  8
0
  6
Continuous
 62
     7
370
     0
100
AcDbCircle
 10
108.7386614189
 20
146.4693895257
 30
0.0
 40
27.50000000000001
100
AcDbArc
 50
2.120221384
 51
177.879778616
  0
SPLINE
  5
B0
330
1F
100
AcDbEntity
  8
0
  6
Continuous
 62
     7
370
     0
100
AcDbSpline
210
0.0
220
0.0
230
1.0
 70
     8
 71
     3
 72
    12
 73
     8
 74
     0
 42
0.00000001
 43
0.00000001
 12
1.0
 22
0.0
 32
0.0
 13
1.0
 23
0.0
 33
0.0
 40
0.0
 40
0.0
 40
0.0
 40
0.0
 40
0.2499999999999999
 40
0.2499999999999999
 40
0.4999999999999999
 40
0.4999999999999999
 40
1.0
 40
1.0
 40
1.0
 40
1.0
 10
81.25748794946624
 20
147.4867905014067
 30
0.0
 10
81.2027538689693
 20
147.3264094986938
 30
0.0
 10
81.16077167075663
 20
147.1613434430899
 30
0.0
 10
81.10365076021469
 20
146.8214032974031
 30
0.0
 10
81.08869866996457
 20
146.6444344275549
 30
0.0
 10
81.08858713144026
 20
146.1213146313862
 30
0.0
 10
81.14796710567448
 20
145.7729049257347
 30
0.0
 10
81.25748794946625
 20
145.4519885499445
 30
0.0
  0
ARC
  5
B1
330
1F
100
AcDbEntity
  8
0
  6
Continuous
 62
     7
370
     0
100
AcDbCircle
 10
108.7386614189
 20
146.4693895257
 30
0.0
 40
27.5
100
AcDbArc
 50
182.120221384
 51
298.8732238864
  0
LINE
  5
B2
330
1F
100
AcDbEntity
  8
0
  6
Continuous
 62
     7
370
     0
100
AcDbLine
 10
122.0176743771
 20
122.3879067048
 30
0.0
 11
122.2830219761
 21
121.9632617799
 31
0.0
  0
SPLINE
  5
B3
330
1F
100
AcDbEntity
  8
0
  6
Continuous
 62
     7
370
     0
100
AcDbSpline
210
0.0
220
0.0
230
1.0
 70
     8
 71
     3
 72
    12
 73
     8
 74
     0
 42
0.00000001
 43
0.00000001
 12
1.0
 22
0.0
 32
0.0
 13
1.0
 23
0.0
 33
0.0
 40
0.0
 40
0.0
 40
0.0
 40
0.0
 40
0.2500000000000001
 40
0.2500000000000001
 40
0.5000000000000001
 40
0.5000000000000001
 40
1.0
 40
1.0
 40
1.0
 40
1.0
 10
136.2198348882417
 20
145.4519885499445
 30
0.0
 10
136.2745689687387
 20
145.6123695526574
 30
0.0
 10
136.3165511669513
 20
145.7774356082613
 30
0.0
 10
136.3736720774933
 20
146.1173757539482
 30
0.0
 10
136.3886241677434
 20
146.2943446237964
 30
0.0
 10
136.3887357062677
 20
146.817464419965
 30
0.0
 10
136.3293557320335
 20
147.1658741256166
 30
0.0
 10
136.2198348882417
 20
147.4867905014067
 30
0.0
  0
ARC
  5
B4
330
1F
100
AcDbEntity
  8
0
  6
Continuous
 62
     7
370
     0
100
AcDbCircle
 10
108.7386614189
 20
146.4693895257
 30
0.0
 40
13.75000000000001
100
AcDbArc
 50
346.2775370579
 51
73.7224629421
  0
SPLINE
  5
B5
330
1F
100
AcDbEntity
  8
0
  6
Continuous
 62
     7
370
     0
100
AcDbSpline
210
0.0
220
0.0
230
1.0
 70
     8
 71
     3
 72
    10
 73
     6
 74
     0
 42
0.00000001
 43
0.00000001
 12
1.0
 22
0.0
 32
0.0
 13
1.0
 23
0.0
 33
0.0
 40
0.0
 40
0.0
 40
0.0
 40
0.0
 40
0.5
 40
0.5
 40
1.0
 40
1.0
 40
1.0
 40
1.0
 10
112.5926543293362
 20
159.6682242714384
 30
0.0
 10
112.5926543293362
 20
159.6682242714384
 30
0.0
 10
112.6397606739449
 20
159.7182892867157
 30
0.0
 10
112.782119738715
 20
159.8720591978174
 30
0.0
 10
112.8764946785396
 20
159.9751102038275
 30
0.0
 10
112.968566998991
 20
160.0771225765231
 30
0.0
  0
ARC
  5
B6
330
1F
100
AcDbEntity
  8
0
  6
Continuous
 62
     7
370
     0
100
AcDbCircle
 10
108.7386614189
 20
146.4693895257
 30
0.0
 40
14.24999999999999
100
AcDbArc
 50
347.2676334357
 51
72.7323665643
  0
SPLINE
  5
B7
330
1F
100
AcDbEntity
  8
0
  6
Continuous
 62
     7
370
     0
100
AcDbSpline
210
0.0
220
0.0
230
1.0
 70
     8
 71
     3
 72
    10
 73
     6
 74
     0
 42
0.00000001
 43
0.00000001
 12
1.0
 22
0.0
 32
0.0
 13
1.0
 23
0.0
 33
0.0
 40
0.0
 40
0.0
 40
0.0
 40
0.0
 40
0.5
 40
0.5
 40
1.0
 40
1.0
 40
1.0
 40
1.0
 10
122.0961840642784
 20
143.2076279192771
 30
0.0
 10
122.0961840642784
 20
143.2076279192771
 30
0.0
 10
122.1630948116537
 20
143.2233907027491
 30
0.0
 10
122.3674429933905
 20
143.269792313748
 30
0.0
 10
122.5038752523931
 20
143.299997906112
 30
0.0
 10
122.6382567188735
 20
143.3287286882602
 30
0.0
  0
ARC
  5
B8
330
1F
100
AcDbEntity
  8
0
  6
Continuous
 62
     7
370
     0
100
AcDbCircle
 10
118.9577611835
 20
140.5693895257
 30
0.0
 40
4.099999999999993
100
AcDbArc
 50
259.948733975
 51
40.051266025
  0
ARC
  5
B9
330
1F
100
AcDbEntity
  8
0
  6
Continuous
 62
     7
370
     0
100
AcDbCircle
 10
118.9577611835
 20
140.5693895257
 30
0.0
 40
4.600000000000122
100
AcDbArc
 50
263.1403905731
 51
36.8596094269
  0
SPLINE
  5
BA
330
1F
100
AcDbEntity
  8
0
  6
Continuous
 62
     7
370
     0
100
AcDbSpline
210
0.0
220
0.0
230
1.0
 70
     8
 71
     3
 72
    10
 73
     6
 74
     0
 42
0.00000001
 43
0.00000001
 12
1.0
 22
0.0
 32
0.0
 13
1.0
 23
0.0
 33
0.0
 40
0.0
 40
0.0
 40
0.0
 40
0.0
 40
0.5
 40
0.5
 40
1.0
 40
1.0
 40
1.0
 40
1.0
 10
118.2421911537962
 20
136.5323163863117
 30
0.0
 10
118.2421911537962
 20
136.5323163863117
 30
0.0
 10
118.2619955565629
 20
136.4664885875625
 30
0.0
 10
118.3239846735296
 20
136.2663170654617
 30
0.0
 10
118.3660419927076
 20
136.1330604670879
 30
0.0
 10
118.4083511387366
 20
136.0023173122439
 30
0.0
  0
ARC
  5
BB
330
1F
100
AcDbEntity
  8
0
  6
Continuous
 62
     7
370
     0
100
AcDbCircle
 10
98.5195616542
 20
140.5693895257
 30
0.0
 40
4.600000000000109
100
AcDbArc
 50
143.1403905731
 51
276.8596094269
  0
SPLINE
  5
BC
330
1F
100
AcDbEntity
  8
0
  6
Continuous
 62
     7
370
     0
100
AcDbSpline
210
0.0
220
0.0
230
1.0
 70
     8
 71
     3
 72
    10
 73
     6
 74
     0
 42
0.00000001
 43
0.00000001
 12
1.0
 22
0.0
 32
0.0
 13
1.0
 23
0.0
 33
0.0
 40
0.0
 40
0.0
 40
0.0
 40
0.0
 40
0.5
 40
0.5
 40
1.0
 40
1.0
 40
1.0
 40
1.0
 10
95.38113877342968
 20
143.2076279192769
 30
0.0
 10
95.3811387734297
 20
143.2076279192769
 30
0.0
 10
95.31422802605431
 20
143.2233907027489
 30
0.0
 10
95.10987984431756
 20
143.2697923137478
 30
0.0
 10
94.97344758531493
 20
143.2999979061116
 30
0.0
 10
94.83906611883452
 20
143.32872868826
 30
0.0
  0
ARC
  5
BD
330
1F
100
AcDbEntity
  8
0
  6
Continuous
 62
     7
370
     0
100
AcDbCircle
 10
98.5195616542
 20
140.5693895257
 30
0.0
 40
4.100000000000008
100
AcDbArc
 50
139.948733975
 51
280.051266025
  0
SPLINE
  5
BE
330
1F
100
AcDbEntity
  8
0
  6
Continuous
 62
     7
370
     0
100
AcDbSpline
210
0.0
220
0.0
230
1.0
 70
     8
 71
     3
 72
    10
 73
     6
 74
     0
 42
0.00000001
 43
0.00000001
 12
1.0
 22
0.0
 32
0.0
 13
1.0
 23
0.0
 33
0.0
 40
0.0
 40
0.0
 40
0.0
 40
0.0
 40
0.5
 40
0.5
 40
1.0
 40
1.0
 40
1.0
 40
1.0
 10
99.23513168391192
 20
136.5323163863115
 30
0.0
 10
99.23513168391192
 20
136.5323163863115
 30
0.0
 10
99.21532728114526
 20
136.4664885875623
 30
0.0
 10
99.15333816417854
 20
136.2663170654616
 30
0.0
 10
99.11128084500021
 20
136.1330604670879
 30
0.0
 10
99.06897169897151
 20
136.0023173122437
 30
0.0
  0
ARC
  5
BF
330
1F
100
AcDbEntity
  8
0
  6
Continuous
 62
     7
370
     0
100
AcDbCircle
 10
108.7386614189
 20
146.4693895257
 30
0.0
 40
14.25000000000002
100
AcDbArc
 50
107.2676334357
 51
192.7323665643
  0
SPLINE
  5
C0
330
1F
100
AcDbEntity
  8
0
  6
Continuous
 62
     7
370
     0
100
AcDbSpline
210
0.0
220
0.0
230
1.0
 70
     8
 71
     3
 72
    10
 73
     6
 74
     0
 42
0.00000001
 43
0.00000001
 12
1.0
 22
0.0
 32
0.0
 13
1.0
 23
0.0
 33
0.0
 40
0.0
 40
0.0
 40
0.0
 40
0.0
 40
0.5
 40
0.5
 40
1.0
 40
1.0
 40
1.0
 40
1.0
 10
104.8846685083718
 20
159.6682242714384
 30
0.0
 10
104.8846685083718
 20
159.6682242714384
 30
0.0
 10
104.8375621637631
 20
159.7182892867157
 30
0.0
 10
104.6952030989931
 20
159.8720591978174
 30
0.0
 10
104.6008281591684
 20
159.9751102038275
 30
0.0
 10
104.5087558387171
 20
160.0771225765231
 30
0.0
  0
ARC
  5
C1
330
1F
100
AcDbEntity
  8
0
  6
Continuous
 62
     7
370
     0
100
AcDbCircle
 10
108.7386614189
 20
146.4693895257
 30
0.0
 40
13.75000000000001
100
AcDbArc
 50
106.2775370579
 51
193.7224629421
  0
ARC
  5
C2
330
1F
100
AcDbEntity
  8
0
  6
Continuous
 62
     7
370
     0
100
AcDbCircle
 10
108.7386614189
 20
158.2693895257
 30
0.0
 40
4.100000000000003
100
AcDbArc
 50
19.948733975
 51
160.051266025
  0
ARC
  5
C3
330
1F
100
AcDbEntity
  8
0
  6
Continuous
 62
     7
370
     0
100
AcDbCircle
 10
108.7386614189
 20
158.2693895257
 30
0.0
 40
4.600000000000118
100
AcDbArc
 50
23.1403905731
 51
156.8596094269
  0
ARC
  5
C4
330
1F
100
AcDbEntity
  8
0
  6
Continuous
 62
     7
370
     0
100
AcDbCircle
 10
108.7386614189
 20
146.4693895257
 30
0.0
 40
13.74999999999999
100
AcDbArc
 50
226.2775370579
 51
313.7224629421
  0
ARC
  5
C5
330
1F
100
AcDbEntity
  8
0
  6
Continuous
 62
     7
370
     0
100
AcDbCircle
 10
108.7386614189
 20
146.4693895257
 30
0.0
 40
14.24999999999999
100
AcDbArc
 50
227.2676334357
 51
312.7323665643
  0
CIRCLE
  5
C6
330
1F
100
AcDbEntity
  8
0
  6
Continuous
 62
     7
370
     0
100
AcDbCircle
 10
129.6619047773
 20
139.6710156494
 30
0.0
 40
4.000000000000014
  0
CIRCLE
  5
C7
330
1F
100
AcDbEntity
  8
0
  6
Continuous
 62
     7
370
     0
100
AcDbCircle
 10
129.6619047773
 20
153.2677634019
 30
0.0
 40
4.000000000000014
  0
CIRCLE
  5
C8
330
1F
100
AcDbEntity
  8
0
  6
Continuous
 62
     7
370
     0
100
AcDbCircle
 10
94.5965257951
 20
132.3272539019
 30
0.0
 40
2.499999999999986
  0
CIRCLE
  5
C9
330
1F
100
AcDbEntity
  8
0
  6
Continuous
 62
     7
370
     0
100
AcDbCircle
 10
122.8807970426
 20
132.3272539019
 30
0.0
 40
2.5
  0
CIRCLE
  5
CA
330
1F
100
AcDbEntity
  8
0
  6
Continuous
 62
     7
370
     0
100
AcDbCircle
 10
122.8807970426
 20
160.6115251494
 30
0.0
 40
2.5
  0
CIRCLE
  5
CB
330
1F
100
AcDbEntity
  8
0
  6
Continuous
 62
     7
370
     0
100
AcDbCircle
 10
94.5965257951
 20
160.6115251494
 30
0.0
 40
2.499999999999986
  0
CIRCLE
  5
CC
330
1F
100
AcDbEntity
  8
0
  6
Continuous
 62
     7
370
     0
100
AcDbCircle
 10
116.7386614189
 20
170.9693895257
 30
0.0
 40
1.649999999999991
  0
CIRCLE
  5
CD
330
1F
100
AcDbEntity
  8
0
  6
Continuous
 62
     7
370
     0
100
AcDbCircle
 10
100.7386614189
 20
170.9693895257
 30
0.0
 40
1.649999999999991
  0
CIRCLE
  5
CE
330
1F
100
AcDbEntity
  8
0
  6
Continuous
 62
     7
370
     0
100
AcDbCircle
 10
108.7386614189
 20
166.4693895257
 30
0.0
 40
3.0
  0
CIRCLE
  5
CF
330
1F
100
AcDbEntity
  8
0
  6
Continuous
 62
     7
370
     0
100
AcDbCircle
 10
108.7386614189
 20
122.4693895257
 30
0.0
 40
3.0
  0
CIRCLE
  5
D0
330
1F
100
AcDbEntity
  8
0
  6
Continuous
 62
     7
370
     0
100
AcDbCircle
 10
87.8154180604
 20
153.2677634019
 30
0.0
 40
3.999999999999986
  0
CIRCLE
  5
D1
330
1F
100
AcDbEntity
  8
0
  6
Continuous
 62
     7
370
     0
100
AcDbCircle
 10
101.9402875426
 20
125.5461461672
 30
0.0
 40
4.0
  0
CIRCLE
  5
D2
330
1F
100
AcDbEntity
  8
0
  6
Continuous
 62
     7
370
     0
100
AcDbCircle
 10
87.8154180604
 20
139.6710156494
 30
0.0
 40
4.0
  0
CIRCLE
  5
D3
330
1F
100
AcDbEntity
  8
0
  6
Continuous
 62
     7
370
     0
100
AcDbCircle
 10
126.7386614189
 20
146.4693895257
 30
0.0
 40
3.149999999999977
  0
CIRCLE
  5
D4
330
1F
100
AcDbEntity
  8
0
  6
Continuous
 62
     7
370
     0
100
AcDbCircle
 10
90.7386614189
 20
146.4693895257
 30
0.0
 40
3.149999999999991
  0
LINE
  5
D5
330
1F
100
AcDbEntity
  8
0
  6
Continuous
 62
     7
370
     0
100
AcDbLine
 10
124.5618186656
 20
123.9776644975
 30
0.0
 11
123.7886344332
 21
125.215017922
 31
0.0
  0
ARC
  5
D6
330
1F
100
AcDbEntity
  8
0
  6
Continuous
 62
     7
370
     0
100
AcDbCircle
 10
122.5165622889
 20
124.4201390256
 30
0.0
 40
1.499999999999998
100
AcDbArc
 50
32.0
 51
212.0
  0
LINE
  5
D7
330
1F
100
AcDbEntity
  8
0
  6
Continuous
 62
     7
370
     0
100
AcDbLine
 10
121.2444901447
 20
123.6252601293
 30
0.0
 11
122.0176743771
 21
122.3879067048
 31
0.0
  0
CIRCLE
  5
D8
330
1F
100
AcDbEntity
  8
0
  6
Continuous
 62
     7
370
     0
100
AcDbCircle
 10
115.5370352951
 20
125.5461461672
 30
0.0
 40
4.0
  0
ARC
  5
D9
330
1F
100
AcDbEntity
  8
0
  6
Continuous
 62
     7
370
     0
100
AcDbCircle
 10
84.2386614189
 20
146.4693895257
 30
0.0
 40
3.150000000000006
100
AcDbArc
 50
198.8435073307
 51
161.1564926693
  0
ARC
  5
DA
330
1F
100
AcDbEntity
  8
0
  6
Continuous
 62
     7
370
     0
100
AcDbCircle
 10
133.2386614189
 20
146.4693895257
 30
0.0
 40
3.149999999999979
100
AcDbArc
 50
18.8435073307
 51
341.1564926693
  0
CIRCLE
  5
DB
330
1F
100
AcDbEntity
  8
0
  6
Continuous
 62
     7
370
     0
100
AcDbCircle
 10
108.7386614189
 20
166.4693895257
 30
0.0
 40
2.5
  0
CIRCLE
  5
DC
330
1F
100
AcDbEntity
  8
0
  6
Continuous
 62
     7
370
     0
100
AcDbCircle
 10
108.7386614189
 20
122.4693895257
 30
0.0
 40
2.5
  0
ARC
  5
DD
330
1F
100
AcDbEntity
  8
0
  6
Continuous
 62
     7
370
     0
100
AcDbCircle
 10
108.7386614189
 20
146.4693895257
 30
0.0
 40
28.0
100
AcDbArc
 50
298.9291131889
 51
305.0708868111
  0
ARC
  5
DE
330
1F
100
AcDbEntity
  8
0
  6
Continuous
 62
     7
370
     0
100
AcDbCircle
 10
99.2902356574
 20
141.0143383689
 30
0.0
 40
4.398517292019823
100
AcDbArc
 50
151.8771680743
 51
268.1228319257
  0
SPLINE
  5
DF
330
1F
100
AcDbEntity
  8
0
  6
Continuous
 62
     7
370
     0
100
AcDbSpline
210
0.0
220
0.0
230
1.0
 70
     8
 71
     3
 72
     8
 73
     4
 74
     0
 42
0.00000001
 43
0.00000001
 12
1.0
 22
0.0
 32
0.0
 13
1.0
 23
0.0
 33
0.0
 40
0.0
 40
0.0
 40
0.0
 40
0.0
 40
1.0
 40
1.0
 40
1.0
 40
1.0
 10
99.14615385504428
 20
136.6181815470441
 30
0.0
 10
99.20463398985964
 20
136.5612371462391
 30
0.0
 10
99.23513168391189
 20
136.5323163863115
 30
0.0
 10
99.23513168391189
 20
136.5323163863115
 30
0.0
  0
SPLINE
  5
E0
330
1F
100
AcDbEntity
  8
0
  6
Continuous
 62
     7
370
     0
100
AcDbSpline
210
0.0
220
0.0
230
1.0
 70
     8
 71
     3
 72
     8
 73
     4
 74
     0
 42
0.00000001
 43
0.00000001
 12
1.0
 22
0.0
 32
0.0
 13
1.0
 23
0.0
 33
0.0
 40
0.0
 40
0.0
 40
0.0
 40
0.0
 40
1.0
 40
1.0
 40
1.0
 40
1.0
 10
95.38113877342965
 20
143.2076279192769
 30
0.0
 10
95.38113877342965
 20
143.2076279192769
 30
0.0
 10
95.3908634380298
 20
143.1670418863263
 30
0.0
 10
95.41101126949033
 20
143.0876382787377
 30
0.0
  0
ARC
  5
E1
330
1F
100
AcDbEntity
  8
0
  6
Continuous
 62
     7
370
     0
100
AcDbCircle
 10
118.1870871803
 20
141.0143383689
 30
0.0
 40
4.398517292019823
100
AcDbArc
 50
271.8771680743
 51
28.1228319257
  0
SPLINE
  5
E2
330
1F
100
AcDbEntity
  8
0
  6
Continuous
 62
     7
370
     0
100
AcDbSpline
210
0.0
220
0.0
230
1.0
 70
     8
 71
     3
 72
     8
 73
     4
 74
     0
 42
0.00000001
 43
0.00000001
 12
1.0
 22
0.0
 32
0.0
 13
1.0
 23
0.0
 33
0.0
 40
0.0
 40
0.0
 40
0.0
 40
0.0
 40
1.0
 40
1.0
 40
1.0
 40
1.0
 10
122.0663115682177
 20
143.0876382787378
 30
0.0
 10
122.0863867985105
 20
143.1667557615072
 30
0.0
 10
122.0961840642784
 20
143.2076279192771
 30
0.0
 10
122.0961840642784
 20
143.2076279192771
 30
0.0
  0
SPLINE
  5
E3
330
1F
100
AcDbEntity
  8
0
  6
Continuous
 62
     7
370
     0
100
AcDbSpline
210
0.0
220
0.0
230
1.0
 70
     8
 71
     3
 72
     8
 73
     4
 74
     0
 42
0.00000001
 43
0.00000001
 12
1.0
 22
0.0
 32
0.0
 13
1.0
 23
0.0
 33
0.0
 40
0.0
 40
0.0
 40
0.0
 40
0.0
 40
1.0
 40
1.0
 40
1.0
 40
1.0
 10
118.2421911537963
 20
136.5323163863116
 30
0.0
 10
118.2421911537963
 20
136.5323163863116
 30
0.0
 10
118.2724773570702
 20
136.561031209374
 30
0.0
 10
118.3311689826639
 20
136.6181815470443
 30
0.0
  0
ARC
  5
E4
330
1F
100
AcDbEntity
  8
0
  6
Continuous
 62
     7
370
     0
100
AcDbCircle
 10
108.7386614189
 20
157.3794918392
 30
0.0
 40
4.398517292019815
100
AcDbArc
 50
31.8771680743
 51
148.1228319257
  0
SPLINE
  5
E5
330
1F
100
AcDbEntity
  8
0
  6
Continuous
 62
     7
370
     0
100
AcDbSpline
210
0.0
220
0.0
230
1.0
 70
     8
 71
     3
 72
     8
 73
     4
 74
     0
 42
0.00000001
 43
0.00000001
 12
1.0
 22
0.0
 32
0.0
 13
1.0
 23
0.0
 33
0.0
 40
0.0
 40
0.0
 40
0.0
 40
0.0
 40
1.0
 40
1.0
 40
1.0
 40
1.0
 10
105.0035188333001
 20
159.702348751245
 30
0.0
 10
104.924963468192
 20
159.6801756692807
 30
0.0
 10
104.8846685083718
 20
159.6682242714384
 30
0.0
 10
104.8846685083718
 20
159.6682242714384
 30
0.0
  0
SPLINE
  5
E6
330
1F
100
AcDbEntity
  8
0
  6
Continuous
 62
     7
370
     0
100
AcDbSpline
210
0.0
220
0.0
230
1.0
 70
     8
 71
     3
 72
     8
 73
     4
 74
     0
 42
0.00000001
 43
0.00000001
 12
1.0
 22
0.0
 32
0.0
 13
1.0
 23
0.0
 33
0.0
 40
0.0
 40
0.0
 40
0.0
 40
0.0
 40
1.0
 40
1.0
 40
1.0
 40
1.0
 10
112.5926543293362
 20
159.6682242714384
 30
0.0
 10
112.5926543293362
 20
159.6682242714384
 30
0.0
 10
112.5526434614621
 20
159.6800954813267
 30
0.0
 10
112.4738040044079
 20
159.702348751245
 30
0.0
  0
SPLINE
  5
E7
330
1F
100
AcDbEntity
  8
0
  6
Continuous
 62
     7
370
     0
100
AcDbSpline
210
0.0
220
0.0
230
1.0
 70
     8
 71
     3
 72
    16
 73
    12
 74
     0
 42
0.00000001
 43
0.00000001
 12
1.0
 22
0.0
 32
0.0
 13
1.0
 23
0.0
 33
0.0
 40
0.0
 40
0.0
 40
0.0
 40
0.0
 40
0.125
 40
0.125
 40
0.25
 40
0.25
 40
0.5
 40
0.5
 40
0.75
 40
0.75
 40
1.0
 40
1.0
 40
1.0
 40
1.0
 10
96.830812116818
 20
139.5943895256756
 30
0.0
 10
96.92695332264596
 20
139.4278680724806
 30
0.0
 10
97.02786207752959
 20
139.2613120416021
 30
0.0
 10
97.2332287584234
 20
138.9378411108097
 30
0.0
 10
97.33830647381335
 20
138.7798464256277
 30
0.0
 10
97.6568900706537
 20
138.3210456676986
 30
0.0
 10
97.8738340981204
 20
138.0356410330068
 30
0.0
 10
98.29326149939163
 20
137.5214173045828
 30
0.0
 10
98.49571151215457
 20
137.2924662764635
 30
0.0
 10
98.86009840080331
 20
136.9013209738996
 30
0.0
 10
99.02169450662112
 20
136.7393724957811
 30
0.0
 10
99.14615385504428
 20
136.6181815470441
 30
0.0
  0
SPLINE
  5
E8
330
1F
100
AcDbEntity
  8
0
  6
Continuous
 62
     7
370
     0
100
AcDbSpline
210
0.0
220
0.0
230
1.0
 70
     8
 71
     3
 72
    16
 73
    12
 74
     0
 42
0.00000001
 43
0.00000001
 12
1.0
 22
0.0
 32
0.0
 13
1.0
 23
0.0
 33
0.0
 40
0.0
 40
0.0
 40
0.0
 40
0.0
 40
0.2499999999999998
 40
0.2499999999999998
 40
0.4999999999999997
 40
0.4999999999999997
 40
0.7500000000000002
 40
0.7500000000000002
 40
0.8750000000000001
 40
0.8750000000000001
 40
1.0
 40
1.0
 40
1.0
 40
1.0
 10
95.41101126949033
 20
143.0876382787377
 30
0.0
 10
95.45358018242884
 20
142.9198720719841
 30
0.0
 10
95.51204499504426
 20
142.7025747993307
 30
0.0
 10
95.6664786545077
 20
142.1973510215503
 30
0.0
 10
95.76273568785338
 20
141.9088326718355
 30
0.0
 10
95.99864565073533
 20
141.2862123512352
 30
0.0
 10
96.13861913141596
 20
140.9520001262731
 30
0.0
 10
96.37778340667485
 20
140.4439241805349
 30
0.0
 10
96.46239945977462
 20
140.2731933920732
 30
0.0
 10
96.64041817417106
 20
139.9324204568721
 30
0.0
 10
96.73442061569273
 20
139.7613445030424
 30
0.0
 10
96.830812116818
 20
139.5943895256756
 30
0.0
  0
SPLINE
  5
E9
330
1F
100
AcDbEntity
  8
0
  6
Continuous
 62
     7
370
     0
100
AcDbSpline
210
0.0
220
0.0
230
1.0
 70
     8
 71
     3
 72
    18
 73
    14
 74
     0
 42
0.00000001
 43
0.00000001
 12
1.0
 22
0.0
 32
0.0
 13
1.0
 23
0.0
 33
0.0
 40
0.0
 40
0.0
 40
0.0
 40
0.0
 40
0.1250000000000002
 40
0.1250000000000002
 40
0.2500000000000004
 40
0.2500000000000004
 40
0.5000000000000003
 40
0.5000000000000003
 40
0.7500000000000002
 40
0.7500000000000002
 40
0.8750000000000001
 40
0.8750000000000001
 40
1.0
 40
1.0
 40
1.0
 40
1.0
 10
108.738661418854
 20
160.2193895256757
 30
0.0
 10
108.5460040913811
 20
160.2193895256757
 30
0.0
 10
108.3513182104362
 20
160.215270380759
 30
0.0
 10
107.9681208858937
 20
160.199121588987
 30
0.0
 10
107.7785525180046
 20
160.1870948386702
 30
0.0
 10
107.2212720628683
 20
160.1404912429816
 30
0.0
 10
106.8651225741377
 20
160.0952037453577
 30
0.0
 10
106.2089853393339
 20
159.9887719037525
 30
0.0
 10
105.90889758806
 20
159.927719459505
 30
0.0
 10
105.5175013436236
 20
159.8374318190043
 30
0.0
 10
105.3970199241868
 20
159.8076171867392
 30
0.0
 10
105.1815613596246
 20
159.7517810342058
 30
0.0
 10
105.0860491317146
 20
159.7256438001417
 30
0.0
 10
105.0035188333001
 20
159.702348751245
 30
0.0
  0
SPLINE
  5
EA
330
1F
100
AcDbEntity
  8
0
  6
Continuous
 62
     7
370
     0
100
AcDbSpline
210
0.0
220
0.0
230
1.0
 70
     8
 71
     3
 72
    16
 73
    12
 74
     0
 42
0.00000001
 43
0.00000001
 12
1.0
 22
0.0
 32
0.0
 13
1.0
 23
0.0
 33
0.0
 40
0.0
 40
0.0
 40
0.0
 40
0.0
 40
0.2500000000000001
 40
0.2500000000000001
 40
0.5000000000000002
 40
0.5000000000000002
 40
0.7500000000000003
 40
0.7500000000000003
 40
0.8750000000000001
 40
0.8750000000000001
 40
1.0
 40
1.0
 40
1.0
 40
1.0
 10
112.4738040044079
 20
159.702348751245
 30
0.0
 10
112.3072297509935
 20
159.7493660946056
 30
0.0
 10
112.0898123863949
 20
159.8073827179798
 30
0.0
 10
111.5750589305094
 20
159.9262511345753
 30
0.0
 10
111.2770661935256
 20
159.9871492732624
 30
0.0
 10
110.6199061975323
 20
160.094155412701
 30
0.0
 10
110.2604831801195
 20
160.1400409350564
 30
0.0
 10
109.7008943664289
 20
160.1869565698737
 30
0.0
 10
109.5107291398631
 20
160.1990423125522
 30
0.0
 10
109.1266017638586
 20
160.2152600511363
 30
0.0
 10
108.9314444210992
 20
160.2193895256757
 30
0.0
 10
108.738661418854
 20
160.2193895256757
 30
0.0
  0
SPLINE
  5
EB
330
1F
100
AcDbEntity
  8
0
  6
Continuous
 62
     7
370
     0
100
AcDbSpline
210
0.0
220
0.0
230
1.0
 70
     8
 71
     3
 72
    18
 73
    14
 74
     0
 42
0.00000001
 43
0.00000001
 12
1.0
 22
0.0
 32
0.0
 13
1.0
 23
0.0
 33
0.0
 40
0.0
 40
0.0
 40
0.0
 40
0.0
 40
0.1250000000000001
 40
0.1250000000000001
 40
0.2500000000000002
 40
0.2500000000000002
 40
0.5000000000000003
 40
0.5000000000000003
 40
0.7500000000000001
 40
0.7500000000000001
 40
0.8750000000000001
 40
0.8750000000000001
 40
1.0
 40
1.0
 40
1.0
 40
1.0
 10
120.6465107208901
 20
139.5943895256758
 30
0.0
 10
120.7428393846205
 20
139.761235665482
 30
0.0
 10
120.8366150409593
 20
139.9318981566074
 30
0.0
 10
121.0142284393157
 20
140.2718311702096
 30
0.0
 10
121.0985971519609
 20
140.4420155677139
 30
0.0
 10
121.3368774817553
 20
140.9479363967392
 30
0.0
 10
121.4757321027046
 20
141.2790146503371
 30
0.0
 10
121.7116280415052
 20
141.9004620848499
 30
0.0
 10
121.8087989494608
 20
142.1908719229422
 30
0.0
 10
121.9263056813579
 20
142.5749748338215
 30
0.0
 10
121.9607261621297
 20
142.6942221198685
 30
0.0
 10
122.0200999178667
 20
142.9087327865073
 30
0.0
 10
122.0452205231374
 20
143.0045174192809
 30
0.0
 10
122.0663115682177
 20
143.0876382787378
 30
0.0
  0
SPLINE
  5
EC
330
1F
100
AcDbEntity
  8
0
  6
Continuous
 62
     7
370
     0
100
AcDbSpline
210
0.0
220
0.0
230
1.0
 70
     8
 71
     3
 72
    16
 73
    12
 74
     0
 42
0.00000001
 43
0.00000001
 12
1.0
 22
0.0
 32
0.0
 13
1.0
 23
0.0
 33
0.0
 40
0.0
 40
0.0
 40
0.0
 40
0.0
 40
0.5000000000000004
 40
0.5000000000000004
 40
0.7500000000000004
 40
0.7500000000000004
 40
0.8750000000000002
 40
0.8750000000000002
 40
0.9375000000000001
 40
0.9375000000000001
 40
1.0
 40
1.0
 40
1.0
 40
1.0
 10
118.3311689826639
 20
136.6181815470443
 30
0.0
 10
118.5791702020314
 20
136.8596700607146
 30
0.0
 10
118.9648478089085
 20
137.2534580522546
 30
0.0
 10
119.5984427817411
 20
138.0290640578976
 30
0.0
 10
119.8174613544701
 20
138.3169286706942
 30
0.0
 10
120.1376050634442
 20
138.777733963392
 30
0.0
 10
120.2430778599724
 20
138.9362750093113
 30
0.0
 10
120.3975656978751
 20
139.1795555766438
 30
0.0
 10
120.4484442481726
 20
139.2615574704769
 30
0.0
 10
120.5486939496269
 20
139.4270185848744
 30
0.0
 10
120.5984055046246
 20
139.5110688469948
 30
0.0
 10
120.6465107208901
 20
139.5943895256758
 30
0.0
  0
CIRCLE
  5
ED
330
1F
100
AcDbEntity
  8
0
  6
Continuous
 62
     7
370
     0
100
AcDbCircle
 10
133.2386614189
 20
146.4693895257
 30
0.0
 40
3.0
  0
LINE
  5
EE
330
1F
100
AcDbEntity
  8
0
  6
Continuous
 62
     7
370
     0
100
AcDbLine
 10
132.0839608805
 20
146.4693895257
 30
0.0
 11
132.6613111497
 21
145.4693895257
 31
0.0
  0
LINE
  5
EF
330
1F
100
AcDbEntity
  8
0
  6
Continuous
 62
     7
370
     0
100
AcDbLine
 10
132.6613111497
 20
145.4693895257
 30
0.0
 11
133.816011688
 21
145.4693895257
 31
0.0
  0
LINE
  5
F0
330
1F
100
AcDbEntity
  8
0
  6
Continuous
 62
     7
370
     0
100
AcDbLine
 10
133.816011688
 20
145.4693895257
 30
0.0
 11
134.3933619572
 21
146.4693895257
 31
0.0
  0
LINE
  5
F1
330
1F
100
AcDbEntity
  8
0
  6
Continuous
 62
     7
370
     0
100
AcDbLine
 10
134.3933619572
 20
146.4693895257
 30
0.0
 11
133.816011688
 21
147.4693895257
 31
0.0
  0
LINE
  5
F2
330
1F
100
AcDbEntity
  8
0
  6
Continuous
 62
     7
370
     0
100
AcDbLine
 10
133.816011688
 20
147.4693895257
 30
0.0
 11
132.6613111497
 21
147.4693895257
 31
0.0
  0
LINE
  5
F3
330
1F
100
AcDbEntity
  8
0
  6
Continuous
 62
     7
370
     0
100
AcDbLine
 10
132.6613111497
 20
147.4693895257
 30
0.0
 11
132.0839608805
 21
146.4693895257
 31
0.0
  0
SPLINE
  5
F4
330
1F
100
AcDbEntity
  8
0
  6
Continuous
 62
     7
370
     0
100
AcDbSpline
210
0.0
220
0.0
230
1.0
 70
    24
 71
     3
 72
     8
 73
     4
 74
     0
 42
0.00000001
 43
0.00000001
 12
1.0
 22
0.0
 32
0.0
 13
1.0
 23
0.0
 33
0.0
 40
0.0
 40
0.0
 40
0.0
 40
0.0
 40
1.0
 40
1.0
 40
1.0
 40
1.0
 10
132.6613111496644
 20
147.4693895256756
 30
0.0
 10
132.6805561586374
 20
147.4360561923423
 30
0.0
 10
132.8730062483672
 20
147.102722859009
 30
0.0
 10
133.238661418854
 20
146.4693895256756
 30
0.0
  0
SPLINE
  5
F5
330
1F
100
AcDbEntity
  8
0
  6
Continuous
 62
     7
370
     0
100
AcDbSpline
210
0.0
220
0.0
230
1.0
 70
    24
 71
     3
 72
     8
 73
     4
 74
     0
 42
0.00000001
 43
0.00000001
 12
1.0
 22
0.0
 32
0.0
 13
1.0
 23
0.0
 33
0.0
 40
0.0
 40
0.0
 40
0.0
 40
0.0
 40
1.0
 40
1.0
 40
1.0
 40
1.0
 10
132.0839608804748
 20
146.4693895256756
 30
0.0
 10
132.1224508984207
 20
146.4693895256756
 30
0.0
 10
132.5073510778805
 20
146.4693895256756
 30
0.0
 10
133.238661418854
 20
146.4693895256756
 30
0.0
  0
SPLINE
  5
F6
330
1F
100
AcDbEntity
  8
0
  6
Continuous
 62
     7
370
     0
100
AcDbSpline
210
0.0
220
0.0
230
1.0
 70
    24
 71
     3
 72
     8
 73
     4
 74
     0
 42
0.00000001
 43
0.00000001
 12
1.0
 22
0.0
 32
0.0
 13
1.0
 23
0.0
 33
0.0
 40
0.0
 40
0.0
 40
0.0
 40
0.0
 40
1.0
 40
1.0
 40
1.0
 40
1.0
 10
132.6613111496644
 20
145.4693895256756
 30
0.0
 10
132.6805561586374
 20
145.502722859009
 30
0.0
 10
132.8730062483672
 20
145.8360561923423
 30
0.0
 10
133.238661418854
 20
146.4693895256756
 30
0.0
  0
SPLINE
  5
F7
330
1F
100
AcDbEntity
  8
0
  6
Continuous
 62
     7
370
     0
100
AcDbSpline
210
0.0
220
0.0
230
1.0
 70
    24
 71
     3
 72
     8
 73
     4
 74
     0
 42
0.00000001
 43
0.00000001
 12
1.0
 22
0.0
 32
0.0
 13
1.0
 23
0.0
 33
0.0
 40
0.0
 40
0.0
 40
0.0
 40
0.0
 40
1.0
 40
1.0
 40
1.0
 40
1.0
 10
133.8160116880436
 20
147.4693895256756
 30
0.0
 10
133.7967666790707
 20
147.4360561923423
 30
0.0
 10
133.6043165893408
 20
147.102722859009
 30
0.0
 10
133.238661418854
 20
146.4693895256756
 30
0.0
  0
SPLINE
  5
F8
330
1F
100
AcDbEntity
  8
0
  6
Continuous
 62
     7
370
     0
100
AcDbSpline
210
0.0
220
0.0
230
1.0
 70
    24
 71
     3
 72
     8
 73
     4
 74
     0
 42
0.00000001
 43
0.00000001
 12
1.0
 22
0.0
 32
0.0
 13
1.0
 23
0.0
 33
0.0
 40
0.0
 40
0.0
 40
0.0
 40
0.0
 40
1.0
 40
1.0
 40
1.0
 40
1.0
 10
133.8160116880436
 20
145.4693895256756
 30
0.0
 10
133.7967666790707
 20
145.502722859009
 30
0.0
 10
133.6043165893408
 20
145.8360561923423
 30
0.0
 10
133.238661418854
 20
146.4693895256756
 30
0.0
  0
SPLINE
  5
F9
330
1F
100
AcDbEntity
  8
0
  6
Continuous
 62
     7
370
     0
100
AcDbSpline
210
0.0
220
0.0
230
1.0
 70
    24
 71
     3
 72
     8
 73
     4
 74
     0
 42
0.00000001
 43
0.00000001
 12
1.0
 22
0.0
 32
0.0
 13
1.0
 23
0.0
 33
0.0
 40
0.0
 40
0.0
 40
0.0
 40
0.0
 40
1.0
 40
1.0
 40
1.0
 40
1.0
 10
134.3933619572333
 20
146.4693895256756
 30
0.0
 10
134.3548719392873
 20
146.4693895256756
 30
0.0
 10
133.9699717598275
 20
146.4693895256756
 30
0.0
 10
133.238661418854
 20
146.4693895256756
 30
0.0
  0
CIRCLE
  5
FA
330
1F
100
AcDbEntity
  8
0
  6
Continuous
 62
     7
370
     0
100
AcDbCircle
 10
126.7386614189
 20
146.4693895257
 30
0.0
 40
3.0
  0
LINE
  5
FB
330
1F
100
AcDbEntity
  8
0
  6
Continuous
 62
     7
370
     0
100
AcDbLine
 10
125.5839608805
 20
146.4693895257
 30
0.0
 11
126.1613111497
 21
145.4693895257
 31
0.0
  0
LINE
  5
FC
330
1F
100
AcDbEntity
  8
0
  6
Continuous
 62
     7
370
     0
100
AcDbLine
 10
126.1613111497
 20
145.4693895257
 30
0.0
 11
127.316011688
 21
145.4693895257
 31
0.0
  0
LINE
  5
FD
330
1F
100
AcDbEntity
  8
0
  6
Continuous
 62
     7
370
     0
100
AcDbLine
 10
127.316011688
 20
145.4693895257
 30
0.0
 11
127.8933619572
 21
146.4693895257
 31
0.0
  0
LINE
  5
FE
330
1F
100
AcDbEntity
  8
0
  6
Continuous
 62
     7
370
     0
100
AcDbLine
 10
127.316011688
 20
147.4693895257
 30
0.0
 11
126.1613111497
 21
147.4693895257
 31
0.0
  0
LINE
  5
FF
330
1F
100
AcDbEntity
  8
0
  6
Continuous
 62
     7
370
     0
100
AcDbLine
 10
126.1613111497
 20
147.4693895257
 30
0.0
 11
125.5839608805
 21
146.4693895257
 31
0.0
  0
LINE
  5
100
330
1F
100
AcDbEntity
  8
0
  6
Continuous
 62
     7
370
     0
100
AcDbLine
 10
127.8933619572
 20
146.4693895257
 30
0.0
 11
127.316011688
 21
147.4693895257
 31
0.0
  0
SPLINE
  5
101
330
1F
100
AcDbEntity
  8
0
  6
Continuous
 62
     7
370
     0
100
AcDbSpline
210
0.0
220
0.0
230
1.0
 70
    24
 71
     3
 72
     8
 73
     4
 74
     0
 42
0.00000001
 43
0.00000001
 12
1.0
 22
0.0
 32
0.0
 13
1.0
 23
0.0
 33
0.0
 40
0.0
 40
0.0
 40
0.0
 40
0.0
 40
1.0
 40
1.0
 40
1.0
 40
1.0
 10
125.5839608804747
 20
146.4693895256756
 30
0.0
 10
125.6224508984207
 20
146.4693895256756
 30
0.0
 10
126.0073510778805
 20
146.4693895256756
 30
0.0
 10
126.738661418854
 20
146.4693895256756
 30
0.0
  0
SPLINE
  5
102
330
1F
100
AcDbEntity
  8
0
  6
Continuous
 62
     7
370
     0
100
AcDbSpline
210
0.0
220
0.0
230
1.0
 70
    24
 71
     3
 72
     8
 73
     4
 74
     0
 42
0.00000001
 43
0.00000001
 12
1.0
 22
0.0
 32
0.0
 13
1.0
 23
0.0
 33
0.0
 40
0.0
 40
0.0
 40
0.0
 40
0.0
 40
1.0
 40
1.0
 40
1.0
 40
1.0
 10
126.1613111496644
 20
145.4693895256756
 30
0.0
 10
126.1805561586374
 20
145.502722859009
 30
0.0
 10
126.3730062483672
 20
145.8360561923423
 30
0.0
 10
126.738661418854
 20
146.4693895256756
 30
0.0
  0
SPLINE
  5
103
330
1F
100
AcDbEntity
  8
0
  6
Continuous
 62
     7
370
     0
100
AcDbSpline
210
0.0
220
0.0
230
1.0
 70
    24
 71
     3
 72
     8
 73
     4
 74
     0
 42
0.00000001
 43
0.00000001
 12
1.0
 22
0.0
 32
0.0
 13
1.0
 23
0.0
 33
0.0
 40
0.0
 40
0.0
 40
0.0
 40
0.0
 40
1.0
 40
1.0
 40
1.0
 40
1.0
 10
127.3160116880436
 20
145.4693895256756
 30
0.0
 10
127.2967666790706
 20
145.502722859009
 30
0.0
 10
127.1043165893408
 20
145.8360561923423
 30
0.0
 10
126.738661418854
 20
146.4693895256756
 30
0.0
  0
SPLINE
  5
104
330
1F
100
AcDbEntity
  8
0
  6
Continuous
 62
     7
370
     0
100
AcDbSpline
210
0.0
220
0.0
230
1.0
 70
    24
 71
     3
 72
     8
 73
     4
 74
     0
 42
0.00000001
 43
0.00000001
 12
1.0
 22
0.0
 32
0.0
 13
1.0
 23
0.0
 33
0.0
 40
0.0
 40
0.0
 40
0.0
 40
0.0
 40
1.0
 40
1.0
 40
1.0
 40
1.0
 10
127.8933619572333
 20
146.4693895256756
 30
0.0
 10
127.8548719392873
 20
146.4693895256756
 30
0.0
 10
127.4699717598275
 20
146.4693895256756
 30
0.0
 10
126.738661418854
 20
146.4693895256756
 30
0.0
  0
SPLINE
  5
105
330
1F
100
AcDbEntity
  8
0
  6
Continuous
 62
     7
370
     0
100
AcDbSpline
210
0.0
220
0.0
230
1.0
 70
    24
 71
     3
 72
     8
 73
     4
 74
     0
 42
0.00000001
 43
0.00000001
 12
1.0
 22
0.0
 32
0.0
 13
1.0
 23
0.0
 33
0.0
 40
0.0
 40
0.0
 40
0.0
 40
0.0
 40
1.0
 40
1.0
 40
1.0
 40
1.0
 10
127.3160116880436
 20
147.4693895256756
 30
0.0
 10
127.2967666790706
 20
147.4360561923423
 30
0.0
 10
127.1043165893408
 20
147.102722859009
 30
0.0
 10
126.738661418854
 20
146.4693895256756
 30
0.0
  0
SPLINE
  5
106
330
1F
100
AcDbEntity
  8
0
  6
Continuous
 62
     7
370
     0
100
AcDbSpline
210
0.0
220
0.0
230
1.0
 70
    24
 71
     3
 72
     8
 73
     4
 74
     0
 42
0.00000001
 43
0.00000001
 12
1.0
 22
0.0
 32
0.0
 13
1.0
 23
0.0
 33
0.0
 40
0.0
 40
0.0
 40
0.0
 40
0.0
 40
1.0
 40
1.0
 40
1.0
 40
1.0
 10
126.1613111496644
 20
147.4693895256756
 30
0.0
 10
126.1805561586374
 20
147.4360561923423
 30
0.0
 10
126.3730062483672
 20
147.102722859009
 30
0.0
 10
126.738661418854
 20
146.4693895256756
 30
0.0
  0
CIRCLE
  5
107
330
1F
100
AcDbEntity
  8
0
  6
Continuous
 62
     7
370
     0
100
AcDbCircle
 10
90.7386614189
 20
146.4693895257
 30
0.0
 40
3.0
  0
LINE
  5
108
330
1F
100
AcDbEntity
  8
0
  6
Continuous
 62
     7
370
     0
100
AcDbLine
 10
90.1613111497
 20
145.4693895257
 30
0.0
 11
91.316011688
 21
145.4693895257
 31
0.0
  0
LINE
  5
109
330
1F
100
AcDbEntity
  8
0
  6
Continuous
 62
     7
370
     0
100
AcDbLine
 10
91.316011688
 20
145.4693895257
 30
0.0
 11
91.8933619572
 21
146.4693895257
 31
0.0
  0
LINE
  5
10A
330
1F
100
AcDbEntity
  8
0
  6
Continuous
 62
     7
370
     0
100
AcDbLine
 10
91.8933619572
 20
146.4693895257
 30
0.0
 11
91.316011688
 21
147.4693895257
 31
0.0
  0
LINE
  5
10B
330
1F
100
AcDbEntity
  8
0
  6
Continuous
 62
     7
370
     0
100
AcDbLine
 10
90.1613111497
 20
147.4693895257
 30
0.0
 11
89.5839608805
 21
146.4693895257
 31
0.0
  0
LINE
  5
10C
330
1F
100
AcDbEntity
  8
0
  6
Continuous
 62
     7
370
     0
100
AcDbLine
 10
89.5839608805
 20
146.4693895257
 30
0.0
 11
90.1613111497
 21
145.4693895257
 31
0.0
  0
LINE
  5
10D
330
1F
100
AcDbEntity
  8
0
  6
Continuous
 62
     7
370
     0
100
AcDbLine
 10
91.316011688
 20
147.4693895257
 30
0.0
 11
90.1613111497
 21
147.4693895257
 31
0.0
  0
SPLINE
  5
10E
330
1F
100
AcDbEntity
  8
0
  6
Continuous
 62
     7
370
     0
100
AcDbSpline
210
0.0
220
0.0
230
1.0
 70
    24
 71
     3
 72
     8
 73
     4
 74
     0
 42
0.00000001
 43
0.00000001
 12
1.0
 22
0.0
 32
0.0
 13
1.0
 23
0.0
 33
0.0
 40
0.0
 40
0.0
 40
0.0
 40
0.0
 40
1.0
 40
1.0
 40
1.0
 40
1.0
 10
90.16131114966439
 20
147.4693895256756
 30
0.0
 10
90.18055615863736
 20
147.4360561923423
 30
0.0
 10
90.37300624836725
 20
147.102722859009
 30
0.0
 10
90.73866141885401
 20
146.4693895256756
 30
0.0
  0
SPLINE
  5
10F
330
1F
100
AcDbEntity
  8
0
  6
Continuous
 62
     7
370
     0
100
AcDbSpline
210
0.0
220
0.0
230
1.0
 70
    24
 71
     3
 72
     8
 73
     4
 74
     0
 42
0.00000001
 43
0.00000001
 12
1.0
 22
0.0
 32
0.0
 13
1.0
 23
0.0
 33
0.0
 40
0.0
 40
0.0
 40
0.0
 40
0.0
 40
1.0
 40
1.0
 40
1.0
 40
1.0
 10
89.58396088047475
 20
146.4693895256756
 30
0.0
 10
89.62245089842074
 20
146.4693895256756
 30
0.0
 10
90.00735107788049
 20
146.4693895256756
 30
0.0
 10
90.73866141885401
 20
146.4693895256756
 30
0.0
  0
SPLINE
  5
110
330
1F
100
AcDbEntity
  8
0
  6
Continuous
 62
     7
370
     0
100
AcDbSpline
210
0.0
220
0.0
230
1.0
 70
    24
 71
     3
 72
     8
 73
     4
 74
     0
 42
0.00000001
 43
0.00000001
 12
1.0
 22
0.0
 32
0.0
 13
1.0
 23
0.0
 33
0.0
 40
0.0
 40
0.0
 40
0.0
 40
0.0
 40
1.0
 40
1.0
 40
1.0
 40
1.0
 10
90.16131114966439
 20
145.4693895256756
 30
0.0
 10
90.18055615863736
 20
145.502722859009
 30
0.0
 10
90.37300624836725
 20
145.8360561923423
 30
0.0
 10
90.73866141885401
 20
146.4693895256756
 30
0.0
  0
SPLINE
  5
111
330
1F
100
AcDbEntity
  8
0
  6
Continuous
 62
     7
370
     0
100
AcDbSpline
210
0.0
220
0.0
230
1.0
 70
    24
 71
     3
 72
     8
 73
     4
 74
     0
 42
0.00000001
 43
0.00000001
 12
1.0
 22
0.0
 32
0.0
 13
1.0
 23
0.0
 33
0.0
 40
0.0
 40
0.0
 40
0.0
 40
0.0
 40
1.0
 40
1.0
 40
1.0
 40
1.0
 10
91.31601168804363
 20
147.4693895256756
 30
0.0
 10
91.29676667907064
 20
147.4360561923423
 30
0.0
 10
91.10431658934075
 20
147.102722859009
 30
0.0
 10
90.73866141885401
 20
146.4693895256756
 30
0.0
  0
SPLINE
  5
112
330
1F
100
AcDbEntity
  8
0
  6
Continuous
 62
     7
370
     0
100
AcDbSpline
210
0.0
220
0.0
230
1.0
 70
    24
 71
     3
 72
     8
 73
     4
 74
     0
 42
0.00000001
 43
0.00000001
 12
1.0
 22
0.0
 32
0.0
 13
1.0
 23
0.0
 33
0.0
 40
0.0
 40
0.0
 40
0.0
 40
0.0
 40
1.0
 40
1.0
 40
1.0
 40
1.0
 10
91.31601168804363
 20
145.4693895256756
 30
0.0
 10
91.29676667907064
 20
145.502722859009
 30
0.0
 10
91.10431658934075
 20
145.8360561923423
 30
0.0
 10
90.73866141885401
 20
146.4693895256756
 30
0.0
  0
SPLINE
  5
113
330
1F
100
AcDbEntity
  8
0
  6
Continuous
 62
     7
370
     0
100
AcDbSpline
210
0.0
220
0.0
230
1.0
 70
    24
 71
     3
 72
     8
 73
     4
 74
     0
 42
0.00000001
 43
0.00000001
 12
1.0
 22
0.0
 32
0.0
 13
1.0
 23
0.0
 33
0.0
 40
0.0
 40
0.0
 40
0.0
 40
0.0
 40
1.0
 40
1.0
 40
1.0
 40
1.0
 10
91.89336195723325
 20
146.4693895256756
 30
0.0
 10
91.85487193928728
 20
146.4693895256756
 30
0.0
 10
91.46997175982753
 20
146.4693895256756
 30
0.0
 10
90.73866141885401
 20
146.4693895256756
 30
0.0
  0
CIRCLE
  5
114
330
1F
100
AcDbEntity
  8
0
  6
Continuous
 62
     7
370
     0
100
AcDbCircle
 10
84.2386614189
 20
146.4693895257
 30
0.0
 40
3.0
  0
LINE
  5
115
330
1F
100
AcDbEntity
  8
0
  6
Continuous
 62
     7
370
     0
100
AcDbLine
 10
83.0839608805
 20
146.4693895257
 30
0.0
 11
83.6613111497
 21
145.4693895257
 31
0.0
  0
LINE
  5
116
330
1F
100
AcDbEntity
  8
0
  6
Continuous
 62
     7
370
     0
100
AcDbLine
 10
83.6613111497
 20
145.4693895257
 30
0.0
 11
84.816011688
 21
145.4693895257
 31
0.0
  0
LINE
  5
117
330
1F
100
AcDbEntity
  8
0
  6
Continuous
 62
     7
370
     0
100
AcDbLine
 10
84.816011688
 20
145.4693895257
 30
0.0
 11
85.3933619572
 21
146.4693895257
 31
0.0
  0
LINE
  5
118
330
1F
100
AcDbEntity
  8
0
  6
Continuous
 62
     7
370
     0
100
AcDbLine
 10
85.3933619572
 20
146.4693895257
 30
0.0
 11
84.816011688
 21
147.4693895257
 31
0.0
  0
LINE
  5
119
330
1F
100
AcDbEntity
  8
0
  6
Continuous
 62
     7
370
     0
100
AcDbLine
 10
84.816011688
 20
147.4693895257
 30
0.0
 11
83.6613111497
 21
147.4693895257
 31
0.0
  0
LINE
  5
11A
330
1F
100
AcDbEntity
  8
0
  6
Continuous
 62
     7
370
     0
100
AcDbLine
 10
83.6613111497
 20
147.4693895257
 30
0.0
 11
83.0839608805
 21
146.4693895257
 31
0.0
  0
SPLINE
  5
11B
330
1F
100
AcDbEntity
  8
0
  6
Continuous
 62
     7
370
     0
100
AcDbSpline
210
0.0
220
0.0
230
1.0
 70
    24
 71
     3
 72
     8
 73
     4
 74
     0
 42
0.00000001
 43
0.00000001
 12
1.0
 22
0.0
 32
0.0
 13
1.0
 23
0.0
 33
0.0
 40
0.0
 40
0.0
 40
0.0
 40
0.0
 40
1.0
 40
1.0
 40
1.0
 40
1.0
 10
84.81601168804363
 20
145.4693895256756
 30
0.0
 10
84.79676667907064
 20
145.502722859009
 30
0.0
 10
84.60431658934077
 20
145.8360561923423
 30
0.0
 10
84.238661418854
 20
146.4693895256756
 30
0.0
  0
SPLINE
  5
11C
330
1F
100
AcDbEntity
  8
0
  6
Continuous
 62
     7
370
     0
100
AcDbSpline
210
0.0
220
0.0
230
1.0
 70
    24
 71
     3
 72
     8
 73
     4
 74
     0
 42
0.00000001
 43
0.00000001
 12
1.0
 22
0.0
 32
0.0
 13
1.0
 23
0.0
 33
0.0
 40
0.0
 40
0.0
 40
0.0
 40
0.0
 40
1.0
 40
1.0
 40
1.0
 40
1.0
 10
85.39336195723325
 20
146.4693895256756
 30
0.0
 10
85.35487193928729
 20
146.4693895256756
 30
0.0
 10
84.96997175982753
 20
146.4693895256756
 30
0.0
 10
84.238661418854
 20
146.4693895256756
 30
0.0
  0
SPLINE
  5
11D
330
1F
100
AcDbEntity
  8
0
  6
Continuous
 62
     7
370
     0
100
AcDbSpline
210
0.0
220
0.0
230
1.0
 70
    24
 71
     3
 72
     8
 73
     4
 74
     0
 42
0.00000001
 43
0.00000001
 12
1.0
 22
0.0
 32
0.0
 13
1.0
 23
0.0
 33
0.0
 40
0.0
 40
0.0
 40
0.0
 40
0.0
 40
1.0
 40
1.0
 40
1.0
 40
1.0
 10
84.81601168804363
 20
147.4693895256756
 30
0.0
 10
84.79676667907064
 20
147.4360561923423
 30
0.0
 10
84.60431658934077
 20
147.102722859009
 30
0.0
 10
84.238661418854
 20
146.4693895256756
 30
0.0
  0
SPLINE
  5
11E
330
1F
100
AcDbEntity
  8
0
  6
Continuous
 62
     7
370
     0
100
AcDbSpline
210
0.0
220
0.0
230
1.0
 70
    24
 71
     3
 72
     8
 73
     4
 74
     0
 42
0.00000001
 43
0.00000001
 12
1.0
 22
0.0
 32
0.0
 13
1.0
 23
0.0
 33
0.0
 40
0.0
 40
0.0
 40
0.0
 40
0.0
 40
1.0
 40
1.0
 40
1.0
 40
1.0
 10
83.66131114966439
 20
145.4693895256756
 30
0.0
 10
83.68055615863737
 20
145.502722859009
 30
0.0
 10
83.87300624836725
 20
145.8360561923423
 30
0.0
 10
84.238661418854
 20
146.4693895256756
 30
0.0
  0
SPLINE
  5
11F
330
1F
100
AcDbEntity
  8
0
  6
Continuous
 62
     7
370
     0
100
AcDbSpline
210
0.0
220
0.0
230
1.0
 70
    24
 71
     3
 72
     8
 73
     4
 74
     0
 42
0.00000001
 43
0.00000001
 12
1.0
 22
0.0
 32
0.0
 13
1.0
 23
0.0
 33
0.0
 40
0.0
 40
0.0
 40
0.0
 40
0.0
 40
1.0
 40
1.0
 40
1.0
 40
1.0
 10
83.66131114966439
 20
147.4693895256756
 30
0.0
 10
83.68055615863737
 20
147.4360561923423
 30
0.0
 10
83.87300624836725
 20
147.102722859009
 30
0.0
 10
84.238661418854
 20
146.4693895256756
 30
0.0
  0
SPLINE
  5
120
330
1F
100
AcDbEntity
  8
0
  6
Continuous
 62
     7
370
     0
100
AcDbSpline
210
0.0
220
0.0
230
1.0
 70
    24
 71
     3
 72
     8
 73
     4
 74
     0
 42
0.00000001
 43
0.00000001
 12
1.0
 22
0.0
 32
0.0
 13
1.0
 23
0.0
 33
0.0
 40
0.0
 40
0.0
 40
0.0
 40
0.0
 40
1.0
 40
1.0
 40
1.0
 40
1.0
 10
83.08396088047475
 20
146.4693895256756
 30
0.0
 10
83.12245089842072
 20
146.4693895256756
 30
0.0
 10
83.50735107788047
 20
146.4693895256756
 30
0.0
 10
84.238661418854
 20
146.4693895256756
 30
0.0
  0
LINE
  5
121
330
1F
100
AcDbEntity
  8
0
  6
Continuous
 62
     7
370
     0
100
AcDbLine
 10
102.8483137288
 20
126.7400843754
 30
0.0
 11
102.1333268086
 21
126.2708777325
 31
0.0
  0
ARC
  5
122
330
1F
100
AcDbEntity
  8
0
  6
Continuous
 62
     7
370
     0
100
AcDbCircle
 10
101.9402875426
 20
125.5461461672
 30
0.0
 40
0.7500000000000058
100
AcDbArc
 50
75.0850055186
 51
171.464375727
  0
LINE
  5
123
330
1F
100
AcDbEntity
  8
0
  6
Continuous
 62
     7
370
     0
100
AcDbLine
 10
101.198594715
 20
125.6574644026
 30
0.0
 11
100.4836077948
 21
125.1882577597
 31
0.0
  0
ARC
  5
124
330
1F
100
AcDbEntity
  8
0
  6
Continuous
 62
     7
370
     0
100
AcDbCircle
 10
101.9402875426
 20
125.5461461672
 30
0.0
 40
1.500000000000014
100
AcDbArc
 50
52.7459112573
 51
193.8034699883
  0
ARC
  5
125
330
1F
100
AcDbEntity
  8
0
  6
Continuous
 62
     7
370
     0
100
AcDbCircle
 10
101.9402875426
 20
125.5461461672
 30
0.0
 40
1.50000000000003
100
AcDbArc
 50
232.7459112573
 51
13.8034699883
  0
ARC
  5
126
330
1F
100
AcDbEntity
  8
0
  6
Continuous
 62
     7
370
     0
100
AcDbCircle
 10
101.9402875426
 20
125.5461461672
 30
0.0
 40
1.800000000000032
100
AcDbArc
 50
229.4023108359
 51
17.1470704096
  0
SPLINE
  5
127
330
1F
100
AcDbEntity
  8
0
  6
Continuous
 62
     7
370
     0
100
AcDbSpline
210
0.0
220
0.0
230
1.0
 70
    24
 71
     3
 72
     8
 73
     4
 74
     0
 42
0.00000001
 43
0.00000001
 12
1.0
 22
0.0
 32
0.0
 13
1.0
 23
0.0
 33
0.0
 40
0.0
 40
0.0
 40
0.0
 40
0.0
 40
1.0
 40
1.0
 40
1.0
 40
1.0
 10
103.6602795734906
 20
126.0768319628194
 30
0.0
 10
103.5730413512234
 20
126.0195823093734
 30
0.0
 10
103.4853857435073
 20
125.9620587487835
 30
0.0
 10
103.3969672904456
 20
125.904034574695
 30
0.0
  0
SPLINE
  5
128
330
1F
100
AcDbEntity
  8
0
  6
Continuous
 62
     7
370
     0
100
AcDbSpline
210
0.0
220
0.0
230
1.0
 70
    24
 71
     3
 72
     8
 73
     4
 74
     0
 42
0.00000001
 43
0.00000001
 12
1.0
 22
0.0
 32
0.0
 13
1.0
 23
0.0
 33
0.0
 40
0.0
 40
0.0
 40
0.0
 40
0.0
 40
1.0
 40
1.0
 40
1.0
 40
1.0
 10
101.0322613563831
 20
124.3522079589257
 30
0.0
 10
100.9438547035662
 20
124.2941915286896
 30
0.0
 10
100.856189177937
 20
124.2366614595181
 30
0.0
 10
100.7689490733381
 20
124.1794105708013
 30
0.0
  0
SPLINE
  5
129
330
1F
100
AcDbEntity
  8
0
  6
Continuous
 62
     7
370
     0
100
AcDbSpline
210
0.0
220
0.0
230
1.0
 70
    24
 71
     3
 72
     8
 73
     4
 74
     0
 42
0.00000001
 43
0.00000001
 12
1.0
 22
0.0
 32
0.0
 13
1.0
 23
0.0
 33
0.0
 40
0.0
 40
0.0
 40
0.0
 40
0.0
 40
1.0
 40
1.0
 40
1.0
 40
1.0
 10
102.8483137288275
 20
126.7400843754388
 30
0.0
 10
102.9367203816444
 20
126.7981008056749
 30
0.0
 10
103.0243859072736
 20
126.8556308748463
 30
0.0
 10
103.1116260118725
 20
126.9128817635632
 30
0.0
  0
ARC
  5
12A
330
1F
100
AcDbEntity
  8
0
  6
Continuous
 62
     7
370
     0
100
AcDbCircle
 10
101.9402875426
 20
125.5461461672
 30
0.0
 40
1.800000000000029
100
AcDbArc
 50
49.4023108359
 51
197.1470704096
  0
SPLINE
  5
12B
330
1F
100
AcDbEntity
  8
0
  6
Continuous
 62
     7
370
     0
100
AcDbSpline
210
0.0
220
0.0
230
1.0
 70
    24
 71
     3
 72
     8
 73
     4
 74
     0
 42
0.00000001
 43
0.00000001
 12
1.0
 22
0.0
 32
0.0
 13
1.0
 23
0.0
 33
0.0
 40
0.0
 40
0.0
 40
0.0
 40
0.0
 40
1.0
 40
1.0
 40
1.0
 40
1.0
 10
100.22029551172
 20
125.0154603715451
 30
0.0
 10
100.3075337339872
 20
125.072710024991
 30
0.0
 10
100.3951893417033
 20
125.1302335855809
 30
0.0
 10
100.483607794765
 20
125.1882577596695
 30
0.0
  0
ARC
  5
12C
330
1F
100
AcDbEntity
  8
0
  6
Continuous
 62
     7
370
     0
100
AcDbCircle
 10
101.9402875426
 20
125.5461461672
 30
0.0
 40
0.7500000000000208
100
AcDbArc
 50
255.0850055186
 51
351.464375727
  0
LINE
  5
12D
330
1F
100
AcDbEntity
  8
0
  6
Continuous
 62
     7
370
     0
100
AcDbLine
 10
103.3969672904
 20
125.9040345747
 30
0.0
 11
102.6819803702
 21
125.4348279318
 31
0.0
  0
LINE
  5
12E
330
1F
100
AcDbEntity
  8
0
  6
Continuous
 62
     7
370
     0
100
AcDbLine
 10
101.7472482767
 20
124.8214146018
 30
0.0
 11
101.0322613564
 21
124.3522079589
 31
0.0
  0
ARC
  5
12F
330
1F
100
AcDbEntity
  8
0
  6
Continuous
 62
     7
370
     0
100
AcDbCircle
 10
101.9402875426
 20
125.5461461672
 30
0.0
 40
1.800000000000032
100
AcDbArc
 50
197.1470704096
 51
229.4023108359
  0
ARC
  5
130
330
1F
100
AcDbEntity
  8
0
  6
Continuous
 62
     7
370
     0
100
AcDbCircle
 10
101.9402875426
 20
125.5461461672
 30
0.0
 40
0.7500000000000208
100
AcDbArc
 50
171.464375727
 51
255.0850055186
  0
ARC
  5
131
330
1F
100
AcDbEntity
  8
0
  6
Continuous
 62
     7
370
     0
100
AcDbCircle
 10
101.9402875426
 20
125.5461461672
 30
0.0
 40
1.79999999999999
100
AcDbArc
 50
17.1470704096
 51
49.4023108359
  0
ARC
  5
132
330
1F
100
AcDbEntity
  8
0
  6
Continuous
 62
     7
370
     0
100
AcDbCircle
 10
101.9402875426
 20
125.5461461672
 30
0.0
 40
0.7499999999999981
100
AcDbArc
 50
351.464375727
 51
75.0850055186
  0
CIRCLE
  5
133
330
1F
100
AcDbEntity
  8
0
  6
Continuous
 62
     7
370
     0
100
AcDbCircle
 10
101.9402875426
 20
125.5461461672
 30
0.0
 40
3.800000000000035
  0
CIRCLE
  5
134
330
1F
100
AcDbEntity
  8
0
  6
Continuous
 62
     7
370
     0
100
AcDbCircle
 10
101.9402875426
 20
125.5461461672
 30
0.0
 40
2.149999999999999
  0
CIRCLE
  5
135
330
1F
100
AcDbEntity
  8
0
  6
Continuous
 62
     7
370
     0
100
AcDbCircle
 10
101.9402875426
 20
125.5461461672
 30
0.0
 40
2.649999999999989
  0
ARC
  5
136
330
1F
100
AcDbEntity
  8
0
  6
Continuous
 62
     7
370
     0
100
AcDbCircle
 10
101.9402875426
 20
125.5461461672
 30
0.0
 40
0.9999999999999969
100
AcDbArc
 50
3.2746906228
 51
63.2746906228
  0
ARC
  5
137
330
1F
100
AcDbEntity
  8
0
  6
Continuous
 62
     7
370
     0
100
AcDbCircle
 10
101.9402875426
 20
125.5461461672
 30
0.0
 40
1.000000000000008
100
AcDbArc
 50
183.2746906228
 51
243.2746906228
  0
ARC
  5
138
330
1F
100
AcDbEntity
  8
0
  6
Continuous
 62
     7
370
     0
100
AcDbCircle
 10
115.5370352951
 20
125.5461461672
 30
0.0
 40
1.50000000000001
100
AcDbArc
 50
232.7459112573
 51
13.8034699883
  0
ARC
  5
139
330
1F
100
AcDbEntity
  8
0
  6
Continuous
 62
     7
370
     0
100
AcDbCircle
 10
115.5370352951
 20
125.5461461672
 30
0.0
 40
1.800000000000023
100
AcDbArc
 50
229.4023108359
 51
17.1470704096
  0
SPLINE
  5
13A
330
1F
100
AcDbEntity
  8
0
  6
Continuous
 62
     7
370
     0
100
AcDbSpline
210
0.0
220
0.0
230
1.0
 70
    24
 71
     3
 72
     8
 73
     4
 74
     0
 42
0.00000001
 43
0.00000001
 12
1.0
 22
0.0
 32
0.0
 13
1.0
 23
0.0
 33
0.0
 40
0.0
 40
0.0
 40
0.0
 40
0.0
 40
1.0
 40
1.0
 40
1.0
 40
1.0
 10
117.257027325988
 20
126.0768319628194
 30
0.0
 10
117.1697891037208
 20
126.0195823093734
 30
0.0
 10
117.0821334960047
 20
125.9620587487835
 30
0.0
 10
116.993715042943
 20
125.904034574695
 30
0.0
  0
SPLINE
  5
13B
330
1F
100
AcDbEntity
  8
0
  6
Continuous
 62
     7
370
     0
100
AcDbSpline
210
0.0
220
0.0
230
1.0
 70
    24
 71
     3
 72
     8
 73
     4
 74
     0
 42
0.00000001
 43
0.00000001
 12
1.0
 22
0.0
 32
0.0
 13
1.0
 23
0.0
 33
0.0
 40
0.0
 40
0.0
 40
0.0
 40
0.0
 40
1.0
 40
1.0
 40
1.0
 40
1.0
 10
114.6290091088806
 20
124.3522079589257
 30
0.0
 10
114.5406024560636
 20
124.2941915286896
 30
0.0
 10
114.4529369304344
 20
124.2366614595181
 30
0.0
 10
114.3656968258355
 20
124.1794105708013
 30
0.0
  0
LINE
  5
13C
330
1F
100
AcDbEntity
  8
0
  6
Continuous
 62
     7
370
     0
100
AcDbLine
 10
116.9937150429
 20
125.9040345747
 30
0.0
 11
116.2787281227
 21
125.4348279318
 31
0.0
  0
LINE
  5
13D
330
1F
100
AcDbEntity
  8
0
  6
Continuous
 62
     7
370
     0
100
AcDbLine
 10
115.3439960292
 20
124.8214146018
 30
0.0
 11
114.6290091089
 21
124.3522079589
 31
0.0
  0
ARC
  5
13E
330
1F
100
AcDbEntity
  8
0
  6
Continuous
 62
     7
370
     0
100
AcDbCircle
 10
115.5370352951
 20
125.5461461672
 30
0.0
 40
0.7500000000000208
100
AcDbArc
 50
255.0850055186
 51
351.464375727
  0
SPLINE
  5
13F
330
1F
100
AcDbEntity
  8
0
  6
Continuous
 62
     7
370
     0
100
AcDbSpline
210
0.0
220
0.0
230
1.0
 70
    24
 71
     3
 72
     8
 73
     4
 74
     0
 42
0.00000001
 43
0.00000001
 12
1.0
 22
0.0
 32
0.0
 13
1.0
 23
0.0
 33
0.0
 40
0.0
 40
0.0
 40
0.0
 40
0.0
 40
1.0
 40
1.0
 40
1.0
 40
1.0
 10
116.4450614813249
 20
126.7400843754388
 30
0.0
 10
116.5334681341418
 20
126.7981008056749
 30
0.0
 10
116.621133659771
 20
126.8556308748463
 30
0.0
 10
116.7083737643699
 20
126.9128817635632
 30
0.0
  0
ARC
  5
140
330
1F
100
AcDbEntity
  8
0
  6
Continuous
 62
     7
370
     0
100
AcDbCircle
 10
115.5370352951
 20
125.5461461672
 30
0.0
 40
1.499999999999996
100
AcDbArc
 50
52.7459112573
 51
193.8034699883
  0
ARC
  5
141
330
1F
100
AcDbEntity
  8
0
  6
Continuous
 62
     7
370
     0
100
AcDbCircle
 10
115.5370352951
 20
125.5461461672
 30
0.0
 40
1.800000000000015
100
AcDbArc
 50
49.4023108359
 51
197.1470704096
  0
SPLINE
  5
142
330
1F
100
AcDbEntity
  8
0
  6
Continuous
 62
     7
370
     0
100
AcDbSpline
210
0.0
220
0.0
230
1.0
 70
    24
 71
     3
 72
     8
 73
     4
 74
     0
 42
0.00000001
 43
0.00000001
 12
1.0
 22
0.0
 32
0.0
 13
1.0
 23
0.0
 33
0.0
 40
0.0
 40
0.0
 40
0.0
 40
0.0
 40
1.0
 40
1.0
 40
1.0
 40
1.0
 10
113.8170432642174
 20
125.0154603715451
 30
0.0
 10
113.9042814864846
 20
125.072710024991
 30
0.0
 10
113.9919370942007
 20
125.1302335855809
 30
0.0
 10
114.0803555472624
 20
125.1882577596695
 30
0.0
  0
LINE
  5
143
330
1F
100
AcDbEntity
  8
0
  6
Continuous
 62
     7
370
     0
100
AcDbLine
 10
116.4450614813
 20
126.7400843754
 30
0.0
 11
115.7300745611
 21
126.2708777325
 31
0.0
  0
LINE
  5
144
330
1F
100
AcDbEntity
  8
0
  6
Continuous
 62
     7
370
     0
100
AcDbLine
 10
114.7953424675
 20
125.6574644026
 30
0.0
 11
114.0803555473
 21
125.1882577597
 31
0.0
  0
ARC
  5
145
330
1F
100
AcDbEntity
  8
0
  6
Continuous
 62
     7
370
     0
100
AcDbCircle
 10
115.5370352951
 20
125.5461461672
 30
0.0
 40
0.7500000000000058
100
AcDbArc
 50
75.0850055186
 51
171.464375727
  0
ARC
  5
146
330
1F
100
AcDbEntity
  8
0
  6
Continuous
 62
     7
370
     0
100
AcDbCircle
 10
115.5370352951
 20
125.5461461672
 30
0.0
 40
1.800000000000023
100
AcDbArc
 50
197.1470704096
 51
229.4023108359
  0
ARC
  5
147
330
1F
100
AcDbEntity
  8
0
  6
Continuous
 62
     7
370
     0
100
AcDbCircle
 10
115.5370352951
 20
125.5461461672
 30
0.0
 40
0.7500000000000208
100
AcDbArc
 50
171.464375727
 51
255.0850055186
  0
ARC
  5
148
330
1F
100
AcDbEntity
  8
0
  6
Continuous
 62
     7
370
     0
100
AcDbCircle
 10
115.5370352951
 20
125.5461461672
 30
0.0
 40
1.800000000000003
100
AcDbArc
 50
17.1470704096
 51
49.4023108359
  0
ARC
  5
149
330
1F
100
AcDbEntity
  8
0
  6
Continuous
 62
     7
370
     0
100
AcDbCircle
 10
115.5370352951
 20
125.5461461672
 30
0.0
 40
0.7499999999999981
100
AcDbArc
 50
351.464375727
 51
75.0850055186
  0
CIRCLE
  5
14A
330
1F
100
AcDbEntity
  8
0
  6
Continuous
 62
     7
370
     0
100
AcDbCircle
 10
115.5370352951
 20
125.5461461672
 30
0.0
 40
3.800000000000022
  0
CIRCLE
  5
14B
330
1F
100
AcDbEntity
  8
0
  6
Continuous
 62
     7
370
     0
100
AcDbCircle
 10
115.5370352951
 20
125.5461461672
 30
0.0
 40
2.149999999999994
  0
CIRCLE
  5
14C
330
1F
100
AcDbEntity
  8
0
  6
Continuous
 62
     7
370
     0
100
AcDbCircle
 10
115.5370352951
 20
125.5461461672
 30
0.0
 40
2.650000000000002
  0
ARC
  5
14D
330
1F
100
AcDbEntity
  8
0
  6
Continuous
 62
     7
370
     0
100
AcDbCircle
 10
115.5370352951
 20
125.5461461672
 30
0.0
 40
1.000000000000009
100
AcDbArc
 50
3.2746906228
 51
63.2746906228
  0
ARC
  5
14E
330
1F
100
AcDbEntity
  8
0
  6
Continuous
 62
     7
370
     0
100
AcDbCircle
 10
115.5370352951
 20
125.5461461672
 30
0.0
 40
0.999999999999994
100
AcDbArc
 50
183.2746906228
 51
243.2746906228
  0
LINE
  5
14F
330
1F
100
AcDbEntity
  8
0
  6
CENTERX2
 62
     7
370
     0
100
AcDbLine
 10
108.7386614189
 20
146.4693895257
 30
0.0
 11
108.7386614189
 21
145.3743422503
 31
0.0
  0
POINT
  5
150
330
1F
100
AcDbEntity
  8
0
  6
Continuous
 62
     7
370
     0
100
AcDbPoint
 10
80.7386614189
 20
146.4693895257
 30
0.0
  0
POINT
  5
151
330
1F
100
AcDbEntity
  8
0
  6
Continuous
 62
     7
370
     0
100
AcDbPoint
 10
136.7386614189
 20
146.4693895257
 30
0.0
  0
POINT
  5
152
330
1F
100
AcDbEntity
  8
0
  6
Continuous
 62
     7
370
     0
100
AcDbPoint
 10
88.7386614189
 20
146.4693895257
 30
0.0
  0
POINT
  5
153
330
1F
100
AcDbEntity
  8
0
  6
Continuous
 62
     7
370
     0
100
AcDbPoint
 10
128.7386614189
 20
146.4693895257
 30
0.0
  0
DIMENSION
  5
154
330
1F
100
AcDbEntity
  8
0
  6
Continuous
 62
     7
370
     0
100
AcDbDimension
  2
_D
 10
136.7386614189
 20
94.7687944565
 30
0.0
 11
108.7386614189
 21
94.7687944565
 31
0.0
 70
   160
  1
%%c<>
 71
     2
 42
-1.0
  3
SLDDIMSTYLE0
100
AcDbAlignedDimension
 13
80.7386614189
 23
146.4693895257
 33
0.0
 14
136.7386614189
 24
146.4693895257
 34
0.0
 50
0.0
100
AcDbRotatedDimension
  0
DIMENSION
  5
160
330
1F
100
AcDbEntity
  8
0
  6
Continuous
 62
     7
370
     0
100
AcDbDimension
  2
_D_1
 10
88.7386614189
 20
104.8327843583
 30
0.0
 11
108.7386614189
 21
104.8327843583
 31
0.0
 70
   160
  1
P.C.D.<>
 71
     2
 42
-1.0
  3
SLDDIMSTYLE0
100
AcDbAlignedDimension
 13
128.7386614189
 23
146.4693895257
 33
0.0
 14
88.7386614189
 24
146.4693895257
 34
0.0
100
AcDbRotatedDimension
  0
DIMENSION
  5
16B
330
1F
100
AcDbEntity
  8
0
  6
Continuous
 62
     7
370
     0
100
AcDbDimension
  2
_D_2
 10
78.2386614189
 20
146.4693895257
 30
0.0
 11
146.4766749084
 21
162.10098653
 31
0.0
 70
   162
  1
<>
 71
     1
 42
-1.0
  3
SLDDIMSTYLE1
100
AcDb2LineAngularDimension
 13
126.4163309485
 23
164.1470590553
 33
0.0
 14
119.3452631367
 24
157.0759912435
 34
0.0
 15
139.2386614189
 25
146.4693895257
 35
0.0
 16
146.4766749084
 26
162.10098653
 36
0.0
  0
DIMENSION
  5
176
330
1F
100
AcDbEntity
  8
0
  6
Continuous
 62
     7
370
     0
100
AcDbDimension
  2
_D_3
 10
96.3825322743
 20
158.8621878874
 30
0.0
 11
59.8939318562
 21
176.8306478274
 31
0.0
 70
   163
  1
4-M<>(90%%d等配)　　　
 71
     1
 42
-1.0
  3
SLDDIMSTYLE2
100
AcDbDiametricDimension
 15
92.810519316
 25
162.3608624114
 35
0.0
 40
0.0
  0
MTEXT
  5
183
330
1F
100
AcDbEntity
  8
0
  6
Continuous
 62
     7
370
     0
100
AcDbMText
 10
39.525877347
 20
173.8587023452
 30
0.0
 40
3.5
 41
0.0
 71
     1
 72
     1
  1
(ツール取付用タップ)
  7
SLDTEXTSTYLE0
 73
     1
 44
1.0
  0
INSERT
  5
18F
330
1F
100
AcDbEntity
  8
0
  6
Continuous
 62
     7
370
     0
100
AcDbBlockReference
  2
SW_CENTERMARKSYMBOL_0
 10
108.7386614189
 20
146.4693895257
 30
0.0
  0
INSERT
  5
1B7
330
1F
100
AcDbEntity
  8
0
  6
Continuous
 62
     7
370
     0
100
AcDbBlockReference
  2
SW_CENTERMARKSYMBOL_1
 10
94.5965257951
 20
132.3272539019
 30
0.0
  0
LINE
  5
1B8
330
1F
100
AcDbEntity
  8
0
  6
Continuous
 62
     7
370
     0
100
AcDbLine
 10
131.4619047773
 20
212.0011471333
 30
0.0
 11
131.4619047773
 21
212.7011471333
 31
0.0
  0
LINE
  5
1B9
330
1F
100
AcDbEntity
  8
0
  6
Continuous
 62
     7
370
     0
100
AcDbLine
 10
127.8619047773
 20
212.7011471333
 30
0.0
 11
127.8619047773
 21
212.0011471333
 31
0.0
  0
LINE
  5
1BA
330
1F
100
AcDbEntity
  8
0
  6
Continuous
 62
     7
370
     0
100
AcDbLine
 10
131.2019596156
 20
211.567905197
 30
0.0
 11
131.4619047773
 21
212.0011471333
 31
0.0
  0
LINE
  5
1BB
330
1F
100
AcDbEntity
  8
0
  6
Continuous
 62
     7
370
     0
100
AcDbLine
 10
127.8619047773
 20
212.0011471333
 30
0.0
 11
128.1218499391
 21
211.567905197
 31
0.0
  0
LINE
  5
1BC
330
1F
100
AcDbEntity
  8
0
  6
Continuous
 62
     7
370
     0
100
AcDbLine
 10
127.0119047773
 20
215.3011471333
 30
0.0
 11
127.0119047773
 21
213.2011471333
 31
0.0
  0
LINE
  5
1BD
330
1F
100
AcDbEntity
  8
0
  6
Continuous
 62
     7
370
     0
100
AcDbLine
 10
132.3119047773
 20
213.2011471333
 30
0.0
 11
132.3119047773
 21
215.3011471333
 31
0.0
  0
LINE
  5
1BE
330
1F
100
AcDbEntity
  8
0
  6
Continuous
 62
     7
370
     0
100
AcDbLine
 10
127.0119047773
 20
213.2011471333
 30
0.0
 11
127.5119047773
 21
212.7011471333
 31
0.0
  0
LINE
  5
1BF
330
1F
100
AcDbEntity
  8
0
  6
Continuous
 62
     7
370
     0
100
AcDbLine
 10
131.8119047773
 20
212.7011471333
 30
0.0
 11
132.3119047773
 21
213.2011471333
 31
0.0
  0
LINE
  5
1C0
330
1F
100
AcDbEntity
  8
0
  6
Continuous
 62
     7
370
     0
100
AcDbLine
 10
89.6154180604
 20
212.0011471333
 30
0.0
 11
89.6154180604
 21
212.7011471333
 31
0.0
  0
LINE
  5
1C1
330
1F
100
AcDbEntity
  8
0
  6
Continuous
 62
     7
370
     0
100
AcDbLine
 10
86.0154180604
 20
212.7011471333
 30
0.0
 11
86.0154180604
 21
212.0011471333
 31
0.0
  0
LINE
  5
1C2
330
1F
100
AcDbEntity
  8
0
  6
Continuous
 62
     7
370
     0
100
AcDbLine
 10
89.3154180604
 20
211.5011471333
 30
0.0
 11
89.6154180604
 21
212.0011471333
 31
0.0
  0
LINE
  5
1C3
330
1F
100
AcDbEntity
  8
0
  6
Continuous
 62
     7
370
     0
100
AcDbLine
 10
86.0154180604
 20
212.0011471333
 30
0.0
 11
86.3154180604
 21
211.5011471333
 31
0.0
  0
LINE
  5
1C4
330
1F
100
AcDbEntity
  8
0
  6
Continuous
 62
     7
370
     0
100
AcDbLine
 10
85.1654180604
 20
215.3011471333
 30
0.0
 11
85.1654180604
 21
213.2011471333
 31
0.0
  0
LINE
  5
1C5
330
1F
100
AcDbEntity
  8
0
  6
Continuous
 62
     7
370
     0
100
AcDbLine
 10
90.4654180604
 20
213.2011471333
 30
0.0
 11
90.4654180604
 21
215.3011471333
 31
0.0
  0
LINE
  5
1C6
330
1F
100
AcDbEntity
  8
0
  6
Continuous
 62
     7
370
     0
100
AcDbLine
 10
85.1654180604
 20
213.2011471333
 30
0.0
 11
85.6654180604
 21
212.7011471333
 31
0.0
  0
LINE
  5
1C7
330
1F
100
AcDbEntity
  8
0
  6
Continuous
 62
     7
370
     0
100
AcDbLine
 10
89.9654180604
 20
212.7011471333
 30
0.0
 11
90.4654180604
 21
213.2011471333
 31
0.0
  0
LINE
  5
1C8
330
1F
100
AcDbEntity
  8
0
  6
Continuous
 62
     7
370
     0
100
AcDbLine
 10
131.1619047773
 20
211.5011471333
 30
0.0
 11
131.2019596156
 21
211.567905197
 31
0.0
  0
LINE
  5
1C9
330
1F
100
AcDbEntity
  8
0
  6
Continuous
 62
     7
370
     0
100
AcDbLine
 10
81.2386614189
 20
227.8011471333
 30
0.0
 11
80.7386614189
 21
227.3011471333
 31
0.0
  0
LINE
  5
1CA
330
1F
100
AcDbEntity
  8
0
  6
Continuous
 62
     7
370
     0
100
AcDbLine
 10
80.7386614189
 20
227.3011471333
 30
0.0
 11
80.7386614189
 21
217.8011471333
 31
0.0
  0
LINE
  5
1CB
330
1F
100
AcDbEntity
  8
0
  6
Continuous
 62
     7
370
     0
100
AcDbLine
 10
136.7386614189
 20
227.3011471333
 30
0.0
 11
136.2386614189
 21
227.8011471333
 31
0.0
  0
LINE
  5
1CC
330
1F
100
AcDbEntity
  8
0
  6
Continuous
 62
     7
370
     0
100
AcDbLine
 10
136.7386614189
 20
217.8011471333
 30
0.0
 11
136.7386614189
 21
227.3011471333
 31
0.0
  0
LINE
  5
1CD
330
1F
100
AcDbEntity
  8
0
  6
Continuous
 62
     7
370
     0
100
AcDbLine
 10
136.7386614189
 20
215.8011471333
 30
0.0
 11
136.7386614189
 21
217.8011471333
 31
0.0
  0
LINE
  5
1CE
330
1F
100
AcDbEntity
  8
0
  6
Continuous
 62
     7
370
     0
100
AcDbLine
 10
80.7386614189
 20
217.8011471333
 30
0.0
 11
80.7386614189
 21
215.8011471333
 31
0.0
  0
LINE
  5
1CF
330
1F
100
AcDbEntity
  8
0
  6
Continuous
 62
     7
370
     0
100
AcDbLine
 10
80.7386614189
 20
215.8011471333
 30
0.0
 11
81.0946389173
 21
215.4451696349
 31
0.0
  0
LINE
  5
1D0
330
1F
100
AcDbEntity
  8
0
  6
Continuous
 62
     7
370
     0
100
AcDbLine
 10
136.3826839204
 20
215.4451696349
 30
0.0
 11
136.7386614189
 21
215.8011471333
 31
0.0
  0
LINE
  5
1D1
330
1F
100
AcDbEntity
  8
0
  6
Continuous
 62
     7
370
     0
100
AcDbLine
 10
103.7402875426
 20
212.0011471333
 30
0.0
 11
103.7402875426
 21
212.7011471333
 31
0.0
  0
LINE
  5
1D2
330
1F
100
AcDbEntity
  8
0
  6
Continuous
 62
     7
370
     0
100
AcDbLine
 10
100.1402875426
 20
212.7011471333
 30
0.0
 11
100.1402875426
 21
212.0011471333
 31
0.0
  0
LINE
  5
1D3
330
1F
100
AcDbEntity
  8
0
  6
Continuous
 62
     7
370
     0
100
AcDbLine
 10
100.1402875426
 20
212.0011471333
 30
0.0
 11
100.4402875426
 21
211.5011471333
 31
0.0
  0
LINE
  5
1D4
330
1F
100
AcDbEntity
  8
0
  6
Continuous
 62
     7
370
     0
100
AcDbLine
 10
103.4402875426
 20
211.5011471333
 30
0.0
 11
103.7402875426
 21
212.0011471333
 31
0.0
  0
LINE
  5
1D5
330
1F
100
AcDbEntity
  8
0
  6
Continuous
 62
     7
370
     0
100
AcDbLine
 10
99.2902875426
 20
215.3011471333
 30
0.0
 11
99.2902875426
 21
213.2011471333
 31
0.0
  0
LINE
  5
1D6
330
1F
100
AcDbEntity
  8
0
  6
Continuous
 62
     7
370
     0
100
AcDbLine
 10
104.5902875426
 20
213.2011471333
 30
0.0
 11
104.5902875426
 21
215.3011471333
 31
0.0
  0
LINE
  5
1D7
330
1F
100
AcDbEntity
  8
0
  6
Continuous
 62
     7
370
     0
100
AcDbLine
 10
99.2902875426
 20
213.2011471333
 30
0.0
 11
99.7902875426
 21
212.7011471333
 31
0.0
  0
LINE
  5
1D8
330
1F
100
AcDbEntity
  8
0
  6
Continuous
 62
     7
370
     0
100
AcDbLine
 10
104.0902875426
 20
212.7011471333
 30
0.0
 11
104.5902875426
 21
213.2011471333
 31
0.0
  0
LINE
  5
1D9
330
1F
100
AcDbEntity
  8
0
  6
Continuous
 62
     7
370
     0
100
AcDbLine
 10
117.3370352951
 20
212.0011471333
 30
0.0
 11
117.3370352951
 21
212.7011471333
 31
0.0
  0
LINE
  5
1DA
330
1F
100
AcDbEntity
  8
0
  6
Continuous
 62
     7
370
     0
100
AcDbLine
 10
113.7370352951
 20
212.7011471333
 30
0.0
 11
113.7370352951
 21
212.0011471333
 31
0.0
  0
LINE
  5
1DB
330
1F
100
AcDbEntity
  8
0
  6
Continuous
 62
     7
370
     0
100
AcDbLine
 10
113.7370352951
 20
212.0011471333
 30
0.0
 11
114.0370352951
 21
211.5011471333
 31
0.0
  0
LINE
  5
1DC
330
1F
100
AcDbEntity
  8
0
  6
Continuous
 62
     7
370
     0
100
AcDbLine
 10
117.0370352951
 20
211.5011471333
 30
0.0
 11
117.3370352951
 21
212.0011471333
 31
0.0
  0
LINE
  5
1DD
330
1F
100
AcDbEntity
  8
0
  6
Continuous
 62
     7
370
     0
100
AcDbLine
 10
112.8870352951
 20
215.3011471333
 30
0.0
 11
112.8870352951
 21
213.2011471333
 31
0.0
  0
LINE
  5
1DE
330
1F
100
AcDbEntity
  8
0
  6
Continuous
 62
     7
370
     0
100
AcDbLine
 10
118.1870352951
 20
213.2011471333
 30
0.0
 11
118.1870352951
 21
215.3011471333
 31
0.0
  0
LINE
  5
1DF
330
1F
100
AcDbEntity
  8
0
  6
Continuous
 62
     7
370
     0
100
AcDbLine
 10
112.8870352951
 20
213.2011471333
 30
0.0
 11
113.3870352951
 21
212.7011471333
 31
0.0
  0
LINE
  5
1E0
330
1F
100
AcDbEntity
  8
0
  6
Continuous
 62
     7
370
     0
100
AcDbLine
 10
117.6870352951
 20
212.7011471333
 30
0.0
 11
118.1870352951
 21
213.2011471333
 31
0.0
  0
LINE
  5
1E1
330
1F
100
AcDbEntity
  8
0
  6
Continuous
 62
     7
370
     0
100
AcDbLine
 10
131.4619047773
 20
212.0011471333
 30
0.0
 11
128.1887703912
 21
212.0011471333
 31
0.0
  0
LINE
  5
1E2
330
1F
100
AcDbEntity
  8
0
  6
Continuous
 62
     7
370
     0
100
AcDbLine
 10
128.1887703912
 20
212.7011471333
 30
0.0
 11
128.1887703912
 21
212.0011471333
 31
0.0
  0
LINE
  5
1E3
330
1F
100
AcDbEntity
  8
0
  6
Continuous
 62
     7
370
     0
100
AcDbLine
 10
127.864083012
 20
212.0011471333
 30
0.0
 11
127.864083012
 21
212.7011471333
 31
0.0
  0
LINE
  5
1E4
330
1F
100
AcDbEntity
  8
0
  6
Continuous
 62
     7
370
     0
100
AcDbLine
 10
127.864083012
 20
212.0011471333
 30
0.0
 11
127.8619047773
 21
212.0011471333
 31
0.0
  0
LINE
  5
1E5
330
1F
100
AcDbEntity
  8
0
  6
Continuous
 62
     7
370
     0
100
AcDbLine
 10
131.1618419073
 20
211.5011471333
 30
0.0
 11
131.2018453602
 21
211.5679737503
 31
0.0
  0
LINE
  5
1E6
330
1F
100
AcDbEntity
  8
0
  6
Continuous
 62
     7
370
     0
100
AcDbLine
 10
131.1618419073
 20
211.5011471333
 30
0.0
 11
128.4866550266
 21
211.5011471333
 31
0.0
  0
SPLINE
  5
1E7
330
1F
100
AcDbEntity
  8
0
  6
Continuous
 62
     7
370
     0
100
AcDbSpline
210
0.0
220
0.0
230
1.0
 70
     8
 71
     3
 72
     8
 73
     4
 74
     0
 42
0.00000001
 43
0.00000001
 12
1.0
 22
0.0
 32
0.0
 13
1.0
 23
0.0
 33
0.0
 40
0.0
 40
0.0
 40
0.0
 40
0.0
 40
1.0
 40
1.0
 40
1.0
 40
1.0
 10
128.1887703911823
 20
212.0011471333314
 30
0.0
 10
128.2874628096929
 20
211.8340817398341
 30
0.0
 10
128.3866274154894
 20
211.6673288546339
 30
0.0
 10
128.486655026631
 20
211.5011471333314
 30
0.0
  0
LINE
  5
1E8
330
1F
100
AcDbEntity
  8
0
  6
Continuous
 62
     7
370
     0
100
AcDbLine
 10
128.1619676474
 20
211.5011471333
 30
0.0
 11
128.4866550266
 21
211.5011471333
 31
0.0
  0
SPLINE
  5
1E9
330
1F
100
AcDbEntity
  8
0
  6
Continuous
 62
     7
370
     0
100
AcDbSpline
210
0.0
220
0.0
230
1.0
 70
     8
 71
     3
 72
     8
 73
     4
 74
     0
 42
0.00000001
 43
0.00000001
 12
1.0
 22
0.0
 32
0.0
 13
1.0
 23
0.0
 33
0.0
 40
0.0
 40
0.0
 40
0.0
 40
0.0
 40
1.0
 40
1.0
 40
1.0
 40
1.0
 10
128.1619676474315
 20
211.5011471333314
 30
0.0
 10
128.0619533858822
 20
211.6673066761753
 30
0.0
 10
127.9627775599713
 20
211.8340781350783
 30
0.0
 10
127.8640830119828
 20
212.0011471333314
 30
0.0
  0
LINE
  5
1EA
330
1F
100
AcDbEntity
  8
0
  6
Continuous
 62
     7
370
     0
100
AcDbLine
 10
128.9646043381
 20
213.2011471333
 30
0.0
 11
132.3119047773
 21
213.2011471333
 31
0.0
  0
LINE
  5
1EB
330
1F
100
AcDbEntity
  8
0
  6
Continuous
 62
     7
370
     0
100
AcDbLine
 10
127.0119047773
 20
213.2011471333
 30
0.0
 11
128.9646043381
 21
213.2011471333
 31
0.0
  0
LINE
  5
1EC
330
1F
100
AcDbEntity
  8
0
  6
Continuous
 62
     7
370
     0
100
AcDbLine
 10
129.0961704587
 20
212.7011471333
 30
0.0
 11
127.5119047773
 21
212.7011471333
 31
0.0
  0
LINE
  5
1ED
330
1F
100
AcDbEntity
  8
0
  6
Continuous
 62
     7
370
     0
100
AcDbLine
 10
131.8119047773
 20
212.7011471333
 30
0.0
 11
129.0961704587
 21
212.7011471333
 31
0.0
  0
LINE
  5
1EE
330
1F
100
AcDbEntity
  8
0
  6
Continuous
 62
     7
370
     0
100
AcDbLine
 10
89.6154180604
 20
212.0011471333
 30
0.0
 11
86.3792457667
 21
212.0011471333
 31
0.0
  0
LINE
  5
1EF
330
1F
100
AcDbEntity
  8
0
  6
Continuous
 62
     7
370
     0
100
AcDbLine
 10
86.3792457667
 20
212.7011471333
 30
0.0
 11
86.3792457667
 21
212.0011471333
 31
0.0
  0
LINE
  5
1F0
330
1F
100
AcDbEntity
  8
0
  6
Continuous
 62
     7
370
     0
100
AcDbLine
 10
86.0217763321
 20
212.0011471333
 30
0.0
 11
86.0217763321
 21
212.7011471333
 31
0.0
  0
LINE
  5
1F1
330
1F
100
AcDbEntity
  8
0
  6
Continuous
 62
     7
370
     0
100
AcDbLine
 10
86.0217763321
 20
212.0011471333
 30
0.0
 11
86.0154180604
 21
212.0011471333
 31
0.0
  0
LINE
  5
1F2
330
1F
100
AcDbEntity
  8
0
  6
Continuous
 62
     7
370
     0
100
AcDbLine
 10
89.3154180604
 20
211.5011471333
 30
0.0
 11
86.6733836053
 21
211.5011471333
 31
0.0
  0
SPLINE
  5
1F3
330
1F
100
AcDbEntity
  8
0
  6
Continuous
 62
     7
370
     0
100
AcDbSpline
210
0.0
220
0.0
230
1.0
 70
     8
 71
     3
 72
     8
 73
     4
 74
     0
 42
0.00000001
 43
0.00000001
 12
1.0
 22
0.0
 32
0.0
 13
1.0
 23
0.0
 33
0.0
 40
0.0
 40
0.0
 40
0.0
 40
0.0
 40
1.0
 40
1.0
 40
1.0
 40
1.0
 10
86.37924576668163
 20
212.0011471333314
 30
0.0
 10
86.4766968306505
 20
211.8340817398341
 30
0.0
 10
86.57461414272743
 20
211.6673288546339
 30
0.0
 10
86.67338360525679
 20
211.5011471333314
 30
0.0
  0
LINE
  5
1F4
330
1F
100
AcDbEntity
  8
0
  6
Continuous
 62
     7
370
     0
100
AcDbLine
 10
86.3159141707
 20
211.5011471333
 30
0.0
 11
86.6733836053
 21
211.5011471333
 31
0.0
  0
SPLINE
  5
1F5
330
1F
100
AcDbEntity
  8
0
  6
Continuous
 62
     7
370
     0
100
AcDbSpline
210
0.0
220
0.0
230
1.0
 70
     8
 71
     3
 72
     8
 73
     4
 74
     0
 42
0.00000001
 43
0.00000001
 12
1.0
 22
0.0
 32
0.0
 13
1.0
 23
0.0
 33
0.0
 40
0.0
 40
0.0
 40
0.0
 40
0.0
 40
1.0
 40
1.0
 40
1.0
 40
1.0
 10
86.3159141707
 20
211.5011471333314
 30
0.0
 10
86.21715788985155
 20
211.6673066761753
 30
0.0
 10
86.11922949878705
 20
211.8340781350783
 30
0.0
 10
86.02177633212484
 20
212.0011471333314
 30
0.0
  0
LINE
  5
1F6
330
1F
100
AcDbEntity
  8
0
  6
Continuous
 62
     7
370
     0
100
AcDbLine
 10
86.3159141707
 20
211.5011471333
 30
0.0
 11
86.3154180604
 21
211.5011471333
 31
0.0
  0
LINE
  5
1F7
330
1F
100
AcDbEntity
  8
0
  6
Continuous
 62
     7
370
     0
100
AcDbLine
 10
87.2076872537
 20
213.2011471333
 30
0.0
 11
90.4654180604
 21
213.2011471333
 31
0.0
  0
LINE
  5
1F8
330
1F
100
AcDbEntity
  8
0
  6
Continuous
 62
     7
370
     0
100
AcDbLine
 10
85.1654180604
 20
213.2011471333
 30
0.0
 11
87.2076872537
 21
213.2011471333
 31
0.0
  0
LINE
  5
1F9
330
1F
100
AcDbEntity
  8
0
  6
Continuous
 62
     7
370
     0
100
AcDbLine
 10
87.3223534436
 20
212.7011471333
 30
0.0
 11
85.6654180604
 21
212.7011471333
 31
0.0
  0
LINE
  5
1FA
330
1F
100
AcDbEntity
  8
0
  6
Continuous
 62
     7
370
     0
100
AcDbLine
 10
89.9654180604
 20
212.7011471333
 30
0.0
 11
87.3223534436
 21
212.7011471333
 31
0.0
  0
LINE
  5
1FB
330
1F
100
AcDbEntity
  8
0
  6
Continuous
 62
     7
370
     0
100
AcDbLine
 10
85.9176606958
 20
227.3011471333
 30
0.0
 11
82.777513491
 21
227.3011471333
 31
0.0
  0
LINE
  5
1FC
330
1F
100
AcDbEntity
  8
0
  6
Continuous
 62
     7
370
     0
100
AcDbLine
 10
82.777513491
 20
227.3011471333
 30
0.0
 11
80.7386614189
 21
227.3011471333
 31
0.0
  0
LINE
  5
1FD
330
1F
100
AcDbEntity
  8
0
  6
Continuous
 62
     7
370
     0
100
AcDbLine
 10
81.2386614189
 20
227.8011471333
 30
0.0
 11
86.3019382841
 21
227.8011471333
 31
0.0
  0
LINE
  5
1FE
330
1F
100
AcDbEntity
  8
0
  6
Continuous
 62
     7
370
     0
100
AcDbLine
 10
86.3019382841
 20
227.8011471333
 30
0.0
 11
85.9176606958
 21
227.3011471333
 31
0.0
  0
LINE
  5
1FF
330
1F
100
AcDbEntity
  8
0
  6
Continuous
 62
     7
370
     0
100
AcDbLine
 10
85.9176606958
 20
218.3011471333
 30
0.0
 11
85.9176606958
 21
227.3011471333
 31
0.0
  0
SPLINE
  5
200
330
1F
100
AcDbEntity
  8
0
  6
Continuous
 62
     7
370
     0
100
AcDbSpline
210
0.0
220
0.0
230
1.0
 70
     8
 71
     3
 72
    70
 73
    66
 74
     0
 42
0.00000001
 43
0.00000001
 12
1.0
 22
0.0
 32
0.0
 13
1.0
 23
0.0
 33
0.0
 40
-0.03125
 40
-0.03125
 40
0.0
 40
0.0
 40
0.0312500000000001
 40
0.0312500000000001
 40
0.0625000000000001
 40
0.0625000000000001
 40
0.0937500000000002
 40
0.0937500000000002
 40
0.1250000000000002
 40
0.1250000000000002
 40
0.1562500000000003
 40
0.1562500000000003
 40
0.1875000000000004
 40
0.1875000000000004
 40
0.2187500000000004
 40
0.2187500000000004
 40
0.2500000000000005
 40
0.2500000000000005
 40
0.2812500000000006
 40
0.2812500000000006
 40
0.3125000000000006
 40
0.3125000000000006
 40
0.3437500000000007
 40
0.3437500000000007
 40
0.3750000000000008
 40
0.3750000000000008
 40
0.4062500000000008
 40
0.4062500000000008
 40
0.4375000000000008
 40
0.4375000000000008
 40
0.4687500000000008
 40
0.4687500000000008
 40
0.5000000000000008
 40
0.5000000000000008
 40
0.5312500000000008
 40
0.5312500000000008
 40
0.5625000000000007
 40
0.5625000000000007
 40
0.5937500000000007
 40
0.5937500000000007
 40
0.6250000000000006
 40
0.6250000000000006
 40
0.6562500000000006
 40
0.6562500000000006
 40
0.6875000000000004
 40
0.6875000000000004
 40
0.7187500000000004
 40
0.7187500000000004
 40
0.7500000000000003
 40
0.7500000000000003
 40
0.7812500000000003
 40
0.7812500000000003
 40
0.8125000000000003
 40
0.8125000000000003
 40
0.8437500000000002
 40
0.8437500000000002
 40
0.8750000000000002
 40
0.8750000000000002
 40
0.9062500000000001
 40
0.9062500000000001
 40
0.9375000000000001
 40
0.9375000000000001
 40
0.96875
 40
0.96875
 40
1.0
 40
1.0
 40
1.03125
 40
1.03125
 10
82.8888984212649
 20
227.3011471333314
 30
0.0
 10
82.6661285607029
 20
227.3011471333314
 30
0.0
 10
82.56091100728378
 20
227.2719662603448
 30
0.0
 10
82.36187984852012
 20
227.1573813089313
 30
0.0
 10
82.26714115465228
 20
227.0704806895639
 30
0.0
 10
82.09442411056234
 20
226.8447008347844
 30
0.0
 10
82.0161216523701
 20
226.7065084865409
 30
0.0
 10
81.87347434688226
 20
226.3796212261493
 30
0.0
 10
81.80927294268345
 20
226.1900669684915
 30
0.0
 10
81.69805319070049
 20
225.775872086699
 30
0.0
 10
81.6501886747703
 20
225.5495623415335
 30
0.0
 10
81.56792711935805
 20
225.0569723813404
 30
0.0
 10
81.5346037648152
 20
224.7967811771686
 30
0.0
 10
81.48171219815886
 20
224.2554929042421
 30
0.0
 10
81.46189506141329
 20
223.9709489619526
 30
0.0
 10
81.43565010299041
 20
223.38954097889
 30
0.0
 10
81.42919927891863
 20
223.0952263544732
 30
0.0
 10
81.42930842537137
 20
222.4996920899808
 30
0.0
 10
81.435864523817
 20
222.2069976331299
 30
0.0
 10
81.4619423619441
 20
221.6313131716862
 30
0.0
 10
81.48179847929381
 20
221.3452979465869
 30
0.0
 10
81.53512312363439
 20
220.8008255253473
 30
0.0
 10
81.56835298786109
 20
220.5426676403879
 30
0.0
 10
81.6499756278945
 20
220.054112045899
 30
0.0
 10
81.69878091341674
 20
219.8232339940276
 30
0.0
 10
81.81020119189526
 20
219.409255620845
 30
0.0
 10
81.87317278409358
 20
219.2233273173378
 30
0.0
 10
82.01661147097208
 20
218.8947001489395
 30
0.0
 10
82.09584761427723
 20
218.7554515272653
 30
0.0
 10
82.26775537057222
 20
218.5312950783631
 30
0.0
 10
82.36171966012664
 20
218.4448477047852
 30
0.0
 10
82.56254782425081
 20
218.3295443063783
 30
0.0
 10
82.66776446566196
 20
218.3010772332898
 30
0.0
 10
82.88806555806896
 20
218.30121728865
 30
0.0
 10
83.00440195193183
 20
218.3307889810082
 30
0.0
 10
83.2375659036068
 20
218.4462526627757
 30
0.0
 10
83.35505777511891
 20
218.5315618956834
 30
0.0
 10
83.5905197746519
 20
218.7577902870178
 30
0.0
 10
83.70772234767817
 20
218.898670411608
 30
0.0
 10
83.93057976480456
 20
219.2244979751425
 30
0.0
 10
84.03779425028426
 20
219.411151727622
 30
0.0
 10
84.23915143885645
 20
219.830451643166
 30
0.0
 10
84.33058710291472
 20
220.0573011723124
 30
0.0
 10
84.49321268607
 20
220.5443746551828
 30
0.0
 10
84.56499981968473
 20
220.8078094788699
 30
0.0
 10
84.68080816735106
 20
221.3522910997154
 30
0.0
 10
84.72515357448381
 20
221.6328330017224
 30
0.0
 10
84.7853189552763
 20
222.2105675994213
 30
0.0
 10
84.80077744527404
 20
222.5091367661479
 30
0.0
 10
84.80064784839496
 20
223.0969329681911
 30
0.0
 10
84.78555420654533
 20
223.38937353791
 30
0.0
 10
84.72497593289178
 20
223.9712611111997
 30
0.0
 10
84.67994959424122
 20
224.2545912685342
 30
0.0
 10
84.56452312422505
 20
224.796168129132
 30
0.0
 10
84.49313637272648
 20
225.0584504711611
 30
0.0
 10
84.32911229602131
 20
225.549105060238
 30
0.0
 10
84.23757339625988
 20
225.7752694551991
 30
0.0
 10
84.0382011588108
 20
226.1901536108701
 30
0.0
 10
83.9292804920646
 20
226.3799755472173
 30
0.0
 10
83.70589426401682
 20
226.7060129913515
 30
0.0
 10
83.59068868624855
 20
226.8443214956267
 30
0.0
 10
83.35514452862505
 20
227.0706691938554
 30
0.0
 10
83.23570763535092
 20
227.1571857827596
 30
0.0
 10
83.00337486286912
 20
227.271787148224
 30
0.0
 10
82.8888984212649
 20
227.3011471333314
 30
0.0
 10
82.6661285607029
 20
227.3011471333314
 30
0.0
  0
ELLIPSE
  5
201
330
1F
100
AcDbEntity
  8
0
  6
Continuous
 62
     7
370
     0
100
AcDbEllipse
 10
108.7386614189
 20
220.5422822356
 30
0.0
 11
25.37661803702615
 21
25.3766180370263
 31
0.0
210
0.0
220
0.0
230
1.0
 40
0.4663076582
 41
2.087254889611063
 42
2.10518337481386
  0
LINE
  5
202
330
1F
100
AcDbEntity
  8
0
  6
Continuous
 62
     7
370
     0
100
AcDbLine
 10
85.6304810979
 20
217.8011471333
 30
0.0
 11
80.7386614189
 21
217.8011471333
 31
0.0
  0
LWPOLYLINE
  5
203
330
1F
100
AcDbEntity
  8
0
  6
Continuous
 62
     7
370
     0
100
AcDbPolyline
 90
       23
 70
   128
 43
0.0
 10
83.0422421585
 20
218.3325691958
 10
82.8981335804
 20
218.3952687388
 10
82.67658892
 20
218.5609729838
 10
82.4655601339
 20
218.8056636505
 10
82.268978289
 20
219.1247826148
 10
82.0905053331
 20
219.5123852941
 10
81.9334658799
 20
219.9612513839
 10
81.8007852771
 20
220.4630193582
 10
81.6949351133
 20
221.008342229
 10
81.6178871769
 20
221.5870616631
 10
81.571076725
 20
222.1883972124
 10
81.5553757479
 20
222.8011471333
 10
81.571076725
 20
223.4138970543
 10
81.6178871769
 20
224.0152326035
 10
81.6949351133
 20
224.5939520376
 10
81.8007852771
 20
225.1392749085
 10
81.9334658799
 20
225.6410428828
 10
82.0905053331
 20
226.0899089726
 10
82.268978289
 20
226.4775116519
 10
82.4655601339
 20
226.7966306161
 10
82.67658892
 20
227.0413212829
 10
82.8981335804
 20
227.2070255279
 10
82.9994511179
 20
227.2546694684
  0
LWPOLYLINE
  5
204
330
1F
100
AcDbEntity
  8
0
  6
Continuous
 62
     7
370
     0
100
AcDbPolyline
 90
       32
 70
   128
 43
0.0
 10
82.4544315721
 20
222.8011471333
 10
82.4705348319
 20
222.3784202411
 10
82.5181853421
 20
221.9729998376
 10
82.5954322852
 20
221.6014838816
 10
82.6991131622
 20
221.2790822802
 10
82.8249832658
 20
221.0189941926
 10
82.9678894592
 20
220.8318676558
 10
83.1219811461
 20
220.7253636522
 10
83.2809497947
 20
220.7038424683
 10
83.4382872099
 20
220.7681851837
 10
83.5875519793
 20
220.9157576002
 10
83.7226331858
 20
221.1405180858
 10
83.838000589
 20
221.4332649196
 10
83.9289310337
 20
221.782013012
 10
83.9917018169
 20
222.1724845751
 10
84.0237430953
 20
222.5886936572
 10
84.0237430953
 20
223.0136006095
 10
83.9917018169
 20
223.4298096916
 10
83.9289310337
 20
223.8202812546
 10
83.838000589
 20
224.169029347
 10
83.7226331858
 20
224.4617761809
 10
83.5875519793
 20
224.6865366664
 10
83.4382872099
 20
224.834109083
 10
83.2809497947
 20
224.8984517984
 10
83.1219811461
 20
224.8769306144
 10
82.9678894592
 20
224.7704266108
 10
82.8249832658
 20
224.5833000741
 10
82.6991131622
 20
224.3232119865
 10
82.5954322852
 20
224.000810385
 10
82.5181853421
 20
223.6292944291
 10
82.4705348319
 20
223.2238740255
 10
82.4544315721
 20
222.8011471333
  0
LINE
  5
205
330
1F
100
AcDbEntity
  8
0
  6
Continuous
 62
     7
370
     0
100
AcDbLine
 10
131.5596621419
 20
227.3011471333
 30
0.0
 11
131.1753845536
 21
227.8011471333
 31
0.0
  0
LINE
  5
206
330
1F
100
AcDbEntity
  8
0
  6
Continuous
 62
     7
370
     0
100
AcDbLine
 10
131.5596621419
 20
218.3011471333
 30
0.0
 11
131.5596621419
 21
227.3011471333
 31
0.0
  0
LINE
  5
207
330
1F
100
AcDbEntity
  8
0
  6
Continuous
 62
     7
370
     0
100
AcDbLine
 10
136.7386614189
 20
227.3011471333
 30
0.0
 11
134.6998093467
 21
227.3011471333
 31
0.0
  0
LINE
  5
208
330
1F
100
AcDbEntity
  8
0
  6
Continuous
 62
     7
370
     0
100
AcDbLine
 10
134.6998093467
 20
227.3011471333
 30
0.0
 11
131.5596621419
 21
227.3011471333
 31
0.0
  0
LINE
  5
209
330
1F
100
AcDbEntity
  8
0
  6
Continuous
 62
     7
370
     0
100
AcDbLine
 10
131.1753845536
 20
227.8011471333
 30
0.0
 11
136.2386614189
 21
227.8011471333
 31
0.0
  0
SPLINE
  5
20A
330
1F
100
AcDbEntity
  8
0
  6
Continuous
 62
     7
370
     0
100
AcDbSpline
210
0.0
220
0.0
230
1.0
 70
     8
 71
     3
 72
    70
 73
    66
 74
     0
 42
0.00000001
 43
0.00000001
 12
1.0
 22
0.0
 32
0.0
 13
1.0
 23
0.0
 33
0.0
 40
-0.03125
 40
-0.03125
 40
0.0
 40
0.0
 40
0.0312500000000001
 40
0.0312500000000001
 40
0.0625000000000002
 40
0.0625000000000002
 40
0.0937500000000002
 40
0.0937500000000002
 40
0.1250000000000003
 40
0.1250000000000003
 40
0.1562500000000003
 40
0.1562500000000003
 40
0.1875000000000003
 40
0.1875000000000003
 40
0.2187500000000004
 40
0.2187500000000004
 40
0.2500000000000004
 40
0.2500000000000004
 40
0.2812500000000004
 40
0.2812500000000004
 40
0.3125000000000004
 40
0.3125000000000004
 40
0.3437500000000004
 40
0.3437500000000004
 40
0.3750000000000004
 40
0.3750000000000004
 40
0.4062500000000005
 40
0.4062500000000005
 40
0.4375000000000005
 40
0.4375000000000005
 40
0.4687500000000006
 40
0.4687500000000006
 40
0.5000000000000006
 40
0.5000000000000006
 40
0.5312500000000006
 40
0.5312500000000006
 40
0.5625000000000004
 40
0.5625000000000004
 40
0.5937500000000004
 40
0.5937500000000004
 40
0.6250000000000004
 40
0.6250000000000004
 40
0.6562500000000003
 40
0.6562500000000003
 40
0.6875000000000003
 40
0.6875000000000003
 40
0.7187500000000003
 40
0.7187500000000003
 40
0.7500000000000002
 40
0.7500000000000002
 40
0.7812500000000002
 40
0.7812500000000002
 40
0.8125000000000002
 40
0.8125000000000002
 40
0.8437500000000002
 40
0.8437500000000002
 40
0.8750000000000001
 40
0.8750000000000001
 40
0.9062500000000001
 40
0.9062500000000001
 40
0.9375000000000001
 40
0.9375000000000001
 40
0.96875
 40
0.96875
 40
1.0
 40
1.0
 40
1.03125
 40
1.03125
 10
134.5896708077609
 20
227.3011471333314
 30
0.0
 10
134.8099478856873
 20
227.3011471333314
 30
0.0
 10
134.9174042075386
 20
227.2716479422515
 30
0.0
 10
135.1168423626718
 20
227.1563196118577
 30
0.0
 10
135.2096539001619
 20
227.0710763632059
 30
0.0
 10
135.3827536060578
 20
226.8449844315982
 30
0.0
 10
135.4623546682369
 20
226.7041608385863
 30
0.0
 10
135.604230538107
 20
226.378446872635
 30
0.0
 10
135.6675974157157
 20
226.1918644997103
 30
0.0
 10
135.7801048074669
 20
225.7726490247036
 30
0.0
 10
135.8277808988092
 20
225.5458398501729
 30
0.0
 10
135.9090572638673
 20
225.058848283872
 30
0.0
 10
135.9429052329192
 20
224.7954568100558
 30
0.0
 10
135.9959907456725
 20
224.2510159235721
 30
0.0
 10
136.0154260916387
 20
223.9704938398174
 30
0.0
 10
136.0415477386444
 20
223.3928000914324
 30
0.0
 10
136.0480812303876
 20
223.0942324591411
 30
0.0
 10
136.0480573835207
 20
222.5064291049759
 30
0.0
 10
136.0417125678152
 20
222.2139850139952
 30
0.0
 10
136.0154771104338
 20
221.6320900963882
 30
0.0
 10
135.9957635350561
 20
221.3487166489477
 30
0.0
 10
135.9429068866849
 20
220.8070868473285
 30
0.0
 10
135.9092955537087
 20
220.5447852309578
 30
0.0
 10
135.8273625647484
 20
220.0540365745106
 30
0.0
 10
135.7796041819474
 20
219.8278270550152
 30
0.0
 10
135.6682598655181
 20
219.4128509983239
 30
0.0
 10
135.6039305121823
 20
219.2229737455214
 30
0.0
 10
135.4616993204433
 20
218.8968150071152
 30
0.0
 10
135.3834684624941
 20
218.75844713161
 30
0.0
 10
135.2103889375437
 20
218.5319760649301
 30
0.0
 10
135.1160106176025
 20
218.4453860711187
 30
0.0
 10
134.9172192737794
 20
218.3306475490007
 30
0.0
 10
134.8115940028343
 20
218.3012188881528
 30
0.0
 10
134.5888367528104
 20
218.3010756396039
 30
0.0
 10
134.4748500861872
 20
218.3301882736829
 30
0.0
 10
134.2423206762004
 20
218.4446352339373
 30
0.0
 10
134.1224323430775
 20
218.531464259652
 30
0.0
 10
133.8874353572224
 20
218.7571199178821
 30
0.0
 10
133.772190325835
 20
218.8952520442034
 30
0.0
 10
133.5481938497218
 20
219.2220153676158
 30
0.0
 10
133.4394765480222
 20
219.4115195933655
 30
0.0
 10
133.2403683071553
 20
219.8256201507988
 30
0.0
 10
133.1486641347615
 20
220.0518832251654
 30
0.0
 10
132.9839918780617
 20
220.5443750768226
 30
0.0
 10
132.9132004864531
 20
220.8045545318805
 30
0.0
 10
132.7977162479742
 20
221.3457868099925
 30
0.0
 10
132.7524588329816
 20
221.6302942723877
 30
0.0
 10
132.6918624033377
 20
222.2116848872691
 30
0.0
 10
132.676519868105
 20
222.5059699604301
 30
0.0
 10
132.6767008884383
 20
223.1015291226364
 30
0.0
 10
132.6922128597781
 20
223.3942354045835
 30
0.0
 10
132.7522720574065
 20
223.9699436805601
 30
0.0
 10
132.7975592352447
 20
224.2559692997554
 30
0.0
 10
132.9138341178101
 20
224.800510816101
 30
0.0
 10
132.9843038508081
 20
225.0587020138616
 30
0.0
 10
133.1475825254251
 20
225.5473257285991
 30
0.0
 10
133.2410408929469
 20
225.7782539241917
 30
0.0
 10
133.4403147988541
 20
226.1923356891758
 30
0.0
 10
133.5469311523536
 20
226.3783148117369
 30
0.0
 10
133.7721111556596
 20
226.7070480845326
 30
0.0
 10
133.8885940609602
 20
226.8463700594632
 30
0.0
 10
134.1223364648939
 20
227.0706544951023
 30
0.0
 10
134.2413126460613
 20
227.1571646459961
 30
0.0
 10
134.47588027997
 20
227.2726112881068
 30
0.0
 10
134.5896708077609
 20
227.3011471333314
 30
0.0
 10
134.8099478856873
 20
227.3011471333314
 30
0.0
  0
LINE
  5
20B
330
1F
100
AcDbEntity
  8
0
  6
Continuous
 62
     7
370
     0
100
AcDbLine
 10
136.7386614189
 20
217.8011471333
 30
0.0
 11
131.8468417398
 21
217.8011471333
 31
0.0
  0
ELLIPSE
  5
20C
330
1F
100
AcDbEntity
  8
0
  6
Continuous
 62
     7
370
     0
100
AcDbEllipse
 10
108.7386614189
 20
220.5422822356
 30
0.0
 11
-25.37661803702609
 21
25.37661803702664
 31
0.0
210
0.0
220
0.0
230
1.0
 40
0.4663076582
 41
4.178001932365744
 42
4.19593041756854
  0
LWPOLYLINE
  5
20D
330
1F
100
AcDbEntity
  8
0
  6
Continuous
 62
     7
370
     0
100
AcDbPolyline
 90
       23
 70
   128
 43
0.0
 10
134.4239527988
 20
218.3291402864
 10
134.5791892573
 20
218.3952687388
 10
134.8007339177
 20
218.5609729838
 10
135.0117627038
 20
218.8056636505
 10
135.2083445487
 20
219.1247826148
 10
135.3868175046
 20
219.5123852941
 10
135.5438569578
 20
219.9612513839
 10
135.6765375606
 20
220.4630193582
 10
135.7823877244
 20
221.008342229
 10
135.8594356608
 20
221.5870616631
 10
135.9062461127
 20
222.1883972124
 10
135.9219470898
 20
222.8011471333
 10
135.9062461127
 20
223.4138970543
 10
135.8594356608
 20
224.0152326035
 10
135.7823877244
 20
224.5939520376
 10
135.6765375606
 20
225.1392749085
 10
135.5438569578
 20
225.6410428828
 10
135.3868175046
 20
226.0899089726
 10
135.2083445487
 20
226.4775116519
 10
135.0117627038
 20
226.7966306161
 10
134.8007339177
 20
227.0413212829
 10
134.5791892573
 20
227.2070255279
 10
134.4560491115
 20
227.2627193297
  0
LWPOLYLINE
  5
20E
330
1F
100
AcDbEntity
  8
0
  6
Continuous
 62
     7
370
     0
100
AcDbPolyline
 90
       32
 70
   128
 43
0.0
 10
133.4495435733
 20
222.8011471333
 10
133.4656468331
 20
222.3784202411
 10
133.5132973433
 20
221.9729998376
 10
133.5905442863
 20
221.6014838816
 10
133.6942251633
 20
221.2790822802
 10
133.8200952669
 20
221.0189941926
 10
133.9630014604
 20
220.8318676558
 10
134.1170931473
 20
220.7253636522
 10
134.2760617959
 20
220.7038424683
 10
134.433399211
 20
220.7681851837
 10
134.5826639805
 20
220.9157576002
 10
134.717745187
 20
221.1405180858
 10
134.8331125901
 20
221.4332649196
 10
134.9240430349
 20
221.782013012
 10
134.9868138181
 20
222.1724845751
 10
135.0188550965
 20
222.5886936572
 10
135.0188550965
 20
223.0136006095
 10
134.9868138181
 20
223.4298096916
 10
134.9240430349
 20
223.8202812546
 10
134.8331125901
 20
224.169029347
 10
134.717745187
 20
224.4617761809
 10
134.5826639805
 20
224.6865366664
 10
134.433399211
 20
224.834109083
 10
134.2760617959
 20
224.8984517984
 10
134.1170931473
 20
224.8769306144
 10
133.9630014604
 20
224.7704266108
 10
133.8200952669
 20
224.5833000741
 10
133.6942251633
 20
224.3232119865
 10
133.5905442863
 20
224.000810385
 10
133.5132973433
 20
223.6292944291
 10
133.4656468331
 20
223.2238740255
 10
133.4495435733
 20
222.8011471333
  0
LINE
  5
20F
330
1F
100
AcDbEntity
  8
0
  6
Continuous
 62
     7
370
     0
100
AcDbLine
 10
131.5596621419
 20
227.3011471333
 30
0.0
 11
128.5376512921
 21
227.3011471333
 31
0.0
  0
LINE
  5
210
330
1F
100
AcDbEntity
  8
0
  6
Continuous
 62
     7
370
     0
100
AcDbLine
 10
131.5596621419
 20
217.8011471333
 30
0.0
 11
131.5596621419
 21
227.3011471333
 31
0.0
  0
LINE
  5
211
330
1F
100
AcDbEntity
  8
0
  6
Continuous
 62
     7
370
     0
100
AcDbLine
 10
131.5596621419
 20
217.8011471333
 30
0.0
 11
136.7386614189
 21
217.8011471333
 31
0.0
  0
LINE
  5
212
330
1F
100
AcDbEntity
  8
0
  6
Continuous
 62
     7
370
     0
100
AcDbLine
 10
80.7386614189
 20
217.8011471333
 30
0.0
 11
85.9176606958
 21
217.8011471333
 31
0.0
  0
LINE
  5
213
330
1F
100
AcDbEntity
  8
0
  6
Continuous
 62
     7
370
     0
100
AcDbLine
 10
85.9176606958
 20
217.8011471333
 30
0.0
 11
85.9176606958
 21
227.3011471333
 31
0.0
  0
LINE
  5
214
330
1F
100
AcDbEntity
  8
0
  6
Continuous
 62
     7
370
     0
100
AcDbLine
 10
88.9396715456
 20
227.3011471333
 30
0.0
 11
85.9176606958
 21
227.3011471333
 31
0.0
  0
SPLINE
  5
215
330
1F
100
AcDbEntity
  8
0
  6
Continuous
 62
     7
370
     0
100
AcDbSpline
210
0.0
220
0.0
230
1.0
 70
     8
 71
     3
 72
    70
 73
    66
 74
     0
 42
0.00000001
 43
0.00000001
 12
1.0
 22
0.0
 32
0.0
 13
1.0
 23
0.0
 33
0.0
 40
-0.0312499999999999
 40
-0.0312499999999999
 40
0.0
 40
0.0
 40
0.0312500000000001
 40
0.0312500000000001
 40
0.0625000000000001
 40
0.0625000000000001
 40
0.0937500000000002
 40
0.0937500000000002
 40
0.1250000000000003
 40
0.1250000000000003
 40
0.1562500000000003
 40
0.1562500000000003
 40
0.1875000000000004
 40
0.1875000000000004
 40
0.2187500000000005
 40
0.2187500000000005
 40
0.2500000000000006
 40
0.2500000000000006
 40
0.2812500000000006
 40
0.2812500000000006
 40
0.3125000000000007
 40
0.3125000000000007
 40
0.3437500000000008
 40
0.3437500000000008
 40
0.3750000000000008
 40
0.3750000000000008
 40
0.4062500000000008
 40
0.4062500000000008
 40
0.4375000000000008
 40
0.4375000000000008
 40
0.4687500000000008
 40
0.4687500000000008
 40
0.5000000000000007
 40
0.5000000000000007
 40
0.5312500000000008
 40
0.5312500000000008
 40
0.5625000000000007
 40
0.5625000000000007
 40
0.5937500000000007
 40
0.5937500000000007
 40
0.6250000000000006
 40
0.6250000000000006
 40
0.6562500000000006
 40
0.6562500000000006
 40
0.6875000000000006
 40
0.6875000000000006
 40
0.7187500000000004
 40
0.7187500000000004
 40
0.7500000000000004
 40
0.7500000000000004
 40
0.7812500000000004
 40
0.7812500000000004
 40
0.8125000000000003
 40
0.8125000000000003
 40
0.8437500000000003
 40
0.8437500000000003
 40
0.8750000000000002
 40
0.8750000000000002
 40
0.9062500000000002
 40
0.9062500000000002
 40
0.9375000000000002
 40
0.9375000000000002
 40
0.9687500000000001
 40
0.9687500000000001
 40
1.0
 40
1.0
 40
1.03125
 40
1.03125
 10
88.72942153693354
 20
227.3011471333314
 30
0.0
 10
89.14992155432772
 20
227.3011471333314
 30
0.0
 10
89.36015810507106
 20
227.2719662603448
 30
0.0
 10
89.78025272985438
 20
227.1573813089313
 30
0.0
 10
89.99241364454164
 20
227.0704806895639
 30
0.0
 10
90.40094754679664
 20
226.8447008347844
 30
0.0
 10
90.59769589216005
 20
226.7065084865409
 30
0.0
 10
90.97473277767494
 20
226.3796212261492
 30
0.0
 10
91.15488412688174
 20
226.1900669684915
 30
0.0
 10
91.48123393009304
 20
225.775872086699
 30
0.0
 10
91.62964849655813
 20
225.5495623415335
 30
0.0
 10
91.89406831036747
 20
225.0569723813404
 30
0.0
 10
92.00657193321844
 20
224.7967811771686
 30
0.0
 10
92.18927014445913
 20
224.2554929042421
 30
0.0
 10
92.26034552267467
 20
223.9709489619526
 30
0.0
 10
92.3553082353751
 20
223.38954097889
 30
0.0
 10
92.37921909910173
 20
223.0952263544732
 30
0.0
 10
92.37881779242434
 20
222.4996920899808
 30
0.0
 10
92.35452741220618
 20
222.2069976331299
 30
0.0
 10
92.26017940390578
 20
221.6313131716862
 30
0.0
 10
92.18895120709028
 20
221.3452979465869
 30
0.0
 10
92.0047991060139
 20
220.8008255253472
 30
0.0
 10
91.89268999196811
 20
220.5426676403879
 30
0.0
 10
91.63034275017746
 20
220.054112045899
 30
0.0
 10
91.47901938719687
 20
219.8232339940276
 30
0.0
 10
91.15224077199076
 20
219.409255620845
 30
0.0
 10
90.97552078914833
 20
219.2233273173378
 30
0.0
 10
90.59641030600275
 20
218.8947001489395
 30
0.0
 10
90.39749050562057
 20
218.7554515272653
 30
0.0
 10
89.9910518664807
 20
218.5312950783631
 30
0.0
 10
89.78053190202336
 20
218.4448477047852
 30
0.0
 10
89.35676265124229
 20
218.3295443063783
 30
0.0
 10
89.14680601818378
 20
218.3010772332898
 30
0.0
 10
88.7310213535974
 20
218.30121728865
 30
0.0
 10
88.52320838901755
 20
218.3307889810082
 30
0.0
 10
88.12782386710933
 20
218.4462526627757
 30
0.0
 10
87.93877179940151
 20
218.5315618956834
 30
0.0
 10
87.57699207480852
 20
218.7577902870178
 30
0.0
 10
87.4056172686208
 20
218.898670411608
 30
0.0
 10
87.09231227520047
 20
219.2244979751425
 30
0.0
 10
86.94805562592688
 20
219.411151727622
 30
0.0
 10
86.68576652596357
 20
219.830451643166
 30
0.0
 10
86.57118389407867
 20
220.0573011723124
 30
0.0
 10
86.37205539134384
 20
220.5443746551828
 30
0.0
 10
86.28684594256586
 20
220.8078094788699
 30
0.0
 10
86.15140793351017
 20
221.3522910997154
 30
0.0
 10
86.10073146530839
 20
221.6328330017225
 30
0.0
 10
86.03231708127252
 20
222.2105675994213
 30
0.0
 10
86.01498590878217
 20
222.5091367661479
 30
0.0
 10
86.01513187529922
 20
223.0969329681911
 30
0.0
 10
86.0320497845598
 20
223.38937353791
 30
0.0
 10
86.10093325394033
 20
223.9712611111997
 30
0.0
 10
86.15240243574846
 20
224.2545912685342
 30
0.0
 10
86.28741315030517
 20
224.796168129132
 30
0.0
 10
86.3721316872364
 20
225.0584504711611
 30
0.0
 10
86.57300704560512
 20
225.549105060238
 30
0.0
 10
86.687804528163
 20
225.7752694551991
 30
0.0
 10
86.94754325358103
 20
226.1901536108701
 30
0.0
 10
87.09407870850991
 20
226.3799755472173
 30
0.0
 10
87.40824828983084
 20
226.7060129913515
 30
0.0
 10
87.57673873270109
 20
226.8443214956267
 30
0.0
 10
87.93863232708135
 20
227.0706691938554
 30
0.0
 10
88.13089170571628
 20
227.1571857827596
 30
0.0
 10
88.52503439562075
 20
227.271787148224
 30
0.0
 10
88.72942153693354
 20
227.3011471333314
 30
0.0
 10
89.14992155432772
 20
227.3011471333314
 30
0.0
  0
LINE
  5
216
330
1F
100
AcDbEntity
  8
0
  6
Continuous
 62
     7
370
     0
100
AcDbLine
 10
92.9977599239
 20
227.3011471333
 30
0.0
 11
88.9396715456
 21
227.3011471333
 31
0.0
  0
LINE
  5
217
330
1F
100
AcDbEntity
  8
0
  6
Continuous
 62
     7
370
     0
100
AcDbLine
 10
92.9977599239
 20
220.3011471333
 30
0.0
 11
92.9977599239
 21
227.3011471333
 31
0.0
  0
LINE
  5
218
330
1F
100
AcDbEntity
  8
0
  6
Continuous
 62
     7
370
     0
100
AcDbLine
 10
92.9977599239
 20
220.3011471333
 30
0.0
 11
124.250844352
 21
220.3011471333
 31
0.0
  0
LINE
  5
219
330
1F
100
AcDbEntity
  8
0
  6
Continuous
 62
     7
370
     0
100
AcDbLine
 10
124.250844352
 20
227.3011471333
 30
0.0
 11
124.250844352
 21
220.3011471333
 31
0.0
  0
LINE
  5
21A
330
1F
100
AcDbEntity
  8
0
  6
Continuous
 62
     7
370
     0
100
AcDbLine
 10
128.5376512921
 20
227.3011471333
 30
0.0
 11
124.250844352
 21
227.3011471333
 31
0.0
  0
SPLINE
  5
21B
330
1F
100
AcDbEntity
  8
0
  6
Continuous
 62
     7
370
     0
100
AcDbSpline
210
0.0
220
0.0
230
1.0
 70
     8
 71
     3
 72
    70
 73
    66
 74
     0
 42
0.00000001
 43
0.00000001
 12
1.0
 22
0.0
 32
0.0
 13
1.0
 23
0.0
 33
0.0
 40
-0.03125
 40
-0.03125
 40
0.0
 40
0.0
 40
0.03125
 40
0.03125
 40
0.0625
 40
0.0625
 40
0.09375
 40
0.09375
 40
0.125
 40
0.125
 40
0.15625
 40
0.15625
 40
0.1875
 40
0.1875
 40
0.21875
 40
0.21875
 40
0.25
 40
0.25
 40
0.28125
 40
0.28125
 40
0.3125
 40
0.3125
 40
0.34375
 40
0.34375
 40
0.375
 40
0.375
 40
0.40625
 40
0.40625
 40
0.4375
 40
0.4375
 40
0.46875
 40
0.46875
 40
0.5
 40
0.5
 40
0.53125
 40
0.53125
 40
0.5625
 40
0.5625
 40
0.59375
 40
0.59375
 40
0.625
 40
0.625
 40
0.65625
 40
0.65625
 40
0.6875
 40
0.6875
 40
0.71875
 40
0.71875
 40
0.75
 40
0.75
 40
0.78125
 40
0.78125
 40
0.8125
 40
0.8125
 40
0.84375
 40
0.84375
 40
0.875
 40
0.875
 40
0.90625
 40
0.90625
 40
0.9375
 40
0.9375
 40
0.96875
 40
0.96875
 40
1.0
 40
1.0
 40
1.03125
 40
1.03125
 10
128.7482336305871
 20
227.3011471333314
 30
0.0
 10
128.3270689535676
 20
227.3011471333314
 30
0.0
 10
128.1167168317088
 20
227.2718762315011
 30
0.0
 10
127.696805219071
 20
227.1572768627486
 30
0.0
 10
127.4849571946664
 20
227.0705226992684
 30
0.0
 10
127.0760086862751
 20
226.8444827341884
 30
0.0
 10
126.8792902903861
 20
226.7062308002873
 30
0.0
 10
126.5026810643337
 20
226.3796859262706
 30
0.0
 10
126.3223172699405
 20
226.1899427313456
 30
0.0
 10
125.9958285844932
 20
225.7755117636899
 30
0.0
 10
125.8475425107075
 20
225.5492931716261
 30
0.0
 10
125.5835712085253
 20
225.0575858947876
 30
0.0
 10
125.4706052953317
 20
224.7964121226011
 30
0.0
 10
125.2879647352241
 20
224.2551698789528
 30
0.0
 10
125.2170173346994
 20
223.9710899759602
 30
0.0
 10
125.1220739582543
 20
223.3900082818116
 30
0.0
 10
125.0984420791412
 20
223.0977202447345
 30
0.0
 10
125.098165431095
 20
222.5097238629855
 30
0.0
 10
125.1223096693453
 20
222.211023822048
 30
0.0
 10
125.2166081550667
 20
221.6335284641218
 30
0.0
 10
125.2862740208926
 20
221.352790262346
 30
0.0
 10
125.4698788276183
 20
220.8073879809264
 30
0.0
 10
125.5837969720662
 20
220.5445897048771
 30
0.0
 10
125.8449377175088
 20
220.0575539884832
 30
0.0
 10
125.9935099119944
 20
219.8298008199354
 30
0.0
 10
126.3236899168749
 20
219.4105342781325
 30
0.0
 10
126.5006537542829
 20
219.2246878334869
 30
0.0
 10
126.8757745436632
 20
218.8987948839129
 30
0.0
 10
127.0763310319749
 20
218.7576155241919
 30
0.0
 10
127.4850021990459
 20
218.5317645446408
 30
0.0
 10
127.6927521043015
 20
218.4464294073432
 30
0.0
 10
128.1140691663732
 20
218.3308395881527
 30
0.0
 10
128.3285754083724
 20
218.301261709381
 30
0.0
 10
128.7442535757043
 20
218.3010332370946
 30
0.0
 10
128.947791935413
 20
218.3294346028172
 30
0.0
 10
129.3463998996752
 20
218.444867162528
 30
0.0
 10
129.5373330902021
 20
218.5310889178697
 30
0.0
 10
129.8968305169354
 20
218.7553166441758
 30
0.0
 10
130.0680725448269
 20
218.8952501262827
 30
0.0
 10
130.3841356219464
 20
219.2232351866509
 30
0.0
 10
130.5275286194559
 20
219.4090153550751
 30
0.0
 10
130.7875623193331
 20
219.8234378368645
 30
0.0
 10
130.9048677792118
 20
220.0545473517141
 30
0.0
 10
131.1045845654105
 20
220.5423522929204
 30
0.0
 10
131.1883070105021
 20
220.8004399727166
 30
0.0
 10
131.3245886492096
 20
221.345639945521
 30
0.0
 10
131.3762537224088
 20
221.6310142707503
 30
0.0
 10
131.4446322738507
 20
222.206391775873
 30
0.0
 10
131.462118874693
 20
222.5000734769681
 30
0.0
 10
131.4624076928623
 20
223.0948379463787
 30
0.0
 10
131.4453025585013
 20
223.387462962282
 30
0.0
 10
131.3774939498687
 20
223.9635659238218
 30
0.0
 10
131.3258975364196
 20
224.250078803362
 30
0.0
 10
131.1904790471249
 20
224.794470320562
 30
0.0
 10
131.107088615522
 20
225.0529014845243
 30
0.0
 10
130.907395355408
 20
225.5424747671187
 30
0.0
 10
130.7904958738916
 20
225.7734244822489
 30
0.0
 10
130.5313483304034
 20
226.1879285566605
 30
0.0
 10
130.3881045764136
 20
226.3743659411125
 30
0.0
 10
130.0712866364484
 20
226.7042704153907
 30
0.0
 10
129.9015132363727
 20
226.843447264593
 30
0.0
 10
129.5425519031147
 20
227.0685432891325
 30
0.0
 10
129.3510304012196
 20
227.1555771315113
 30
0.0
 10
128.952917263529
 20
227.2718721342409
 30
0.0
 10
128.7482336305871
 20
227.3011471333314
 30
0.0
 10
128.3270689535676
 20
227.3011471333314
 30
0.0
  0
LINE
  5
21C
330
1F
100
AcDbEntity
  8
0
  6
Continuous
 62
     7
370
     0
100
AcDbLine
 10
80.7386614189
 20
215.8011471333
 30
0.0
 11
136.7386614189
 21
215.8011471333
 31
0.0
  0
SPLINE
  5
21D
330
1F
100
AcDbEntity
  8
0
  6
Continuous
 62
     7
370
     0
100
AcDbSpline
210
0.0
220
0.0
230
1.0
 70
     8
 71
     3
 72
    11
 73
     7
 74
     0
 42
0.00000001
 43
0.00000001
 12
1.0
 22
0.0
 32
0.0
 13
1.0
 23
0.0
 33
0.0
 40
0.0
 40
0.0
 40
0.0
 40
0.0
 40
0.1642422615957172
 40
0.5608135640834966
 40
0.7794847913969912
 40
1.0
 40
1.0
 40
1.0
 40
1.0
 10
136.38232319247
 20
215.445530362829
 30
0.0
 10
136.3838347323214
 20
215.4468700170991
 30
0.0
 10
136.3889959620992
 20
215.4514443348087
 30
0.0
 10
136.3489360509144
 20
215.4159393180825
 30
0.0
 10
136.287723966981
 20
215.3615865378956
 30
0.0
 10
136.242527835098
 20
215.3213499144159
 30
0.0
 10
136.2198348882417
 20
215.3011471333314
 30
0.0
  0
LINE
  5
21E
330
1F
100
AcDbEntity
  8
0
  6
Continuous
 62
     7
370
     0
100
AcDbLine
 10
136.2198348882
 20
215.3011471333
 30
0.0
 11
81.2574879495
 21
215.3011471333
 31
0.0
  0
SPLINE
  5
21F
330
1F
100
AcDbEntity
  8
0
  6
Continuous
 62
     7
370
     0
100
AcDbSpline
210
0.0
220
0.0
230
1.0
 70
     8
 71
     3
 72
    10
 73
     6
 74
     0
 42
0.00000001
 43
0.00000001
 12
1.0
 22
0.0
 32
0.0
 13
1.0
 23
0.0
 33
0.0
 40
0.0
 40
0.0
 40
0.0
 40
0.0
 40
0.3844133416533057
 40
0.7793467828076833
 40
1.0
 40
1.0
 40
1.0
 40
1.0
 10
81.25748794946624
 20
215.3011471333314
 30
0.0
 10
81.22020535661314
 20
215.3343217591667
 30
0.0
 10
81.14461987180702
 20
215.4015788887045
 30
0.0
 10
81.09216881356708
 20
215.4480360088185
 30
0.0
 10
81.09425269196092
 20
215.4461915114598
 30
0.0
 10
81.09499964523809
 20
215.445530362829
 30
0.0
  0
LINE
  5
220
330
1F
100
AcDbEntity
  8
0
  6
Continuous
 62
     7
370
     0
100
AcDbLine
 10
112.3526930305
 20
220.3011471333
 30
0.0
 11
112.3526930305
 21
227.8011471333
 31
0.0
  0
LINE
  5
221
330
1F
100
AcDbEntity
  8
0
  6
Continuous
 62
     7
370
     0
100
AcDbLine
 10
105.1246298072
 20
227.8011471333
 30
0.0
 11
105.1246298072
 21
220.3011471333
 31
0.0
  0
LINE
  5
222
330
1F
100
AcDbEntity
  8
0
  6
Continuous
 62
     7
370
     0
100
AcDbLine
 10
112.3526930305
 20
227.8011471333
 30
0.0
 11
105.1246298072
 21
227.8011471333
 31
0.0
  0
LINE
  5
223
330
1F
100
AcDbEntity
  8
0
  6
Continuous
 62
     7
370
     0
100
AcDbLine
 10
124.250844352
 20
227.3011471333
 30
0.0
 11
123.9886071601
 21
227.8011471333
 31
0.0
  0
LINE
  5
224
330
1F
100
AcDbEntity
  8
0
  6
Continuous
 62
     7
370
     0
100
AcDbLine
 10
131.1753845536
 20
227.8011471333
 30
0.0
 11
131.5596621419
 21
227.3011471333
 31
0.0
  0
LINE
  5
225
330
1F
100
AcDbEntity
  8
0
  6
Continuous
 62
     7
370
     0
100
AcDbLine
 10
123.9886071601
 20
227.8011471333
 30
0.0
 11
131.1753845536
 21
227.8011471333
 31
0.0
  0
LINE
  5
226
330
1F
100
AcDbEntity
  8
0
  6
Continuous
 62
     7
370
     0
100
AcDbLine
 10
123.6715818539
 20
220.3011471333
 30
0.0
 11
123.6715818539
 21
227.8011471333
 31
0.0
  0
LINE
  5
227
330
1F
100
AcDbEntity
  8
0
  6
Continuous
 62
     7
370
     0
100
AcDbLine
 10
123.6715818539
 20
227.8011471333
 30
0.0
 11
123.9886071601
 21
227.8011471333
 31
0.0
  0
SPLINE
  5
228
330
1F
100
AcDbEntity
  8
0
  6
Continuous
 62
     7
370
     0
100
AcDbSpline
210
0.0
220
0.0
230
1.0
 70
     8
 71
     3
 72
     8
 73
     4
 74
     0
 42
0.00000001
 43
0.00000001
 12
1.0
 22
0.0
 32
0.0
 13
1.0
 23
0.0
 33
0.0
 40
0.0
 40
0.0
 40
0.0
 40
0.0
 40
0.0008513246783158
 40
0.0008513246783158
 40
0.0008513246783158
 40
0.0008513246783158
 10
93.66964754859468
 20
227.8011471333314
 30
0.0
 10
93.44505353440475
 20
227.6353765266917
 30
0.0
 10
93.22110244368878
 20
227.4686865131656
 30
0.0
 10
92.99775992388956
 20
227.3011471333314
 30
0.0
  0
LINE
  5
229
330
1F
100
AcDbEntity
  8
0
  6
Continuous
 62
     7
370
     0
100
AcDbLine
 10
85.9176606958
 20
227.3011471333
 30
0.0
 11
86.3019382841
 21
227.8011471333
 31
0.0
  0
LINE
  5
22A
330
1F
100
AcDbEntity
  8
0
  6
Continuous
 62
     7
370
     0
100
AcDbLine
 10
86.3019382841
 20
227.8011471333
 30
0.0
 11
93.6696475486
 21
227.8011471333
 31
0.0
  0
LINE
  5
22B
330
1F
100
AcDbEntity
  8
0
  6
Continuous
 62
     7
370
     0
100
AcDbLine
 10
93.7386849856
 20
227.8011471333
 30
0.0
 11
93.7386849856
 21
220.3011471333
 31
0.0
  0
LINE
  5
22C
330
1F
100
AcDbEntity
  8
0
  6
Continuous
 62
     7
370
     0
100
AcDbLine
 10
93.6696475486
 20
227.8011471333
 30
0.0
 11
93.7386849856
 21
227.8011471333
 31
0.0
  0
LINE
  5
22D
330
1F
100
AcDbEntity
  8
0
  6
Continuous
 62
     7
370
     0
100
AcDbLine
 10
96.7386614189
 20
227.8011471333
 30
0.0
 11
96.7386614189
 21
220.3011471333
 31
0.0
  0
LINE
  5
22E
330
1F
100
AcDbEntity
  8
0
  6
Continuous
 62
     7
370
     0
100
AcDbLine
 10
93.7386849856
 20
227.8011471333
 30
0.0
 11
96.7386614189
 21
227.8011471333
 31
0.0
  0
LWPOLYLINE
  5
22F
330
1F
100
AcDbEntity
  8
0
  6
Continuous
 62
     7
370
     0
100
AcDbPolyline
 90
       25
 70
   128
 43
0.0
 10
89.1050059874
 20
227.2932677077
 10
89.0760789066
 20
227.2906565947
 10
88.645831867
 20
227.2070255279
 10
88.2276445353
 20
227.0413212829
 10
87.8293069504
 20
226.7966306161
 10
87.4582393877
 20
226.4775116519
 10
87.1213541338
 20
226.0899089726
 10
86.8249267237
 20
225.6410428828
 10
86.574479039
 20
225.1392749085
 10
86.3746764464
 20
224.5939520376
 10
86.22924089
 20
224.0152326035
 10
86.1408815591
 20
223.4138970543
 10
86.1112444209
 20
222.8011471333
 10
86.1408815591
 20
222.1883972124
 10
86.22924089
 20
221.5870616631
 10
86.3746764464
 20
221.008342229
 10
86.574479039
 20
220.4630193582
 10
86.8249267237
 20
219.9612513839
 10
87.1213541338
 20
219.5123852941
 10
87.4582393877
 20
219.1247826148
 10
87.8293069504
 20
218.8056636505
 10
88.2276445353
 20
218.5609729838
 10
88.645831867
 20
218.3952687388
 10
89.0760789066
 20
218.311637672
 10
89.2932249362
 20
218.3011471333
  0
LWPOLYLINE
  5
230
330
1F
100
AcDbEntity
  8
0
  6
Continuous
 62
     7
370
     0
100
AcDbPolyline
 90
       25
 70
   128
 43
0.0
 10
128.3740198641
 20
227.2931243479
 10
128.4012439311
 20
227.2906565947
 10
128.8314909707
 20
227.2070255279
 10
129.2496783024
 20
227.0413212829
 10
129.6480158873
 20
226.7966306161
 10
130.01908345
 20
226.4775116519
 10
130.3559687039
 20
226.0899089726
 10
130.652396114
 20
225.6410428828
 10
130.9028437987
 20
225.1392749085
 10
131.1026463913
 20
224.5939520376
 10
131.2480819477
 20
224.0152326035
 10
131.3364412786
 20
223.4138970543
 10
131.3660784168
 20
222.8011471333
 10
131.3364412786
 20
222.1883972124
 10
131.2480819477
 20
221.5870616631
 10
131.1026463913
 20
221.008342229
 10
130.9028437987
 20
220.4630193582
 10
130.652396114
 20
219.9612513839
 10
130.3559687039
 20
219.5123852941
 10
130.01908345
 20
219.1247826148
 10
129.6480158873
 20
218.8056636505
 10
129.2496783024
 20
218.5609729838
 10
128.8314909707
 20
218.3952687388
 10
128.4012439311
 20
218.311637672
 10
128.1840979015
 20
218.3011471333
  0
LWPOLYLINE
  5
231
330
1F
100
AcDbEntity
  8
0
  6
Continuous
 62
     7
370
     0
100
AcDbPolyline
 90
       32
 70
   128
 43
0.0
 10
90.7781491767
 20
222.8011471333
 10
90.7477526903
 20
223.2238740255
 10
90.6578076667
 20
223.6292944291
 10
90.5119964658
 20
224.000810385
 10
90.3162886153
 20
224.3232119865
 10
90.0786964175
 20
224.5833000741
 10
89.808946925
 20
224.7704266108
 10
89.5180837137
 20
224.8769306144
 10
89.2180147577
 20
224.8984517984
 10
88.9210249151
 20
224.834109083
 10
88.6392729852
 20
224.6865366664
 10
88.384293925
 20
224.4617761809
 10
88.1665266072
 20
224.169029347
 10
87.9948864513
 20
223.8202812546
 10
87.8764004256
 20
223.4298096916
 10
87.8159193618
 20
223.0136006095
 10
87.8159193618
 20
222.5886936572
 10
87.8764004256
 20
222.1724845751
 10
87.9948864513
 20
221.782013012
 10
88.1665266072
 20
221.4332649196
 10
88.384293925
 20
221.1405180858
 10
88.6392729852
 20
220.9157576002
 10
88.9210249151
 20
220.7681851837
 10
89.2180147577
 20
220.7038424683
 10
89.5180837137
 20
220.7253636522
 10
89.808946925
 20
220.8318676558
 10
90.0786964175
 20
221.0189941926
 10
90.3162886153
 20
221.2790822802
 10
90.5119964658
 20
221.6014838816
 10
90.6578076667
 20
221.9729998376
 10
90.7477526903
 20
222.3784202411
 10
90.7781491767
 20
222.8011471333
  0
LWPOLYLINE
  5
232
330
1F
100
AcDbEntity
  8
0
  6
Continuous
 62
     7
370
     0
100
AcDbPolyline
 90
       32
 70
   128
 43
0.0
 10
129.669022142
 20
222.8011471333
 10
129.6386256555
 20
223.2238740255
 10
129.5486806319
 20
223.6292944291
 10
129.402869431
 20
224.000810385
 10
129.2071615805
 20
224.3232119865
 10
128.9695693828
 20
224.5833000741
 10
128.6998198903
 20
224.7704266108
 10
128.408956679
 20
224.8769306144
 10
128.1088877229
 20
224.8984517984
 10
127.8118978804
 20
224.834109083
 10
127.5301459505
 20
224.6865366664
 10
127.2751668902
 20
224.4617761809
 10
127.0573995724
 20
224.169029347
 10
126.8857594166
 20
223.8202812546
 10
126.7672733909
 20
223.4298096916
 10
126.7067923271
 20
223.0136006095
 10
126.7067923271
 20
222.5886936572
 10
126.7672733909
 20
222.1724845751
 10
126.8857594166
 20
221.782013012
 10
127.0573995724
 20
221.4332649196
 10
127.2751668902
 20
221.1405180858
 10
127.5301459505
 20
220.9157576002
 10
127.8118978804
 20
220.7681851837
 10
128.1088877229
 20
220.7038424683
 10
128.408956679
 20
220.7253636522
 10
128.6998198903
 20
220.8318676558
 10
128.9695693828
 20
221.0189941926
 10
129.2071615805
 20
221.2790822802
 10
129.402869431
 20
221.6014838816
 10
129.5486806319
 20
221.9729998376
 10
129.6386256555
 20
222.3784202411
 10
129.669022142
 20
222.8011471333
  0
LINE
  5
233
330
1F
100
AcDbEntity
  8
0
  6
Continuous
 62
     7
370
     0
100
AcDbLine
 10
120.7386614189
 20
227.8011471333
 30
0.0
 11
120.7386614189
 21
220.3011471333
 31
0.0
  0
LINE
  5
234
330
1F
100
AcDbEntity
  8
0
  6
Continuous
 62
     7
370
     0
100
AcDbLine
 10
120.7386614189
 20
227.8011471333
 30
0.0
 11
123.6715818539
 21
227.8011471333
 31
0.0
  0
LINE
  5
235
330
1F
100
AcDbEntity
  8
0
  6
Continuous
 62
     7
370
     0
100
AcDbLine
 10
102.4141060985
 20
220.3011471333
 30
0.0
 11
102.4141060985
 21
227.8011471333
 31
0.0
  0
LINE
  5
236
330
1F
100
AcDbEntity
  8
0
  6
Continuous
 62
     7
370
     0
100
AcDbLine
 10
102.4141060985
 20
227.8011471333
 30
0.0
 11
105.1246298072
 21
227.8011471333
 31
0.0
  0
LINE
  5
237
330
1F
100
AcDbEntity
  8
0
  6
Continuous
 62
     7
370
     0
100
AcDbLine
 10
115.0632167392
 20
227.8011471333
 30
0.0
 11
115.0632167392
 21
220.3011471333
 31
0.0
  0
LINE
  5
238
330
1F
100
AcDbEntity
  8
0
  6
Continuous
 62
     7
370
     0
100
AcDbLine
 10
112.3526930305
 20
227.8011471333
 30
0.0
 11
115.0632167392
 21
227.8011471333
 31
0.0
  0
LINE
  5
239
330
1F
100
AcDbEntity
  8
0
  6
Continuous
 62
     7
370
     0
100
AcDbLine
 10
102.4141060985
 20
227.8011471333
 30
0.0
 11
96.7386614189
 21
227.8011471333
 31
0.0
  0
LINE
  5
23A
330
1F
100
AcDbEntity
  8
0
  6
Continuous
 62
     7
370
     0
100
AcDbLine
 10
120.7386614189
 20
227.8011471333
 30
0.0
 11
115.0632167392
 21
227.8011471333
 31
0.0
  0
LINE
  5
23B
330
1F
100
AcDbEntity
  8
0
  6
Continuous
 62
     7
370
     0
100
AcDbLine
 10
103.7402875426
 20
212.0011471333
 30
0.0
 11
103.6602795735
 21
212.0011471333
 31
0.0
  0
LINE
  5
23C
330
1F
100
AcDbEntity
  8
0
  6
Continuous
 62
     7
370
     0
100
AcDbLine
 10
103.6602795735
 20
212.7011471333
 30
0.0
 11
103.6602795735
 21
212.0011471333
 31
0.0
  0
LINE
  5
23D
330
1F
100
AcDbEntity
  8
0
  6
Continuous
 62
     7
370
     0
100
AcDbLine
 10
103.1116260119
 20
212.0011471333
 30
0.0
 11
103.1116260119
 21
212.7011471333
 31
0.0
  0
LINE
  5
23E
330
1F
100
AcDbEntity
  8
0
  6
Continuous
 62
     7
370
     0
100
AcDbLine
 10
103.1116260119
 20
212.0011471333
 30
0.0
 11
100.1402875426
 21
212.0011471333
 31
0.0
  0
SPLINE
  5
23F
330
1F
100
AcDbEntity
  8
0
  6
Continuous
 62
     7
370
     0
100
AcDbSpline
210
0.0
220
0.0
230
1.0
 70
     8
 71
     3
 72
     8
 73
     4
 74
     0
 42
0.00000001
 43
0.00000001
 12
1.0
 22
0.0
 32
0.0
 13
1.0
 23
0.0
 33
0.0
 40
0.0
 40
0.0
 40
0.0
 40
0.0
 40
1.0
 40
1.0
 40
1.0
 40
1.0
 10
102.8483137288275
 20
211.5011471333314
 30
0.0
 10
102.9367203816444
 20
211.6673066761754
 30
0.0
 10
103.0243859072736
 20
211.8340781350783
 30
0.0
 10
103.1116260118725
 20
212.0011471333314
 30
0.0
  0
LINE
  5
240
330
1F
100
AcDbEntity
  8
0
  6
Continuous
 62
     7
370
     0
100
AcDbLine
 10
102.8483137288
 20
211.5011471333
 30
0.0
 11
100.4402875426
 21
211.5011471333
 31
0.0
  0
LINE
  5
241
330
1F
100
AcDbEntity
  8
0
  6
Continuous
 62
     7
370
     0
100
AcDbLine
 10
103.4402875426
 20
211.5011471333
 30
0.0
 11
103.3969672904
 21
211.5011471333
 31
0.0
  0
SPLINE
  5
242
330
1F
100
AcDbEntity
  8
0
  6
Continuous
 62
     7
370
     0
100
AcDbSpline
210
0.0
220
0.0
230
1.0
 70
     8
 71
     3
 72
     8
 73
     4
 74
     0
 42
0.00000001
 43
0.00000001
 12
1.0
 22
0.0
 32
0.0
 13
1.0
 23
0.0
 33
0.0
 40
0.0
 40
0.0
 40
0.0
 40
0.0
 40
1.0
 40
1.0
 40
1.0
 40
1.0
 10
103.6602795734906
 20
212.0011471333314
 30
0.0
 10
103.5730413512234
 20
211.8340817398341
 30
0.0
 10
103.4853857435073
 20
211.6673288546339
 30
0.0
 10
103.3969672904456
 20
211.5011471333314
 30
0.0
  0
LINE
  5
243
330
1F
100
AcDbEntity
  8
0
  6
Continuous
 62
     7
370
     0
100
AcDbLine
 10
103.3969672904
 20
211.5011471333
 30
0.0
 11
102.8483137288
 21
211.5011471333
 31
0.0
  0
LINE
  5
244
330
1F
100
AcDbEntity
  8
0
  6
Continuous
 62
     7
370
     0
100
AcDbLine
 10
99.2902875426
 20
213.2011471333
 30
0.0
 11
104.5902875426
 21
213.2011471333
 31
0.0
  0
LINE
  5
245
330
1F
100
AcDbEntity
  8
0
  6
Continuous
 62
     7
370
     0
100
AcDbLine
 10
104.0902875426
 20
212.7011471333
 30
0.0
 11
99.7902875426
 21
212.7011471333
 31
0.0
  0
LINE
  5
246
330
1F
100
AcDbEntity
  8
0
  6
Continuous
 62
     7
370
     0
100
AcDbLine
 10
117.3370352951
 20
212.0011471333
 30
0.0
 11
117.257027326
 21
212.0011471333
 31
0.0
  0
LINE
  5
247
330
1F
100
AcDbEntity
  8
0
  6
Continuous
 62
     7
370
     0
100
AcDbLine
 10
117.257027326
 20
212.7011471333
 30
0.0
 11
117.257027326
 21
212.0011471333
 31
0.0
  0
LINE
  5
248
330
1F
100
AcDbEntity
  8
0
  6
Continuous
 62
     7
370
     0
100
AcDbLine
 10
116.7083737644
 20
212.0011471333
 30
0.0
 11
116.7083737644
 21
212.7011471333
 31
0.0
  0
LINE
  5
249
330
1F
100
AcDbEntity
  8
0
  6
Continuous
 62
     7
370
     0
100
AcDbLine
 10
116.7083737644
 20
212.0011471333
 30
0.0
 11
113.7370352951
 21
212.0011471333
 31
0.0
  0
SPLINE
  5
24A
330
1F
100
AcDbEntity
  8
0
  6
Continuous
 62
     7
370
     0
100
AcDbSpline
210
0.0
220
0.0
230
1.0
 70
     8
 71
     3
 72
     8
 73
     4
 74
     0
 42
0.00000001
 43
0.00000001
 12
1.0
 22
0.0
 32
0.0
 13
1.0
 23
0.0
 33
0.0
 40
0.0
 40
0.0
 40
0.0
 40
0.0
 40
1.0
 40
1.0
 40
1.0
 40
1.0
 10
116.4450614813249
 20
211.5011471333314
 30
0.0
 10
116.5334681341418
 20
211.6673066761753
 30
0.0
 10
116.621133659771
 20
211.8340781350783
 30
0.0
 10
116.7083737643699
 20
212.0011471333314
 30
0.0
  0
LINE
  5
24B
330
1F
100
AcDbEntity
  8
0
  6
Continuous
 62
     7
370
     0
100
AcDbLine
 10
116.4450614813
 20
211.5011471333
 30
0.0
 11
114.0370352951
 21
211.5011471333
 31
0.0
  0
SPLINE
  5
24C
330
1F
100
AcDbEntity
  8
0
  6
Continuous
 62
     7
370
     0
100
AcDbSpline
210
0.0
220
0.0
230
1.0
 70
     8
 71
     3
 72
     8
 73
     4
 74
     0
 42
0.00000001
 43
0.00000001
 12
1.0
 22
0.0
 32
0.0
 13
1.0
 23
0.0
 33
0.0
 40
0.0
 40
0.0
 40
0.0
 40
0.0
 40
1.0
 40
1.0
 40
1.0
 40
1.0
 10
117.257027325988
 20
212.0011471333314
 30
0.0
 10
117.1697891037208
 20
211.8340817398341
 30
0.0
 10
117.0821334960047
 20
211.6673288546339
 30
0.0
 10
116.993715042943
 20
211.5011471333314
 30
0.0
  0
LINE
  5
24D
330
1F
100
AcDbEntity
  8
0
  6
Continuous
 62
     7
370
     0
100
AcDbLine
 10
116.9937150429
 20
211.5011471333
 30
0.0
 11
116.4450614813
 21
211.5011471333
 31
0.0
  0
LINE
  5
24E
330
1F
100
AcDbEntity
  8
0
  6
Continuous
 62
     7
370
     0
100
AcDbLine
 10
117.0370352951
 20
211.5011471333
 30
0.0
 11
116.9937150429
 21
211.5011471333
 31
0.0
  0
LINE
  5
24F
330
1F
100
AcDbEntity
  8
0
  6
Continuous
 62
     7
370
     0
100
AcDbLine
 10
112.8870352951
 20
213.2011471333
 30
0.0
 11
118.1870352951
 21
213.2011471333
 31
0.0
  0
LINE
  5
250
330
1F
100
AcDbEntity
  8
0
  6
Continuous
 62
     7
370
     0
100
AcDbLine
 10
117.6870352951
 20
212.7011471333
 30
0.0
 11
113.3870352951
 21
212.7011471333
 31
0.0
  0
DIMENSION
  5
251
330
1F
100
AcDbEntity
  8
0
  6
Continuous
 62
     7
370
     0
100
AcDbDimension
  2
_D_4
 10
70.7386614189
 20
215.3011471333
 30
0.0
 11
70.7386614189
 21
221.5511471333
 31
0.0
 70
   160
  1
<>
 71
     2
 42
-1.0
  3
SLDDIMSTYLE3
100
AcDbAlignedDimension
 13
81.2386614189
 23
227.8011471333
 33
0.0
 14
81.2574879495
 24
215.3011471333
 34
0.0
 50
90.0
100
AcDbRotatedDimension
  0
DIMENSION
  5
25E
330
1F
100
AcDbEntity
  8
0
  6
Continuous
 62
     7
370
     0
100
AcDbDimension
  2
_D_5
 10
60.5917926794
 20
211.5011471333
 30
0.0
 11
60.5917926794
 21
219.6511471333
 31
0.0
 70
   160
  1
<>
 71
     2
 42
-1.0
  3
SLDDIMSTYLE0
100
AcDbAlignedDimension
 13
81.2386614189
 23
227.8011471333
 33
0.0
 14
86.3159141707
 24
211.5011471333
 34
0.0
 50
90.0
100
AcDbRotatedDimension
  0
ENDSEC
  0
SECTION
  2
OBJECTS
  0
DICTIONARY
  5
C
330
0
100
AcDbDictionary
281
     1
  3
ACAD_GROUP
350
D
  3
ACAD_LAYOUT
350
1A
  3
ACAD_MLINESTYLE
350
17
  3
ACAD_PLOTSETTINGS
350
19
  3
ACAD_PLOTSTYLENAME
350
E
  0
DICTIONARY
  5
D
102
{ACAD_REACTORS
330
C
102
}
330
C
100
AcDbDictionary
281
     1
  0
DICTIONARY
  5
1A
102
{ACAD_REACTORS
330
C
102
}
330
C
100
AcDbDictionary
281
     1
  3
Layout1
350
1E
  3
Layout2
350
26
  3
Model
350
22
  0
DICTIONARY
  5
17
102
{ACAD_REACTORS
330
C
102
}
330
C
100
AcDbDictionary
281
     1
  3
Standard
350
18
  0
DICTIONARY
  5
19
102
{ACAD_REACTORS
330
C
102
}
330
C
100
AcDbDictionary
281
     1
  0
ACDBDICTIONARYWDFLT
  5
E
102
{ACAD_REACTORS
330
C
102
}
330
C
100
AcDbDictionary
281
     1
  3
Normal
350
F
100
AcDbDictionaryWithDefault
340
F
  0
LAYOUT
  5
1E
102
{ACAD_REACTORS
330
1A
102
}
330
1A
100
AcDbPlotSettings
  1

  2
none_device
  4

  6

 40
0.0
 41
0.0
 42
0.0
 43
0.0
 44
0.0
 45
0.0
 46
0.0
 47
0.0
 48
0.0
 49
0.0
140
0.0
141
0.0
142
1.0
143
1.0
 70
   688
 72
     0
 73
     0
 74
     5
  7

 75
    16
147
1.0
148
0.0
149
0.0
100
AcDbLayout
  1
Layout1
 70
     1
 71
     1
 10
0.0
 20
0.0
 11
420.0
 21
297.0
 12
0.0
 22
0.0
 32
0.0
 14
1.0000000000E+20
 24
1.0000000000E+20
 34
1.0000000000E+20
 15
-1.0000000000E+20
 25
-1.0000000000E+20
 35
-1.0000000000E+20
146
0.0
 13
0.0
 23
0.0
 33
0.0
 16
1.0
 26
0.0
 36
0.0
 17
0.0
 27
1.0
 37
0.0
 76
     0
330
1B
  0
LAYOUT
  5
26
102
{ACAD_REACTORS
330
1A
102
}
330
1A
100
AcDbPlotSettings
  1

  2
none_device
  4

  6

 40
0.0
 41
0.0
 42
0.0
 43
0.0
 44
0.0
 45
0.0
 46
0.0
 47
0.0
 48
0.0
 49
0.0
140
0.0
141
0.0
142
1.0
143
1.0
 70
   688
 72
     0
 73
     0
 74
     5
  7

 75
    16
147
1.0
148
0.0
149
0.0
100
AcDbLayout
  1
Layout2
 70
     1
 71
     2
 10
0.0
 20
0.0
 11
0.0
 21
0.0
 12
0.0
 22
0.0
 32
0.0
 14
0.0
 24
0.0
 34
0.0
 15
0.0
 25
0.0
 35
0.0
146
0.0
 13
0.0
 23
0.0
 33
0.0
 16
1.0
 26
0.0
 36
0.0
 17
0.0
 27
1.0
 37
0.0
 76
     0
330
23
  0
LAYOUT
  5
22
102
{ACAD_REACTORS
330
1A
102
}
330
1A
100
AcDbPlotSettings
  1

  2
none_device
  4

  6

 40
0.0
 41
0.0
 42
0.0
 43
0.0
 44
0.0
 45
0.0
 46
0.0
 47
0.0
 48
0.0
 49
0.0
140
0.0
141
0.0
142
1.0
143
1.0
 70
  1712
 72
     0
 73
     0
 74
     0
  7

 75
     0
147
1.0
148
0.0
149
0.0
100
AcDbLayout
  1
Model
 70
     1
 71
     0
 10
0.0
 20
0.0
 11
210.0
 21
297.0
 12
0.0
 22
0.0
 32
0.0
 14
0.0
 24
0.0
 34
0.0
 15
210.0
 25
297.0
 35
0.0
146
0.0
 13
0.0
 23
0.0
 33
0.0
 16
1.0
 26
0.0
 36
0.0
 17
0.0
 27
1.0
 37
0.0
 76
     0
330
1F
331
29
  0
MLINESTYLE
  5
18
102
{ACAD_REACTORS
330
17
102
}
330
17
100
AcDbMlineStyle
  2
Standard
 70
     0
  3

 62
   256
 51
90.0
 52
90.0
 71
     2
 49
0.5
 62
   256
  6
BYLAYER
 49
-0.5
 62
   256
  6
BYLAYER
  0
ACDBPLACEHOLDER
  5
F
102
{ACAD_REACTORS
330
E
102
}
330
E
  0
ENDSEC
  0
EOF
