  0
SECTION
  2
HEADER
  9
$ACADVER
  1
AC1015
  9
$ACADMAINTVER
 70
     6
  9
$DWGCODEPAGE
  3
DOS932
  9
$INSBASE
 10
0.0
 20
0.0
 30
0.0
  9
$EXTMIN
 10
0.0
 20
0.0
 30
0.0
  9
$EXTMAX
 10
210.0
 20
297.0
 30
0.0
  9
$LIMMIN
 10
0.0
 20
0.0
  9
$LIMMAX
 10
210.0
 20
297.0
  9
$ORTHOMODE
 70
     0
  9
$REGENMODE
 70
     1
  9
$FILLMODE
 70
     1
  9
$QTEXTMODE
 70
     0
  9
$MIRRTEXT
 70
     1
  9
$LTSCALE
 40
1.0
  9
$ATTMODE
 70
     1
  9
$TEXTSIZE
 40
3.5
  9
$TRACEWID
 40
1.0
  9
$TEXTSTYLE
  7
Standard
  9
$CLAYER
  8
0
  9
$CELTYPE
  6
ByLayer
  9
$CECOLOR
 62
   256
  9
$CELTSCALE
 40
1.0
  9
$DISPSILH
 70
     0
  9
$DIMSCALE
 40
1.0
  9
$DIMASZ
 40
2.0
  9
$DIMEXO
 40
1.0
  9
$DIMDLI
 40
3.75
  9
$DIMRND
 40
0.0
  9
$DIMDLE
 40
0.0
  9
$DIMEXE
 40
1.0
  9
$DIMTP
 40
0.0
  9
$DIMTM
 40
0.0
  9
$DIMTXT
 40
3.5
  9
$DIMCEN
 40
2.5
  9
$DIMTSZ
 40
0.0
  9
$DIMTOL
 70
     0
  9
$DIMLIM
 70
     0
  9
$DIMTIH
 70
     1
  9
$DIMTOH
 70
     1
  9
$DIMSE1
 70
     0
  9
$DIMSE2
 70
     0
  9
$DIMTAD
 70
     1
  9
$DIMZIN
 70
     0
  9
$DIMBLK
  1

  9
$DIMASO
 70
     1
  9
$DIMSHO
 70
     1
  9
$DIMPOST
  1

  9
$DIMAPOST
  1

  9
$DIMALT
 70
     0
  9
$DIMALTD
 70
     3
  9
$DIMALTF
 40
0.0393700787
  9
$DIMLFAC
 40
1.0
  9
$DIMTOFL
 70
     1
  9
$DIMTVP
 40
0.0
  9
$DIMTIX
 70
     0
  9
$DIMSOXD
 70
     0
  9
$DIMSAH
 70
     0
  9
$DIMBLK1
  1

  9
$DIMBLK2
  1

  9
$DIMSTYLE
  2
ISO-25
  9
$DIMCLRD
 70
     0
  9
$DIMCLRE
 70
     0
  9
$DIMCLRT
 70
     0
  9
$DIMTFAC
 40
1.0
  9
$DIMGAP
 40
1.524
  9
$DIMJUST
 70
     0
  9
$DIMSD1
 70
     0
  9
$DIMSD2
 70
     0
  9
$DIMTOLJ
 70
     0
  9
$DIMTZIN
 70
     0
  9
$DIMALTZ
 70
     0
  9
$DIMALTTZ
 70
     0
  9
$DIMUPT
 70
     0
  9
$DIMDEC
 70
     2
  9
$DIMTDEC
 70
     2
  9
$DIMALTU
 70
     2
  9
$DIMALTTD
 70
     3
  9
$DIMTXSTY
  7
Standard
  9
$DIMAUNIT
 70
     0
  9
$DIMADEC
 70
     2
  9
$DIMALTRND
 40
0.0
  9
$DIMAZIN
 70
     0
  9
$DIMDSEP
 70
    44
  9
$DIMATFIT
 70
     3
  9
$DIMFRAC
 70
     0
  9
$DIMLDRBLK
  1

  9
$DIMLUNIT
 70
     2
  9
$DIMLWD
 70
    -2
  9
$DIMLWE
 70
    -2
  9
$DIMTMOVE
 70
     0
  9
$LUNITS
 70
     2
  9
$LUPREC
 70
     2
  9
$SKETCHINC
 40
1.0
  9
$FILLETRAD
 40
10.0
  9
$AUNITS
 70
     0
  9
$AUPREC
 70
     2
  9
$MENU
  1
.
  9
$ELEVATION
 40
0.0
  9
$PELEVATION
 40
0.0
  9
$THICKNESS
 40
0.0
  9
$LIMCHECK
 70
     0
  9
$CHAMFERA
 40
10.0
  9
$CHAMFERB
 40
10.0
  9
$CHAMFERC
 40
20.0
  9
$CHAMFERD
 40
0.0
  9
$SKPOLY
 70
     0
  9
$TDCREATE
 40
2457420.596171354
  9
$TDUCREATE
 40
2457420.221171354
  9
$TDUPDATE
 40
2457420.596183275
  9
$TDUUPDATE
 40
2457420.221183275
  9
$TDINDWG
 40
0.0000000116
  9
$TDUSRTIMER
 40
0.0000000116
  9
$USRTIMER
 70
     1
  9
$ANGBASE
 50
0.0
  9
$ANGDIR
 70
     0
  9
$PDMODE
 70
     0
  9
$PDSIZE
 40
-1.0
  9
$PLINEWID
 40
0.0
  9
$SPLFRAME
 70
     0
  9
$SPLINETYPE
 70
     6
  9
$SPLINESEGS
 70
     8
  9
$HANDSEED
  5
425
  9
$SURFTAB1
 70
     6
  9
$SURFTAB2
 70
     6
  9
$SURFTYPE
 70
     6
  9
$SURFU
 70
     6
  9
$SURFV
 70
     6
  9
$UCSBASE
  2

  9
$UCSNAME
  2

  9
$UCSORG
 10
0.0
 20
0.0
 30
0.0
  9
$UCSXDIR
 10
1.0
 20
0.0
 30
0.0
  9
$UCSYDIR
 10
0.0
 20
1.0
 30
0.0
  9
$UCSORTHOREF
  2

  9
$UCSORTHOVIEW
 70
     0
  9
$UCSORGTOP
 10
0.0
 20
0.0
 30
0.0
  9
$UCSORGBOTTOM
 10
0.0
 20
0.0
 30
0.0
  9
$UCSORGLEFT
 10
0.0
 20
0.0
 30
0.0
  9
$UCSORGRIGHT
 10
0.0
 20
0.0
 30
0.0
  9
$UCSORGFRONT
 10
0.0
 20
0.0
 30
0.0
  9
$UCSORGBACK
 10
0.0
 20
0.0
 30
0.0
  9
$PUCSBASE
  2

  9
$PUCSNAME
  2

  9
$PUCSORG
 10
0.0
 20
0.0
 30
0.0
  9
$PUCSXDIR
 10
1.0
 20
0.0
 30
0.0
  9
$PUCSYDIR
 10
0.0
 20
1.0
 30
0.0
  9
$PUCSORTHOREF
  2

  9
$PUCSORTHOVIEW
 70
     0
  9
$PUCSORGTOP
 10
0.0
 20
0.0
 30
0.0
  9
$PUCSORGBOTTOM
 10
0.0
 20
0.0
 30
0.0
  9
$PUCSORGLEFT
 10
0.0
 20
0.0
 30
0.0
  9
$PUCSORGRIGHT
 10
0.0
 20
0.0
 30
0.0
  9
$PUCSORGFRONT
 10
0.0
 20
0.0
 30
0.0
  9
$PUCSORGBACK
 10
0.0
 20
0.0
 30
0.0
  9
$USERI1
 70
     0
  9
$USERI2
 70
     0
  9
$USERI3
 70
     0
  9
$USERI4
 70
     0
  9
$USERI5
 70
     0
  9
$USERR1
 40
0.0
  9
$USERR2
 40
0.0
  9
$USERR3
 40
0.0
  9
$USERR4
 40
0.0
  9
$USERR5
 40
0.0
  9
$WORLDVIEW
 70
     1
  9
$SHADEDGE
 70
     3
  9
$SHADEDIF
 70
    70
  9
$TILEMODE
 70
     1
  9
$MAXACTVP
 70
    64
  9
$PINSBASE
 10
0.0
 20
0.0
 30
0.0
  9
$PLIMCHECK
 70
     0
  9
$PEXTMIN
 10
1.0000000000E+20
 20
1.0000000000E+20
 30
1.0000000000E+20
  9
$PEXTMAX
 10
-1.0000000000E+20
 20
-1.0000000000E+20
 30
-1.0000000000E+20
  9
$PLIMMIN
 10
0.0
 20
0.0
  9
$PLIMMAX
 10
420.0
 20
297.0
  9
$UNITMODE
 70
     0
  9
$VISRETAIN
 70
     1
  9
$PLINEGEN
 70
     0
  9
$PSLTSCALE
 70
     1
  9
$TREEDEPTH
 70
  3020
  9
$CMLSTYLE
  2
Standard
  9
$CMLJUST
 70
     0
  9
$CMLSCALE
 40
20.0
  9
$PROXYGRAPHICS
 70
     1
  9
$MEASUREMENT
 70
     1
  9
$CELWEIGHT
370
    -1
  9
$ENDCAPS
280
     0
  9
$JOINSTYLE
280
     0
  9
$LWDISPLAY
290
     1
  9
$INSUNITS
 70
     4
  9
$HYPERLINKBASE
  1

  9
$STYLESHEET
  1

  9
$XEDIT
290
     1
  9
$CEPSNTYPE
380
     0
  9
$PSTYLEMODE
290
     1
  9
$FINGERPRINTGUID
  2
{52FBCCBD-6176-45B7-8F7D-90D8D6A35F39}
  9
$VERSIONGUID
  2
{FAEB1C32-E019-11D5-929B-00C0DF256EC4}
  9
$EXTNAMES
290
     1
  9
$PSVPSCALE
 40
0.0
  9
$OLESTARTUP
290
     0
  0
ENDSEC
  0
SECTION
  2
CLASSES
  0
CLASS
  1
ACDBDICTIONARYWDFLT
  2
AcDbDictionaryWithDefault
  3
ObjectDBX Classes
 90
        0
280
     0
281
     0
  0
CLASS
  1
VISUALSTYLE
  2
AcDbVisualStyle
  3
ObjectDBX Classes
 90
     4095
280
     0
281
     0
  0
CLASS
  1
MATERIAL
  2
AcDbMaterial
  3
ObjectDBX Classes
 90
     1153
280
     0
281
     0
  0
CLASS
  1
ACDBPLACEHOLDER
  2
AcDbPlaceHolder
  3
ObjectDBX Classes
 90
        0
280
     0
281
     0
  0
CLASS
  1
LAYOUT
  2
AcDbLayout
  3
ObjectDBX Classes
 90
        0
280
     0
281
     0
  0
ENDSEC
  0
SECTION
  2
TABLES
  0
TABLE
  2
VPORT
  5
8
330
0
100
AcDbSymbolTable
 70
     1
  0
VPORT
  5
29
330
8
100
AcDbSymbolTableRecord
100
AcDbViewportTableRecord
  2
*Active
 70
     0
 10
0.0
 20
0.0
 11
1.0
 21
1.0
 12
105.0
 22
148.5
 13
0.0
 23
0.0
 14
10.0
 24
10.0
 15
10.0
 25
10.0
 16
0.0
 26
0.0
 36
1.0
 17
0.0
 27
0.0
 37
0.0
 40
297.0
 41
0.7070707071
 42
50.0
 43
0.0
 44
0.0
 50
0.0
 51
0.0
 71
     0
 72
  2000
 73
     1
 74
     3
 75
     0
 76
     0
 77
     0
 78
     0
281
     0
 65
     1
110
0.0
120
0.0
130
0.0
111
1.0
121
0.0
131
0.0
112
0.0
122
1.0
132
0.0
 79
     0
146
0.0
  0
ENDTAB
  0
TABLE
  2
LTYPE
  5
5
330
0
100
AcDbSymbolTable
 70
     6
  0
LTYPE
  5
14
330
5
100
AcDbSymbolTableRecord
100
AcDbLinetypeTableRecord
  2
ByBlock
 70
     0
  3

 72
    65
 73
     0
 40
0.0
  0
LTYPE
  5
15
330
5
100
AcDbSymbolTableRecord
100
AcDbLinetypeTableRecord
  2
ByLayer
 70
     0
  3

 72
    65
 73
     0
 40
0.0
  0
LTYPE
  5
16
330
5
100
AcDbSymbolTableRecord
100
AcDbLinetypeTableRecord
  2
Continuous
 70
     0
  3
Solid line
 72
    65
 73
     0
 40
0.0
  0
LTYPE
  5
3F
330
5
100
AcDbSymbolTableRecord
100
AcDbLinetypeTableRecord
  2
HIDDEN
 70
     0
  3
Hidden __ __ __ __ __ __ __ __ __ __ __ __ __ __
 72
    65
 73
     2
 40
1.905
 49
1.27
 74
     0
 49
-0.635
 74
     0
  0
LTYPE
  5
40
330
5
100
AcDbSymbolTableRecord
100
AcDbLinetypeTableRecord
  2
PHANTOM
 70
     0
  3
Phantom ______  __  __  ______  __  __  ______
 72
    65
 73
     6
 40
12.7
 49
6.35
 74
     0
 49
-1.27
 74
     0
 49
1.27
 74
     0
 49
-1.27
 74
     0
 49
1.27
 74
     0
 49
-1.27
 74
     0
  0
LTYPE
  5
41
330
5
100
AcDbSymbolTableRecord
100
AcDbLinetypeTableRecord
  2
CENTER
 70
     0
  3
Center ____ _ ____ _ ____ _ ____ _ ____ _ ____
 72
    65
 73
     4
 40
10.16
 49
6.35
 74
     0
 49
-1.27
 74
     0
 49
1.27
 74
     0
 49
-1.27
 74
     0
  0
LTYPE
  5
42
330
5
100
AcDbSymbolTableRecord
100
AcDbLinetypeTableRecord
  2
CENTERX2
 70
     0
  3
Center (2x) ________  __  ________  __  _____
 72
    65
 73
     4
 40
20.32
 49
12.7
 74
     0
 49
-2.54
 74
     0
 49
2.54
 74
     0
 49
-2.54
 74
     0
  0
LTYPE
  5
43
330
5
100
AcDbSymbolTableRecord
100
AcDbLinetypeTableRecord
  2
DOT2
 70
     0
  3
Dot (.5x) ........................................
 72
    65
 73
     2
 40
0.635
 49
0.0
 74
     0
 49
-0.635
 74
     0
  0
ENDTAB
  0
TABLE
  2
LAYER
  5
2
330
0
100
AcDbSymbolTable
 70
     1
  0
LAYER
  5
10
330
2
100
AcDbSymbolTableRecord
100
AcDbLayerTableRecord
  2
0
 70
     0
 62
     7
  6
Continuous
370
    -3
390
F
  0
ENDTAB
  0
TABLE
  2
STYLE
  5
3
330
0
100
AcDbSymbolTable
 70
     3
  0
STYLE
  5
11
330
3
100
AcDbSymbolTableRecord
100
AcDbTextStyleTableRecord
  2
Standard
 70
     0
 40
0.0
 41
1.0
 50
0.0
 71
     0
 42
3.5
  3
txt
  4
bigfont
  0
STYLE
  5
4C
330
3
100
AcDbSymbolTableRecord
100
AcDbTextStyleTableRecord
  2
SLDTEXTSTYLE0
 70
     0
 40
0.0
 41
0.7
 50
0.0
 71
     0
 42
0.2
  3
TXT
  4
bigfont
  0
STYLE
  5
1C5
330
3
100
AcDbSymbolTableRecord
100
AcDbTextStyleTableRecord
  2
SLDTEXTSTYLE1
 70
     0
 40
0.0
 41
0.75
 50
0.0
 71
     0
 42
0.2
  3
TXT
  4
bigfont
  0
ENDTAB
  0
TABLE
  2
VIEW
  5
6
330
0
100
AcDbSymbolTable
 70
     0
  0
ENDTAB
  0
TABLE
  2
UCS
  5
7
330
0
100
AcDbSymbolTable
 70
     0
  0
ENDTAB
  0
TABLE
  2
APPID
  5
9
330
0
100
AcDbSymbolTable
 70
     1
  0
APPID
  5
12
330
9
100
AcDbSymbolTableRecord
100
AcDbRegAppTableRecord
  2
ACAD
 70
     0
  0
ENDTAB
  0
TABLE
  2
DIMSTYLE
  5
A
330
0
100
AcDbSymbolTable
 70
     4
100
AcDbDimStyleTable
  0
DIMSTYLE
105
27
330
A
100
AcDbSymbolTableRecord
100
AcDbDimStyleTableRecord
  2
ISO-25
 70
     0
 41
2.5
 42
0.625
 43
3.75
 44
1.25
 73
     0
 74
     0
 77
     1
 78
     8
140
2.5
141
2.5
143
0.0393700787
147
0.625
171
     3
172
     1
178
     0
271
     2
272
     2
274
     3
278
    44
283
     0
284
     8
340
11
  0
DIMSTYLE
105
1C6
102
{ACAD_REACTORS
330
1C4
330
1DD
330
1F3
330
1FD
330
213
330
21D
330
227
330
23D
330
3DF
330
3E9
330
3F3
102
}
330
A
100
AcDbSymbolTableRecord
100
AcDbDimStyleTableRecord
  2
SLDDIMSTYLE0
 70
     0
 41
2.0
 44
0.0
 45
0.000000001
 73
     0
 74
     0
 77
     3
 78
    12
 79
     3
140
3.5
147
0.875
173
     1
178
     0
271
     1
272
     1
276
     2
284
    12
340
1C5
  0
DIMSTYLE
105
1D1
102
{ACAD_REACTORS
330
1D0
330
1E7
330
207
330
231
330
247
330
325
330
331
330
3FD
102
}
330
A
100
AcDbSymbolTableRecord
100
AcDbDimStyleTableRecord
  2
SLDDIMSTYLE1
 70
     0
 41
2.0
 44
0.0
 45
0.000000001
 73
     0
 74
     0
 77
     3
 78
    12
 79
     3
140
3.5
147
0.875
172
     1
173
     1
178
     0
271
     1
272
     1
276
     2
284
    12
289
     0
340
1C5
  0
DIMSTYLE
105
254
330
A
100
AcDbSymbolTableRecord
100
AcDbDimStyleTableRecord
  2
SLDDIMSTYLE2
 70
     0
 41
2.0
 44
0.0
 45
0.000000001
140
0.0
146
2.0
147
0.0
173
     1
178
     0
271
     0
272
     0
276
     2
340
11
  0
ENDTAB
  0
TABLE
  2
BLOCK_RECORD
  5
1
330
0
100
AcDbSymbolTable
 70
    28
  0
BLOCK_RECORD
  5
1F
330
1
100
AcDbSymbolTableRecord
100
AcDbBlockTableRecord
  2
*Model_Space
340
22
  0
BLOCK_RECORD
  5
1B
330
1
100
AcDbSymbolTableRecord
100
AcDbBlockTableRecord
  2
*Paper_Space
340
1E
  0
BLOCK_RECORD
  5
23
330
1
100
AcDbSymbolTableRecord
100
AcDbBlockTableRecord
  2
*Paper_Space0
340
26
  0
BLOCK_RECORD
  5
1C7
330
1
100
AcDbSymbolTableRecord
100
AcDbBlockTableRecord
  2
_D
340
0
  0
BLOCK_RECORD
  5
1D2
330
1
100
AcDbSymbolTableRecord
100
AcDbBlockTableRecord
  2
_D_1
340
0
  0
BLOCK_RECORD
  5
1DE
330
1
100
AcDbSymbolTableRecord
100
AcDbBlockTableRecord
  2
_D_2
340
0
  0
BLOCK_RECORD
  5
1E8
330
1
100
AcDbSymbolTableRecord
100
AcDbBlockTableRecord
  2
_D_3
340
0
  0
BLOCK_RECORD
  5
1F4
330
1
100
AcDbSymbolTableRecord
100
AcDbBlockTableRecord
  2
_D_4
340
0
  0
BLOCK_RECORD
  5
1FE
330
1
100
AcDbSymbolTableRecord
100
AcDbBlockTableRecord
  2
_D_5
340
0
  0
BLOCK_RECORD
  5
208
330
1
100
AcDbSymbolTableRecord
100
AcDbBlockTableRecord
  2
_D_6
340
0
  0
BLOCK_RECORD
  5
214
330
1
100
AcDbSymbolTableRecord
100
AcDbBlockTableRecord
  2
_D_7
340
0
  0
BLOCK_RECORD
  5
21E
330
1
100
AcDbSymbolTableRecord
100
AcDbBlockTableRecord
  2
_D_8
340
0
  0
BLOCK_RECORD
  5
228
330
1
100
AcDbSymbolTableRecord
100
AcDbBlockTableRecord
  2
_D_9
340
0
  0
BLOCK_RECORD
  5
232
330
1
100
AcDbSymbolTableRecord
100
AcDbBlockTableRecord
  2
_D_10
340
0
  0
BLOCK_RECORD
  5
23E
330
1
100
AcDbSymbolTableRecord
100
AcDbBlockTableRecord
  2
_D_11
340
0
  0
BLOCK_RECORD
  5
248
330
1
100
AcDbSymbolTableRecord
100
AcDbBlockTableRecord
  2
_D_12
340
0
  0
BLOCK_RECORD
  5
25E
330
1
100
AcDbSymbolTableRecord
100
AcDbBlockTableRecord
  2
SW_CENTERMARKSYMBOL_0
340
0
102
{BLKREFS
331
269
102
}
  0
BLOCK_RECORD
  5
26A
330
1
100
AcDbSymbolTableRecord
100
AcDbBlockTableRecord
  2
SW_CENTERMARKSYMBOL_1
340
0
102
{BLKREFS
331
275
102
}
  0
BLOCK_RECORD
  5
276
330
1
100
AcDbSymbolTableRecord
100
AcDbBlockTableRecord
  2
SW_CENTERMARKSYMBOL_2
340
0
102
{BLKREFS
331
281
102
}
  0
BLOCK_RECORD
  5
282
330
1
100
AcDbSymbolTableRecord
100
AcDbBlockTableRecord
  2
SW_CENTERMARKSYMBOL_3
340
0
102
{BLKREFS
331
28D
102
}
  0
BLOCK_RECORD
  5
28E
330
1
100
AcDbSymbolTableRecord
100
AcDbBlockTableRecord
  2
SW_CENTERMARKSYMBOL_4
340
0
102
{BLKREFS
331
299
102
}
  0
BLOCK_RECORD
  5
29A
330
1
100
AcDbSymbolTableRecord
100
AcDbBlockTableRecord
  2
SW_CENTERMARKSYMBOL_5
340
0
102
{BLKREFS
331
2A5
102
}
  0
BLOCK_RECORD
  5
326
330
1
100
AcDbSymbolTableRecord
100
AcDbBlockTableRecord
  2
_D_13
340
0
  0
BLOCK_RECORD
  5
332
330
1
100
AcDbSymbolTableRecord
100
AcDbBlockTableRecord
  2
_D_14
340
0
  0
BLOCK_RECORD
  5
3E0
330
1
100
AcDbSymbolTableRecord
100
AcDbBlockTableRecord
  2
_D_15
340
0
  0
BLOCK_RECORD
  5
3EA
330
1
100
AcDbSymbolTableRecord
100
AcDbBlockTableRecord
  2
_D_16
340
0
  0
BLOCK_RECORD
  5
3F4
330
1
100
AcDbSymbolTableRecord
100
AcDbBlockTableRecord
  2
_D_17
340
0
  0
BLOCK_RECORD
  5
3FE
330
1
100
AcDbSymbolTableRecord
100
AcDbBlockTableRecord
  2
_D_18
340
0
  0
BLOCK_RECORD
  5
40D
330
1
100
AcDbSymbolTableRecord
100
AcDbBlockTableRecord
  2
SW_CENTERMARKSYMBOL_6
340
0
102
{BLKREFS
331
418
102
}
  0
BLOCK_RECORD
  5
419
330
1
100
AcDbSymbolTableRecord
100
AcDbBlockTableRecord
  2
SW_CENTERMARKSYMBOL_7
340
0
102
{BLKREFS
331
424
102
}
  0
ENDTAB
  0
ENDSEC
  0
SECTION
  2
BLOCKS
  0
BLOCK
  5
20
330
1F
100
AcDbEntity
  8
0
100
AcDbBlockBegin
  2
*Model_Space
 70
     0
 10
0.0
 20
0.0
 30
0.0
  3
*Model_Space
  1

  0
ENDBLK
  5
21
330
1F
100
AcDbEntity
  8
0
100
AcDbBlockEnd
  0
BLOCK
  5
1C
330
1B
100
AcDbEntity
 67
     1
  8
0
100
AcDbBlockBegin
  2
*Paper_Space
 70
     0
 10
0.0
 20
0.0
 30
0.0
  3
*Paper_Space
  1

  0
ENDBLK
  5
1D
330
1B
100
AcDbEntity
 67
     1
  8
0
100
AcDbBlockEnd
  0
BLOCK
  5
24
330
23
100
AcDbEntity
  8
0
100
AcDbBlockBegin
  2
*Paper_Space0
 70
     0
 10
0.0
 20
0.0
 30
0.0
  3
*Paper_Space0
  1

  0
ENDBLK
  5
25
330
23
100
AcDbEntity
  8
0
100
AcDbBlockEnd
  0
BLOCK
  5
1C8
330
1C7
100
AcDbEntity
  8
0
100
AcDbBlockBegin
  2
_D
 70
     0
 10
0.0
 20
0.0
 30
0.0
  3
_D
  1

  0
SOLID
  5
1CA
330
1C7
100
AcDbEntity
  8
0
  6
Continuous
 62
     7
370
     0
100
AcDbTrace
 10
80.5201093896
 20
191.0780634147
 30
0.0
 11
82.5201093896
 21
190.3280634147
 31
0.0
 12
82.5201093896
 22
191.8280634147
 32
0.0
 13
82.5201093896
 23
191.8280634147
 33
0.0
  0
SOLID
  5
1CB
330
1C7
100
AcDbEntity
  8
0
  6
Continuous
 62
     7
370
     0
100
AcDbTrace
 10
165.5201093896
 20
191.0780634147
 30
0.0
 11
163.5201093896
 21
191.8280634147
 31
0.0
 12
163.5201093896
 22
190.3280634147
 32
0.0
 13
163.5201093896
 23
190.3280634147
 33
0.0
  0
LINE
  5
1CC
330
1C7
100
AcDbEntity
  8
0
  6
Continuous
 62
     7
370
     0
100
AcDbLine
 10
80.5201093896
 20
176.0780634147
 30
0.0
 11
80.5201093896
 21
192.0780634147
 31
0.0
  0
LINE
  5
1CD
330
1C7
100
AcDbEntity
  8
0
  6
Continuous
 62
     7
370
     0
100
AcDbLine
 10
165.5201093896
 20
176.0780634147
 30
0.0
 11
165.5201093896
 21
192.0780634147
 31
0.0
  0
LINE
  5
1CE
330
1C7
100
AcDbEntity
  8
0
  6
Continuous
 62
     7
370
     0
100
AcDbLine
 10
80.5201093896
 20
191.0780634147
 30
0.0
 11
165.5201093896
 21
191.0780634147
 31
0.0
  0
MTEXT
  5
1CF
330
1C7
100
AcDbEntity
  8
0
  6
Continuous
 62
     7
370
     0
100
AcDbMText
 10
120.4339981961
 20
195.5898003293
 30
-103.0
 40
3.5
 41
0.0
 71
     1
 72
     1
  1
85
  7
SLDTEXTSTYLE1
 73
     1
 44
1.0
  0
ENDBLK
  5
1C9
330
1C7
100
AcDbEntity
  8
0
100
AcDbBlockEnd
  0
BLOCK
  5
1D3
330
1D2
100
AcDbEntity
  8
0
100
AcDbBlockBegin
  2
_D_1
 70
     0
 10
0.0
 20
0.0
 30
0.0
  3
_D_1
  1

  0
SOLID
  5
1D5
330
1D2
100
AcDbEntity
  8
0
  6
Continuous
 62
     7
370
     0
100
AcDbTrace
 10
80.5201093896
 20
182.0531826462
 30
0.0
 11
78.5201093896
 21
182.8031826462
 31
0.0
 12
78.5201093896
 22
181.3031826462
 32
0.0
 13
78.5201093896
 23
181.3031826462
 33
0.0
  0
SOLID
  5
1D6
330
1D2
100
AcDbEntity
  8
0
  6
Continuous
 62
     7
370
     0
100
AcDbTrace
 10
98.0201093896
 20
182.0531826462
 30
0.0
 11
100.0201093896
 21
181.3031826462
 31
0.0
 12
100.0201093896
 22
182.8031826462
 32
0.0
 13
100.0201093896
 23
182.8031826462
 33
0.0
  0
LINE
  5
1D7
330
1D2
100
AcDbEntity
  8
0
  6
Continuous
 62
     7
370
     0
100
AcDbLine
 10
80.5201093896
 20
176.0780634147
 30
0.0
 11
80.5201093896
 21
183.0531826462
 31
0.0
  0
LINE
  5
1D8
330
1D2
100
AcDbEntity
  8
0
  6
Continuous
 62
     7
370
     0
100
AcDbLine
 10
98.0201093896
 20
155.0780634147
 30
0.0
 11
98.0201093896
 21
183.0531826462
 31
0.0
  0
LINE
  5
1D9
330
1D2
100
AcDbEntity
  8
0
  6
Continuous
 62
     7
370
     0
100
AcDbLine
 10
80.5201093896
 20
182.0531826462
 30
0.0
 11
75.5201093896
 21
182.0531826462
 31
0.0
  0
LINE
  5
1DA
330
1D2
100
AcDbEntity
  8
0
  6
Continuous
 62
     7
370
     0
100
AcDbLine
 10
80.5201093896
 20
182.0531826462
 30
0.0
 11
98.0201093896
 21
182.0531826462
 31
0.0
  0
LINE
  5
1DB
330
1D2
100
AcDbEntity
  8
0
  6
Continuous
 62
     7
370
     0
100
AcDbLine
 10
98.0201093896
 20
182.0531826462
 30
0.0
 11
103.0201093896
 21
182.0531826462
 31
0.0
  0
MTEXT
  5
1DC
330
1D2
100
AcDbEntity
  8
0
  6
Continuous
 62
     7
370
     0
100
AcDbMText
 10
84.7444148592
 20
186.5649195607
 30
-103.0
 40
3.5
 41
0.0
 71
     1
 72
     1
  1
17.5
  7
SLDTEXTSTYLE1
 73
     1
 44
1.0
  0
ENDBLK
  5
1D4
330
1D2
100
AcDbEntity
  8
0
100
AcDbBlockEnd
  0
BLOCK
  5
1DF
330
1DE
100
AcDbEntity
  8
0
100
AcDbBlockBegin
  2
_D_2
 70
     0
 10
0.0
 20
0.0
 30
0.0
  3
_D_2
  1

  0
SOLID
  5
1E1
330
1DE
100
AcDbEntity
  8
0
  6
Continuous
 62
     7
370
     0
100
AcDbTrace
 10
98.0201093896
 20
182.0531826462
 30
0.0
 11
100.0201093896
 21
181.3031826462
 31
0.0
 12
100.0201093896
 22
182.8031826462
 32
0.0
 13
100.0201093896
 23
182.8031826462
 33
0.0
  0
SOLID
  5
1E2
330
1DE
100
AcDbEntity
  8
0
  6
Continuous
 62
     7
370
     0
100
AcDbTrace
 10
148.0201093896
 20
182.0531826462
 30
0.0
 11
146.0201093896
 21
182.8031826462
 31
0.0
 12
146.0201093896
 22
181.3031826462
 32
0.0
 13
146.0201093896
 23
181.3031826462
 33
0.0
  0
LINE
  5
1E3
330
1DE
100
AcDbEntity
  8
0
  6
Continuous
 62
     7
370
     0
100
AcDbLine
 10
98.0201093896
 20
155.0780634147
 30
0.0
 11
98.0201093896
 21
183.0531826462
 31
0.0
  0
LINE
  5
1E4
330
1DE
100
AcDbEntity
  8
0
  6
Continuous
 62
     7
370
     0
100
AcDbLine
 10
148.0201093896
 20
155.0780634147
 30
0.0
 11
148.0201093896
 21
183.0531826462
 31
0.0
  0
LINE
  5
1E5
330
1DE
100
AcDbEntity
  8
0
  6
Continuous
 62
     7
370
     0
100
AcDbLine
 10
98.0201093896
 20
182.0531826462
 30
0.0
 11
148.0201093896
 21
182.0531826462
 31
0.0
  0
MTEXT
  5
1E6
330
1DE
100
AcDbEntity
  8
0
  6
Continuous
 62
     7
370
     0
100
AcDbMText
 10
120.4339981961
 20
186.5649195607
 30
-103.0
 40
3.5
 41
0.0
 71
     1
 72
     1
  1
50
  7
SLDTEXTSTYLE1
 73
     1
 44
1.0
  0
ENDBLK
  5
1E0
330
1DE
100
AcDbEntity
  8
0
100
AcDbBlockEnd
  0
BLOCK
  5
1E9
330
1E8
100
AcDbEntity
  8
0
100
AcDbBlockBegin
  2
_D_3
 70
     0
 10
0.0
 20
0.0
 30
0.0
  3
_D_3
  1

  0
SOLID
  5
1EB
330
1E8
100
AcDbEntity
  8
0
  6
Continuous
 62
     7
370
     0
100
AcDbTrace
 10
148.0201093896
 20
182.0531826462
 30
0.0
 11
146.0201093896
 21
182.8031826462
 31
0.0
 12
146.0201093896
 22
181.3031826462
 32
0.0
 13
146.0201093896
 23
181.3031826462
 33
0.0
  0
SOLID
  5
1EC
330
1E8
100
AcDbEntity
  8
0
  6
Continuous
 62
     7
370
     0
100
AcDbTrace
 10
165.5201093896
 20
182.0531826462
 30
0.0
 11
167.5201093896
 21
181.3031826462
 31
0.0
 12
167.5201093896
 22
182.8031826462
 32
0.0
 13
167.5201093896
 23
182.8031826462
 33
0.0
  0
LINE
  5
1ED
330
1E8
100
AcDbEntity
  8
0
  6
Continuous
 62
     7
370
     0
100
AcDbLine
 10
148.0201093896
 20
155.0780634147
 30
0.0
 11
148.0201093896
 21
183.0531826462
 31
0.0
  0
LINE
  5
1EE
330
1E8
100
AcDbEntity
  8
0
  6
Continuous
 62
     7
370
     0
100
AcDbLine
 10
165.5201093896
 20
176.0780634147
 30
0.0
 11
165.5201093896
 21
183.0531826462
 31
0.0
  0
LINE
  5
1EF
330
1E8
100
AcDbEntity
  8
0
  6
Continuous
 62
     7
370
     0
100
AcDbLine
 10
148.0201093896
 20
182.0531826462
 30
0.0
 11
143.0201093896
 21
182.0531826462
 31
0.0
  0
LINE
  5
1F0
330
1E8
100
AcDbEntity
  8
0
  6
Continuous
 62
     7
370
     0
100
AcDbLine
 10
148.0201093896
 20
182.0531826462
 30
0.0
 11
165.5201093896
 21
182.0531826462
 31
0.0
  0
LINE
  5
1F1
330
1E8
100
AcDbEntity
  8
0
  6
Continuous
 62
     7
370
     0
100
AcDbLine
 10
165.5201093896
 20
182.0531826462
 30
0.0
 11
170.5201093896
 21
182.0531826462
 31
0.0
  0
MTEXT
  5
1F2
330
1E8
100
AcDbEntity
  8
0
  6
Continuous
 62
     7
370
     0
100
AcDbMText
 10
152.2444148592
 20
186.5649195607
 30
-103.0
 40
3.5
 41
0.0
 71
     1
 72
     1
  1
17.5
  7
SLDTEXTSTYLE1
 73
     1
 44
1.0
  0
ENDBLK
  5
1EA
330
1E8
100
AcDbEntity
  8
0
100
AcDbBlockEnd
  0
BLOCK
  5
1F5
330
1F4
100
AcDbEntity
  8
0
100
AcDbBlockBegin
  2
_D_4
 70
     0
 10
0.0
 20
0.0
 30
0.0
  3
_D_4
  1

  0
SOLID
  5
1F7
330
1F4
100
AcDbEntity
  8
0
  6
Continuous
 62
     7
370
     0
100
AcDbTrace
 10
193.9569010614
 20
175.0780634147
 30
0.0
 11
193.2069010614
 21
173.0780634147
 31
0.0
 12
194.7069010614
 22
173.0780634147
 32
0.0
 13
194.7069010614
 23
173.0780634147
 33
0.0
  0
SOLID
  5
1F8
330
1F4
100
AcDbEntity
  8
0
  6
Continuous
 62
     7
370
     0
100
AcDbTrace
 10
193.9569010614
 20
149.0780634147
 30
0.0
 11
194.7069010614
 21
151.0780634147
 31
0.0
 12
193.2069010614
 22
151.0780634147
 32
0.0
 13
193.2069010614
 23
151.0780634147
 33
0.0
  0
LINE
  5
1F9
330
1F4
100
AcDbEntity
  8
0
  6
Continuous
 62
     7
370
     0
100
AcDbLine
 10
166.5201093896
 20
175.0780634147
 30
0.0
 11
194.9569010614
 21
175.0780634147
 31
0.0
  0
LINE
  5
1FA
330
1F4
100
AcDbEntity
  8
0
  6
Continuous
 62
     7
370
     0
100
AcDbLine
 10
154.0201093896
 20
149.0780634147
 30
0.0
 11
194.9569010614
 21
149.0780634147
 31
0.0
  0
LINE
  5
1FB
330
1F4
100
AcDbEntity
  8
0
  6
Continuous
 62
     7
370
     0
100
AcDbLine
 10
193.9569010614
 20
175.0780634147
 30
0.0
 11
193.9569010614
 21
149.0780634147
 31
0.0
  0
MTEXT
  5
1FC
330
1F4
100
AcDbEntity
  8
0
  6
Continuous
 62
     7
370
     0
100
AcDbMText
 10
189.4451641468
 20
159.4919522212
 30
-103.0
 40
3.5
 41
0.0
 71
     1
 72
     1
  1
26
  7
SLDTEXTSTYLE1
 11
-7.044195017643634E-15
 21
1.0
 31
0.0
 73
     1
 44
1.0
  0
ENDBLK
  5
1F6
330
1F4
100
AcDbEntity
  8
0
100
AcDbBlockEnd
  0
BLOCK
  5
1FF
330
1FE
100
AcDbEntity
  8
0
100
AcDbBlockBegin
  2
_D_5
 70
     0
 10
0.0
 20
0.0
 30
0.0
  3
_D_5
  1

  0
SOLID
  5
201
330
1FE
100
AcDbEntity
  8
0
  6
Continuous
 62
     7
370
     0
100
AcDbTrace
 10
193.9569010614
 20
149.0780634147
 30
0.0
 11
193.2069010614
 21
147.0780634147
 31
0.0
 12
194.7069010614
 22
147.0780634147
 32
0.0
 13
194.7069010614
 23
147.0780634147
 33
0.0
  0
SOLID
  5
202
330
1FE
100
AcDbEntity
  8
0
  6
Continuous
 62
     7
370
     0
100
AcDbTrace
 10
193.9569010614
 20
129.0780634147
 30
0.0
 11
194.7069010614
 21
131.0780634147
 31
0.0
 12
193.2069010614
 22
131.0780634147
 32
0.0
 13
193.2069010614
 23
131.0780634147
 33
0.0
  0
LINE
  5
203
330
1FE
100
AcDbEntity
  8
0
  6
Continuous
 62
     7
370
     0
100
AcDbLine
 10
154.0201093896
 20
149.0780634147
 30
0.0
 11
194.9569010614
 21
149.0780634147
 31
0.0
  0
LINE
  5
204
330
1FE
100
AcDbEntity
  8
0
  6
Continuous
 62
     7
370
     0
100
AcDbLine
 10
154.0201093896
 20
129.0780634147
 30
0.0
 11
194.9569010614
 21
129.0780634147
 31
0.0
  0
LINE
  5
205
330
1FE
100
AcDbEntity
  8
0
  6
Continuous
 62
     7
370
     0
100
AcDbLine
 10
193.9569010614
 20
149.0780634147
 30
0.0
 11
193.9569010614
 21
129.0780634147
 31
0.0
  0
MTEXT
  5
206
330
1FE
100
AcDbEntity
  8
0
  6
Continuous
 62
     7
370
     0
100
AcDbMText
 10
189.4451641468
 20
136.4919522212
 30
-103.0
 40
3.5
 41
0.0
 71
     1
 72
     1
  1
20
  7
SLDTEXTSTYLE1
 11
-7.044195017643634E-15
 21
1.0
 31
0.0
 73
     1
 44
1.0
  0
ENDBLK
  5
200
330
1FE
100
AcDbEntity
  8
0
100
AcDbBlockEnd
  0
BLOCK
  5
209
330
208
100
AcDbEntity
  8
0
100
AcDbBlockBegin
  2
_D_6
 70
     0
 10
0.0
 20
0.0
 30
0.0
  3
_D_6
  1

  0
SOLID
  5
20B
330
208
100
AcDbEntity
  8
0
  6
Continuous
 62
     7
370
     0
100
AcDbTrace
 10
193.9569010614
 20
129.0780634147
 30
0.0
 11
194.7069010614
 21
131.0780634147
 31
0.0
 12
193.2069010614
 22
131.0780634147
 32
0.0
 13
193.2069010614
 23
131.0780634147
 33
0.0
  0
SOLID
  5
20C
330
208
100
AcDbEntity
  8
0
  6
Continuous
 62
     7
370
     0
100
AcDbTrace
 10
193.9569010614
 20
115.0780634147
 30
0.0
 11
193.2069010614
 21
113.0780634147
 31
0.0
 12
194.7069010614
 22
113.0780634147
 32
0.0
 13
194.7069010614
 23
113.0780634147
 33
0.0
  0
LINE
  5
20D
330
208
100
AcDbEntity
  8
0
  6
Continuous
 62
     7
370
     0
100
AcDbLine
 10
154.0201093896
 20
129.0780634147
 30
0.0
 11
194.9569010614
 21
129.0780634147
 31
0.0
  0
LINE
  5
20E
330
208
100
AcDbEntity
  8
0
  6
Continuous
 62
     7
370
     0
100
AcDbLine
 10
166.5201093896
 20
115.0780634147
 30
0.0
 11
194.9569010614
 21
115.0780634147
 31
0.0
  0
LINE
  5
20F
330
208
100
AcDbEntity
  8
0
  6
Continuous
 62
     7
370
     0
100
AcDbLine
 10
193.9569010614
 20
129.0780634147
 30
0.0
 11
193.9569010614
 21
134.0780634147
 31
0.0
  0
LINE
  5
210
330
208
100
AcDbEntity
  8
0
  6
Continuous
 62
     7
370
     0
100
AcDbLine
 10
193.9569010614
 20
129.0780634147
 30
0.0
 11
193.9569010614
 21
115.0780634147
 31
0.0
  0
LINE
  5
211
330
208
100
AcDbEntity
  8
0
  6
Continuous
 62
     7
370
     0
100
AcDbLine
 10
193.9569010614
 20
115.0780634147
 30
0.0
 11
193.9569010614
 21
110.0780634147
 31
0.0
  0
MTEXT
  5
212
330
208
100
AcDbEntity
  8
0
  6
Continuous
 62
     7
370
     0
100
AcDbMText
 10
189.4451641468
 20
119.4919522212
 30
-103.0
 40
3.5
 41
0.0
 71
     1
 72
     1
  1
14
  7
SLDTEXTSTYLE1
 11
-7.044195017643634E-15
 21
1.0
 31
0.0
 73
     1
 44
1.0
  0
ENDBLK
  5
20A
330
208
100
AcDbEntity
  8
0
100
AcDbBlockEnd
  0
BLOCK
  5
215
330
214
100
AcDbEntity
  8
0
100
AcDbBlockBegin
  2
_D_7
 70
     0
 10
0.0
 20
0.0
 30
0.0
  3
_D_7
  1

  0
SOLID
  5
217
330
214
100
AcDbEntity
  8
0
  6
Continuous
 62
     7
370
     0
100
AcDbTrace
 10
54.0201093896
 20
175.0780634147
 30
0.0
 11
53.2701093896
 21
173.0780634147
 31
0.0
 12
54.7701093896
 22
173.0780634147
 32
0.0
 13
54.7701093896
 23
173.0780634147
 33
0.0
  0
SOLID
  5
218
330
214
100
AcDbEntity
  8
0
  6
Continuous
 62
     7
370
     0
100
AcDbTrace
 10
54.0201093896
 20
139.0780634147
 30
0.0
 11
54.7701093896
 21
141.0780634147
 31
0.0
 12
53.2701093896
 22
141.0780634147
 32
0.0
 13
53.2701093896
 23
141.0780634147
 33
0.0
  0
LINE
  5
219
330
214
100
AcDbEntity
  8
0
  6
Continuous
 62
     7
370
     0
100
AcDbLine
 10
79.5201093896
 20
175.0780634147
 30
0.0
 11
53.0201093896
 21
175.0780634147
 31
0.0
  0
LINE
  5
21A
330
214
100
AcDbEntity
  8
0
  6
Continuous
 62
     7
370
     0
100
AcDbLine
 10
81.2701093896
 20
139.0780634147
 30
0.0
 11
53.0201093896
 21
139.0780634147
 31
0.0
  0
LINE
  5
21B
330
214
100
AcDbEntity
  8
0
  6
Continuous
 62
     7
370
     0
100
AcDbLine
 10
54.0201093896
 20
175.0780634147
 30
0.0
 11
54.0201093896
 21
139.0780634147
 31
0.0
  0
MTEXT
  5
21C
330
214
100
AcDbEntity
  8
0
  6
Continuous
 62
     7
370
     0
100
AcDbMText
 10
49.508372475
 20
154.4919522212
 30
-103.0
 40
3.5
 41
0.0
 71
     1
 72
     1
  1
36
  7
SLDTEXTSTYLE1
 11
-7.044195017643634E-15
 21
1.0
 31
0.0
 73
     1
 44
1.0
  0
ENDBLK
  5
216
330
214
100
AcDbEntity
  8
0
100
AcDbBlockEnd
  0
BLOCK
  5
21F
330
21E
100
AcDbEntity
  8
0
100
AcDbBlockBegin
  2
_D_8
 70
     0
 10
0.0
 20
0.0
 30
0.0
  3
_D_8
  1

  0
SOLID
  5
221
330
21E
100
AcDbEntity
  8
0
  6
Continuous
 62
     7
370
     0
100
AcDbTrace
 10
54.0201093896
 20
139.0780634147
 30
0.0
 11
53.2701093896
 21
137.0780634147
 31
0.0
 12
54.7701093896
 22
137.0780634147
 32
0.0
 13
54.7701093896
 23
137.0780634147
 33
0.0
  0
SOLID
  5
222
330
21E
100
AcDbEntity
  8
0
  6
Continuous
 62
     7
370
     0
100
AcDbTrace
 10
54.0201093896
 20
115.0780634147
 30
0.0
 11
54.7701093896
 21
117.0780634147
 31
0.0
 12
53.2701093896
 22
117.0780634147
 32
0.0
 13
53.2701093896
 23
117.0780634147
 33
0.0
  0
LINE
  5
223
330
21E
100
AcDbEntity
  8
0
  6
Continuous
 62
     7
370
     0
100
AcDbLine
 10
81.2701093896
 20
139.0780634147
 30
0.0
 11
53.0201093896
 21
139.0780634147
 31
0.0
  0
LINE
  5
224
330
21E
100
AcDbEntity
  8
0
  6
Continuous
 62
     7
370
     0
100
AcDbLine
 10
79.5201093896
 20
115.0780634147
 30
0.0
 11
53.0201093896
 21
115.0780634147
 31
0.0
  0
LINE
  5
225
330
21E
100
AcDbEntity
  8
0
  6
Continuous
 62
     7
370
     0
100
AcDbLine
 10
54.0201093896
 20
139.0780634147
 30
0.0
 11
54.0201093896
 21
115.0780634147
 31
0.0
  0
MTEXT
  5
226
330
21E
100
AcDbEntity
  8
0
  6
Continuous
 62
     7
370
     0
100
AcDbMText
 10
49.508372475
 20
124.4919522212
 30
-103.0
 40
3.5
 41
0.0
 71
     1
 72
     1
  1
24
  7
SLDTEXTSTYLE1
 11
-7.044195017643634E-15
 21
1.0
 31
0.0
 73
     1
 44
1.0
  0
ENDBLK
  5
220
330
21E
100
AcDbEntity
  8
0
100
AcDbBlockEnd
  0
BLOCK
  5
229
330
228
100
AcDbEntity
  8
0
100
AcDbBlockBegin
  2
_D_9
 70
     0
 10
0.0
 20
0.0
 30
0.0
  3
_D_9
  1

  0
SOLID
  5
22B
330
228
100
AcDbEntity
  8
0
  6
Continuous
 62
     7
370
     0
100
AcDbTrace
 10
39.0563063545
 20
175.0780634147
 30
0.0
 11
38.3063063545
 21
173.0780634147
 31
0.0
 12
39.8063063545
 22
173.0780634147
 32
0.0
 13
39.8063063545
 23
173.0780634147
 33
0.0
  0
SOLID
  5
22C
330
228
100
AcDbEntity
  8
0
  6
Continuous
 62
     7
370
     0
100
AcDbTrace
 10
39.0563063545
 20
115.0780634147
 30
0.0
 11
39.8063063545
 21
117.0780634147
 31
0.0
 12
38.3063063545
 22
117.0780634147
 32
0.0
 13
38.3063063545
 23
117.0780634147
 33
0.0
  0
LINE
  5
22D
330
228
100
AcDbEntity
  8
0
  6
Continuous
 62
     7
370
     0
100
AcDbLine
 10
79.5201093896
 20
175.0780634147
 30
0.0
 11
38.0563063545
 21
175.0780634147
 31
0.0
  0
LINE
  5
22E
330
228
100
AcDbEntity
  8
0
  6
Continuous
 62
     7
370
     0
100
AcDbLine
 10
79.5201093896
 20
115.0780634147
 30
0.0
 11
38.0563063545
 21
115.0780634147
 31
0.0
  0
LINE
  5
22F
330
228
100
AcDbEntity
  8
0
  6
Continuous
 62
     7
370
     0
100
AcDbLine
 10
39.0563063545
 20
175.0780634147
 30
0.0
 11
39.0563063545
 21
115.0780634147
 31
0.0
  0
MTEXT
  5
230
330
228
100
AcDbEntity
  8
0
  6
Continuous
 62
     7
370
     0
100
AcDbMText
 10
34.5445694399
 20
142.4919522212
 30
-103.0
 40
3.5
 41
0.0
 71
     1
 72
     1
  1
60
  7
SLDTEXTSTYLE1
 11
-7.044195017643634E-15
 21
1.0
 31
0.0
 73
     1
 44
1.0
  0
ENDBLK
  5
22A
330
228
100
AcDbEntity
  8
0
100
AcDbBlockEnd
  0
BLOCK
  5
233
330
232
100
AcDbEntity
  8
0
100
AcDbBlockBegin
  2
_D_10
 70
     0
 10
0.0
 20
0.0
 30
0.0
  3
_D_10
  1

  0
SOLID
  5
235
330
232
100
AcDbEntity
  8
0
  6
Continuous
 62
     7
370
     0
100
AcDbTrace
 10
80.5201093896
 20
105.0780634147
 30
0.0
 11
78.5201093896
 21
105.8280634147
 31
0.0
 12
78.5201093896
 22
104.3280634147
 32
0.0
 13
78.5201093896
 23
104.3280634147
 33
0.0
  0
SOLID
  5
236
330
232
100
AcDbEntity
  8
0
  6
Continuous
 62
     7
370
     0
100
AcDbTrace
 10
88.0201093896
 20
105.0780634147
 30
0.0
 11
90.0201093896
 21
104.3280634147
 31
0.0
 12
90.0201093896
 22
105.8280634147
 32
0.0
 13
90.0201093896
 23
105.8280634147
 33
0.0
  0
LINE
  5
237
330
232
100
AcDbEntity
  8
0
  6
Continuous
 62
     7
370
     0
100
AcDbLine
 10
80.5201093896
 20
114.0780634147
 30
0.0
 11
80.5201093896
 21
104.0780634147
 31
0.0
  0
LINE
  5
238
330
232
100
AcDbEntity
  8
0
  6
Continuous
 62
     7
370
     0
100
AcDbLine
 10
88.0201093896
 20
132.3280634147
 30
0.0
 11
88.0201093896
 21
104.0780634147
 31
0.0
  0
LINE
  5
239
330
232
100
AcDbEntity
  8
0
  6
Continuous
 62
     7
370
     0
100
AcDbLine
 10
80.5201093896
 20
105.0780634147
 30
0.0
 11
71.155954246
 21
105.0780634147
 31
0.0
  0
LINE
  5
23A
330
232
100
AcDbEntity
  8
0
  6
Continuous
 62
     7
370
     0
100
AcDbLine
 10
80.5201093896
 20
105.0780634147
 30
0.0
 11
88.0201093896
 21
105.0780634147
 31
0.0
  0
LINE
  5
23B
330
232
100
AcDbEntity
  8
0
  6
Continuous
 62
     7
370
     0
100
AcDbLine
 10
88.0201093896
 20
105.0780634147
 30
0.0
 11
93.0201093896
 21
105.0780634147
 31
0.0
  0
MTEXT
  5
23C
330
232
100
AcDbEntity
  8
0
  6
Continuous
 62
     7
370
     0
100
AcDbMText
 10
71.155954246
 20
109.5898003293
 30
-103.0
 40
3.5
 41
0.0
 71
     1
 72
     1
  1
7.5
  7
SLDTEXTSTYLE1
 73
     1
 44
1.0
  0
ENDBLK
  5
234
330
232
100
AcDbEntity
  8
0
100
AcDbBlockEnd
  0
BLOCK
  5
23F
330
23E
100
AcDbEntity
  8
0
100
AcDbBlockBegin
  2
_D_11
 70
     0
 10
0.0
 20
0.0
 30
0.0
  3
_D_11
  1

  0
SOLID
  5
241
330
23E
100
AcDbEntity
  8
0
  6
Continuous
 62
     7
370
     0
100
AcDbTrace
 10
88.0201093896
 20
105.0780634147
 30
0.0
 11
90.0201093896
 21
104.3280634147
 31
0.0
 12
90.0201093896
 22
105.8280634147
 32
0.0
 13
90.0201093896
 23
105.8280634147
 33
0.0
  0
SOLID
  5
242
330
23E
100
AcDbEntity
  8
0
  6
Continuous
 62
     7
370
     0
100
AcDbTrace
 10
158.0201093896
 20
105.0780634147
 30
0.0
 11
156.0201093896
 21
105.8280634147
 31
0.0
 12
156.0201093896
 22
104.3280634147
 32
0.0
 13
156.0201093896
 23
104.3280634147
 33
0.0
  0
LINE
  5
243
330
23E
100
AcDbEntity
  8
0
  6
Continuous
 62
     7
370
     0
100
AcDbLine
 10
88.0201093896
 20
132.3280634147
 30
0.0
 11
88.0201093896
 21
104.0780634147
 31
0.0
  0
LINE
  5
244
330
23E
100
AcDbEntity
  8
0
  6
Continuous
 62
     7
370
     0
100
AcDbLine
 10
158.0201093896
 20
132.3280634147
 30
0.0
 11
158.0201093896
 21
104.0780634147
 31
0.0
  0
LINE
  5
245
330
23E
100
AcDbEntity
  8
0
  6
Continuous
 62
     7
370
     0
100
AcDbLine
 10
88.0201093896
 20
105.0780634147
 30
0.0
 11
158.0201093896
 21
105.0780634147
 31
0.0
  0
MTEXT
  5
246
330
23E
100
AcDbEntity
  8
0
  6
Continuous
 62
     7
370
     0
100
AcDbMText
 10
120.4339981961
 20
109.5898003293
 30
-103.0
 40
3.5
 41
0.0
 71
     1
 72
     1
  1
70
  7
SLDTEXTSTYLE1
 73
     1
 44
1.0
  0
ENDBLK
  5
240
330
23E
100
AcDbEntity
  8
0
100
AcDbBlockEnd
  0
BLOCK
  5
249
330
248
100
AcDbEntity
  8
0
100
AcDbBlockBegin
  2
_D_12
 70
     0
 10
0.0
 20
0.0
 30
0.0
  3
_D_12
  1

  0
SOLID
  5
24B
330
248
100
AcDbEntity
  8
0
  6
Continuous
 62
     7
370
     0
100
AcDbTrace
 10
158.0201093896
 20
105.0780634147
 30
0.0
 11
156.0201093896
 21
105.8280634147
 31
0.0
 12
156.0201093896
 22
104.3280634147
 32
0.0
 13
156.0201093896
 23
104.3280634147
 33
0.0
  0
SOLID
  5
24C
330
248
100
AcDbEntity
  8
0
  6
Continuous
 62
     7
370
     0
100
AcDbTrace
 10
165.5201093896
 20
105.0780634147
 30
0.0
 11
167.5201093896
 21
104.3280634147
 31
0.0
 12
167.5201093896
 22
105.8280634147
 32
0.0
 13
167.5201093896
 23
105.8280634147
 33
0.0
  0
LINE
  5
24D
330
248
100
AcDbEntity
  8
0
  6
Continuous
 62
     7
370
     0
100
AcDbLine
 10
158.0201093896
 20
132.3280634147
 30
0.0
 11
158.0201093896
 21
104.0780634147
 31
0.0
  0
LINE
  5
24E
330
248
100
AcDbEntity
  8
0
  6
Continuous
 62
     7
370
     0
100
AcDbLine
 10
165.5201093896
 20
114.0780634147
 30
0.0
 11
165.5201093896
 21
104.0780634147
 31
0.0
  0
LINE
  5
24F
330
248
100
AcDbEntity
  8
0
  6
Continuous
 62
     7
370
     0
100
AcDbLine
 10
158.0201093896
 20
105.0780634147
 30
0.0
 11
153.0201093896
 21
105.0780634147
 31
0.0
  0
LINE
  5
250
330
248
100
AcDbEntity
  8
0
  6
Continuous
 62
     7
370
     0
100
AcDbLine
 10
158.0201093896
 20
105.0780634147
 30
0.0
 11
165.5201093896
 21
105.0780634147
 31
0.0
  0
LINE
  5
251
330
248
100
AcDbEntity
  8
0
  6
Continuous
 62
     7
370
     0
100
AcDbLine
 10
165.5201093896
 20
105.0780634147
 30
0.0
 11
176.1198916815
 21
105.0780634147
 31
0.0
  0
MTEXT
  5
252
330
248
100
AcDbEntity
  8
0
  6
Continuous
 62
     7
370
     0
100
AcDbMText
 10
169.654614047
 20
109.5898003293
 30
-103.0
 40
3.5
 41
0.0
 71
     1
 72
     1
  1
7.5
  7
SLDTEXTSTYLE1
 73
     1
 44
1.0
  0
ENDBLK
  5
24A
330
248
100
AcDbEntity
  8
0
100
AcDbBlockEnd
  0
BLOCK
  5
25F
330
25E
100
AcDbEntity
  8
0
100
AcDbBlockBegin
  2
SW_CENTERMARKSYMBOL_0
 70
     0
 10
0.0
 20
0.0
 30
0.0
  3
SW_CENTERMARKSYMBOL_0
  1

  0
LINE
  5
261
330
25E
100
AcDbEntity
  8
0
  6
Continuous
 62
     0
370
     0
100
AcDbLine
 10
0.0
 20
0.0
 30
0.0
 11
0.0
 21
2.5
 31
0.0
  0
LINE
  5
262
330
25E
100
AcDbEntity
  8
0
  6
Continuous
 62
     0
370
     0
100
AcDbLine
 10
0.0
 20
0.0
 30
0.0
 11
-2.5
 21
0.0
 31
0.0
  0
LINE
  5
263
330
25E
100
AcDbEntity
  8
0
  6
Continuous
 62
     0
370
     0
100
AcDbLine
 10
0.0
 20
0.0
 30
0.0
 11
0.0
 21
-2.5
 31
0.0
  0
LINE
  5
264
330
25E
100
AcDbEntity
  8
0
  6
Continuous
 62
     0
370
     0
100
AcDbLine
 10
0.0
 20
0.0
 30
0.0
 11
2.5
 21
0.0
 31
0.0
  0
LINE
  5
265
330
25E
100
AcDbEntity
  8
0
  6
Continuous
 62
     0
370
     0
100
AcDbLine
 10
0.0
 20
2.5
 30
0.0
 11
0.0
 21
5.0
 31
0.0
  0
LINE
  5
266
330
25E
100
AcDbEntity
  8
0
  6
Continuous
 62
     0
370
     0
100
AcDbLine
 10
-2.5
 20
0.0
 30
0.0
 11
-5.0
 21
0.0
 31
0.0
  0
LINE
  5
267
330
25E
100
AcDbEntity
  8
0
  6
Continuous
 62
     0
370
     0
100
AcDbLine
 10
0.0
 20
-2.5
 30
0.0
 11
0.0
 21
-5.0
 31
0.0
  0
LINE
  5
268
330
25E
100
AcDbEntity
  8
0
  6
Continuous
 62
     0
370
     0
100
AcDbLine
 10
2.5
 20
0.0
 30
0.0
 11
5.0
 21
0.0
 31
0.0
  0
ENDBLK
  5
260
330
25E
100
AcDbEntity
  8
0
100
AcDbBlockEnd
  0
BLOCK
  5
26B
330
26A
100
AcDbEntity
  8
0
100
AcDbBlockBegin
  2
SW_CENTERMARKSYMBOL_1
 70
     0
 10
0.0
 20
0.0
 30
0.0
  3
SW_CENTERMARKSYMBOL_1
  1

  0
LINE
  5
26D
330
26A
100
AcDbEntity
  8
0
  6
Continuous
 62
     0
370
     0
100
AcDbLine
 10
0.0
 20
0.0
 30
0.0
 11
0.0
 21
2.5
 31
0.0
  0
LINE
  5
26E
330
26A
100
AcDbEntity
  8
0
  6
Continuous
 62
     0
370
     0
100
AcDbLine
 10
0.0
 20
0.0
 30
0.0
 11
-2.5
 21
0.0
 31
0.0
  0
LINE
  5
26F
330
26A
100
AcDbEntity
  8
0
  6
Continuous
 62
     0
370
     0
100
AcDbLine
 10
0.0
 20
0.0
 30
0.0
 11
0.0
 21
-2.5
 31
0.0
  0
LINE
  5
270
330
26A
100
AcDbEntity
  8
0
  6
Continuous
 62
     0
370
     0
100
AcDbLine
 10
0.0
 20
0.0
 30
0.0
 11
2.5
 21
0.0
 31
0.0
  0
LINE
  5
271
330
26A
100
AcDbEntity
  8
0
  6
Continuous
 62
     0
370
     0
100
AcDbLine
 10
0.0
 20
2.5
 30
0.0
 11
0.0
 21
5.0
 31
0.0
  0
LINE
  5
272
330
26A
100
AcDbEntity
  8
0
  6
Continuous
 62
     0
370
     0
100
AcDbLine
 10
-2.5
 20
0.0
 30
0.0
 11
-5.0
 21
0.0
 31
0.0
  0
LINE
  5
273
330
26A
100
AcDbEntity
  8
0
  6
Continuous
 62
     0
370
     0
100
AcDbLine
 10
0.0
 20
-2.5
 30
0.0
 11
0.0
 21
-5.0
 31
0.0
  0
LINE
  5
274
330
26A
100
AcDbEntity
  8
0
  6
Continuous
 62
     0
370
     0
100
AcDbLine
 10
2.5
 20
0.0
 30
0.0
 11
5.0
 21
0.0
 31
0.0
  0
ENDBLK
  5
26C
330
26A
100
AcDbEntity
  8
0
100
AcDbBlockEnd
  0
BLOCK
  5
277
330
276
100
AcDbEntity
  8
0
100
AcDbBlockBegin
  2
SW_CENTERMARKSYMBOL_2
 70
     0
 10
0.0
 20
0.0
 30
0.0
  3
SW_CENTERMARKSYMBOL_2
  1

  0
LINE
  5
279
330
276
100
AcDbEntity
  8
0
  6
Continuous
 62
     0
370
     0
100
AcDbLine
 10
0.0
 20
0.0
 30
0.0
 11
0.0
 21
2.5
 31
0.0
  0
LINE
  5
27A
330
276
100
AcDbEntity
  8
0
  6
Continuous
 62
     0
370
     0
100
AcDbLine
 10
0.0
 20
0.0
 30
0.0
 11
-2.5
 21
0.0
 31
0.0
  0
LINE
  5
27B
330
276
100
AcDbEntity
  8
0
  6
Continuous
 62
     0
370
     0
100
AcDbLine
 10
0.0
 20
0.0
 30
0.0
 11
0.0
 21
-2.5
 31
0.0
  0
LINE
  5
27C
330
276
100
AcDbEntity
  8
0
  6
Continuous
 62
     0
370
     0
100
AcDbLine
 10
0.0
 20
0.0
 30
0.0
 11
2.5
 21
0.0
 31
0.0
  0
LINE
  5
27D
330
276
100
AcDbEntity
  8
0
  6
Continuous
 62
     0
370
     0
100
AcDbLine
 10
0.0
 20
2.5
 30
0.0
 11
0.0
 21
5.0
 31
0.0
  0
LINE
  5
27E
330
276
100
AcDbEntity
  8
0
  6
Continuous
 62
     0
370
     0
100
AcDbLine
 10
-2.5
 20
0.0
 30
0.0
 11
-5.0
 21
0.0
 31
0.0
  0
LINE
  5
27F
330
276
100
AcDbEntity
  8
0
  6
Continuous
 62
     0
370
     0
100
AcDbLine
 10
0.0
 20
-2.5
 30
0.0
 11
0.0
 21
-5.0
 31
0.0
  0
LINE
  5
280
330
276
100
AcDbEntity
  8
0
  6
Continuous
 62
     0
370
     0
100
AcDbLine
 10
2.5
 20
0.0
 30
0.0
 11
5.0
 21
0.0
 31
0.0
  0
ENDBLK
  5
278
330
276
100
AcDbEntity
  8
0
100
AcDbBlockEnd
  0
BLOCK
  5
283
330
282
100
AcDbEntity
  8
0
100
AcDbBlockBegin
  2
SW_CENTERMARKSYMBOL_3
 70
     0
 10
0.0
 20
0.0
 30
0.0
  3
SW_CENTERMARKSYMBOL_3
  1

  0
LINE
  5
285
330
282
100
AcDbEntity
  8
0
  6
Continuous
 62
     0
370
     0
100
AcDbLine
 10
0.0
 20
0.0
 30
0.0
 11
0.0
 21
2.5
 31
0.0
  0
LINE
  5
286
330
282
100
AcDbEntity
  8
0
  6
Continuous
 62
     0
370
     0
100
AcDbLine
 10
0.0
 20
0.0
 30
0.0
 11
-2.5
 21
0.0
 31
0.0
  0
LINE
  5
287
330
282
100
AcDbEntity
  8
0
  6
Continuous
 62
     0
370
     0
100
AcDbLine
 10
0.0
 20
0.0
 30
0.0
 11
0.0
 21
-2.5
 31
0.0
  0
LINE
  5
288
330
282
100
AcDbEntity
  8
0
  6
Continuous
 62
     0
370
     0
100
AcDbLine
 10
0.0
 20
0.0
 30
0.0
 11
2.5
 21
0.0
 31
0.0
  0
LINE
  5
289
330
282
100
AcDbEntity
  8
0
  6
Continuous
 62
     0
370
     0
100
AcDbLine
 10
0.0
 20
2.5
 30
0.0
 11
0.0
 21
5.0
 31
0.0
  0
LINE
  5
28A
330
282
100
AcDbEntity
  8
0
  6
Continuous
 62
     0
370
     0
100
AcDbLine
 10
-2.5
 20
0.0
 30
0.0
 11
-5.0
 21
0.0
 31
0.0
  0
LINE
  5
28B
330
282
100
AcDbEntity
  8
0
  6
Continuous
 62
     0
370
     0
100
AcDbLine
 10
0.0
 20
-2.5
 30
0.0
 11
0.0
 21
-5.0
 31
0.0
  0
LINE
  5
28C
330
282
100
AcDbEntity
  8
0
  6
Continuous
 62
     0
370
     0
100
AcDbLine
 10
2.5
 20
0.0
 30
0.0
 11
5.0
 21
0.0
 31
0.0
  0
ENDBLK
  5
284
330
282
100
AcDbEntity
  8
0
100
AcDbBlockEnd
  0
BLOCK
  5
28F
330
28E
100
AcDbEntity
  8
0
100
AcDbBlockBegin
  2
SW_CENTERMARKSYMBOL_4
 70
     0
 10
0.0
 20
0.0
 30
0.0
  3
SW_CENTERMARKSYMBOL_4
  1

  0
LINE
  5
291
330
28E
100
AcDbEntity
  8
0
  6
Continuous
 62
     0
370
     0
100
AcDbLine
 10
0.0
 20
0.0
 30
0.0
 11
0.0
 21
2.5
 31
0.0
  0
LINE
  5
292
330
28E
100
AcDbEntity
  8
0
  6
Continuous
 62
     0
370
     0
100
AcDbLine
 10
0.0
 20
0.0
 30
0.0
 11
-2.5
 21
0.0
 31
0.0
  0
LINE
  5
293
330
28E
100
AcDbEntity
  8
0
  6
Continuous
 62
     0
370
     0
100
AcDbLine
 10
0.0
 20
0.0
 30
0.0
 11
0.0
 21
-2.5
 31
0.0
  0
LINE
  5
294
330
28E
100
AcDbEntity
  8
0
  6
Continuous
 62
     0
370
     0
100
AcDbLine
 10
0.0
 20
0.0
 30
0.0
 11
2.5
 21
0.0
 31
0.0
  0
LINE
  5
295
330
28E
100
AcDbEntity
  8
0
  6
Continuous
 62
     0
370
     0
100
AcDbLine
 10
0.0
 20
5.0
 30
0.0
 11
0.0
 21
5.75
 31
0.0
  0
LINE
  5
296
330
28E
100
AcDbEntity
  8
0
  6
Continuous
 62
     0
370
     0
100
AcDbLine
 10
-5.0
 20
0.0
 30
0.0
 11
-5.75
 21
0.0
 31
0.0
  0
LINE
  5
297
330
28E
100
AcDbEntity
  8
0
  6
Continuous
 62
     0
370
     0
100
AcDbLine
 10
0.0
 20
-5.0
 30
0.0
 11
0.0
 21
-5.75
 31
0.0
  0
LINE
  5
298
330
28E
100
AcDbEntity
  8
0
  6
Continuous
 62
     0
370
     0
100
AcDbLine
 10
5.0
 20
0.0
 30
0.0
 11
5.75
 21
0.0
 31
0.0
  0
ENDBLK
  5
290
330
28E
100
AcDbEntity
  8
0
100
AcDbBlockEnd
  0
BLOCK
  5
29B
330
29A
100
AcDbEntity
  8
0
100
AcDbBlockBegin
  2
SW_CENTERMARKSYMBOL_5
 70
     0
 10
0.0
 20
0.0
 30
0.0
  3
SW_CENTERMARKSYMBOL_5
  1

  0
LINE
  5
29D
330
29A
100
AcDbEntity
  8
0
  6
Continuous
 62
     0
370
     0
100
AcDbLine
 10
0.0
 20
0.0
 30
0.0
 11
0.0
 21
2.5
 31
0.0
  0
LINE
  5
29E
330
29A
100
AcDbEntity
  8
0
  6
Continuous
 62
     0
370
     0
100
AcDbLine
 10
0.0
 20
0.0
 30
0.0
 11
-2.5
 21
0.0
 31
0.0
  0
LINE
  5
29F
330
29A
100
AcDbEntity
  8
0
  6
Continuous
 62
     0
370
     0
100
AcDbLine
 10
0.0
 20
0.0
 30
0.0
 11
0.0
 21
-2.5
 31
0.0
  0
LINE
  5
2A0
330
29A
100
AcDbEntity
  8
0
  6
Continuous
 62
     0
370
     0
100
AcDbLine
 10
0.0
 20
0.0
 30
0.0
 11
2.5
 21
0.0
 31
0.0
  0
LINE
  5
2A1
330
29A
100
AcDbEntity
  8
0
  6
Continuous
 62
     0
370
     0
100
AcDbLine
 10
0.0
 20
5.0
 30
0.0
 11
0.0
 21
5.75
 31
0.0
  0
LINE
  5
2A2
330
29A
100
AcDbEntity
  8
0
  6
Continuous
 62
     0
370
     0
100
AcDbLine
 10
-5.0
 20
0.0
 30
0.0
 11
-5.75
 21
0.0
 31
0.0
  0
LINE
  5
2A3
330
29A
100
AcDbEntity
  8
0
  6
Continuous
 62
     0
370
     0
100
AcDbLine
 10
0.0
 20
-5.0
 30
0.0
 11
0.0
 21
-5.75
 31
0.0
  0
LINE
  5
2A4
330
29A
100
AcDbEntity
  8
0
  6
Continuous
 62
     0
370
     0
100
AcDbLine
 10
5.0
 20
0.0
 30
0.0
 11
5.75
 21
0.0
 31
0.0
  0
ENDBLK
  5
29C
330
29A
100
AcDbEntity
  8
0
100
AcDbBlockEnd
  0
BLOCK
  5
327
330
326
100
AcDbEntity
  8
0
100
AcDbBlockBegin
  2
_D_13
 70
     0
 10
0.0
 20
0.0
 30
0.0
  3
_D_13
  1

  0
SOLID
  5
329
330
326
100
AcDbEntity
  8
0
  6
Continuous
 62
     7
370
     0
100
AcDbTrace
 10
55.2221440248
 20
208.6040085373
 30
0.0
 11
54.4721440248
 21
206.6040085373
 31
0.0
 12
55.9721440248
 22
206.6040085373
 32
0.0
 13
55.9721440248
 23
206.6040085373
 33
0.0
  0
SOLID
  5
32A
330
326
100
AcDbEntity
  8
0
  6
Continuous
 62
     7
370
     0
100
AcDbTrace
 10
55.2221440248
 20
222.4040085373
 30
0.0
 11
55.9721440248
 21
224.4040085373
 31
0.0
 12
54.4721440248
 22
224.4040085373
 32
0.0
 13
54.4721440248
 23
224.4040085373
 33
0.0
  0
LINE
  5
32B
330
326
100
AcDbEntity
  8
0
  6
Continuous
 62
     7
370
     0
100
AcDbLine
 10
79.5201093896
 20
208.6040085373
 30
0.0
 11
54.2221440248
 21
208.6040085373
 31
0.0
  0
LINE
  5
32C
330
326
100
AcDbEntity
  8
0
  6
Continuous
 62
     7
370
     0
100
AcDbLine
 10
86.0201093896
 20
222.4040085373
 30
0.0
 11
54.2221440248
 21
222.4040085373
 31
0.0
  0
LINE
  5
32D
330
326
100
AcDbEntity
  8
0
  6
Continuous
 62
     7
370
     0
100
AcDbLine
 10
55.2221440248
 20
208.6040085373
 30
0.0
 11
55.2221440248
 21
203.6040085373
 31
0.0
  0
LINE
  5
32E
330
326
100
AcDbEntity
  8
0
  6
Continuous
 62
     7
370
     0
100
AcDbLine
 10
55.2221440248
 20
208.6040085373
 30
0.0
 11
55.2221440248
 21
222.4040085373
 31
0.0
  0
LINE
  5
32F
330
326
100
AcDbEntity
  8
0
  6
Continuous
 62
     7
370
     0
100
AcDbLine
 10
55.2221440248
 20
222.4040085373
 30
0.0
 11
55.2221440248
 21
227.4040085373
 31
0.0
  0
MTEXT
  5
330
330
326
100
AcDbEntity
  8
0
  6
Continuous
 62
     7
370
     0
100
AcDbMText
 10
50.7104071102
 20
210.9783140068
 30
42.886573228
 40
3.5
 41
0.0
 71
     1
 72
     1
  1
13.8
  7
SLDTEXTSTYLE1
 11
6.123233995736766E-17
 21
1.0
 31
0.0
 73
     1
 44
1.0
  0
ENDBLK
  5
328
330
326
100
AcDbEntity
  8
0
100
AcDbBlockEnd
  0
BLOCK
  5
333
330
332
100
AcDbEntity
  8
0
100
AcDbBlockBegin
  2
_D_14
 70
     0
 10
0.0
 20
0.0
 30
0.0
  3
_D_14
  1

  0
SOLID
  5
335
330
332
100
AcDbEntity
  8
0
  6
Continuous
 62
     7
370
     0
100
AcDbTrace
 10
64.4089293377
 20
218.6040085373
 30
0.0
 11
65.1589293377
 21
220.6040085373
 31
0.0
 12
63.6589293377
 22
220.6040085373
 32
0.0
 13
63.6589293377
 23
220.6040085373
 33
0.0
  0
SOLID
  5
336
330
332
100
AcDbEntity
  8
0
  6
Continuous
 62
     7
370
     0
100
AcDbTrace
 10
64.4089293377
 20
208.6040085373
 30
0.0
 11
63.6589293377
 21
206.6040085373
 31
0.0
 12
65.1589293377
 22
206.6040085373
 32
0.0
 13
65.1589293377
 23
206.6040085373
 33
0.0
  0
LINE
  5
337
330
332
100
AcDbEntity
  8
0
  6
Continuous
 62
     7
370
     0
100
AcDbLine
 10
79.5201093896
 20
218.6040085373
 30
0.0
 11
63.4089293377
 21
218.6040085373
 31
0.0
  0
LINE
  5
338
330
332
100
AcDbEntity
  8
0
  6
Continuous
 62
     7
370
     0
100
AcDbLine
 10
79.5201093896
 20
208.6040085373
 30
0.0
 11
63.4089293377
 21
208.6040085373
 31
0.0
  0
LINE
  5
339
330
332
100
AcDbEntity
  8
0
  6
Continuous
 62
     7
370
     0
100
AcDbLine
 10
64.4089293377
 20
218.6040085373
 30
0.0
 11
64.4089293377
 21
223.6040085373
 31
0.0
  0
LINE
  5
33A
330
332
100
AcDbEntity
  8
0
  6
Continuous
 62
     7
370
     0
100
AcDbLine
 10
64.4089293377
 20
218.6040085373
 30
0.0
 11
64.4089293377
 21
208.6040085373
 31
0.0
  0
LINE
  5
33B
330
332
100
AcDbEntity
  8
0
  6
Continuous
 62
     7
370
     0
100
AcDbLine
 10
64.4089293377
 20
208.6040085373
 30
0.0
 11
64.4089293377
 21
203.6040085373
 31
0.0
  0
MTEXT
  5
33C
330
332
100
AcDbEntity
  8
0
  6
Continuous
 62
     7
370
     0
100
AcDbMText
 10
59.8971924232
 20
211.0178973438
 30
42.886573228
 40
3.5
 41
0.0
 71
     1
 72
     1
  1
10
  7
SLDTEXTSTYLE1
 11
-7.044195017643634E-15
 21
1.0
 31
0.0
 73
     1
 44
1.0
  0
ENDBLK
  5
334
330
332
100
AcDbEntity
  8
0
100
AcDbBlockEnd
  0
BLOCK
  5
3E1
330
3E0
100
AcDbEntity
  8
0
100
AcDbBlockBegin
  2
_D_15
 70
     0
 10
0.0
 20
0.0
 30
0.0
  3
_D_15
  1

  0
SOLID
  5
3E3
330
3E0
100
AcDbEntity
  8
0
  6
Continuous
 62
     7
370
     0
100
AcDbTrace
 10
80.5201093896
 20
90.4721345978
 30
0.0
 11
82.5201093896
 21
89.7221345978
 31
0.0
 12
82.5201093896
 22
91.2221345978
 32
0.0
 13
82.5201093896
 23
91.2221345978
 33
0.0
  0
SOLID
  5
3E4
330
3E0
100
AcDbEntity
  8
0
  6
Continuous
 62
     7
370
     0
100
AcDbTrace
 10
105.0201093896
 20
90.4721345978
 30
0.0
 11
103.0201093896
 21
91.2221345978
 31
0.0
 12
103.0201093896
 22
89.7221345978
 32
0.0
 13
103.0201093896
 23
89.7221345978
 33
0.0
  0
LINE
  5
3E5
330
3E0
100
AcDbEntity
  8
0
  6
Continuous
 62
     7
370
     0
100
AcDbLine
 10
80.5201093896
 20
83.8954028436
 30
0.0
 11
80.5201093896
 21
91.4721345978
 31
0.0
  0
LINE
  5
3E6
330
3E0
100
AcDbEntity
  8
0
  6
Continuous
 62
     7
370
     0
100
AcDbLine
 10
105.0201093896
 20
84.3954028436
 30
0.0
 11
105.0201093896
 21
91.4721345978
 31
0.0
  0
LINE
  5
3E7
330
3E0
100
AcDbEntity
  8
0
  6
Continuous
 62
     7
370
     0
100
AcDbLine
 10
80.5201093896
 20
90.4721345978
 30
0.0
 11
105.0201093896
 21
90.4721345978
 31
0.0
  0
MTEXT
  5
3E8
330
3E0
100
AcDbEntity
  8
0
  6
Continuous
 62
     7
370
     0
100
AcDbMText
 10
88.2444148592
 20
94.9838715123
 30
-42.686573228
 40
3.5
 41
0.0
 71
     1
 72
     1
  1
24.5
  7
SLDTEXTSTYLE1
 73
     1
 44
1.0
  0
ENDBLK
  5
3E2
330
3E0
100
AcDbEntity
  8
0
100
AcDbBlockEnd
  0
BLOCK
  5
3EB
330
3EA
100
AcDbEntity
  8
0
100
AcDbBlockBegin
  2
_D_16
 70
     0
 10
0.0
 20
0.0
 30
0.0
  3
_D_16
  1

  0
SOLID
  5
3ED
330
3EA
100
AcDbEntity
  8
0
  6
Continuous
 62
     7
370
     0
100
AcDbTrace
 10
105.0201093896
 20
90.4721345978
 30
0.0
 11
107.0201093896
 21
89.7221345978
 31
0.0
 12
107.0201093896
 22
91.2221345978
 32
0.0
 13
107.0201093896
 23
91.2221345978
 33
0.0
  0
SOLID
  5
3EE
330
3EA
100
AcDbEntity
  8
0
  6
Continuous
 62
     7
370
     0
100
AcDbTrace
 10
141.0201093896
 20
90.4721345978
 30
0.0
 11
139.0201093896
 21
91.2221345978
 31
0.0
 12
139.0201093896
 22
89.7221345978
 32
0.0
 13
139.0201093896
 23
89.7221345978
 33
0.0
  0
LINE
  5
3EF
330
3EA
100
AcDbEntity
  8
0
  6
Continuous
 62
     7
370
     0
100
AcDbLine
 10
105.0201093896
 20
84.3954028436
 30
0.0
 11
105.0201093896
 21
91.4721345978
 31
0.0
  0
LINE
  5
3F0
330
3EA
100
AcDbEntity
  8
0
  6
Continuous
 62
     7
370
     0
100
AcDbLine
 10
141.0201093896
 20
84.3954028436
 30
0.0
 11
141.0201093896
 21
91.4721345978
 31
0.0
  0
LINE
  5
3F1
330
3EA
100
AcDbEntity
  8
0
  6
Continuous
 62
     7
370
     0
100
AcDbLine
 10
105.0201093896
 20
90.4721345978
 30
0.0
 11
141.0201093896
 21
90.4721345978
 31
0.0
  0
MTEXT
  5
3F2
330
3EA
100
AcDbEntity
  8
0
  6
Continuous
 62
     7
370
     0
100
AcDbMText
 10
120.4339981961
 20
94.9838715123
 30
-42.686573228
 40
3.5
 41
0.0
 71
     1
 72
     1
  1
36
  7
SLDTEXTSTYLE1
 73
     1
 44
1.0
  0
ENDBLK
  5
3EC
330
3EA
100
AcDbEntity
  8
0
100
AcDbBlockEnd
  0
BLOCK
  5
3F5
330
3F4
100
AcDbEntity
  8
0
100
AcDbBlockBegin
  2
_D_17
 70
     0
 10
0.0
 20
0.0
 30
0.0
  3
_D_17
  1

  0
SOLID
  5
3F7
330
3F4
100
AcDbEntity
  8
0
  6
Continuous
 62
     7
370
     0
100
AcDbTrace
 10
141.0201093896
 20
90.4721345978
 30
0.0
 11
143.0201093896
 21
89.7221345978
 31
0.0
 12
143.0201093896
 22
91.2221345978
 32
0.0
 13
143.0201093896
 23
91.2221345978
 33
0.0
  0
SOLID
  5
3F8
330
3F4
100
AcDbEntity
  8
0
  6
Continuous
 62
     7
370
     0
100
AcDbTrace
 10
165.5201093896
 20
90.4721345978
 30
0.0
 11
163.5201093896
 21
91.2221345978
 31
0.0
 12
163.5201093896
 22
89.7221345978
 32
0.0
 13
163.5201093896
 23
89.7221345978
 33
0.0
  0
LINE
  5
3F9
330
3F4
100
AcDbEntity
  8
0
  6
Continuous
 62
     7
370
     0
100
AcDbLine
 10
141.0201093896
 20
84.3954028436
 30
0.0
 11
141.0201093896
 21
91.4721345978
 31
0.0
  0
LINE
  5
3FA
330
3F4
100
AcDbEntity
  8
0
  6
Continuous
 62
     7
370
     0
100
AcDbLine
 10
165.5201093896
 20
83.8954028436
 30
0.0
 11
165.5201093896
 21
91.4721345978
 31
0.0
  0
LINE
  5
3FB
330
3F4
100
AcDbEntity
  8
0
  6
Continuous
 62
     7
370
     0
100
AcDbLine
 10
141.0201093896
 20
90.4721345978
 30
0.0
 11
165.5201093896
 21
90.4721345978
 31
0.0
  0
MTEXT
  5
3FC
330
3F4
100
AcDbEntity
  8
0
  6
Continuous
 62
     7
370
     0
100
AcDbMText
 10
148.7444148592
 20
94.9838715123
 30
-42.686573228
 40
3.5
 41
0.0
 71
     1
 72
     1
  1
24.5
  7
SLDTEXTSTYLE1
 73
     1
 44
1.0
  0
ENDBLK
  5
3F6
330
3F4
100
AcDbEntity
  8
0
100
AcDbBlockEnd
  0
BLOCK
  5
3FF
330
3FE
100
AcDbEntity
  8
0
100
AcDbBlockBegin
  2
_D_18
 70
     0
 10
0.0
 20
0.0
 30
0.0
  3
_D_18
  1

  0
SOLID
  5
401
330
3FE
100
AcDbEntity
  8
0
  6
Continuous
 62
     7
370
     0
100
AcDbTrace
 10
181.8914471407
 20
82.8954028436
 30
0.0
 11
182.6414471407
 21
84.8954028436
 31
0.0
 12
181.1414471407
 22
84.8954028436
 32
0.0
 13
181.1414471407
 23
84.8954028436
 33
0.0
  0
SOLID
  5
402
330
3FE
100
AcDbEntity
  8
0
  6
Continuous
 62
     7
370
     0
100
AcDbTrace
 10
181.8914471407
 20
77.8954028436
 30
0.0
 11
181.1414471407
 21
75.8954028436
 31
0.0
 12
182.6414471407
 22
75.8954028436
 32
0.0
 13
182.6414471407
 23
75.8954028436
 33
0.0
  0
LINE
  5
403
330
3FE
100
AcDbEntity
  8
0
  6
Continuous
 62
     7
370
     0
100
AcDbLine
 10
166.5201093896
 20
82.8954028436
 30
0.0
 11
182.8914471407
 21
82.8954028436
 31
0.0
  0
LINE
  5
404
330
3FE
100
AcDbEntity
  8
0
  6
Continuous
 62
     7
370
     0
100
AcDbLine
 10
147.5201093896
 20
77.8954028436
 30
0.0
 11
182.8914471407
 21
77.8954028436
 31
0.0
  0
LINE
  5
405
330
3FE
100
AcDbEntity
  8
0
  6
Continuous
 62
     7
370
     0
100
AcDbLine
 10
181.8914471407
 20
82.8954028436
 30
0.0
 11
181.8914471407
 21
88.9219046441
 31
0.0
  0
LINE
  5
406
330
3FE
100
AcDbEntity
  8
0
  6
Continuous
 62
     7
370
     0
100
AcDbLine
 10
181.8914471407
 20
82.8954028436
 30
0.0
 11
181.8914471407
 21
77.8954028436
 31
0.0
  0
LINE
  5
407
330
3FE
100
AcDbEntity
  8
0
  6
Continuous
 62
     7
370
     0
100
AcDbLine
 10
181.8914471407
 20
77.8954028436
 30
0.0
 11
181.8914471407
 21
72.8954028436
 31
0.0
  0
MTEXT
  5
408
330
3FE
100
AcDbEntity
  8
0
  6
Continuous
 62
     7
370
     0
100
AcDbMText
 10
177.3797102261
 20
86.3357934506
 30
-42.686573228
 40
3.5
 41
0.0
 71
     1
 72
     1
  1
5
  7
SLDTEXTSTYLE1
 11
-7.044195017643634E-15
 21
1.0
 31
0.0
 73
     1
 44
1.0
  0
ENDBLK
  5
400
330
3FE
100
AcDbEntity
  8
0
100
AcDbBlockEnd
  0
BLOCK
  5
40E
330
40D
100
AcDbEntity
  8
0
100
AcDbBlockBegin
  2
SW_CENTERMARKSYMBOL_6
 70
     0
 10
0.0
 20
0.0
 30
0.0
  3
SW_CENTERMARKSYMBOL_6
  1

  0
LINE
  5
410
330
40D
100
AcDbEntity
  8
0
  6
Continuous
 62
     0
370
     0
100
AcDbLine
 10
0.0
 20
0.0
 30
0.0
 11
0.0
 21
2.5
 31
0.0
  0
LINE
  5
411
330
40D
100
AcDbEntity
  8
0
  6
Continuous
 62
     0
370
     0
100
AcDbLine
 10
0.0
 20
0.0
 30
0.0
 11
-2.5
 21
0.0
 31
0.0
  0
LINE
  5
412
330
40D
100
AcDbEntity
  8
0
  6
Continuous
 62
     0
370
     0
100
AcDbLine
 10
0.0
 20
0.0
 30
0.0
 11
0.0
 21
-2.5
 31
0.0
  0
LINE
  5
413
330
40D
100
AcDbEntity
  8
0
  6
Continuous
 62
     0
370
     0
100
AcDbLine
 10
0.0
 20
0.0
 30
0.0
 11
2.5
 21
0.0
 31
0.0
  0
LINE
  5
414
330
40D
100
AcDbEntity
  8
0
  6
Continuous
 62
     0
370
     0
100
AcDbLine
 10
0.0
 20
5.0
 30
0.0
 11
0.0
 21
5.5
 31
0.0
  0
LINE
  5
415
330
40D
100
AcDbEntity
  8
0
  6
Continuous
 62
     0
370
     0
100
AcDbLine
 10
-5.0
 20
0.0
 30
0.0
 11
-5.5
 21
0.0
 31
0.0
  0
LINE
  5
416
330
40D
100
AcDbEntity
  8
0
  6
Continuous
 62
     0
370
     0
100
AcDbLine
 10
0.0
 20
-5.0
 30
0.0
 11
0.0
 21
-5.5
 31
0.0
  0
LINE
  5
417
330
40D
100
AcDbEntity
  8
0
  6
Continuous
 62
     0
370
     0
100
AcDbLine
 10
5.0
 20
0.0
 30
0.0
 11
5.5
 21
0.0
 31
0.0
  0
ENDBLK
  5
40F
330
40D
100
AcDbEntity
  8
0
100
AcDbBlockEnd
  0
BLOCK
  5
41A
330
419
100
AcDbEntity
  8
0
100
AcDbBlockBegin
  2
SW_CENTERMARKSYMBOL_7
 70
     0
 10
0.0
 20
0.0
 30
0.0
  3
SW_CENTERMARKSYMBOL_7
  1

  0
LINE
  5
41C
330
419
100
AcDbEntity
  8
0
  6
Continuous
 62
     0
370
     0
100
AcDbLine
 10
0.0
 20
0.0
 30
0.0
 11
0.0
 21
2.5
 31
0.0
  0
LINE
  5
41D
330
419
100
AcDbEntity
  8
0
  6
Continuous
 62
     0
370
     0
100
AcDbLine
 10
0.0
 20
0.0
 30
0.0
 11
-2.5
 21
0.0
 31
0.0
  0
LINE
  5
41E
330
419
100
AcDbEntity
  8
0
  6
Continuous
 62
     0
370
     0
100
AcDbLine
 10
0.0
 20
0.0
 30
0.0
 11
0.0
 21
-2.5
 31
0.0
  0
LINE
  5
41F
330
419
100
AcDbEntity
  8
0
  6
Continuous
 62
     0
370
     0
100
AcDbLine
 10
0.0
 20
0.0
 30
0.0
 11
2.5
 21
0.0
 31
0.0
  0
LINE
  5
420
330
419
100
AcDbEntity
  8
0
  6
Continuous
 62
     0
370
     0
100
AcDbLine
 10
0.0
 20
5.0
 30
0.0
 11
0.0
 21
5.5
 31
0.0
  0
LINE
  5
421
330
419
100
AcDbEntity
  8
0
  6
Continuous
 62
     0
370
     0
100
AcDbLine
 10
-5.0
 20
0.0
 30
0.0
 11
-5.5
 21
0.0
 31
0.0
  0
LINE
  5
422
330
419
100
AcDbEntity
  8
0
  6
Continuous
 62
     0
370
     0
100
AcDbLine
 10
0.0
 20
-5.0
 30
0.0
 11
0.0
 21
-5.5
 31
0.0
  0
LINE
  5
423
330
419
100
AcDbEntity
  8
0
  6
Continuous
 62
     0
370
     0
100
AcDbLine
 10
5.0
 20
0.0
 30
0.0
 11
5.5
 21
0.0
 31
0.0
  0
ENDBLK
  5
41B
330
419
100
AcDbEntity
  8
0
100
AcDbBlockEnd
  0
ENDSEC
  0
SECTION
  2
ENTITIES
  0
LINE
  5
44
330
1F
100
AcDbEntity
  8
0
  6
Continuous
 62
     7
370
     0
100
AcDbLine
 10
20.2604743903
 20
285.0
 30
0.0
 11
196.7604743903
 21
285.0
 31
0.0
  0
LINE
  5
45
330
1F
100
AcDbEntity
  8
0
  6
Continuous
 62
     7
370
     0
100
AcDbLine
 10
20.2604743903
 20
285.0
 30
0.0
 11
20.2604743903
 21
10.0
 31
0.0
  0
LINE
  5
46
330
1F
100
AcDbEntity
  8
0
  6
Continuous
 62
     7
370
     0
100
AcDbLine
 10
20.2604743903
 20
10.0
 30
0.0
 11
196.7604743903
 21
10.0
 31
0.0
  0
LINE
  5
47
330
1F
100
AcDbEntity
  8
0
  6
Continuous
 62
     7
370
     0
100
AcDbLine
 10
196.7604743903
 20
285.0
 30
0.0
 11
196.7604743903
 21
10.0
 31
0.0
  0
LINE
  5
48
330
1F
100
AcDbEntity
  8
0
  6
Continuous
 62
     7
370
     0
100
AcDbLine
 10
127.0104743903
 20
50.75
 30
0.0
 11
196.7604743903
 21
50.75
 31
0.0
  0
LINE
  5
49
330
1F
100
AcDbEntity
  8
0
  6
Continuous
 62
     7
370
     0
100
AcDbLine
 10
127.0104743903
 20
50.75
 30
0.0
 11
127.0104743903
 21
10.0
 31
0.0
  0
LINE
  5
4A
330
1F
100
AcDbEntity
  8
0
  6
Continuous
 62
     7
370
     0
100
AcDbLine
 10
127.0104743903
 20
22.75
 30
0.0
 11
196.7604743903
 21
22.75
 31
0.0
  0
LINE
  5
4B
330
1F
100
AcDbEntity
  8
0
  6
Continuous
 62
     7
370
     0
100
AcDbLine
 10
127.0104743903
 20
36.75
 30
0.0
 11
196.7604743903
 21
36.75
 31
0.0
  0
MTEXT
  5
4D
330
1F
100
AcDbEntity
  8
0
  6
Continuous
 62
     7
370
     0
100
AcDbMText
 10
162.2181602973
 20
30.4171582345
 30
0.0
 40
4.2333333333
 41
0.0
 71
     2
 72
     1
  1
OX-SSBNI
  7
SLDTEXTSTYLE0
 73
     1
 44
1.0
  0
MTEXT
  5
4E
330
1F
100
AcDbEntity
  8
0
  6
Continuous
 62
     7
370
     0
100
AcDbMText
 10
158.4947823348
 20
45.774297177
 30
0.0
 40
3.96875
 41
0.0
 71
     2
 72
     1
  1
ツールチェンジャー・ツール側
  7
SLDTEXTSTYLE0
 73
     1
 44
1.0
  0
MTEXT
  5
4F
330
1F
100
AcDbEntity
  8
0
  6
Continuous
 62
     7
370
     0
100
AcDbMText
 10
162.634881752
 20
16.8228189052
 30
0.0
 40
4.2333333333
 41
0.0
 71
     2
 72
     1
  1
140281
  7
SLDTEXTSTYLE0
 73
     1
 44
1.0
  0
LINE
  5
50
330
1F
100
AcDbEntity
  8
0
  6
Continuous
 62
     7
370
    15
100
AcDbLine
 10
166.0201095527
 20
155.9780627618
 30
0.0
 11
165.5201094708
 21
155.9780627618
 31
0.0
  0
LINE
  5
51
330
1F
100
AcDbEntity
  8
0
  6
Continuous
 62
     7
370
    15
100
AcDbLine
 10
165.5201094708
 20
148.178064836
 30
0.0
 11
166.0201095527
 21
148.178064836
 31
0.0
  0
LINE
  5
52
330
1F
100
AcDbEntity
  8
0
  6
Continuous
 62
     7
370
    15
100
AcDbLine
 10
171.020109441
 20
149.728064997
 30
0.0
 11
173.5201093851
 21
150.0780634711
 31
0.0
  0
LINE
  5
53
330
1F
100
AcDbEntity
  8
0
  6
Continuous
 62
     7
370
    15
100
AcDbLine
 10
173.5201093851
 20
154.0780641267
 30
0.0
 11
171.020109441
 21
154.4280626009
 31
0.0
  0
LINE
  5
54
330
1F
100
AcDbEntity
  8
0
  6
Continuous
 62
     7
370
    15
100
AcDbLine
 10
173.5201093851
 20
149.728064997
 30
0.0
 11
176.0201093292
 21
150.0780634711
 31
0.0
  0
LINE
  5
55
330
1F
100
AcDbEntity
  8
0
  6
Continuous
 62
     7
370
    15
100
AcDbLine
 10
176.0201093292
 20
154.0780641267
 30
0.0
 11
173.5201093851
 21
154.4280626009
 31
0.0
  0
LINE
  5
56
330
1F
100
AcDbEntity
  8
0
  6
Continuous
 62
     7
370
    15
100
AcDbLine
 10
171.020109441
 20
154.1780620942
 30
0.0
 11
168.5201090312
 21
154.1780620942
 31
0.0
  0
LINE
  5
57
330
1F
100
AcDbEntity
  8
0
  6
Continuous
 62
     7
370
    15
100
AcDbLine
 10
168.5201090312
 20
149.9780617783
 30
0.0
 11
171.020109441
 21
149.9780617783
 31
0.0
  0
LINE
  5
58
330
1F
100
AcDbEntity
  8
0
  6
Continuous
 62
     7
370
    15
100
AcDbLine
 10
166.0201095527
 20
128.9780639241
 30
0.0
 11
165.5201094708
 21
128.9780639241
 31
0.0
  0
LINE
  5
59
330
1F
100
AcDbEntity
  8
0
  6
Continuous
 62
     7
370
    15
100
AcDbLine
 10
165.5201094708
 20
121.1780659983
 30
0.0
 11
166.0201095527
 21
121.1780659983
 31
0.0
  0
LINE
  5
5A
330
1F
100
AcDbEntity
  8
0
  6
Continuous
 62
     7
370
    15
100
AcDbLine
 10
171.020109441
 20
126.9826382527
 30
0.0
 11
170.520109359
 21
126.9826382527
 31
0.0
  0
LINE
  5
5B
330
1F
100
AcDbEntity
  8
0
  6
Continuous
 62
     7
370
    15
100
AcDbLine
 10
170.520109359
 20
123.1734879444
 30
0.0
 11
171.020109441
 21
123.1734879444
 31
0.0
  0
LINE
  5
5C
330
1F
100
AcDbEntity
  8
0
  6
Continuous
 62
     7
370
    15
100
AcDbLine
 10
171.020109441
 20
123.1734879444
 30
0.0
 11
173.0201093031
 21
123.4780602286
 31
0.0
  0
LINE
  5
5D
330
1F
100
AcDbEntity
  8
0
  6
Continuous
 62
     7
370
    15
100
AcDbLine
 10
173.0201093031
 20
126.6780622432
 30
0.0
 11
171.020109441
 21
126.9826382527
 31
0.0
  0
LINE
  5
5E
330
1F
100
AcDbEntity
  8
0
  6
Continuous
 62
     7
370
    15
100
AcDbLine
 10
173.5201093851
 20
123.2780642936
 30
0.0
 11
175.5201092472
 21
123.5780619214
 31
0.0
  0
LINE
  5
5F
330
1F
100
AcDbEntity
  8
0
  6
Continuous
 62
     7
370
    15
100
AcDbLine
 10
175.5201092472
 20
126.5780642757
 30
0.0
 11
173.5201093851
 21
126.8780619035
 31
0.0
  0
LINE
  5
60
330
1F
100
AcDbEntity
  8
0
  6
Continuous
 62
     7
370
    15
100
AcDbLine
 10
173.5201093851
 20
126.8780619035
 30
0.0
 11
173.0201093031
 21
126.8780619035
 31
0.0
  0
LINE
  5
61
330
1F
100
AcDbEntity
  8
0
  6
Continuous
 62
     7
370
    15
100
AcDbLine
 10
173.0201093031
 20
123.2780642936
 30
0.0
 11
173.5201093851
 21
123.2780642936
 31
0.0
  0
LINE
  5
62
330
1F
100
AcDbEntity
  8
0
  6
Continuous
 62
     7
370
    15
100
AcDbLine
 10
170.520109359
 20
126.6780622432
 30
0.0
 11
168.5201090312
 21
126.6780622432
 31
0.0
  0
LINE
  5
63
330
1F
100
AcDbEntity
  8
0
  6
Continuous
 62
     7
370
    15
100
AcDbLine
 10
168.5201090312
 20
123.4780602286
 30
0.0
 11
170.520109359
 21
123.4780602286
 31
0.0
  0
LINE
  5
64
330
1F
100
AcDbEntity
  8
0
  6
Continuous
 62
     7
370
    15
100
AcDbLine
 10
80.0201084947
 20
148.178064836
 30
0.0
 11
80.520109508
 21
148.178064836
 31
0.0
  0
LINE
  5
65
330
1F
100
AcDbEntity
  8
0
  6
Continuous
 62
     7
370
    15
100
AcDbLine
 10
80.520109508
 20
155.9780627618
 30
0.0
 11
80.0201084947
 21
155.9780627618
 31
0.0
  0
LINE
  5
66
330
1F
100
AcDbEntity
  8
0
  6
Continuous
 62
     7
370
    15
100
AcDbLine
 10
72.5201081967
 20
154.4280626009
 30
0.0
 11
70.0201105809
 21
154.0780641267
 31
0.0
  0
LINE
  5
67
330
1F
100
AcDbEntity
  8
0
  6
Continuous
 62
     7
370
    15
100
AcDbLine
 10
70.0201105809
 20
150.0780634711
 30
0.0
 11
72.5201081967
 21
149.728064997
 31
0.0
  0
LINE
  5
68
330
1F
100
AcDbEntity
  8
0
  6
Continuous
 62
     7
370
    15
100
AcDbLine
 10
75.0201058125
 20
154.4280626009
 30
0.0
 11
72.5201081967
 21
154.0780641267
 31
0.0
  0
LINE
  5
69
330
1F
100
AcDbEntity
  8
0
  6
Continuous
 62
     7
370
    15
100
AcDbLine
 10
72.5201081967
 20
150.0780634711
 30
0.0
 11
75.0201058125
 21
149.728064997
 31
0.0
  0
LINE
  5
6A
330
1F
100
AcDbEntity
  8
0
  6
Continuous
 62
     7
370
    15
100
AcDbLine
 10
75.0201058125
 20
149.9780617783
 30
0.0
 11
77.5201108789
 21
149.9780617783
 31
0.0
  0
LINE
  5
6B
330
1F
100
AcDbEntity
  8
0
  6
Continuous
 62
     7
370
    15
100
AcDbLine
 10
77.5201108789
 20
154.1780620942
 30
0.0
 11
75.0201058125
 21
154.1780620942
 31
0.0
  0
LINE
  5
6C
330
1F
100
AcDbEntity
  8
0
  6
Continuous
 62
     7
370
    15
100
AcDbLine
 10
80.0201084947
 20
121.1780659983
 30
0.0
 11
80.520109508
 21
121.1780659983
 31
0.0
  0
LINE
  5
6D
330
1F
100
AcDbEntity
  8
0
  6
Continuous
 62
     7
370
    15
100
AcDbLine
 10
80.520109508
 20
128.9780639241
 30
0.0
 11
80.0201084947
 21
128.9780639241
 31
0.0
  0
LINE
  5
6E
330
1F
100
AcDbEntity
  8
0
  6
Continuous
 62
     7
370
    15
100
AcDbLine
 10
75.0201058125
 20
123.1734879444
 30
0.0
 11
75.5201068258
 21
123.1734879444
 31
0.0
  0
LINE
  5
6F
330
1F
100
AcDbEntity
  8
0
  6
Continuous
 62
     7
370
    15
100
AcDbLine
 10
75.5201068258
 20
126.9826382527
 30
0.0
 11
75.0201058125
 21
126.9826382527
 31
0.0
  0
LINE
  5
70
330
1F
100
AcDbEntity
  8
0
  6
Continuous
 62
     7
370
    15
100
AcDbLine
 10
75.0201058125
 20
126.9826382527
 30
0.0
 11
73.02010921
 21
126.6780622432
 31
0.0
  0
LINE
  5
71
330
1F
100
AcDbEntity
  8
0
  6
Continuous
 62
     7
370
    15
100
AcDbLine
 10
73.02010921
 20
123.4780602286
 30
0.0
 11
75.0201058125
 21
123.1734879444
 31
0.0
  0
LINE
  5
72
330
1F
100
AcDbEntity
  8
0
  6
Continuous
 62
     7
370
    15
100
AcDbLine
 10
72.5201081967
 20
126.8780619035
 30
0.0
 11
70.5201115942
 21
126.5780642757
 31
0.0
  0
LINE
  5
73
330
1F
100
AcDbEntity
  8
0
  6
Continuous
 62
     7
370
    15
100
AcDbLine
 10
70.5201115942
 20
123.5780619214
 30
0.0
 11
72.5201081967
 21
123.2780642936
 31
0.0
  0
LINE
  5
74
330
1F
100
AcDbEntity
  8
0
  6
Continuous
 62
     7
370
    15
100
AcDbLine
 10
72.5201081967
 20
123.2780642936
 30
0.0
 11
73.02010921
 21
123.2780642936
 31
0.0
  0
LINE
  5
75
330
1F
100
AcDbEntity
  8
0
  6
Continuous
 62
     7
370
    15
100
AcDbLine
 10
73.02010921
 20
126.8780619035
 30
0.0
 11
72.5201081967
 21
126.8780619035
 31
0.0
  0
LINE
  5
76
330
1F
100
AcDbEntity
  8
0
  6
Continuous
 62
     7
370
    15
100
AcDbLine
 10
75.5201068258
 20
123.4780602286
 30
0.0
 11
77.5201108789
 21
123.4780602286
 31
0.0
  0
LINE
  5
77
330
1F
100
AcDbEntity
  8
0
  6
Continuous
 62
     7
370
    15
100
AcDbLine
 10
77.5201108789
 20
126.6780622432
 30
0.0
 11
75.5201068258
 21
126.6780622432
 31
0.0
  0
CIRCLE
  5
78
330
1F
100
AcDbEntity
  8
0
  6
Continuous
 62
     7
370
    15
100
AcDbCircle
 10
88.0201093896
 20
139.0780634147
 30
0.0
 40
3.0
  0
CIRCLE
  5
79
330
1F
100
AcDbEntity
  8
0
  6
Continuous
 62
     7
370
    15
100
AcDbCircle
 10
158.0201093896
 20
139.0780634147
 30
0.0
 40
3.000000000000005
  0
LINE
  5
7A
330
1F
100
AcDbEntity
  8
0
  6
Continuous
 62
     7
370
    15
100
AcDbLine
 10
168.5201090312
 20
148.5706620047
 30
0.0
 11
168.5201090312
 21
152.0780637989
 31
0.0
  0
LINE
  5
7B
330
1F
100
AcDbEntity
  8
0
  6
Continuous
 62
     7
370
    15
100
AcDbLine
 10
168.5201090312
 20
152.0780637989
 30
0.0
 11
168.5201090312
 21
155.5854655931
 31
0.0
  0
LINE
  5
7C
330
1F
100
AcDbEntity
  8
0
  6
Continuous
 62
   144
370
     0
100
AcDbLine
 10
166.0201095527
 20
155.3086169193
 30
0.0
 11
166.0201095527
 21
155.5854655931
 31
0.0
  0
LINE
  5
7D
330
1F
100
AcDbEntity
  8
0
  6
Continuous
 62
     7
370
    15
100
AcDbLine
 10
168.5201090312
 20
155.5854655931
 30
0.0
 11
166.0201095527
 21
155.5854655931
 31
0.0
  0
LINE
  5
7E
330
1F
100
AcDbEntity
  8
0
  6
Continuous
 62
     7
370
    15
100
AcDbLine
 10
166.0201095527
 20
152.0780637989
 30
0.0
 11
168.5201090312
 21
152.0780637989
 31
0.0
  0
LINE
  5
7F
330
1F
100
AcDbEntity
  8
0
  6
Continuous
 62
   144
370
     0
100
AcDbLine
 10
166.0201095527
 20
152.0780637989
 30
0.0
 11
166.0201095527
 21
152.3549124727
 31
0.0
  0
LINE
  5
80
330
1F
100
AcDbEntity
  8
0
  6
Continuous
 62
     7
370
    15
100
AcDbLine
 10
168.5201090312
 20
148.5706620047
 30
0.0
 11
166.0201095527
 21
148.5706620047
 31
0.0
  0
LINE
  5
81
330
1F
100
AcDbEntity
  8
0
  6
Continuous
 62
   144
370
     0
100
AcDbLine
 10
166.0201095527
 20
148.5706620047
 30
0.0
 11
166.0201095527
 21
148.8475106785
 31
0.0
  0
LINE
  5
82
330
1F
100
AcDbEntity
  8
0
  6
Continuous
 62
   144
370
     0
100
AcDbLine
 10
166.0201095527
 20
151.8012151251
 30
0.0
 11
166.0201095527
 21
152.0780637989
 31
0.0
  0
LINE
  5
83
330
1F
100
AcDbEntity
  8
0
  6
Continuous
 62
     7
370
    15
100
AcDbLine
 10
166.0201095527
 20
148.8475106785
 30
0.0
 11
166.0201095527
 21
151.8012151251
 31
0.0
  0
LINE
  5
84
330
1F
100
AcDbEntity
  8
0
  6
Continuous
 62
     7
370
    15
100
AcDbLine
 10
166.0201095527
 20
148.178064836
 30
0.0
 11
166.0201095527
 21
148.5706620047
 31
0.0
  0
LINE
  5
85
330
1F
100
AcDbEntity
  8
0
  6
Continuous
 62
     7
370
    15
100
AcDbLine
 10
166.0201095527
 20
155.5854655931
 30
0.0
 11
166.0201095527
 21
155.9780627618
 31
0.0
  0
LINE
  5
86
330
1F
100
AcDbEntity
  8
0
  6
Continuous
 62
     7
370
    15
100
AcDbLine
 10
166.0201095527
 20
152.3549124727
 30
0.0
 11
166.0201095527
 21
155.3086169193
 31
0.0
  0
LINE
  5
87
330
1F
100
AcDbEntity
  8
0
  6
Continuous
 62
     7
370
    15
100
AcDbLine
 10
171.020109441
 20
150.9030625353
 30
0.0
 11
171.020109441
 21
149.728064997
 31
0.0
  0
LINE
  5
88
330
1F
100
AcDbEntity
  8
0
  6
Continuous
 62
     7
370
    15
100
AcDbLine
 10
171.020109441
 20
154.4280626009
 30
0.0
 11
171.020109441
 21
150.9030625353
 31
0.0
  0
LINE
  5
89
330
1F
100
AcDbEntity
  8
0
  6
Continuous
 62
     7
370
    15
100
AcDbLine
 10
173.5201093851
 20
154.4280626009
 30
0.0
 11
173.5201093851
 21
149.728064997
 31
0.0
  0
LINE
  5
8A
330
1F
100
AcDbEntity
  8
0
  6
Continuous
 62
     7
370
    15
100
AcDbLine
 10
176.0201093292
 20
154.0780641267
 30
0.0
 11
176.0201093292
 21
150.0780634711
 31
0.0
  0
LINE
  5
8B
330
1F
100
AcDbEntity
  8
0
  6
Continuous
 62
     7
370
    15
100
AcDbLine
 10
168.5201090312
 20
121.5780653188
 30
0.0
 11
168.5201090312
 21
125.0780649612
 31
0.0
  0
LINE
  5
8C
330
1F
100
AcDbEntity
  8
0
  6
Continuous
 62
     7
370
    15
100
AcDbLine
 10
168.5201090312
 20
125.0780649612
 30
0.0
 11
168.5201090312
 21
128.5780646036
 31
0.0
  0
LINE
  5
8D
330
1F
100
AcDbEntity
  8
0
  6
Continuous
 62
     7
370
    15
100
AcDbLine
 10
166.0201095527
 20
125.0780649612
 30
0.0
 11
168.5201090312
 21
125.0780649612
 31
0.0
  0
LINE
  5
8E
330
1F
100
AcDbEntity
  8
0
  6
Continuous
 62
   144
370
     0
100
AcDbLine
 10
166.0201095527
 20
125.0780649612
 30
0.0
 11
166.0201095527
 21
125.3380976746
 31
0.0
  0
LINE
  5
8F
330
1F
100
AcDbEntity
  8
0
  6
Continuous
 62
   144
370
     0
100
AcDbLine
 10
166.0201095527
 20
128.3180281649
 30
0.0
 11
166.0201095527
 21
128.5780646036
 31
0.0
  0
LINE
  5
90
330
1F
100
AcDbEntity
  8
0
  6
Continuous
 62
     7
370
    15
100
AcDbLine
 10
166.0201095527
 20
128.5780646036
 30
0.0
 11
168.5201090312
 21
128.5780646036
 31
0.0
  0
LINE
  5
91
330
1F
100
AcDbEntity
  8
0
  6
Continuous
 62
     7
370
    15
100
AcDbLine
 10
166.0201095527
 20
121.5780653188
 30
0.0
 11
168.5201090312
 21
121.5780653188
 31
0.0
  0
LINE
  5
92
330
1F
100
AcDbEntity
  8
0
  6
Continuous
 62
   144
370
     0
100
AcDbLine
 10
166.0201095527
 20
121.5780653188
 30
0.0
 11
166.0201095527
 21
121.8380980322
 31
0.0
  0
LINE
  5
93
330
1F
100
AcDbEntity
  8
0
  6
Continuous
 62
   144
370
     0
100
AcDbLine
 10
166.0201095527
 20
124.8180322478
 30
0.0
 11
166.0201095527
 21
125.0780649612
 31
0.0
  0
LINE
  5
94
330
1F
100
AcDbEntity
  8
0
  6
Continuous
 62
     7
370
    15
100
AcDbLine
 10
166.0201095527
 20
128.5780646036
 30
0.0
 11
166.0201095527
 21
128.9780639241
 31
0.0
  0
LINE
  5
95
330
1F
100
AcDbEntity
  8
0
  6
Continuous
 62
     7
370
    15
100
AcDbLine
 10
166.0201095527
 20
125.3380976746
 30
0.0
 11
166.0201095527
 21
128.3180281649
 31
0.0
  0
LINE
  5
96
330
1F
100
AcDbEntity
  8
0
  6
Continuous
 62
     7
370
    15
100
AcDbLine
 10
166.0201095527
 20
121.8380980322
 30
0.0
 11
166.0201095527
 21
124.8180322478
 31
0.0
  0
LINE
  5
97
330
1F
100
AcDbEntity
  8
0
  6
Continuous
 62
     7
370
    15
100
AcDbLine
 10
166.0201095527
 20
121.1780659983
 30
0.0
 11
166.0201095527
 21
121.5780653188
 31
0.0
  0
LINE
  5
98
330
1F
100
AcDbEntity
  8
0
  6
Continuous
 62
     7
370
    15
100
AcDbLine
 10
170.520109359
 20
125.0780649612
 30
0.0
 11
170.520109359
 21
123.1734879444
 31
0.0
  0
LINE
  5
99
330
1F
100
AcDbEntity
  8
0
  6
Continuous
 62
     7
370
    15
100
AcDbLine
 10
170.520109359
 20
126.9826382527
 30
0.0
 11
170.520109359
 21
125.0780649612
 31
0.0
  0
LINE
  5
9A
330
1F
100
AcDbEntity
  8
0
  6
Continuous
 62
     7
370
    15
100
AcDbLine
 10
171.020109441
 20
125.0780649612
 30
0.0
 11
171.020109441
 21
123.1734879444
 31
0.0
  0
LINE
  5
9B
330
1F
100
AcDbEntity
  8
0
  6
Continuous
 62
     7
370
    15
100
AcDbLine
 10
171.020109441
 20
126.9826382527
 30
0.0
 11
171.020109441
 21
125.0780649612
 31
0.0
  0
LINE
  5
9C
330
1F
100
AcDbEntity
  8
0
  6
Continuous
 62
     7
370
    15
100
AcDbLine
 10
173.5201093851
 20
125.0780649612
 30
0.0
 11
173.5201093851
 21
123.2780642936
 31
0.0
  0
LINE
  5
9D
330
1F
100
AcDbEntity
  8
0
  6
Continuous
 62
     7
370
    15
100
AcDbLine
 10
173.5201093851
 20
126.8780619035
 30
0.0
 11
173.5201093851
 21
125.0780649612
 31
0.0
  0
LINE
  5
9E
330
1F
100
AcDbEntity
  8
0
  6
Continuous
 62
     7
370
    15
100
AcDbLine
 10
175.5201092472
 20
125.0780649612
 30
0.0
 11
175.5201092472
 21
123.5780619214
 31
0.0
  0
LINE
  5
9F
330
1F
100
AcDbEntity
  8
0
  6
Continuous
 62
     7
370
    15
100
AcDbLine
 10
175.5201092472
 20
126.5780642757
 30
0.0
 11
175.5201092472
 21
125.0780649612
 31
0.0
  0
LINE
  5
A0
330
1F
100
AcDbEntity
  8
0
  6
Continuous
 62
     7
370
    15
100
AcDbLine
 10
173.0201093031
 20
125.0780649612
 30
0.0
 11
173.0201093031
 21
123.2780642936
 31
0.0
  0
LINE
  5
A1
330
1F
100
AcDbEntity
  8
0
  6
Continuous
 62
     7
370
    15
100
AcDbLine
 10
173.0201093031
 20
126.8780619035
 30
0.0
 11
173.0201093031
 21
125.0780649612
 31
0.0
  0
LINE
  5
A2
330
1F
100
AcDbEntity
  8
0
  6
Continuous
 62
     7
370
    15
100
AcDbLine
 10
77.5201108789
 20
152.0780637989
 30
0.0
 11
80.0201084947
 21
152.0780637989
 31
0.0
  0
LINE
  5
A3
330
1F
100
AcDbEntity
  8
0
  6
Continuous
 62
     7
370
    15
100
AcDbLine
 10
77.5201108789
 20
155.5854655931
 30
0.0
 11
77.5201108789
 21
152.0780637989
 31
0.0
  0
LINE
  5
A4
330
1F
100
AcDbEntity
  8
0
  6
Continuous
 62
     7
370
    15
100
AcDbLine
 10
77.5201108789
 20
155.5854655931
 30
0.0
 11
80.0201084947
 21
155.5854655931
 31
0.0
  0
LINE
  5
A5
330
1F
100
AcDbEntity
  8
0
  6
Continuous
 62
   144
370
     0
100
AcDbLine
 10
80.0201084947
 20
155.5854655931
 30
0.0
 11
80.0201084947
 21
155.3086169193
 31
0.0
  0
LINE
  5
A6
330
1F
100
AcDbEntity
  8
0
  6
Continuous
 62
   144
370
     0
100
AcDbLine
 10
80.0201084947
 20
152.3549124727
 30
0.0
 11
80.0201084947
 21
152.0780637989
 31
0.0
  0
LINE
  5
A7
330
1F
100
AcDbEntity
  8
0
  6
Continuous
 62
     7
370
    15
100
AcDbLine
 10
77.5201108789
 20
148.5706620047
 30
0.0
 11
80.0201084947
 21
148.5706620047
 31
0.0
  0
LINE
  5
A8
330
1F
100
AcDbEntity
  8
0
  6
Continuous
 62
     7
370
    15
100
AcDbLine
 10
77.5201108789
 20
152.0780637989
 30
0.0
 11
77.5201108789
 21
148.5706620047
 31
0.0
  0
LINE
  5
A9
330
1F
100
AcDbEntity
  8
0
  6
Continuous
 62
   144
370
     0
100
AcDbLine
 10
80.0201084947
 20
152.0780637989
 30
0.0
 11
80.0201084947
 21
151.8012151251
 31
0.0
  0
LINE
  5
AA
330
1F
100
AcDbEntity
  8
0
  6
Continuous
 62
   144
370
     0
100
AcDbLine
 10
80.0201084947
 20
148.8475106785
 30
0.0
 11
80.0201084947
 21
148.5706620047
 31
0.0
  0
LINE
  5
AB
330
1F
100
AcDbEntity
  8
0
  6
Continuous
 62
     7
370
    15
100
AcDbLine
 10
80.0201084947
 20
148.5706620047
 30
0.0
 11
80.0201084947
 21
148.178064836
 31
0.0
  0
LINE
  5
AC
330
1F
100
AcDbEntity
  8
0
  6
Continuous
 62
     7
370
    15
100
AcDbLine
 10
80.0201084947
 20
151.8012151251
 30
0.0
 11
80.0201084947
 21
148.8475106785
 31
0.0
  0
LINE
  5
AD
330
1F
100
AcDbEntity
  8
0
  6
Continuous
 62
     7
370
    15
100
AcDbLine
 10
80.0201084947
 20
155.3086169193
 30
0.0
 11
80.0201084947
 21
152.3549124727
 31
0.0
  0
LINE
  5
AE
330
1F
100
AcDbEntity
  8
0
  6
Continuous
 62
     7
370
    15
100
AcDbLine
 10
80.0201084947
 20
155.9780627618
 30
0.0
 11
80.0201084947
 21
155.5854655931
 31
0.0
  0
LINE
  5
AF
330
1F
100
AcDbEntity
  8
0
  6
Continuous
 62
     7
370
    15
100
AcDbLine
 10
72.5201081967
 20
149.728064997
 30
0.0
 11
72.5201081967
 21
154.4280626009
 31
0.0
  0
LINE
  5
B0
330
1F
100
AcDbEntity
  8
0
  6
Continuous
 62
     7
370
    15
100
AcDbLine
 10
70.0201105809
 20
150.0780634711
 30
0.0
 11
70.0201105809
 21
154.0780641267
 31
0.0
  0
LINE
  5
B1
330
1F
100
AcDbEntity
  8
0
  6
Continuous
 62
     7
370
    15
100
AcDbLine
 10
75.0201058125
 20
149.728064997
 30
0.0
 11
75.0201058125
 21
154.4280626009
 31
0.0
  0
LINE
  5
B2
330
1F
100
AcDbEntity
  8
0
  6
Continuous
 62
     7
370
    15
100
AcDbLine
 10
80.0201084947
 20
128.5780646036
 30
0.0
 11
77.5201108789
 21
128.5780646036
 31
0.0
  0
LINE
  5
B3
330
1F
100
AcDbEntity
  8
0
  6
Continuous
 62
   144
370
     0
100
AcDbLine
 10
80.0201084947
 20
128.5780646036
 30
0.0
 11
80.0201084947
 21
128.3180281649
 31
0.0
  0
LINE
  5
B4
330
1F
100
AcDbEntity
  8
0
  6
Continuous
 62
   144
370
     0
100
AcDbLine
 10
80.0201084947
 20
125.3380976746
 30
0.0
 11
80.0201084947
 21
125.0780649612
 31
0.0
  0
LINE
  5
B5
330
1F
100
AcDbEntity
  8
0
  6
Continuous
 62
     7
370
    15
100
AcDbLine
 10
80.0201084947
 20
125.0780649612
 30
0.0
 11
77.5201108789
 21
125.0780649612
 31
0.0
  0
LINE
  5
B6
330
1F
100
AcDbEntity
  8
0
  6
Continuous
 62
     7
370
    15
100
AcDbLine
 10
77.5201108789
 20
128.5780646036
 30
0.0
 11
77.5201108789
 21
125.0780649612
 31
0.0
  0
LINE
  5
B7
330
1F
100
AcDbEntity
  8
0
  6
Continuous
 62
     7
370
    15
100
AcDbLine
 10
80.0201084947
 20
121.5780653188
 30
0.0
 11
77.5201108789
 21
121.5780653188
 31
0.0
  0
LINE
  5
B8
330
1F
100
AcDbEntity
  8
0
  6
Continuous
 62
     7
370
    15
100
AcDbLine
 10
77.5201108789
 20
125.0780649612
 30
0.0
 11
77.5201108789
 21
121.5780653188
 31
0.0
  0
LINE
  5
B9
330
1F
100
AcDbEntity
  8
0
  6
Continuous
 62
   144
370
     0
100
AcDbLine
 10
80.0201084947
 20
121.8380980322
 30
0.0
 11
80.0201084947
 21
121.5780653188
 31
0.0
  0
LINE
  5
BA
330
1F
100
AcDbEntity
  8
0
  6
Continuous
 62
   144
370
     0
100
AcDbLine
 10
80.0201084947
 20
125.0780649612
 30
0.0
 11
80.0201084947
 21
124.8180322478
 31
0.0
  0
LINE
  5
BB
330
1F
100
AcDbEntity
  8
0
  6
Continuous
 62
     7
370
    15
100
AcDbLine
 10
80.0201084947
 20
121.5780653188
 30
0.0
 11
80.0201084947
 21
121.1780659983
 31
0.0
  0
LINE
  5
BC
330
1F
100
AcDbEntity
  8
0
  6
Continuous
 62
     7
370
    15
100
AcDbLine
 10
80.0201084947
 20
124.8180322478
 30
0.0
 11
80.0201084947
 21
121.8380980322
 31
0.0
  0
LINE
  5
BD
330
1F
100
AcDbEntity
  8
0
  6
Continuous
 62
     7
370
    15
100
AcDbLine
 10
80.0201084947
 20
128.3180281649
 30
0.0
 11
80.0201084947
 21
125.3380976746
 31
0.0
  0
LINE
  5
BE
330
1F
100
AcDbEntity
  8
0
  6
Continuous
 62
     7
370
    15
100
AcDbLine
 10
80.0201084947
 20
128.9780639241
 30
0.0
 11
80.0201084947
 21
128.5780646036
 31
0.0
  0
LINE
  5
BF
330
1F
100
AcDbEntity
  8
0
  6
Continuous
 62
     7
370
    15
100
AcDbLine
 10
75.5201068258
 20
123.4286554286
 30
0.0
 11
75.5201068258
 21
126.9826382527
 31
0.0
  0
LINE
  5
C0
330
1F
100
AcDbEntity
  8
0
  6
Continuous
 62
     7
370
    15
100
AcDbLine
 10
75.5201068258
 20
123.1734879444
 30
0.0
 11
75.5201068258
 21
123.4286554286
 31
0.0
  0
LINE
  5
C1
330
1F
100
AcDbEntity
  8
0
  6
Continuous
 62
     7
370
    15
100
AcDbLine
 10
75.0201058125
 20
123.4286554286
 30
0.0
 11
75.0201058125
 21
126.9826382527
 31
0.0
  0
LINE
  5
C2
330
1F
100
AcDbEntity
  8
0
  6
Continuous
 62
     7
370
    15
100
AcDbLine
 10
75.0201058125
 20
123.1734879444
 30
0.0
 11
75.0201058125
 21
123.4286554286
 31
0.0
  0
LINE
  5
C3
330
1F
100
AcDbEntity
  8
0
  6
Continuous
 62
     7
370
    15
100
AcDbLine
 10
73.02010921
 20
123.5192172358
 30
0.0
 11
73.02010921
 21
126.8780619035
 31
0.0
  0
LINE
  5
C4
330
1F
100
AcDbEntity
  8
0
  6
Continuous
 62
     7
370
    15
100
AcDbLine
 10
73.02010921
 20
123.2780642936
 30
0.0
 11
73.02010921
 21
123.5192172358
 31
0.0
  0
LINE
  5
C5
330
1F
100
AcDbEntity
  8
0
  6
Continuous
 62
     7
370
    15
100
AcDbLine
 10
72.5201081967
 20
123.5192172358
 30
0.0
 11
72.5201081967
 21
126.8780619035
 31
0.0
  0
LINE
  5
C6
330
1F
100
AcDbEntity
  8
0
  6
Continuous
 62
     7
370
    15
100
AcDbLine
 10
72.5201081967
 20
123.2780642936
 30
0.0
 11
72.5201081967
 21
123.5192172358
 31
0.0
  0
LINE
  5
C7
330
1F
100
AcDbEntity
  8
0
  6
Continuous
 62
     7
370
    15
100
AcDbLine
 10
70.5201115942
 20
123.7790264318
 30
0.0
 11
70.5201115942
 21
126.5780642757
 31
0.0
  0
LINE
  5
C8
330
1F
100
AcDbEntity
  8
0
  6
Continuous
 62
     7
370
    15
100
AcDbLine
 10
70.5201115942
 20
123.5780619214
 30
0.0
 11
70.5201115942
 21
123.7790264318
 31
0.0
  0
LINE
  5
C9
330
1F
100
AcDbEntity
  8
0
  6
Continuous
 62
     7
370
    15
100
AcDbLine
 10
165.6201093009
 20
134.5706597099
 30
0.0
 11
165.6201093009
 21
133.5706614087
 31
0.0
  0
LINE
  5
CA
330
1F
100
AcDbEntity
  8
0
  6
Continuous
 62
   144
370
     0
100
AcDbLine
 10
165.6201093009
 20
142.5706610212
 30
0.0
 11
165.6201093009
 21
134.5706597099
 31
0.0
  0
LINE
  5
CB
330
1F
100
AcDbEntity
  8
0
  6
Continuous
 62
     7
370
    15
100
AcDbLine
 10
165.6201093009
 20
143.5706593225
 30
0.0
 11
165.6201093009
 21
142.5706610212
 31
0.0
  0
LINE
  5
CC
330
1F
100
AcDbEntity
  8
0
  6
Continuous
 62
   144
370
     0
100
AcDbLine
 10
165.6201093009
 20
142.5706610212
 30
0.0
 11
165.5201094708
 21
142.5706610212
 31
0.0
  0
LINE
  5
CD
330
1F
100
AcDbEntity
  8
0
  6
Continuous
 62
     7
370
    15
100
AcDbLine
 10
165.5201094708
 20
143.5706593225
 30
0.0
 11
165.6201093009
 21
143.5706593225
 31
0.0
  0
LINE
  5
CE
330
1F
100
AcDbEntity
  8
0
  6
Continuous
 62
     7
370
    15
100
AcDbLine
 10
165.6201093009
 20
133.5706614087
 30
0.0
 11
165.5201094708
 21
133.5706614087
 31
0.0
  0
LINE
  5
CF
330
1F
100
AcDbEntity
  8
0
  6
Continuous
 62
   144
370
     0
100
AcDbLine
 10
165.5201094708
 20
134.5706597099
 30
0.0
 11
165.6201093009
 21
134.5706597099
 31
0.0
  0
LINE
  5
D0
330
1F
100
AcDbEntity
  8
0
  6
Continuous
 62
     7
370
    15
100
AcDbLine
 10
165.6401094532
 20
137.113252295
 30
0.0
 11
165.6401094532
 21
137.0775081346
 31
0.0
  0
LINE
  5
D1
330
1F
100
AcDbEntity
  8
0
  6
Continuous
 62
   144
370
     0
100
AcDbLine
 10
165.6401094532
 20
134.5472946892
 30
0.0
 11
165.6401094532
 21
134.4718352089
 31
0.0
  0
LINE
  5
D2
330
1F
100
AcDbEntity
  8
0
  6
Continuous
 62
   144
370
     0
100
AcDbLine
 10
165.6401094532
 20
134.4718352089
 30
0.0
 11
165.6401094532
 21
134.3884296844
 31
0.0
  0
LINE
  5
D3
330
1F
100
AcDbEntity
  8
0
  6
Continuous
 62
   144
370
     0
100
AcDbLine
 10
165.6401094532
 20
134.3884296844
 30
0.0
 11
165.6401094532
 21
134.3050278852
 31
0.0
  0
LINE
  5
D4
330
1F
100
AcDbEntity
  8
0
  6
Continuous
 62
   144
370
     0
100
AcDbLine
 10
165.6401094532
 20
134.3050278852
 30
0.0
 11
165.6401094532
 21
134.2414818833
 31
0.0
  0
LINE
  5
D5
330
1F
100
AcDbEntity
  8
0
  6
Continuous
 62
   144
370
     0
100
AcDbLine
 10
165.6401094532
 20
134.2414818833
 30
0.0
 11
165.6401094532
 21
134.197795404
 31
0.0
  0
LINE
  5
D6
330
1F
100
AcDbEntity
  8
0
  6
Continuous
 62
   144
370
     0
100
AcDbLine
 10
165.6401094532
 20
134.197795404
 30
0.0
 11
165.6401094532
 21
134.1580800841
 31
0.0
  0
LINE
  5
D7
330
1F
100
AcDbEntity
  8
0
  6
Continuous
 62
   144
370
     0
100
AcDbLine
 10
165.6401094532
 20
134.1580800841
 30
0.0
 11
165.6401094532
 21
134.1302782426
 31
0.0
  0
LINE
  5
D8
330
1F
100
AcDbEntity
  8
0
  6
Continuous
 62
   144
370
     0
100
AcDbLine
 10
165.6401094532
 20
134.1302782426
 30
0.0
 11
165.6401094532
 21
134.1104224453
 31
0.0
  0
LINE
  5
D9
330
1F
100
AcDbEntity
  8
0
  6
Continuous
 62
   144
370
     0
100
AcDbLine
 10
165.6401094532
 20
134.1104224453
 30
0.0
 11
165.6401094532
 21
134.0985052416
 31
0.0
  0
LINE
  5
DA
330
1F
100
AcDbEntity
  8
0
  6
Continuous
 62
   144
370
     0
100
AcDbLine
 10
165.6401094532
 20
137.1291406581
 30
0.0
 11
165.6401094532
 21
137.1251694987
 31
0.0
  0
LINE
  5
DB
330
1F
100
AcDbEntity
  8
0
  6
Continuous
 62
   144
370
     0
100
AcDbLine
 10
165.6401094532
 20
137.1251694987
 30
0.0
 11
165.6401094532
 21
137.113252295
 31
0.0
  0
LINE
  5
DC
330
1F
100
AcDbEntity
  8
0
  6
Continuous
 62
   144
370
     0
100
AcDbLine
 10
165.6401094532
 20
137.0775081346
 30
0.0
 11
165.6401094532
 21
137.0338216553
 31
0.0
  0
LINE
  5
DD
330
1F
100
AcDbEntity
  8
0
  6
Continuous
 62
   144
370
     0
100
AcDbLine
 10
165.6401094532
 20
137.0338216553
 30
0.0
 11
165.6401094532
 21
136.982192857
 31
0.0
  0
LINE
  5
DE
330
1F
100
AcDbEntity
  8
0
  6
Continuous
 62
   144
370
     0
100
AcDbLine
 10
165.6401094532
 20
136.982192857
 30
0.0
 11
165.6401094532
 21
136.9146756957
 31
0.0
  0
LINE
  5
DF
330
1F
100
AcDbEntity
  8
0
  6
Continuous
 62
   144
370
     0
100
AcDbLine
 10
165.6401094532
 20
136.9146756957
 30
0.0
 11
165.6401094532
 21
136.8233278523
 31
0.0
  0
LINE
  5
E0
330
1F
100
AcDbEntity
  8
0
  6
Continuous
 62
   144
370
     0
100
AcDbLine
 10
165.6401094532
 20
136.8233278523
 30
0.0
 11
165.6401094532
 21
136.7121242116
 31
0.0
  0
LINE
  5
E1
330
1F
100
AcDbEntity
  8
0
  6
Continuous
 62
   144
370
     0
100
AcDbLine
 10
165.6401094532
 20
136.7121242116
 30
0.0
 11
165.6401094532
 21
136.6048954556
 31
0.0
  0
LINE
  5
E2
330
1F
100
AcDbEntity
  8
0
  6
Continuous
 62
   144
370
     0
100
AcDbLine
 10
165.6401094532
 20
136.6048954556
 30
0.0
 11
165.6401094532
 21
136.4817746112
 31
0.0
  0
LINE
  5
E3
330
1F
100
AcDbEntity
  8
0
  6
Continuous
 62
   144
370
     0
100
AcDbLine
 10
165.6401094532
 20
136.4817746112
 30
0.0
 11
165.6401094532
 21
136.3586574922
 31
0.0
  0
LINE
  5
E4
330
1F
100
AcDbEntity
  8
0
  6
Continuous
 62
   144
370
     0
100
AcDbLine
 10
165.6401094532
 20
136.3586574922
 30
0.0
 11
165.6401094532
 21
136.2355366478
 31
0.0
  0
LINE
  5
E5
330
1F
100
AcDbEntity
  8
0
  6
Continuous
 62
   144
370
     0
100
AcDbLine
 10
165.6401094532
 20
136.2355366478
 30
0.0
 11
165.6401094532
 21
136.1283078918
 31
0.0
  0
LINE
  5
E6
330
1F
100
AcDbEntity
  8
0
  6
Continuous
 62
   144
370
     0
100
AcDbLine
 10
165.6401094532
 20
136.1283078918
 30
0.0
 11
165.6401094532
 21
135.9932735691
 31
0.0
  0
LINE
  5
E7
330
1F
100
AcDbEntity
  8
0
  6
Continuous
 62
   144
370
     0
100
AcDbLine
 10
165.6401094532
 20
135.9932735691
 30
0.0
 11
165.6401094532
 21
135.8383834491
 31
0.0
  0
LINE
  5
E8
330
1F
100
AcDbEntity
  8
0
  6
Continuous
 62
   144
370
     0
100
AcDbLine
 10
165.6401094532
 20
135.8383834491
 30
0.0
 11
165.6401094532
 21
135.6954068074
 31
0.0
  0
LINE
  5
E9
330
1F
100
AcDbEntity
  8
0
  6
Continuous
 62
   144
370
     0
100
AcDbLine
 10
165.6401094532
 20
135.6954068074
 30
0.0
 11
165.6401094532
 21
135.5603724847
 31
0.0
  0
LINE
  5
EA
330
1F
100
AcDbEntity
  8
0
  6
Continuous
 62
   144
370
     0
100
AcDbLine
 10
165.6401094532
 20
135.5603724847
 30
0.0
 11
165.6401094532
 21
135.4253381619
 31
0.0
  0
LINE
  5
EB
330
1F
100
AcDbEntity
  8
0
  6
Continuous
 62
   144
370
     0
100
AcDbLine
 10
165.6401094532
 20
135.4253381619
 30
0.0
 11
165.6401094532
 21
135.294278724
 31
0.0
  0
LINE
  5
EC
330
1F
100
AcDbEntity
  8
0
  6
Continuous
 62
   144
370
     0
100
AcDbLine
 10
165.6401094532
 20
135.294278724
 30
0.0
 11
165.6401094532
 21
135.1671867201
 31
0.0
  0
LINE
  5
ED
330
1F
100
AcDbEntity
  8
0
  6
Continuous
 62
   144
370
     0
100
AcDbLine
 10
165.6401094532
 20
135.1671867201
 30
0.0
 11
165.6401094532
 21
135.0083254406
 31
0.0
  0
LINE
  5
EE
330
1F
100
AcDbEntity
  8
0
  6
Continuous
 62
   144
370
     0
100
AcDbLine
 10
165.6401094532
 20
135.0083254406
 30
0.0
 11
165.6401094532
 21
134.8843068013
 31
0.0
  0
LINE
  5
EF
330
1F
100
AcDbEntity
  8
0
  6
Continuous
 62
   144
370
     0
100
AcDbLine
 10
165.6401094532
 20
134.8843068013
 30
0.0
 11
165.6401094532
 21
134.8253354559
 31
0.0
  0
LINE
  5
F0
330
1F
100
AcDbEntity
  8
0
  6
Continuous
 62
   144
370
     0
100
AcDbLine
 10
165.6401094532
 20
134.8253354559
 30
0.0
 11
165.6401094532
 21
134.7459048162
 31
0.0
  0
LINE
  5
F1
330
1F
100
AcDbEntity
  8
0
  6
Continuous
 62
   144
370
     0
100
AcDbLine
 10
165.6401094532
 20
134.7459048162
 30
0.0
 11
165.6401094532
 21
134.6148081253
 31
0.0
  0
LINE
  5
F2
330
1F
100
AcDbEntity
  8
0
  6
Continuous
 62
   144
370
     0
100
AcDbLine
 10
165.6401094532
 20
134.6148081253
 30
0.0
 11
165.6401094532
 21
134.5472946892
 31
0.0
  0
LINE
  5
F3
330
1F
100
AcDbEntity
  8
0
  6
Continuous
 62
   144
370
     0
100
AcDbLine
 10
165.6401094532
 20
137.0775081346
 30
0.0
 11
165.6201093009
 21
137.0775081346
 31
0.0
  0
LINE
  5
F4
330
1F
100
AcDbEntity
  8
0
  6
Continuous
 62
   144
370
     0
100
AcDbLine
 10
165.6401094532
 20
137.113252295
 30
0.0
 11
165.6201093009
 21
137.113252295
 31
0.0
  0
LINE
  5
F5
330
1F
100
AcDbEntity
  8
0
  6
Continuous
 62
   144
370
     0
100
AcDbLine
 10
165.6401094532
 20
135.6652394066
 30
0.0
 11
165.6201093009
 21
135.6652394066
 31
0.0
  0
LINE
  5
F6
330
1F
100
AcDbEntity
  8
0
  6
Continuous
 62
   144
370
     0
100
AcDbLine
 10
165.6401094532
 20
135.7666641603
 30
0.0
 11
165.6201093009
 21
135.7666641603
 31
0.0
  0
LINE
  5
F7
330
1F
100
AcDbEntity
  8
0
  6
Continuous
 62
     7
370
    15
100
AcDbLine
 10
165.6401094532
 20
139.8490011821
 30
0.0
 11
165.6401094532
 21
139.7769801447
 31
0.0
  0
LINE
  5
F8
330
1F
100
AcDbEntity
  8
0
  6
Continuous
 62
     7
370
    15
100
AcDbLine
 10
165.6401094532
 20
140.2055896947
 30
0.0
 11
165.6401094532
 21
140.1493787894
 31
0.0
  0
LINE
  5
F9
330
1F
100
AcDbEntity
  8
0
  6
Continuous
 62
     7
370
    15
100
AcDbLine
 10
165.6401094532
 20
140.2495071421
 30
0.0
 11
165.6401094532
 21
140.2055896947
 31
0.0
  0
LINE
  5
FA
330
1F
100
AcDbEntity
  8
0
  6
Continuous
 62
   144
370
     0
100
AcDbLine
 10
165.6401094532
 20
140.2828820179
 30
0.0
 11
165.6401094532
 21
140.2495071421
 31
0.0
  0
LINE
  5
FB
330
1F
100
AcDbEntity
  8
0
  6
Continuous
 62
   144
370
     0
100
AcDbLine
 10
165.6401094532
 20
140.1493787894
 30
0.0
 11
165.6401094532
 21
140.0949262211
 31
0.0
  0
LINE
  5
FC
330
1F
100
AcDbEntity
  8
0
  6
Continuous
 62
   144
370
     0
100
AcDbLine
 10
165.6401094532
 20
140.0949262211
 30
0.0
 11
165.6401094532
 21
140.0422282646
 31
0.0
  0
LINE
  5
FD
330
1F
100
AcDbEntity
  8
0
  6
Continuous
 62
   144
370
     0
100
AcDbLine
 10
165.6401094532
 20
140.0422282646
 30
0.0
 11
165.6401094532
 21
139.971961839
 31
0.0
  0
LINE
  5
FE
330
1F
100
AcDbEntity
  8
0
  6
Continuous
 62
   144
370
     0
100
AcDbLine
 10
165.6401094532
 20
139.971961839
 30
0.0
 11
165.6401094532
 21
139.9192638824
 31
0.0
  0
LINE
  5
FF
330
1F
100
AcDbEntity
  8
0
  6
Continuous
 62
   144
370
     0
100
AcDbLine
 10
165.6401094532
 20
139.9192638824
 30
0.0
 11
165.6401094532
 21
139.8490011821
 31
0.0
  0
LINE
  5
100
330
1F
100
AcDbEntity
  8
0
  6
Continuous
 62
   144
370
     0
100
AcDbLine
 10
165.6401094532
 20
139.7769801447
 30
0.0
 11
165.6401094532
 21
139.7154979537
 31
0.0
  0
LINE
  5
101
330
1F
100
AcDbEntity
  8
0
  6
Continuous
 62
   144
370
     0
100
AcDbLine
 10
165.6401094532
 20
139.7154979537
 30
0.0
 11
165.6401094532
 21
139.6627999971
 31
0.0
  0
LINE
  5
102
330
1F
100
AcDbEntity
  8
0
  6
Continuous
 62
   144
370
     0
100
AcDbLine
 10
165.6401094532
 20
139.6627999971
 30
0.0
 11
165.6401094532
 21
139.6083474288
 31
0.0
  0
LINE
  5
103
330
1F
100
AcDbEntity
  8
0
  6
Continuous
 62
   144
370
     0
100
AcDbLine
 10
165.6401094532
 20
139.6083474288
 30
0.0
 11
165.6401094532
 21
139.5784855018
 31
0.0
  0
LINE
  5
104
330
1F
100
AcDbEntity
  8
0
  6
Continuous
 62
   144
370
     0
100
AcDbLine
 10
165.6401094532
 20
139.5784855018
 30
0.0
 11
165.6401094532
 21
139.5609170327
 31
0.0
  0
LINE
  5
105
330
1F
100
AcDbEntity
  8
0
  6
Continuous
 62
   144
370
     0
100
AcDbLine
 10
165.6401094532
 20
139.5609170327
 30
0.0
 11
165.6401094532
 21
139.5486235747
 31
0.0
  0
LINE
  5
106
330
1F
100
AcDbEntity
  8
0
  6
Continuous
 62
   144
370
     0
100
AcDbLine
 10
165.6401094532
 20
139.5486235747
 30
0.0
 11
165.6401094532
 21
139.5310551057
 31
0.0
  0
LINE
  5
107
330
1F
100
AcDbEntity
  8
0
  6
Continuous
 62
   144
370
     0
100
AcDbLine
 10
165.6401094532
 20
139.5310551057
 30
0.0
 11
165.6401094532
 21
139.5064644644
 31
0.0
  0
LINE
  5
108
330
1F
100
AcDbEntity
  8
0
  6
Continuous
 62
   144
370
     0
100
AcDbLine
 10
165.6401094532
 20
139.5064644644
 30
0.0
 11
165.6401094532
 21
139.4748442004
 31
0.0
  0
LINE
  5
109
330
1F
100
AcDbEntity
  8
0
  6
Continuous
 62
   144
370
     0
100
AcDbLine
 10
165.6401094532
 20
139.4748442004
 30
0.0
 11
165.6401094532
 21
139.4362017641
 31
0.0
  0
LINE
  5
10A
330
1F
100
AcDbEntity
  8
0
  6
Continuous
 62
   144
370
     0
100
AcDbLine
 10
165.6401094532
 20
139.4362017641
 30
0.0
 11
165.6401094532
 21
139.3922843168
 31
0.0
  0
LINE
  5
10B
330
1F
100
AcDbEntity
  8
0
  6
Continuous
 62
   144
370
     0
100
AcDbLine
 10
165.6401094532
 20
139.3922843168
 30
0.0
 11
165.6401094532
 21
139.3624223897
 31
0.0
  0
LINE
  5
10C
330
1F
100
AcDbEntity
  8
0
  6
Continuous
 62
   144
370
     0
100
AcDbLine
 10
165.6401094532
 20
139.3624223897
 30
0.0
 11
165.6401094532
 21
139.3378317485
 31
0.0
  0
LINE
  5
10D
330
1F
100
AcDbEntity
  8
0
  6
Continuous
 62
   144
370
     0
100
AcDbLine
 10
165.6401094532
 20
139.3378317485
 30
0.0
 11
165.6401094532
 21
139.3255345652
 31
0.0
  0
LINE
  5
10E
330
1F
100
AcDbEntity
  8
0
  6
Continuous
 62
   144
370
     0
100
AcDbLine
 10
165.6401094532
 20
139.3255345652
 30
0.0
 11
165.6401094532
 21
139.3237762282
 31
0.0
  0
LINE
  5
10F
330
1F
100
AcDbEntity
  8
0
  6
Continuous
 62
   144
370
     0
100
AcDbLine
 10
165.6401094532
 20
139.3237762282
 30
0.0
 11
165.6401094532
 21
139.3220216165
 31
0.0
  0
LINE
  5
110
330
1F
100
AcDbEntity
  8
0
  6
Continuous
 62
   144
370
     0
100
AcDbLine
 10
165.6401094532
 20
140.3777390847
 30
0.0
 11
165.6401094532
 21
140.3654419014
 31
0.0
  0
LINE
  5
111
330
1F
100
AcDbEntity
  8
0
  6
Continuous
 62
   144
370
     0
100
AcDbLine
 10
165.6401094532
 20
140.3654419014
 30
0.0
 11
165.6401094532
 21
140.3355799744
 31
0.0
  0
LINE
  5
112
330
1F
100
AcDbEntity
  8
0
  6
Continuous
 62
   144
370
     0
100
AcDbLine
 10
165.6401094532
 20
140.3355799744
 30
0.0
 11
165.6401094532
 21
140.3162568936
 31
0.0
  0
LINE
  5
113
330
1F
100
AcDbEntity
  8
0
  6
Continuous
 62
   144
370
     0
100
AcDbLine
 10
165.6401094532
 20
140.3162568936
 30
0.0
 11
165.6401094532
 21
140.2828820179
 31
0.0
  0
LINE
  5
114
330
1F
100
AcDbEntity
  8
0
  6
Continuous
 62
     7
370
    15
100
AcDbLine
 10
165.6401094532
 20
138.2014989982
 30
0.0
 11
165.6401094532
 21
138.1321154664
 31
0.0
  0
LINE
  5
115
330
1F
100
AcDbEntity
  8
0
  6
Continuous
 62
     7
370
    15
100
AcDbLine
 10
165.6401094532
 20
138.8349846134
 30
0.0
 11
165.6401094532
 21
138.7837022672
 31
0.0
  0
LINE
  5
116
330
1F
100
AcDbEntity
  8
0
  6
Continuous
 62
   144
370
     0
100
AcDbLine
 10
165.6401094532
 20
139.2120622227
 30
0.0
 11
165.6401094532
 21
139.2060272524
 31
0.0
  0
LINE
  5
117
330
1F
100
AcDbEntity
  8
0
  6
Continuous
 62
   144
370
     0
100
AcDbLine
 10
165.6401094532
 20
139.2060272524
 30
0.0
 11
165.6401094532
 21
139.1939610372
 31
0.0
  0
LINE
  5
118
330
1F
100
AcDbEntity
  8
0
  6
Continuous
 62
   144
370
     0
100
AcDbLine
 10
165.6401094532
 20
139.1939610372
 30
0.0
 11
165.6401094532
 21
139.1577623913
 31
0.0
  0
LINE
  5
119
330
1F
100
AcDbEntity
  8
0
  6
Continuous
 62
   144
370
     0
100
AcDbLine
 10
165.6401094532
 20
139.1577623913
 30
0.0
 11
165.6401094532
 21
139.1155287752
 31
0.0
  0
LINE
  5
11A
330
1F
100
AcDbEntity
  8
0
  6
Continuous
 62
   144
370
     0
100
AcDbLine
 10
165.6401094532
 20
139.1155287752
 30
0.0
 11
165.6401094532
 21
139.064246429
 31
0.0
  0
LINE
  5
11B
330
1F
100
AcDbEntity
  8
0
  6
Continuous
 62
   144
370
     0
100
AcDbLine
 10
165.6401094532
 20
139.064246429
 30
0.0
 11
165.6401094532
 21
139.0159815679
 31
0.0
  0
LINE
  5
11C
330
1F
100
AcDbEntity
  8
0
  6
Continuous
 62
   144
370
     0
100
AcDbLine
 10
165.6401094532
 20
139.0159815679
 30
0.0
 11
165.6401094532
 21
138.9646992216
 31
0.0
  0
LINE
  5
11D
330
1F
100
AcDbEntity
  8
0
  6
Continuous
 62
   144
370
     0
100
AcDbLine
 10
165.6401094532
 20
138.9646992216
 30
0.0
 11
165.6401094532
 21
138.9073819051
 31
0.0
  0
LINE
  5
11E
330
1F
100
AcDbEntity
  8
0
  6
Continuous
 62
   144
370
     0
100
AcDbLine
 10
165.6401094532
 20
138.9073819051
 30
0.0
 11
165.6401094532
 21
138.8349846134
 31
0.0
  0
LINE
  5
11F
330
1F
100
AcDbEntity
  8
0
  6
Continuous
 62
   144
370
     0
100
AcDbLine
 10
165.6401094532
 20
138.7837022672
 30
0.0
 11
165.6401094532
 21
138.7173362205
 31
0.0
  0
LINE
  5
120
330
1F
100
AcDbEntity
  8
0
  6
Continuous
 62
   144
370
     0
100
AcDbLine
 10
165.6401094532
 20
138.7173362205
 30
0.0
 11
165.6401094532
 21
138.6449389288
 31
0.0
  0
LINE
  5
121
330
1F
100
AcDbEntity
  8
0
  6
Continuous
 62
   144
370
     0
100
AcDbLine
 10
165.6401094532
 20
138.6449389288
 30
0.0
 11
165.6401094532
 21
138.569524152
 31
0.0
  0
LINE
  5
122
330
1F
100
AcDbEntity
  8
0
  6
Continuous
 62
   144
370
     0
100
AcDbLine
 10
165.6401094532
 20
138.569524152
 30
0.0
 11
165.6401094532
 21
138.5061755905
 31
0.0
  0
LINE
  5
123
330
1F
100
AcDbEntity
  8
0
  6
Continuous
 62
   144
370
     0
100
AcDbLine
 10
165.6401094532
 20
138.5061755905
 30
0.0
 11
165.6401094532
 21
138.4910918901
 31
0.0
  0
LINE
  5
124
330
1F
100
AcDbEntity
  8
0
  6
Continuous
 62
   144
370
     0
100
AcDbLine
 10
165.6401094532
 20
138.4910918901
 30
0.0
 11
165.6401094532
 21
138.48204316
 31
0.0
  0
LINE
  5
125
330
1F
100
AcDbEntity
  8
0
  6
Continuous
 62
   144
370
     0
100
AcDbLine
 10
165.6401094532
 20
138.48204316
 30
0.0
 11
165.6401094532
 21
138.4609244893
 31
0.0
  0
LINE
  5
126
330
1F
100
AcDbEntity
  8
0
  6
Continuous
 62
   144
370
     0
100
AcDbLine
 10
165.6401094532
 20
138.4609244893
 30
0.0
 11
165.6401094532
 21
138.4217083583
 31
0.0
  0
LINE
  5
127
330
1F
100
AcDbEntity
  8
0
  6
Continuous
 62
   144
370
     0
100
AcDbLine
 10
165.6401094532
 20
138.4217083583
 30
0.0
 11
165.6401094532
 21
138.3855097125
 31
0.0
  0
LINE
  5
128
330
1F
100
AcDbEntity
  8
0
  6
Continuous
 62
   144
370
     0
100
AcDbLine
 10
165.6401094532
 20
138.3855097125
 30
0.0
 11
165.6401094532
 21
138.3281961212
 31
0.0
  0
LINE
  5
129
330
1F
100
AcDbEntity
  8
0
  6
Continuous
 62
   144
370
     0
100
AcDbLine
 10
165.6401094532
 20
138.3281961212
 30
0.0
 11
165.6401094532
 21
138.2014989982
 31
0.0
  0
LINE
  5
12A
330
1F
100
AcDbEntity
  8
0
  6
Continuous
 62
   144
370
     0
100
AcDbLine
 10
165.6401094532
 20
138.1321154664
 30
0.0
 11
165.6401094532
 21
138.0667962263
 31
0.0
  0
LINE
  5
12B
330
1F
100
AcDbEntity
  8
0
  6
Continuous
 62
   144
370
     0
100
AcDbLine
 10
165.6401094532
 20
138.1321154664
 30
0.0
 11
165.6201093009
 21
138.1321154664
 31
0.0
  0
LINE
  5
12C
330
1F
100
AcDbEntity
  8
0
  6
Continuous
 62
   144
370
     0
100
AcDbLine
 10
165.6401094532
 20
138.2014989982
 30
0.0
 11
165.6201093009
 21
138.2014989982
 31
0.0
  0
LINE
  5
12D
330
1F
100
AcDbEntity
  8
0
  6
Continuous
 62
     7
370
    15
100
AcDbLine
 10
165.6401094532
 20
140.2055896947
 30
0.0
 11
165.6201093009
 21
140.2055896947
 31
0.0
  0
LINE
  5
12E
330
1F
100
AcDbEntity
  8
0
  6
Continuous
 62
   144
370
     0
100
AcDbLine
 10
165.6401094532
 20
140.1493787894
 30
0.0
 11
165.6201093009
 21
140.1493787894
 31
0.0
  0
LINE
  5
12F
330
1F
100
AcDbEntity
  8
0
  6
Continuous
 62
   144
370
     0
100
AcDbLine
 10
165.6401094532
 20
139.7769801447
 30
0.0
 11
165.6201093009
 21
139.7769801447
 31
0.0
  0
LINE
  5
130
330
1F
100
AcDbEntity
  8
0
  6
Continuous
 62
   144
370
     0
100
AcDbLine
 10
165.6401094532
 20
139.8490011821
 30
0.0
 11
165.6201093009
 21
139.8490011821
 31
0.0
  0
LINE
  5
131
330
1F
100
AcDbEntity
  8
0
  6
Continuous
 62
   144
370
     0
100
AcDbLine
 10
165.6401094532
 20
138.7837022672
 30
0.0
 11
165.6201093009
 21
138.7837022672
 31
0.0
  0
LINE
  5
132
330
1F
100
AcDbEntity
  8
0
  6
Continuous
 62
   144
370
     0
100
AcDbLine
 10
165.6401094532
 20
138.8349846134
 30
0.0
 11
165.6201093009
 21
138.8349846134
 31
0.0
  0
LINE
  5
133
330
1F
100
AcDbEntity
  8
0
  6
Continuous
 62
   144
370
     0
100
AcDbLine
 10
165.6401094532
 20
140.2495071421
 30
0.0
 11
165.6201093009
 21
140.2495071421
 31
0.0
  0
LINE
  5
134
330
1F
100
AcDbEntity
  8
0
  6
Continuous
 62
   144
370
     0
100
AcDbLine
 10
165.6401094532
 20
143.1212440262
 30
0.0
 11
165.6201093009
 21
143.1212440262
 31
0.0
  0
SPLINE
  5
135
330
1F
100
AcDbEntity
  8
0
  6
Continuous
 62
   144
370
     0
100
AcDbSpline
210
0.0
220
0.0
230
1.0
 70
    24
 71
     3
 72
    15
 73
    11
 74
     0
 42
0.00000001
 43
0.00000001
 12
1.0
 22
0.0
 32
0.0
 13
1.0
 23
0.0
 33
0.0
 40
0.0
 40
0.0
 40
0.0
 40
0.0
 40
0.1199503101993637
 40
0.2391488680023491
 40
0.3587097966573395
 40
0.4791835424742291
 40
0.6024600212634832
 40
0.7297764792901774
 40
0.8612353059797028
 40
1.0
 40
1.0
 40
1.0
 40
1.0
 10
165.6401093896233
 20
141.6450699322371
 30
0.0
 10
165.6401093896233
 20
141.6502418238938
 30
0.0
 10
165.6401093896233
 20
141.6605531939359
 30
0.0
 10
165.6401093896233
 20
141.6758299495491
 30
0.0
 10
165.6401093896233
 20
141.6908215822147
 30
0.0
 10
165.6401093896233
 20
141.7054700763448
 30
0.0
 10
165.6401093896233
 20
141.7196021465362
 30
0.0
 10
165.6401093896233
 20
141.7334554594241
 30
0.0
 10
165.6401093896233
 20
141.7470575379934
 30
0.0
 10
165.6401093896233
 20
141.7554502633724
 30
0.0
 10
165.6401093896233
 20
141.7597600805422
 30
0.0
  0
SPLINE
  5
136
330
1F
100
AcDbEntity
  8
0
  6
Continuous
 62
   144
370
     0
100
AcDbSpline
210
0.0
220
0.0
230
1.0
 70
    24
 71
     3
 72
    15
 73
    11
 74
     0
 42
0.00000001
 43
0.00000001
 12
1.0
 22
0.0
 32
0.0
 13
1.0
 23
0.0
 33
0.0
 40
0.0
 40
0.0
 40
0.0
 40
0.0
 40
0.1387646940202933
 40
0.2702235207098227
 40
0.3975399787365124
 40
0.5208164575257711
 40
0.6412902033426606
 40
0.760851131997651
 40
0.8800496898006362
 40
1.0
 40
1.0
 40
1.0
 40
1.0
 10
165.6401093896233
 20
141.530379783932
 30
0.0
 10
165.6401093896233
 20
141.5346896011017
 30
0.0
 10
165.6401093896233
 20
141.5430823264807
 30
0.0
 10
165.6401093896233
 20
141.5566844050501
 30
0.0
 10
165.6401093896233
 20
141.5705377179379
 30
0.0
 10
165.6401093896233
 20
141.5846697881294
 30
0.0
 10
165.6401093896233
 20
141.5993182822594
 30
0.0
 10
165.6401093896233
 20
141.6143099149251
 30
0.0
 10
165.6401093896233
 20
141.6295866705383
 30
0.0
 10
165.6401093896233
 20
141.6398980405804
 30
0.0
 10
165.6401093896233
 20
141.6450699322371
 30
0.0
  0
LINE
  5
137
330
1F
100
AcDbEntity
  8
0
  6
Continuous
 62
   144
370
     0
100
AcDbLine
 10
165.6401094532
 20
143.0768460164
 30
0.0
 11
165.6401094532
 21
143.033684803
 31
0.0
  0
LINE
  5
138
330
1F
100
AcDbEntity
  8
0
  6
Continuous
 62
   144
370
     0
100
AcDbLine
 10
165.6401094532
 20
143.0768460164
 30
0.0
 11
165.6401094532
 21
143.1212440262
 31
0.0
  0
LINE
  5
139
330
1F
100
AcDbEntity
  8
0
  6
Continuous
 62
   144
370
     0
100
AcDbLine
 10
165.6401094532
 20
138.608740283
 30
0.0
 11
165.6201093009
 21
138.608740283
 31
0.0
  0
LINE
  5
13A
330
1F
100
AcDbEntity
  8
0
  6
Continuous
 62
   144
370
     0
100
AcDbLine
 10
165.6401094532
 20
138.7113049755
 30
0.0
 11
165.6201093009
 21
138.7113049755
 31
0.0
  0
LINE
  5
13B
330
1F
100
AcDbEntity
  8
0
  6
Continuous
 62
   144
370
     0
100
AcDbLine
 10
165.6401094532
 20
141.8485507498
 30
0.0
 11
165.6201093009
 21
141.8485507498
 31
0.0
  0
LINE
  5
13C
330
1F
100
AcDbEntity
  8
0
  6
Continuous
 62
   144
370
     0
100
AcDbLine
 10
165.6401094532
 20
136.104145659
 30
0.0
 11
165.6201093009
 21
136.104145659
 31
0.0
  0
LINE
  5
13D
330
1F
100
AcDbEntity
  8
0
  6
Continuous
 62
   144
370
     0
100
AcDbLine
 10
165.6401094532
 20
135.9571978579
 30
0.0
 11
165.6201093009
 21
135.9571978579
 31
0.0
  0
LINE
  5
13E
330
1F
100
AcDbEntity
  8
0
  6
Continuous
 62
   144
370
     0
100
AcDbLine
 10
165.6401094532
 20
138.7233711908
 30
0.0
 11
165.6201093009
 21
138.7233711908
 31
0.0
  0
LINE
  5
13F
330
1F
100
AcDbEntity
  8
0
  6
Continuous
 62
   144
370
     0
100
AcDbLine
 10
165.6401094532
 20
138.5966740677
 30
0.0
 11
165.6201093009
 21
138.5966740677
 31
0.0
  0
LINE
  5
140
330
1F
100
AcDbEntity
  8
0
  6
Continuous
 62
   144
370
     0
100
AcDbLine
 10
165.6401094532
 20
134.6743829677
 30
0.0
 11
165.6201093009
 21
134.6743829677
 31
0.0
  0
LINE
  5
141
330
1F
100
AcDbEntity
  8
0
  6
Continuous
 62
   144
370
     0
100
AcDbLine
 10
165.6401094532
 20
134.5433198044
 30
0.0
 11
165.6201093009
 21
134.5433198044
 31
0.0
  0
LINE
  5
142
330
1F
100
AcDbEntity
  8
0
  6
Continuous
 62
   144
370
     0
100
AcDbLine
 10
165.6401094532
 20
137.0299361775
 30
0.0
 11
165.6201093009
 21
137.0299361775
 31
0.0
  0
LINE
  5
143
330
1F
100
AcDbEntity
  8
0
  6
Continuous
 62
   144
370
     0
100
AcDbLine
 10
165.6401094532
 20
139.6627999971
 30
0.0
 11
165.6201093009
 21
139.6627999971
 31
0.0
  0
LINE
  5
144
330
1F
100
AcDbEntity
  8
0
  6
Continuous
 62
   144
370
     0
100
AcDbLine
 10
165.6401094532
 20
139.6136149893
 30
0.0
 11
165.6201093009
 21
139.6136149893
 31
0.0
  0
LINE
  5
145
330
1F
100
AcDbEntity
  8
0
  6
Continuous
 62
   144
370
     0
100
AcDbLine
 10
165.6401094532
 20
139.7225275764
 30
0.0
 11
165.6201093009
 21
139.7225275764
 31
0.0
  0
LINE
  5
146
330
1F
100
AcDbEntity
  8
0
  6
Continuous
 62
     7
370
    15
100
AcDbLine
 10
165.6401094532
 20
135.1351007948
 30
0.0
 11
165.6201093009
 21
135.1351007948
 31
0.0
  0
LINE
  5
147
330
1F
100
AcDbEntity
  8
0
  6
Continuous
 62
   144
370
     0
100
AcDbLine
 10
165.6401094532
 20
134.8625585566
 30
0.0
 11
165.6201093009
 21
134.8625585566
 31
0.0
  0
LINE
  5
148
330
1F
100
AcDbEntity
  8
0
  6
Continuous
 62
     7
370
    15
100
AcDbLine
 10
165.6401094532
 20
140.8611811826
 30
0.0
 11
165.6401094532
 21
140.9680262337
 31
0.0
  0
LINE
  5
149
330
1F
100
AcDbEntity
  8
0
  6
Continuous
 62
   144
370
     0
100
AcDbLine
 10
165.6401094532
 20
141.3786910603
 30
0.0
 11
165.6401094532
 21
141.3997464011
 31
0.0
  0
LINE
  5
14A
330
1F
100
AcDbEntity
  8
0
  6
Continuous
 62
     7
370
    15
100
AcDbLine
 10
165.6401094532
 20
142.3143349717
 30
0.0
 11
165.6401094532
 21
142.3870898912
 31
0.0
  0
LINE
  5
14B
330
1F
100
AcDbEntity
  8
0
  6
Continuous
 62
   144
370
     0
100
AcDbLine
 10
165.6401094532
 20
142.1330511699
 30
0.0
 11
165.6201093009
 21
142.1330511699
 31
0.0
  0
LINE
  5
14C
330
1F
100
AcDbEntity
  8
0
  6
Continuous
 62
   144
370
     0
100
AcDbLine
 10
165.6401094532
 20
142.4937710295
 30
0.0
 11
165.6201093009
 21
142.4937710295
 31
0.0
  0
LINE
  5
14D
330
1F
100
AcDbEntity
  8
0
  6
Continuous
 62
     7
370
    15
100
AcDbLine
 10
165.6401094532
 20
140.8611811826
 30
0.0
 11
165.6201093009
 21
140.8611811826
 31
0.0
  0
LINE
  5
14E
330
1F
100
AcDbEntity
  8
0
  6
Continuous
 62
   144
370
     0
100
AcDbLine
 10
165.6401094532
 20
140.26532845
 30
0.0
 11
165.6201093009
 21
140.26532845
 31
0.0
  0
LINE
  5
14F
330
1F
100
AcDbEntity
  8
0
  6
Continuous
 62
   144
370
     0
100
AcDbLine
 10
165.6401094532
 20
135.3996299336
 30
0.0
 11
165.6201093009
 21
135.3996299336
 31
0.0
  0
LINE
  5
150
330
1F
100
AcDbEntity
  8
0
  6
Continuous
 62
   144
370
     0
100
AcDbLine
 10
165.6401094532
 20
137.9487119744
 30
0.0
 11
165.6201093009
 21
137.9487119744
 31
0.0
  0
LINE
  5
151
330
1F
100
AcDbEntity
  8
0
  6
Continuous
 62
   144
370
     0
100
AcDbLine
 10
165.6401094532
 20
138.2132373879
 30
0.0
 11
165.6201093009
 21
138.2132373879
 31
0.0
  0
LINE
  5
152
330
1F
100
AcDbEntity
  8
0
  6
Continuous
 62
   144
370
     0
100
AcDbLine
 10
165.6401094532
 20
141.0909757147
 30
0.0
 11
165.6201093009
 21
141.0909757147
 31
0.0
  0
LINE
  5
153
330
1F
100
AcDbEntity
  8
0
  6
Continuous
 62
   144
370
     0
100
AcDbLine
 10
165.6401094532
 20
136.393611891
 30
0.0
 11
165.6201093009
 21
136.393611891
 31
0.0
  0
LINE
  5
154
330
1F
100
AcDbEntity
  8
0
  6
Continuous
 62
   144
370
     0
100
AcDbLine
 10
165.6401094532
 20
136.5779802332
 30
0.0
 11
165.6201093009
 21
136.5779802332
 31
0.0
  0
LINE
  5
155
330
1F
100
AcDbEntity
  8
0
  6
Continuous
 62
   144
370
     0
100
AcDbLine
 10
165.6401094532
 20
135.9126508365
 30
0.0
 11
165.6201093009
 21
135.9126508365
 31
0.0
  0
LINE
  5
156
330
1F
100
AcDbEntity
  8
0
  6
Continuous
 62
   144
370
     0
100
AcDbLine
 10
165.6401094532
 20
136.7222644517
 30
0.0
 11
165.6201093009
 21
136.7222644517
 31
0.0
  0
LINE
  5
157
330
1F
100
AcDbEntity
  8
0
  6
Continuous
 62
   144
370
     0
100
AcDbLine
 10
165.6401094532
 20
137.6360893378
 30
0.0
 11
165.6201093009
 21
137.6360893378
 31
0.0
  0
SPLINE
  5
158
330
1F
100
AcDbEntity
  8
0
  6
Continuous
 62
   144
370
     0
100
AcDbSpline
210
0.0
220
0.0
230
1.0
 70
    24
 71
     3
 72
    15
 73
    11
 74
     0
 42
0.00000001
 43
0.00000001
 12
1.0
 22
0.0
 32
0.0
 13
1.0
 23
0.0
 33
0.0
 40
0.0
 40
0.0
 40
0.0
 40
0.0
 40
0.1393380645495132
 40
0.271961716706534
 40
0.3989226025847186
 40
0.5227684370197515
 40
0.6425598343336946
 40
0.7619939822891294
 40
0.8805032563077848
 40
1.0
 40
1.0
 40
1.0
 40
1.0
 10
165.6401093896233
 20
142.4183035127455
 30
0.0
 10
165.6401093896233
 20
142.4184445410818
 30
0.0
 10
165.6401093896233
 20
142.4187198018914
 30
0.0
 10
165.6401093896233
 20
142.4213535502568
 30
0.0
 10
165.6401093896233
 20
142.4257988619805
 30
0.0
 10
165.6401093896233
 20
142.4317040843919
 30
0.0
 10
165.6401093896233
 20
142.4396485119062
 30
0.0
 10
165.6401093896233
 20
142.4492484444841
 30
0.0
 10
165.6401093896233
 20
142.4604622970657
 30
0.0
 10
165.6401093896233
 20
142.4693409838774
 30
0.0
 10
165.6401093896233
 20
142.4737987457964
 30
0.0
  0
SPLINE
  5
159
330
1F
100
AcDbEntity
  8
0
  6
Continuous
 62
   144
370
     0
100
AcDbSpline
210
0.0
220
0.0
230
1.0
 70
    24
 71
     3
 72
    15
 73
    11
 74
     0
 42
0.00000001
 43
0.00000001
 12
1.0
 22
0.0
 32
0.0
 13
1.0
 23
0.0
 33
0.0
 40
0.0
 40
0.0
 40
0.0
 40
0.0
 40
0.1270575307246357
 40
0.252284812504413
 40
0.373983855167767
 40
0.4958483318799162
 40
0.6176412971200795
 40
0.7419302066788875
 40
0.8684078670102164
 40
1.0
 40
1.0
 40
1.0
 40
1.0
 10
165.6401093896233
 20
142.4737987457964
 30
0.0
 10
165.6401093896233
 20
142.4778369625286
 30
0.0
 10
165.6401093896233
 20
142.4858552259508
 30
0.0
 10
165.6401093896233
 20
142.4990132895204
 30
0.0
 10
165.6401093896233
 20
142.51284819133
 30
0.0
 10
165.6401093896233
 20
142.5274313968139
 30
0.0
 10
165.6401093896233
 20
142.5425912604602
 30
0.0
 10
165.6401093896233
 20
142.5585407450729
 30
0.0
 10
165.6401093896233
 20
142.5751165350414
 30
0.0
 10
165.6401093896233
 20
142.5864232033683
 30
0.0
 10
165.6401093896233
 20
142.5921885763049
 30
0.0
  0
LINE
  5
15A
330
1F
100
AcDbEntity
  8
0
  6
Continuous
 62
   144
370
     0
100
AcDbLine
 10
165.6401094532
 20
141.3010001311
 30
0.0
 11
165.6401094532
 21
141.3786910603
 31
0.0
  0
LINE
  5
15B
330
1F
100
AcDbEntity
  8
0
  6
Continuous
 62
   144
370
     0
100
AcDbLine
 10
165.6401094532
 20
141.2159070501
 30
0.0
 11
165.6401094532
 21
141.3010001311
 31
0.0
  0
LINE
  5
15C
330
1F
100
AcDbEntity
  8
0
  6
Continuous
 62
   144
370
     0
100
AcDbLine
 10
165.6401094532
 20
140.9680262337
 30
0.0
 11
165.6401094532
 21
141.2159070501
 31
0.0
  0
LINE
  5
15D
330
1F
100
AcDbEntity
  8
0
  6
Continuous
 62
   144
370
     0
100
AcDbLine
 10
165.6401094532
 20
140.7090515027
 30
0.0
 11
165.6401094532
 21
140.665886564
 31
0.0
  0
LINE
  5
15E
330
1F
100
AcDbEntity
  8
0
  6
Continuous
 62
   144
370
     0
100
AcDbLine
 10
165.6401094532
 20
140.7090515027
 30
0.0
 11
165.6401094532
 21
140.7534457872
 31
0.0
  0
SPLINE
  5
15F
330
1F
100
AcDbEntity
  8
0
  6
Continuous
 62
   144
370
     0
100
AcDbSpline
210
0.0
220
0.0
230
1.0
 70
    24
 71
     3
 72
    23
 73
    19
 74
     0
 42
0.00000001
 43
0.00000001
 12
1.0
 22
0.0
 32
0.0
 13
1.0
 23
0.0
 33
0.0
 40
0.0
 40
0.0
 40
0.0
 40
0.0
 40
0.078171863149237
 40
0.1524920506989955
 40
0.2232213431411669
 40
0.2905216842100339
 40
0.3543716481485834
 40
0.4160887536520937
 40
0.4753477793928109
 40
0.5326860902381437
 40
0.5889513466484931
 40
0.6447220263106576
 40
0.7005919715743524
 40
0.7571518982034404
 40
0.8149713781348511
 40
0.8743082738510034
 40
0.9355597532657145
 40
1.0
 40
1.0
 40
1.0
 40
1.0
 10
165.6401093896233
 20
140.5573633644405
 30
0.0
 10
165.6401093896233
 20
140.562618176591
 30
0.0
 10
165.6401093896233
 20
140.5728688863553
 30
0.0
 10
165.6401093896233
 20
140.5878377305562
 30
0.0
 10
165.6401093896233
 20
140.6019576245066
 30
0.0
 10
165.6401093896233
 20
140.6152977585153
 30
0.0
 10
165.6401093896233
 20
140.6276867379141
 30
0.0
 10
165.6401093896233
 20
140.6393918575327
 30
0.0
 10
165.6401093896233
 20
140.6500841062565
 30
0.0
 10
165.6401093896233
 20
140.6600487783877
 30
0.0
 10
165.6401093896233
 20
140.669137293097
 30
0.0
 10
165.6401093896233
 20
140.6774049925183
 30
0.0
 10
165.6401093896233
 20
140.6848442121514
 30
0.0
 10
165.6401093896233
 20
140.6914305697681
 30
0.0
 10
165.6401093896233
 20
140.6972517300105
 30
0.0
 10
165.6401093896233
 20
140.7019248297494
 30
0.0
 10
165.6401093896233
 20
140.7062220144107
 30
0.0
 10
165.6401093896233
 20
140.7080917497522
 30
0.0
 10
165.6401093896233
 20
140.7090503347794
 30
0.0
  0
LINE
  5
160
330
1F
100
AcDbEntity
  8
0
  6
Continuous
 62
   144
370
     0
100
AcDbLine
 10
165.6401094532
 20
142.0261353383
 30
0.0
 11
165.6401094532
 21
142.0228086541
 31
0.0
  0
SPLINE
  5
161
330
1F
100
AcDbEntity
  8
0
  6
Continuous
 62
   144
370
     0
100
AcDbSpline
210
0.0
220
0.0
230
1.0
 70
    24
 71
     3
 72
    15
 73
    11
 74
     0
 42
0.00000001
 43
0.00000001
 12
1.0
 22
0.0
 32
0.0
 13
1.0
 23
0.0
 33
0.0
 40
0.0
 40
0.0
 40
0.0
 40
0.0
 40
0.1556879583370668
 40
0.3002580815389096
 40
0.4355729270931329
 40
0.5618760602881515
 40
0.680179354411804
 40
0.7914120972889367
 40
0.8978216513088182
 40
1.0
 40
1.0
 40
1.0
 40
1.0
 10
165.6401093896233
 20
141.9447441907116
 30
0.0
 10
165.6401093896233
 20
141.9451887079098
 30
0.0
 10
165.6401093896233
 20
141.9460459988818
 30
0.0
 10
165.6401093896233
 20
141.9497056952576
 30
0.0
 10
165.6401093896233
 20
141.9547759761349
 30
0.0
 10
165.6401093896233
 20
141.9617259416307
 30
0.0
 10
165.6401093896233
 20
141.9704786513975
 30
0.0
 10
165.6401093896233
 20
141.9809485111867
 30
0.0
 10
165.6401093896233
 20
141.992986884655
 30
0.0
 10
165.6401093896233
 20
142.0028213174835
 30
0.0
 10
165.6401093896233
 20
142.0076387881693
 30
0.0
  0
SPLINE
  5
162
330
1F
100
AcDbEntity
  8
0
  6
Continuous
 62
   144
370
     0
100
AcDbSpline
210
0.0
220
0.0
230
1.0
 70
    24
 71
     3
 72
    15
 73
    11
 74
     0
 42
0.00000001
 43
0.00000001
 12
1.0
 22
0.0
 32
0.0
 13
1.0
 23
0.0
 33
0.0
 40
0.0
 40
0.0
 40
0.0
 40
0.0
 40
0.1195122940073585
 40
0.238968693260388
 40
0.3566129793728529
 40
0.4775556668378067
 40
0.6003479127444724
 40
0.7288583660521856
 40
0.8606359757345494
 40
1.0
 40
1.0
 40
1.0
 40
1.0
 10
165.6401093896233
 20
142.0076387881693
 30
0.0
 10
165.6401093896233
 20
142.0113947496201
 30
0.0
 10
165.6401093896233
 20
142.0189049158946
 30
0.0
 10
165.6401093896233
 20
142.0315576282001
 30
0.0
 10
165.6401093896233
 20
142.0450541789005
 30
0.0
 10
165.6401093896233
 20
142.0594043635067
 30
0.0
 10
165.6401093896233
 20
142.0748275350966
 30
0.0
 10
165.6401093896233
 20
142.0910414040556
 30
0.0
 10
165.6401093896233
 20
142.1082528986159
 30
0.0
 10
165.6401093896233
 20
142.1199938763241
 30
0.0
 10
165.6401093896233
 20
142.1260286186777
 30
0.0
  0
SPLINE
  5
163
330
1F
100
AcDbEntity
  8
0
  6
Continuous
 62
   144
370
     0
100
AcDbSpline
210
0.0
220
0.0
230
1.0
 70
    24
 71
     3
 72
    15
 73
    11
 74
     0
 42
0.00000001
 43
0.00000001
 12
1.0
 22
0.0
 32
0.0
 13
1.0
 23
0.0
 33
0.0
 40
0.0
 40
0.0
 40
0.0
 40
0.0
 40
0.1315871839306138
 40
0.2580600875533836
 40
0.3823443227205424
 40
0.505116737072229
 40
0.6260302100212858
 40
0.7477246756954997
 40
0.8729472477923068
 40
1.0
 40
1.0
 40
1.0
 40
1.0
 10
165.6401093896233
 20
142.1260286186777
 30
0.0
 10
165.6401093896233
 20
142.1317937794999
 30
0.0
 10
165.6401093896233
 20
142.1431000318422
 30
0.0
 10
165.6401093896233
 20
142.1596788315826
 30
0.0
 10
165.6401093896233
 20
142.1756593376344
 30
0.0
 10
165.6401093896233
 20
142.1908590578579
 30
0.0
 10
165.6401093896233
 20
142.2053949102084
 30
0.0
 10
165.6401093896233
 20
142.2192065541047
 30
0.0
 10
165.6401093896233
 20
142.2323612875805
 30
0.0
 10
165.6401093896233
 20
142.2403800042077
 30
0.0
 10
165.6401093896233
 20
142.2444184491862
 30
0.0
  0
SPLINE
  5
164
330
1F
100
AcDbEntity
  8
0
  6
Continuous
 62
   144
370
     0
100
AcDbSpline
210
0.0
220
0.0
230
1.0
 70
    24
 71
     3
 72
    15
 73
    11
 74
     0
 42
0.00000001
 43
0.00000001
 12
1.0
 22
0.0
 32
0.0
 13
1.0
 23
0.0
 33
0.0
 40
0.0
 40
0.0
 40
0.0
 40
0.0
 40
0.1158731642777305
 40
0.2315336360112852
 40
0.3480327938015023
 40
0.4681532545268194
 40
0.5926256813316254
 40
0.7213353501006577
 40
0.857156394487224
 40
1.0
 40
1.0
 40
1.0
 40
1.0
 10
165.6401093896233
 20
142.2444184491862
 30
0.0
 10
165.6401093896233
 20
142.2486117373695
 30
0.0
 10
165.6401093896233
 20
142.2569906166896
 30
0.0
 10
165.6401093896233
 20
142.2672771199456
 30
0.0
 10
165.6401093896233
 20
142.2763153240055
 30
0.0
 10
165.6401093896233
 20
142.2837655651308
 30
0.0
 10
165.6401093896233
 20
142.2893026050045
 30
0.0
 10
165.6401093896233
 20
142.2932411582784
 30
0.0
 10
165.6401093896233
 20
142.2957800305471
 30
0.0
 10
165.6401093896233
 20
142.2960669334808
 30
0.0
 10
165.6401093896233
 20
142.2962140000337
 30
0.0
  0
LINE
  5
165
330
1F
100
AcDbEntity
  8
0
  6
Continuous
 62
   144
370
     0
100
AcDbLine
 10
165.6401094532
 20
137.6438155899
 30
0.0
 11
165.6401094532
 21
137.6422621439
 31
0.0
  0
LINE
  5
166
330
1F
100
AcDbEntity
  8
0
  6
Continuous
 62
   144
370
     0
100
AcDbLine
 10
165.6401094532
 20
137.6422621439
 30
0.0
 11
165.6401094532
 21
137.6391515265
 31
0.0
  0
LINE
  5
167
330
1F
100
AcDbEntity
  8
0
  6
Continuous
 62
   144
370
     0
100
AcDbLine
 10
165.6401094532
 20
137.6391515265
 30
0.0
 11
165.6401094532
 21
137.6127131412
 31
0.0
  0
LINE
  5
168
330
1F
100
AcDbEntity
  8
0
  6
Continuous
 62
   144
370
     0
100
AcDbLine
 10
165.6401094532
 20
137.6127131412
 30
0.0
 11
165.6401094532
 21
137.5909425447
 31
0.0
  0
LINE
  5
169
330
1F
100
AcDbEntity
  8
0
  6
Continuous
 62
   144
370
     0
100
AcDbLine
 10
165.6401094532
 20
137.5909425447
 30
0.0
 11
165.6401094532
 21
137.5396266708
 31
0.0
  0
LINE
  5
16A
330
1F
100
AcDbEntity
  8
0
  6
Continuous
 62
   144
370
     0
100
AcDbLine
 10
165.6401094532
 20
137.5396266708
 30
0.0
 11
165.6401094532
 21
137.489864243
 31
0.0
  0
LINE
  5
16B
330
1F
100
AcDbEntity
  8
0
  6
Continuous
 62
   144
370
     0
100
AcDbLine
 10
165.6401094532
 20
137.489864243
 30
0.0
 11
165.6401094532
 21
137.4463193247
 31
0.0
  0
LINE
  5
16C
330
1F
100
AcDbEntity
  8
0
  6
Continuous
 62
   144
370
     0
100
AcDbLine
 10
165.6401094532
 20
137.4463193247
 30
0.0
 11
165.6401094532
 21
137.41366343
 31
0.0
  0
LINE
  5
16D
330
1F
100
AcDbEntity
  8
0
  6
Continuous
 62
   144
370
     0
100
AcDbLine
 10
165.6401094532
 20
137.41366343
 30
0.0
 11
165.6401094532
 21
137.3810075352
 31
0.0
  0
LINE
  5
16E
330
1F
100
AcDbEntity
  8
0
  6
Continuous
 62
   144
370
     0
100
AcDbLine
 10
165.6401094532
 20
137.3810075352
 30
0.0
 11
165.6401094532
 21
137.3778969178
 31
0.0
  0
LINE
  5
16F
330
1F
100
AcDbEntity
  8
0
  6
Continuous
 62
   144
370
     0
100
AcDbLine
 10
165.6401094532
 20
137.3778969178
 30
0.0
 11
165.6401094532
 21
137.3747863004
 31
0.0
  0
LINE
  5
170
330
1F
100
AcDbEntity
  8
0
  6
Continuous
 62
   144
370
     0
100
AcDbLine
 10
165.6401094532
 20
137.3747863004
 30
0.0
 11
165.6401094532
 21
137.3732328544
 31
0.0
  0
LINE
  5
171
330
1F
100
AcDbEntity
  8
0
  6
Continuous
 62
   144
370
     0
100
AcDbLine
 10
165.6401094532
 20
137.3732328544
 30
0.0
 11
165.6401094532
 21
137.3545728753
 31
0.0
  0
LINE
  5
172
330
1F
100
AcDbEntity
  8
0
  6
Continuous
 62
   144
370
     0
100
AcDbLine
 10
165.6401094532
 20
137.3545728753
 30
0.0
 11
165.6401094532
 21
137.3296916614
 31
0.0
  0
LINE
  5
173
330
1F
100
AcDbEntity
  8
0
  6
Continuous
 62
   144
370
     0
100
AcDbLine
 10
165.6401094532
 20
137.3296916614
 30
0.0
 11
165.6401094532
 21
137.3094745109
 31
0.0
  0
LINE
  5
174
330
1F
100
AcDbEntity
  8
0
  6
Continuous
 62
   144
370
     0
100
AcDbLine
 10
165.6401094532
 20
137.3094745109
 30
0.0
 11
165.6401094532
 21
137.3001426587
 31
0.0
  0
LINE
  5
175
330
1F
100
AcDbEntity
  8
0
  6
Continuous
 62
   144
370
     0
100
AcDbLine
 10
165.6401094532
 20
137.3001426587
 30
0.0
 11
165.6401094532
 21
137.2908145318
 31
0.0
  0
LINE
  5
176
330
1F
100
AcDbEntity
  8
0
  6
Continuous
 62
   144
370
     0
100
AcDbLine
 10
165.6401094532
 20
137.2908145318
 30
0.0
 11
165.6401094532
 21
137.2877039144
 31
0.0
  0
LINE
  5
177
330
1F
100
AcDbEntity
  8
0
  6
Continuous
 62
   144
370
     0
100
AcDbLine
 10
165.6401094532
 20
137.2877039144
 30
0.0
 11
165.6401094532
 21
137.2752614448
 31
0.0
  0
LINE
  5
178
330
1F
100
AcDbEntity
  8
0
  6
Continuous
 62
   144
370
     0
100
AcDbLine
 10
165.6401094532
 20
137.2752614448
 30
0.0
 11
165.6401094532
 21
137.2643761466
 31
0.0
  0
LINE
  5
179
330
1F
100
AcDbEntity
  8
0
  6
Continuous
 62
   144
370
     0
100
AcDbLine
 10
165.6401094532
 20
137.2643761466
 30
0.0
 11
165.6401094532
 21
137.2426055501
 31
0.0
  0
LINE
  5
17A
330
1F
100
AcDbEntity
  8
0
  6
Continuous
 62
   144
370
     0
100
AcDbLine
 10
165.6401094532
 20
137.2426055501
 30
0.0
 11
165.6401094532
 21
137.2223883996
 31
0.0
  0
LINE
  5
17B
330
1F
100
AcDbEntity
  8
0
  6
Continuous
 62
   144
370
     0
100
AcDbLine
 10
165.6401094532
 20
137.2223883996
 30
0.0
 11
165.6401094532
 21
137.2037284205
 31
0.0
  0
LINE
  5
17C
330
1F
100
AcDbEntity
  8
0
  6
Continuous
 62
   144
370
     0
100
AcDbLine
 10
165.6401094532
 20
137.2037284205
 30
0.0
 11
165.6401094532
 21
137.1788472066
 31
0.0
  0
LINE
  5
17D
330
1F
100
AcDbEntity
  8
0
  6
Continuous
 62
   144
370
     0
100
AcDbLine
 10
165.6401094532
 20
137.1788472066
 30
0.0
 11
165.6401094532
 21
137.1570766101
 31
0.0
  0
LINE
  5
17E
330
1F
100
AcDbEntity
  8
0
  6
Continuous
 62
   144
370
     0
100
AcDbLine
 10
165.6401094532
 20
137.1570766101
 30
0.0
 11
165.6401094532
 21
137.139970077
 31
0.0
  0
LINE
  5
17F
330
1F
100
AcDbEntity
  8
0
  6
Continuous
 62
   144
370
     0
100
AcDbLine
 10
165.6401094532
 20
137.139970077
 30
0.0
 11
165.6401094532
 21
137.1291406581
 31
0.0
  0
LINE
  5
180
330
1F
100
AcDbEntity
  8
0
  6
Continuous
 62
   144
370
     0
100
AcDbLine
 10
165.6401094532
 20
138.0667962263
 30
0.0
 11
165.6401094532
 21
138.0621321628
 31
0.0
  0
LINE
  5
181
330
1F
100
AcDbEntity
  8
0
  6
Continuous
 62
   144
370
     0
100
AcDbLine
 10
165.6401094532
 20
138.0621321628
 30
0.0
 11
165.6401094532
 21
138.054357482
 31
0.0
  0
LINE
  5
182
330
1F
100
AcDbEntity
  8
0
  6
Continuous
 62
   144
370
     0
100
AcDbLine
 10
165.6401094532
 20
138.054357482
 30
0.0
 11
165.6401094532
 21
138.0419150124
 31
0.0
  0
LINE
  5
183
330
1F
100
AcDbEntity
  8
0
  6
Continuous
 62
   144
370
     0
100
AcDbLine
 10
165.6401094532
 20
138.0419150124
 30
0.0
 11
165.6401094532
 21
138.0310297141
 31
0.0
  0
LINE
  5
184
330
1F
100
AcDbEntity
  8
0
  6
Continuous
 62
   144
370
     0
100
AcDbLine
 10
165.6401094532
 20
138.0310297141
 30
0.0
 11
165.6401094532
 21
138.0294762681
 31
0.0
  0
LINE
  5
185
330
1F
100
AcDbEntity
  8
0
  6
Continuous
 62
   144
370
     0
100
AcDbLine
 10
165.6401094532
 20
138.0294762681
 30
0.0
 11
165.6401094532
 21
138.0232550333
 31
0.0
  0
LINE
  5
186
330
1F
100
AcDbEntity
  8
0
  6
Continuous
 62
   144
370
     0
100
AcDbLine
 10
165.6401094532
 20
138.0232550333
 30
0.0
 11
165.6401094532
 21
138.0108125637
 31
0.0
  0
LINE
  5
187
330
1F
100
AcDbEntity
  8
0
  6
Continuous
 62
   144
370
     0
100
AcDbLine
 10
165.6401094532
 20
138.0108125637
 30
0.0
 11
165.6401094532
 21
137.9937060306
 31
0.0
  0
LINE
  5
188
330
1F
100
AcDbEntity
  8
0
  6
Continuous
 62
   144
370
     0
100
AcDbLine
 10
165.6401094532
 20
137.9937060306
 30
0.0
 11
165.6401094532
 21
137.9734926054
 31
0.0
  0
LINE
  5
189
330
1F
100
AcDbEntity
  8
0
  6
Continuous
 62
   144
370
     0
100
AcDbLine
 10
165.6401094532
 20
137.9734926054
 30
0.0
 11
165.6401094532
 21
137.953275455
 31
0.0
  0
LINE
  5
18A
330
1F
100
AcDbEntity
  8
0
  6
Continuous
 62
   144
370
     0
100
AcDbLine
 10
165.6401094532
 20
137.953275455
 30
0.0
 11
165.6401094532
 21
137.926840795
 31
0.0
  0
LINE
  5
18B
330
1F
100
AcDbEntity
  8
0
  6
Continuous
 62
   144
370
     0
100
AcDbLine
 10
165.6401094532
 20
137.926840795
 30
0.0
 11
165.6401094532
 21
137.894181175
 31
0.0
  0
LINE
  5
18C
330
1F
100
AcDbEntity
  8
0
  6
Continuous
 62
   144
370
     0
100
AcDbLine
 10
165.6401094532
 20
137.894181175
 30
0.0
 11
165.6401094532
 21
137.8599718342
 31
0.0
  0
LINE
  5
18D
330
1F
100
AcDbEntity
  8
0
  6
Continuous
 62
   144
370
     0
100
AcDbLine
 10
165.6401094532
 20
137.8599718342
 30
0.0
 11
165.6401094532
 21
137.8257587681
 31
0.0
  0
LINE
  5
18E
330
1F
100
AcDbEntity
  8
0
  6
Continuous
 62
   144
370
     0
100
AcDbLine
 10
165.6401094532
 20
137.8257587681
 30
0.0
 11
165.6401094532
 21
137.7899922559
 31
0.0
  0
LINE
  5
18F
330
1F
100
AcDbEntity
  8
0
  6
Continuous
 62
   144
370
     0
100
AcDbLine
 10
165.6401094532
 20
137.7899922559
 30
0.0
 11
165.6401094532
 21
137.7759963403
 31
0.0
  0
LINE
  5
190
330
1F
100
AcDbEntity
  8
0
  6
Continuous
 62
   144
370
     0
100
AcDbLine
 10
165.6401094532
 20
137.7759963403
 30
0.0
 11
165.6401094532
 21
137.765111042
 31
0.0
  0
LINE
  5
191
330
1F
100
AcDbEntity
  8
0
  6
Continuous
 62
   144
370
     0
100
AcDbLine
 10
165.6401094532
 20
137.765111042
 30
0.0
 11
165.6401094532
 21
137.763557596
 31
0.0
  0
LINE
  5
192
330
1F
100
AcDbEntity
  8
0
  6
Continuous
 62
   144
370
     0
100
AcDbLine
 10
165.6401094532
 20
137.763557596
 30
0.0
 11
165.6401094532
 21
137.7542257438
 31
0.0
  0
LINE
  5
193
330
1F
100
AcDbEntity
  8
0
  6
Continuous
 62
   144
370
     0
100
AcDbLine
 10
165.6401094532
 20
137.7542257438
 30
0.0
 11
165.6401094532
 21
137.7355657647
 31
0.0
  0
LINE
  5
194
330
1F
100
AcDbEntity
  8
0
  6
Continuous
 62
   144
370
     0
100
AcDbLine
 10
165.6401094532
 20
137.7355657647
 30
0.0
 11
165.6401094532
 21
137.7184592316
 31
0.0
  0
LINE
  5
195
330
1F
100
AcDbEntity
  8
0
  6
Continuous
 62
   144
370
     0
100
AcDbLine
 10
165.6401094532
 20
137.7184592316
 30
0.0
 11
165.6401094532
 21
137.6951314638
 31
0.0
  0
LINE
  5
196
330
1F
100
AcDbEntity
  8
0
  6
Continuous
 62
   144
370
     0
100
AcDbLine
 10
165.6401094532
 20
137.6951314638
 30
0.0
 11
165.6401094532
 21
137.6718074212
 31
0.0
  0
LINE
  5
197
330
1F
100
AcDbEntity
  8
0
  6
Continuous
 62
   144
370
     0
100
AcDbLine
 10
165.6401094532
 20
137.6718074212
 30
0.0
 11
165.6401094532
 21
137.6438155899
 31
0.0
  0
ARC
  5
198
330
1F
100
AcDbEntity
  8
0
  6
Continuous
 62
     7
370
    15
100
AcDbCircle
 10
123.0201093896
 20
139.0780634147
 30
0.0
 40
14.75000000000001
100
AcDbArc
 50
101.1898117795
 51
198.8101882205
  0
SPLINE
  5
199
330
1F
100
AcDbEntity
  8
0
  6
Continuous
 62
     7
370
    15
100
AcDbSpline
210
0.0
220
0.0
230
1.0
 70
     8
 71
     3
 72
    38
 73
    34
 74
     0
 42
0.00000001
 43
0.00000001
 12
1.0
 22
0.0
 32
0.0
 13
1.0
 23
0.0
 33
0.0
 40
0.0
 40
0.0
 40
0.0
 40
0.0
 40
0.0625
 40
0.0625
 40
0.125
 40
0.125
 40
0.1875
 40
0.1875
 40
0.25
 40
0.25
 40
0.3125
 40
0.3125
 40
0.375
 40
0.375
 40
0.4375
 40
0.4375
 40
0.5
 40
0.5
 40
0.5625
 40
0.5625
 40
0.625
 40
0.625
 40
0.6875
 40
0.6875
 40
0.75
 40
0.75
 40
0.8125
 40
0.8125
 40
0.875
 40
0.875
 40
0.9375
 40
0.9375
 40
1.0
 40
1.0
 40
1.0
 40
1.0
 10
125.8824931605719
 20
153.5476611681712
 30
0.0
 10
125.8824931605719
 20
153.5476611681712
 30
0.0
 10
125.8635699676472
 20
153.5514409657179
 30
0.0
 10
125.7894301140111
 20
153.5658095651045
 30
0.0
 10
125.733224539146
 20
153.5765800018804
 30
0.0
 10
125.5876010959245
 20
153.6030750629359
 30
0.0
 10
125.4985194945754
 20
153.6187435678563
 30
0.0
 10
125.287796989665
 20
153.653093051491
 30
0.0
 10
125.1665838293753
 20
153.6716597405711
 30
0.0
 10
124.9014617330696
 20
153.7082007894068
 30
0.0
 10
124.7554244754116
 20
153.7264741770842
 30
0.0
 10
124.4425497365441
 20
153.7601586251918
 30
0.0
 10
124.2783604720564
 20
153.775306482824
 30
0.0
 10
123.9349149591172
 20
153.8006746083701
 30
0.0
 10
123.7537647819278
 20
153.8109331818479
 30
0.0
 10
123.3895923874831
 20
153.8245607657555
 30
0.0
 10
123.2056412893451
 20
153.8280671029695
 30
0.0
 10
122.8339915060663
 20
153.8280597205706
 30
0.0
 10
122.6462775044774
 20
153.8244430986642
 30
0.0
 10
122.2834147328016
 20
153.8107734520486
 30
0.0
 10
122.1061380477497
 20
153.8007413313948
 30
0.0
 10
121.7601596942165
 20
153.7751759004075
 30
0.0
 10
121.5943759237795
 20
153.759819413274
 30
0.0
 10
121.2851988887152
 20
153.7265022622744
 30
0.0
 10
121.1401248178394
 20
153.7083910262917
 30
0.0
 10
120.871898972735
 20
153.6714187525728
 30
0.0
 10
120.7528174184305
 20
153.653148616714
 30
0.0
 10
120.5437110615908
 20
153.6190803271969
 30
0.0
 10
120.4529126922111
 20
153.603128089994
 30
0.0
 10
120.3069482775263
 20
153.5765722857695
 30
0.0
 10
120.2518328082697
 20
153.5660099038822
 30
0.0
 10
120.1770989004534
 20
153.5515301750428
 30
0.0
 10
120.1577256186842
 20
153.5476611681712
 30
0.0
 10
120.1577256186842
 20
153.5476611681712
 30
0.0
  0
ARC
  5
19A
330
1F
100
AcDbEntity
  8
0
  6
Continuous
 62
     7
370
    15
100
AcDbCircle
 10
123.0201093896
 20
139.0780634147
 30
0.0
 40
14.75
100
AcDbArc
 50
341.1898117795
 51
78.8101882205
  0
SPLINE
  5
19B
330
1F
100
AcDbEntity
  8
0
  6
Continuous
 62
     7
370
    15
100
AcDbSpline
210
0.0
220
0.0
230
1.0
 70
     8
 71
     3
 72
    38
 73
    34
 74
     0
 42
0.00000001
 43
0.00000001
 12
1.0
 22
0.0
 32
0.0
 13
1.0
 23
0.0
 33
0.0
 40
0.0
 40
0.0
 40
0.0
 40
0.0
 40
0.0625
 40
0.0625
 40
0.125
 40
0.125
 40
0.1875
 40
0.1875
 40
0.25
 40
0.25
 40
0.3125
 40
0.3125
 40
0.375
 40
0.375
 40
0.4375
 40
0.4375
 40
0.5
 40
0.5
 40
0.5625
 40
0.5625
 40
0.625
 40
0.625
 40
0.6875
 40
0.6875
 40
0.75
 40
0.75
 40
0.8125
 40
0.8125
 40
0.875
 40
0.875
 40
0.9375
 40
0.9375
 40
1.0
 40
1.0
 40
1.0
 40
1.0
 10
134.1199567412217
 20
129.3643674769167
 30
0.0
 10
134.1199567412217
 20
129.3643674769167
 30
0.0
 10
134.1326917383806
 20
129.3788655439369
 30
0.0
 10
134.1822052372843
 20
129.4358882409253
 30
0.0
 10
134.2196354965747
 20
129.4791784782048
 30
0.0
 10
134.3153926141342
 20
129.5920445488935
 30
0.0
 10
134.3735027381092
 20
129.6613572262114
 30
0.0
 10
134.5086115159989
 20
129.8266735267955
 30
0.0
 10
134.5852973205513
 20
129.9223638583393
 30
0.0
 10
134.7495038452768
 20
130.1336958044268
 30
0.0
 10
134.8383476920476
 20
130.251031085619
 30
0.0
 10
135.023956649255
 20
130.5051463336269
 30
0.0
 10
135.1191697110213
 20
130.6397644788858
 30
0.0
 10
135.3128619086602
 20
130.9245129551338
 30
0.0
 10
135.4123211824932
 20
131.076264323741
 30
0.0
 10
135.6062092135718
 20
131.3848330767333
 30
0.0
 10
135.7012213397423
 20
131.5423862321678
 30
0.0
 10
135.8870398380368
 20
131.8642480769978
 30
0.0
 10
135.9777647523844
 20
132.0286214819729
 30
0.0
 10
136.1473578769924
 20
132.3497046836397
 30
0.0
 10
136.2273081481783
 20
132.5082468567203
 30
0.0
 10
136.3781570122513
 20
132.8206556155332
 30
0.0
 10
136.4477497894993
 20
132.9719068158335
 30
0.0
 10
136.5734848078841
 20
133.2563205579657
 30
0.0
 10
136.630337052867
 20
133.3910140067658
 30
0.0
 10
136.7324310471429
 20
133.6417905394373
 30
0.0
 10
136.7761494225109
 20
133.7540532585166
 30
0.0
 10
136.8511985967454
 20
133.9521788203911
 30
0.0
 10
136.8827827387703
 20
134.0387886334976
 30
0.0
 10
136.9327669450365
 20
134.1784754267754
 30
0.0
 10
136.9511773886258
 20
134.2314880142368
 30
0.0
 10
136.9760045295191
 20
134.3034493413494
 30
0.0
 10
136.9823405121656
 20
134.322161598952
 30
0.0
 10
136.9823405121656
 20
134.322161598952
 30
0.0
  0
ARC
  5
19C
330
1F
100
AcDbEntity
  8
0
  6
Continuous
 62
     7
370
    15
100
AcDbCircle
 10
123.0201093896
 20
139.0780634147
 30
0.0
 40
14.75000000000001
100
AcDbArc
 50
221.1898117795
 51
318.8101882205
  0
SPLINE
  5
19D
330
1F
100
AcDbEntity
  8
0
  6
Continuous
 62
     7
370
    15
100
AcDbSpline
210
0.0
220
0.0
230
1.0
 70
     8
 71
     3
 72
    38
 73
    34
 74
     0
 42
0.00000001
 43
0.00000001
 12
1.0
 22
0.0
 32
0.0
 13
1.0
 23
0.0
 33
0.0
 40
0.0
 40
0.0
 40
0.0
 40
0.0
 40
0.0625
 40
0.0625
 40
0.125
 40
0.125
 40
0.1875
 40
0.1875
 40
0.25
 40
0.25
 40
0.3125
 40
0.3125
 40
0.375
 40
0.375
 40
0.4375
 40
0.4375
 40
0.5
 40
0.5
 40
0.5625
 40
0.5625
 40
0.625
 40
0.625
 40
0.6875
 40
0.6875
 40
0.75
 40
0.75
 40
0.8125
 40
0.8125
 40
0.875
 40
0.875
 40
0.9375
 40
0.9375
 40
1.0
 40
1.0
 40
1.0
 40
1.0
 10
109.0578782670905
 20
134.3221615989522
 30
0.0
 10
109.0578782670905
 20
134.3221615989522
 30
0.0
 10
109.0640664628562
 20
134.3038837343854
 30
0.0
 10
109.0886928175887
 20
134.2324924380104
 30
0.0
 10
109.1074681331634
 20
134.1784317639549
 30
0.0
 10
109.1573344588253
 20
134.0390706322108
 30
0.0
 10
109.1883059361995
 20
133.9540894499725
 30
0.0
 10
109.2639196632202
 20
133.7544236657537
 30
0.0
 10
109.3084470189575
 20
133.6401666451298
 30
0.0
 10
109.4093625905377
 20
133.3922936502066
 30
0.0
 10
109.4665560014248
 20
133.256684981337
 30
0.0
 10
109.593821783085
 20
132.9688852852215
 30
0.0
 10
109.6627979858064
 20
132.8191192823304
 30
0.0
 10
109.8125513011067
 20
132.5090026805362
 30
0.0
 10
109.894242204463
 20
132.3469927384513
 30
0.0
 10
110.0645265678292
 20
132.0247964015514
 30
0.0
 10
110.1534655397965
 20
131.8637369089028
 30
0.0
 10
110.339296824781
 20
131.5418824464718
 30
0.0
 10
110.4362859120222
 20
131.381125663403
 30
0.0
 10
110.62955555909
 20
131.0737121083519
 30
0.0
 10
110.7268819729561
 20
130.9252020559252
 30
0.0
 10
110.9220114624164
 20
130.6383587280995
 30
0.0
 10
111.0182024556053
 20
130.5024640149327
 30
0.0
 10
111.2016444722848
 20
130.2513674238
 30
0.0
 10
111.2898662981776
 20
130.1347852109825
 30
0.0
 10
111.4559981490061
 20
129.92098095203
 30
0.0
 10
111.5313613279427
 20
129.8269883688096
 30
0.0
 10
111.6654185105479
 20
129.6629310964522
 30
0.0
 10
111.7246327379026
 20
129.5922735205486
 30
0.0
 10
111.8206129463213
 20
129.4791425314952
 30
0.0
 10
111.8573179719885
 20
129.4366923259212
 30
0.0
 10
111.9072247389115
 20
129.3792107276479
 30
0.0
 10
111.9202620380342
 20
129.3643674769169
 30
0.0
 10
111.9202620380342
 20
129.3643674769169
 30
0.0
  0
LINE
  5
19E
330
1F
100
AcDbEntity
  8
0
  6
Continuous
 62
     7
370
    15
100
AcDbLine
 10
159.020110268
 20
175.0780638436
 30
0.0
 11
165.5201094708
 21
175.0780638436
 31
0.0
  0
LINE
  5
19F
330
1F
100
AcDbEntity
  8
0
  6
Continuous
 62
     7
370
    15
100
AcDbLine
 10
159.020110268
 20
175.0780638436
 30
0.0
 11
159.020110268
 21
165.0780640671
 31
0.0
  0
CIRCLE
  5
1A0
330
1F
100
AcDbEntity
  8
0
  6
Continuous
 62
     7
370
    15
100
AcDbCircle
 10
161.5201093896
 20
168.5780634147
 30
0.0
 40
1.250000000000028
  0
ARC
  5
1A1
330
1F
100
AcDbEntity
  8
0
  6
Continuous
 62
     7
370
    15
100
AcDbCircle
 10
134.7114523407
 20
132.3280634147
 30
0.0
 40
2.800000000000006
100
AcDbArc
 50
266.2604525606
 51
33.7395474394
  0
ARC
  5
1A2
330
1F
100
AcDbEntity
  8
0
  6
Continuous
 62
     7
370
    15
100
AcDbCircle
 10
156.0201093896
 20
165.0780634147
 30
0.0
 40
3.0
100
AcDbArc
 50
270.0
 51
0.0
  0
ARC
  5
1A3
330
1F
100
AcDbEntity
  8
0
  6
Continuous
 62
     7
370
    15
100
AcDbCircle
 10
142.0201093896
 20
165.0780634147
 30
0.0
 40
3.0
100
AcDbArc
 50
180.0
 51
270.0
  0
LINE
  5
1A4
330
1F
100
AcDbEntity
  8
0
  6
Continuous
 62
     7
370
    15
100
AcDbLine
 10
139.0201088524
 20
165.0780640671
 30
0.0
 11
139.0201088524
 21
175.0780638436
 31
0.0
  0
CIRCLE
  5
1A5
330
1F
100
AcDbEntity
  8
0
  6
Continuous
 62
     7
370
    15
100
AcDbCircle
 10
136.5201093896
 20
168.5780634147
 30
0.0
 40
1.25
  0
ARC
  5
1A6
330
1F
100
AcDbEntity
  8
0
  6
Continuous
 62
     7
370
    15
100
AcDbCircle
 10
120.0606956603
 20
154.0381560073
 30
0.0
 40
0.5000000000000183
100
AcDbArc
 50
281.1898117795
 51
333.7395474394
  0
ARC
  5
1A7
330
1F
100
AcDbEntity
  8
0
  6
Continuous
 62
     7
370
    15
100
AcDbCircle
 10
123.0201093896
 20
152.5780634147
 30
0.0
 40
2.799999999999983
100
AcDbArc
 50
26.2604525606
 51
153.7395474394
  0
ARC
  5
1A8
330
1F
100
AcDbEntity
  8
0
  6
Continuous
 62
     7
370
    15
100
AcDbCircle
 10
125.9795231189
 20
154.0381560073
 30
0.0
 40
0.5000000000000183
100
AcDbArc
 50
206.2604525606
 51
258.8101882205
  0
LINE
  5
1A9
330
1F
100
AcDbEntity
  8
0
  6
Continuous
 62
     7
370
    15
100
AcDbLine
 10
156.0201097762
 20
162.0780635754
 30
0.0
 11
142.0201112067
 21
162.0780635754
 31
0.0
  0
LINE
  5
1AA
330
1F
100
AcDbEntity
  8
0
  6
Continuous
 62
     7
370
    15
100
AcDbLine
 10
165.5201094708
 20
175.0780638436
 30
0.0
 11
165.5201094708
 21
115.0780670474
 31
0.0
  0
ARC
  5
1AB
330
1F
100
AcDbEntity
  8
0
  6
Continuous
 62
     7
370
    15
100
AcDbCircle
 10
137.4556364824
 20
134.1609445882
 30
0.0
 40
0.4999999999999856
100
AcDbArc
 50
161.1898117795
 51
213.7395474394
  0
CIRCLE
  5
1AC
330
1F
100
AcDbEntity
  8
0
  6
Continuous
 62
     7
370
    15
100
AcDbCircle
 10
148.0201093896
 20
129.0780634147
 30
0.0
 40
2.5
  0
ARC
  5
1AD
330
1F
100
AcDbEntity
  8
0
  6
Continuous
 62
     7
370
    15
100
AcDbCircle
 10
134.4962227531
 20
129.0350896485
 30
0.0
 40
0.5000000000000152
100
AcDbArc
 50
86.2604525606
 51
138.8101882205
  0
CIRCLE
  5
1AE
330
1F
100
AcDbEntity
  8
0
  6
Continuous
 62
     7
370
    15
100
AcDbCircle
 10
148.0201093896
 20
149.0780634147
 30
0.0
 40
2.499999999999972
  0
LINE
  5
1AF
330
1F
100
AcDbEntity
  8
0
  6
Continuous
 62
     7
370
    15
100
AcDbLine
 10
165.5201094708
 20
115.0780670474
 30
0.0
 11
80.520109508
 21
115.0780670474
 31
0.0
  0
LINE
  5
1B0
330
1F
100
AcDbEntity
  8
0
  6
Continuous
 62
     7
370
    15
100
AcDbLine
 10
80.520109508
 20
175.0780638436
 30
0.0
 11
87.0201077795
 21
175.0780638436
 31
0.0
  0
LINE
  5
1B1
330
1F
100
AcDbEntity
  8
0
  6
Continuous
 62
     7
370
    15
100
AcDbLine
 10
87.0201077795
 20
165.0780640671
 30
0.0
 11
87.0201077795
 21
175.0780638436
 31
0.0
  0
ARC
  5
1B2
330
1F
100
AcDbEntity
  8
0
  6
Continuous
 62
     7
370
    15
100
AcDbCircle
 10
90.0201093896
 20
165.0780634147
 30
0.0
 40
3.0
100
AcDbArc
 50
180.0
 51
270.0
  0
CIRCLE
  5
1B3
330
1F
100
AcDbEntity
  8
0
  6
Continuous
 62
     7
370
    15
100
AcDbCircle
 10
84.5201093896
 20
168.5780634147
 30
0.0
 40
1.249999999999972
  0
CIRCLE
  5
1B4
330
1F
100
AcDbEntity
  8
0
  6
Continuous
 62
     7
370
    15
100
AcDbCircle
 10
88.0201093896
 20
139.0780634147
 30
0.0
 40
3.25
  0
LINE
  5
1B5
330
1F
100
AcDbEntity
  8
0
  6
Continuous
 62
     7
370
    15
100
AcDbLine
 10
80.520109508
 20
115.0780670474
 30
0.0
 11
80.520109508
 21
175.0780638436
 31
0.0
  0
CIRCLE
  5
1B6
330
1F
100
AcDbEntity
  8
0
  6
Continuous
 62
     7
370
    15
100
AcDbCircle
 10
109.5201093896
 20
168.5780634147
 30
0.0
 40
1.25
  0
ARC
  5
1B7
330
1F
100
AcDbEntity
  8
0
  6
Continuous
 62
     7
370
    15
100
AcDbCircle
 10
108.5845822968
 20
134.1609445882
 30
0.0
 40
0.5000000000000242
100
AcDbArc
 50
326.2604525606
 51
18.8101882205
  0
LINE
  5
1B8
330
1F
100
AcDbEntity
  8
0
  6
Continuous
 62
     7
370
    15
100
AcDbLine
 10
107.0201110577
 20
175.0780638436
 30
0.0
 11
107.0201110577
 21
165.0780640671
 31
0.0
  0
ARC
  5
1B9
330
1F
100
AcDbEntity
  8
0
  6
Continuous
 62
     7
370
    15
100
AcDbCircle
 10
104.0201093896
 20
165.0780634147
 30
0.0
 40
3.000000000000014
100
AcDbArc
 50
270.0
 51
0.0
  0
LINE
  5
1BA
330
1F
100
AcDbEntity
  8
0
  6
Continuous
 62
     7
370
    15
100
AcDbLine
 10
104.0201124286
 20
162.0780635754
 30
0.0
 11
90.0201064086
 21
162.0780635754
 31
0.0
  0
ARC
  5
1BB
330
1F
100
AcDbEntity
  8
0
  6
Continuous
 62
     7
370
    15
100
AcDbCircle
 10
111.3287664385
 20
132.3280634147
 30
0.0
 40
2.800000000000012
100
AcDbArc
 50
146.2604525606
 51
273.7395474394
  0
CIRCLE
  5
1BC
330
1F
100
AcDbEntity
  8
0
  6
Continuous
 62
     7
370
    15
100
AcDbCircle
 10
98.0201093896
 20
149.0780634147
 30
0.0
 40
2.499999999999972
  0
LINE
  5
1BD
330
1F
100
AcDbEntity
  8
0
  6
Continuous
 62
     7
370
    15
100
AcDbLine
 10
107.0201110577
 20
175.0780638436
 30
0.0
 11
139.0201088524
 21
175.0780638436
 31
0.0
  0
CIRCLE
  5
1BE
330
1F
100
AcDbEntity
  8
0
  6
Continuous
 62
     7
370
    15
100
AcDbCircle
 10
158.0201093896
 20
139.0780634147
 30
0.0
 40
3.25
  0
ARC
  5
1BF
330
1F
100
AcDbEntity
  8
0
  6
Continuous
 62
     7
370
    15
100
AcDbCircle
 10
111.5439960261
 20
129.0350896485
 30
0.0
 40
0.4999999999999945
100
AcDbArc
 50
41.1898117795
 51
93.7395474394
  0
CIRCLE
  5
1C0
330
1F
100
AcDbEntity
  8
0
  6
Continuous
 62
     7
370
    15
100
AcDbCircle
 10
98.0201093896
 20
129.0780634147
 30
0.0
 40
2.499999999999972
  0
SPLINE
  5
1C1
330
1F
100
AcDbEntity
  8
0
  6
Continuous
 62
     7
370
    15
100
AcDbSpline
210
0.0
220
0.0
230
1.0
 70
     8
 71
     3
 72
    38
 73
    34
 74
     0
 42
0.00000001
 43
0.00000001
 12
1.0
 22
0.0
 32
0.0
 13
1.0
 23
0.0
 33
0.0
 40
0.0
 40
0.0
 40
0.0
 40
0.0
 40
0.0625
 40
0.0625
 40
0.125
 40
0.125
 40
0.1875
 40
0.1875
 40
0.25
 40
0.25
 40
0.3125
 40
0.3125
 40
0.375
 40
0.375
 40
0.4375
 40
0.4375
 40
0.5
 40
0.5
 40
0.5625
 40
0.5625
 40
0.625
 40
0.625
 40
0.6875
 40
0.6875
 40
0.75
 40
0.75
 40
0.8125
 40
0.8125
 40
0.875
 40
0.875
 40
0.9375
 40
0.9375
 40
1.0
 40
1.0
 40
1.0
 40
1.0
 10
120.5090916799352
 20
153.8169298568798
 30
0.0
 10
120.5090916799352
 20
153.8169298568798
 30
0.0
 10
120.5267299920523
 20
153.8204531379895
 30
0.0
 10
120.5944139897894
 20
153.833557517827
 30
0.0
 10
120.6442323576116
 20
153.8430930837903
 30
0.0
 10
120.775763066434
 20
153.86695911938
 30
0.0
 10
120.8571564838093
 20
153.8812010417797
 30
0.0
 10
121.0436929316956
 20
153.9114271273635
 30
0.0
 10
121.1496314596321
 20
153.9275624995554
 30
0.0
 10
121.3868324646167
 20
153.9599758337187
 30
0.0
 10
121.5141133993764
 20
153.9756939436539
 30
0.0
 10
121.7848748237048
 20
154.0045368251605
 30
0.0
 10
121.9296639931559
 20
154.0177615737121
 30
0.0
 10
122.2300256471697
 20
154.0396457548289
 30
0.0
 10
122.3836605957334
 20
154.0482044377376
 30
0.0
 10
122.6975918889062
 20
154.0598454943813
 30
0.0
 10
122.8595818526669
 20
154.0629106199563
 30
0.0
 10
123.180430579267
 20
154.0629131782784
 30
0.0
 10
123.3393613205285
 20
154.0599322534032
 30
0.0
 10
123.6542413371864
 20
154.0483240799785
 30
0.0
 10
123.8110889397067
 20
154.0395803716177
 30
0.0
 10
124.1096391705255
 20
154.0178284001119
 30
0.0
 10
124.2527965718383
 20
154.0047960192288
 30
0.0
 10
124.5263991557518
 20
153.975674715534
 30
0.0
 10
124.6550904669288
 20
153.9597449933784
 30
0.0
 10
124.8893200260729
 20
153.9277336396954
 30
0.0
 10
124.9968394262614
 20
153.9113848917995
 30
0.0
 10
125.185031261917
 20
153.8808733125021
 30
0.0
 10
125.2649176540647
 20
153.8668763484454
 30
0.0
 10
125.3959193260787
 20
153.8431042074492
 30
0.0
 10
125.4468105056112
 20
153.8333647711794
 30
0.0
 10
125.5139370971014
 20
153.8203643257476
 30
0.0
 10
125.5311270993209
 20
153.8169298568798
 30
0.0
 10
125.5311270993209
 20
153.8169298568798
 30
0.0
  0
SPLINE
  5
1C2
330
1F
100
AcDbEntity
  8
0
  6
Continuous
 62
     7
370
    15
100
AcDbSpline
210
0.0
220
0.0
230
1.0
 70
     8
 71
     3
 72
    38
 73
    34
 74
     0
 42
0.00000001
 43
0.00000001
 12
1.0
 22
0.0
 32
0.0
 13
1.0
 23
0.0
 33
0.0
 40
0.0
 40
0.0
 40
0.0
 40
0.0
 40
0.0625
 40
0.0625
 40
0.125
 40
0.125
 40
0.1875
 40
0.1875
 40
0.25
 40
0.25
 40
0.3125
 40
0.3125
 40
0.375
 40
0.375
 40
0.4375
 40
0.4375
 40
0.5
 40
0.5
 40
0.5625
 40
0.5625
 40
0.625
 40
0.625
 40
0.6875
 40
0.6875
 40
0.75
 40
0.75
 40
0.8125
 40
0.8125
 40
0.875
 40
0.875
 40
0.9375
 40
0.9375
 40
1.0
 40
1.0
 40
1.0
 40
1.0
 10
137.0398510064055
 20
133.8832353195267
 30
0.0
 10
137.0398510064055
 20
133.8832353195267
 30
0.0
 10
137.0340831012925
 20
133.8661984525986
 30
0.0
 10
137.0115898282641
 20
133.8010302012098
 30
0.0
 10
136.9949386867167
 20
133.7531184461191
 30
0.0
 10
136.9498419254138
 20
133.6272764931062
 30
0.0
 10
136.921479083323
 20
133.5496667647585
 30
0.0
 10
136.8543874173524
 20
133.3730084193654
 30
0.0
 10
136.8153917956019
 20
133.273195276837
 30
0.0
 10
136.7248620639163
 20
133.0515665136354
 30
0.0
 10
136.6748338790398
 20
132.9334789357485
 30
0.0
 10
136.5644318349786
 20
132.684571223162
 30
0.0
 10
136.5034902184575
 20
132.5525677499487
 30
0.0
 10
136.3722616482387
 20
132.2815048366915
 30
0.0
 10
136.3028562107787
 20
132.1441737268719
 30
0.0
 10
136.1559720149727
 20
131.8664807236195
 30
0.0
 10
136.0776315097061
 20
131.7246607370572
 30
0.0
 10
135.9172093619779
 20
131.4467963098885
 30
0.0
 10
135.8351624346786
 20
131.3106487129513
 30
0.0
 10
135.6676694532723
 20
131.0437587060939
 30
0.0
 10
135.5816733784484
 20
130.912296551969
 30
0.0
 10
135.4135605031326
 20
130.6646204535271
 30
0.0
 10
135.3306954295596
 20
130.5471586976921
 30
0.0
 10
135.1686743488118
 20
130.3247725613293
 30
0.0
 10
135.0905331491613
 20
130.2212874776815
 30
0.0
 10
134.9456957240903
 20
130.034444405987
 30
0.0
 10
134.8777775929981
 20
129.9495042479721
 30
0.0
 10
134.7572578723892
 20
129.8017811271581
 30
0.0
 10
134.7051929498663
 20
129.7395959641699
 30
0.0
 10
134.6191048358544
 20
129.6380312587656
 30
0.0
 10
134.5852246468599
 20
129.5988279225967
 30
0.0
 10
134.5404026351103
 20
129.5471948118128
 30
0.0
 10
134.5288332967125
 20
129.5340250676334
 30
0.0
 10
134.5288332967125
 20
129.5340250676335
 30
0.0
  0
SPLINE
  5
1C3
330
1F
100
AcDbEntity
  8
0
  6
Continuous
 62
     7
370
    15
100
AcDbSpline
210
0.0
220
0.0
230
1.0
 70
     8
 71
     3
 72
    38
 73
    34
 74
     0
 42
0.00000001
 43
0.00000001
 12
1.0
 22
0.0
 32
0.0
 13
1.0
 23
0.0
 33
0.0
 40
0.0
 40
0.0
 40
0.0
 40
0.0
 40
0.0625
 40
0.0625
 40
0.125
 40
0.125
 40
0.1875
 40
0.1875
 40
0.25
 40
0.25
 40
0.3125
 40
0.3125
 40
0.375
 40
0.375
 40
0.4375
 40
0.4375
 40
0.5
 40
0.5
 40
0.5625
 40
0.5625
 40
0.625
 40
0.625
 40
0.6875
 40
0.6875
 40
0.75
 40
0.75
 40
0.8125
 40
0.8125
 40
0.875
 40
0.875
 40
0.9375
 40
0.9375
 40
1.0
 40
1.0
 40
1.0
 40
1.0
 10
111.5113854825434
 20
129.5340250676336
 30
0.0
 10
111.5113854825434
 20
129.5340250676336
 30
0.0
 10
111.4995150755392
 20
129.5475386534521
 30
0.0
 10
111.4543243508305
 20
129.5996025250033
 30
0.0
 10
111.4211571245557
 20
129.6379787141308
 30
0.0
 10
111.3347231770362
 20
129.7399546315539
 30
0.0
 10
111.2816926017517
 20
129.8033224375019
 30
0.0
 10
111.162247819836
 20
129.9497546973112
 30
0.0
 10
111.0953049136501
 20
130.0334324676478
 30
0.0
 10
110.948633640351
 20
130.2226478966861
 30
0.0
 10
110.8713808904679
 20
130.3250173646378
 30
0.0
 10
110.7110215102006
 20
130.5450821957177
 30
0.0
 10
110.6271739572707
 20
130.6638609203794
 30
0.0
 10
110.4580408734756
 20
130.9130396525197
 30
0.0
 10
110.3738113623719
 20
131.0418120794307
 30
0.0
 10
110.2067642650051
 20
131.3078640260393
 30
0.0
 10
110.1231148065111
 20
131.4466188870267
 30
0.0
 10
109.9626882276391
 20
131.7244807558733
 30
0.0
 10
109.885804413677
 20
131.8636092776856
 30
0.0
 10
109.7384173784254
 20
132.1421074579677
 30
0.0
 10
109.6675658507289
 20
132.2823133204534
 30
0.0
 10
109.537128495226
 20
132.5517413904011
 30
0.0
 10
109.4768361674861
 20
132.6822355271193
 30
0.0
 10
109.3652546643205
 20
132.9337429671768
 30
0.0
 10
109.3147045527939
 20
133.0531577729803
 30
0.0
 10
109.2253124187209
 20
133.2720121983578
 30
0.0
 10
109.1857111496246
 20
133.3733011042686
 30
0.0
 10
109.1180390345778
 20
133.5515358043799
 30
0.0
 10
109.090217564953
 20
133.6277179314249
 30
0.0
 10
109.045304006951
 20
133.7530547778253
 30
0.0
 10
109.028293016413
 20
133.801997550264
 30
0.0
 10
109.0059884366724
 20
133.8666311064799
 30
0.0
 10
109.0003677728506
 20
133.8832353195269
 30
0.0
 10
109.0003677728506
 20
133.8832353195269
 30
0.0
  0
DIMENSION
  5
1C4
330
1F
100
AcDbEntity
  8
0
  6
Continuous
 62
     7
370
     0
100
AcDbDimension
  2
_D
 10
165.5201093896
 20
191.0780634147
 30
0.0
 11
123.0201093896
 21
191.0780634147
 31
0.0
 70
   160
  1
<>
 71
     2
 42
-1.0
  3
SLDDIMSTYLE0
100
AcDbAlignedDimension
 13
80.5201093896
 23
175.0780634147
 33
0.0
 14
165.5201093896
 24
175.0780634147
 34
0.0
100
AcDbRotatedDimension
  0
DIMENSION
  5
1D0
330
1F
100
AcDbEntity
  8
0
  6
Continuous
 62
     7
370
     0
100
AcDbDimension
  2
_D_1
 10
98.0201093896
 20
182.0531826462
 30
0.0
 11
89.2701093896
 21
182.0531826462
 31
0.0
 70
   160
  1
<>
 71
     2
 42
-1.0
  3
SLDDIMSTYLE1
100
AcDbAlignedDimension
 13
80.5201093896
 23
175.0780634147
 33
0.0
 14
98.0201093896
 24
154.0780634147
 34
0.0
100
AcDbRotatedDimension
  0
DIMENSION
  5
1DD
330
1F
100
AcDbEntity
  8
0
  6
Continuous
 62
     7
370
     0
100
AcDbDimension
  2
_D_2
 10
148.0201093896
 20
182.0531826462
 30
0.0
 11
123.0201093896
 21
182.0531826462
 31
0.0
 70
   160
  1
<>
 71
     2
 42
-1.0
  3
SLDDIMSTYLE0
100
AcDbAlignedDimension
 13
98.0201093896
 23
154.0780634147
 33
0.0
 14
148.0201093896
 24
154.0780634147
 34
0.0
100
AcDbRotatedDimension
  0
DIMENSION
  5
1E7
330
1F
100
AcDbEntity
  8
0
  6
Continuous
 62
     7
370
     0
100
AcDbDimension
  2
_D_3
 10
165.5201093896
 20
182.0531826462
 30
0.0
 11
156.7701093896
 21
182.0531826462
 31
0.0
 70
   160
  1
<>
 71
     2
 42
-1.0
  3
SLDDIMSTYLE1
100
AcDbAlignedDimension
 13
148.0201093896
 23
154.0780634147
 33
0.0
 14
165.5201093896
 24
175.0780634147
 34
0.0
100
AcDbRotatedDimension
  0
DIMENSION
  5
1F3
330
1F
100
AcDbEntity
  8
0
  6
Continuous
 62
     7
370
     0
100
AcDbDimension
  2
_D_4
 10
193.9569010614
 20
149.0780634147
 30
0.0
 11
193.9569010614
 21
162.0780634147
 31
0.0
 70
   160
  1
<>
 71
     2
 42
-1.0
  3
SLDDIMSTYLE0
100
AcDbAlignedDimension
 13
165.5201093896
 23
175.0780634147
 33
0.0
 14
153.0201093896
 24
149.0780634147
 34
0.0
 50
90.0
100
AcDbRotatedDimension
  0
DIMENSION
  5
1FD
330
1F
100
AcDbEntity
  8
0
  6
Continuous
 62
     7
370
     0
100
AcDbDimension
  2
_D_5
 10
193.9569010614
 20
129.0780634147
 30
0.0
 11
193.9569010614
 21
139.0780634147
 31
0.0
 70
   160
  1
<>
 71
     2
 42
-1.0
  3
SLDDIMSTYLE0
100
AcDbAlignedDimension
 13
153.0201093896
 23
149.0780634147
 33
0.0
 14
153.0201093896
 24
129.0780634147
 34
0.0
 50
90.0
100
AcDbRotatedDimension
  0
DIMENSION
  5
207
330
1F
100
AcDbEntity
  8
0
  6
Continuous
 62
     7
370
     0
100
AcDbDimension
  2
_D_6
 10
193.9569010614
 20
115.0780634147
 30
0.0
 11
193.9569010614
 21
122.0780634147
 31
0.0
 70
   160
  1
<>
 71
     2
 42
-1.0
  3
SLDDIMSTYLE1
100
AcDbAlignedDimension
 13
153.0201093896
 23
129.0780634147
 33
0.0
 14
165.5201093896
 24
115.0780634147
 34
0.0
 50
90.0
100
AcDbRotatedDimension
  0
DIMENSION
  5
213
330
1F
100
AcDbEntity
  8
0
  6
Continuous
 62
     7
370
     0
100
AcDbDimension
  2
_D_7
 10
54.0201093896
 20
139.0780634147
 30
0.0
 11
54.0201093896
 21
157.0780634147
 31
0.0
 70
   160
  1
<>
 71
     2
 42
-1.0
  3
SLDDIMSTYLE0
100
AcDbAlignedDimension
 13
80.5201093896
 23
175.0780634147
 33
0.0
 14
82.2701093896
 24
139.0780634147
 34
0.0
 50
90.0
100
AcDbRotatedDimension
  0
DIMENSION
  5
21D
330
1F
100
AcDbEntity
  8
0
  6
Continuous
 62
     7
370
     0
100
AcDbDimension
  2
_D_8
 10
54.0201093896
 20
115.0780634147
 30
0.0
 11
54.0201093896
 21
127.0780634147
 31
0.0
 70
   160
  1
<>
 71
     2
 42
-1.0
  3
SLDDIMSTYLE0
100
AcDbAlignedDimension
 13
82.2701093896
 23
139.0780634147
 33
0.0
 14
80.5201093896
 24
115.0780634147
 34
0.0
 50
90.0
100
AcDbRotatedDimension
  0
DIMENSION
  5
227
330
1F
100
AcDbEntity
  8
0
  6
Continuous
 62
     7
370
     0
100
AcDbDimension
  2
_D_9
 10
39.0563063545
 20
115.0780634147
 30
0.0
 11
39.0563063545
 21
145.0780634147
 31
0.0
 70
   160
  1
<>
 71
     2
 42
-1.0
  3
SLDDIMSTYLE0
100
AcDbAlignedDimension
 13
80.5201093896
 23
175.0780634147
 33
0.0
 14
80.5201093896
 24
115.0780634147
 34
0.0
 50
90.0
100
AcDbRotatedDimension
  0
DIMENSION
  5
231
330
1F
100
AcDbEntity
  8
0
  6
Continuous
 62
     7
370
     0
100
AcDbDimension
  2
_D_10
 10
88.0201093896
 20
105.0780634147
 30
0.0
 11
74.3885930633
 21
105.0780634147
 31
0.0
 70
   160
  1
<>
 71
     2
 42
-1.0
  3
SLDDIMSTYLE1
100
AcDbAlignedDimension
 13
80.5201093896
 23
115.0780634147
 33
0.0
 14
88.0201093896
 24
133.3280634147
 34
0.0
100
AcDbRotatedDimension
  0
DIMENSION
  5
23D
330
1F
100
AcDbEntity
  8
0
  6
Continuous
 62
     7
370
     0
100
AcDbDimension
  2
_D_11
 10
158.0201093896
 20
105.0780634147
 30
0.0
 11
123.0201093896
 21
105.0780634147
 31
0.0
 70
   160
  1
<>
 71
     2
 42
-1.0
  3
SLDDIMSTYLE0
100
AcDbAlignedDimension
 13
88.0201093896
 23
133.3280634147
 33
0.0
 14
158.0201093896
 24
133.3280634147
 34
0.0
100
AcDbRotatedDimension
  0
DIMENSION
  5
247
330
1F
100
AcDbEntity
  8
0
  6
Continuous
 62
     7
370
     0
100
AcDbDimension
  2
_D_12
 10
165.5201093896
 20
105.0780634147
 30
0.0
 11
172.8872528642
 21
105.0780634147
 31
0.0
 70
   160
  1
<>
 71
     2
 42
-1.0
  3
SLDDIMSTYLE1
100
AcDbAlignedDimension
 13
158.0201093896
 23
133.3280634147
 33
0.0
 14
165.5201093896
 24
115.0780634147
 34
0.0
100
AcDbRotatedDimension
  0
MTEXT
  5
253
330
1F
100
AcDbEntity
  8
0
  6
Continuous
 62
     7
370
     0
100
AcDbMText
 10
57.2928960297
 20
165.5641060815
 30
0.0
 40
3.5
 41
0.0
 71
     1
 72
     1
  1
BF-6
  7
SLDTEXTSTYLE1
 73
     1
 44
1.0
  0
LEADER
  5
255
330
1F
100
AcDbEntity
  8
0
  6
Continuous
 62
     7
370
     0
100
AcDbLeader
  3
SLDDIMSTYLE2
 76
     3
 10
70.8466223261
 20
153.9860857826
 30
0.0
 10
66.8382594417
 20
161.0016420361
 30
0.0
 10
57.1428571429
 20
161.0016420361
 30
0.0
  0
MTEXT
  5
256
330
1F
100
AcDbEntity
  8
0
  6
Continuous
 62
     7
370
     0
100
AcDbMText
 10
176.5470956545
 20
165.5641060815
 30
0.0
 40
3.5
 41
0.0
 71
     1
 72
     1
  1
BF-6
  7
SLDTEXTSTYLE1
 73
     1
 44
1.0
  0
LEADER
  5
257
330
1F
100
AcDbEntity
  8
0
  6
Continuous
 62
     7
370
     0
100
AcDbLeader
  3
SLDDIMSTYLE2
 76
     3
 10
171.3921333278
 20
154.2039520369
 30
0.0
 10
176.0188834154
 20
161.0016420361
 30
0.0
 10
185.5500821018
 20
161.0016420361
 30
0.0
  0
MTEXT
  5
258
330
1F
100
AcDbEntity
  8
0
  6
Continuous
 62
     7
370
     0
100
AcDbMText
 10
176.5470956545
 20
138.1101362395
 30
0.0
 40
3.5
 41
0.0
 71
     1
 72
     1
  1
BF-5
  7
SLDTEXTSTYLE1
 73
     1
 44
1.0
  0
LEADER
  5
259
330
1F
100
AcDbEntity
  8
0
  6
Continuous
 62
     7
370
     0
100
AcDbLeader
  3
SLDDIMSTYLE2
 76
     3
 10
171.6191455849
 20
126.8914127882
 30
0.0
 10
176.0188834154
 20
133.5796387521
 30
0.0
 10
185.5500821018
 20
133.5796387521
 30
0.0
  0
MTEXT
  5
25A
330
1F
100
AcDbEntity
  8
0
  6
Continuous
 62
     7
370
     0
100
AcDbMText
 10
58.37732925
 20
136.4304726505
 30
0.0
 40
3.5
 41
0.0
 71
     1
 72
     1
  1
BF-5
  7
SLDTEXTSTYLE1
 73
     1
 44
1.0
  0
LEADER
  5
25B
330
1F
100
AcDbEntity
  8
0
  6
Continuous
 62
     7
370
     0
100
AcDbLeader
  3
SLDDIMSTYLE2
 76
     3
 10
73.9660513769
 20
126.8221186213
 30
0.0
 10
67.8234811166
 20
131.7733990148
 30
0.0
 10
58.2922824302
 20
131.7733990148
 30
0.0
  0
MTEXT
  5
25C
330
1F
100
AcDbEntity
  8
0
  6
Continuous
 62
     7
370
     0
100
AcDbMText
 10
22.9113344211
 20
196.2145375611
 30
0.0
 40
3.5
 41
0.0
 71
     1
 72
     1
  1
2-M6(ツール取付用タップ）
  7
SLDTEXTSTYLE1
 73
     1
 44
1.0
  0
LEADER
  5
25D
330
1F
100
AcDbEntity
  8
0
  6
Continuous
 62
     7
370
     0
100
AcDbLeader
  3
SLDDIMSTYLE2
 76
     3
 10
96.5393065636
 20
151.0923183614
 30
0.0
 10
74.8842364532
 20
191.5435139573
 30
0.0
 10
22.8243021346
 20
191.5435139573
 30
0.0
  0
INSERT
  5
269
330
1F
100
AcDbEntity
  8
0
  6
Continuous
 62
     7
370
     0
100
AcDbBlockReference
  2
SW_CENTERMARKSYMBOL_0
 10
98.0201093896
 20
149.0780634147
 30
0.0
  0
INSERT
  5
275
330
1F
100
AcDbEntity
  8
0
  6
Continuous
 62
     7
370
     0
100
AcDbBlockReference
  2
SW_CENTERMARKSYMBOL_1
 10
98.0201093896
 20
129.0780634147
 30
0.0
  0
INSERT
  5
281
330
1F
100
AcDbEntity
  8
0
  6
Continuous
 62
     7
370
     0
100
AcDbBlockReference
  2
SW_CENTERMARKSYMBOL_2
 10
148.0201093896
 20
149.0780634147
 30
0.0
  0
INSERT
  5
28D
330
1F
100
AcDbEntity
  8
0
  6
Continuous
 62
     7
370
     0
100
AcDbBlockReference
  2
SW_CENTERMARKSYMBOL_3
 10
148.0201093896
 20
129.0780634147
 30
0.0
  0
INSERT
  5
299
330
1F
100
AcDbEntity
  8
0
  6
Continuous
 62
     7
370
     0
100
AcDbBlockReference
  2
SW_CENTERMARKSYMBOL_4
 10
88.0201093896
 20
139.0780634147
 30
0.0
  0
INSERT
  5
2A5
330
1F
100
AcDbEntity
  8
0
  6
Continuous
 62
     7
370
     0
100
AcDbBlockReference
  2
SW_CENTERMARKSYMBOL_5
 10
158.0201093896
 20
139.0780634147
 30
0.0
  0
LINE
  5
2A6
330
1F
100
AcDbEntity
  8
0
  6
Continuous
 62
     7
370
    15
100
AcDbLine
 10
166.0201095527
 20
216.7040121374
 30
0.0
 11
165.5201094708
 21
216.7040121374
 31
0.0
  0
LINE
  5
2A7
330
1F
100
AcDbEntity
  8
0
  6
Continuous
 62
     7
370
    15
100
AcDbLine
 10
165.5201094708
 20
208.9040067611
 30
0.0
 11
166.0201095527
 21
208.9040067611
 31
0.0
  0
LINE
  5
2A8
330
1F
100
AcDbEntity
  8
0
  6
Continuous
 62
     7
370
    15
100
AcDbLine
 10
171.020109441
 20
210.4540106473
 30
0.0
 11
173.5201093851
 21
210.8040091214
 31
0.0
  0
LINE
  5
2A9
330
1F
100
AcDbEntity
  8
0
  6
Continuous
 62
     7
370
    15
100
AcDbLine
 10
173.5201093851
 20
214.8040097771
 30
0.0
 11
171.020109441
 21
215.1540082512
 31
0.0
  0
LINE
  5
2AA
330
1F
100
AcDbEntity
  8
0
  6
Continuous
 62
     7
370
    15
100
AcDbLine
 10
173.5201093851
 20
210.4540106473
 30
0.0
 11
176.0201093292
 21
210.8040091214
 31
0.0
  0
LINE
  5
2AB
330
1F
100
AcDbEntity
  8
0
  6
Continuous
 62
     7
370
    15
100
AcDbLine
 10
176.0201093292
 20
214.8040097771
 30
0.0
 11
173.5201093851
 21
215.1540082512
 31
0.0
  0
LINE
  5
2AC
330
1F
100
AcDbEntity
  8
0
  6
Continuous
 62
     7
370
    15
100
AcDbLine
 10
171.020109441
 20
214.9040114698
 30
0.0
 11
168.5201090312
 21
214.9040114698
 31
0.0
  0
LINE
  5
2AD
330
1F
100
AcDbEntity
  8
0
  6
Continuous
 62
     7
370
    15
100
AcDbLine
 10
168.5201090312
 20
210.7040074286
 30
0.0
 11
171.020109441
 21
210.7040074286
 31
0.0
  0
LINE
  5
2AE
330
1F
100
AcDbEntity
  8
0
  6
Continuous
 62
     7
370
    15
100
AcDbLine
 10
80.0201084947
 20
208.9040067611
 30
0.0
 11
80.520109508
 21
208.9040067611
 31
0.0
  0
LINE
  5
2AF
330
1F
100
AcDbEntity
  8
0
  6
Continuous
 62
     7
370
    15
100
AcDbLine
 10
80.520109508
 20
216.7040121374
 30
0.0
 11
80.0201084947
 21
216.7040121374
 31
0.0
  0
LINE
  5
2B0
330
1F
100
AcDbEntity
  8
0
  6
Continuous
 62
     7
370
    15
100
AcDbLine
 10
72.5201081967
 20
215.1540082512
 30
0.0
 11
70.0201105809
 21
214.8040097771
 31
0.0
  0
LINE
  5
2B1
330
1F
100
AcDbEntity
  8
0
  6
Continuous
 62
     7
370
    15
100
AcDbLine
 10
70.0201105809
 20
210.8040091214
 30
0.0
 11
72.5201081967
 21
210.4540106473
 31
0.0
  0
LINE
  5
2B2
330
1F
100
AcDbEntity
  8
0
  6
Continuous
 62
     7
370
    15
100
AcDbLine
 10
75.0201058125
 20
215.1540082512
 30
0.0
 11
72.5201081967
 21
214.8040097771
 31
0.0
  0
LINE
  5
2B3
330
1F
100
AcDbEntity
  8
0
  6
Continuous
 62
     7
370
    15
100
AcDbLine
 10
72.5201081967
 20
210.8040091214
 30
0.0
 11
75.0201058125
 21
210.4540106473
 31
0.0
  0
LINE
  5
2B4
330
1F
100
AcDbEntity
  8
0
  6
Continuous
 62
     7
370
    15
100
AcDbLine
 10
75.0201058125
 20
210.7040074286
 30
0.0
 11
77.5201108789
 21
210.7040074286
 31
0.0
  0
LINE
  5
2B5
330
1F
100
AcDbEntity
  8
0
  6
Continuous
 62
     7
370
    15
100
AcDbLine
 10
77.5201108789
 20
214.9040114698
 30
0.0
 11
75.0201058125
 21
214.9040114698
 31
0.0
  0
LINE
  5
2B6
330
1F
100
AcDbEntity
  8
0
  6
Continuous
 62
     7
370
    15
100
AcDbLine
 10
160.1701092458
 20
220.7040053425
 30
0.0
 11
159.6701100951
 21
221.2040063558
 31
0.0
  0
LINE
  5
2B7
330
1F
100
AcDbEntity
  8
0
  6
Continuous
 62
     7
370
    15
100
AcDbLine
 10
155.3701099491
 20
221.2040063558
 30
0.0
 11
154.8701089358
 21
220.7040053425
 31
0.0
  0
LINE
  5
2B8
330
1F
100
AcDbEntity
  8
0
  6
Continuous
 62
     7
370
    15
100
AcDbLine
 10
154.8701089358
 20
220.7040053425
 30
0.0
 11
154.8701089358
 21
218.6040070472
 31
0.0
  0
LINE
  5
2B9
330
1F
100
AcDbEntity
  8
0
  6
Continuous
 62
     7
370
    15
100
AcDbLine
 10
160.1701092458
 20
218.6040070472
 30
0.0
 11
160.1701092458
 21
220.7040053425
 31
0.0
  0
LINE
  5
2BA
330
1F
100
AcDbEntity
  8
0
  6
Continuous
 62
     7
370
    15
100
AcDbLine
 10
86.7201101517
 20
221.9040107546
 30
0.0
 11
86.7201101517
 21
221.2040063558
 31
0.0
  0
LINE
  5
2BB
330
1F
100
AcDbEntity
  8
0
  6
Continuous
 62
     7
370
    15
100
AcDbLine
 10
90.3201114869
 20
221.2040063558
 30
0.0
 11
90.3201114869
 21
221.9040107546
 31
0.0
  0
LINE
  5
2BC
330
1F
100
AcDbEntity
  8
0
  6
Continuous
 62
     7
370
    15
100
AcDbLine
 10
87.0201077795
 20
222.4040117679
 30
0.0
 11
86.7201101517
 21
221.9040107546
 31
0.0
  0
LINE
  5
2BD
330
1F
100
AcDbEntity
  8
0
  6
Continuous
 62
     7
370
    15
100
AcDbLine
 10
90.3201114869
 20
221.9040107546
 30
0.0
 11
90.0201064086
 21
222.4040117679
 31
0.0
  0
LINE
  5
2BE
330
1F
100
AcDbEntity
  8
0
  6
Continuous
 62
     7
370
    15
100
AcDbLine
 10
91.1701109743
 20
220.7040053425
 30
0.0
 11
90.670109961
 21
221.2040063558
 31
0.0
  0
LINE
  5
2BF
330
1F
100
AcDbEntity
  8
0
  6
Continuous
 62
     7
370
    15
100
AcDbLine
 10
86.3701116776
 20
221.2040063558
 30
0.0
 11
85.8701106643
 21
220.7040053425
 31
0.0
  0
LINE
  5
2C0
330
1F
100
AcDbEntity
  8
0
  6
Continuous
 62
     7
370
    15
100
AcDbLine
 10
85.8701106643
 20
220.7040053425
 30
0.0
 11
85.8701106643
 21
218.6040070472
 31
0.0
  0
LINE
  5
2C1
330
1F
100
AcDbEntity
  8
0
  6
Continuous
 62
     7
370
    15
100
AcDbLine
 10
91.1701109743
 20
218.6040070472
 30
0.0
 11
91.1701109743
 21
220.7040053425
 31
0.0
  0
LINE
  5
2C2
330
1F
100
AcDbEntity
  8
0
  6
Continuous
 62
     7
370
    15
100
AcDbLine
 10
155.7201102859
 20
221.9040107546
 30
0.0
 11
155.7201102859
 21
221.2040063558
 31
0.0
  0
LINE
  5
2C3
330
1F
100
AcDbEntity
  8
0
  6
Continuous
 62
     7
370
    15
100
AcDbLine
 10
159.3201097584
 20
221.2040063558
 30
0.0
 11
159.3201097584
 21
221.9040107546
 31
0.0
  0
LINE
  5
2C4
330
1F
100
AcDbEntity
  8
0
  6
Continuous
 62
     7
370
    15
100
AcDbLine
 10
156.0201097762
 20
222.4040117679
 30
0.0
 11
155.7201102859
 21
221.9040107546
 31
0.0
  0
LINE
  5
2C5
330
1F
100
AcDbEntity
  8
0
  6
Continuous
 62
     7
370
    15
100
AcDbLine
 10
159.3201097584
 20
221.9040107546
 30
0.0
 11
159.020110268
 21
222.4040117679
 31
0.0
  0
LINE
  5
2C6
330
1F
100
AcDbEntity
  8
0
  6
Continuous
 62
     7
370
    15
100
AcDbLine
 10
166.0201095527
 20
214.9888437805
 30
0.0
 11
166.0201095527
 21
216.6941699204
 31
0.0
  0
LINE
  5
2C7
330
1F
100
AcDbEntity
  8
0
  6
Continuous
 62
     7
370
    15
100
AcDbLine
 10
166.0201095527
 20
211.0986870346
 30
0.0
 11
166.0201095527
 21
214.5093318639
 31
0.0
  0
LINE
  5
2C8
330
1F
100
AcDbEntity
  8
0
  6
Continuous
 62
     7
370
    15
100
AcDbLine
 10
166.0201095527
 20
208.913848978
 30
0.0
 11
166.0201095527
 21
210.6191676674
 31
0.0
  0
LINE
  5
2C9
330
1F
100
AcDbEntity
  8
0
  6
Continuous
 62
     7
370
    15
100
AcDbLine
 10
168.5201090312
 20
208.7540116725
 30
0.0
 11
168.5201090312
 21
210.7790049729
 31
0.0
  0
LINE
  5
2CA
330
1F
100
AcDbEntity
  8
0
  6
Continuous
 62
     7
370
    15
100
AcDbLine
 10
168.5201090312
 20
210.7790049729
 30
0.0
 11
168.5201090312
 21
214.829006475
 31
0.0
  0
LINE
  5
2CB
330
1F
100
AcDbEntity
  8
0
  6
Continuous
 62
     7
370
    15
100
AcDbLine
 10
168.5201090312
 20
214.829006475
 30
0.0
 11
168.5201090312
 21
216.854007226
 31
0.0
  0
LINE
  5
2CC
330
1F
100
AcDbEntity
  8
0
  6
Continuous
 62
     7
370
    15
100
AcDbLine
 10
168.5201090312
 20
214.829006475
 30
0.0
 11
166.0201095527
 21
214.829006475
 31
0.0
  0
LINE
  5
2CD
330
1F
100
AcDbEntity
  8
0
  6
Continuous
 62
     7
370
    15
100
AcDbLine
 10
168.5201090312
 20
210.7790049729
 30
0.0
 11
166.0201095527
 21
210.7790049729
 31
0.0
  0
LINE
  5
2CE
330
1F
100
AcDbEntity
  8
0
  6
Continuous
 62
   144
370
     0
100
AcDbLine
 10
166.0201095527
 20
210.7790049729
 30
0.0
 11
166.0201095527
 21
211.0986870346
 31
0.0
  0
LINE
  5
2CF
330
1F
100
AcDbEntity
  8
0
  6
Continuous
 62
   144
370
     0
100
AcDbLine
 10
166.0201095527
 20
214.5093318639
 30
0.0
 11
166.0201095527
 21
214.829006475
 31
0.0
  0
LINE
  5
2D0
330
1F
100
AcDbEntity
  8
0
  6
Continuous
 62
     7
370
    15
100
AcDbLine
 10
166.0201095527
 20
208.7540116725
 30
0.0
 11
168.5201090312
 21
208.7540116725
 31
0.0
  0
LINE
  5
2D1
330
1F
100
AcDbEntity
  8
0
  6
Continuous
 62
   144
370
     0
100
AcDbLine
 10
166.0201095527
 20
208.7540116725
 30
0.0
 11
166.0201095527
 21
208.913848978
 31
0.0
  0
LINE
  5
2D2
330
1F
100
AcDbEntity
  8
0
  6
Continuous
 62
   144
370
     0
100
AcDbLine
 10
166.0201095527
 20
210.6191676674
 30
0.0
 11
166.0201095527
 21
210.7790049729
 31
0.0
  0
LINE
  5
2D3
330
1F
100
AcDbEntity
  8
0
  6
Continuous
 62
     7
370
    15
100
AcDbLine
 10
168.5201090312
 20
216.854007226
 30
0.0
 11
166.0201095527
 21
216.854007226
 31
0.0
  0
LINE
  5
2D4
330
1F
100
AcDbEntity
  8
0
  6
Continuous
 62
   144
370
     0
100
AcDbLine
 10
166.0201095527
 20
214.829006475
 30
0.0
 11
166.0201095527
 21
214.9888437805
 31
0.0
  0
LINE
  5
2D5
330
1F
100
AcDbEntity
  8
0
  6
Continuous
 62
   144
370
     0
100
AcDbLine
 10
166.0201095527
 20
216.6941699204
 30
0.0
 11
166.0201095527
 21
216.854007226
 31
0.0
  0
LINE
  5
2D6
330
1F
100
AcDbEntity
  8
0
  6
Continuous
 62
     7
370
    15
100
AcDbLine
 10
171.020109441
 20
215.1540082512
 30
0.0
 11
171.020109441
 21
210.4540106473
 31
0.0
  0
LINE
  5
2D7
330
1F
100
AcDbEntity
  8
0
  6
Continuous
 62
     7
370
    15
100
AcDbLine
 10
173.5201093851
 20
215.1540082512
 30
0.0
 11
173.5201093851
 21
210.4540106473
 31
0.0
  0
LINE
  5
2D8
330
1F
100
AcDbEntity
  8
0
  6
Continuous
 62
     7
370
    15
100
AcDbLine
 10
176.0201093292
 20
214.8040097771
 30
0.0
 11
176.0201093292
 21
210.8040091214
 31
0.0
  0
LINE
  5
2D9
330
1F
100
AcDbEntity
  8
0
  6
Continuous
 62
     7
370
    15
100
AcDbLine
 10
80.0201084947
 20
216.6941699204
 30
0.0
 11
80.0201084947
 21
214.9888437805
 31
0.0
  0
LINE
  5
2DA
330
1F
100
AcDbEntity
  8
0
  6
Continuous
 62
     7
370
    15
100
AcDbLine
 10
80.0201084947
 20
210.6191676674
 30
0.0
 11
80.0201084947
 21
208.913848978
 31
0.0
  0
LINE
  5
2DB
330
1F
100
AcDbEntity
  8
0
  6
Continuous
 62
     7
370
    15
100
AcDbLine
 10
80.0201084947
 20
214.5093318639
 30
0.0
 11
80.0201084947
 21
211.0986870346
 31
0.0
  0
LINE
  5
2DC
330
1F
100
AcDbEntity
  8
0
  6
Continuous
 62
     7
370
    15
100
AcDbLine
 10
77.5201108789
 20
216.854007226
 30
0.0
 11
77.5201108789
 21
214.829006475
 31
0.0
  0
LINE
  5
2DD
330
1F
100
AcDbEntity
  8
0
  6
Continuous
 62
     7
370
    15
100
AcDbLine
 10
77.5201108789
 20
214.829006475
 30
0.0
 11
77.5201108789
 21
210.7790049729
 31
0.0
  0
LINE
  5
2DE
330
1F
100
AcDbEntity
  8
0
  6
Continuous
 62
     7
370
    15
100
AcDbLine
 10
77.5201108789
 20
210.7790049729
 30
0.0
 11
77.5201108789
 21
208.7540116725
 31
0.0
  0
LINE
  5
2DF
330
1F
100
AcDbEntity
  8
0
  6
Continuous
 62
     7
370
    15
100
AcDbLine
 10
77.5201108789
 20
210.7790049729
 30
0.0
 11
80.0201084947
 21
210.7790049729
 31
0.0
  0
LINE
  5
2E0
330
1F
100
AcDbEntity
  8
0
  6
Continuous
 62
     7
370
    15
100
AcDbLine
 10
80.0201084947
 20
214.829006475
 30
0.0
 11
77.5201108789
 21
214.829006475
 31
0.0
  0
LINE
  5
2E1
330
1F
100
AcDbEntity
  8
0
  6
Continuous
 62
   144
370
     0
100
AcDbLine
 10
80.0201084947
 20
214.829006475
 30
0.0
 11
80.0201084947
 21
214.5093318639
 31
0.0
  0
LINE
  5
2E2
330
1F
100
AcDbEntity
  8
0
  6
Continuous
 62
   144
370
     0
100
AcDbLine
 10
80.0201084947
 20
211.0986870346
 30
0.0
 11
80.0201084947
 21
210.7790049729
 31
0.0
  0
LINE
  5
2E3
330
1F
100
AcDbEntity
  8
0
  6
Continuous
 62
     7
370
    15
100
AcDbLine
 10
77.5201108789
 20
208.7540116725
 30
0.0
 11
80.0201084947
 21
208.7540116725
 31
0.0
  0
LINE
  5
2E4
330
1F
100
AcDbEntity
  8
0
  6
Continuous
 62
   144
370
     0
100
AcDbLine
 10
80.0201084947
 20
210.7790049729
 30
0.0
 11
80.0201084947
 21
210.6191676674
 31
0.0
  0
LINE
  5
2E5
330
1F
100
AcDbEntity
  8
0
  6
Continuous
 62
   144
370
     0
100
AcDbLine
 10
80.0201084947
 20
208.913848978
 30
0.0
 11
80.0201084947
 21
208.7540116725
 31
0.0
  0
LINE
  5
2E6
330
1F
100
AcDbEntity
  8
0
  6
Continuous
 62
     7
370
    15
100
AcDbLine
 10
77.5201108789
 20
216.854007226
 30
0.0
 11
80.0201084947
 21
216.854007226
 31
0.0
  0
LINE
  5
2E7
330
1F
100
AcDbEntity
  8
0
  6
Continuous
 62
   144
370
     0
100
AcDbLine
 10
80.0201084947
 20
216.854007226
 30
0.0
 11
80.0201084947
 21
216.6941699204
 31
0.0
  0
LINE
  5
2E8
330
1F
100
AcDbEntity
  8
0
  6
Continuous
 62
   144
370
     0
100
AcDbLine
 10
80.0201084947
 20
214.9888437805
 30
0.0
 11
80.0201084947
 21
214.829006475
 31
0.0
  0
LINE
  5
2E9
330
1F
100
AcDbEntity
  8
0
  6
Continuous
 62
     7
370
    15
100
AcDbLine
 10
72.5201081967
 20
210.4540106473
 30
0.0
 11
72.5201081967
 21
215.1540082512
 31
0.0
  0
LINE
  5
2EA
330
1F
100
AcDbEntity
  8
0
  6
Continuous
 62
     7
370
    15
100
AcDbLine
 10
70.0201105809
 20
210.8040091214
 30
0.0
 11
70.0201105809
 21
214.8040097771
 31
0.0
  0
LINE
  5
2EB
330
1F
100
AcDbEntity
  8
0
  6
Continuous
 62
     7
370
    15
100
AcDbLine
 10
75.0201058125
 20
214.8391690669
 30
0.0
 11
75.0201058125
 21
215.1540082512
 31
0.0
  0
LINE
  5
2EC
330
1F
100
AcDbEntity
  8
0
  6
Continuous
 62
     7
370
    15
100
AcDbLine
 10
75.0201058125
 20
210.4540106473
 30
0.0
 11
75.0201058125
 21
214.8391690669
 31
0.0
  0
LINE
  5
2ED
330
1F
100
AcDbEntity
  8
0
  6
Continuous
 62
     7
370
    15
100
AcDbLine
 10
155.3701099491
 20
221.2040063558
 30
0.0
 11
159.6701100951
 21
221.2040063558
 31
0.0
  0
LINE
  5
2EE
330
1F
100
AcDbEntity
  8
0
  6
Continuous
 62
     7
370
    15
100
AcDbLine
 10
160.1701092458
 20
220.7040053425
 30
0.0
 11
154.8701089358
 21
220.7040053425
 31
0.0
  0
LINE
  5
2EF
330
1F
100
AcDbEntity
  8
0
  6
Continuous
 62
     7
370
    15
100
AcDbLine
 10
86.7201101517
 20
221.9040107546
 30
0.0
 11
88.020109806
 21
221.9040107546
 31
0.0
  0
LINE
  5
2F0
330
1F
100
AcDbEntity
  8
0
  6
Continuous
 62
     7
370
    15
100
AcDbLine
 10
88.020109806
 20
221.2040063558
 30
0.0
 11
88.020109806
 21
221.9040107546
 31
0.0
  0
LINE
  5
2F1
330
1F
100
AcDbEntity
  8
0
  6
Continuous
 62
     7
370
    15
100
AcDbLine
 10
89.0201118326
 20
221.9040107546
 30
0.0
 11
89.0201118326
 21
221.2040063558
 31
0.0
  0
LINE
  5
2F2
330
1F
100
AcDbEntity
  8
0
  6
Continuous
 62
     7
370
    15
100
AcDbLine
 10
89.0201118326
 20
221.9040107546
 30
0.0
 11
90.3201114869
 21
221.9040107546
 31
0.0
  0
LINE
  5
2F3
330
1F
100
AcDbEntity
  8
0
  6
Continuous
 62
     7
370
    15
100
AcDbLine
 10
87.0201077795
 20
222.4040117679
 30
0.0
 11
88.020109806
 21
222.4040117679
 31
0.0
  0
SPLINE
  5
2F4
330
1F
100
AcDbEntity
  8
0
  6
Continuous
 62
     7
370
    15
100
AcDbSpline
210
0.0
220
0.0
230
1.0
 70
    24
 71
     3
 72
     8
 73
     4
 74
     0
 42
0.00000001
 43
0.00000001
 12
1.0
 22
0.0
 32
0.0
 13
1.0
 23
0.0
 33
0.0
 40
0.0
 40
0.0
 40
0.0
 40
0.0
 40
1.0
 40
1.0
 40
1.0
 40
1.0
 10
88.02010938962803
 20
221.9040085372936
 30
0.0
 10
88.02010938962803
 20
222.071073930791
 30
0.0
 10
88.02010938962803
 20
222.2378268159912
 30
0.0
 10
88.02010938962803
 20
222.4040085372937
 30
0.0
  0
SPLINE
  5
2F5
330
1F
100
AcDbEntity
  8
0
  6
Continuous
 62
     7
370
    15
100
AcDbSpline
210
0.0
220
0.0
230
1.0
 70
    24
 71
     3
 72
     8
 73
     4
 74
     0
 42
0.00000001
 43
0.00000001
 12
1.0
 22
0.0
 32
0.0
 13
1.0
 23
0.0
 33
0.0
 40
0.0
 40
0.0
 40
0.0
 40
0.0
 40
1.0
 40
1.0
 40
1.0
 40
1.0
 10
89.02010938962803
 20
222.4040085372937
 30
0.0
 10
89.02010938962803
 20
222.2378489944497
 30
0.0
 10
89.02010938962803
 20
222.0710775355468
 30
0.0
 10
89.02010938962803
 20
221.9040085372937
 30
0.0
  0
LINE
  5
2F6
330
1F
100
AcDbEntity
  8
0
  6
Continuous
 62
     7
370
    15
100
AcDbLine
 10
89.0201118326
 20
222.4040117679
 30
0.0
 11
90.0201064086
 21
222.4040117679
 31
0.0
  0
LINE
  5
2F7
330
1F
100
AcDbEntity
  8
0
  6
Continuous
 62
     7
370
    15
100
AcDbLine
 10
86.3701116776
 20
221.2040063558
 30
0.0
 11
90.670109961
 21
221.2040063558
 31
0.0
  0
LINE
  5
2F8
330
1F
100
AcDbEntity
  8
0
  6
Continuous
 62
     7
370
    15
100
AcDbLine
 10
91.1701109743
 20
220.7040053425
 30
0.0
 11
85.8701106643
 21
220.7040053425
 31
0.0
  0
LINE
  5
2F9
330
1F
100
AcDbEntity
  8
0
  6
Continuous
 62
     7
370
    15
100
AcDbLine
 10
155.7201102859
 20
221.9040107546
 30
0.0
 11
157.0201099401
 21
221.9040107546
 31
0.0
  0
LINE
  5
2FA
330
1F
100
AcDbEntity
  8
0
  6
Continuous
 62
     7
370
    15
100
AcDbLine
 10
157.0201099401
 20
221.2040063558
 30
0.0
 11
157.0201099401
 21
221.9040107546
 31
0.0
  0
LINE
  5
2FB
330
1F
100
AcDbEntity
  8
0
  6
Continuous
 62
     7
370
    15
100
AcDbLine
 10
158.0201101041
 20
221.9040107546
 30
0.0
 11
158.0201101041
 21
221.2040063558
 31
0.0
  0
LINE
  5
2FC
330
1F
100
AcDbEntity
  8
0
  6
Continuous
 62
     7
370
    15
100
AcDbLine
 10
158.0201101041
 20
221.9040107546
 30
0.0
 11
159.3201097584
 21
221.9040107546
 31
0.0
  0
LINE
  5
2FD
330
1F
100
AcDbEntity
  8
0
  6
Continuous
 62
     7
370
    15
100
AcDbLine
 10
156.0201097762
 20
222.4040117679
 30
0.0
 11
157.0201099401
 21
222.4040117679
 31
0.0
  0
SPLINE
  5
2FE
330
1F
100
AcDbEntity
  8
0
  6
Continuous
 62
     7
370
    15
100
AcDbSpline
210
0.0
220
0.0
230
1.0
 70
    24
 71
     3
 72
     8
 73
     4
 74
     0
 42
0.00000001
 43
0.00000001
 12
1.0
 22
0.0
 32
0.0
 13
1.0
 23
0.0
 33
0.0
 40
0.0
 40
0.0
 40
0.0
 40
0.0
 40
1.0
 40
1.0
 40
1.0
 40
1.0
 10
157.0201093896281
 20
221.9040085372936
 30
0.0
 10
157.0201093896281
 20
222.071073930791
 30
0.0
 10
157.0201093896281
 20
222.2378268159912
 30
0.0
 10
157.0201093896281
 20
222.4040085372936
 30
0.0
  0
SPLINE
  5
2FF
330
1F
100
AcDbEntity
  8
0
  6
Continuous
 62
     7
370
    15
100
AcDbSpline
210
0.0
220
0.0
230
1.0
 70
    24
 71
     3
 72
     8
 73
     4
 74
     0
 42
0.00000001
 43
0.00000001
 12
1.0
 22
0.0
 32
0.0
 13
1.0
 23
0.0
 33
0.0
 40
0.0
 40
0.0
 40
0.0
 40
0.0
 40
1.0
 40
1.0
 40
1.0
 40
1.0
 10
158.0201093896281
 20
222.4040085372936
 30
0.0
 10
158.0201093896281
 20
222.2378489944497
 30
0.0
 10
158.0201093896281
 20
222.0710775355468
 30
0.0
 10
158.0201093896281
 20
221.9040085372936
 30
0.0
  0
LINE
  5
300
330
1F
100
AcDbEntity
  8
0
  6
Continuous
 62
     7
370
    15
100
AcDbLine
 10
158.0201101041
 20
222.4040117679
 30
0.0
 11
159.020110268
 21
222.4040117679
 31
0.0
  0
LINE
  5
301
330
1F
100
AcDbEntity
  8
0
  6
Continuous
 62
     7
370
    15
100
AcDbLine
 10
165.6201093009
 20
217.6040050206
 30
0.0
 11
165.6201093009
 21
216.7040121374
 31
0.0
  0
LINE
  5
302
330
1F
100
AcDbEntity
  8
0
  6
Continuous
 62
   144
370
     0
100
AcDbLine
 10
165.5201094708
 20
217.6040050206
 30
0.0
 11
165.6201093009
 21
217.6040050206
 31
0.0
  0
LINE
  5
303
330
1F
100
AcDbEntity
  8
0
  6
Continuous
 62
     7
370
    15
100
AcDbLine
 10
133.5201088822
 20
215.8040118036
 30
0.0
 11
133.5201088822
 21
218.6040070472
 31
0.0
  0
LINE
  5
304
330
1F
100
AcDbEntity
  8
0
  6
Continuous
 62
     7
370
    15
100
AcDbLine
 10
133.5201088822
 20
215.8040118036
 30
0.0
 11
139.0201088524
 21
215.8040118036
 31
0.0
  0
LINE
  5
305
330
1F
100
AcDbEntity
  8
0
  6
Continuous
 62
     7
370
    15
100
AcDbLine
 10
139.0201088524
 20
208.6040091333
 30
0.0
 11
139.0201088524
 21
215.8040118036
 31
0.0
  0
LINE
  5
306
330
1F
100
AcDbEntity
  8
0
  6
Continuous
 62
     7
370
    15
100
AcDbLine
 10
107.0201110577
 20
208.6040091333
 30
0.0
 11
139.0201088524
 21
208.6040091333
 31
0.0
  0
LINE
  5
307
330
1F
100
AcDbEntity
  8
0
  6
Continuous
 62
     7
370
    15
100
AcDbLine
 10
107.0201110577
 20
215.8040118036
 30
0.0
 11
107.0201110577
 21
208.6040091333
 31
0.0
  0
LINE
  5
308
330
1F
100
AcDbEntity
  8
0
  6
Continuous
 62
     7
370
    15
100
AcDbLine
 10
107.0201110577
 20
215.8040118036
 30
0.0
 11
112.5201073026
 21
215.8040118036
 31
0.0
  0
LINE
  5
309
330
1F
100
AcDbEntity
  8
0
  6
Continuous
 62
     7
370
    15
100
AcDbLine
 10
112.5201073026
 20
215.8040118036
 30
0.0
 11
112.5201073026
 21
218.6040070472
 31
0.0
  0
LINE
  5
30A
330
1F
100
AcDbEntity
  8
0
  6
Continuous
 62
     7
370
    15
100
AcDbLine
 10
112.5201073026
 20
218.6040070472
 30
0.0
 11
133.5201088822
 21
218.6040070472
 31
0.0
  0
LINE
  5
30B
330
1F
100
AcDbEntity
  8
0
  6
Continuous
 62
     7
370
    15
100
AcDbLine
 10
80.520109508
 20
215.8040118036
 30
0.0
 11
80.520109508
 21
208.6040091333
 31
0.0
  0
LINE
  5
30C
330
1F
100
AcDbEntity
  8
0
  6
Continuous
 62
     7
370
    15
100
AcDbLine
 10
80.520109508
 20
215.8040118036
 30
0.0
 11
80.520109508
 21
218.6040070472
 31
0.0
  0
LINE
  5
30D
330
1F
100
AcDbEntity
  8
0
  6
Continuous
 62
     7
370
    15
100
AcDbLine
 10
165.5201094708
 20
215.8040118036
 30
0.0
 11
165.5201094708
 21
208.6040091333
 31
0.0
  0
LINE
  5
30E
330
1F
100
AcDbEntity
  8
0
  6
Continuous
 62
     7
370
    15
100
AcDbLine
 10
165.5201094708
 20
215.8040118036
 30
0.0
 11
165.5201094708
 21
218.6040070472
 31
0.0
  0
LINE
  5
30F
330
1F
100
AcDbEntity
  8
0
  6
Continuous
 62
     7
370
    15
100
AcDbLine
 10
165.5201094708
 20
218.6040070472
 30
0.0
 11
133.5201088822
 21
218.6040070472
 31
0.0
  0
LINE
  5
310
330
1F
100
AcDbEntity
  8
0
  6
Continuous
 62
     7
370
    15
100
AcDbLine
 10
112.5201073026
 20
218.6040070472
 30
0.0
 11
80.520109508
 21
218.6040070472
 31
0.0
  0
LINE
  5
311
330
1F
100
AcDbEntity
  8
0
  6
Continuous
 62
     7
370
    15
100
AcDbLine
 10
159.020110268
 20
208.6040091333
 30
0.0
 11
165.5201094708
 21
208.6040091333
 31
0.0
  0
LINE
  5
312
330
1F
100
AcDbEntity
  8
0
  6
Continuous
 62
     7
370
    15
100
AcDbLine
 10
159.020110268
 20
215.8040118036
 30
0.0
 11
159.020110268
 21
208.6040091333
 31
0.0
  0
LINE
  5
313
330
1F
100
AcDbEntity
  8
0
  6
Continuous
 62
     7
370
    15
100
AcDbLine
 10
159.020110268
 20
215.8040118036
 30
0.0
 11
165.5201094708
 21
215.8040118036
 31
0.0
  0
LINE
  5
314
330
1F
100
AcDbEntity
  8
0
  6
Continuous
 62
     7
370
    15
100
AcDbLine
 10
87.0201077795
 20
208.6040091333
 30
0.0
 11
87.0201077795
 21
215.8040118036
 31
0.0
  0
LINE
  5
315
330
1F
100
AcDbEntity
  8
0
  6
Continuous
 62
     7
370
    15
100
AcDbLine
 10
80.520109508
 20
208.6040091333
 30
0.0
 11
87.0201077795
 21
208.6040091333
 31
0.0
  0
LINE
  5
316
330
1F
100
AcDbEntity
  8
0
  6
Continuous
 62
     7
370
    15
100
AcDbLine
 10
80.520109508
 20
215.8040118036
 30
0.0
 11
87.0201077795
 21
215.8040118036
 31
0.0
  0
LINE
  5
317
330
1F
100
AcDbEntity
  8
0
  6
Continuous
 62
     7
370
    15
100
AcDbLine
 10
156.0201097762
 20
215.8040118036
 30
0.0
 11
159.020110268
 21
215.8040118036
 31
0.0
  0
LINE
  5
318
330
1F
100
AcDbEntity
  8
0
  6
Continuous
 62
     7
370
    15
100
AcDbLine
 10
90.0201064086
 20
215.8040118036
 30
0.0
 11
87.0201077795
 21
215.8040118036
 31
0.0
  0
LINE
  5
319
330
1F
100
AcDbEntity
  8
0
  6
Continuous
 62
     7
370
    15
100
AcDbLine
 10
139.0201088524
 20
215.8040118036
 30
0.0
 11
142.0201112067
 21
215.8040118036
 31
0.0
  0
LINE
  5
31A
330
1F
100
AcDbEntity
  8
0
  6
Continuous
 62
     7
370
    15
100
AcDbLine
 10
107.0201110577
 20
215.8040118036
 30
0.0
 11
104.0201124286
 21
215.8040118036
 31
0.0
  0
LINE
  5
31B
330
1F
100
AcDbEntity
  8
0
  6
Continuous
 62
     7
370
    15
100
AcDbLine
 10
142.0201112067
 20
208.6040091333
 30
0.0
 11
139.0201088524
 21
208.6040091333
 31
0.0
  0
LINE
  5
31C
330
1F
100
AcDbEntity
  8
0
  6
Continuous
 62
     7
370
    15
100
AcDbLine
 10
156.0201097762
 20
208.6040091333
 30
0.0
 11
142.0201112067
 21
208.6040091333
 31
0.0
  0
LINE
  5
31D
330
1F
100
AcDbEntity
  8
0
  6
Continuous
 62
     7
370
    15
100
AcDbLine
 10
159.020110268
 20
208.6040091333
 30
0.0
 11
156.0201097762
 21
208.6040091333
 31
0.0
  0
LINE
  5
31E
330
1F
100
AcDbEntity
  8
0
  6
Continuous
 62
     7
370
    15
100
AcDbLine
 10
90.0201064086
 20
208.6040091333
 30
0.0
 11
87.0201077795
 21
208.6040091333
 31
0.0
  0
LINE
  5
31F
330
1F
100
AcDbEntity
  8
0
  6
Continuous
 62
     7
370
    15
100
AcDbLine
 10
104.0201124286
 20
208.6040091333
 30
0.0
 11
90.0201064086
 21
208.6040091333
 31
0.0
  0
LINE
  5
320
330
1F
100
AcDbEntity
  8
0
  6
Continuous
 62
     7
370
    15
100
AcDbLine
 10
107.0201110577
 20
208.6040091333
 30
0.0
 11
104.0201124286
 21
208.6040091333
 31
0.0
  0
LINE
  5
321
330
1F
100
AcDbEntity
  8
0
  6
Continuous
 62
     7
370
    15
100
AcDbLine
 10
104.0201124286
 20
208.6040091333
 30
0.0
 11
104.0201124286
 21
215.8040118036
 31
0.0
  0
LINE
  5
322
330
1F
100
AcDbEntity
  8
0
  6
Continuous
 62
     7
370
    15
100
AcDbLine
 10
142.0201112067
 20
215.8040118036
 30
0.0
 11
142.0201112067
 21
208.6040091333
 31
0.0
  0
LINE
  5
323
330
1F
100
AcDbEntity
  8
0
  6
Continuous
 62
     7
370
    15
100
AcDbLine
 10
90.0201064086
 20
215.8040118036
 30
0.0
 11
90.0201064086
 21
208.6040091333
 31
0.0
  0
LINE
  5
324
330
1F
100
AcDbEntity
  8
0
  6
Continuous
 62
     7
370
    15
100
AcDbLine
 10
156.0201097762
 20
208.6040091333
 30
0.0
 11
156.0201097762
 21
215.8040118036
 31
0.0
  0
DIMENSION
  5
325
330
1F
100
AcDbEntity
  8
0
  6
Continuous
 62
     7
370
     0
100
AcDbDimension
  2
_D_13
 10
55.2221440248
 20
222.4040085373
 30
0.0
 11
55.2221440248
 21
215.5040085373
 31
0.0
 70
   160
  1
<>
 71
     2
 42
-1.0
  3
SLDDIMSTYLE1
100
AcDbAlignedDimension
 13
80.5201093896
 23
208.6040085373
 33
0.0
 14
87.0201093896
 24
222.4040085373
 34
0.0
 50
90.0
100
AcDbRotatedDimension
  0
DIMENSION
  5
331
330
1F
100
AcDbEntity
  8
0
  6
Continuous
 62
     7
370
     0
100
AcDbDimension
  2
_D_14
 10
64.4089293377
 20
208.6040085373
 30
0.0
 11
64.4089293377
 21
213.6040085373
 31
0.0
 70
   160
  1
<>
 71
     2
 42
-1.0
  3
SLDDIMSTYLE1
100
AcDbAlignedDimension
 13
80.5201093896
 23
218.6040085373
 33
0.0
 14
80.5201093896
 24
208.6040085373
 34
0.0
 50
90.0
100
AcDbRotatedDimension
  0
LINE
  5
33D
330
1F
100
AcDbEntity
  8
0
  6
Continuous
 62
     7
370
    15
100
AcDbLine
 10
171.020109441
 20
76.3454031297
 30
0.0
 11
173.5201093851
 21
76.6954016038
 31
0.0
  0
LINE
  5
33E
330
1F
100
AcDbEntity
  8
0
  6
Continuous
 62
     7
370
    15
100
AcDbLine
 10
173.5201093851
 20
80.6954022595
 30
0.0
 11
171.020109441
 21
81.0454007336
 31
0.0
  0
LINE
  5
33F
330
1F
100
AcDbEntity
  8
0
  6
Continuous
 62
     7
370
    15
100
AcDbLine
 10
173.5201093851
 20
76.3454031297
 30
0.0
 11
176.0201093292
 21
76.6954016038
 31
0.0
  0
LINE
  5
340
330
1F
100
AcDbEntity
  8
0
  6
Continuous
 62
     7
370
    15
100
AcDbLine
 10
176.0201093292
 20
80.6954022595
 30
0.0
 11
173.5201093851
 21
81.0454007336
 31
0.0
  0
LINE
  5
341
330
1F
100
AcDbEntity
  8
0
  6
Continuous
 62
     7
370
    15
100
AcDbLine
 10
171.020109441
 20
80.7954039523
 30
0.0
 11
168.5201090312
 21
80.7954039523
 31
0.0
  0
LINE
  5
342
330
1F
100
AcDbEntity
  8
0
  6
Continuous
 62
     7
370
    15
100
AcDbLine
 10
168.5201090312
 20
76.5953999111
 30
0.0
 11
171.020109441
 21
76.5953999111
 31
0.0
  0
LINE
  5
343
330
1F
100
AcDbEntity
  8
0
  6
Continuous
 62
     7
370
    15
100
AcDbLine
 10
166.0201095527
 20
82.5954046198
 30
0.0
 11
165.5201094708
 21
82.5954046198
 31
0.0
  0
LINE
  5
344
330
1F
100
AcDbEntity
  8
0
  6
Continuous
 62
     7
370
    15
100
AcDbLine
 10
165.5201094708
 20
74.7953992435
 30
0.0
 11
166.0201095527
 21
74.7953992435
 31
0.0
  0
LINE
  5
345
330
1F
100
AcDbEntity
  8
0
  6
Continuous
 62
     7
370
    15
100
AcDbLine
 10
171.020109441
 20
76.7908286401
 30
0.0
 11
173.0201093031
 21
77.0954009243
 31
0.0
  0
LINE
  5
346
330
1F
100
AcDbEntity
  8
0
  6
Continuous
 62
     7
370
    15
100
AcDbLine
 10
173.0201093031
 20
80.295402939
 30
0.0
 11
171.020109441
 21
80.5999752232
 31
0.0
  0
LINE
  5
347
330
1F
100
AcDbEntity
  8
0
  6
Continuous
 62
     7
370
    15
100
AcDbLine
 10
171.020109441
 20
80.5999752232
 30
0.0
 11
170.520109359
 21
80.5999752232
 31
0.0
  0
LINE
  5
348
330
1F
100
AcDbEntity
  8
0
  6
Continuous
 62
     7
370
    15
100
AcDbLine
 10
170.520109359
 20
76.7908286401
 30
0.0
 11
171.020109441
 21
76.7908286401
 31
0.0
  0
LINE
  5
349
330
1F
100
AcDbEntity
  8
0
  6
Continuous
 62
     7
370
    15
100
AcDbLine
 10
173.5201093851
 20
76.8954049894
 30
0.0
 11
175.5201092472
 21
77.1954026171
 31
0.0
  0
LINE
  5
34A
330
1F
100
AcDbEntity
  8
0
  6
Continuous
 62
     7
370
    15
100
AcDbLine
 10
175.5201092472
 20
80.1954012462
 30
0.0
 11
173.5201093851
 21
80.4954063245
 31
0.0
  0
LINE
  5
34B
330
1F
100
AcDbEntity
  8
0
  6
Continuous
 62
     7
370
    15
100
AcDbLine
 10
173.5201093851
 20
80.4954063245
 30
0.0
 11
173.0201093031
 21
80.4954063245
 31
0.0
  0
LINE
  5
34C
330
1F
100
AcDbEntity
  8
0
  6
Continuous
 62
     7
370
    15
100
AcDbLine
 10
173.0201093031
 20
76.8954049894
 30
0.0
 11
173.5201093851
 21
76.8954049894
 31
0.0
  0
LINE
  5
34D
330
1F
100
AcDbEntity
  8
0
  6
Continuous
 62
     7
370
    15
100
AcDbLine
 10
170.520109359
 20
80.295402939
 30
0.0
 11
168.5201090312
 21
80.295402939
 31
0.0
  0
LINE
  5
34E
330
1F
100
AcDbEntity
  8
0
  6
Continuous
 62
     7
370
    15
100
AcDbLine
 10
168.5201090312
 20
77.0954009243
 30
0.0
 11
170.520109359
 21
77.0954009243
 31
0.0
  0
LINE
  5
34F
330
1F
100
AcDbEntity
  8
0
  6
Continuous
 62
     7
370
    15
100
AcDbLine
 10
75.0201058125
 20
81.0454007336
 30
0.0
 11
72.5201081967
 21
80.6954022595
 31
0.0
  0
LINE
  5
350
330
1F
100
AcDbEntity
  8
0
  6
Continuous
 62
     7
370
    15
100
AcDbLine
 10
72.5201081967
 20
76.6954016038
 30
0.0
 11
75.0201058125
 21
76.3454031297
 31
0.0
  0
LINE
  5
351
330
1F
100
AcDbEntity
  8
0
  6
Continuous
 62
     7
370
    15
100
AcDbLine
 10
72.5201081967
 20
81.0454007336
 30
0.0
 11
70.0201105809
 21
80.6954022595
 31
0.0
  0
LINE
  5
352
330
1F
100
AcDbEntity
  8
0
  6
Continuous
 62
     7
370
    15
100
AcDbLine
 10
70.0201105809
 20
76.6954016038
 30
0.0
 11
72.5201081967
 21
76.3454031297
 31
0.0
  0
LINE
  5
353
330
1F
100
AcDbEntity
  8
0
  6
Continuous
 62
     7
370
    15
100
AcDbLine
 10
75.0201058125
 20
76.5953999111
 30
0.0
 11
77.5201108789
 21
76.5953999111
 31
0.0
  0
LINE
  5
354
330
1F
100
AcDbEntity
  8
0
  6
Continuous
 62
     7
370
    15
100
AcDbLine
 10
77.5201108789
 20
80.7954039523
 30
0.0
 11
75.0201058125
 21
80.7954039523
 31
0.0
  0
LINE
  5
355
330
1F
100
AcDbEntity
  8
0
  6
Continuous
 62
     7
370
    15
100
AcDbLine
 10
159.3201097584
 20
69.5954006263
 30
0.0
 11
159.3201097584
 21
70.2954050251
 31
0.0
  0
LINE
  5
356
330
1F
100
AcDbEntity
  8
0
  6
Continuous
 62
     7
370
    15
100
AcDbLine
 10
155.7201102859
 20
70.2954050251
 30
0.0
 11
155.7201102859
 21
69.5954006263
 31
0.0
  0
LINE
  5
357
330
1F
100
AcDbEntity
  8
0
  6
Continuous
 62
     7
370
    15
100
AcDbLine
 10
159.020110268
 20
69.095399613
 30
0.0
 11
159.3201097584
 21
69.5954006263
 31
0.0
  0
LINE
  5
358
330
1F
100
AcDbEntity
  8
0
  6
Continuous
 62
     7
370
    15
100
AcDbLine
 10
155.7201102859
 20
69.5954006263
 30
0.0
 11
156.0201097762
 21
69.095399613
 31
0.0
  0
LINE
  5
359
330
1F
100
AcDbEntity
  8
0
  6
Continuous
 62
     7
370
    15
100
AcDbLine
 10
154.8701089358
 20
70.7954060384
 30
0.0
 11
155.3701099491
 21
70.2954050251
 31
0.0
  0
LINE
  5
35A
330
1F
100
AcDbEntity
  8
0
  6
Continuous
 62
     7
370
    15
100
AcDbLine
 10
159.6701100951
 20
70.2954050251
 30
0.0
 11
160.1701092458
 21
70.7954060384
 31
0.0
  0
LINE
  5
35B
330
1F
100
AcDbEntity
  8
0
  6
Continuous
 62
     7
370
    15
100
AcDbLine
 10
160.1701092458
 20
70.7954060384
 30
0.0
 11
160.1701092458
 21
72.8954043337
 31
0.0
  0
LINE
  5
35C
330
1F
100
AcDbEntity
  8
0
  6
Continuous
 62
     7
370
    15
100
AcDbLine
 10
154.8701089358
 20
72.8954043337
 30
0.0
 11
154.8701089358
 21
70.7954060384
 31
0.0
  0
LINE
  5
35D
330
1F
100
AcDbEntity
  8
0
  6
Continuous
 62
     7
370
    15
100
AcDbLine
 10
80.0201084947
 20
74.7953992435
 30
0.0
 11
80.520109508
 21
74.7953992435
 31
0.0
  0
LINE
  5
35E
330
1F
100
AcDbEntity
  8
0
  6
Continuous
 62
     7
370
    15
100
AcDbLine
 10
80.520109508
 20
82.5954046198
 30
0.0
 11
80.0201084947
 21
82.5954046198
 31
0.0
  0
LINE
  5
35F
330
1F
100
AcDbEntity
  8
0
  6
Continuous
 62
     7
370
    15
100
AcDbLine
 10
75.0201058125
 20
80.5999752232
 30
0.0
 11
73.02010921
 21
80.295402939
 31
0.0
  0
LINE
  5
360
330
1F
100
AcDbEntity
  8
0
  6
Continuous
 62
     7
370
    15
100
AcDbLine
 10
73.02010921
 20
77.0954009243
 30
0.0
 11
75.0201058125
 21
76.7908286401
 31
0.0
  0
LINE
  5
361
330
1F
100
AcDbEntity
  8
0
  6
Continuous
 62
     7
370
    15
100
AcDbLine
 10
75.0201058125
 20
76.7908286401
 30
0.0
 11
75.5201068258
 21
76.7908286401
 31
0.0
  0
LINE
  5
362
330
1F
100
AcDbEntity
  8
0
  6
Continuous
 62
     7
370
    15
100
AcDbLine
 10
75.5201068258
 20
80.5999752232
 30
0.0
 11
75.0201058125
 21
80.5999752232
 31
0.0
  0
LINE
  5
363
330
1F
100
AcDbEntity
  8
0
  6
Continuous
 62
     7
370
    15
100
AcDbLine
 10
72.5201081967
 20
80.4954063245
 30
0.0
 11
70.5201115942
 21
80.1954012462
 31
0.0
  0
LINE
  5
364
330
1F
100
AcDbEntity
  8
0
  6
Continuous
 62
     7
370
    15
100
AcDbLine
 10
70.5201115942
 20
77.1954026171
 30
0.0
 11
72.5201081967
 21
76.8954049894
 31
0.0
  0
LINE
  5
365
330
1F
100
AcDbEntity
  8
0
  6
Continuous
 62
     7
370
    15
100
AcDbLine
 10
72.5201081967
 20
76.8954049894
 30
0.0
 11
73.02010921
 21
76.8954049894
 31
0.0
  0
LINE
  5
366
330
1F
100
AcDbEntity
  8
0
  6
Continuous
 62
     7
370
    15
100
AcDbLine
 10
73.02010921
 20
80.4954063245
 30
0.0
 11
72.5201081967
 21
80.4954063245
 31
0.0
  0
LINE
  5
367
330
1F
100
AcDbEntity
  8
0
  6
Continuous
 62
     7
370
    15
100
AcDbLine
 10
75.5201068258
 20
77.0954009243
 30
0.0
 11
77.5201108789
 21
77.0954009243
 31
0.0
  0
LINE
  5
368
330
1F
100
AcDbEntity
  8
0
  6
Continuous
 62
     7
370
    15
100
AcDbLine
 10
77.5201108789
 20
80.295402939
 30
0.0
 11
75.5201068258
 21
80.295402939
 31
0.0
  0
LINE
  5
369
330
1F
100
AcDbEntity
  8
0
  6
Continuous
 62
     7
370
    15
100
AcDbLine
 10
90.3201114869
 20
69.5954006263
 30
0.0
 11
90.3201114869
 21
70.2954050251
 31
0.0
  0
LINE
  5
36A
330
1F
100
AcDbEntity
  8
0
  6
Continuous
 62
     7
370
    15
100
AcDbLine
 10
86.7201101517
 20
70.2954050251
 30
0.0
 11
86.7201101517
 21
69.5954006263
 31
0.0
  0
LINE
  5
36B
330
1F
100
AcDbEntity
  8
0
  6
Continuous
 62
     7
370
    15
100
AcDbLine
 10
90.0201064086
 20
69.095399613
 30
0.0
 11
90.3201114869
 21
69.5954006263
 31
0.0
  0
LINE
  5
36C
330
1F
100
AcDbEntity
  8
0
  6
Continuous
 62
     7
370
    15
100
AcDbLine
 10
86.7201101517
 20
69.5954006263
 30
0.0
 11
87.0201077795
 21
69.095399613
 31
0.0
  0
LINE
  5
36D
330
1F
100
AcDbEntity
  8
0
  6
Continuous
 62
     7
370
    15
100
AcDbLine
 10
91.1701109743
 20
70.7954060384
 30
0.0
 11
91.1701109743
 21
72.8954043337
 31
0.0
  0
LINE
  5
36E
330
1F
100
AcDbEntity
  8
0
  6
Continuous
 62
     7
370
    15
100
AcDbLine
 10
85.8701106643
 20
72.8954043337
 30
0.0
 11
85.8701106643
 21
70.7954060384
 31
0.0
  0
LINE
  5
36F
330
1F
100
AcDbEntity
  8
0
  6
Continuous
 62
     7
370
    15
100
AcDbLine
 10
85.8701106643
 20
70.7954060384
 30
0.0
 11
86.3701116776
 21
70.2954050251
 31
0.0
  0
LINE
  5
370
330
1F
100
AcDbEntity
  8
0
  6
Continuous
 62
     7
370
    15
100
AcDbLine
 10
90.670109961
 20
70.2954050251
 30
0.0
 11
91.1701109743
 21
70.7954060384
 31
0.0
  0
LINE
  5
371
330
1F
100
AcDbEntity
  8
0
  6
Continuous
 62
     7
370
    15
100
AcDbLine
 10
168.5201090312
 20
82.7368538925
 30
0.0
 11
168.5201090312
 21
82.7453997084
 31
0.0
  0
LINE
  5
372
330
1F
100
AcDbEntity
  8
0
  6
Continuous
 62
     7
370
    15
100
AcDbLine
 10
168.5201090312
 20
74.6454041549
 30
0.0
 11
168.5201090312
 21
74.6539499709
 31
0.0
  0
LINE
  5
373
330
1F
100
AcDbEntity
  8
0
  6
Continuous
 62
     7
370
    15
100
AcDbLine
 10
168.5201090312
 20
74.6454041549
 30
0.0
 11
166.0201095527
 21
74.6454041549
 31
0.0
  0
LINE
  5
374
330
1F
100
AcDbEntity
  8
0
  6
Continuous
 62
   144
370
     0
100
AcDbLine
 10
166.0201095527
 20
74.6454041549
 30
0.0
 11
166.0201095527
 21
74.6539499709
 31
0.0
  0
LINE
  5
375
330
1F
100
AcDbEntity
  8
0
  6
Continuous
 62
     7
370
    15
100
AcDbLine
 10
166.0201095527
 20
82.7453997084
 30
0.0
 11
168.5201090312
 21
82.7453997084
 31
0.0
  0
LINE
  5
376
330
1F
100
AcDbEntity
  8
0
  6
Continuous
 62
   144
370
     0
100
AcDbLine
 10
166.0201095527
 20
82.7368538925
 30
0.0
 11
166.0201095527
 21
82.7453997084
 31
0.0
  0
LINE
  5
377
330
1F
100
AcDbEntity
  8
0
  6
Continuous
 62
     7
370
    15
100
AcDbLine
 10
171.020109441
 20
80.7305615493
 30
0.0
 11
171.020109441
 21
80.5999752232
 31
0.0
  0
LINE
  5
378
330
1F
100
AcDbEntity
  8
0
  6
Continuous
 62
     7
370
    15
100
AcDbLine
 10
171.020109441
 20
76.7908286401
 30
0.0
 11
171.020109441
 21
76.3454031297
 31
0.0
  0
LINE
  5
379
330
1F
100
AcDbEntity
  8
0
  6
Continuous
 62
     7
370
    15
100
AcDbLine
 10
171.020109441
 20
81.0454007336
 30
0.0
 11
171.020109441
 21
80.7305615493
 31
0.0
  0
LINE
  5
37A
330
1F
100
AcDbEntity
  8
0
  6
Continuous
 62
     7
370
    15
100
AcDbLine
 10
173.5201093851
 20
76.8954049894
 30
0.0
 11
173.5201093851
 21
76.3454031297
 31
0.0
  0
LINE
  5
37B
330
1F
100
AcDbEntity
  8
0
  6
Continuous
 62
     7
370
    15
100
AcDbLine
 10
173.5201093851
 20
81.0454007336
 30
0.0
 11
173.5201093851
 21
80.4954063245
 31
0.0
  0
LINE
  5
37C
330
1F
100
AcDbEntity
  8
0
  6
Continuous
 62
     7
370
    15
100
AcDbLine
 10
176.0201093292
 20
77.6954036304
 30
0.0
 11
176.0201093292
 21
76.6954016038
 31
0.0
  0
LINE
  5
37D
330
1F
100
AcDbEntity
  8
0
  6
Continuous
 62
     7
370
    15
100
AcDbLine
 10
176.0201093292
 20
80.6954022595
 30
0.0
 11
176.0201093292
 21
77.6954036304
 31
0.0
  0
LINE
  5
37E
330
1F
100
AcDbEntity
  8
0
  6
Continuous
 62
     7
370
    15
100
AcDbLine
 10
166.0201095527
 20
80.8662589737
 30
0.0
 11
166.0201095527
 21
82.5867246934
 31
0.0
  0
LINE
  5
37F
330
1F
100
AcDbEntity
  8
0
  6
Continuous
 62
     7
370
    15
100
AcDbLine
 10
166.0201095527
 20
76.9749399373
 30
0.0
 11
166.0201095527
 21
80.4158713767
 31
0.0
  0
LINE
  5
380
330
1F
100
AcDbEntity
  8
0
  6
Continuous
 62
     7
370
    15
100
AcDbLine
 10
166.0201095527
 20
74.8040791699
 30
0.0
 11
166.0201095527
 21
76.5245448896
 31
0.0
  0
LINE
  5
381
330
1F
100
AcDbEntity
  8
0
  6
Continuous
 62
     7
370
    15
100
AcDbLine
 10
168.5201090312
 20
74.6539499709
 30
0.0
 11
168.5201090312
 21
76.6746740886
 31
0.0
  0
LINE
  5
382
330
1F
100
AcDbEntity
  8
0
  6
Continuous
 62
     7
370
    15
100
AcDbLine
 10
168.5201090312
 20
76.6746740886
 30
0.0
 11
168.5201090312
 21
80.7161297747
 31
0.0
  0
LINE
  5
383
330
1F
100
AcDbEntity
  8
0
  6
Continuous
 62
     7
370
    15
100
AcDbLine
 10
168.5201090312
 20
80.7161297747
 30
0.0
 11
168.5201090312
 21
82.7368538925
 31
0.0
  0
LINE
  5
384
330
1F
100
AcDbEntity
  8
0
  6
Continuous
 62
     7
370
    15
100
AcDbLine
 10
166.0201095527
 20
74.6539499709
 30
0.0
 11
168.5201090312
 21
74.6539499709
 31
0.0
  0
LINE
  5
385
330
1F
100
AcDbEntity
  8
0
  6
Continuous
 62
     7
370
    15
100
AcDbLine
 10
166.0201095527
 20
76.6746740886
 30
0.0
 11
168.5201090312
 21
76.6746740886
 31
0.0
  0
LINE
  5
386
330
1F
100
AcDbEntity
  8
0
  6
Continuous
 62
   144
370
     0
100
AcDbLine
 10
166.0201095527
 20
76.5245448896
 30
0.0
 11
166.0201095527
 21
76.6746740886
 31
0.0
  0
LINE
  5
387
330
1F
100
AcDbEntity
  8
0
  6
Continuous
 62
   144
370
     0
100
AcDbLine
 10
166.0201095527
 20
74.6539499709
 30
0.0
 11
166.0201095527
 21
74.8040791699
 31
0.0
  0
LINE
  5
388
330
1F
100
AcDbEntity
  8
0
  6
Continuous
 62
     7
370
    15
100
AcDbLine
 10
166.0201095527
 20
80.7161297747
 30
0.0
 11
168.5201090312
 21
80.7161297747
 31
0.0
  0
LINE
  5
389
330
1F
100
AcDbEntity
  8
0
  6
Continuous
 62
   144
370
     0
100
AcDbLine
 10
166.0201095527
 20
80.4158713767
 30
0.0
 11
166.0201095527
 21
80.7161297747
 31
0.0
  0
LINE
  5
38A
330
1F
100
AcDbEntity
  8
0
  6
Continuous
 62
   144
370
     0
100
AcDbLine
 10
166.0201095527
 20
76.6746740886
 30
0.0
 11
166.0201095527
 21
76.9749399373
 31
0.0
  0
LINE
  5
38B
330
1F
100
AcDbEntity
  8
0
  6
Continuous
 62
     7
370
    15
100
AcDbLine
 10
166.0201095527
 20
82.7368538925
 30
0.0
 11
168.5201090312
 21
82.7368538925
 31
0.0
  0
LINE
  5
38C
330
1F
100
AcDbEntity
  8
0
  6
Continuous
 62
   144
370
     0
100
AcDbLine
 10
166.0201095527
 20
82.5867246934
 30
0.0
 11
166.0201095527
 21
82.7368538925
 31
0.0
  0
LINE
  5
38D
330
1F
100
AcDbEntity
  8
0
  6
Continuous
 62
   144
370
     0
100
AcDbLine
 10
166.0201095527
 20
80.7161297747
 30
0.0
 11
166.0201095527
 21
80.8662589737
 31
0.0
  0
LINE
  5
38E
330
1F
100
AcDbEntity
  8
0
  6
Continuous
 62
     7
370
    15
100
AcDbLine
 10
171.020109441
 20
80.5999752232
 30
0.0
 11
171.020109441
 21
76.7908286401
 31
0.0
  0
LINE
  5
38F
330
1F
100
AcDbEntity
  8
0
  6
Continuous
 62
     7
370
    15
100
AcDbLine
 10
170.520109359
 20
80.5999752232
 30
0.0
 11
170.520109359
 21
76.7908286401
 31
0.0
  0
LINE
  5
390
330
1F
100
AcDbEntity
  8
0
  6
Continuous
 62
     7
370
    15
100
AcDbLine
 10
173.5201093851
 20
80.4954063245
 30
0.0
 11
173.5201093851
 21
76.8954049894
 31
0.0
  0
LINE
  5
391
330
1F
100
AcDbEntity
  8
0
  6
Continuous
 62
     7
370
    15
100
AcDbLine
 10
175.5201092472
 20
80.1954012462
 30
0.0
 11
175.5201092472
 21
77.1954026171
 31
0.0
  0
LINE
  5
392
330
1F
100
AcDbEntity
  8
0
  6
Continuous
 62
     7
370
    15
100
AcDbLine
 10
173.0201093031
 20
80.4954063245
 30
0.0
 11
173.0201093031
 21
76.8954049894
 31
0.0
  0
LINE
  5
393
330
1F
100
AcDbEntity
  8
0
  6
Continuous
 62
     7
370
    15
100
AcDbLine
 10
77.5201108789
 20
74.6454041549
 30
0.0
 11
80.0201084947
 21
74.6454041549
 31
0.0
  0
LINE
  5
394
330
1F
100
AcDbEntity
  8
0
  6
Continuous
 62
     7
370
    15
100
AcDbLine
 10
77.5201108789
 20
74.6539499709
 30
0.0
 11
77.5201108789
 21
74.6454041549
 31
0.0
  0
LINE
  5
395
330
1F
100
AcDbEntity
  8
0
  6
Continuous
 62
   144
370
     0
100
AcDbLine
 10
80.0201084947
 20
74.6539499709
 30
0.0
 11
80.0201084947
 21
74.6454041549
 31
0.0
  0
LINE
  5
396
330
1F
100
AcDbEntity
  8
0
  6
Continuous
 62
     7
370
    15
100
AcDbLine
 10
77.5201108789
 20
82.7453997084
 30
0.0
 11
77.5201108789
 21
82.7368538925
 31
0.0
  0
LINE
  5
397
330
1F
100
AcDbEntity
  8
0
  6
Continuous
 62
     7
370
    15
100
AcDbLine
 10
77.5201108789
 20
82.7453997084
 30
0.0
 11
80.0201084947
 21
82.7453997084
 31
0.0
  0
LINE
  5
398
330
1F
100
AcDbEntity
  8
0
  6
Continuous
 62
   144
370
     0
100
AcDbLine
 10
80.0201084947
 20
82.7453997084
 30
0.0
 11
80.0201084947
 21
82.7368538925
 31
0.0
  0
LINE
  5
399
330
1F
100
AcDbEntity
  8
0
  6
Continuous
 62
     7
370
    15
100
AcDbLine
 10
75.0201058125
 20
76.3454031297
 30
0.0
 11
75.0201058125
 21
76.7908286401
 31
0.0
  0
LINE
  5
39A
330
1F
100
AcDbEntity
  8
0
  6
Continuous
 62
     7
370
    15
100
AcDbLine
 10
75.0201058125
 20
80.5999752232
 30
0.0
 11
75.0201058125
 21
81.0454007336
 31
0.0
  0
LINE
  5
39B
330
1F
100
AcDbEntity
  8
0
  6
Continuous
 62
     7
370
    15
100
AcDbLine
 10
72.5201081967
 20
80.4954063245
 30
0.0
 11
72.5201081967
 21
81.0454007336
 31
0.0
  0
LINE
  5
39C
330
1F
100
AcDbEntity
  8
0
  6
Continuous
 62
     7
370
    15
100
AcDbLine
 10
72.5201081967
 20
76.3454031297
 30
0.0
 11
72.5201081967
 21
76.8954049894
 31
0.0
  0
LINE
  5
39D
330
1F
100
AcDbEntity
  8
0
  6
Continuous
 62
     7
370
    15
100
AcDbLine
 10
70.0201105809
 20
77.6954036304
 30
0.0
 11
70.0201105809
 21
80.6954022595
 31
0.0
  0
LINE
  5
39E
330
1F
100
AcDbEntity
  8
0
  6
Continuous
 62
     7
370
    15
100
AcDbLine
 10
70.0201105809
 20
76.6954016038
 30
0.0
 11
70.0201105809
 21
77.6954036304
 31
0.0
  0
LINE
  5
39F
330
1F
100
AcDbEntity
  8
0
  6
Continuous
 62
     7
370
    15
100
AcDbLine
 10
157.0201099401
 20
69.5954006263
 30
0.0
 11
157.0201099401
 21
70.2954050251
 31
0.0
  0
LINE
  5
3A0
330
1F
100
AcDbEntity
  8
0
  6
Continuous
 62
     7
370
    15
100
AcDbLine
 10
157.0201099401
 20
69.5954006263
 30
0.0
 11
155.7201102859
 21
69.5954006263
 31
0.0
  0
LINE
  5
3A1
330
1F
100
AcDbEntity
  8
0
  6
Continuous
 62
     7
370
    15
100
AcDbLine
 10
159.3201097584
 20
69.5954006263
 30
0.0
 11
158.0201101041
 21
69.5954006263
 31
0.0
  0
LINE
  5
3A2
330
1F
100
AcDbEntity
  8
0
  6
Continuous
 62
     7
370
    15
100
AcDbLine
 10
158.0201101041
 20
70.2954050251
 30
0.0
 11
158.0201101041
 21
69.5954006263
 31
0.0
  0
LINE
  5
3A3
330
1F
100
AcDbEntity
  8
0
  6
Continuous
 62
     7
370
    15
100
AcDbLine
 10
159.020110268
 20
69.095399613
 30
0.0
 11
158.0201101041
 21
69.095399613
 31
0.0
  0
SPLINE
  5
3A4
330
1F
100
AcDbEntity
  8
0
  6
Continuous
 62
     7
370
    15
100
AcDbSpline
210
0.0
220
0.0
230
1.0
 70
    24
 71
     3
 72
     8
 73
     4
 74
     0
 42
0.00000001
 43
0.00000001
 12
1.0
 22
0.0
 32
0.0
 13
1.0
 23
0.0
 33
0.0
 40
0.0
 40
0.0
 40
0.0
 40
0.0
 40
1.0
 40
1.0
 40
1.0
 40
1.0
 10
158.0201093896281
 20
69.59540284360173
 30
0.0
 10
158.0201093896281
 20
69.42833745010444
 30
0.0
 10
158.0201093896281
 20
69.26158456490421
 30
0.0
 10
158.0201093896281
 20
69.09540284360175
 30
0.0
  0
SPLINE
  5
3A5
330
1F
100
AcDbEntity
  8
0
  6
Continuous
 62
     7
370
    15
100
AcDbSpline
210
0.0
220
0.0
230
1.0
 70
    24
 71
     3
 72
     8
 73
     4
 74
     0
 42
0.00000001
 43
0.00000001
 12
1.0
 22
0.0
 32
0.0
 13
1.0
 23
0.0
 33
0.0
 40
0.0
 40
0.0
 40
0.0
 40
0.0
 40
1.0
 40
1.0
 40
1.0
 40
1.0
 10
157.0201093896281
 20
69.09540284360175
 30
0.0
 10
157.0201093896281
 20
69.2615623864457
 30
0.0
 10
157.0201093896281
 20
69.42833384534863
 30
0.0
 10
157.0201093896281
 20
69.59540284360175
 30
0.0
  0
LINE
  5
3A6
330
1F
100
AcDbEntity
  8
0
  6
Continuous
 62
     7
370
    15
100
AcDbLine
 10
157.0201099401
 20
69.095399613
 30
0.0
 11
156.0201097762
 21
69.095399613
 31
0.0
  0
LINE
  5
3A7
330
1F
100
AcDbEntity
  8
0
  6
Continuous
 62
     7
370
    15
100
AcDbLine
 10
155.534879539
 20
70.2954050251
 30
0.0
 11
155.3701099491
 21
70.2954050251
 31
0.0
  0
LINE
  5
3A8
330
1F
100
AcDbEntity
  8
0
  6
Continuous
 62
     7
370
    15
100
AcDbLine
 10
159.6701100951
 20
70.2954050251
 30
0.0
 11
155.534879539
 21
70.2954050251
 31
0.0
  0
LINE
  5
3A9
330
1F
100
AcDbEntity
  8
0
  6
Continuous
 62
     7
370
    15
100
AcDbLine
 10
155.0731987244
 20
70.7954060384
 30
0.0
 11
160.1701092458
 21
70.7954060384
 31
0.0
  0
LINE
  5
3AA
330
1F
100
AcDbEntity
  8
0
  6
Continuous
 62
     7
370
    15
100
AcDbLine
 10
154.8701089358
 20
70.7954060384
 30
0.0
 11
155.0731987244
 21
70.7954060384
 31
0.0
  0
LINE
  5
3AB
330
1F
100
AcDbEntity
  8
0
  6
Continuous
 62
     7
370
    15
100
AcDbLine
 10
80.0201084947
 20
76.5245448896
 30
0.0
 11
80.0201084947
 21
74.8040791699
 31
0.0
  0
LINE
  5
3AC
330
1F
100
AcDbEntity
  8
0
  6
Continuous
 62
     7
370
    15
100
AcDbLine
 10
80.0201084947
 20
80.4158713767
 30
0.0
 11
80.0201084947
 21
76.9749399373
 31
0.0
  0
LINE
  5
3AD
330
1F
100
AcDbEntity
  8
0
  6
Continuous
 62
     7
370
    15
100
AcDbLine
 10
80.0201084947
 20
82.5867246934
 30
0.0
 11
80.0201084947
 21
80.8662589737
 31
0.0
  0
LINE
  5
3AE
330
1F
100
AcDbEntity
  8
0
  6
Continuous
 62
     7
370
    15
100
AcDbLine
 10
77.5201108789
 20
82.7368538925
 30
0.0
 11
77.5201108789
 21
80.7161297747
 31
0.0
  0
LINE
  5
3AF
330
1F
100
AcDbEntity
  8
0
  6
Continuous
 62
     7
370
    15
100
AcDbLine
 10
77.5201108789
 20
80.7161297747
 30
0.0
 11
77.5201108789
 21
76.6746740886
 31
0.0
  0
LINE
  5
3B0
330
1F
100
AcDbEntity
  8
0
  6
Continuous
 62
     7
370
    15
100
AcDbLine
 10
77.5201108789
 20
76.6746740886
 30
0.0
 11
77.5201108789
 21
74.6539499709
 31
0.0
  0
LINE
  5
3B1
330
1F
100
AcDbEntity
  8
0
  6
Continuous
 62
     7
370
    15
100
AcDbLine
 10
80.0201084947
 20
76.6746740886
 30
0.0
 11
77.5201108789
 21
76.6746740886
 31
0.0
  0
LINE
  5
3B2
330
1F
100
AcDbEntity
  8
0
  6
Continuous
 62
     7
370
    15
100
AcDbLine
 10
80.0201084947
 20
74.6539499709
 30
0.0
 11
77.5201108789
 21
74.6539499709
 31
0.0
  0
LINE
  5
3B3
330
1F
100
AcDbEntity
  8
0
  6
Continuous
 62
   144
370
     0
100
AcDbLine
 10
80.0201084947
 20
74.8040791699
 30
0.0
 11
80.0201084947
 21
74.6539499709
 31
0.0
  0
LINE
  5
3B4
330
1F
100
AcDbEntity
  8
0
  6
Continuous
 62
   144
370
     0
100
AcDbLine
 10
80.0201084947
 20
76.6746740886
 30
0.0
 11
80.0201084947
 21
76.5245448896
 31
0.0
  0
LINE
  5
3B5
330
1F
100
AcDbEntity
  8
0
  6
Continuous
 62
     7
370
    15
100
AcDbLine
 10
80.0201084947
 20
80.7161297747
 30
0.0
 11
77.5201108789
 21
80.7161297747
 31
0.0
  0
LINE
  5
3B6
330
1F
100
AcDbEntity
  8
0
  6
Continuous
 62
   144
370
     0
100
AcDbLine
 10
80.0201084947
 20
76.9749399373
 30
0.0
 11
80.0201084947
 21
76.6746740886
 31
0.0
  0
LINE
  5
3B7
330
1F
100
AcDbEntity
  8
0
  6
Continuous
 62
   144
370
     0
100
AcDbLine
 10
80.0201084947
 20
80.7161297747
 30
0.0
 11
80.0201084947
 21
80.4158713767
 31
0.0
  0
LINE
  5
3B8
330
1F
100
AcDbEntity
  8
0
  6
Continuous
 62
     7
370
    15
100
AcDbLine
 10
80.0201084947
 20
82.7368538925
 30
0.0
 11
77.5201108789
 21
82.7368538925
 31
0.0
  0
LINE
  5
3B9
330
1F
100
AcDbEntity
  8
0
  6
Continuous
 62
   144
370
     0
100
AcDbLine
 10
80.0201084947
 20
80.8662589737
 30
0.0
 11
80.0201084947
 21
80.7161297747
 31
0.0
  0
LINE
  5
3BA
330
1F
100
AcDbEntity
  8
0
  6
Continuous
 62
   144
370
     0
100
AcDbLine
 10
80.0201084947
 20
82.7368538925
 30
0.0
 11
80.0201084947
 21
82.5867246934
 31
0.0
  0
LINE
  5
3BB
330
1F
100
AcDbEntity
  8
0
  6
Continuous
 62
     7
370
    15
100
AcDbLine
 10
75.0201058125
 20
79.6476867148
 30
0.0
 11
75.0201058125
 21
80.5999752232
 31
0.0
  0
LINE
  5
3BC
330
1F
100
AcDbEntity
  8
0
  6
Continuous
 62
     7
370
    15
100
AcDbLine
 10
75.0201058125
 20
76.7908286401
 30
0.0
 11
75.0201058125
 21
79.6476867148
 31
0.0
  0
LINE
  5
3BD
330
1F
100
AcDbEntity
  8
0
  6
Continuous
 62
     7
370
    15
100
AcDbLine
 10
75.5201068258
 20
79.6476867148
 30
0.0
 11
75.5201068258
 21
80.5999752232
 31
0.0
  0
LINE
  5
3BE
330
1F
100
AcDbEntity
  8
0
  6
Continuous
 62
     7
370
    15
100
AcDbLine
 10
75.5201068258
 20
76.7908286401
 30
0.0
 11
75.5201068258
 21
79.6476867148
 31
0.0
  0
LINE
  5
3BF
330
1F
100
AcDbEntity
  8
0
  6
Continuous
 62
     7
370
    15
100
AcDbLine
 10
72.5201081967
 20
79.5954059907
 30
0.0
 11
72.5201081967
 21
80.4954063245
 31
0.0
  0
LINE
  5
3C0
330
1F
100
AcDbEntity
  8
0
  6
Continuous
 62
     7
370
    15
100
AcDbLine
 10
72.5201081967
 20
76.8954049894
 30
0.0
 11
72.5201081967
 21
79.5954059907
 31
0.0
  0
LINE
  5
3C1
330
1F
100
AcDbEntity
  8
0
  6
Continuous
 62
     7
370
    15
100
AcDbLine
 10
70.5201115942
 20
79.4454034516
 30
0.0
 11
70.5201115942
 21
80.1954012462
 31
0.0
  0
LINE
  5
3C2
330
1F
100
AcDbEntity
  8
0
  6
Continuous
 62
     7
370
    15
100
AcDbLine
 10
70.5201115942
 20
77.1954026171
 30
0.0
 11
70.5201115942
 21
79.4454034516
 31
0.0
  0
LINE
  5
3C3
330
1F
100
AcDbEntity
  8
0
  6
Continuous
 62
     7
370
    15
100
AcDbLine
 10
73.02010921
 20
79.5954059907
 30
0.0
 11
73.02010921
 21
80.4954063245
 31
0.0
  0
LINE
  5
3C4
330
1F
100
AcDbEntity
  8
0
  6
Continuous
 62
     7
370
    15
100
AcDbLine
 10
73.02010921
 20
76.8954049894
 30
0.0
 11
73.02010921
 21
79.5954059907
 31
0.0
  0
LINE
  5
3C5
330
1F
100
AcDbEntity
  8
0
  6
Continuous
 62
     7
370
    15
100
AcDbLine
 10
90.3201114869
 20
69.5954006263
 30
0.0
 11
89.0201118326
 21
69.5954006263
 31
0.0
  0
LINE
  5
3C6
330
1F
100
AcDbEntity
  8
0
  6
Continuous
 62
     7
370
    15
100
AcDbLine
 10
89.0201118326
 20
70.2954050251
 30
0.0
 11
89.0201118326
 21
69.5954006263
 31
0.0
  0
LINE
  5
3C7
330
1F
100
AcDbEntity
  8
0
  6
Continuous
 62
     7
370
    15
100
AcDbLine
 10
88.020109806
 20
69.5954006263
 30
0.0
 11
88.020109806
 21
70.2954050251
 31
0.0
  0
LINE
  5
3C8
330
1F
100
AcDbEntity
  8
0
  6
Continuous
 62
     7
370
    15
100
AcDbLine
 10
88.020109806
 20
69.5954006263
 30
0.0
 11
86.7201101517
 21
69.5954006263
 31
0.0
  0
SPLINE
  5
3C9
330
1F
100
AcDbEntity
  8
0
  6
Continuous
 62
     7
370
    15
100
AcDbSpline
210
0.0
220
0.0
230
1.0
 70
    24
 71
     3
 72
     8
 73
     4
 74
     0
 42
0.00000001
 43
0.00000001
 12
1.0
 22
0.0
 32
0.0
 13
1.0
 23
0.0
 33
0.0
 40
0.0
 40
0.0
 40
0.0
 40
0.0
 40
1.0
 40
1.0
 40
1.0
 40
1.0
 10
88.02010938962803
 20
69.09540284360175
 30
0.0
 10
88.02010938962803
 20
69.2615623864457
 30
0.0
 10
88.02010938962803
 20
69.42833384534863
 30
0.0
 10
88.02010938962803
 20
69.59540284360175
 30
0.0
  0
LINE
  5
3CA
330
1F
100
AcDbEntity
  8
0
  6
Continuous
 62
     7
370
    15
100
AcDbLine
 10
90.0201064086
 20
69.095399613
 30
0.0
 11
89.0201118326
 21
69.095399613
 31
0.0
  0
SPLINE
  5
3CB
330
1F
100
AcDbEntity
  8
0
  6
Continuous
 62
     7
370
    15
100
AcDbSpline
210
0.0
220
0.0
230
1.0
 70
    24
 71
     3
 72
     8
 73
     4
 74
     0
 42
0.00000001
 43
0.00000001
 12
1.0
 22
0.0
 32
0.0
 13
1.0
 23
0.0
 33
0.0
 40
0.0
 40
0.0
 40
0.0
 40
0.0
 40
1.0
 40
1.0
 40
1.0
 40
1.0
 10
89.02010938962803
 20
69.59540284360173
 30
0.0
 10
89.02010938962803
 20
69.42833745010444
 30
0.0
 10
89.02010938962803
 20
69.26158456490421
 30
0.0
 10
89.02010938962803
 20
69.09540284360175
 30
0.0
  0
LINE
  5
3CC
330
1F
100
AcDbEntity
  8
0
  6
Continuous
 62
     7
370
    15
100
AcDbLine
 10
88.020109806
 20
69.095399613
 30
0.0
 11
87.0201077795
 21
69.095399613
 31
0.0
  0
LINE
  5
3CD
330
1F
100
AcDbEntity
  8
0
  6
Continuous
 62
     7
370
    15
100
AcDbLine
 10
85.8701106643
 20
70.7954060384
 30
0.0
 11
91.1701109743
 21
70.7954060384
 31
0.0
  0
LINE
  5
3CE
330
1F
100
AcDbEntity
  8
0
  6
Continuous
 62
     7
370
    15
100
AcDbLine
 10
90.670109961
 20
70.2954050251
 30
0.0
 11
86.3701116776
 21
70.2954050251
 31
0.0
  0
LINE
  5
3CF
330
1F
100
AcDbEntity
  8
0
  6
Continuous
 62
     7
370
    15
100
AcDbLine
 10
165.6201093009
 20
74.7953992435
 30
0.0
 11
165.6201093009
 21
73.8954063603
 31
0.0
  0
LINE
  5
3D0
330
1F
100
AcDbEntity
  8
0
  6
Continuous
 62
   144
370
     0
100
AcDbLine
 10
165.6201093009
 20
73.8954063603
 30
0.0
 11
165.5201094708
 21
73.8954063603
 31
0.0
  0
LINE
  5
3D1
330
1F
100
AcDbEntity
  8
0
  6
Continuous
 62
     7
370
    15
100
AcDbLine
 10
80.520109508
 20
72.8954043337
 30
0.0
 11
80.520109508
 21
82.8954022476
 31
0.0
  0
LINE
  5
3D2
330
1F
100
AcDbEntity
  8
0
  6
Continuous
 62
     7
370
    15
100
AcDbLine
 10
165.5201094708
 20
72.8954043337
 30
0.0
 11
165.5201094708
 21
82.8954022476
 31
0.0
  0
LINE
  5
3D3
330
1F
100
AcDbEntity
  8
0
  6
Continuous
 62
     7
370
    15
100
AcDbLine
 10
165.5201094708
 20
72.8954043337
 30
0.0
 11
80.520109508
 21
72.8954043337
 31
0.0
  0
LINE
  5
3D4
330
1F
100
AcDbEntity
  8
0
  6
Continuous
 62
     7
370
    15
100
AcDbLine
 10
165.5201094708
 20
82.8954022476
 30
0.0
 11
80.520109508
 21
82.8954022476
 31
0.0
  0
CIRCLE
  5
3D5
330
1F
100
AcDbEntity
  8
0
  6
Continuous
 62
     7
370
    15
100
AcDbCircle
 10
105.0201093896
 20
77.8954028436
 30
0.0
 40
3.0
  0
CIRCLE
  5
3D6
330
1F
100
AcDbEntity
  8
0
  6
Continuous
 62
     7
370
    15
100
AcDbCircle
 10
141.0201093896
 20
77.8954028436
 30
0.0
 40
3.0
  0
CIRCLE
  5
3D7
330
1F
100
AcDbEntity
  8
0
  6
Continuous
 62
     7
370
    15
100
AcDbCircle
 10
105.0201093896
 20
77.8954028436
 30
0.0
 40
2.5
  0
CIRCLE
  5
3D8
330
1F
100
AcDbEntity
  8
0
  6
Continuous
 62
     7
370
    15
100
AcDbCircle
 10
141.0201093896
 20
77.8954028436
 30
0.0
 40
2.5
  0
LINE
  5
3D9
330
1F
100
AcDbEntity
  8
0
  6
Continuous
 62
     7
370
    15
100
AcDbLine
 10
142.0201112067
 20
75.6953995773
 30
0.0
 11
139.8326766228
 21
75.6953995773
 31
0.0
  0
LINE
  5
3DA
330
1F
100
AcDbEntity
  8
0
  6
Continuous
 62
     7
370
    15
100
AcDbLine
 10
106.2075432873
 20
75.6953995773
 30
0.0
 11
104.0201124286
 21
75.6953995773
 31
0.0
  0
LINE
  5
3DB
330
1F
100
AcDbEntity
  8
0
  6
Continuous
 62
     7
370
    15
100
AcDbLine
 10
139.0201088524
 20
79.3954026052
 30
0.0
 11
139.0201088524
 21
76.3954039761
 31
0.0
  0
LINE
  5
3DC
330
1F
100
AcDbEntity
  8
0
  6
Continuous
 62
     7
370
    15
100
AcDbLine
 10
107.0201110577
 20
76.3954039761
 30
0.0
 11
107.0201110577
 21
79.3954026052
 31
0.0
  0
LINE
  5
3DD
330
1F
100
AcDbEntity
  8
0
  6
Continuous
 62
     7
370
    15
100
AcDbLine
 10
142.0201112067
 20
75.6953995773
 30
0.0
 11
142.0201112067
 21
80.1866915175
 31
0.0
  0
LINE
  5
3DE
330
1F
100
AcDbEntity
  8
0
  6
Continuous
 62
     7
370
    15
100
AcDbLine
 10
104.0201124286
 20
80.1866915175
 30
0.0
 11
104.0201124286
 21
75.6953995773
 31
0.0
  0
DIMENSION
  5
3DF
330
1F
100
AcDbEntity
  8
0
  6
Continuous
 62
     7
370
     0
100
AcDbDimension
  2
_D_15
 10
105.0201093896
 20
90.4721345978
 30
0.0
 11
92.7701093896
 21
90.4721345978
 31
0.0
 70
   160
  1
<>
 71
     2
 42
-1.0
  3
SLDDIMSTYLE0
100
AcDbAlignedDimension
 13
80.5201093896
 23
82.8954028436
 33
0.0
 14
105.0201093896
 24
83.3954028436
 34
0.0
100
AcDbRotatedDimension
  0
DIMENSION
  5
3E9
330
1F
100
AcDbEntity
  8
0
  6
Continuous
 62
     7
370
     0
100
AcDbDimension
  2
_D_16
 10
141.0201093896
 20
90.4721345978
 30
0.0
 11
123.0201093896
 21
90.4721345978
 31
0.0
 70
   160
  1
<>
 71
     2
 42
-1.0
  3
SLDDIMSTYLE0
100
AcDbAlignedDimension
 13
105.0201093896
 23
83.3954028436
 33
0.0
 14
141.0201093896
 24
83.3954028436
 34
0.0
100
AcDbRotatedDimension
  0
DIMENSION
  5
3F3
330
1F
100
AcDbEntity
  8
0
  6
Continuous
 62
     7
370
     0
100
AcDbDimension
  2
_D_17
 10
165.5201093896
 20
90.4721345978
 30
0.0
 11
153.2701093896
 21
90.4721345978
 31
0.0
 70
   160
  1
<>
 71
     2
 42
-1.0
  3
SLDDIMSTYLE0
100
AcDbAlignedDimension
 13
141.0201093896
 23
83.3954028436
 33
0.0
 14
165.5201093896
 24
82.8954028436
 34
0.0
100
AcDbRotatedDimension
  0
DIMENSION
  5
3FD
330
1F
100
AcDbEntity
  8
0
  6
Continuous
 62
     7
370
     0
100
AcDbDimension
  2
_D_18
 10
181.8914471407
 20
77.8954028436
 30
0.0
 11
181.8914471407
 21
87.6288490473
 31
0.0
 70
   160
  1
<>
 71
     2
 42
-1.0
  3
SLDDIMSTYLE1
100
AcDbAlignedDimension
 13
165.5201093896
 23
82.8954028436
 33
0.0
 14
146.5201093896
 24
77.8954028436
 34
0.0
 50
90.0
100
AcDbRotatedDimension
  0
MTEXT
  5
409
330
1F
100
AcDbEntity
  8
0
  6
Continuous
 62
     7
370
     0
100
AcDbMText
 10
67.1315778768
 20
59.85860547
 30
0.0
 40
3.5
 41
0.0
 71
     1
 72
     1
  1
２-Ｍ3深7
  7
SLDTEXTSTYLE1
 73
     1
 44
1.0
  0
LEADER
  5
40A
330
1F
100
AcDbEntity
  8
0
  6
Continuous
 62
     7
370
     0
100
AcDbLeader
  3
SLDDIMSTYLE2
 76
     3
 10
102.7733224832
 20
75.9074519898
 30
0.0
 10
87.1995073892
 20
55.4187192118
 30
0.0
 10
66.9950738916
 20
55.4187192118
 30
0.0
  0
MTEXT
  5
40B
330
1F
100
AcDbEntity
  8
0
  6
Continuous
 62
     7
370
     0
100
AcDbMText
 10
151.7070719103
 20
59.85860547
 30
0.0
 40
3.5
 41
0.0
 71
     1
 72
     1
  1
２-φ5ザグリ 深6
  7
SLDTEXTSTYLE1
 73
     1
 44
1.0
  0
LEADER
  5
40C
330
1F
100
AcDbEntity
  8
0
  6
Continuous
 62
     7
370
     0
100
AcDbLeader
  3
SLDDIMSTYLE2
 76
     3
 10
142.4501964228
 20
75.2581976795
 30
0.0
 10
151.0599343186
 20
55.4187192118
 30
0.0
 10
182.2660098522
 20
55.4187192118
 30
0.0
  0
INSERT
  5
418
330
1F
100
AcDbEntity
  8
0
  6
Continuous
 62
     7
370
     0
100
AcDbBlockReference
  2
SW_CENTERMARKSYMBOL_6
 10
105.0201093896
 20
77.8954028436
 30
0.0
  0
INSERT
  5
424
330
1F
100
AcDbEntity
  8
0
  6
Continuous
 62
     7
370
     0
100
AcDbBlockReference
  2
SW_CENTERMARKSYMBOL_7
 10
141.0201093896
 20
77.8954028436
 30
0.0
  0
ENDSEC
  0
SECTION
  2
OBJECTS
  0
DICTIONARY
  5
C
330
0
100
AcDbDictionary
281
     1
  3
ACAD_GROUP
350
D
  3
ACAD_LAYOUT
350
1A
  3
ACAD_MLINESTYLE
350
17
  3
ACAD_PLOTSETTINGS
350
19
  3
ACAD_PLOTSTYLENAME
350
E
  0
DICTIONARY
  5
D
102
{ACAD_REACTORS
330
C
102
}
330
C
100
AcDbDictionary
281
     1
  0
DICTIONARY
  5
1A
102
{ACAD_REACTORS
330
C
102
}
330
C
100
AcDbDictionary
281
     1
  3
Layout1
350
1E
  3
Layout2
350
26
  3
Model
350
22
  0
DICTIONARY
  5
17
102
{ACAD_REACTORS
330
C
102
}
330
C
100
AcDbDictionary
281
     1
  3
Standard
350
18
  0
DICTIONARY
  5
19
102
{ACAD_REACTORS
330
C
102
}
330
C
100
AcDbDictionary
281
     1
  0
ACDBDICTIONARYWDFLT
  5
E
102
{ACAD_REACTORS
330
C
102
}
330
C
100
AcDbDictionary
281
     1
  3
Normal
350
F
100
AcDbDictionaryWithDefault
340
F
  0
LAYOUT
  5
1E
102
{ACAD_REACTORS
330
1A
102
}
330
1A
100
AcDbPlotSettings
  1

  2
none_device
  4

  6

 40
0.0
 41
0.0
 42
0.0
 43
0.0
 44
0.0
 45
0.0
 46
0.0
 47
0.0
 48
0.0
 49
0.0
140
0.0
141
0.0
142
1.0
143
1.0
 70
   688
 72
     0
 73
     0
 74
     5
  7

 75
    16
147
1.0
148
0.0
149
0.0
100
AcDbLayout
  1
Layout1
 70
     1
 71
     1
 10
0.0
 20
0.0
 11
420.0
 21
297.0
 12
0.0
 22
0.0
 32
0.0
 14
1.0000000000E+20
 24
1.0000000000E+20
 34
1.0000000000E+20
 15
-1.0000000000E+20
 25
-1.0000000000E+20
 35
-1.0000000000E+20
146
0.0
 13
0.0
 23
0.0
 33
0.0
 16
1.0
 26
0.0
 36
0.0
 17
0.0
 27
1.0
 37
0.0
 76
     0
330
1B
  0
LAYOUT
  5
26
102
{ACAD_REACTORS
330
1A
102
}
330
1A
100
AcDbPlotSettings
  1

  2
none_device
  4

  6

 40
0.0
 41
0.0
 42
0.0
 43
0.0
 44
0.0
 45
0.0
 46
0.0
 47
0.0
 48
0.0
 49
0.0
140
0.0
141
0.0
142
1.0
143
1.0
 70
   688
 72
     0
 73
     0
 74
     5
  7

 75
    16
147
1.0
148
0.0
149
0.0
100
AcDbLayout
  1
Layout2
 70
     1
 71
     2
 10
0.0
 20
0.0
 11
0.0
 21
0.0
 12
0.0
 22
0.0
 32
0.0
 14
0.0
 24
0.0
 34
0.0
 15
0.0
 25
0.0
 35
0.0
146
0.0
 13
0.0
 23
0.0
 33
0.0
 16
1.0
 26
0.0
 36
0.0
 17
0.0
 27
1.0
 37
0.0
 76
     0
330
23
  0
LAYOUT
  5
22
102
{ACAD_REACTORS
330
1A
102
}
330
1A
100
AcDbPlotSettings
  1

  2
none_device
  4

  6

 40
0.0
 41
0.0
 42
0.0
 43
0.0
 44
0.0
 45
0.0
 46
0.0
 47
0.0
 48
0.0
 49
0.0
140
0.0
141
0.0
142
1.0
143
1.0
 70
  1712
 72
     0
 73
     0
 74
     0
  7

 75
     0
147
1.0
148
0.0
149
0.0
100
AcDbLayout
  1
Model
 70
     1
 71
     0
 10
0.0
 20
0.0
 11
210.0
 21
297.0
 12
0.0
 22
0.0
 32
0.0
 14
0.0
 24
0.0
 34
0.0
 15
210.0
 25
297.0
 35
0.0
146
0.0
 13
0.0
 23
0.0
 33
0.0
 16
1.0
 26
0.0
 36
0.0
 17
0.0
 27
1.0
 37
0.0
 76
     0
330
1F
331
29
  0
MLINESTYLE
  5
18
102
{ACAD_REACTORS
330
17
102
}
330
17
100
AcDbMlineStyle
  2
Standard
 70
     0
  3

 62
   256
 51
90.0
 52
90.0
 71
     2
 49
0.5
 62
   256
  6
BYLAYER
 49
-0.5
 62
   256
  6
BYLAYER
  0
ACDBPLACEHOLDER
  5
F
102
{ACAD_REACTORS
330
E
102
}
330
E
  0
ENDSEC
  0
EOF
